  0
SECTION
  2
HEADER
  9
$ACADVER
  1
AC1014
  9
$ACADMAINTVER
 70
     9
  9
$DWGCODEPAGE
  3
ANSI_932
  9
$INSBASE
 10
0.0
 20
0.0
 30
0.0
  9
$EXTMIN
 10
-148.6999999999999
 20
-63.50000000000004
 30
-0.00000001
  9
$EXTMAX
 10
15.00000000000127
 20
18.06560374569299
 30
0.00000001
  9
$LIMMIN
 10
-159.2241721086203
 20
-76.27632049155923
  9
$LIMMAX
 10
34.57285162141142
 20
26.1212893498743
  9
$ORTHOMODE
 70
     0
  9
$REGENMODE
 70
     1
  9
$FILLMODE
 70
     1
  9
$QTEXTMODE
 70
     0
  9
$MIRRTEXT
 70
     0
  9
$DRAGMODE
 70
     2
  9
$LTSCALE
 40
1.0
  9
$OSMODE
 70
    55
  9
$ATTMODE
 70
     1
  9
$TEXTSIZE
 40
2.5
  9
$TRACEWID
 40
1.0
  9
$TEXTSTYLE
  7
STANDARD
  9
$CLAYER
  8
AM_0
  9
$CELTYPE
  6
BYLAYER
  9
$CECOLOR
 62
   256
  9
$CELTSCALE
 40
1.0
  9
$DELOBJ
 70
     1
  9
$DISPSILH
 70
     0
  9
$DIMSCALE
 40
1.0
  9
$DIMASZ
 40
2.5
  9
$DIMEXO
 40
1.0
  9
$DIMDLI
 40
12.0
  9
$DIMRND
 40
0.0
  9
$DIMDLE
 40
0.0
  9
$DIMEXE
 40
1.0
  9
$DIMTP
 40
0.1
  9
$DIMTM
 40
0.1
  9
$DIMTXT
 40
3.2
  9
$DIMCEN
 40
0.0
  9
$DIMTSZ
 40
0.0
  9
$DIMTOL
 70
     0
  9
$DIMLIM
 70
     0
  9
$DIMTIH
 70
     0
  9
$DIMTOH
 70
     0
  9
$DIMSE1
 70
     0
  9
$DIMSE2
 70
     0
  9
$DIMTAD
 70
     3
  9
$DIMZIN
 70
     8
  9
$DIMBLK
  1
OPEN30
  9
$DIMASO
 70
     1
  9
$DIMSHO
 70
     1
  9
$DIMPOST
  1

  9
$DIMAPOST
  1
"
  9
$DIMALT
 70
     0
  9
$DIMALTD
 70
     2
  9
$DIMALTF
 40
0.0393701
  9
$DIMLFAC
 40
1.0
  9
$DIMTOFL
 70
     1
  9
$DIMTVP
 40
0.0
  9
$DIMTIX
 70
     0
  9
$DIMSOXD
 70
     0
  9
$DIMSAH
 70
     0
  9
$DIMBLK1
  1

  9
$DIMBLK2
  1

  9
$DIMSTYLE
  2
AM_JIS
  9
$DIMCLRD
 70
   256
  9
$DIMCLRE
 70
   256
  9
$DIMCLRT
 70
     2
  9
$DIMTFAC
 40
0.71
  9
$DIMGAP
 40
1.5
  9
$DIMJUST
 70
     0
  9
$DIMSD1
 70
     0
  9
$DIMSD2
 70
     0
  9
$DIMTOLJ
 70
     0
  9
$DIMTZIN
 70
     0
  9
$DIMALTZ
 70
     0
  9
$DIMALTTZ
 70
     0
  9
$DIMFIT
 70
     3
  9
$DIMUPT
 70
     0
  9
$DIMUNIT
 70
     2
  9
$DIMDEC
 70
     3
  9
$DIMTDEC
 70
     3
  9
$DIMALTU
 70
     2
  9
$DIMALTTD
 70
     2
  9
$DIMTXSTY
  7
ASAMI
  9
$DIMAUNIT
 70
     0
  9
$LUNITS
 70
     2
  9
$LUPREC
 70
     2
  9
$SKETCHINC
 40
1.0
  9
$FILLETRAD
 40
2.5
  9
$AUNITS
 70
     0
  9
$AUPREC
 70
     0
  9
$MENU
  1
.
  9
$ELEVATION
 40
0.0
  9
$PELEVATION
 40
0.0
  9
$THICKNESS
 40
0.0
  9
$LIMCHECK
 70
     0
  9
$BLIPMODE
 70
     0
  9
$CHAMFERA
 40
1.0
  9
$CHAMFERB
 40
1.0
  9
$CHAMFERC
 40
20.0
  9
$CHAMFERD
 40
0.0
  9
$SKPOLY
 70
     0
  9
$TDCREATE
 40
2452836.771637361
  9
$TDUPDATE
 40
2453151.794195984
  9
$TDINDWG
 40
0.0611085880
  9
$TDUSRTIMER
 40
0.0611085880
  9
$USRTIMER
 70
     1
  9
$ANGBASE
 50
0.0
  9
$ANGDIR
 70
     0
  9
$PDMODE
 70
     0
  9
$PDSIZE
 40
0.0
  9
$PLINEWID
 40
0.0
  9
$COORDS
 70
     1
  9
$SPLFRAME
 70
     0
  9
$SPLINETYPE
 70
     6
  9
$SPLINESEGS
 70
     8
  9
$ATTDIA
 70
     1
  9
$ATTREQ
 70
     1
  9
$HANDLING
 70
 12289
  9
$HANDSEED
  5
22C2
  9
$SURFTAB1
 70
     6
  9
$SURFTAB2
 70
     6
  9
$SURFTYPE
 70
     6
  9
$SURFU
 70
     6
  9
$SURFV
 70
     6
  9
$UCSNAME
  2

  9
$UCSORG
 10
0.0
 20
0.0
 30
0.0
  9
$UCSXDIR
 10
1.0
 20
0.0
 30
0.0
  9
$UCSYDIR
 10
0.0
 20
1.0
 30
0.0
  9
$PUCSNAME
  2

  9
$PUCSORG
 10
0.0
 20
0.0
 30
0.0
  9
$PUCSXDIR
 10
1.0
 20
0.0
 30
0.0
  9
$PUCSYDIR
 10
0.0
 20
1.0
 30
0.0
  9
$USERI1
 70
     0
  9
$USERI2
 70
     0
  9
$USERI3
 70
     0
  9
$USERI4
 70
     0
  9
$USERI5
 70
     0
  9
$USERR1
 40
0.0
  9
$USERR2
 40
0.0
  9
$USERR3
 40
0.0
  9
$USERR4
 40
0.0
  9
$USERR5
 40
0.0
  9
$WORLDVIEW
 70
     1
  9
$SHADEDGE
 70
     3
  9
$SHADEDIF
 70
    70
  9
$TILEMODE
 70
     1
  9
$MAXACTVP
 70
    64
  9
$PINSBASE
 10
0.0
 20
0.0
 30
0.0
  9
$PLIMCHECK
 70
     0
  9
$PEXTMIN
 10
1.000000000000000E+20
 20
1.000000000000000E+20
 30
1.000000000000000E+20
  9
$PEXTMAX
 10
-1.000000000000000E+20
 20
-1.000000000000000E+20
 30
-1.000000000000000E+20
  9
$PLIMMIN
 10
0.0
 20
0.0
  9
$PLIMMAX
 10
841.0
 20
594.0
  9
$UNITMODE
 70
     0
  9
$VISRETAIN
 70
     1
  9
$PLINEGEN
 70
     0
  9
$PSLTSCALE
 70
     0
  9
$TREEDEPTH
 70
  3020
  9
$PICKSTYLE
 70
     0
  9
$CMLSTYLE
  2
STANDARD
  9
$CMLJUST
 70
     0
  9
$CMLSCALE
 40
20.0
  9
$PROXYGRAPHICS
 70
     1
  9
$MEASUREMENT
 70
     1
  0
ENDSEC
  0
SECTION
  2
CLASSES
  0
CLASS
  1
ACDBDICTIONARYWDFLT
  2
AcDbDictionaryWithDefault
  3
AutoCAD 2000
 90
        0
280
     0
281
     0
  0
CLASS
  1
ACDBPLACEHOLDER
  2
AcDbPlaceHolder
  3
AutoCAD 2000
 90
        0
280
     0
281
     0
  0
CLASS
  1
LAYOUT
  2
AcDbLayout
  3
AutoCAD 2000
 90
        0
280
     0
281
     0
  0
CLASS
  1
AMGSETTINGSOBJ
  2
AmgSettingsObj
  3
"AcadM|Product Description: AutoCAD Mechanical 2000|Company: Autodesk"
 90
        0
280
     0
281
     0
  0
CLASS
  1
ACME_DOCUMENT
  2
AcMeDbDoc
  3
AcMeServices
 90
        0
280
     0
281
     0
  0
CLASS
  1
ACMESCOPE
  2
AcMeScope
  3
AcMeServices
 90
        0
280
     0
281
     0
  0
CLASS
  1
ACMECOMMANDHISTORY
  2
AcMeCommandHistory
  3
AcMeServices
 90
        0
280
     0
281
     0
  0
CLASS
  1
DICTIONARYVAR
  2
AcDbDictionaryVar
  3
AutoCAD 2000
 90
        0
280
     0
281
     0
  0
CLASS
  1
ACIMSYSVARMAN
  2
AcImSysVarManager
  3
AcMeServices
 90
        0
280
     0
281
     0
  0
CLASS
  1
ACIMREALSYSVAR
  2
AcImRealSysVar
  3
AcMeServices
 90
        0
280
     0
281
     0
  0
CLASS
  1
ACIMINTSYSVAR
  2
AcImIntSysVar
  3
AcMeServices
 90
        0
280
     0
281
     0
  0
CLASS
  1
ACMEDRAWINGMAN
  2
AcMeDrawingMan
  3
AcMeServices
 90
        0
280
     0
281
     0
  0
CLASS
  1
ACMEVIEW
  2
AcMeView
  3
AcMeServices
 90
        0
280
     0
281
     0
  0
CLASS
  1
ACDBENTITYCACHE
  2
AcMeEntityCache
  3
AcMeServices
 90
        0
280
     0
281
     0
  0
CLASS
  1
GSMANAGER
  2
AcMeGSManager
  3
AcMeServices
 90
        0
280
     0
281
     0
  0
CLASS
  1
AmdtInternalReactor
  2
AmdtInternalReactor
  3
AcMeServices
 90
        0
280
     0
281
     0
  0
CLASS
  1
ACMESTATEMGR
  2
AcMeStateMgr
  3
AcMeServices
 90
        0
280
     0
281
     0
  0
CLASS
  1
ACME_DATABASE
  2
AcMeDbDatabase
  3
AcMeServices
 90
        0
280
     0
281
     0
  0
CLASS
  1
ACRFINSADJUSTERMGR
  2
AcRfInsAdjusterMgr
  3
AcMeServices
 90
        0
280
     0
281
     0
  0
CLASS
  1
ACMDATADICTIONARY
  2
AcmDataDictionary
  3
"AcmSymBB|Product Description: AutoCAD Mechanical 2000|Company: Autodesk"
 90
        0
280
     0
281
     0
  0
CLASS
  1
ACMDATAENTRYBLOCK
  2
AcmDataEntryBlock
  3
"AcmSymBB|Product Description: AutoCAD Mechanical 2000|Company: Autodesk"
 90
        0
280
     0
281
     0
  0
CLASS
  1
AMGOBJPROPCFG
  2
AmgObjPropCfg
  3
"AmgLay|Product Description: AutoCAD Mechanical 2000|Company: Autodesk"
 90
        1
280
     0
281
     0
  0
CLASS
  1
ACAMGFILTERDAT
  2
AcAmgFilterDat
  3
"AcadM|Product Description: AutoCAD Mechanical 2000|Company: Autodesk"
 90
        0
280
     0
281
     0
  0
CLASS
  1
LAYER_INDEX
  2
AcDbLayerIndex
  3
AutoCAD 2000
 90
        0
280
     0
281
     0
  0
CLASS
  1
IDBUFFER
  2
AcDbIdBuffer
  3
AutoCAD 2000
 90
        0
280
     0
281
     0
  0
CLASS
  1
ACIMSTRSYSVAR
  2
AcImStrSysVar
  3
AcMeServices
 90
        0
280
     0
281
     0
  0
CLASS
  1
ACMSTANDARDJIS
  2
AcmStandardJIS
  3
"AcmSymBB|Product Description: AutoCAD Mechanical 2000|Company: Autodesk"
 90
        0
280
     0
281
     0
  0
CLASS
  1
ACMSURFSTANDARDJIS
  2
AcmSurfTextStdJIS
  3
"AcmSymBB|Product Description: AutoCAD Mechanical 2000|Company: Autodesk"
 90
        0
280
     0
281
     0
  0
CLASS
  1
ACMFCFSTANDARDJIS
  2
AcmFCFStdJIS
  3
"AcmSymBB|Product Description: AutoCAD Mechanical 2000|Company: Autodesk"
 90
        0
280
     0
281
     0
  0
CLASS
  1
ACMWELDSTANDARDJIS
  2
AcmWeldingStdJIS
  3
"AcmSymBB|Product Description: AutoCAD Mechanical 2000|Company: Autodesk"
 90
        0
280
     0
281
     0
  0
CLASS
  1
ACMIDSTANDARDJIS
  2
AcmIdStdJIS
  3
"AcmSymBB|Product Description: AutoCAD Mechanical 2000|Company: Autodesk"
 90
        0
280
     0
281
     0
  0
CLASS
  1
ACMDATUMSTANDARDJIS
  2
AcmDatumStdJIS
  3
"AcmSymBB|Product Description: AutoCAD Mechanical 2000|Company: Autodesk"
 90
        0
280
     0
281
     0
  0
CLASS
  1
ACMBOMSTANDARDJIS
  2
AcmBOMStdJIS
  3
"AcmSymBB|Product Description: AutoCAD Mechanical 2000|Company: Autodesk"
 90
        0
280
     0
281
     0
  0
CLASS
  1
ACMSTANDARDANSI
  2
AcmStandardANSI
  3
"AcmSymBB|Product Description: AutoCAD Mechanical 2000|Company: Autodesk"
 90
        0
280
     0
281
     0
  0
CLASS
  1
ACMSURFSTANDARDANSI
  2
AcmSurfTextStdANSI
  3
"AcmSymBB|Product Description: AutoCAD Mechanical 2000|Company: Autodesk"
 90
        0
280
     0
281
     0
  0
CLASS
  1
ACMFCFSTANDARDANSI
  2
AcmFCFStdANSI
  3
"AcmSymBB|Product Description: AutoCAD Mechanical 2000|Company: Autodesk"
 90
        0
280
     0
281
     0
  0
CLASS
  1
ACMWELDSTANDARDANSI
  2
AcmWeldingStdANSI
  3
"AcmSymBB|Product Description: AutoCAD Mechanical 2000|Company: Autodesk"
 90
        0
280
     0
281
     0
  0
CLASS
  1
ACMIDSTANDARDANSI
  2
AcmIdStdANSI
  3
"AcmSymBB|Product Description: AutoCAD Mechanical 2000|Company: Autodesk"
 90
        0
280
     0
281
     0
  0
CLASS
  1
ACMDATUMSTANDARDANSI
  2
AcmDatumStdANSI
  3
"AcmSymBB|Product Description: AutoCAD Mechanical 2000|Company: Autodesk"
 90
        0
280
     0
281
     0
  0
CLASS
  1
ACMBOMSTANDARDANSI
  2
AcmBOMStdANSI
  3
"AcmSymBB|Product Description: AutoCAD Mechanical 2000|Company: Autodesk"
 90
        0
280
     0
281
     0
  0
CLASS
  1
ACMSTANDARDBSI
  2
AcmStandardBSI
  3
"AcmSymBB|Product Description: AutoCAD Mechanical 2000|Company: Autodesk"
 90
        0
280
     0
281
     0
  0
CLASS
  1
ACMSURFSTANDARDBSI
  2
AcmSurfTextStdBSI
  3
"AcmSymBB|Product Description: AutoCAD Mechanical 2000|Company: Autodesk"
 90
        0
280
     0
281
     0
  0
CLASS
  1
ACMFCFSTANDARDBSI
  2
AcmFCFStdBSI
  3
"AcmSymBB|Product Description: AutoCAD Mechanical 2000|Company: Autodesk"
 90
        0
280
     0
281
     0
  0
CLASS
  1
ACMWELDSTANDARDBSI
  2
AcmWeldingStdBSI
  3
"AcmSymBB|Product Description: AutoCAD Mechanical 2000|Company: Autodesk"
 90
        0
280
     0
281
     0
  0
CLASS
  1
ACMIDSTANDARDBSI
  2
AcmIdStdBSI
  3
"AcmSymBB|Product Description: AutoCAD Mechanical 2000|Company: Autodesk"
 90
        0
280
     0
281
     0
  0
CLASS
  1
ACMDATUMSTANDARDBSI
  2
AcmDatumStdBSI
  3
"AcmSymBB|Product Description: AutoCAD Mechanical 2000|Company: Autodesk"
 90
        0
280
     0
281
     0
  0
CLASS
  1
ACMBOMSTANDARDBSI
  2
AcmBOMStdBSI
  3
"AcmSymBB|Product Description: AutoCAD Mechanical 2000|Company: Autodesk"
 90
        0
280
     0
281
     0
  0
CLASS
  1
LONG_TRANSACTION
  2
AcDbLongTransaction
  3
AutoCAD 2000
 90
        0
280
     0
281
     0
  0
CLASS
  1
LWPOLYLINE
  2
AcDbPolyline
  3
AutoCAD 2000
 90
        0
280
     0
281
     1
  0
CLASS
  1
HATCH
  2
AcDbHatch
  3
AutoCAD 2000
 90
        0
280
     0
281
     1
  0
CLASS
  1
XRECORD
  2
AcDbXrecord
  3
AutoCAD 2000
 90
        0
280
     0
281
     0
  0
ENDSEC
  0
SECTION
  2
TABLES
  0
TABLE
  2
VPORT
  5
8
330
0
100
AcDbSymbolTable
 70
     3
  0
VPORT
  5
2297
330
8
100
AcDbSymbolTableRecord
100
AcDbViewportTableRecord
  2
*ACTIVE
 70
     0
 10
0.0
 20
0.0
 11
1.0
 21
1.0
 12
-66.85003489388917
 22
-22.71819540078021
 13
0.0
 23
0.0
 14
2.5
 24
2.5
 15
10.0
 25
10.0
 16
0.0
 26
0.0
 36
1.0
 17
0.0
 27
0.0
 37
0.0
 40
104.9781100389577
 41
1.56570841889117
 42
50.0
 43
0.0
 44
0.0
 50
0.0
 51
0.0
 71
     0
 72
   100
 73
     1
 74
     3
 75
     0
 76
     0
 77
     0
 78
     0
  0
ENDTAB
  0
TABLE
  2
LTYPE
  5
5
330
0
100
AcDbSymbolTable
 70
    10
  0
LTYPE
  5
14
330
5
100
AcDbSymbolTableRecord
100
AcDbLinetypeTableRecord
  2
BYBLOCK
 70
     0
  3

 72
    65
 73
     0
 40
0.0
  0
LTYPE
  5
15
330
5
100
AcDbSymbolTableRecord
100
AcDbLinetypeTableRecord
  2
BYLAYER
 70
     0
  3

 72
    65
 73
     0
 40
0.0
  0
LTYPE
  5
16
330
5
100
AcDbSymbolTableRecord
100
AcDbLinetypeTableRecord
  2
CONTINUOUS
 70
     0
  3
Solid line
 72
    65
 73
     0
 40
0.0
  0
LTYPE
  5
4B
330
5
100
AcDbSymbolTableRecord
100
AcDbLinetypeTableRecord
  2
AM_ISO02W050
 70
     0
  3
__ __ __ __ __ __ __ __ __ __ __ __ __ __ __
 72
    65
 73
     2
 40
7.5
 49
6.0
 74
     0
 49
-1.5
 74
     0
  0
LTYPE
  5
4C
330
5
100
AcDbSymbolTableRecord
100
AcDbLinetypeTableRecord
  2
AM_ISO08W050
 70
     0
  3
____ . ____ . ____ . ____ . ____ . ____ . ____
 72
    65
 73
     4
 40
18.0
 49
12.0
 74
     0
 49
-1.5
 74
     0
 49
3.0
 74
     0
 49
-1.5
 74
     0
  0
LTYPE
  5
4D
330
5
100
AcDbSymbolTableRecord
100
AcDbLinetypeTableRecord
  2
AM_ISO09W050
 70
     0
  3
_____ . . _____ . . _____ . . ____ .. ____
 72
    65
 73
     6
 40
22.5
 49
12.0
 74
     0
 49
-1.5
 74
     0
 49
3.0
 74
     0
 49
-1.5
 74
     0
 49
3.0
 74
     0
 49
-1.5
 74
     0
  0
LTYPE
  5
4E
330
5
100
AcDbSymbolTableRecord
100
AcDbLinetypeTableRecord
  2
AMCONSTR
 70
     0
  3
_______________________
 72
    65
 73
     2
 40
9999.0
 49
9999.0
 74
     0
 49
0.0
 74
     0
  0
LTYPE
  5
4F
330
5
100
AcDbSymbolTableRecord
100
AcDbLinetypeTableRecord
  2
AM_ISO02W050X2
 70
     0
  3
 _ _ _ _ _ _ _ _ _ _ _ _
 72
    65
 73
     2
 40
3.75
 49
3.0
 74
     0
 49
-0.75
 74
     0
  0
LTYPE
  5
50
330
5
100
AcDbSymbolTableRecord
100
AcDbLinetypeTableRecord
  2
AM_ISO08W050X2
 70
     0
  3
__ . __ . __ . __ . __ . __
 72
    65
 73
     4
 40
9.0
 49
6.0
 74
     0
 49
-0.75
 74
     0
 49
1.5
 74
     0
 49
-0.75
 74
     0
  0
LTYPE
  5
53
330
5
100
AcDbSymbolTableRecord
100
AcDbLinetypeTableRecord
  2
AMZIGZAG
 70
     0
  3
/\/-/\/-/\/-/\/-/\/-/\/
 72
    65
 73
     2
 40
11.00009999999999
 49
0.0001
 74
     4
 75
   135
340
52
 46
0.04
 50
0.0
 44
0.0
 45
0.0
 49
-11.0
 74
     0
  0
LTYPE
  5
166
330
5
100
AcDbSymbolTableRecord
100
AcDbLinetypeTableRecord
  2
ACJISTGL
 70
     0
  3
_ _ _ _ _
 72
    65
 73
     2
 40
3.0
 49
2.0
 74
     0
 49
-1.0
 74
     0
  0
LTYPE
  5
26A
330
5
100
AcDbSymbolTableRecord
100
AcDbLinetypeTableRecord
  2
ACJISTGB
 70
     0
  3
__ . . __ . .
 72
    65
 73
     6
 40
9.0
 49
4.0
 74
     0
 49
-1.0
 74
     0
 49
1.0
 74
     0
 49
-1.0
 74
     0
 49
1.0
 74
     0
 49
-1.0
 74
     0
  0
ENDTAB
  0
TABLE
  2
LAYER
  5
2
330
0
100
AcDbSymbolTable
 70
     7
  0
LAYER
  5
10
330
2
100
AcDbSymbolTableRecord
100
AcDbLayerTableRecord
  2
0
 70
     0
 62
     7
  6
CONTINUOUS
  0
LAYER
  5
3F9
330
2
100
AcDbSymbolTableRecord
100
AcDbLayerTableRecord
  2
AM_0
 70
     0
 62
     7
  6
CONTINUOUS
  0
LAYER
  5
BD4
330
2
100
AcDbSymbolTableRecord
100
AcDbLayerTableRecord
  2
AM_11
 70
     0
 62
     3
  6
AM_ISO09W050
  0
LAYER
  5
BD5
330
2
100
AcDbSymbolTableRecord
100
AcDbLayerTableRecord
  2
AM_7
 70
     0
 62
     4
  6
AM_ISO08W050
  0
LAYER
  5
BD6
330
2
100
AcDbSymbolTableRecord
100
AcDbLayerTableRecord
  2
AM_5
 70
     0
 62
     3
  6
CONTINUOUS
  0
LAYER
  5
BD7
330
2
100
AcDbSymbolTableRecord
100
AcDbLayerTableRecord
  2
DEFPOINTS
 70
     0
 62
     7
  6
CONTINUOUS
  0
LAYER
  5
E59
330
2
100
AcDbSymbolTableRecord
100
AcDbLayerTableRecord
  2
AM_6
 70
     0
 62
     2
  6
CONTINUOUS
  0
ENDTAB
  0
TABLE
  2
STYLE
  5
3
330
0
100
AcDbSymbolTable
 70
     5
  0
STYLE
  5
11
330
3
100
AcDbSymbolTableRecord
100
AcDbTextStyleTableRecord
  2
STANDARD
 70
     0
 40
0.0
 41
1.0
 50
0.0
 71
     0
 42
2.5
  3
simplex.shx
  4
EXTFONT.SHX
  0
STYLE
  5
52
330
3
100
AcDbSymbolTableRecord
100
AcDbTextStyleTableRecord
  2

 70
     1
 40
0.0
 41
1.0
 50
0.0
 71
     0
 42
2.5
  3
ltypeshp.shx
  4

  0
STYLE
  5
6B
330
3
100
AcDbSymbolTableRecord
100
AcDbTextStyleTableRecord
  2
ASAMI
 70
     0
 40
0.0
 41
1.0
 50
0.0
 71
     0
 42
2.5
  3
simplex.shx
  4
EXTFONT.SHX
  0
STYLE
  5
262
330
3
100
AcDbSymbolTableRecord
100
AcDbTextStyleTableRecord
  2
ACJISTS
 70
     0
 40
1.0
 41
1.0
 50
0.0
 71
     0
 42
2.5
  3
simplex.shx
  4
bigfont.shx
  0
STYLE
  5
269
330
3
100
AcDbSymbolTableRecord
100
AcDbTextStyleTableRecord
  2
ACJISGDT
 70
     0
 40
0.0
 41
1.0
 50
0.0
 71
     0
 42
2.5
  3
amgdtans.shx
  4

  0
ENDTAB
  0
TABLE
  2
VIEW
  5
6
330
0
100
AcDbSymbolTable
 70
     0
  0
ENDTAB
  0
TABLE
  2
UCS
  5
7
330
0
100
AcDbSymbolTable
 70
     0
  0
ENDTAB
  0
TABLE
  2
APPID
  5
9
330
0
100
AcDbSymbolTable
 70
    12
  0
APPID
  5
12
330
9
100
AcDbSymbolTableRecord
100
AcDbRegAppTableRecord
  2
ACAD
 70
     0
  0
APPID
  5
30
330
9
100
AcDbSymbolTableRecord
100
AcDbRegAppTableRecord
  2
MCAD_NO_VIS
 70
     0
  0
APPID
  5
31
330
9
100
AcDbSymbolTableRecord
100
AcDbRegAppTableRecord
  2
ACAD_TEMP_GRAPHIC
 70
     0
  0
APPID
  5
2C2
330
9
100
AcDbSymbolTableRecord
100
AcDbRegAppTableRecord
  2
GENIUS_GENDTOL_13
 70
     0
  0
APPID
  5
339
330
9
100
AcDbSymbolTableRecord
100
AcDbRegAppTableRecord
  2
GENIUS_GENODEF_13
 70
     0
  0
APPID
  5
33A
330
9
100
AcDbSymbolTableRecord
100
AcDbRegAppTableRecord
  2
GENIUS_GENOBJ-N-RSBK_13
 70
     0
  0
APPID
  5
33B
330
9
100
AcDbSymbolTableRecord
100
AcDbRegAppTableRecord
  2
GENIUS_GENOBJ-N-LIB_13
 70
     0
  0
APPID
  5
33C
330
9
100
AcDbSymbolTableRecord
100
AcDbRegAppTableRecord
  2
GENIUS_GENSCALE_13
 70
     0
  0
APPID
  5
378
330
9
100
AcDbSymbolTableRecord
100
AcDbRegAppTableRecord
  2
GENIUS_GENDIMSH_14
 70
     0
  0
APPID
  5
BD8
330
9
100
AcDbSymbolTableRecord
100
AcDbRegAppTableRecord
  2
GENIUS_GENOBJ-N-CEN_13
 70
     0
  0
APPID
  5
BD9
330
9
100
AcDbSymbolTableRecord
100
AcDbRegAppTableRecord
  2
GENIUS_GENFIL_13
 70
     0
  0
APPID
  5
BDA
330
9
100
AcDbSymbolTableRecord
100
AcDbRegAppTableRecord
  2
GENIUS_GENOBJ-N-CHA_13
 70
     0
  0
ENDTAB
  0
TABLE
  2
DIMSTYLE
  5
A
330
0
100
AcDbSymbolTable
 70
     8
  0
DIMSTYLE
105
58
102
{ACAD_REACTORS
330
D71
330
1C41
330
1F42
330
1F72
102
}
330
A
100
AcDbSymbolTableRecord
100
AcDbDimStyleTableRecord
  2
AM_JIS
 70
     0
  3

  4
"
  5
OPEN30
  6

  7

 40
1.0
 41
2.5
 42
1.0
 43
12.0
 44
1.0
 45
0.0
 46
0.0
 47
0.1
 48
0.1
140
3.2
141
0.0
142
0.0
143
0.0393701
144
1.0
145
0.0
146
0.71
147
1.5
 71
     0
 72
     0
 73
     0
 74
     0
 75
     0
 76
     0
 77
     3
 78
     8
170
     0
171
     2
172
     1
173
     0
174
     0
175
     0
176
   256
177
   256
178
     2
270
     2
271
     3
272
     3
273
     2
274
     2
340
6B
275
     0
280
     0
281
     0
282
     0
283
     0
284
     0
285
     0
286
     0
287
     3
288
     0
  0
DIMSTYLE
105
5F
330
A
100
AcDbSymbolTableRecord
100
AcDbDimStyleTableRecord
  2
AM_JIS$3
 70
     0
  3

  4
"
  5
OPEN30
  6

  7

 40
1.0
 41
2.5
 42
1.0
 43
10.0
 44
1.0
 45
0.0
 46
0.0
 47
0.1
 48
0.1
140
3.2
141
0.0
142
0.0
143
0.0393701
144
1.0
145
0.0
146
0.71
147
1.5
 71
     0
 72
     0
 73
     0
 74
     1
 75
     0
 76
     0
 77
     3
 78
     8
170
     0
171
     2
172
     0
173
     0
174
     0
175
     0
176
   256
177
   256
178
     2
270
     2
271
     2
272
     3
273
     2
274
     2
340
6B
275
     0
280
     0
281
     0
282
     0
283
     0
284
     0
285
     0
286
     0
287
     0
288
     1
  0
DIMSTYLE
105
60
330
A
100
AcDbSymbolTableRecord
100
AcDbDimStyleTableRecord
  2
AM_JIS$4
 70
     0
  3

  4
"
  5
OPEN30
  6

  7

 40
1.0
 41
2.5
 42
1.0
 43
10.0
 44
1.0
 45
0.0
 46
0.0
 47
0.1
 48
0.1
140
3.2
141
0.0
142
0.0
143
0.0393701
144
1.0
145
0.0
146
0.71
147
1.5
 71
     0
 72
     0
 73
     0
 74
     1
 75
     0
 76
     0
 77
     3
 78
     8
170
     0
171
     2
172
     0
173
     0
174
     0
175
     0
176
   256
177
   256
178
     2
270
     2
271
     2
272
     3
273
     2
274
     2
340
6B
275
     0
280
     0
281
     0
282
     0
283
     0
284
     0
285
     0
286
     0
287
     0
288
     1
  0
DIMSTYLE
105
61
330
A
100
AcDbSymbolTableRecord
100
AcDbDimStyleTableRecord
  2
AM_JIS$6
 70
     0
  3

  4
"
  5
OPEN30
  6

  7

 40
1.0
 41
2.5
 42
1.0
 43
10.0
 44
1.0
 45
0.0
 46
0.0
 47
0.1
 48
0.1
140
3.2
141
0.0
142
0.0
143
0.0393701
144
1.0
145
0.0
146
0.71
147
1.5
 71
     0
 72
     0
 73
     0
 74
     0
 75
     0
 76
     0
 77
     0
 78
     8
170
     0
171
     2
172
     1
173
     0
174
     0
175
     0
176
   256
177
   256
178
     2
270
     2
271
     2
272
     2
273
     2
274
     2
340
6B
275
     0
280
     0
281
     0
282
     0
283
     0
284
     0
285
     0
286
     0
287
     3
288
     0
  0
DIMSTYLE
105
62
330
A
100
AcDbSymbolTableRecord
100
AcDbDimStyleTableRecord
  2
AM_JIS$7
 70
     0
  3

  4
"
  5
OPEN30
  6

  7

 40
1.0
 41
2.5
 42
1.0
 43
10.0
 44
1.0
 45
0.0
 46
0.0
 47
0.1
 48
0.1
140
3.2
141
0.0
142
0.0
143
0.0393701
144
1.0
145
0.0
146
0.71
147
1.5
 71
     0
 72
     0
 73
     0
 74
     0
 75
     0
 76
     0
 77
     3
 78
     8
170
     0
171
     2
172
     1
173
     0
174
     0
175
     0
176
   256
177
   256
178
     2
270
     2
271
     2
272
     3
273
     2
274
     2
340
6B
275
     0
280
     0
281
     0
282
     0
283
     0
284
     0
285
     0
286
     0
287
     3
288
     0
  0
DIMSTYLE
105
63
330
A
100
AcDbSymbolTableRecord
100
AcDbDimStyleTableRecord
  2
AM_JIS$SF
 70
     0
  3

  4
"
  5
OPEN30
  6

  7

 40
1.0
 41
2.5
 42
1.0
 43
10.0
 44
1.0
 45
0.0
 46
0.0
 47
0.1
 48
0.1
140
3.2
141
0.0
142
0.0
143
0.0393701
144
1.0
145
0.0
146
0.71
147
1.5
 71
     0
 72
     0
 73
     0
 74
     0
 75
     1
 76
     1
 77
     3
 78
     8
170
     0
171
     2
172
     1
173
     0
174
     0
175
     0
176
   256
177
   256
178
     2
270
     2
271
     2
272
     2
273
     2
274
     2
340
6B
275
     0
280
     0
281
     0
282
     0
283
     0
284
     0
285
     0
286
     0
287
     3
288
     0
  0
DIMSTYLE
105
68
330
A
100
AcDbSymbolTableRecord
100
AcDbDimStyleTableRecord
  2
AM_JIS$SH
 70
     0
  3

  4
"
  5

  6
GENAXEH
  7
OPEN30
 40
1.0
 41
2.5
 42
1.0
 43
10.0
 44
1.0
 45
0.0
 46
0.0
 47
0.1
 48
0.1
140
3.2
141
0.0
142
0.0
143
0.0393701
144
2.0
145
0.0
146
0.71
147
1.5
 71
     0
 72
     0
 73
     0
 74
     0
 75
     1
 76
     1
 77
     3
 78
     8
170
     0
171
     2
172
     1
173
     1
174
     0
175
     0
176
   256
177
   256
178
     2
270
     2
271
     2
272
     2
273
     2
274
     2
340
6B
275
     0
280
     0
281
     0
282
     0
283
     0
284
     0
285
     0
286
     0
287
     3
288
     0
  0
DIMSTYLE
105
B34
330
A
100
AcDbSymbolTableRecord
100
AcDbDimStyleTableRecord
  2
AM_JIS$2
 70
     0
  3

  4
"
  5
OPEN30
  6

  7

 40
1.0
 41
2.5
 42
1.0
 43
12.0
 44
1.0
 45
0.0
 46
0.0
 47
0.1
 48
0.1
140
3.2
141
0.0
142
0.0
143
0.0393701
144
1.0
145
0.0
146
0.71
147
1.5
 71
     0
 72
     0
 73
     0
 74
     0
 75
     0
 76
     0
 77
     3
 78
     8
170
     0
171
     2
172
     1
173
     0
174
     0
175
     0
176
   256
177
   256
178
     2
270
     2
271
     3
272
     3
273
     2
274
     2
340
6B
275
     0
280
     0
281
     0
282
     0
283
     0
284
     0
285
     0
286
     0
287
     3
288
     0
  0
ENDTAB
  0
TABLE
  2
BLOCK_RECORD
  5
1
330
0
100
AcDbSymbolTable
 70
     9
  0
BLOCK_RECORD
  5
1F
102
{ACAD_XDICTIONARY
360
74
102
}
330
1
100
AcDbSymbolTableRecord
100
AcDbBlockTableRecord
  2
*MODEL_SPACE
  0
BLOCK_RECORD
  5
101
102
{ACAD_XDICTIONARY
360
22C0
102
}
330
1
100
AcDbSymbolTableRecord
100
AcDbBlockTableRecord
  2
*PAPER_SPACE
  0
BLOCK_RECORD
  5
59
330
1
100
AcDbSymbolTableRecord
100
AcDbBlockTableRecord
  2
_OPEN30
  0
BLOCK_RECORD
  5
64
330
1
100
AcDbSymbolTableRecord
100
AcDbBlockTableRecord
  2
GENAXEH
  0
BLOCK_RECORD
  5
DDA
330
1
100
AcDbSymbolTableRecord
100
AcDbBlockTableRecord
  2
*D5
  0
BLOCK_RECORD
  5
1C42
330
1
100
AcDbSymbolTableRecord
100
AcDbBlockTableRecord
  2
*D6
  0
BLOCK_RECORD
  5
1F43
330
1
100
AcDbSymbolTableRecord
100
AcDbBlockTableRecord
  2
*D7
  0
BLOCK_RECORD
  5
1F73
330
1
100
AcDbSymbolTableRecord
100
AcDbBlockTableRecord
  2
*D8
  0
ENDTAB
  0
ENDSEC
  0
SECTION
  2
BLOCKS
  0
BLOCK
  5
20
330
1F
100
AcDbEntity
  8
0
100
AcDbBlockBegin
  2
*MODEL_SPACE
 70
     0
 10
0.0
 20
0.0
 30
0.0
  3
*MODEL_SPACE
  1

  0
ENDBLK
  5
21
330
1F
100
AcDbEntity
  8
0
100
AcDbBlockEnd
  0
BLOCK
  5
103
330
101
100
AcDbEntity
 67
     1
  8
0
100
AcDbBlockBegin
  2
*PAPER_SPACE
 70
     0
 10
0.0
 20
0.0
 30
0.0
  3
*PAPER_SPACE
  1

  0
ENDBLK
  5
104
330
101
100
AcDbEntity
 67
     1
  8
0
100
AcDbBlockEnd
  0
BLOCK
  5
5D
330
59
100
AcDbEntity
  8
0
100
AcDbBlockBegin
  2
_OPEN30
 70
     0
 10
0.0
 20
0.0
 30
0.0
  3
_OPEN30
  1

  0
LINE
  5
5A
330
59
100
AcDbEntity
  8
0
 62
     0
100
AcDbLine
 10
-1.0
 20
0.26794919
 30
0.0
 11
0.0
 21
0.0
 31
0.0
  0
LINE
  5
5B
330
59
100
AcDbEntity
  8
0
 62
     0
100
AcDbLine
 10
0.0
 20
0.0
 30
0.0
 11
-1.0
 21
-0.26794919
 31
0.0
  0
LINE
  5
5C
330
59
100
AcDbEntity
  8
0
 62
     0
100
AcDbLine
 10
0.0
 20
0.0
 30
0.0
 11
-1.0
 21
0.0
 31
0.0
  0
ENDBLK
  5
5E
330
59
100
AcDbEntity
  8
0
100
AcDbBlockEnd
  0
BLOCK
  5
66
330
64
100
AcDbEntity
  8
0
100
AcDbBlockBegin
  2
GENAXEH
 70
     0
 10
0.0
 20
0.0
 30
0.0
  3
GENAXEH
  1

  0
LINE
  5
65
330
64
100
AcDbEntity
  8
0
100
AcDbLine
 10
-1.0
 20
0.0
 30
0.0
 11
1.0
 21
0.0
 31
0.0
  0
ENDBLK
  5
67
330
64
100
AcDbEntity
  8
0
100
AcDbBlockEnd
  0
BLOCK
  5
DE4
330
DDA
100
AcDbEntity
  8
0
100
AcDbBlockBegin
  2
*D5
 70
     1
 10
0.0
 20
0.0
 30
0.0
  3
*D5
  1

  0
LINE
  5
20C5
330
DDA
100
AcDbEntity
  8
AM_5
100
AcDbLine
 10
-0.0000000000003095
 20
-11.0000000000002
 30
0.0
 11
-0.0000000000003114
 21
-42.00000000000002
 31
0.0
  0
LINE
  5
20C6
330
DDA
100
AcDbEntity
  8
AM_5
100
AcDbLine
 10
-130.0
 20
-16.00000000000004
 30
0.0
 11
-130.0
 21
-42.00000000000002
 31
0.0
  0
LINE
  5
20C7
330
DDA
100
AcDbEntity
  8
AM_5
100
AcDbLine
 10
-2.500000000000311
 20
-41.00000000000003
 30
0.0
 11
-127.5
 21
-41.00000000000003
 31
0.0
  0
INSERT
  5
20C8
330
DDA
100
AcDbEntity
  8
AM_5
100
AcDbBlockReference
  2
_OPEN30
 10
-0.0000000000003114
 20
-41.00000000000003
 30
0.0
 41
2.5
 42
2.5
 43
2.5
  0
INSERT
  5
20C9
330
DDA
100
AcDbEntity
  8
AM_5
100
AcDbBlockReference
  2
_OPEN30
 10
-130.0
 20
-41.00000000000003
 30
0.0
 41
2.5
 42
2.5
 43
2.5
 50
180.0
  0
MTEXT
  5
20CA
330
DDA
100
AcDbEntity
  8
AM_5
 62
     2
100
AcDbMText
 10
-65.00000000000015
 20
-37.90000000000002
 30
0.0
 40
3.2
 41
0.0
 71
     5
 72
     1
  1
130
  7
ASAMI
1001
ACAD
1000
MTEXTBEGIN
1070
    73
1070
     1
1070
    44
1040
1.0
1070
    74
1070
     0
1000
MTEXTEND
  0
POINT
  5
20CB
330
DDA
100
AcDbEntity
  8
DEFPOINTS
 62
     0
100
AcDbPoint
 10
-0.0000000000003095
 20
-10.0000000000002
 30
0.0
  0
POINT
  5
20CC
330
DDA
100
AcDbEntity
  8
DEFPOINTS
 62
     0
100
AcDbPoint
 10
-130.0
 20
-15.00000000000005
 30
0.0
  0
POINT
  5
20CD
330
DDA
100
AcDbEntity
  8
DEFPOINTS
 62
     0
100
AcDbPoint
 10
-130.0
 20
-41.00000000000003
 30
0.0
  0
ENDBLK
  5
DE5
330
DDA
100
AcDbEntity
  8
0
100
AcDbBlockEnd
  0
BLOCK
  5
1C4C
330
1C42
100
AcDbEntity
  8
0
100
AcDbBlockBegin
  2
*D6
 70
     1
 10
0.0
 20
0.0
 30
0.0
  3
*D6
  1

  0
LINE
  5
20BC
330
1C42
100
AcDbEntity
  8
AM_5
100
AcDbLine
 10
-130.0
 20
15.99999999999995
 30
0.0
 11
-145.0
 21
15.99999999999996
 31
0.0
  0
LINE
  5
20BD
330
1C42
100
AcDbEntity
  8
AM_5
100
AcDbLine
 10
-130.0
 20
-16.00000000000004
 30
0.0
 11
-145.0
 21
-16.00000000000004
 31
0.0
  0
LINE
  5
20BE
330
1C42
100
AcDbEntity
  8
AM_5
100
AcDbLine
 10
-144.0
 20
13.49999999999996
 30
0.0
 11
-144.0
 21
-13.50000000000004
 31
0.0
  0
INSERT
  5
20BF
330
1C42
100
AcDbEntity
  8
AM_5
100
AcDbBlockReference
  2
_OPEN30
 10
-144.0
 20
15.99999999999996
 30
0.0
 41
2.5
 42
2.5
 43
2.5
 50
90.0
  0
INSERT
  5
20C0
330
1C42
100
AcDbEntity
  8
AM_5
100
AcDbBlockReference
  2
_OPEN30
 10
-144.0
 20
-16.00000000000004
 30
0.0
 41
2.5
 42
2.5
 43
2.5
 50
270.0
  0
MTEXT
  5
20C1
330
1C42
100
AcDbEntity
  8
AM_5
 62
     2
100
AcDbMText
 10
-147.0999999999999
 20
-0.0000000000000645
 30
0.0
 40
3.2
 41
0.0
 71
     5
 72
     1
  1
%%c32
  7
ASAMI
 11
0.0000000000000001
 21
1.0
 31
0.0
1001
ACAD
1000
MTEXTBEGIN
1070
    73
1070
     1
1070
    44
1040
1.0
1070
    74
1070
     0
1000
MTEXTEND
  0
POINT
  5
20C2
330
1C42
100
AcDbEntity
  8
DEFPOINTS
 62
     0
100
AcDbPoint
 10
-129.0
 20
15.99999999999995
 30
0.0
  0
POINT
  5
20C3
330
1C42
100
AcDbEntity
  8
DEFPOINTS
 62
     0
100
AcDbPoint
 10
-129.0
 20
-16.00000000000004
 30
0.0
  0
POINT
  5
20C4
330
1C42
100
AcDbEntity
  8
DEFPOINTS
 62
     0
100
AcDbPoint
 10
-144.0
 20
-16.00000000000004
 30
0.0
  0
ENDBLK
  5
1C4D
330
1C42
100
AcDbEntity
  8
0
100
AcDbBlockEnd
  0
BLOCK
  5
1F4D
330
1F43
100
AcDbEntity
  8
0
100
AcDbBlockBegin
  2
*D7
 70
     1
 10
0.0
 20
0.0
 30
0.0
  3
*D7
  1

  0
LINE
  5
204D
330
1F43
100
AcDbEntity
  8
AM_5
100
AcDbLine
 10
1.000000000000011
 20
15.0
 30
0.0
 11
15.00000000000127
 21
14.99999999999999
 31
0.0
  0
LINE
  5
204E
330
1F43
100
AcDbEntity
  8
AM_5
100
AcDbLine
 10
0.9999999999994656
 20
-15.0
 30
0.0
 11
15.00000000000127
 21
-15.0
 31
0.0
  0
LINE
  5
204F
330
1F43
100
AcDbEntity
  8
AM_5
100
AcDbLine
 10
14.00000000000127
 20
12.49999999999999
 30
0.0
 11
14.00000000000127
 21
-12.5
 31
0.0
  0
INSERT
  5
2050
330
1F43
100
AcDbEntity
  8
AM_5
100
AcDbBlockReference
  2
_OPEN30
 10
14.00000000000127
 20
14.99999999999999
 30
0.0
 41
2.5
 42
2.5
 43
2.5
 50
90.0
  0
INSERT
  5
2051
330
1F43
100
AcDbEntity
  8
AM_5
100
AcDbBlockReference
  2
_OPEN30
 10
14.00000000000127
 20
-15.0
 30
0.0
 41
2.5
 42
2.5
 43
2.5
 50
270.0
  0
MTEXT
  5
2052
330
1F43
100
AcDbEntity
  8
AM_5
 62
     2
100
AcDbMText
 10
10.90000000000127
 20
-0.0000000000000005
 30
0.0
 40
3.2
 41
0.0
 71
     5
 72
     1
  1
%%c30
  7
ASAMI
 11
0.0000000000000001
 21
1.0
 31
0.0
1001
ACAD
1000
MTEXTBEGIN
1070
    73
1070
     1
1070
    44
1040
1.0
1070
    74
1070
     0
1000
MTEXTEND
  0
POINT
  5
2053
330
1F43
100
AcDbEntity
  8
DEFPOINTS
 62
     0
100
AcDbPoint
 10
0.0000000000000112
 20
15.0
 30
0.0
  0
POINT
  5
2054
330
1F43
100
AcDbEntity
  8
DEFPOINTS
 62
     0
100
AcDbPoint
 10
-0.0000000000005343
 20
-15.0
 30
0.0
  0
POINT
  5
2055
330
1F43
100
AcDbEntity
  8
DEFPOINTS
 62
     0
100
AcDbPoint
 10
14.00000000000127
 20
-15.0
 30
0.0
  0
ENDBLK
  5
1F4E
330
1F43
100
AcDbEntity
  8
0
100
AcDbBlockEnd
  0
BLOCK
  5
1F7D
330
1F73
100
AcDbEntity
  8
0
100
AcDbBlockBegin
  2
*D8
 70
     1
 10
0.0
 20
0.0
 30
0.0
  3
*D8
  1

  0
LINE
  5
2043
330
1F73
100
AcDbEntity
  8
AM_5
100
AcDbLine
 10
-55.00000000000055
 20
-16.00000000000005
 30
0.0
 11
-55.00000000000055
 21
-30.00000000000003
 31
0.0
  0
LINE
  5
2044
330
1F73
100
AcDbEntity
  8
AM_5
100
AcDbLine
 10
-0.0000000000017821
 20
-16.0
 30
0.0
 11
-0.000000000001783
 21
-30.00000000000003
 31
0.0
  0
LINE
  5
2045
330
1F73
100
AcDbEntity
  8
AM_5
100
AcDbLine
 10
-52.50000000000055
 20
-29.00000000000003
 30
0.0
 11
-2.500000000001783
 21
-29.00000000000003
 31
0.0
  0
INSERT
  5
2046
330
1F73
100
AcDbEntity
  8
AM_5
100
AcDbBlockReference
  2
_OPEN30
 10
-55.00000000000055
 20
-29.00000000000003
 30
0.0
 41
2.5
 42
2.5
 43
2.5
 50
180.0
  0
INSERT
  5
2047
330
1F73
100
AcDbEntity
  8
AM_5
100
AcDbBlockReference
  2
_OPEN30
 10
-0.0000000000017829
 20
-29.00000000000003
 30
0.0
 41
2.5
 42
2.5
 43
2.5
  0
MTEXT
  5
2048
330
1F73
100
AcDbEntity
  8
AM_5
 62
     2
100
AcDbMText
 10
-27.50000000000116
 20
-25.90000000000002
 30
0.0
 40
3.2
 41
0.0
 71
     5
 72
     1
  1
55
  7
ASAMI
1001
ACAD
1000
MTEXTBEGIN
1070
    73
1070
     1
1070
    44
1040
1.0
1070
    74
1070
     0
1000
MTEXTEND
  0
POINT
  5
2049
330
1F73
100
AcDbEntity
  8
DEFPOINTS
 62
     0
100
AcDbPoint
 10
-55.00000000000055
 20
-15.00000000000005
 30
0.0
  0
POINT
  5
204A
330
1F73
100
AcDbEntity
  8
DEFPOINTS
 62
     0
100
AcDbPoint
 10
-0.000000000001782
 20
-15.0
 30
0.0
  0
POINT
  5
204B
330
1F73
100
AcDbEntity
  8
DEFPOINTS
 62
     0
100
AcDbPoint
 10
-0.0000000000017829
 20
-29.00000000000003
 30
0.0
  0
ENDBLK
  5
1F7E
330
1F73
100
AcDbEntity
  8
0
100
AcDbBlockEnd
  0
ENDSEC
  0
SECTION
  2
ENTITIES
  0
DIMENSION
  5
D71
330
1F
100
AcDbEntity
  8
AM_5
100
AcDbDimension
  2
*D5
 10
-130.0
 20
-41.00000000000003
 30
0.0
 11
-65.00000000000015
 21
-37.90000000000002
 31
0.0
 70
    32
  1
<>
  3
AM_JIS
100
AcDbAlignedDimension
 13
-0.0000000000003095
 23
-10.0000000000002
 33
0.0
 14
-130.0
 24
-15.00000000000005
 34
0.0
100
AcDbRotatedDimension
1001
GENIUS_GENDTOL_13
1000

1000
h7
1000

1040
0.0
  0
LINE
  5
D74
330
1F
100
AcDbEntity
  8
AM_7
  6
AM_ISO08W050X2
100
AcDbLine
 10
4.557768030854926
 20
0.0
 30
0.0
 11
-135.9415706262364
 21
-0.0000000000001009
 31
0.0
1001
GENIUS_GENODEF_13
1002
{
1000
HIER
1070
     0
1002
}
1002
{
1000
MANEDIT
1070
     0
1002
}
1002
{
1000
NOSEL
1070
     0
1002
}
1002
{
1000
BEHIND
1070
     0
1002
}
1002
{
1000
REACTOR
1002
}
1001
GENIUS_GENOBJ-N-CEN_13
1002
{
1000
OWNER
1000
GEN
1002
}
  0
TEXT
  5
E5A
330
1F
100
AcDbEntity
  8
AM_6
100
AcDbText
 10
-86.19047619047634
 20
-63.50000000000003
 30
0.0
 40
5.0
  1
SSM4300ZX
 72
     4
 11
-65.00000000000015
 21
-61.00000000000003
 31
0.0
100
AcDbText
  0
LINE
  5
1C3B
330
1F
100
AcDbEntity
  8
AM_0
100
AcDbLine
 10
-72.50000000000001
 20
-15.99999999999993
 30
0.0
 11
-129.0
 21
-16.00000000000004
 31
0.0
  0
LINE
  5
1C3C
330
1F
100
AcDbEntity
  8
AM_0
100
AcDbLine
 10
-72.5
 20
15.99999999999995
 30
0.0
 11
-129.0
 21
15.99999999999995
 31
0.0
  0
LINE
  5
1C3F
330
1F
100
AcDbEntity
  8
AM_0
100
AcDbLine
 10
-130.0
 20
-15.00000000000005
 30
0.0
 11
-130.0
 21
14.99999999999995
 31
0.0
  0
LINE
  5
1C40
330
1F
100
AcDbEntity
  8
AM_0
100
AcDbLine
 10
-129.0
 20
-16.00000000000004
 30
0.0
 11
-129.0
 21
15.99999999999995
 31
0.0
  0
DIMENSION
  5
1C41
330
1F
100
AcDbEntity
  8
AM_5
100
AcDbDimension
  2
*D6
 10
-144.0
 20
-16.00000000000004
 30
0.0
 11
-147.0999999999999
 21
-0.0000000000000645
 31
0.0
 70
    32
  1
%%c<>
  3
AM_JIS
100
AcDbAlignedDimension
 13
-129.0
 23
15.99999999999995
 33
0.0
 14
-129.0
 24
-16.00000000000004
 34
0.0
 50
270.0
100
AcDbRotatedDimension
1001
GENIUS_GENDTOL_13
1000

1000
h7
1000

1040
0.0
  0
LINE
  5
1C59
330
1F
100
AcDbEntity
  8
AM_0
100
AcDbLine
 10
-130.0
 20
14.99999999999995
 30
0.0
 11
-129.0
 21
15.99999999999995
 31
0.0
1001
GENIUS_GENFIL_13
1070
     0
1040
1.0
1040
1.0
1040
20.0
1040
0.0
1002
{
1002
}
1001
GENIUS_GENODEF_13
1002
{
1000
HIER
1070
     0
1002
}
1002
{
1000
MANEDIT
1070
     0
1002
}
1002
{
1000
NOSEL
1070
     0
1002
}
1002
{
1000
BEHIND
1070
     0
1002
}
1002
{
1000
REACTOR
1002
}
1001
GENIUS_GENOBJ-N-CHA_13
1002
{
1000
OWNER
1000
GEN
1002
}
  0
LINE
  5
1C5C
330
1F
100
AcDbEntity
  8
AM_0
100
AcDbLine
 10
-130.0
 20
-15.00000000000005
 30
0.0
 11
-129.0
 21
-16.00000000000004
 31
0.0
1001
GENIUS_GENFIL_13
1070
     0
1040
1.0
1040
1.0
1040
20.0
1040
0.0
1002
{
1002
}
1001
GENIUS_GENODEF_13
1002
{
1000
HIER
1070
     0
1002
}
1002
{
1000
MANEDIT
1070
     0
1002
}
1002
{
1000
NOSEL
1070
     0
1002
}
1002
{
1000
BEHIND
1070
     0
1002
}
1002
{
1000
REACTOR
1002
}
1001
GENIUS_GENOBJ-N-CHA_13
1002
{
1000
OWNER
1000
GEN
1002
}
  0
LINE
  5
1F3A
330
1F
100
AcDbEntity
  8
AM_0
100
AcDbLine
 10
-0.000000000004822
 20
-0.0000000000194416
 30
0.0
 11
-0.244317175150731
 21
-2.538360261276694
 31
0.0
  0
LINE
  5
1F3B
330
1F
100
AcDbEntity
  8
AM_0
100
AcDbLine
 10
-0.275625000000485
 20
-3.980693563689561
 30
0.0
 11
-0.000000000004822
 21
-3.000000000019441
 31
0.0
  0
LINE
  5
1F3C
330
1F
100
AcDbEntity
  8
AM_0
100
AcDbLine
 10
-0.000000000004822
 20
-3.000000000019441
 30
0.0
 11
-1.587713240276362
 21
-0.0000000000192711
 31
0.0
  0
LINE
  5
1F3D
330
1F
100
AcDbEntity
  8
AM_0
100
AcDbLine
 10
-0.0000000000005129
 20
-15.0
 30
0.0
 11
-0.275625000000485
 21
-14.20032347286547
 31
0.0
  0
LINE
  5
1F3E
330
1F
100
AcDbEntity
  8
AM_0
100
AcDbLine
 10
-0.0000000000005129
 20
-15.0
 30
0.0
 11
-0.0000000000005129
 21
-3.000000000000002
 31
0.0
  0
LINE
  5
1F3F
330
1F
100
AcDbEntity
  8
AM_0
100
AcDbLine
 10
-0.275625000000485
 20
-14.20032347286547
 30
0.0
 11
-0.275625000000485
 21
-3.980693563689561
 31
0.0
  0
LINE
  5
1F40
330
1F
100
AcDbEntity
  8
AM_0
100
AcDbLine
 10
-0.0000000000005129
 20
0.0
 30
0.0
 11
-0.0000000000005305
 21
15.0
 31
0.0
  0
LINE
  5
1F41
330
1F
100
AcDbEntity
  8
AM_0
100
AcDbLine
 10
-0.0000000000005129
 20
0.0
 30
0.0
 11
-0.275625000000485
 21
3.000000000000335
 31
0.0
  0
DIMENSION
  5
1F42
330
1F
100
AcDbEntity
  8
AM_5
100
AcDbDimension
  2
*D7
 10
14.00000000000127
 20
-15.0
 30
0.0
 11
10.90000000000127
 21
-0.0000000000000005
 31
0.0
 70
    32
  1
%%c<>
  3
AM_JIS
100
AcDbAlignedDimension
 13
0.0000000000000112
 23
15.0
 33
0.0
 14
-0.0000000000005343
 24
-15.0
 34
0.0
 50
270.0
100
AcDbRotatedDimension
1001
GENIUS_GENDTOL_13
1000

1000
h7
1000

1040
0.0
  0
LINE
  5
1F4F
330
1F
100
AcDbEntity
  8
AM_0
100
AcDbLine
 10
-2.802251019083397
 20
8.001422442031186
 30
0.0
 11
-6.186002106432979
 21
9.025360267584231
 31
0.0
  0
LINE
  5
1F50
330
1F
100
AcDbEntity
  8
AM_0
100
AcDbLine
 10
-6.480573635315009
 20
-0.0000000000194416
 30
0.0
 11
-6.480573635315009
 21
-2.400000000019475
 31
0.0
  0
LINE
  5
1F51
330
1F
100
AcDbEntity
  8
AM_0
100
AcDbLine
 10
-6.480573635315009
 20
-2.400000000019475
 30
0.0
 11
-2.258702212439858
 21
-4.420964295499658
 31
0.0
  0
LINE
  5
1F52
330
1F
100
AcDbEntity
  8
AM_0
100
AcDbLine
 10
-55.00000000000085
 20
11.17693240761727
 30
0.0
 11
-56.7051040133888
 21
13.98389265045874
 31
0.0
  0
LINE
  5
1F53
330
1F
100
AcDbEntity
  8
AM_0
100
AcDbLine
 10
-56.91082763213263
 20
-5.55727222896209
 30
0.0
 11
-55.00000000000071
 21
-8.926494128328124
 31
0.0
  0
LINE
  5
1F54
330
1F
100
AcDbEntity
  8
AM_0
100
AcDbLine
 10
-55.00000000000049
 20
-2.795933056644872
 30
0.0
 11
-56.91082763213263
 21
-5.55727222896209
 31
0.0
  0
LINE
  5
1F55
330
1F
100
AcDbEntity
  8
AM_11
100
AcDbLine
 10
-55.00000000000056
 20
14.99999999999996
 30
0.0
 11
-55.00000000000055
 21
-15.00000000000003
 31
0.0
  0
LINE
  5
1F56
330
1F
100
AcDbEntity
  8
AM_0
100
AcDbLine
 10
-6.480573635315009
 20
-2.400000000019475
 30
0.0
 11
-0.3175426480591144
 21
-2.400000000019475
 31
0.0
  0
LINE
  5
1F57
330
1F
100
AcDbEntity
  8
AM_0
100
AcDbLine
 10
-0.000000000004822
 20
-0.0000000000194416
 30
0.0
 11
-6.480573635315009
 21
-0.0000000000194416
 31
0.0
  0
LINE
  5
1F58
330
1F
100
AcDbEntity
  8
AM_11
100
AcDbLine
 10
-0.0000000000025441
 20
15.0
 30
0.0
 11
-55.00000000000056
 21
14.99999999999993
 31
0.0
  0
LINE
  5
1F59
330
1F
100
AcDbEntity
  8
AM_11
100
AcDbLine
 10
-55.00000000000055
 20
-15.00000000000005
 30
0.0
 11
-0.0000000000005129
 21
-15.0
 31
0.0
  0
LINE
  5
1F5A
330
1F
100
AcDbEntity
  8
AM_0
100
AcDbLine
 10
-0.275625000000485
 20
3.000000000000335
 30
0.0
 11
-2.802251019083397
 21
8.001422442031186
 31
0.0
  0
LINE
  5
1F5B
330
1F
100
AcDbEntity
  8
AM_0
100
AcDbLine
 10
-2.258702212439834
 20
-4.420964295499629
 30
0.0
 11
-0.275625000000485
 21
-3.980693563689561
 31
0.0
  0
LINE
  5
1F5C
330
1F
100
AcDbEntity
  8
AM_0
100
AcDbLine
 10
-0.275625000000485
 20
-14.2003234728653
 30
0.0
 11
-1.798125000000519
 21
-11.99284996638573
 31
0.0
  0
SPLINE
  5
1F5D
330
1F
100
AcDbEntity
  8
AM_0
100
AcDbSpline
210
0.0
220
0.0
230
1.0
 70
     8
 71
     3
 72
     8
 73
     4
 74
     0
 42
0.0000000001
 43
0.0000000001
 40
6.474453511960974
 40
6.474453511960974
 40
6.474453511960974
 40
6.474453511960974
 40
14.48999654934396
 40
14.48999654934396
 40
14.48999654934396
 40
14.48999654934396
 10
-55.00000000000089
 20
11.17693240761584
 30
0.0
 10
-48.43484391266035
 20
8.297665575786032
 30
0.0
 10
-42.06742195633043
 20
4.148832787893171
 30
0.0
 10
-35.7000000000005
 20
0.0000000000003197
 30
0.0
  0
SPLINE
  5
1F5E
330
1F
100
AcDbEntity
  8
AM_0
100
AcDbSpline
210
0.0
220
0.0
230
1.0
 70
     8
 71
     3
 72
     8
 73
     4
 74
     0
 42
0.0000000001
 43
0.0000000001
 40
1.604871449499863
 40
1.604871449499863
 40
1.604871449499863
 40
1.604871449499863
 40
14.36247867694493
 40
14.36247867694493
 40
14.36247867694493
 40
14.36247867694493
 10
-56.7051040133888
 20
13.98389265045874
 30
0.0
 10
-46.39024929911314
 20
12.30446596977733
 30
0.0
 10
-36.1162715057768
 20
6.152232984888761
 30
0.0
 10
-25.84229371244037
 20
0.0000000000001465
 30
0.0
  0
SPLINE
  5
1F5F
330
1F
100
AcDbEntity
  8
AM_0
100
AcDbSpline
210
0.0
220
0.0
230
1.0
 70
     8
 71
     3
 72
     8
 73
     4
 74
     0
 42
0.0000000001
 43
0.0000000001
 40
0.0
 40
0.0
 40
0.0
 40
0.0
 40
9.068166399416787
 40
9.068166399416787
 40
9.068166399416787
 40
9.068166399416787
 10
-35.70000000000101
 20
-14.99999999999968
 30
0.0
 10
-43.63464559949071
 20
-14.9999999999997
 30
0.0
 10
-49.65638804166506
 20
-12.06259614280621
 30
0.0
 10
-55.00000000000129
 20
-8.926494128327828
 30
0.0
  0
SPLINE
  5
1F60
330
1F
100
AcDbEntity
  8
AM_0
100
AcDbSpline
210
0.0
220
0.0
230
1.0
 70
     8
 71
     3
 72
     8
 73
     4
 74
     0
 42
0.0000000001
 43
0.0000000001
 40
0.0
 40
0.0
 40
0.0
 40
0.0
 40
12.79333816032526
 40
12.79333816032526
 40
12.79333816032526
 40
12.79333816032526
 10
-25.8422937124409
 20
-13.85233351140773
 30
0.0
 10
-37.03646460272551
 20
-13.85233351140773
 30
0.0
 10
-47.43660719512529
 20
-8.356900620469653
 30
0.0
 10
-55.00000000000056
 20
-2.795933056644949
 30
0.0
  0
SPLINE
  5
1F61
330
1F
100
AcDbEntity
  8
AM_0
100
AcDbSpline
210
0.0
220
0.0
230
1.0
 70
     8
 71
     3
 72
     8
 73
     4
 74
     0
 42
0.0000000001
 43
0.0000000001
 40
0.0
 40
0.0
 40
0.0
 40
0.0
 40
10.67755528242136
 40
10.67755528242136
 40
10.67755528242136
 40
10.67755528242136
 10
-31.11819694726516
 20
-14.55085101100583
 30
0.0
 10
-40.46105781938388
 20
-14.55085101100583
 30
0.0
 10
-49.2017209751977
 20
-10.57228363367945
 30
0.0
 10
-56.91082763213262
 20
-5.557272228962095
 30
0.0
  0
ELLIPSE
  5
1F62
330
1F
100
AcDbEntity
  8
AM_0
100
AcDbEllipse
 10
5.212392102820903
 20
-7.631640494153693
 30
0.0
 11
-0.000000000000004
 21
9.122094346548141
 31
0.0
210
0.0
220
0.0
230
1.0
 40
0.8750000000000007
 41
1.211124581303822
 42
2.069278538290318
  0
SPLINE
  5
1F63
330
1F
100
AcDbEntity
  8
AM_0
100
AcDbSpline
210
0.0
220
0.0
230
1.0
 70
     8
 71
     3
 72
     8
 73
     4
 74
     0
 42
0.0000000001
 43
0.0000000001
 40
1.870660592686466
 40
1.870660592686466
 40
1.870660592686466
 40
1.870660592686466
 40
14.43901837670146
 40
14.43901837670146
 40
14.43901837670146
 40
14.43901837670146
 10
-0.275625000000485
 20
-14.2003234728653
 30
0.0
 10
-11.04065705197616
 20
-12.66570183630443
 30
0.0
 10
-21.07942699962044
 20
-6.332850918152148
 30
0.0
 10
-31.11819694726472
 20
0.0000000000001465
 30
0.0
  0
SPLINE
  5
1F64
330
1F
100
AcDbEntity
  8
AM_0
100
AcDbSpline
210
0.0
220
0.0
230
1.0
 70
     8
 71
     3
 72
     8
 73
     4
 74
     0
 42
0.0000000001
 43
0.0000000001
 40
4.542668862435135
 40
4.542668862435135
 40
4.542668862435135
 40
4.542668862435135
 40
14.36247867694493
 40
14.36247867694493
 40
14.36247867694493
 40
14.36247867694493
 10
-1.798124999996861
 20
-11.99284996636987
 30
0.0
 10
-10.02608207174631
 20
-9.471017059718574
 30
0.0
 10
-17.93418789209334
 20
-4.735508529859226
 30
0.0
 10
-25.84229371244037
 20
0.0000000000001465
 30
0.0
  0
SPLINE
  5
1F65
330
1F
100
AcDbEntity
  8
AM_0
100
AcDbSpline
210
0.0
220
0.0
230
1.0
 70
     8
 71
     3
 72
     8
 73
     4
 74
     0
 42
0.0000000001
 43
0.0000000001
 40
0.0
 40
0.0
 40
0.0
 40
0.0
 40
14.48999654934395
 40
14.48999654934395
 40
14.48999654934395
 40
14.48999654934395
 10
-0.0000000000005129
 20
-15.0
 30
0.0
 10
-12.67874698067647
 20
-15.00000000000002
 30
0.0
 10
-24.18937349033849
 20
-7.500000000000026
 30
0.0
 10
-35.7000000000005
 20
-0.0000000000000266
 30
0.0
  0
SPLINE
  5
1F66
330
1F
100
AcDbEntity
  8
AM_0
100
AcDbSpline
210
0.0
220
0.0
230
1.0
 70
     8
 71
     3
 72
     8
 73
     4
 74
     0
 42
0.0000000001
 43
0.0000000001
 40
0.0
 40
0.0
 40
0.0
 40
0.0
 40
2.764560748519282
 40
2.764560748519282
 40
2.764560748519282
 40
2.764560748519282
 10
-31.11819694726516
 20
-14.55085101100618
 30
0.0
 10
-28.69920629231082
 20
-14.55085101100618
 30
0.0
 10
-26.3205846123212
 20
-14.28414344553018
 30
0.0
 10
-23.97460267801403
 20
-13.80179336952934
 30
0.0
  0
SPLINE
  5
1F67
330
1F
100
AcDbEntity
  8
AM_0
100
AcDbSpline
210
0.0
220
0.0
230
1.0
 70
     8
 71
     3
 72
     8
 73
     4
 74
     0
 42
0.0000000001
 43
0.0000000001
 40
0.0
 40
0.0
 40
0.0
 40
0.0
 40
2.130230809022907
 40
2.130230809022907
 40
2.130230809022907
 40
2.130230809022907
 10
-35.70000000000101
 20
-15.00000000000002
 30
0.0
 10
-33.83604804210593
 20
-15.00000000000002
 30
0.0
 10
-31.99734277109154
 20
-14.83790186346052
 30
0.0
 10
-30.18017257322238
 20
-14.53753626855771
 30
0.0
  0
SPLINE
  5
1F68
330
1F
100
AcDbEntity
  8
AM_0
100
AcDbSpline
210
0.0
220
0.0
230
1.0
 70
     8
 71
     3
 72
     8
 73
     4
 74
     0
 42
0.0000000001
 43
0.0000000001
 40
0.0
 40
0.0
 40
0.0
 40
0.0
 40
4.451443990518192
 40
4.451443990518192
 40
4.451443990518192
 40
4.451443990518192
 10
-25.8422937124409
 20
-13.85233351140808
 30
0.0
 10
-21.94728022073744
 20
-13.85233351140808
 30
0.0
 10
-18.14839918723842
 20
-13.18700524274234
 30
0.0
 10
-14.41585573718766
 20
-12.06255764677041
 30
0.0
  0
SPLINE
  5
1F69
330
1F
100
AcDbEntity
  8
AM_0
100
AcDbSpline
210
0.0
220
0.0
230
1.0
 70
     8
 71
     3
 72
     8
 73
     4
 74
     0
 42
0.0000000001
 43
0.0000000001
 40
0.3581103616548037
 40
0.3581103616548037
 40
0.3581103616548037
 40
0.3581103616548037
 40
12.40023413887867
 40
12.40023413887867
 40
12.40023413887867
 40
12.40023413887867
 10
-30.18017257322136
 20
14.537536268558
 30
0.0
 10
-19.68830532056607
 20
14.24029181118849
 30
0.0
 10
-9.943393367644333
 20
9.008103385455003
 30
0.0
 10
-0.3066335800395392
 20
3.061381069826896
 30
0.0
  0
SPLINE
  5
1F6A
330
1F
100
AcDbEntity
  8
AM_0
100
AcDbSpline
210
0.0
220
0.0
230
1.0
 70
     8
 71
     3
 72
     8
 73
     4
 74
     0
 42
0.0000000001
 43
0.0000000001
 40
0.0
 40
0.0
 40
0.0
 40
0.0
 40
5.635889483499127
 40
5.635889483499127
 40
5.635889483499127
 40
5.635889483499127
 10
-0.0000000000005305
 20
15.0
 30
0.0
 10
-4.931403298062253
 20
15.0
 30
0.0
 10
-9.686090541320336
 20
13.86538208693742
 30
0.0
 10
-14.33279550424058
 20
12.03745631511373
 30
0.0
  0
SPLINE
  5
1F6B
330
1F
100
AcDbEntity
  8
AM_0
100
AcDbSpline
210
0.0
220
0.0
230
1.0
 70
     8
 71
     3
 72
     8
 73
     4
 74
     0
 42
0.0000000001
 43
0.0000000001
 40
0.0
 40
0.0
 40
0.0
 40
0.0
 40
2.586565323616714
 40
2.586565323616714
 40
2.586565323616714
 40
2.586565323616714
 10
-0.0000000000005305
 20
12.22410806005189
 30
0.0
 10
-1.45232687382076
 20
10.24032958845302
 30
0.0
 10
-3.945163699880019
 20
9.388421390773054
 30
0.0
 10
-6.186002106432979
 20
9.025360267584231
 30
0.0
  0
SPLINE
  5
1F6C
330
1F
100
AcDbEntity
  8
AM_0
100
AcDbSpline
210
0.0
220
0.0
230
1.0
 70
     8
 71
     3
 72
     8
 73
     4
 74
     0
 42
0.0000000001
 43
0.0000000001
 40
0.7142832446738512
 40
0.7142832446738512
 40
0.7142832446738512
 40
0.7142832446738512
 40
9.361146747480315
 40
9.361146747480315
 40
9.361146747480315
 40
9.361146747480315
 10
-23.97460267773703
 20
13.80179336947285
 30
0.0
 10
-16.4670345889525
 20
13.39735031691475
 30
0.0
 10
-9.304158547551605
 20
10.60730964839888
 30
0.0
 10
-2.267593662154196
 20
6.943075348442846
 30
0.0
  0
SPLINE
  5
1F6D
330
1F
100
AcDbEntity
  8
AM_0
100
AcDbSpline
210
0.0
220
0.0
230
1.0
 70
     8
 71
     3
 72
     8
 73
     4
 74
     0
 42
0.0000000001
 43
0.0000000001
 40
0.0
 40
0.0
 40
0.0
 40
0.0
 40
5.47991057042065
 40
5.47991057042065
 40
5.47991057042065
 40
5.47991057042065
 10
-35.70000000000104
 20
15.00000000000031
 30
0.0
 10
-40.49492174911915
 20
15.00000000000031
 30
0.0
 10
-45.12277367507603
 20
13.92731639860696
 30
0.0
 10
-49.64673920837301
 20
12.18762287462153
 30
0.0
  0
SPLINE
  5
1F6E
330
1F
100
AcDbEntity
  8
AM_0
100
AcDbSpline
210
0.0
220
0.0
230
1.0
 70
     8
 71
     3
 72
     8
 73
     4
 74
     0
 42
0.0000000001
 43
0.0000000001
 40
0.0
 40
0.0
 40
0.0
 40
0.0
 40
14.48999654934396
 40
14.48999654934396
 40
14.48999654934396
 40
14.48999654934396
 10
-35.70000000000051
 20
15.00000000000031
 30
0.0
 10
-23.02125301932455
 20
15.00000000000031
 30
0.0
 10
-11.51062650966253
 20
7.500000000000319
 30
0.0
 10
-0.0000000000005129
 20
0.0000000000003464
 30
0.0
  0
ELLIPSE
  5
1F6F
330
1F
100
AcDbEntity
  8
AM_0
100
AcDbEllipse
 10
-33.03712131203782
 20
38.55437365650447
 30
0.0
 11
0.0000000000164502
 21
47.7902259704922
 31
0.0
210
0.0
220
0.0
230
1.0
 40
0.9166666666666408
 41
2.50721906072144
 42
2.616437371025301
  0
ELLIPSE
  5
1F70
330
1F
100
AcDbEntity
  8
AM_0
100
AcDbEllipse
 10
-60.99862597945853
 20
-15.17596125396286
 30
0.0
 11
0.0000000000016547
 21
27.14691373014384
 31
0.0
210
0.0
220
0.0
230
1.0
 40
0.9166666666666149
 41
-0.1301104868559613
 42
-0.0549517877869856
  0
ELLIPSE
  5
1F71
330
1F
100
AcDbEntity
  8
AM_0
100
AcDbEllipse
 10
-72.52451378789515
 20
-82.78068714192334
 30
0.0
 11
-0.0000000000892238
 21
95.88283927094904
 31
0.0
210
0.0
220
0.0
230
1.0
 40
0.916666666667076
 41
-0.2007308272960107
 42
-0.1686684441378408
  0
DIMENSION
  5
1F72
330
1F
100
AcDbEntity
  8
AM_5
100
AcDbDimension
  2
*D8
 10
-0.0000000000017829
 20
-29.00000000000003
 30
0.0
 11
-27.50000000000116
 21
-25.90000000000002
 31
0.0
 70
    32
  1
<>
  3
AM_JIS
100
AcDbAlignedDimension
 13
-55.00000000000055
 23
-15.00000000000005
 33
0.0
 14
-0.000000000001782
 24
-15.0
 34
0.0
100
AcDbRotatedDimension
1001
GENIUS_GENDTOL_13
1000

1000
h7
1000

1040
0.0
  0
POLYLINE
  5
1F7F
330
1F
100
AcDbEntity
  8
AM_0
100
AcDb2dPolyline
 66
     1
 10
0.0
 20
0.0
 30
0.0
 70
     2
  0
VERTEX
  5
1F80
330
1F7F
100
AcDbEntity
  8
AM_0
100
AcDbVertex
100
AcDb2dVertex
 10
-61.56250000000069
 20
-14.42578177095284
 30
0.0
 42
-0.0230918143391583
  0
VERTEX
  5
1F81
330
1F7F
100
AcDbEntity
  8
AM_0
100
AcDbVertex
100
AcDb2dVertex
 10
-63.07585908141955
 20
-13.98746034017814
 30
0.0
 42
-0.0355587143075394
 70
     1
  0
VERTEX
  5
1F82
330
1F7F
100
AcDbEntity
  8
AM_0
100
AcDbVertex
100
AcDb2dVertex
 10
-64.02343750000068
 20
-13.57306207100386
 30
0.0
 42
-0.0216088548285507
  0
VERTEX
  5
1F83
330
1F7F
100
AcDbEntity
  8
AM_0
100
AcDbVertex
100
AcDb2dVertex
 10
-66.23427608496233
 20
-12.25840009978135
 30
0.0
 42
-0.0414110700152503
 70
     1
  0
VERTEX
  5
1F84
330
1F7F
100
AcDbEntity
  8
AM_0
100
AcDbVertex
100
AcDb2dVertex
 10
-67.3046875000007
 20
-11.41110612374665
 30
0.0
 42
-0.0653031023268945
  0
VERTEX
  5
1F85
330
1F7F
100
AcDbEntity
  8
AM_0
100
AcDbVertex
100
AcDb2dVertex
 10
-67.99421018864248
 20
-10.56834750517267
 30
0.0
 42
-0.1569363594221426
 70
     1
  0
VERTEX
  5
1F86
330
1F7F
100
AcDbEntity
  8
AM_0
100
AcDbVertex
100
AcDb2dVertex
 10
-68.12500000000068
 20
-10.10186987643833
 30
0.0
 42
-0.1617045000652558
  0
VERTEX
  5
1F87
330
1F7F
100
AcDbEntity
  8
AM_0
100
AcDbVertex
100
AcDb2dVertex
 10
-67.99195100824516
 20
-9.645887548179945
 30
0.0
 42
-0.0680210806811403
 70
     1
  0
VERTEX
  5
1F88
330
1F7F
100
AcDbEntity
  8
AM_0
100
AcDbVertex
100
AcDb2dVertex
 10
-67.3046875000007
 20
-8.849275613963202
 30
0.0
 42
-0.0450747416233525
  0
VERTEX
  5
1F89
330
1F7F
100
AcDbEntity
  8
AM_0
100
AcDbVertex
100
AcDb2dVertex
 10
-66.2443515442224
 20
-8.07845155975936
 30
0.0
 42
-0.0231467319857815
 70
     1
  0
VERTEX
  5
1F8A
330
1F7F
100
AcDbEntity
  8
AM_0
100
AcDbVertex
100
AcDb2dVertex
 10
-64.02343750000068
 20
-6.913887606039192
 30
0.0
 42
-0.0364444523572374
  0
VERTEX
  5
1F8B
330
1F7F
100
AcDbEntity
  8
AM_0
100
AcDbVertex
100
AcDb2dVertex
 10
-63.0589043134123
 20
-6.55954266428707
 30
0.0
 42
-0.0242139410122645
 70
     1
  0
VERTEX
  5
1F8C
330
1F7F
100
AcDbEntity
  8
AM_0
100
AcDbVertex
100
AcDb2dVertex
 10
-61.56250000000069
 20
-6.231093860590046
 30
0.0
  0
SEQEND
  5
1F8D
330
1F7F
100
AcDbEntity
  8
AM_0
  0
ELLIPSE
  5
1F8E
330
1F
100
AcDbEntity
  8
AM_0
100
AcDbEllipse
 10
-59.24271655059094
 20
-30.21458776893963
 30
0.0
 11
-11.28423214255671
 21
11.28423214255671
 31
0.0
210
0.0
220
0.0
230
1.0
 40
0.9999999999999944
 41
-0.6395160849796966
 42
-0.4788989613882786
  0
ELLIPSE
  5
1F8F
330
1F
100
AcDbEntity
  8
AM_0
100
AcDbEllipse
 10
16.95361952072819
 20
82.6361982186019
 30
0.0
 11
0.0000000005409446
 21
116.7898020263777
 31
0.0
210
0.0
220
0.0
230
1.0
 40
0.9166666666667959
 41
2.252234119756418
 42
2.281339294806693
  0
ELLIPSE
  5
1F90
330
1F
100
AcDbEntity
  8
AM_0
100
AcDbEllipse
 10
7.06747394382705
 20
70.7136815190757
 30
0.0
 11
-0.0000000003642344
 21
100.9335479848127
 31
0.0
210
0.0
220
0.0
230
1.0
 40
0.9166666666664999
 41
2.20045006146711
 42
2.22779656304446
  0
ELLIPSE
  5
1F91
330
1F
100
AcDbEntity
  8
AM_0
100
AcDbEllipse
 10
-66.94182021275633
 20
11.89316644669831
 30
0.0
 11
-0.0000000000000766
 21
1.041697078869502
 31
0.0
210
0.0
220
0.0
230
1.0
 40
0.9166666666666991
 41
1.932326725949897
 42
2.203176020309005
  0
ELLIPSE
  5
1F92
330
1F
100
AcDbEntity
  8
AM_0
100
AcDbEllipse
 10
-67.68627610532259
 20
11.59315109279777
 30
0.0
 11
0.0
 21
0.176070262079223
 31
0.0
210
0.0
220
0.0
230
1.0
 40
0.9166666666666374
 41
0.307543564604581
 42
1.97002125075139
  0
ELLIPSE
  5
1F93
330
1F
100
AcDbEntity
  8
AM_0
100
AcDbEllipse
 10
-65.60784764029005
 20
4.205690824365714
 30
0.0
 11
-0.000000000000087
 21
7.903646792370385
 31
0.0
210
0.0
220
0.0
230
1.0
 40
0.9166666666666642
 41
0.0810422405066491
 42
0.2980125505142759
  0
ELLIPSE
  5
1F94
330
1F
100
AcDbEntity
  8
AM_0
100
AcDbEllipse
 10
-64.91447060199068
 20
-6.78602563511477
 30
0.0
 11
-0.000000000000227
 21
18.92100923070461
 31
0.0
210
0.0
220
0.0
230
1.0
 40
0.9166666666666266
 41
-0.0192119608828052
 42
0.0738602218728177
  0
SPLINE
  5
1F95
330
1F
100
AcDbEntity
  8
AM_0
100
AcDbSpline
210
0.0
220
0.0
230
1.0
 70
     8
 71
     3
 72
     8
 73
     4
 74
     0
 42
0.0000000001
 43
0.0000000001
 40
0.3581103616548037
 40
0.3581103616548037
 40
0.3581103616548037
 40
0.3581103616548037
 40
14.43901837670146
 40
14.43901837670146
 40
14.43901837670146
 40
14.43901837670146
 10
-61.1101315158765
 20
14.99999999999993
 30
0.0
 10
-53.61198629447367
 20
14.18996702415963
 30
0.0
 10
-42.36509162086917
 20
7.094983512079875
 30
0.0
 10
-31.11819694726472
 20
0.0000000000001465
 30
0.0
  0
ELLIPSE
  5
1F96
330
1F
100
AcDbEntity
  8
AM_0
100
AcDbEllipse
 10
-68.60290668871826
 20
-40.40187563657538
 30
0.0
 11
0.000000000001094
 21
35.10531761505506
 31
0.0
210
0.0
220
0.0
230
1.0
 40
0.8749999999999939
 41
-0.4587681791449212
 42
-0.2312569029270883
  0
SPLINE
  5
1F97
330
1F
100
AcDbEntity
  8
AM_0
100
AcDbSpline
210
0.0
220
0.0
230
1.0
 70
     8
 71
     3
 72
     8
 73
     4
 74
     0
 42
0.0000000001
 43
0.0000000001
 40
0.0
 40
0.0
 40
0.0
 40
0.0
 40
4.451443990518192
 40
4.451443990518192
 40
4.451443990518192
 40
4.451443990518192
 10
-61.56250000000071
 20
-14.42578177095284
 30
0.0
 10
-54.8972802207376
 20
-14.38719008013739
 30
0.0
 10
-51.0983991872386
 20
-13.72186181147164
 30
0.0
 10
-47.58518518466879
 20
-12.6629297891903
 30
0.0
  0
ELLIPSE
  5
1F98
330
1F
100
AcDbEntity
  8
AM_0
100
AcDbEllipse
 10
-53.42564288642005
 20
8.291893068364601
 30
0.0
 11
-0.0000000000023653
 21
10.23329227813049
 31
0.0
210
0.0
220
0.0
230
1.0
 40
0.9166666666666687
 41
2.267773329199429
 42
2.505159755861653
  0
ELLIPSE
  5
1F99
330
1F
100
AcDbEntity
  8
AM_0
100
AcDbEllipse
 10
207.2936973113818
 20
246.5156817274768
 30
0.0
 11
0.0000000000227295
 21
381.2399424195427
 31
0.0
210
0.0
220
0.0
230
1.0
 40
0.9166666666666632
 41
2.25192381842846
 42
2.268025276242874
  0
ELLIPSE
  5
1F9A
330
1F
100
AcDbEntity
  8
AM_0
100
AcDbEllipse
 10
-68.19961439014948
 20
-166.0654335884339
 30
0.0
 11
-0.0000000000932494
 21
178.2406386166774
 31
0.0
210
0.0
220
0.0
230
1.0
 40
0.9166666666677953
 41
-0.0524624093093897
 42
-0.0221476050656828
  0
LINE
  5
2015
330
1F
100
AcDbEntity
  8
AM_0
100
AcDbLine
 10
-72.50000000000001
 20
-15.99999999999993
 30
0.0
 11
-72.5
 21
15.99999999999995
 31
0.0
  0
LINE
  5
2018
330
1F
100
AcDbEntity
  8
AM_0
100
AcDbLine
 10
-72.5
 20
15.99999999999995
 30
0.0
 11
-69.75252258054536
 21
14.99999999999993
 31
0.0
  0
LINE
  5
2019
330
1F
100
AcDbEntity
  8
AM_0
100
AcDbLine
 10
-72.5
 20
-16.00000000000006
 30
0.0
 11
-69.7525225805453
 21
-15.00000000000004
 31
0.0
  0
LINE
  5
201A
330
1F
100
AcDbEntity
  8
AM_0
100
AcDbLine
 10
-61.1101315158765
 20
14.99999999999993
 30
0.0
 11
-62.25252258054535
 21
14.99999999999994
 31
0.0
  0
LINE
  5
201C
330
1F
100
AcDbEntity
  8
AM_0
100
AcDbLine
 10
-69.75252258054536
 20
14.99999999999993
 30
0.0
 11
-69.75252258054521
 21
-15.00000000000001
 31
0.0
  0
LINE
  5
20CF
330
1F
100
AcDbEntity
  8
AM_0
100
AcDbLine
 10
-69.75252258054536
 20
14.99999999999993
 30
0.0
 11
-62.25252258054535
 21
14.99999999999994
 31
0.0
  0
LINE
  5
20D0
330
1F
100
AcDbEntity
  8
AM_0
100
AcDbLine
 10
-69.7525225805453
 20
-15.00000000000004
 30
0.0
 11
-64.05770451687442
 21
-15.00000000000003
 31
0.0
  0
VIEWPORT
  5
110
330
101
100
AcDbEntity
 67
     1
  8
0
100
AcDbViewport
 10
420.5
 20
297.0
 30
0.0
 40
948.9782706766916
 41
628.452
 68
     1
 69
     1
1001
ACAD
1000
MVIEW
1002
{
1070
    16
1010
0.0
1020
0.0
1030
0.0
1010
0.0
1020
0.0
1030
1.0
1040
0.0
1040
628.452
1040
420.5
1040
297.0
1040
50.0
1040
0.0
1040
0.0
1070
     0
1070
   100
1070
     1
1070
     1
1070
     0
1070
     0
1070
     0
1070
     0
1040
0.0
1040
0.0
1040
0.0
1040
10.0
1040
10.0
1040
10.0
1040
10.0
1070
     0
1002
{
1002
}
1002
}
  0
ENDSEC
  0
SECTION
  2
OBJECTS
  0
DICTIONARY
  5
C
330
0
100
AcDbDictionary
  3
ACAD_GROUP
350
D
  3
ACAD_LAYOUT
350
1A
  3
ACAD_MLINESTYLE
350
17
  3
ACAD_PLOTSETTINGS
350
19
  3
ACAD_PLOTSTYLENAME
350
E
  3
ACDBVARIABLEDICTIONARY
350
34
  3
ACMDICTIONARY
350
43
  3
AMG
350
2B
  3
AMGSNAPSETTINGS
350
6E
  3
DWGPROPS
350
228C
  3
ACDBHEADERROUNDTRIPXREC
350
2298
  0
DICTIONARY
  5
74
330
1F
100
AcDbDictionary
280
     1
  3
ACAD_INDEX
360
228E
  3
ACAD_LAYOUTSELFREF
360
22BB
  0
DICTIONARY
  5
22C0
330
101
100
AcDbDictionary
280
     1
  3
ACAD_LAYOUTSELFREF
360
22C1
  0
DICTIONARY
  5
D
102
{ACAD_REACTORS
330
C
102
}
330
C
100
AcDbDictionary
  0
DICTIONARY
  5
1A
102
{ACAD_REACTORS
330
C
102
}
330
C
100
AcDbDictionary
  0
DICTIONARY
  5
17
102
{ACAD_REACTORS
330
C
102
}
330
C
100
AcDbDictionary
  3
STANDARD
350
18
  0
DICTIONARY
  5
19
102
{ACAD_REACTORS
330
C
102
}
330
C
100
AcDbDictionary
  0
ACDBDICTIONARYWDFLT
  5
E
102
{ACAD_REACTORS
330
C
102
}
330
C
100
AcDbDictionary
281
     1
  3
Normal
350
F
100
AcDbDictionaryWithDefault
340
F
  0
DICTIONARY
  5
34
102
{ACAD_REACTORS
330
C
102
}
330
C
100
AcDbDictionary
  3
INDEXCTL
350
35
  3
SORTENTS
350
B5E
  0
DICTIONARY
  5
43
102
{ACAD_REACTORS
330
C
102
}
330
C
100
AcDbDictionary
  3
ACMSTDDICTIONARY
350
260
  0
DICTIONARY
  5
2B
102
{ACAD_REACTORS
330
C
102
}
330
C
100
AcDbDictionary
  3
ACMGSETTINGS
350
2C
  0
DICTIONARY
  5
6E
102
{ACAD_REACTORS
330
C
102
}
330
C
100
AcDbDictionary
  0
XRECORD
  5
228C
102
{ACAD_REACTORS
330
C
102
}
330
C
100
AcDbXrecord
  1
DWGPROPS COOKIE
  2

  3

  4

  6

  7

  8

  9

300
AmdtFileType=82
301
=
302
=
303
=
304
=
305
=
306
=
307
=
308
=
309
=
 40
0.0608418402777778
 41
2452836.771637361
 42
2452901.599907581
  1

 90
        1
  0
DICTIONARY
  5
2298
102
{ACAD_REACTORS
330
C
102
}
330
C
100
AcDbDictionary
  3
TSTACKALIGN
350
2299
  3
TSTACKSIZE
350
229A
  3
HYPERLINKBASE
350
229B
  3
STYLESHEET
350
229C
  3
LAYOUTDICT
350
229D
  3
PLOTSETDICT
350
229E
  3
PLOTSTYLNAMDICT
350
229F
  3
LWETCUNION
350
22A0
  3
INSUNITS
350
22A1
  3
CEPSNTYPE
350
22A2
  3
FINGERPRINTGUID
350
22A3
  3
VERSIONGUID
350
22A4
  3
PSVPSCALE
350
22A5
  3
DIMSTYLEDATA
350
22A6
  3
PUCSORTHOREF
350
22A7
  3
PUCSORTHOVIEW
350
22A8
  3
PUCSBASE
350
22A9
  3
PUCSORGTOP
350
22AA
  3
PUCSORGBOTTOM
350
22AB
  3
PUCSORGLEFT
350
22AC
  3
PUCSORGRIGHT
350
22AD
  3
PUCSORGFRONT
350
22AE
  3
PUCSORGBACK
350
22AF
  3
UCSORTHOREF
350
22B0
  3
UCSORTHOVIEW
350
22B1
  3
UCSBASE
350
22B2
  3
UCSORGTOP
350
22B3
  3
UCSORGBOTTOM
350
22B4
  3
UCSORGLEFT
350
22B5
  3
UCSORGRIGHT
350
22B6
  3
UCSORGFRONT
350
22B7
  3
UCSORGBACK
350
22B8
  0
DICTIONARY
  5
228E
102
{ACAD_REACTORS
330
74
102
}
330
74
100
AcDbDictionary
  3
*A1
350
228F
  0
XRECORD
  5
22BB
102
{ACAD_REACTORS
330
74
102
}
330
74
100
AcDbXrecord
340
1F
  0
XRECORD
  5
22C1
102
{ACAD_REACTORS
330
22C0
102
}
330
22C0
100
AcDbXrecord
340
101
  0
MLINESTYLE
  5
18
102
{ACAD_REACTORS
330
17
102
}
330
17
100
AcDbMlineStyle
  2
STANDARD
 70
     0
  3

 62
   256
 51
90.0
 52
90.0
 71
     2
 49
0.5
 62
   256
  6
BYLAYER
 49
-0.5
 62
   256
  6
BYLAYER
  0
ACDBPLACEHOLDER
  5
F
102
{ACAD_REACTORS
330
E
102
}
330
E
100
AcDbPlaceHolder
280
     0
  0
DICTIONARYVAR
  5
35
102
{ACAD_REACTORS
330
34
102
}
330
34
100
DictionaryVariables
280
     0
  1
1
  0
DICTIONARYVAR
  5
B5E
102
{ACAD_REACTORS
330
34
102
}
330
34
100
DictionaryVariables
280
     0
  1
96
  0
DICTIONARY
  5
260
102
{ACAD_REACTORS
330
43
102
}
330
43
100
AcDbDictionary
  0
DICTIONARY
  5
2C
102
{ACAD_REACTORS
330
2B
102
}
330
2B
100
AcDbDictionary
  3
DWGSETTINGS
350
2D
  0
XRECORD
  5
2299
102
{ACAD_REACTORS
330
2298
102
}
330
2298
100
AcDbXrecord
 90
        1
  0
XRECORD
  5
229A
102
{ACAD_REACTORS
330
2298
102
}
330
2298
100
AcDbXrecord
 90
       70
  0
XRECORD
  5
229B
102
{ACAD_REACTORS
330
2298
102
}
330
2298
100
AcDbXrecord
  1

  0
XRECORD
  5
229C
102
{ACAD_REACTORS
330
2298
102
}
330
2298
100
AcDbXrecord
  1
ASAMI.ctb
  0
XRECORD
  5
229D
102
{ACAD_REACTORS
330
2298
102
}
330
2298
100
AcDbXrecord
340
1A
  0
XRECORD
  5
229E
102
{ACAD_REACTORS
330
2298
102
}
330
2298
100
AcDbXrecord
340
19
  0
XRECORD
  5
229F
102
{ACAD_REACTORS
330
2298
102
}
330
2298
100
AcDbXrecord
340
E
  0
XRECORD
  5
22A0
102
{ACAD_REACTORS
330
2298
102
}
330
2298
100
AcDbXrecord
 90
    10781
  0
XRECORD
  5
22A1
102
{ACAD_REACTORS
330
2298
102
}
330
2298
100
AcDbXrecord
 90
        4
  0
XRECORD
  5
22A2
102
{ACAD_REACTORS
330
2298
102
}
330
2298
100
AcDbXrecord
 90
        0
  0
XRECORD
  5
22A3
102
{ACAD_REACTORS
330
2298
102
}
330
2298
100
AcDbXrecord
  1
{AFB28963-8C59-40AE-9337-C84526B81ACE}
  0
XRECORD
  5
22A4
102
{ACAD_REACTORS
330
2298
102
}
330
2298
100
AcDbXrecord
  1
{513FF40E-9F81-4F9F-83B7-3FF9E98ADDFB}
  0
XRECORD
  5
22A5
102
{ACAD_REACTORS
330
2298
102
}
330
2298
100
AcDbXrecord
 40
0.0
  0
XRECORD
  5
22A6
102
{ACAD_REACTORS
330
2298
102
}
330
2298
100
AcDbXrecord
1000
DSTYLE
1002
{
1070
    79
 70
     2
1070
   341
340
59
1070
   342
340
59
1070
   371
 70
    -1
1070
   372
 70
    -1
1002
}
  0
XRECORD
  5
22A7
102
{ACAD_REACTORS
330
2298
102
}
330
2298
100
AcDbXrecord
340
0
  0
XRECORD
  5
22A8
102
{ACAD_REACTORS
330
2298
102
}
330
2298
100
AcDbXrecord
 70
     0
  0
XRECORD
  5
22A9
102
{ACAD_REACTORS
330
2298
102
}
330
2298
100
AcDbXrecord
340
0
  0
XRECORD
  5
22AA
102
{ACAD_REACTORS
330
2298
102
}
330
2298
100
AcDbXrecord
 10
0.0
 20
0.0
 30
0.0
  0
XRECORD
  5
22AB
102
{ACAD_REACTORS
330
2298
102
}
330
2298
100
AcDbXrecord
 10
0.0
 20
0.0
 30
0.0
  0
XRECORD
  5
22AC
102
{ACAD_REACTORS
330
2298
102
}
330
2298
100
AcDbXrecord
 10
0.0
 20
0.0
 30
0.0
  0
XRECORD
  5
22AD
102
{ACAD_REACTORS
330
2298
102
}
330
2298
100
AcDbXrecord
 10
0.0
 20
0.0
 30
0.0
  0
XRECORD
  5
22AE
102
{ACAD_REACTORS
330
2298
102
}
330
2298
100
AcDbXrecord
 10
0.0
 20
0.0
 30
0.0
  0
XRECORD
  5
22AF
102
{ACAD_REACTORS
330
2298
102
}
330
2298
100
AcDbXrecord
 10
0.0
 20
0.0
 30
0.0
  0
XRECORD
  5
22B0
102
{ACAD_REACTORS
330
2298
102
}
330
2298
100
AcDbXrecord
340
0
  0
XRECORD
  5
22B1
102
{ACAD_REACTORS
330
2298
102
}
330
2298
100
AcDbXrecord
 70
     0
  0
XRECORD
  5
22B2
102
{ACAD_REACTORS
330
2298
102
}
330
2298
100
AcDbXrecord
340
0
  0
XRECORD
  5
22B3
102
{ACAD_REACTORS
330
2298
102
}
330
2298
100
AcDbXrecord
 10
0.0
 20
0.0
 30
0.0
  0
XRECORD
  5
22B4
102
{ACAD_REACTORS
330
2298
102
}
330
2298
100
AcDbXrecord
 10
0.0
 20
0.0
 30
0.0
  0
XRECORD
  5
22B5
102
{ACAD_REACTORS
330
2298
102
}
330
2298
100
AcDbXrecord
 10
0.0
 20
0.0
 30
0.0
  0
XRECORD
  5
22B6
102
{ACAD_REACTORS
330
2298
102
}
330
2298
100
AcDbXrecord
 10
0.0
 20
0.0
 30
0.0
  0
XRECORD
  5
22B7
102
{ACAD_REACTORS
330
2298
102
}
330
2298
100
AcDbXrecord
 10
0.0
 20
0.0
 30
0.0
  0
XRECORD
  5
22B8
102
{ACAD_REACTORS
330
2298
102
}
330
2298
100
AcDbXrecord
 10
0.0
 20
0.0
 30
0.0
  0
LAYER_INDEX
  5
228F
102
{ACAD_REACTORS
330
228E
102
}
330
228E
100
AcDbIndex
 40
2453151.794195984
100
AcDbLayerIndex
  8
0
360
2290
 90
        0
  8
AM_0
360
2291
 90
       67
  8
AM_11
360
2292
 90
        3
  8
AM_7
360
2293
 90
        1
  8
AM_5
360
2294
 90
        4
  8
Defpoints
360
2295
 90
        0
  8
AM_6
360
2296
 90
        1
  0
XRECORD
  5
2D
102
{ACAD_REACTORS
330
2C
102
}
330
2C
100
AcDbXrecord
  1
VERSION
140
15.0
  1
PRODUCT
  2
AutoCAD Mechanical 2000
  0
IDBUFFER
  5
2290
330
0
100
AcDbIdBuffer
  0
IDBUFFER
  5
2291
330
0
100
AcDbIdBuffer
330
1F8F
330
1F90
330
1F91
330
1F92
330
1F93
330
1F94
330
1F95
330
1F96
330
1F97
330
1F98
330
1F99
330
1F9A
330
2015
330
2018
330
2019
330
201A
330
201C
330
20CF
330
20D0
330
1C3B
330
1C3C
330
1C3F
330
1C40
330
1C59
330
1C5C
330
1F3A
330
1F3B
330
1F3C
330
1F3D
330
1F3E
330
1F3F
330
1F40
330
1F41
330
1F4F
330
1F50
330
1F51
330
1F52
330
1F53
330
1F54
330
1F56
330
1F57
330
1F5A
330
1F5B
330
1F5C
330
1F5D
330
1F5E
330
1F5F
330
1F60
330
1F61
330
1F62
330
1F63
330
1F64
330
1F65
330
1F66
330
1F67
330
1F68
330
1F69
330
1F6A
330
1F6B
330
1F6C
330
1F6D
330
1F6E
330
1F6F
330
1F70
330
1F71
330
1F7F
330
1F8E
  0
IDBUFFER
  5
2292
330
0
100
AcDbIdBuffer
330
1F55
330
1F58
330
1F59
  0
IDBUFFER
  5
2293
330
0
100
AcDbIdBuffer
330
D74
  0
IDBUFFER
  5
2294
330
0
100
AcDbIdBuffer
330
D71
330
1C41
330
1F42
330
1F72
  0
IDBUFFER
  5
2295
330
0
100
AcDbIdBuffer
  0
IDBUFFER
  5
2296
330
0
100
AcDbIdBuffer
330
E5A
  0
ENDSEC
  0
EOF
