  0
SECTION
  2
HEADER
  9
$ACADVER
  1
AC1014
  9
$ACADMAINTVER
 70
     9
  9
$DWGCODEPAGE
  3
ANSI_932
  9
$INSBASE
 10
0.0
 20
0.0
 30
0.0
  9
$EXTMIN
 10
-61.18888711293332
 20
-27.23730472029734
 30
-0.00000001
  9
$EXTMAX
 10
8.454265873422846
 20
10.55740616315988
 30
0.00000001
  9
$LIMMIN
 10
-64.81963446797459
 20
-33.94622325487037
  9
$LIMMAX
 10
12.70053007158867
 20
15.10420782553734
  9
$ORTHOMODE
 70
     0
  9
$REGENMODE
 70
     1
  9
$FILLMODE
 70
     1
  9
$QTEXTMODE
 70
     0
  9
$MIRRTEXT
 70
     0
  9
$DRAGMODE
 70
     2
  9
$LTSCALE
 40
1.0
  9
$OSMODE
 70
  2103
  9
$ATTMODE
 70
     1
  9
$TEXTSIZE
 40
2.5
  9
$TRACEWID
 40
1.0
  9
$TEXTSTYLE
  7
STANDARD
  9
$CLAYER
  8
AM_0
  9
$CELTYPE
  6
BYLAYER
  9
$CECOLOR
 62
   256
  9
$CELTSCALE
 40
1.0
  9
$DELOBJ
 70
     1
  9
$DISPSILH
 70
     0
  9
$DIMSCALE
 40
0.5
  9
$DIMASZ
 40
2.5
  9
$DIMEXO
 40
1.0
  9
$DIMDLI
 40
12.0
  9
$DIMRND
 40
0.0
  9
$DIMDLE
 40
0.0
  9
$DIMEXE
 40
1.0
  9
$DIMTP
 40
0.1
  9
$DIMTM
 40
0.1
  9
$DIMTXT
 40
3.2
  9
$DIMCEN
 40
0.0
  9
$DIMTSZ
 40
0.0
  9
$DIMTOL
 70
     0
  9
$DIMLIM
 70
     0
  9
$DIMTIH
 70
     0
  9
$DIMTOH
 70
     0
  9
$DIMSE1
 70
     0
  9
$DIMSE2
 70
     0
  9
$DIMTAD
 70
     3
  9
$DIMZIN
 70
     8
  9
$DIMBLK
  1
OPEN30
  9
$DIMASO
 70
     1
  9
$DIMSHO
 70
     1
  9
$DIMPOST
  1

  9
$DIMAPOST
  1
"
  9
$DIMALT
 70
     0
  9
$DIMALTD
 70
     2
  9
$DIMALTF
 40
0.0393701
  9
$DIMLFAC
 40
1.0
  9
$DIMTOFL
 70
     1
  9
$DIMTVP
 40
0.0
  9
$DIMTIX
 70
     0
  9
$DIMSOXD
 70
     0
  9
$DIMSAH
 70
     0
  9
$DIMBLK1
  1

  9
$DIMBLK2
  1

  9
$DIMSTYLE
  2
AM_JIS
  9
$DIMCLRD
 70
   256
  9
$DIMCLRE
 70
   256
  9
$DIMCLRT
 70
     2
  9
$DIMTFAC
 40
0.71
  9
$DIMGAP
 40
1.5
  9
$DIMJUST
 70
     0
  9
$DIMSD1
 70
     0
  9
$DIMSD2
 70
     0
  9
$DIMTOLJ
 70
     0
  9
$DIMTZIN
 70
     0
  9
$DIMALTZ
 70
     0
  9
$DIMALTTZ
 70
     0
  9
$DIMFIT
 70
     3
  9
$DIMUPT
 70
     0
  9
$DIMUNIT
 70
     2
  9
$DIMDEC
 70
     3
  9
$DIMTDEC
 70
     3
  9
$DIMALTU
 70
     2
  9
$DIMALTTD
 70
     2
  9
$DIMTXSTY
  7
ASAMI
  9
$DIMAUNIT
 70
     0
  9
$LUNITS
 70
     2
  9
$LUPREC
 70
     2
  9
$SKETCHINC
 40
1.0
  9
$FILLETRAD
 40
2.5
  9
$AUNITS
 70
     0
  9
$AUPREC
 70
     0
  9
$MENU
  1
.
  9
$ELEVATION
 40
0.0
  9
$PELEVATION
 40
0.0
  9
$THICKNESS
 40
0.0
  9
$LIMCHECK
 70
     0
  9
$BLIPMODE
 70
     0
  9
$CHAMFERA
 40
0.5
  9
$CHAMFERB
 40
0.5
  9
$CHAMFERC
 40
20.0
  9
$CHAMFERD
 40
0.0
  9
$SKPOLY
 70
     0
  9
$TDCREATE
 40
2452808.461142939
  9
$TDUPDATE
 40
2452844.457618634
  9
$TDINDWG
 40
0.1619735532
  9
$TDUSRTIMER
 40
0.1619735532
  9
$USRTIMER
 70
     1
  9
$ANGBASE
 50
0.0
  9
$ANGDIR
 70
     0
  9
$PDMODE
 70
     0
  9
$PDSIZE
 40
0.0
  9
$PLINEWID
 40
0.0
  9
$COORDS
 70
     2
  9
$SPLFRAME
 70
     0
  9
$SPLINETYPE
 70
     6
  9
$SPLINESEGS
 70
     8
  9
$ATTDIA
 70
     1
  9
$ATTREQ
 70
     1
  9
$HANDLING
 70
 12289
  9
$HANDSEED
  5
32B4
  9
$SURFTAB1
 70
     6
  9
$SURFTAB2
 70
     6
  9
$SURFTYPE
 70
     6
  9
$SURFU
 70
     6
  9
$SURFV
 70
     6
  9
$UCSNAME
  2

  9
$UCSORG
 10
0.000000000012605
 20
-0.0000000000000144
 30
0.0
  9
$UCSXDIR
 10
1.0
 20
0.0
 30
0.0
  9
$UCSYDIR
 10
0.0
 20
1.0
 30
0.0
  9
$PUCSNAME
  2

  9
$PUCSORG
 10
0.0
 20
0.0
 30
0.0
  9
$PUCSXDIR
 10
1.0
 20
0.0
 30
0.0
  9
$PUCSYDIR
 10
0.0
 20
1.0
 30
0.0
  9
$USERI1
 70
     0
  9
$USERI2
 70
     0
  9
$USERI3
 70
     0
  9
$USERI4
 70
     0
  9
$USERI5
 70
     0
  9
$USERR1
 40
0.0
  9
$USERR2
 40
0.0
  9
$USERR3
 40
0.0
  9
$USERR4
 40
0.0
  9
$USERR5
 40
0.0
  9
$WORLDVIEW
 70
     1
  9
$SHADEDGE
 70
     3
  9
$SHADEDIF
 70
    70
  9
$TILEMODE
 70
     1
  9
$MAXACTVP
 70
    64
  9
$PINSBASE
 10
0.0
 20
0.0
 30
0.0
  9
$PLIMCHECK
 70
     0
  9
$PEXTMIN
 10
1.000000000000000E+20
 20
1.000000000000000E+20
 30
1.000000000000000E+20
  9
$PEXTMAX
 10
-1.000000000000000E+20
 20
-1.000000000000000E+20
 30
-1.000000000000000E+20
  9
$PLIMMIN
 10
0.0
 20
0.0
  9
$PLIMMAX
 10
841.0
 20
594.0
  9
$UNITMODE
 70
     0
  9
$VISRETAIN
 70
     1
  9
$PLINEGEN
 70
     0
  9
$PSLTSCALE
 70
     0
  9
$TREEDEPTH
 70
  3020
  9
$PICKSTYLE
 70
     0
  9
$CMLSTYLE
  2
STANDARD
  9
$CMLJUST
 70
     0
  9
$CMLSCALE
 40
20.0
  9
$PROXYGRAPHICS
 70
     1
  9
$MEASUREMENT
 70
     1
  0
ENDSEC
  0
SECTION
  2
CLASSES
  0
CLASS
  1
ACDBDICTIONARYWDFLT
  2
AcDbDictionaryWithDefault
  3
AutoCAD 2000
 90
        0
280
     0
281
     0
  0
CLASS
  1
ACDBPLACEHOLDER
  2
AcDbPlaceHolder
  3
AutoCAD 2000
 90
        0
280
     0
281
     0
  0
CLASS
  1
LAYOUT
  2
AcDbLayout
  3
AutoCAD 2000
 90
        0
280
     0
281
     0
  0
CLASS
  1
AMGSETTINGSOBJ
  2
AmgSettingsObj
  3
"AcadM|Product Description: AutoCAD Mechanical 2000|Company: Autodesk"
 90
        0
280
     0
281
     0
  0
CLASS
  1
ACME_DOCUMENT
  2
AcMeDbDoc
  3
AcMeServices
 90
        0
280
     0
281
     0
  0
CLASS
  1
ACMESCOPE
  2
AcMeScope
  3
AcMeServices
 90
        0
280
     0
281
     0
  0
CLASS
  1
ACMECOMMANDHISTORY
  2
AcMeCommandHistory
  3
AcMeServices
 90
        0
280
     0
281
     0
  0
CLASS
  1
DICTIONARYVAR
  2
AcDbDictionaryVar
  3
AutoCAD 2000
 90
        0
280
     0
281
     0
  0
CLASS
  1
ACIMSYSVARMAN
  2
AcImSysVarManager
  3
AcMeServices
 90
        0
280
     0
281
     0
  0
CLASS
  1
ACIMREALSYSVAR
  2
AcImRealSysVar
  3
AcMeServices
 90
        0
280
     0
281
     0
  0
CLASS
  1
ACIMINTSYSVAR
  2
AcImIntSysVar
  3
AcMeServices
 90
        0
280
     0
281
     0
  0
CLASS
  1
ACMEDRAWINGMAN
  2
AcMeDrawingMan
  3
AcMeServices
 90
        0
280
     0
281
     0
  0
CLASS
  1
ACMEVIEW
  2
AcMeView
  3
AcMeServices
 90
        0
280
     0
281
     0
  0
CLASS
  1
ACDBENTITYCACHE
  2
AcMeEntityCache
  3
AcMeServices
 90
        0
280
     0
281
     0
  0
CLASS
  1
GSMANAGER
  2
AcMeGSManager
  3
AcMeServices
 90
        0
280
     0
281
     0
  0
CLASS
  1
AmdtInternalReactor
  2
AmdtInternalReactor
  3
AcMeServices
 90
        0
280
     0
281
     0
  0
CLASS
  1
ACMESTATEMGR
  2
AcMeStateMgr
  3
AcMeServices
 90
        0
280
     0
281
     0
  0
CLASS
  1
ACME_DATABASE
  2
AcMeDbDatabase
  3
AcMeServices
 90
        0
280
     0
281
     0
  0
CLASS
  1
ACRFINSADJUSTERMGR
  2
AcRfInsAdjusterMgr
  3
AcMeServices
 90
        0
280
     0
281
     0
  0
CLASS
  1
ACMDATADICTIONARY
  2
AcmDataDictionary
  3
"AcmSymBB|Product Description: AutoCAD Mechanical 2000|Company: Autodesk"
 90
        0
280
     0
281
     0
  0
CLASS
  1
ACMDATAENTRYBLOCK
  2
AcmDataEntryBlock
  3
"AcmSymBB|Product Description: AutoCAD Mechanical 2000|Company: Autodesk"
 90
        0
280
     0
281
     0
  0
CLASS
  1
AMGOBJPROPCFG
  2
AmgObjPropCfg
  3
"AmgLay|Product Description: AutoCAD Mechanical 2000|Company: Autodesk"
 90
        1
280
     0
281
     0
  0
CLASS
  1
ACAMGFILTERDAT
  2
AcAmgFilterDat
  3
"AcadM|Product Description: AutoCAD Mechanical 2000|Company: Autodesk"
 90
        0
280
     0
281
     0
  0
CLASS
  1
LAYER_INDEX
  2
AcDbLayerIndex
  3
AutoCAD 2000
 90
        0
280
     0
281
     0
  0
CLASS
  1
IDBUFFER
  2
AcDbIdBuffer
  3
AutoCAD 2000
 90
        0
280
     0
281
     0
  0
CLASS
  1
ACIMSTRSYSVAR
  2
AcImStrSysVar
  3
AcMeServices
 90
        0
280
     0
281
     0
  0
CLASS
  1
ACMSTANDARDJIS
  2
AcmStandardJIS
  3
"AcmSymBB|Product Description: AutoCAD Mechanical 2000|Company: Autodesk"
 90
        0
280
     0
281
     0
  0
CLASS
  1
ACMSURFSTANDARDJIS
  2
AcmSurfTextStdJIS
  3
"AcmSymBB|Product Description: AutoCAD Mechanical 2000|Company: Autodesk"
 90
        0
280
     0
281
     0
  0
CLASS
  1
ACMFCFSTANDARDJIS
  2
AcmFCFStdJIS
  3
"AcmSymBB|Product Description: AutoCAD Mechanical 2000|Company: Autodesk"
 90
        0
280
     0
281
     0
  0
CLASS
  1
ACMWELDSTANDARDJIS
  2
AcmWeldingStdJIS
  3
"AcmSymBB|Product Description: AutoCAD Mechanical 2000|Company: Autodesk"
 90
        0
280
     0
281
     0
  0
CLASS
  1
ACMIDSTANDARDJIS
  2
AcmIdStdJIS
  3
"AcmSymBB|Product Description: AutoCAD Mechanical 2000|Company: Autodesk"
 90
        0
280
     0
281
     0
  0
CLASS
  1
ACMDATUMSTANDARDJIS
  2
AcmDatumStdJIS
  3
"AcmSymBB|Product Description: AutoCAD Mechanical 2000|Company: Autodesk"
 90
        0
280
     0
281
     0
  0
CLASS
  1
ACMBOMSTANDARDJIS
  2
AcmBOMStdJIS
  3
"AcmSymBB|Product Description: AutoCAD Mechanical 2000|Company: Autodesk"
 90
        0
280
     0
281
     0
  0
CLASS
  1
ACMSTANDARDANSI
  2
AcmStandardANSI
  3
"AcmSymBB|Product Description: AutoCAD Mechanical 2000|Company: Autodesk"
 90
        0
280
     0
281
     0
  0
CLASS
  1
ACMSURFSTANDARDANSI
  2
AcmSurfTextStdANSI
  3
"AcmSymBB|Product Description: AutoCAD Mechanical 2000|Company: Autodesk"
 90
        0
280
     0
281
     0
  0
CLASS
  1
ACMFCFSTANDARDANSI
  2
AcmFCFStdANSI
  3
"AcmSymBB|Product Description: AutoCAD Mechanical 2000|Company: Autodesk"
 90
        0
280
     0
281
     0
  0
CLASS
  1
ACMWELDSTANDARDANSI
  2
AcmWeldingStdANSI
  3
"AcmSymBB|Product Description: AutoCAD Mechanical 2000|Company: Autodesk"
 90
        0
280
     0
281
     0
  0
CLASS
  1
ACMIDSTANDARDANSI
  2
AcmIdStdANSI
  3
"AcmSymBB|Product Description: AutoCAD Mechanical 2000|Company: Autodesk"
 90
        0
280
     0
281
     0
  0
CLASS
  1
ACMDATUMSTANDARDANSI
  2
AcmDatumStdANSI
  3
"AcmSymBB|Product Description: AutoCAD Mechanical 2000|Company: Autodesk"
 90
        0
280
     0
281
     0
  0
CLASS
  1
ACMBOMSTANDARDANSI
  2
AcmBOMStdANSI
  3
"AcmSymBB|Product Description: AutoCAD Mechanical 2000|Company: Autodesk"
 90
        0
280
     0
281
     0
  0
CLASS
  1
ACMSTANDARDBSI
  2
AcmStandardBSI
  3
"AcmSymBB|Product Description: AutoCAD Mechanical 2000|Company: Autodesk"
 90
        0
280
     0
281
     0
  0
CLASS
  1
ACMSURFSTANDARDBSI
  2
AcmSurfTextStdBSI
  3
"AcmSymBB|Product Description: AutoCAD Mechanical 2000|Company: Autodesk"
 90
        0
280
     0
281
     0
  0
CLASS
  1
ACMFCFSTANDARDBSI
  2
AcmFCFStdBSI
  3
"AcmSymBB|Product Description: AutoCAD Mechanical 2000|Company: Autodesk"
 90
        0
280
     0
281
     0
  0
CLASS
  1
ACMWELDSTANDARDBSI
  2
AcmWeldingStdBSI
  3
"AcmSymBB|Product Description: AutoCAD Mechanical 2000|Company: Autodesk"
 90
        0
280
     0
281
     0
  0
CLASS
  1
ACMIDSTANDARDBSI
  2
AcmIdStdBSI
  3
"AcmSymBB|Product Description: AutoCAD Mechanical 2000|Company: Autodesk"
 90
        0
280
     0
281
     0
  0
CLASS
  1
ACMDATUMSTANDARDBSI
  2
AcmDatumStdBSI
  3
"AcmSymBB|Product Description: AutoCAD Mechanical 2000|Company: Autodesk"
 90
        0
280
     0
281
     0
  0
CLASS
  1
ACMBOMSTANDARDBSI
  2
AcmBOMStdBSI
  3
"AcmSymBB|Product Description: AutoCAD Mechanical 2000|Company: Autodesk"
 90
        0
280
     0
281
     0
  0
CLASS
  1
LONG_TRANSACTION
  2
AcDbLongTransaction
  3
AutoCAD 2000
 90
        0
280
     0
281
     0
  0
CLASS
  1
LWPOLYLINE
  2
AcDbPolyline
  3
AutoCAD 2000
 90
        0
280
     0
281
     1
  0
CLASS
  1
HATCH
  2
AcDbHatch
  3
AutoCAD 2000
 90
        0
280
     0
281
     1
  0
CLASS
  1
XRECORD
  2
AcDbXrecord
  3
AutoCAD 2000
 90
        0
280
     0
281
     0
  0
ENDSEC
  0
SECTION
  2
TABLES
  0
TABLE
  2
VPORT
  5
8
330
0
100
AcDbSymbolTable
 70
     3
  0
VPORT
  5
3289
330
8
100
AcDbSymbolTableRecord
100
AcDbViewportTableRecord
  2
*ACTIVE
 70
     0
 10
0.0
 20
0.0
 11
1.0
 21
1.0
 12
-26.36638911739902
 22
-8.338082975016362
 13
0.0
 23
0.0
 14
2.5
 24
2.5
 15
10.0
 25
10.0
 16
0.0
 26
0.0
 36
1.0
 17
0.0
 27
0.0
 37
0.0
 40
44.66351640756484
 41
1.56570841889117
 42
50.0
 43
0.0
 44
0.0
 50
0.0
 51
0.0
 71
     0
 72
   100
 73
     1
 74
     3
 75
     0
 76
     0
 77
     0
 78
     0
  0
ENDTAB
  0
TABLE
  2
LTYPE
  5
5
330
0
100
AcDbSymbolTable
 70
    10
  0
LTYPE
  5
14
330
5
100
AcDbSymbolTableRecord
100
AcDbLinetypeTableRecord
  2
BYBLOCK
 70
     0
  3

 72
    65
 73
     0
 40
0.0
  0
LTYPE
  5
15
330
5
100
AcDbSymbolTableRecord
100
AcDbLinetypeTableRecord
  2
BYLAYER
 70
     0
  3

 72
    65
 73
     0
 40
0.0
  0
LTYPE
  5
16
330
5
100
AcDbSymbolTableRecord
100
AcDbLinetypeTableRecord
  2
CONTINUOUS
 70
     0
  3
Solid line
 72
    65
 73
     0
 40
0.0
  0
LTYPE
  5
4B
330
5
100
AcDbSymbolTableRecord
100
AcDbLinetypeTableRecord
  2
AM_ISO02W050
 70
     0
  3
__ __ __ __ __ __ __ __ __ __ __ __ __ __ __
 72
    65
 73
     2
 40
7.5
 49
6.0
 74
     0
 49
-1.5
 74
     0
  0
LTYPE
  5
4C
330
5
100
AcDbSymbolTableRecord
100
AcDbLinetypeTableRecord
  2
AM_ISO08W050
 70
     0
  3
____ . ____ . ____ . ____ . ____ . ____ . ____
 72
    65
 73
     4
 40
18.0
 49
12.0
 74
     0
 49
-1.5
 74
     0
 49
3.0
 74
     0
 49
-1.5
 74
     0
  0
LTYPE
  5
4D
330
5
100
AcDbSymbolTableRecord
100
AcDbLinetypeTableRecord
  2
AM_ISO09W050
 70
     0
  3
_____ . . _____ . . _____ . . ____ .. ____
 72
    65
 73
     6
 40
22.5
 49
12.0
 74
     0
 49
-1.5
 74
     0
 49
3.0
 74
     0
 49
-1.5
 74
     0
 49
3.0
 74
     0
 49
-1.5
 74
     0
  0
LTYPE
  5
4E
330
5
100
AcDbSymbolTableRecord
100
AcDbLinetypeTableRecord
  2
AMCONSTR
 70
     0
  3
_______________________
 72
    65
 73
     2
 40
9999.0
 49
9999.0
 74
     0
 49
0.0
 74
     0
  0
LTYPE
  5
4F
330
5
100
AcDbSymbolTableRecord
100
AcDbLinetypeTableRecord
  2
AM_ISO02W050X2
 70
     0
  3
 _ _ _ _ _ _ _ _ _ _ _ _
 72
    65
 73
     2
 40
3.75
 49
3.0
 74
     0
 49
-0.75
 74
     0
  0
LTYPE
  5
50
330
5
100
AcDbSymbolTableRecord
100
AcDbLinetypeTableRecord
  2
AM_ISO08W050X2
 70
     0
  3
__ . __ . __ . __ . __ . __
 72
    65
 73
     4
 40
9.0
 49
6.0
 74
     0
 49
-0.75
 74
     0
 49
1.5
 74
     0
 49
-0.75
 74
     0
  0
LTYPE
  5
53
330
5
100
AcDbSymbolTableRecord
100
AcDbLinetypeTableRecord
  2
AMZIGZAG
 70
     0
  3
/\/-/\/-/\/-/\/-/\/-/\/
 72
    65
 73
     2
 40
11.00009999999999
 49
0.0001
 74
     4
 75
   135
340
52
 46
0.04
 50
0.0
 44
0.0
 45
0.0
 49
-11.0
 74
     0
  0
LTYPE
  5
166
330
5
100
AcDbSymbolTableRecord
100
AcDbLinetypeTableRecord
  2
ACJISTGL
 70
     0
  3
_ _ _ _ _
 72
    65
 73
     2
 40
3.0
 49
2.0
 74
     0
 49
-1.0
 74
     0
  0
LTYPE
  5
26A
330
5
100
AcDbSymbolTableRecord
100
AcDbLinetypeTableRecord
  2
ACJISTGB
 70
     0
  3
__ . . __ . .
 72
    65
 73
     6
 40
9.0
 49
4.0
 74
     0
 49
-1.0
 74
     0
 49
1.0
 74
     0
 49
-1.0
 74
     0
 49
1.0
 74
     0
 49
-1.0
 74
     0
  0
ENDTAB
  0
TABLE
  2
LAYER
  5
2
330
0
100
AcDbSymbolTable
 70
     7
  0
LAYER
  5
10
330
2
100
AcDbSymbolTableRecord
100
AcDbLayerTableRecord
  2
0
 70
     0
 62
     7
  6
CONTINUOUS
  0
LAYER
  5
3F9
330
2
100
AcDbSymbolTableRecord
100
AcDbLayerTableRecord
  2
AM_0
 70
     0
 62
     7
  6
CONTINUOUS
  0
LAYER
  5
BA4
330
2
100
AcDbSymbolTableRecord
100
AcDbLayerTableRecord
  2
AM_11
 70
     0
 62
     3
  6
AM_ISO09W050
  0
LAYER
  5
BA6
330
2
100
AcDbSymbolTableRecord
100
AcDbLayerTableRecord
  2
AM_6
 70
     0
 62
     2
  6
CONTINUOUS
  0
LAYER
  5
BA7
330
2
100
AcDbSymbolTableRecord
100
AcDbLayerTableRecord
  2
AM_7
 70
     0
 62
     4
  6
AM_ISO08W050
  0
LAYER
  5
D0E
330
2
100
AcDbSymbolTableRecord
100
AcDbLayerTableRecord
  2
AM_5
 70
     0
 62
     3
  6
CONTINUOUS
  0
LAYER
  5
FE8
330
2
100
AcDbSymbolTableRecord
100
AcDbLayerTableRecord
  2
DEFPOINTS
 70
     0
 62
     7
  6
CONTINUOUS
  0
ENDTAB
  0
TABLE
  2
STYLE
  5
3
330
0
100
AcDbSymbolTable
 70
     5
  0
STYLE
  5
11
330
3
100
AcDbSymbolTableRecord
100
AcDbTextStyleTableRecord
  2
STANDARD
 70
     0
 40
0.0
 41
1.0
 50
0.0
 71
     0
 42
2.5
  3
simplex.shx
  4
EXTFONT.SHX
  0
STYLE
  5
52
330
3
100
AcDbSymbolTableRecord
100
AcDbTextStyleTableRecord
  2

 70
     1
 40
0.0
 41
1.0
 50
0.0
 71
     0
 42
2.5
  3
ltypeshp.shx
  4

  0
STYLE
  5
6B
330
3
100
AcDbSymbolTableRecord
100
AcDbTextStyleTableRecord
  2
ASAMI
 70
     0
 40
0.0
 41
1.0
 50
0.0
 71
     0
 42
2.5
  3
simplex.shx
  4
EXTFONT.SHX
  0
STYLE
  5
262
330
3
100
AcDbSymbolTableRecord
100
AcDbTextStyleTableRecord
  2
ACJISTS
 70
     0
 40
1.0
 41
1.0
 50
0.0
 71
     0
 42
2.5
  3
simplex.shx
  4
bigfont.shx
  0
STYLE
  5
269
330
3
100
AcDbSymbolTableRecord
100
AcDbTextStyleTableRecord
  2
ACJISGDT
 70
     0
 40
0.0
 41
1.0
 50
0.0
 71
     0
 42
2.5
  3
amgdtans.shx
  4

  0
ENDTAB
  0
TABLE
  2
VIEW
  5
6
330
0
100
AcDbSymbolTable
 70
     0
  0
ENDTAB
  0
TABLE
  2
UCS
  5
7
330
0
100
AcDbSymbolTable
 70
     0
  0
ENDTAB
  0
TABLE
  2
APPID
  5
9
330
0
100
AcDbSymbolTable
 70
    12
  0
APPID
  5
12
330
9
100
AcDbSymbolTableRecord
100
AcDbRegAppTableRecord
  2
ACAD
 70
     0
  0
APPID
  5
30
330
9
100
AcDbSymbolTableRecord
100
AcDbRegAppTableRecord
  2
MCAD_NO_VIS
 70
     0
  0
APPID
  5
31
330
9
100
AcDbSymbolTableRecord
100
AcDbRegAppTableRecord
  2
ACAD_TEMP_GRAPHIC
 70
     0
  0
APPID
  5
2C2
330
9
100
AcDbSymbolTableRecord
100
AcDbRegAppTableRecord
  2
GENIUS_GENDTOL_13
 70
     0
  0
APPID
  5
339
330
9
100
AcDbSymbolTableRecord
100
AcDbRegAppTableRecord
  2
GENIUS_GENODEF_13
 70
     0
  0
APPID
  5
33A
330
9
100
AcDbSymbolTableRecord
100
AcDbRegAppTableRecord
  2
GENIUS_GENOBJ-N-RSBK_13
 70
     0
  0
APPID
  5
33B
330
9
100
AcDbSymbolTableRecord
100
AcDbRegAppTableRecord
  2
GENIUS_GENOBJ-N-LIB_13
 70
     0
  0
APPID
  5
33C
330
9
100
AcDbSymbolTableRecord
100
AcDbRegAppTableRecord
  2
GENIUS_GENSCALE_13
 70
     0
  0
APPID
  5
378
330
9
100
AcDbSymbolTableRecord
100
AcDbRegAppTableRecord
  2
GENIUS_GENDIMSH_14
 70
     0
  0
APPID
  5
BA8
330
9
100
AcDbSymbolTableRecord
100
AcDbRegAppTableRecord
  2
GENIUS_GENOBJ-N-CEN_13
 70
     0
  0
APPID
  5
EE8
330
9
100
AcDbSymbolTableRecord
100
AcDbRegAppTableRecord
  2
GENIUS_GENFIL_13
 70
     0
  0
APPID
  5
EE9
330
9
100
AcDbSymbolTableRecord
100
AcDbRegAppTableRecord
  2
GENIUS_GENOBJ-N-CHA_13
 70
     0
  0
ENDTAB
  0
TABLE
  2
DIMSTYLE
  5
A
330
0
100
AcDbSymbolTable
 70
     8
  0
DIMSTYLE
105
58
102
{ACAD_REACTORS
330
2F92
330
2F96
330
30D0
330
310A
102
}
330
A
100
AcDbSymbolTableRecord
100
AcDbDimStyleTableRecord
  2
AM_JIS
 70
     0
  3

  4
"
  5
OPEN30
  6

  7

 40
0.5
 41
2.5
 42
1.0
 43
12.0
 44
1.0
 45
0.0
 46
0.0
 47
0.1
 48
0.1
140
3.2
141
0.0
142
0.0
143
0.0393701
144
1.0
145
0.0
146
0.71
147
1.5
 71
     0
 72
     0
 73
     0
 74
     0
 75
     0
 76
     0
 77
     3
 78
     8
170
     0
171
     2
172
     1
173
     0
174
     0
175
     0
176
   256
177
   256
178
     2
270
     2
271
     3
272
     3
273
     2
274
     2
340
6B
275
     0
280
     0
281
     0
282
     0
283
     0
284
     0
285
     0
286
     0
287
     3
288
     0
  0
DIMSTYLE
105
5F
330
A
100
AcDbSymbolTableRecord
100
AcDbDimStyleTableRecord
  2
AM_JIS$3
 70
     0
  3

  4
"
  5
OPEN30
  6

  7

 40
0.5
 41
2.5
 42
1.0
 43
10.0
 44
1.0
 45
0.0
 46
0.0
 47
0.1
 48
0.1
140
3.2
141
0.0
142
0.0
143
0.0393701
144
1.0
145
0.0
146
0.71
147
1.5
 71
     0
 72
     0
 73
     0
 74
     1
 75
     0
 76
     0
 77
     3
 78
     8
170
     0
171
     2
172
     0
173
     0
174
     0
175
     0
176
   256
177
   256
178
     2
270
     2
271
     2
272
     3
273
     2
274
     2
340
6B
275
     0
280
     0
281
     0
282
     0
283
     0
284
     0
285
     0
286
     0
287
     0
288
     1
  0
DIMSTYLE
105
60
330
A
100
AcDbSymbolTableRecord
100
AcDbDimStyleTableRecord
  2
AM_JIS$4
 70
     0
  3

  4
"
  5
OPEN30
  6

  7

 40
0.5
 41
2.5
 42
1.0
 43
10.0
 44
1.0
 45
0.0
 46
0.0
 47
0.1
 48
0.1
140
3.2
141
0.0
142
0.0
143
0.0393701
144
1.0
145
0.0
146
0.71
147
1.5
 71
     0
 72
     0
 73
     0
 74
     1
 75
     0
 76
     0
 77
     3
 78
     8
170
     0
171
     2
172
     0
173
     0
174
     0
175
     0
176
   256
177
   256
178
     2
270
     2
271
     2
272
     3
273
     2
274
     2
340
6B
275
     0
280
     0
281
     0
282
     0
283
     0
284
     0
285
     0
286
     0
287
     0
288
     1
  0
DIMSTYLE
105
61
330
A
100
AcDbSymbolTableRecord
100
AcDbDimStyleTableRecord
  2
AM_JIS$6
 70
     0
  3

  4
"
  5
OPEN30
  6

  7

 40
0.5
 41
2.5
 42
1.0
 43
10.0
 44
1.0
 45
0.0
 46
0.0
 47
0.1
 48
0.1
140
3.2
141
0.0
142
0.0
143
0.0393701
144
1.0
145
0.0
146
0.71
147
1.5
 71
     0
 72
     0
 73
     0
 74
     0
 75
     0
 76
     0
 77
     0
 78
     8
170
     0
171
     2
172
     1
173
     0
174
     0
175
     0
176
   256
177
   256
178
     2
270
     2
271
     2
272
     2
273
     2
274
     2
340
6B
275
     0
280
     0
281
     0
282
     0
283
     0
284
     0
285
     0
286
     0
287
     3
288
     0
  0
DIMSTYLE
105
62
330
A
100
AcDbSymbolTableRecord
100
AcDbDimStyleTableRecord
  2
AM_JIS$7
 70
     0
  3

  4
"
  5
OPEN30
  6

  7

 40
0.5
 41
2.5
 42
1.0
 43
10.0
 44
1.0
 45
0.0
 46
0.0
 47
0.1
 48
0.1
140
3.2
141
0.0
142
0.0
143
0.0393701
144
1.0
145
0.0
146
0.71
147
1.5
 71
     0
 72
     0
 73
     0
 74
     0
 75
     0
 76
     0
 77
     3
 78
     8
170
     0
171
     2
172
     1
173
     0
174
     0
175
     0
176
   256
177
   256
178
     2
270
     2
271
     2
272
     3
273
     2
274
     2
340
6B
275
     0
280
     0
281
     0
282
     0
283
     0
284
     0
285
     0
286
     0
287
     3
288
     0
  0
DIMSTYLE
105
63
330
A
100
AcDbSymbolTableRecord
100
AcDbDimStyleTableRecord
  2
AM_JIS$SF
 70
     0
  3

  4
"
  5
OPEN30
  6

  7

 40
0.5
 41
2.5
 42
1.0
 43
10.0
 44
1.0
 45
0.0
 46
0.0
 47
0.1
 48
0.1
140
3.2
141
0.0
142
0.0
143
0.0393701
144
1.0
145
0.0
146
0.71
147
1.5
 71
     0
 72
     0
 73
     0
 74
     0
 75
     1
 76
     1
 77
     3
 78
     8
170
     0
171
     2
172
     1
173
     0
174
     0
175
     0
176
   256
177
   256
178
     2
270
     2
271
     2
272
     2
273
     2
274
     2
340
6B
275
     0
280
     0
281
     0
282
     0
283
     0
284
     0
285
     0
286
     0
287
     3
288
     0
  0
DIMSTYLE
105
68
330
A
100
AcDbSymbolTableRecord
100
AcDbDimStyleTableRecord
  2
AM_JIS$SH
 70
     0
  3

  4
"
  5

  6
GENAXEH
  7
OPEN30
 40
0.5
 41
2.5
 42
1.0
 43
10.0
 44
1.0
 45
0.0
 46
0.0
 47
0.1
 48
0.1
140
3.2
141
0.0
142
0.0
143
0.0393701
144
2.0
145
0.0
146
0.71
147
1.5
 71
     0
 72
     0
 73
     0
 74
     0
 75
     1
 76
     1
 77
     3
 78
     8
170
     0
171
     2
172
     1
173
     1
174
     0
175
     0
176
   256
177
   256
178
     2
270
     2
271
     2
272
     2
273
     2
274
     2
340
6B
275
     0
280
     0
281
     0
282
     0
283
     0
284
     0
285
     0
286
     0
287
     3
288
     0
  0
DIMSTYLE
105
B34
330
A
100
AcDbSymbolTableRecord
100
AcDbDimStyleTableRecord
  2
AM_JIS$2
 70
     0
  3

  4
"
  5
OPEN30
  6

  7

 40
0.5
 41
2.5
 42
1.0
 43
12.0
 44
1.0
 45
0.0
 46
0.0
 47
0.1
 48
0.1
140
3.2
141
0.0
142
0.0
143
0.0393701
144
1.0
145
0.0
146
0.71
147
1.5
 71
     0
 72
     0
 73
     0
 74
     0
 75
     0
 76
     0
 77
     3
 78
     8
170
     0
171
     2
172
     1
173
     0
174
     0
175
     0
176
   256
177
   256
178
     2
270
     2
271
     3
272
     3
273
     2
274
     2
340
6B
275
     0
280
     0
281
     0
282
     0
283
     0
284
     0
285
     0
286
     0
287
     3
288
     0
  0
ENDTAB
  0
TABLE
  2
BLOCK_RECORD
  5
1
330
0
100
AcDbSymbolTable
 70
     9
  0
BLOCK_RECORD
  5
1F
102
{ACAD_XDICTIONARY
360
74
102
}
330
1
100
AcDbSymbolTableRecord
100
AcDbBlockTableRecord
  2
*MODEL_SPACE
  0
BLOCK_RECORD
  5
101
102
{ACAD_XDICTIONARY
360
32B2
102
}
330
1
100
AcDbSymbolTableRecord
100
AcDbBlockTableRecord
  2
*PAPER_SPACE
  0
BLOCK_RECORD
  5
59
330
1
100
AcDbSymbolTableRecord
100
AcDbBlockTableRecord
  2
_OPEN30
  0
BLOCK_RECORD
  5
64
330
1
100
AcDbSymbolTableRecord
100
AcDbBlockTableRecord
  2
GENAXEH
  0
BLOCK_RECORD
  5
2FF1
330
1
100
AcDbSymbolTableRecord
100
AcDbBlockTableRecord
  2
*D5
  0
BLOCK_RECORD
  5
2FFD
330
1
100
AcDbSymbolTableRecord
100
AcDbBlockTableRecord
  2
*D6
  0
BLOCK_RECORD
  5
30D1
330
1
100
AcDbSymbolTableRecord
100
AcDbBlockTableRecord
  2
*D7
  0
BLOCK_RECORD
  5
310B
330
1
100
AcDbSymbolTableRecord
100
AcDbBlockTableRecord
  2
*D8
  0
ENDTAB
  0
ENDSEC
  0
SECTION
  2
BLOCKS
  0
BLOCK
  5
20
330
1F
100
AcDbEntity
  8
0
100
AcDbBlockBegin
  2
*MODEL_SPACE
 70
     0
 10
0.0
 20
0.0
 30
0.0
  3
*MODEL_SPACE
  1

  0
ENDBLK
  5
21
330
1F
100
AcDbEntity
  8
0
100
AcDbBlockEnd
  0
BLOCK
  5
103
330
101
100
AcDbEntity
 67
     1
  8
0
100
AcDbBlockBegin
  2
*PAPER_SPACE
 70
     0
 10
0.0
 20
0.0
 30
0.0
  3
*PAPER_SPACE
  1

  0
ENDBLK
  5
104
330
101
100
AcDbEntity
 67
     1
  8
0
100
AcDbBlockEnd
  0
BLOCK
  5
5D
330
59
100
AcDbEntity
  8
0
100
AcDbBlockBegin
  2
_OPEN30
 70
     0
 10
0.0
 20
0.0
 30
0.0
  3
_OPEN30
  1

  0
LINE
  5
5A
330
59
100
AcDbEntity
  8
0
 62
     0
100
AcDbLine
 10
-1.0
 20
0.26794919
 30
0.0
 11
0.0
 21
0.0
 31
0.0
  0
LINE
  5
5B
330
59
100
AcDbEntity
  8
0
 62
     0
100
AcDbLine
 10
0.0
 20
0.0
 30
0.0
 11
-1.0
 21
-0.26794919
 31
0.0
  0
LINE
  5
5C
330
59
100
AcDbEntity
  8
0
 62
     0
100
AcDbLine
 10
0.0
 20
0.0
 30
0.0
 11
-1.0
 21
0.0
 31
0.0
  0
ENDBLK
  5
5E
330
59
100
AcDbEntity
  8
0
100
AcDbBlockEnd
  0
BLOCK
  5
66
330
64
100
AcDbEntity
  8
0
100
AcDbBlockBegin
  2
GENAXEH
 70
     0
 10
0.0
 20
0.0
 30
0.0
  3
GENAXEH
  1

  0
LINE
  5
65
330
64
100
AcDbEntity
  8
0
100
AcDbLine
 10
-1.0
 20
0.0
 30
0.0
 11
1.0
 21
0.0
 31
0.0
  0
ENDBLK
  5
67
330
64
100
AcDbEntity
  8
0
100
AcDbBlockEnd
  0
BLOCK
  5
2FFB
330
2FF1
100
AcDbEntity
  8
0
100
AcDbBlockBegin
  2
*D5
 70
     1
 10
0.0
 20
0.0
 30
0.0
  3
*D5
  1

  0
LINE
  5
31E2
330
2FF1
100
AcDbEntity
  8
AM_5
100
AcDbLine
 10
0.0000000000069992
 20
-2.662443144899296
 30
0.0
 11
0.0000000000069983
 21
-16.48730472029732
 31
0.0
  0
LINE
  5
31E3
330
2FF1
100
AcDbEntity
  8
AM_5
100
AcDbLine
 10
-49.999999999993
 20
-2.330698541477593
 30
0.0
 11
-49.999999999993
 21
-16.48730472029732
 31
0.0
  0
LINE
  5
31E4
330
2FF1
100
AcDbEntity
  8
AM_5
100
AcDbLine
 10
-1.249999999993001
 20
-15.98730472029732
 30
0.0
 11
-48.749999999993
 21
-15.98730472029732
 31
0.0
  0
INSERT
  5
31E5
330
2FF1
100
AcDbEntity
  8
AM_5
100
AcDbBlockReference
  2
_OPEN30
 10
0.0000000000069983
 20
-15.98730472029732
 30
0.0
 41
1.25
 42
1.25
 43
1.25
  0
INSERT
  5
31E6
330
2FF1
100
AcDbEntity
  8
AM_5
100
AcDbBlockReference
  2
_OPEN30
 10
-49.999999999993
 20
-15.98730472029732
 30
0.0
 41
1.25
 42
1.25
 43
1.25
 50
180.0
  0
MTEXT
  5
31E7
330
2FF1
100
AcDbEntity
  8
AM_5
 62
     2
100
AcDbMText
 10
-24.999999999993
 20
-14.43730472029732
 30
0.0
 40
1.6
 41
0.0
 71
     5
 72
     1
  1
50
  7
ASAMI
1001
ACAD
1000
MTEXTBEGIN
1070
    73
1070
     1
1070
    44
1040
1.0
1070
    74
1070
     0
1000
MTEXTEND
  0
POINT
  5
31E8
330
2FF1
100
AcDbEntity
  8
DEFPOINTS
 62
     0
100
AcDbPoint
 10
0.0000000000069992
 20
-2.162443144899296
 30
0.0
  0
POINT
  5
31E9
330
2FF1
100
AcDbEntity
  8
DEFPOINTS
 62
     0
100
AcDbPoint
 10
-49.999999999993
 20
-1.830698541477593
 30
0.0
  0
POINT
  5
31EA
330
2FF1
100
AcDbEntity
  8
DEFPOINTS
 62
     0
100
AcDbPoint
 10
-49.999999999993
 20
-15.98730472029732
 30
0.0
  0
ENDBLK
  5
2FFC
330
2FF1
100
AcDbEntity
  8
0
100
AcDbBlockEnd
  0
BLOCK
  5
3009
330
2FFD
100
AcDbEntity
  8
0
100
AcDbBlockBegin
  2
*D6
 70
     1
 10
0.0
 20
0.0
 30
0.0
  3
*D6
  1

  0
LINE
  5
31EB
330
2FFD
100
AcDbEntity
  8
AM_5
100
AcDbLine
 10
-50.156249999993
 20
-2.987303720297282
 30
0.0
 11
-59.33888711293332
 21
-2.987303720297279
 31
0.0
  0
LINE
  5
31EC
330
2FFD
100
AcDbEntity
  8
AM_5
100
AcDbLine
 10
-50.156249999993
 20
3.012696279702692
 30
0.0
 11
-59.33888711293332
 21
3.012696279702694
 31
0.0
  0
LINE
  5
31ED
330
2FFD
100
AcDbEntity
  8
AM_5
100
AcDbLine
 10
-58.83888711293332
 20
-1.737303720297279
 30
0.0
 11
-58.83888711293332
 21
1.762696279702694
 31
0.0
  0
INSERT
  5
31EE
330
2FFD
100
AcDbEntity
  8
AM_5
100
AcDbBlockReference
  2
_OPEN30
 10
-58.83888711293332
 20
-2.987303720297279
 30
0.0
 41
1.25
 42
1.25
 43
1.25
 50
270.0
  0
INSERT
  5
31EF
330
2FFD
100
AcDbEntity
  8
AM_5
100
AcDbBlockReference
  2
_OPEN30
 10
-58.83888711293332
 20
3.012696279702694
 30
0.0
 41
1.25
 42
1.25
 43
1.25
 50
90.0
  0
MTEXT
  5
31F0
330
2FFD
100
AcDbEntity
  8
AM_5
 62
     2
100
AcDbMText
 10
-60.38888711293331
 20
0.0126962797026982
 30
0.0
 40
1.6
 41
0.0
 71
     5
 72
     1
  1
%%c6
  7
ASAMI
 11
0.0000000000000001
 21
1.0
 31
0.0
1001
ACAD
1000
MTEXTBEGIN
1070
    73
1070
     1
1070
    44
1040
1.0
1070
    74
1070
     0
1000
MTEXTEND
  0
POINT
  5
31F1
330
2FFD
100
AcDbEntity
  8
DEFPOINTS
 62
     0
100
AcDbPoint
 10
-49.656249999993
 20
-2.987303720297282
 30
0.0
  0
POINT
  5
31F2
330
2FFD
100
AcDbEntity
  8
DEFPOINTS
 62
     0
100
AcDbPoint
 10
-49.656249999993
 20
3.012696279702692
 30
0.0
  0
POINT
  5
31F3
330
2FFD
100
AcDbEntity
  8
DEFPOINTS
 62
     0
100
AcDbPoint
 10
-58.83888711293332
 20
3.012696279702694
 30
0.0
  0
ENDBLK
  5
300A
330
2FFD
100
AcDbEntity
  8
0
100
AcDbBlockEnd
  0
BLOCK
  5
30DD
330
30D1
100
AcDbEntity
  8
0
100
AcDbBlockBegin
  2
*D7
 70
     1
 10
0.0
 20
0.0
 30
0.0
  3
*D7
  1

  0
LINE
  5
3208
330
30D1
100
AcDbEntity
  8
AM_5
100
AcDbLine
 10
0.5000000000100562
 20
-1.742593837330128
 30
0.0
 11
8.454265873422842
 21
-1.74259383733013
 31
0.0
  0
LINE
  5
3209
330
30D1
100
AcDbEntity
  8
AM_5
100
AcDbLine
 10
0.5000000000126031
 20
1.757406163159883
 30
0.0
 11
8.454265873422846
 21
1.757406163159881
 31
0.0
  0
LINE
  5
320A
330
30D1
100
AcDbEntity
  8
AM_5
100
AcDbLine
 10
7.954265873422843
 20
-2.992593837330129
 30
0.0
 11
7.954265873422843
 21
-4.242593837330129
 31
0.0
  0
LINE
  5
320B
330
30D1
100
AcDbEntity
  8
AM_5
100
AcDbLine
 10
7.954265873422845
 20
3.007406163159881
 30
0.0
 11
7.954265873422847
 21
10.55740616315988
 31
0.0
  0
LINE
  5
320C
330
30D1
100
AcDbEntity
  8
AM_5
100
AcDbLine
 10
7.954265873422844
 20
-1.74259383733013
 30
0.0
 11
7.954265873422844
 21
1.757406163159881
 31
0.0
  0
INSERT
  5
320D
330
30D1
100
AcDbEntity
  8
AM_5
100
AcDbBlockReference
  2
_OPEN30
 10
7.954265873422844
 20
-1.74259383733013
 30
0.0
 41
1.25
 42
1.25
 43
1.25
 50
90.0
  0
INSERT
  5
320E
330
30D1
100
AcDbEntity
  8
AM_5
100
AcDbBlockReference
  2
_OPEN30
 10
7.954265873422844
 20
1.757406163159881
 30
0.0
 41
1.25
 42
1.25
 43
1.25
 50
270.0
  0
MTEXT
  5
320F
330
30D1
100
AcDbEntity
  8
AM_5
 62
     2
100
AcDbMText
 10
6.404265873422844
 20
7.407406163159882
 30
0.0
 40
1.6
 41
0.0
 71
     5
 72
     1
  1
%%c3.5
  7
ASAMI
 11
0.0000000000000001
 21
1.0
 31
0.0
1001
ACAD
1000
MTEXTBEGIN
1070
    73
1070
     1
1070
    44
1040
1.0
1070
    74
1070
     0
1000
MTEXTEND
  0
POINT
  5
3210
330
30D1
100
AcDbEntity
  8
DEFPOINTS
 62
     0
100
AcDbPoint
 10
0.0000000000100561
 20
-1.742593837330128
 30
0.0
  0
POINT
  5
3211
330
30D1
100
AcDbEntity
  8
DEFPOINTS
 62
     0
100
AcDbPoint
 10
0.000000000012603
 20
1.757406163159883
 30
0.0
  0
POINT
  5
3212
330
30D1
100
AcDbEntity
  8
DEFPOINTS
 62
     0
100
AcDbPoint
 10
7.954265873422844
 20
1.757406163159881
 30
0.0
  0
ENDBLK
  5
30DE
330
30D1
100
AcDbEntity
  8
0
100
AcDbBlockEnd
  0
BLOCK
  5
3115
330
310B
100
AcDbEntity
  8
0
100
AcDbBlockBegin
  2
*D8
 70
     1
 10
0.0
 20
0.0
 30
0.0
  3
*D8
  1

  0
LINE
  5
31F4
330
310B
100
AcDbEntity
  8
AM_5
100
AcDbLine
 10
0.0000000000100562
 20
-2.242593836840096
 30
0.0
 11
0.0000000000100557
 21
-10.48730472029729
 31
0.0
  0
LINE
  5
31F5
330
310B
100
AcDbEntity
  8
AM_5
100
AcDbLine
 10
-10.00000140689879
 20
-2.242593836840096
 30
0.0
 11
-10.00000140689879
 21
-10.48730472029729
 31
0.0
  0
LINE
  5
31F6
330
310B
100
AcDbEntity
  8
AM_5
100
AcDbLine
 10
-1.249999999989944
 20
-9.98730472029729
 30
0.0
 11
-8.750001406898798
 21
-9.98730472029729
 31
0.0
  0
INSERT
  5
31F7
330
310B
100
AcDbEntity
  8
AM_5
100
AcDbBlockReference
  2
_OPEN30
 10
0.0000000000100557
 20
-9.98730472029729
 30
0.0
 41
1.25
 42
1.25
 43
1.25
  0
INSERT
  5
31F8
330
310B
100
AcDbEntity
  8
AM_5
100
AcDbBlockReference
  2
_OPEN30
 10
-10.00000140689879
 20
-9.98730472029729
 30
0.0
 41
1.25
 42
1.25
 43
1.25
 50
180.0
  0
MTEXT
  5
31F9
330
310B
100
AcDbEntity
  8
AM_5
 62
     2
100
AcDbMText
 10
-5.000000703444371
 20
-8.437304720297289
 30
0.0
 40
1.6
 41
0.0
 71
     5
 72
     1
  1
10
  7
ASAMI
1001
ACAD
1000
MTEXTBEGIN
1070
    73
1070
     1
1070
    44
1040
1.0
1070
    74
1070
     0
1000
MTEXTEND
  0
POINT
  5
31FA
330
310B
100
AcDbEntity
  8
DEFPOINTS
 62
     0
100
AcDbPoint
 10
0.0000000000100562
 20
-1.742593836840096
 30
0.0
  0
POINT
  5
31FB
330
310B
100
AcDbEntity
  8
DEFPOINTS
 62
     0
100
AcDbPoint
 10
-10.00000140689879
 20
-1.742593836840096
 30
0.0
  0
POINT
  5
31FC
330
310B
100
AcDbEntity
  8
DEFPOINTS
 62
     0
100
AcDbPoint
 10
-10.00000140689879
 20
-9.98730472029729
 30
0.0
  0
ENDBLK
  5
3116
330
310B
100
AcDbEntity
  8
0
100
AcDbBlockEnd
  0
ENDSEC
  0
SECTION
  2
ENTITIES
  0
TEXT
  5
F07
330
1F
100
AcDbEntity
  8
AM_6
100
AcDbText
 10
-36.72619047618347
 20
-27.23730472029732
 30
0.0
 40
2.5
  1
SSUP3035ZX
 72
     4
 11
-24.999999999993
 21
-25.98730472029732
 31
0.0
100
AcDbText
  0
DIMENSION
  5
2F92
330
1F
100
AcDbEntity
  8
AM_5
100
AcDbDimension
  2
*D5
 10
-49.999999999993
 20
-15.98730472029732
 30
0.0
 11
-24.999999999993
 21
-14.43730472029732
 31
0.0
 70
    32
  1
<>
  3
AM_JIS
100
AcDbAlignedDimension
 13
0.0000000000069992
 23
-2.162443144899296
 33
0.0
 14
-49.999999999993
 24
-1.830698541477593
 34
0.0
 50
0.0000000000000527
100
AcDbRotatedDimension
1001
GENIUS_GENDTOL_13
1000

1000
h7
1000

1040
0.0
  0
LINE
  5
2F93
330
1F
100
AcDbEntity
  8
AM_0
100
AcDbLine
 10
-16.14532052573282
 20
-2.987303720297296
 30
0.0
 11
-49.656249999993
 21
-2.987303720297282
 31
0.0
  0
LINE
  5
2F94
330
1F
100
AcDbEntity
  8
AM_0
100
AcDbLine
 10
-16.18480649316414
 20
3.012696279702692
 30
0.0
 11
-49.656249999993
 21
3.012696279702692
 31
0.0
  0
LINE
  5
2F95
330
1F
100
AcDbEntity
  8
AM_7
100
AcDbLine
 10
-51.83888611293332
 20
-0.0000000000000152
 30
0.0
 11
0.9542648734228496
 21
-0.0000000000000144
 31
0.0
1001
GENIUS_GENODEF_13
1002
{
1000
HIER
1070
     0
1002
}
1002
{
1000
MANEDIT
1070
     0
1002
}
1002
{
1000
NOSEL
1070
     0
1002
}
1002
{
1000
BEHIND
1070
     0
1002
}
1002
{
1000
REACTOR
1002
}
1001
GENIUS_GENOBJ-N-CEN_13
1002
{
1000
OWNER
1000
GEN
1002
}
  0
DIMENSION
  5
2F96
330
1F
100
AcDbEntity
  8
AM_5
100
AcDbDimension
  2
*D6
 10
-58.83888711293332
 20
3.012696279702694
 30
0.0
 11
-60.38888711293331
 21
0.0126962797026982
 31
0.0
 70
    32
  1
%%c<>
  3
AM_JIS
100
AcDbAlignedDimension
 13
-49.656249999993
 23
-2.987303720297282
 33
0.0
 14
-49.656249999993
 24
3.012696279702692
 34
0.0
 50
270.0
100
AcDbRotatedDimension
1001
GENIUS_GENDTOL_13
1000

1000
h7
1000

1040
0.0
  0
LINE
  5
2F97
330
1F
100
AcDbEntity
  8
AM_0
100
AcDbLine
 10
-49.656249999993
 20
3.012696279702692
 30
0.0
 11
-49.656249999993
 21
-2.987303720297282
 31
0.0
  0
LINE
  5
2F98
330
1F
100
AcDbEntity
  8
AM_0
100
AcDbLine
 10
-49.999999999993
 20
2.762696279702691
 30
0.0
 11
-49.999999999993
 21
-2.737303720297282
 31
0.0
  0
LINE
  5
2F99
330
1F
100
AcDbEntity
  8
AM_0
100
AcDbLine
 10
-49.656249999993
 20
-2.987303720297282
 30
0.0
 11
-49.999999999993
 21
-2.737303720297282
 31
0.0
1001
GENIUS_GENFIL_13
1070
     0
1040
0.5
1040
0.5
1040
20.0
1040
0.0
1002
{
1002
}
1001
GENIUS_GENODEF_13
1002
{
1000
HIER
1070
     0
1002
}
1002
{
1000
MANEDIT
1070
     0
1002
}
1002
{
1000
NOSEL
1070
     0
1002
}
1002
{
1000
BEHIND
1070
     0
1002
}
1002
{
1000
REACTOR
1002
}
1001
GENIUS_GENOBJ-N-CHA_13
1002
{
1000
OWNER
1000
GEN
1002
}
  0
LINE
  5
2F9A
330
1F
100
AcDbEntity
  8
AM_0
100
AcDbLine
 10
-49.656249999993
 20
3.012696279702692
 30
0.0
 11
-49.999999999993
 21
2.762696279702691
 31
0.0
1001
GENIUS_GENFIL_13
1070
     0
1040
0.5
1040
0.5
1040
20.0
1040
0.0
1002
{
1002
}
1001
GENIUS_GENODEF_13
1002
{
1000
HIER
1070
     0
1002
}
1002
{
1000
MANEDIT
1070
     0
1002
}
1002
{
1000
NOSEL
1070
     0
1002
}
1002
{
1000
BEHIND
1070
     0
1002
}
1002
{
1000
REACTOR
1002
}
1001
GENIUS_GENOBJ-N-CHA_13
1002
{
1000
OWNER
1000
GEN
1002
}
  0
LINE
  5
2F9B
330
1F
100
AcDbEntity
  8
AM_0
100
AcDbLine
 10
-49.656249999993
 20
3.012696279702692
 30
0.0
 11
-49.656249999993
 21
3.012696279702692
 31
0.0
  0
LINE
  5
2FCC
330
1F
100
AcDbEntity
  8
AM_0
100
AcDbLine
 10
-16.18480649316414
 20
3.012696279702692
 30
0.0
 11
-16.18480649316414
 21
-2.987303720297297
 31
0.0
  0
LINE
  5
2FDD
330
1F
100
AcDbEntity
  8
AM_0
100
AcDbLine
 10
-11.49999999998739
 20
-1.742593836840096
 30
0.0
 11
-16.14532052573282
 21
-2.987303720297296
 31
0.0
  0
LINE
  5
2FDF
330
1F
100
AcDbEntity
  8
AM_0
100
AcDbLine
 10
-11.49999999998739
 20
1.757406163159896
 30
0.0
 11
-16.18480649316414
 21
3.012696279702692
 31
0.0
  0
LINE
  5
30AC
330
1F
100
AcDbEntity
  8
AM_0
100
AcDbLine
 10
-0.0600084222245121
 20
-0.5260221523183973
 30
0.0
 11
-0.0600084222245121
 21
-0.0281738366909098
 31
0.0
  0
LINE
  5
30AD
330
1F
100
AcDbEntity
  8
AM_0
100
AcDbLine
 10
0.0000000000100564
 20
-0.3180753334828623
 30
0.0
 11
0.0000000000100564
 21
-0.8860439431853688
 31
0.0
  0
LINE
  5
30AE
330
1F
100
AcDbEntity
  8
AM_0
100
AcDbLine
 10
0.0000000000100564
 20
-0.8860439431853688
 30
0.0
 11
-0.0600084222245121
 21
-1.097612295412465
 31
0.0
  0
LINE
  5
30AF
330
1F
100
AcDbEntity
  8
AM_0
100
AcDbLine
 10
0.0000000000100564
 20
-0.8860439431853688
 30
0.0
 11
-0.0600084222245121
 21
-0.5260221523183973
 31
0.0
  0
LINE
  5
30B0
330
1F
100
AcDbEntity
  8
AM_0
100
AcDbLine
 10
-0.1200168444592615
 20
-0.8154437600713762
 30
0.0
 11
0.0000000000100564
 21
-0.8860439431853688
 31
0.0
  0
LINE
  5
30B1
330
1F
100
AcDbEntity
  8
AM_0
100
AcDbLine
 10
-0.0600084222245121
 20
-0.0281738366909098
 30
0.0
 11
0.0000000000100564
 21
-0.3180753334828623
 31
0.0
  0
LINE
  5
30B2
330
1F
100
AcDbEntity
  8
AM_0
100
AcDbLine
 10
0.0000000000100564
 20
-0.0296246526423305
 30
0.0
 11
-0.0491092602028955
 21
-0.0808278353494574
 31
0.0
  0
LINE
  5
30B3
330
1F
100
AcDbEntity
  8
AM_0
100
AcDbLine
 10
-0.0600084222245121
 20
-0.0281738366909098
 30
0.0
 11
-0.3000421111635112
 21
0.7663008337838125
 31
0.0
  0
LINE
  5
30B4
330
1F
100
AcDbEntity
  8
AM_11
100
AcDbLine
 10
0.0000000000126031
 20
-1.742593836840096
 30
0.0
 11
0.0000000000100564
 21
-0.8860439431853688
 31
0.0
  0
LINE
  5
30B5
330
1F
100
AcDbEntity
  8
AM_0
100
AcDbLine
 10
0.0000000000100564
 20
-0.8860439431853688
 30
0.0
 11
-0.4466545292655522
 21
-1.267625247225872
 31
0.0
  0
LINE
  5
30B6
330
1F
100
AcDbEntity
  8
AM_0
100
AcDbLine
 10
-0.0600084222245121
 20
-1.097612295412465
 30
0.0
 11
-0.3000421111635112
 21
-1.46281417570975
 31
0.0
  0
LINE
  5
30B7
330
1F
100
AcDbEntity
  8
AM_0
100
AcDbLine
 10
-1.386989428774826
 20
0.9814860994915942
 30
0.0
 11
-1.129708368597363
 21
0.7132350797404418
 31
0.0
  0
LINE
  5
30B8
330
1F
100
AcDbEntity
  8
AM_0
100
AcDbLine
 10
-0.1898134899399483
 20
-0.7463805340504209
 30
0.0
 11
-1.066944510189796
 21
-0.6473987634464992
 31
0.0
  0
LINE
  5
30B9
330
1F
100
AcDbEntity
  8
AM_11
100
AcDbLine
 10
0.0000000000126036
 20
-1.742593836840096
 30
0.0
 11
0.0000000000126031
 21
1.757406163159897
 31
0.0
  0
LINE
  5
30BA
330
1F
100
AcDbEntity
  8
AM_0
100
AcDbLine
 10
0.0000000000100564
 20
-0.0296246526423305
 30
0.0
 11
0.0000000000100564
 21
1.757406163159897
 31
0.0
  0
LINE
  5
30BB
330
1F
100
AcDbEntity
  8
AM_0
100
AcDbLine
 10
-9.951412115355227
 20
1.757406163159897
 30
0.0
 11
-11.49999999998739
 21
1.757406163159897
 31
0.0
  0
LINE
  5
30BC
330
1F
100
AcDbEntity
  8
AM_0
100
AcDbLine
 10
-8.801235261081076
 20
0.9566188651760539
 30
0.0
 11
-8.801235261079778
 21
1.230295665750626
 31
0.0
  0
POLYLINE
  5
30BD
330
1F
100
AcDbEntity
  8
AM_0
100
AcDb2dPolyline
 66
     1
 10
0.0
 20
0.0
 30
0.0
 70
     2
  0
VERTEX
  5
30BE
330
30BD
100
AcDbEntity
  8
AM_0
100
AcDbVertex
100
AcDb2dVertex
 10
-8.801235261078714
 20
0.956618865175179
 30
0.0
 42
0.0163510200184555
  0
VERTEX
  5
30BF
330
30BD
100
AcDbEntity
  8
AM_0
100
AcDbVertex
100
AcDb2dVertex
 10
-9.274734285929664
 20
1.11434046675706
 30
0.0
 42
0.0236329905934865
 70
     1
  0
VERTEX
  5
30C0
330
30BD
100
AcDbEntity
  8
AM_0
100
AcDbVertex
100
AcDb2dVertex
 10
-9.611348961248397
 20
1.200248180188135
 30
0.0
 42
0.0136924015569504
  0
VERTEX
  5
30C1
330
30BD
100
AcDbEntity
  8
AM_0
100
AcDbVertex
100
AcDb2dVertex
 10
-10.43020938544686
 20
1.352340522472158
 30
0.0
 42
0.0437471596433213
 70
     1
  0
VERTEX
  5
30C2
330
30BD
100
AcDbEntity
  8
AM_0
100
AcDbVertex
100
AcDb2dVertex
 10
-10.69150056147218
 20
1.373978142253533
 30
0.0
 42
0.0737828887826182
  0
VERTEX
  5
30C3
330
30BD
100
AcDbEntity
  8
AM_0
100
AcDbVertex
100
AcDb2dVertex
 10
-10.92199645201591
 20
1.345485405142823
 30
0.0
 42
0.3022986902902931
 70
     1
  0
VERTEX
  5
30C4
330
30BD
100
AcDbEntity
  8
AM_0
100
AcDbVertex
100
AcDb2dVertex
 10
-10.9615384615284
 20
1.304078789306602
 30
0.0
 42
0.1640404297379002
  0
VERTEX
  5
30C5
330
30BD
100
AcDbEntity
  8
AM_0
100
AcDbVertex
100
AcDb2dVertex
 10
-10.9423712294286
 20
1.227768615962054
 30
0.0
 42
0.0324399100382136
 70
     1
  0
VERTEX
  5
30C6
330
30BD
100
AcDbEntity
  8
AM_0
100
AcDbVertex
100
AcDb2dVertex
 10
-10.69150056147218
 20
0.9112862242273925
 30
0.0
 42
0.0076492520245086
  0
VERTEX
  5
30C7
330
30BD
100
AcDbEntity
  8
AM_0
100
AcDbVertex
100
AcDb2dVertex
 10
-10.36738410888329
 20
0.5652592885866529
 30
0.0
 42
0.0033664759505265
 70
     1
  0
VERTEX
  5
30C8
330
30BD
100
AcDbEntity
  8
AM_0
100
AcDbVertex
100
AcDb2dVertex
 10
-9.611348961247346
 20
-0.2065566622361786
 30
0.0
 42
0.0145714002245221
  0
VERTEX
  5
30C9
330
30BD
100
AcDbEntity
  8
AM_0
100
AcDbVertex
100
AcDb2dVertex
 10
-9.349391112601921
 20
-0.4553387787061504
 30
0.0
 42
0.007325916991168
 70
     1
  0
VERTEX
  5
30CA
330
30BD
100
AcDbEntity
  8
AM_0
100
AcDbVertex
100
AcDb2dVertex
 10
-8.804176448049977
 20
-0.9296657317489708
 30
0.0
  0
SEQEND
  5
30CB
330
30BD
100
AcDbEntity
  8
AM_0
  0
LINE
  5
30CC
330
1F
100
AcDbEntity
  8
AM_0
100
AcDbLine
 10
-8.788033408588724
 20
-1.742593836840096
 30
0.0
 11
-11.49999999998739
 21
-1.742593836840096
 31
0.0
  0
LINE
  5
30CD
330
1F
100
AcDbEntity
  8
AM_11
100
AcDbLine
 10
-10.00000140689879
 20
-1.742593836840096
 30
0.0
 11
-10.00000140689879
 21
1.757406163159897
 31
0.0
  0
LINE
  5
30CE
330
1F
100
AcDbEntity
  8
AM_11
100
AcDbLine
 10
-10.00000140689879
 20
-1.742593836840096
 30
0.0
 11
0.0000000000126031
 21
-1.742593836840096
 31
0.0
  0
LINE
  5
30CF
330
1F
100
AcDbEntity
  8
AM_11
100
AcDbLine
 10
0.0000000000126031
 20
1.757406163159897
 30
0.0
 11
-10.00000140689879
 21
1.757406163159897
 31
0.0
  0
DIMENSION
  5
30D0
330
1F
100
AcDbEntity
  8
AM_5
100
AcDbDimension
  2
*D7
 10
7.954265873422844
 20
1.757406163159881
 30
0.0
 11
7.954265873422845
 21
7.407406163159881
 31
0.0
 70
   160
  1
%%c<>
  3
AM_JIS
100
AcDbAlignedDimension
 13
0.0000000000100561
 23
-1.742593837330128
 33
0.0
 14
0.000000000012603
 24
1.757406163159883
 34
0.0
 50
89.99999999391784
100
AcDbRotatedDimension
1001
GENIUS_GENDTOL_13
1000

1000
h7
1000

1040
0.0
  0
ELLIPSE
  5
30DF
330
1F
100
AcDbEntity
  8
AM_0
100
AcDbEllipse
 10
3.185681968339449
 20
0.5986280090214864
 30
0.0
 11
-3.490988860587133
 21
0.0000000000000134
 31
0.0
210
0.0
220
0.0
230
0.9999999999999998
 40
0.8748771929822568
 41
-0.0549269545842248
 42
0.3771070164461001
  0
ELLIPSE
  5
30E0
330
1F
100
AcDbEntity
  8
AM_0
100
AcDbEllipse
 10
-0.0482065893268718
 20
-1.178288216005158
 30
0.0
 11
0.411324674895143
 21
0.0000000000000059
 31
0.0
210
0.0
220
0.0
230
1.0
 40
0.8748771929822485
 41
3.392472074534126
 42
4.05347968771706
  0
SPLINE
  5
30E1
330
1F
100
AcDbEntity
  8
AM_0
100
AcDbSpline
210
0.0
220
0.0
230
1.0
 70
     8
 71
     3
 72
     8
 73
     4
 74
     0
 42
0.0000000001
 43
0.0000000001
 40
0.6397612841816997
 40
0.6397612841816997
 40
0.6397612841816997
 40
0.6397612841816997
 40
7.939880490758838
 40
7.939880490758838
 40
7.939880490758838
 40
7.939880490758838
 10
-9.414348953596002
 20
1.589589072096208
 30
0.0
 10
-8.479258323729089
 20
1.432563169365727
 30
0.0
 10
-7.754029899705374
 20
0.7199846662628334
 30
0.0
 10
-7.028801475682023
 20
0.0074061631599433
 30
0.0
  0
SPLINE
  5
30E2
330
1F
100
AcDbEntity
  8
AM_0
100
AcDbSpline
210
0.0
220
0.0
230
1.0
 70
     8
 71
     3
 72
     8
 73
     4
 74
     0
 42
0.0000000001
 43
0.0000000001
 40
0.5179125576517913
 40
0.5179125576517913
 40
0.5179125576517913
 40
0.5179125576517913
 40
8.138271981564475
 40
8.138271981564475
 40
8.138271981564475
 40
8.138271981564475
 10
-9.951412115355227
 20
1.757406163159897
 30
0.0
 10
-8.970956422197721
 20
1.572393491347487
 30
0.0
 10
-8.244754835566432
 20
0.7898998272536929
 30
0.0
 10
-7.518553248934964
 20
0.0074061631599433
 30
0.0
  0
SPLINE
  5
30E3
330
1F
100
AcDbEntity
  8
AM_0
100
AcDbSpline
210
0.0
220
0.0
230
1.0
 70
     8
 71
     3
 72
     8
 73
     4
 74
     0
 42
0.0000000001
 43
0.0000000001
 40
0.2299567350972117
 40
0.2299567350972117
 40
0.2299567350972117
 40
0.2299567350972117
 40
7.769701155129346
 40
7.769701155129346
 40
7.769701155129346
 40
7.769701155129346
 10
-8.980766339827619
 20
1.473826868294543
 30
0.0
 10
-7.988679995929016
 20
1.405315665971086
 30
0.0
 10
-7.212228966789727
 20
0.7063609145654726
 30
0.0
 10
-6.435777937650802
 20
0.0074061631599035
 30
0.0
  0
SPLINE
  5
30E4
330
1F
100
AcDbEntity
  8
AM_0
100
AcDbSpline
210
0.0
220
0.0
230
1.0
 70
     8
 71
     3
 72
     8
 73
     4
 74
     0
 42
0.0000000001
 43
0.0000000001
 40
5.129729518825886
 40
5.129729518825886
 40
5.129729518825886
 40
5.129729518825886
 40
8.272127900365292
 40
8.272127900365292
 40
8.272127900365292
 40
8.272127900365292
 10
-8.801235261081076
 20
0.9566188651760539
 30
0.0
 10
-8.491563430544772
 20
0.6721924471644274
 30
0.0
 10
-8.200336740734728
 20
0.3397993051621631
 30
0.0
 10
-7.909110050924686
 20
0.0074061631599035
 30
0.0
  0
SPLINE
  5
30E5
330
1F
100
AcDbEntity
  8
AM_0
100
AcDbSpline
210
0.0
220
0.0
230
1.0
 70
     8
 71
     3
 72
     8
 73
     4
 74
     0
 42
0.0000000001
 43
0.0000000001
 40
0.5179125576349786
 40
0.5179125576349786
 40
0.5179125576349786
 40
0.5179125576349786
 40
1.981387939834528
 40
1.981387939834528
 40
1.981387939834528
 40
1.981387939834528
 10
-8.193965456181178
 20
-1.654006547179749
 30
0.0
 10
-8.005670824595641
 20
-1.63548823785294
 30
0.0
 10
-7.826753711022886
 20
-1.591666039594641
 30
0.0
 10
-7.655413181150626
 20
-1.52739951564394
 30
0.0
  0
SPLINE
  5
30E6
330
1F
100
AcDbEntity
  8
AM_0
100
AcDbSpline
210
0.0
220
0.0
230
1.0
 70
     8
 71
     3
 72
     8
 73
     4
 74
     0
 42
0.0000000001
 43
0.0000000001
 40
0.6432030004477055
 40
0.6432030004477055
 40
0.6432030004477055
 40
0.6432030004477055
 40
1.797818050668038
 40
1.797818050668038
 40
1.797818050668038
 40
1.797818050668038
 10
-7.655609319960327
 20
-1.52742306475324
 30
0.0
 10
-7.507777611332043
 20
-1.509680812220541
 30
0.0
 10
-7.365222803961212
 20
-1.476884736916838
 30
0.0
 10
-7.227109889089511
 20
-1.431416932659236
 30
0.0
  0
SPLINE
  5
30E7
330
1F
100
AcDbEntity
  8
AM_0
100
AcDbSpline
210
0.0
220
0.0
230
1.0
 70
     8
 71
     3
 72
     8
 73
     4
 74
     0
 42
0.0000000001
 43
0.0000000001
 40
0.0
 40
0.0
 40
0.0
 40
0.0
 40
1.570112951298052
 40
1.570112951298052
 40
1.570112951298052
 40
1.570112951298052
 10
-8.788033408589248
 20
-1.742593836840137
 30
0.0
 10
-8.57865562872765
 20
-1.742593836840137
 30
0.0
 10
-8.381399932564304
 20
-1.711070269112029
 30
0.0
 10
-8.193965456181016
 20
-1.654006547181017
 30
0.0
  0
SPLINE
  5
30E8
330
1F
100
AcDbEntity
  8
AM_0
100
AcDbSpline
210
0.0
220
0.0
230
1.0
 70
     8
 71
     3
 72
     8
 73
     4
 74
     0
 42
0.0000000001
 43
0.0000000001
 40
0.0
 40
0.0
 40
0.0
 40
0.0
 40
1.973247866266529
 40
1.973247866266529
 40
1.973247866266529
 40
1.973247866266529
 10
-7.314701295315181
 20
-1.43313856537245
 30
0.0
 10
-7.05156464835372
 20
-1.43313856537245
 30
0.0
 10
-6.803648105115415
 20
-1.386681539234864
 30
0.0
 10
-6.567086261178988
 20
-1.305566039551228
 30
0.0
  0
SPLINE
  5
30E9
330
1F
100
AcDbEntity
  8
AM_0
100
AcDbSpline
210
0.0
220
0.0
230
1.0
 70
     8
 71
     3
 72
     8
 73
     4
 74
     0
 42
0.0000000001
 43
0.0000000001
 40
0.1383879590723462
 40
0.1383879590723462
 40
0.1383879590723462
 40
0.1383879590723462
 40
4.12619780763684
 40
4.12619780763684
 40
4.12619780763684
 40
4.12619780763684
 10
-7.369974353874729
 20
-1.432457137551146
 30
0.0
 10
-7.897481025089393
 20
-1.419405473734764
 30
0.0
 10
-8.363933126654012
 20
-1.219994124751325
 30
0.0
 10
-8.80123526107871
 20
-0.9316069836205292
 30
0.0
  0
SPLINE
  5
30EA
330
1F
100
AcDbEntity
  8
AM_0
100
AcDbSpline
210
0.0
220
0.0
230
1.0
 70
     8
 71
     3
 72
     8
 73
     4
 74
     0
 42
0.0000000001
 43
0.0000000001
 40
0.0
 40
0.0
 40
0.0
 40
0.0
 40
1.570112951298052
 40
1.570112951298052
 40
1.570112951298052
 40
1.570112951298052
 10
-8.788166760504502
 20
-1.742593836840137
 30
0.0
 10
-8.578788980642906
 20
-1.742593836840137
 30
0.0
 10
-8.381533284479559
 20
-1.711070269112029
 30
0.0
 10
-8.194098808096271
 20
-1.654006547181017
 30
0.0
  0
SPLINE
  5
30EB
330
1F
100
AcDbEntity
  8
AM_0
100
AcDbSpline
210
0.0
220
0.0
230
1.0
 70
     8
 71
     3
 72
     8
 73
     4
 74
     0
 42
0.0000000001
 43
0.0000000001
 40
0.0
 40
0.0
 40
0.0
 40
0.0
 40
8.27212790036493
 40
8.27212790036493
 40
8.27212790036493
 40
8.27212790036493
 10
-5.272740034079729
 20
-1.742593836840137
 30
0.0
 10
-6.375845242578956
 20
-1.742593836840137
 30
0.0
 10
-7.142477646751826
 20
-0.8675938368401308
 30
0.0
 10
-7.909110050924686
 20
0.0074061631598637
 30
0.0
  0
SPLINE
  5
30EC
330
1F
100
AcDbEntity
  8
AM_0
100
AcDbSpline
210
0.0
220
0.0
230
1.0
 70
     8
 71
     3
 72
     8
 73
     4
 74
     0
 42
0.0000000001
 43
0.0000000001
 40
0.0
 40
0.0
 40
0.0
 40
0.0
 40
3.655156164497277
 40
3.655156164497277
 40
3.655156164497277
 40
3.655156164497277
 10
-7.030320045175559
 20
1.757406163159897
 30
0.0
 10
-7.517742610626739
 20
1.757406163160175
 30
0.0
 10
-7.939470925941601
 20
1.586567782970083
 30
0.0
 10
-8.324532920360478
 20
1.320378365871347
 30
0.0
  0
SPLINE
  5
30ED
330
1F
100
AcDbEntity
  8
AM_0
100
AcDbSpline
210
0.0
220
0.0
230
1.0
 70
     8
 71
     3
 72
     8
 73
     4
 74
     0
 42
0.0000000001
 43
0.0000000001
 40
5.58452476840911
 40
5.58452476840911
 40
5.58452476840911
 40
5.58452476840911
 40
8.27212790036518
 40
8.27212790036518
 40
8.27212790036518
 40
8.27212790036518
 10
-0.1200168444590794
 20
-0.8154437600712167
 30
0.0
 10
-0.3806343496995396
 20
-0.5611664625988667
 30
0.0
 10
-0.62971217771794
 20
-0.2768801497195214
 30
0.0
 10
-0.8787900057363396
 20
0.0074061631598637
 30
0.0
  0
SPLINE
  5
30EE
330
1F
100
AcDbEntity
  8
AM_0
100
AcDbSpline
210
0.0
220
0.0
230
1.0
 70
     8
 71
     3
 72
     8
 73
     4
 74
     0
 42
0.0000000001
 43
0.0000000001
 40
6.850968446318445
 40
6.850968446318445
 40
6.850968446318445
 40
6.850968446318445
 40
8.138271981564475
 40
8.138271981564475
 40
8.138271981564475
 40
8.138271981564475
 10
-0.1189768821014081
 20
-0.3858452575315583
 30
0.0
 10
-0.242879456562937
 20
-0.2569663694360757
 30
0.0
 10
-0.3655563301547765
 20
-0.124780103138106
 30
0.0
 10
-0.4882332037466161
 20
0.0074061631598637
 30
0.0
  0
SPLINE
  5
30EF
330
1F
100
AcDbEntity
  8
AM_0
100
AcDbSpline
210
0.0
220
0.0
230
1.0
 70
     8
 71
     3
 72
     8
 73
     4
 74
     0
 42
0.0000000001
 43
0.0000000001
 40
0.0
 40
0.0
 40
0.0
 40
0.0
 40
3.860109074512531
 40
3.860109074512531
 40
3.860109074512531
 40
3.860109074512531
 10
-0.1200168444590794
 20
1.753919208699863
 30
0.0
 10
-0.0201123820088323
 20
1.312136355199
 30
0.0
 10
-0.8722359727413381
 20
0.9814860994915942
 30
0.0
 10
-1.386989428775554
 20
0.9814860994915942
 30
0.0
  0
SPLINE
  5
30F0
330
1F
100
AcDbEntity
  8
AM_0
100
AcDbSpline
210
0.0
220
0.0
230
1.0
 70
     8
 71
     3
 72
     8
 73
     4
 74
     0
 42
0.0000000001
 43
0.0000000001
 40
0.2299567350972117
 40
0.2299567350972117
 40
0.2299567350972117
 40
0.2299567350972117
 40
4.912075065647881
 40
4.912075065647881
 40
4.912075065647881
 40
4.912075065647881
 10
-1.950446294639089
 20
1.446076778476021
 30
0.0
 10
-1.334368958660195
 20
1.420764467951797
 30
0.0
 10
-0.8014472049177443
 20
1.141632529931832
 30
0.0
 10
-0.3000421111635112
 20
0.7663008337838125
 30
0.0
  0
SPLINE
  5
30F1
330
1F
100
AcDbEntity
  8
AM_0
100
AcDbSpline
210
0.0
220
0.0
230
1.0
 70
     8
 71
     3
 72
     8
 73
     4
 74
     0
 42
0.0000000001
 43
0.0000000001
 40
0.0
 40
0.0
 40
0.0
 40
0.0
 40
3.655156164497277
 40
3.655156164497277
 40
3.655156164497277
 40
3.655156164497277
 10
0.0000000000126031
 20
1.757406163159897
 30
0.0
 10
-0.4874225654383925
 20
1.757406163160175
 30
0.0
 10
-0.9091508807534383
 20
1.586567782970083
 30
0.0
 10
-1.294212875172314
 20
1.320378365871347
 30
0.0
  0
SPLINE
  5
30F2
330
1F
100
AcDbEntity
  8
AM_0
100
AcDbSpline
210
0.0
220
0.0
230
1.0
 70
     8
 71
     3
 72
     8
 73
     4
 74
     0
 42
0.0000000001
 43
0.0000000001
 40
0.0
 40
0.0
 40
0.0
 40
0.0
 40
8.272127900365285
 40
8.272127900365285
 40
8.272127900365285
 40
8.272127900365285
 10
-3.51516002258148
 20
1.757406163159897
 30
0.0
 10
-2.412054814082202
 20
1.757406163159897
 30
0.0
 10
-1.645422409909271
 20
0.8824061631598983
 30
0.0
 10
-0.8787900057363396
 20
0.0074061631599035
 30
0.0
  0
SPLINE
  5
30F3
330
1F
100
AcDbEntity
  8
AM_0
100
AcDbSpline
210
0.0
220
0.0
230
1.0
 70
     8
 71
     3
 72
     8
 73
     4
 74
     0
 42
0.0000000001
 43
0.0000000001
 40
0.5179125576517913
 40
0.5179125576517913
 40
0.5179125576517913
 40
0.5179125576517913
 40
8.138271981564475
 40
8.138271981564475
 40
8.138271981564475
 40
8.138271981564475
 10
-2.921092070167064
 20
1.668818873498907
 30
0.0
 10
-1.940636377009374
 20
1.572393491347487
 30
0.0
 10
-1.214434790377904
 20
0.7898998272536929
 30
0.0
 10
-0.4882332037466161
 20
0.0074061631599433
 30
0.0
  0
SPLINE
  5
30F4
330
1F
100
AcDbEntity
  8
AM_0
100
AcDbSpline
210
0.0
220
0.0
230
1.0
 70
     8
 71
     3
 72
     8
 73
     4
 74
     0
 42
0.0000000001
 43
0.0000000001
 40
0.6397612841816997
 40
0.6397612841816997
 40
0.6397612841816997
 40
0.6397612841816997
 40
6.972227720174165
 40
6.972227720174165
 40
6.972227720174165
 40
6.972227720174165
 10
-2.384028908407838
 20
1.542769793319235
 30
0.0
 10
-1.57288735569045
 20
1.447171389038278
 30
0.0
 10
-0.9196596168687936
 20
0.8983096616275323
 30
0.0
 10
-0.2873638293216343
 20
0.2893665166373136
 30
0.0
  0
SPLINE
  5
30F5
330
1F
100
AcDbEntity
  8
AM_0
100
AcDbSpline
210
0.0
220
0.0
230
1.0
 70
     8
 71
     3
 72
     8
 73
     4
 74
     0
 42
0.0000000001
 43
0.0000000001
 40
0.0
 40
0.0
 40
0.0
 40
0.0
 40
0.0092824582075338
 40
0.0092824582075338
 40
0.0092824582075338
 40
0.0092824582075338
 10
-0.2842478982115783
 20
-1.43313856537245
 30
0.0
 10
-0.2830100633859191
 20
-1.43313856537245
 30
0.0
 10
-0.2817725653668618
 20
-1.433137537322663
 30
0.0
 10
-0.2805354037516243
 20
-1.433135482451381
 30
0.0
  0
SPLINE
  5
30F6
330
1F
100
AcDbEntity
  8
AM_0
100
AcDbSpline
210
0.0
220
0.0
230
1.0
 70
     8
 71
     3
 72
     8
 73
     4
 74
     0
 42
0.0000000001
 43
0.0000000001
 40
0.0
 40
0.0
 40
0.0
 40
0.0
 40
1.512029330426235
 40
1.512029330426235
 40
1.512029330426235
 40
1.512029330426235
 10
-0.8772714362426226
 20
-1.542647471532385
 30
0.0
 10
-0.6756395225124435
 20
-1.542345078516085
 30
0.0
 10
-0.4838548320590274
 20
-1.513950752988101
 30
0.0
 10
-0.3000421111635112
 20
-1.462814175709352
 30
0.0
  0
SPLINE
  5
30F7
330
1F
100
AcDbEntity
  8
AM_0
100
AcDbSpline
210
0.0
220
0.0
230
1.0
 70
     8
 71
     3
 72
     8
 73
     4
 74
     0
 42
0.0000000001
 43
0.0000000001
 40
0.0
 40
0.0
 40
0.0
 40
0.0
 40
1.981387939834528
 40
1.981387939834528
 40
1.981387939834528
 40
1.981387939834528
 10
-1.367023209495558
 20
-1.663944466907002
 30
0.0
 10
-1.10280106704145
 20
-1.663944466906962
 30
0.0
 10
-0.8569363950804406
 20
-1.614409462678116
 30
0.0
 10
-0.6249597840468448
 20
-1.52739951564394
 30
0.0
  0
SPLINE
  5
30F8
330
1F
100
AcDbEntity
  8
AM_0
100
AcDbSpline
210
0.0
220
0.0
230
1.0
 70
     8
 71
     3
 72
     8
 73
     4
 74
     0
 42
0.0000000001
 43
0.0000000001
 40
0.0
 40
0.0
 40
0.0
 40
0.0
 40
1.570112951298052
 40
1.570112951298052
 40
1.570112951298052
 40
1.570112951298052
 10
-1.757580011485464
 20
-1.742593836840137
 30
0.0
 10
-1.548202231623867
 20
-1.742593836840137
 30
0.0
 10
-1.350946535460523
 20
-1.711070269112029
 30
0.0
 10
-1.163512059077233
 20
-1.654006547181017
 30
0.0
  0
SPLINE
  5
30F9
330
1F
100
AcDbEntity
  8
AM_0
100
AcDbSpline
210
0.0
220
0.0
230
1.0
 70
     8
 71
     3
 72
     8
 73
     4
 74
     0
 42
0.0000000001
 43
0.0000000001
 40
0.0
 40
0.0
 40
0.0
 40
0.0
 40
1.973247866266529
 40
1.973247866266529
 40
1.973247866266529
 40
1.973247866266529
 10
-3.799407920805665
 20
-1.43313856537245
 30
0.0
 10
-3.536271273844201
 20
-1.43313856537245
 30
0.0
 10
-3.288354730605895
 20
-1.386681539234864
 30
0.0
 10
-3.051792886669473
 20
-1.305566039551228
 30
0.0
  0
SPLINE
  5
30FA
330
1F
100
AcDbEntity
  8
AM_0
100
AcDbSpline
210
0.0
220
0.0
230
1.0
 70
     8
 71
     3
 72
    10
 73
     6
 74
     0
 42
0.0000000001
 43
0.0000000001
 40
0.0
 40
0.0
 40
0.0
 40
0.0
 40
1.624816058741878
 40
2.635428435777873
 40
3.678161543961334
 40
3.678161543961334
 40
3.678161543961334
 40
3.678161543961334
 10
-0.4466545292655522
 20
-1.267625247225793
 30
0.0
 10
-0.656274941871513
 20
-1.219656143788487
 30
0.0
 10
-0.9376760235454938
 20
-1.151588896401517
 30
0.0
 10
-1.564256067703078
 20
-0.9166482782336807
 30
0.0
 10
-1.20485261852089
 20
-0.6318362209892051
 30
0.0
 10
-1.066944510189796
 20
-0.6473987634464992
 30
0.0
  0
SPLINE
  5
30FB
330
1F
100
AcDbEntity
  8
AM_0
100
AcDbSpline
210
0.0
220
0.0
230
1.0
 70
     8
 71
     3
 72
     8
 73
     4
 74
     0
 42
0.0000000001
 43
0.0000000001
 40
0.0
 40
0.0
 40
0.0
 40
0.0
 40
8.138271981564608
 40
8.138271981564608
 40
8.138271981564608
 40
8.138271981564608
 10
-1.367023209495558
 20
-1.663944466907002
 30
0.0
 10
-2.452278456897043
 20
-1.663944466907002
 30
0.0
 10
-3.227835841618872
 20
-0.8282691518735685
 30
0.0
 10
-4.003393226340699
 20
0.0074061631598637
 30
0.0
  0
SPLINE
  5
30FC
330
1F
100
AcDbEntity
  8
AM_0
100
AcDbSpline
210
0.0
220
0.0
230
1.0
 70
     8
 71
     3
 72
     8
 73
     4
 74
     0
 42
0.0000000001
 43
0.0000000001
 40
0.0
 40
0.0
 40
0.0
 40
0.0
 40
7.939880490758586
 40
7.939880490758586
 40
7.939880490758586
 40
7.939880490758586
 10
-0.8772714362426226
 20
-1.542647471532426
 30
0.0
 10
-1.936070771759524
 20
-1.542647471532426
 30
0.0
 10
-2.724856112423551
 20
-0.7676206541862812
 30
0.0
 10
-3.513641453087579
 20
0.0074061631598637
 30
0.0
  0
SPLINE
  5
30FD
330
1F
100
AcDbEntity
  8
AM_0
100
AcDbSpline
210
0.0
220
0.0
230
1.0
 70
     8
 71
     3
 72
     8
 73
     4
 74
     0
 42
0.0000000001
 43
0.0000000001
 40
0.1383879590723462
 40
0.1383879590723462
 40
0.1383879590723462
 40
0.1383879590723462
 40
7.769701155129346
 40
7.769701155129346
 40
7.769701155129346
 40
7.769701155129346
 10
-0.3393876048556938
 20
-1.432457137551146
 30
0.0
 10
-1.348856153737897
 20
-1.407480687295303
 30
0.0
 10
-2.134737034397125
 20
-0.7000372620676999
 30
0.0
 10
-2.920617915056537
 20
0.0074061631598637
 30
0.0
  0
SPLINE
  5
30FE
330
1F
100
AcDbEntity
  8
AM_0
100
AcDbSpline
210
0.0
220
0.0
230
1.0
 70
     8
 71
     3
 72
     8
 73
     4
 74
     0
 42
0.0000000001
 43
0.0000000001
 40
0.0
 40
0.0
 40
0.0
 40
0.0
 40
1.570112951298052
 40
1.570112951298052
 40
1.570112951298052
 40
1.570112951298052
 10
-5.272740034079729
 20
-1.742593836840137
 30
0.0
 10
-5.063362254218133
 20
-1.742593836840137
 30
0.0
 10
-4.866106558054788
 20
-1.711070269112029
 30
0.0
 10
-4.678672081671498
 20
-1.654006547181017
 30
0.0
  0
SPLINE
  5
30FF
330
1F
100
AcDbEntity
  8
AM_0
100
AcDbSpline
210
0.0
220
0.0
230
1.0
 70
     8
 71
     3
 72
     8
 73
     4
 74
     0
 42
0.0000000001
 43
0.0000000001
 40
0.0
 40
0.0
 40
0.0
 40
0.0
 40
8.138271981564608
 40
8.138271981564608
 40
8.138271981564608
 40
8.138271981564608
 10
-4.882183232089825
 20
-1.663944466907002
 30
0.0
 10
-5.967438479491307
 20
-1.663944466907002
 30
0.0
 10
-6.742995864213135
 20
-0.8282691518735685
 30
0.0
 10
-7.518553248934964
 20
0.0074061631598637
 30
0.0
  0
SPLINE
  5
3100
330
1F
100
AcDbEntity
  8
AM_0
100
AcDbSpline
210
0.0
220
0.0
230
1.0
 70
     8
 71
     3
 72
     8
 73
     4
 74
     0
 42
0.0000000001
 43
0.0000000001
 40
0.0
 40
0.0
 40
0.0
 40
0.0
 40
7.939880490758586
 40
7.939880490758586
 40
7.939880490758586
 40
7.939880490758586
 10
-4.392431458836886
 20
-1.542647471532426
 30
0.0
 10
-5.451230794353789
 20
-1.542647471532426
 30
0.0
 10
-6.240016135017818
 20
-0.7676206541862812
 30
0.0
 10
-7.028801475681843
 20
0.0074061631598637
 30
0.0
  0
SPLINE
  5
3101
330
1F
100
AcDbEntity
  8
AM_0
100
AcDbSpline
210
0.0
220
0.0
230
1.0
 70
     8
 71
     3
 72
     8
 73
     4
 74
     0
 42
0.0000000001
 43
0.0000000001
 40
0.0
 40
0.0
 40
0.0
 40
0.0
 40
7.769701155129467
 40
7.769701155129467
 40
7.769701155129467
 40
7.769701155129467
 10
-3.799407920805665
 20
-1.43313856537245
 30
0.0
 10
-4.835513493149107
 20
-1.43313856537245
 30
0.0
 10
-5.635645715399953
 20
-0.712866201106293
 30
0.0
 10
-6.435777937650802
 20
0.0074061631598637
 30
0.0
  0
SPLINE
  5
3102
330
1F
100
AcDbEntity
  8
AM_0
100
AcDbSpline
210
0.0
220
0.0
230
1.0
 70
     8
 71
     3
 72
     8
 73
     4
 74
     0
 42
0.0000000001
 43
0.0000000001
 40
0.0
 40
0.0
 40
0.0
 40
0.0
 40
1.797818050668038
 40
1.797818050668038
 40
1.797818050668038
 40
1.797818050668038
 10
-4.392431458836886
 20
-1.542647471532385
 30
0.0
 10
-4.152689089558366
 20
-1.542287923200807
 30
0.0
 10
-3.926868181661019
 20
-1.502213549421649
 30
0.0
 10
-3.711816514579996
 20
-1.431416932659236
 30
0.0
  0
SPLINE
  5
3103
330
1F
100
AcDbEntity
  8
AM_0
100
AcDbSpline
210
0.0
220
0.0
230
1.0
 70
     8
 71
     3
 72
     8
 73
     4
 74
     0
 42
0.0000000001
 43
0.0000000001
 40
0.0
 40
0.0
 40
0.0
 40
0.0
 40
1.981387939834528
 40
1.981387939834528
 40
1.981387939834528
 40
1.981387939834528
 10
-4.882183232089825
 20
-1.663944466907002
 30
0.0
 10
-4.617961089635717
 20
-1.663944466906962
 30
0.0
 10
-4.372096417674705
 20
-1.614409462678116
 30
0.0
 10
-4.140119806641108
 20
-1.52739951564394
 30
0.0
  0
SPLINE
  5
3104
330
1F
100
AcDbEntity
  8
AM_0
100
AcDbSpline
210
0.0
220
0.0
230
1.0
 70
     8
 71
     3
 72
     8
 73
     4
 74
     0
 42
0.0000000001
 43
0.0000000001
 40
0.0
 40
0.0
 40
0.0
 40
0.0
 40
8.272127900365292
 40
8.272127900365292
 40
8.272127900365292
 40
8.272127900365292
 10
-1.757580011485464
 20
-1.742593836840137
 30
0.0
 10
-2.860685219984741
 20
-1.742593836840137
 30
0.0
 10
-3.627317624157671
 20
-0.8675938368401361
 30
0.0
 10
-4.393950028330606
 20
0.0074061631598637
 30
0.0
  0
SPLINE
  5
3105
330
1F
100
AcDbEntity
  8
AM_0
100
AcDbSpline
210
0.0
220
0.0
230
1.0
 70
     8
 71
     3
 72
     8
 73
     4
 74
     0
 42
0.0000000001
 43
0.0000000001
 40
0.0
 40
0.0
 40
0.0
 40
0.0
 40
3.655156164497277
 40
3.655156164497277
 40
3.655156164497277
 40
3.655156164497277
 10
-3.51516002258148
 20
1.757406163159897
 30
0.0
 10
-4.002582588032656
 20
1.757406163160175
 30
0.0
 10
-4.424310903347522
 20
1.586567782970083
 30
0.0
 10
-4.809372897766399
 20
1.320378365871347
 30
0.0
  0
SPLINE
  5
3106
330
1F
100
AcDbEntity
  8
AM_0
100
AcDbSpline
210
0.0
220
0.0
230
1.0
 70
     8
 71
     3
 72
     8
 73
     4
 74
     0
 42
0.0000000001
 43
0.0000000001
 40
0.6397612841816997
 40
0.6397612841816997
 40
0.6397612841816997
 40
0.6397612841816997
 40
7.939880490758838
 40
7.939880490758838
 40
7.939880490758838
 40
7.939880490758838
 10
-5.899188931001918
 20
1.542769793319235
 30
0.0
 10
-4.964098301134827
 20
1.432563169365727
 30
0.0
 10
-4.238869877111294
 20
0.7199846662628334
 30
0.0
 10
-3.513641453087759
 20
0.0074061631599433
 30
0.0
  0
SPLINE
  5
3107
330
1F
100
AcDbEntity
  8
AM_0
100
AcDbSpline
210
0.0
220
0.0
230
1.0
 70
     8
 71
     3
 72
     8
 73
     4
 74
     0
 42
0.0000000001
 43
0.0000000001
 40
0.2299567350972117
 40
0.2299567350972117
 40
0.2299567350972117
 40
0.2299567350972117
 40
7.769701155129346
 40
7.769701155129346
 40
7.769701155129346
 40
7.769701155129346
 10
-5.465606317233353
 20
1.446076778476021
 30
0.0
 10
-4.473519973334937
 20
1.405315665971086
 30
0.0
 10
-3.697068944195646
 20
0.7063609145654726
 30
0.0
 10
-2.920617915056537
 20
0.0074061631599035
 30
0.0
  0
SPLINE
  5
3108
330
1F
100
AcDbEntity
  8
AM_0
100
AcDbSpline
210
0.0
220
0.0
230
1.0
 70
     8
 71
     3
 72
     8
 73
     4
 74
     0
 42
0.0000000001
 43
0.0000000001
 40
0.5179125576517913
 40
0.5179125576517913
 40
0.5179125576517913
 40
0.5179125576517913
 40
8.138271981564475
 40
8.138271981564475
 40
8.138271981564475
 40
8.138271981564475
 10
-6.436252092761146
 20
1.668818873498907
 30
0.0
 10
-5.455796399603639
 20
1.572393491347487
 30
0.0
 10
-4.729594812972171
 20
0.7898998272536929
 30
0.0
 10
-4.003393226340699
 20
0.0074061631599433
 30
0.0
  0
SPLINE
  5
3109
330
1F
100
AcDbEntity
  8
AM_0
100
AcDbSpline
210
0.0
220
0.0
230
1.0
 70
     8
 71
     3
 72
     8
 73
     4
 74
     0
 42
0.0000000001
 43
0.0000000001
 40
0.0
 40
0.0
 40
0.0
 40
0.0
 40
8.272127900364923
 40
8.272127900364923
 40
8.272127900364923
 40
8.272127900364923
 10
-7.030320045175559
 20
1.757406163159897
 30
0.0
 10
-5.927214836676331
 20
1.757406163159897
 30
0.0
 10
-5.160582432503466
 20
0.8824061631599082
 30
0.0
 10
-4.393950028330606
 20
0.0074061631599035
 30
0.0
  0
DIMENSION
  5
310A
330
1F
100
AcDbEntity
  8
AM_5
100
AcDbDimension
  2
*D8
 10
-10.00000140689879
 20
-9.98730472029729
 30
0.0
 11
-5.000000703444371
 21
-8.437304720297289
 31
0.0
 70
    32
  1
<>
  3
AM_JIS
100
AcDbAlignedDimension
 13
0.0000000000100562
 23
-1.742593836840096
 33
0.0
 14
-10.00000140689879
 24
-1.742593836840096
 34
0.0
 50
0.0000000000000871
100
AcDbRotatedDimension
1001
GENIUS_GENDTOL_13
1000

1000
h7
1000

1040
0.0
  0
LINE
  5
3135
330
1F
100
AcDbEntity
  8
AM_0
100
AcDbLine
 10
-11.49999999998739
 20
1.757406163159897
 30
0.0
 11
-11.49999999998739
 21
-1.742593836840096
 31
0.0
  0
VIEWPORT
  5
110
330
101
100
AcDbEntity
 67
     1
  8
0
100
AcDbViewport
 10
420.5
 20
297.0
 30
0.0
 40
948.9782706766916
 41
628.452
 68
     1
 69
     1
1001
ACAD
1000
MVIEW
1002
{
1070
    16
1010
0.0
1020
0.0
1030
0.0
1010
0.0
1020
0.0
1030
1.0
1040
0.0
1040
628.452
1040
420.5
1040
297.0
1040
50.0
1040
0.0
1040
0.0
1070
     0
1070
   100
1070
     1
1070
     1
1070
     0
1070
     0
1070
     0
1070
     0
1040
0.0
1040
0.0
1040
0.0
1040
10.0
1040
10.0
1040
10.0
1040
10.0
1070
     0
1002
{
1002
}
1002
}
  0
ENDSEC
  0
SECTION
  2
OBJECTS
  0
DICTIONARY
  5
C
330
0
100
AcDbDictionary
  3
ACAD_GROUP
350
D
  3
ACAD_LAYOUT
350
1A
  3
ACAD_MLINESTYLE
350
17
  3
ACAD_PLOTSETTINGS
350
19
  3
ACAD_PLOTSTYLENAME
350
E
  3
ACDBVARIABLEDICTIONARY
350
34
  3
ACMDICTIONARY
350
43
  3
AMG
350
2B
  3
AMGSNAPSETTINGS
350
6E
  3
DWGPROPS
350
327E
  3
ACDBHEADERROUNDTRIPXREC
350
328A
  0
DICTIONARY
  5
74
330
1F
100
AcDbDictionary
280
     1
  3
ACAD_INDEX
360
3280
  3
ACAD_LAYOUTSELFREF
360
32AD
  0
DICTIONARY
  5
32B2
330
101
100
AcDbDictionary
280
     1
  3
ACAD_LAYOUTSELFREF
360
32B3
  0
DICTIONARY
  5
D
102
{ACAD_REACTORS
330
C
102
}
330
C
100
AcDbDictionary
  0
DICTIONARY
  5
1A
102
{ACAD_REACTORS
330
C
102
}
330
C
100
AcDbDictionary
  0
DICTIONARY
  5
17
102
{ACAD_REACTORS
330
C
102
}
330
C
100
AcDbDictionary
  3
STANDARD
350
18
  0
DICTIONARY
  5
19
102
{ACAD_REACTORS
330
C
102
}
330
C
100
AcDbDictionary
  0
ACDBDICTIONARYWDFLT
  5
E
102
{ACAD_REACTORS
330
C
102
}
330
C
100
AcDbDictionary
281
     1
  3
Normal
350
F
100
AcDbDictionaryWithDefault
340
F
  0
DICTIONARY
  5
34
102
{ACAD_REACTORS
330
C
102
}
330
C
100
AcDbDictionary
  3
INDEXCTL
350
35
  3
SORTENTS
350
B5E
  0
DICTIONARY
  5
43
102
{ACAD_REACTORS
330
C
102
}
330
C
100
AcDbDictionary
  3
ACMSTDDICTIONARY
350
260
  0
DICTIONARY
  5
2B
102
{ACAD_REACTORS
330
C
102
}
330
C
100
AcDbDictionary
  3
ACMGSETTINGS
350
2C
  0
DICTIONARY
  5
6E
102
{ACAD_REACTORS
330
C
102
}
330
C
100
AcDbDictionary
  0
XRECORD
  5
327E
102
{ACAD_REACTORS
330
C
102
}
330
C
100
AcDbXrecord
  1
DWGPROPS COOKIE
  2

  3

  4

  6

  7

  8

  9

300
AmdtFileType=82
301
=
302
=
303
=
304
=
305
=
306
=
307
=
308
=
309
=
 40
0.1619292476851852
 41
2452808.461142939
 42
2452844.416345115
  1

 90
        1
  0
DICTIONARY
  5
328A
102
{ACAD_REACTORS
330
C
102
}
330
C
100
AcDbDictionary
  3
TSTACKALIGN
350
328B
  3
TSTACKSIZE
350
328C
  3
HYPERLINKBASE
350
328D
  3
STYLESHEET
350
328E
  3
LAYOUTDICT
350
328F
  3
PLOTSETDICT
350
3290
  3
PLOTSTYLNAMDICT
350
3291
  3
LWETCUNION
350
3292
  3
INSUNITS
350
3293
  3
CEPSNTYPE
350
3294
  3
FINGERPRINTGUID
350
3295
  3
VERSIONGUID
350
3296
  3
PSVPSCALE
350
3297
  3
DIMSTYLEDATA
350
3298
  3
PUCSORTHOREF
350
3299
  3
PUCSORTHOVIEW
350
329A
  3
PUCSBASE
350
329B
  3
PUCSORGTOP
350
329C
  3
PUCSORGBOTTOM
350
329D
  3
PUCSORGLEFT
350
329E
  3
PUCSORGRIGHT
350
329F
  3
PUCSORGFRONT
350
32A0
  3
PUCSORGBACK
350
32A1
  3
UCSORTHOREF
350
32A2
  3
UCSORTHOVIEW
350
32A3
  3
UCSBASE
350
32A4
  3
UCSORGTOP
350
32A5
  3
UCSORGBOTTOM
350
32A6
  3
UCSORGLEFT
350
32A7
  3
UCSORGRIGHT
350
32A8
  3
UCSORGFRONT
350
32A9
  3
UCSORGBACK
350
32AA
  0
DICTIONARY
  5
3280
102
{ACAD_REACTORS
330
74
102
}
330
74
100
AcDbDictionary
  3
*A1
350
3281
  0
XRECORD
  5
32AD
102
{ACAD_REACTORS
330
74
102
}
330
74
100
AcDbXrecord
340
1F
  0
XRECORD
  5
32B3
102
{ACAD_REACTORS
330
32B2
102
}
330
32B2
100
AcDbXrecord
340
101
  0
MLINESTYLE
  5
18
102
{ACAD_REACTORS
330
17
102
}
330
17
100
AcDbMlineStyle
  2
STANDARD
 70
     0
  3

 62
   256
 51
90.0
 52
90.0
 71
     2
 49
0.5
 62
   256
  6
BYLAYER
 49
-0.5
 62
   256
  6
BYLAYER
  0
ACDBPLACEHOLDER
  5
F
102
{ACAD_REACTORS
330
E
102
}
330
E
100
AcDbPlaceHolder
280
     0
  0
DICTIONARYVAR
  5
35
102
{ACAD_REACTORS
330
34
102
}
330
34
100
DictionaryVariables
280
     0
  1
1
  0
DICTIONARYVAR
  5
B5E
102
{ACAD_REACTORS
330
34
102
}
330
34
100
DictionaryVariables
280
     0
  1
96
  0
DICTIONARY
  5
260
102
{ACAD_REACTORS
330
43
102
}
330
43
100
AcDbDictionary
  0
DICTIONARY
  5
2C
102
{ACAD_REACTORS
330
2B
102
}
330
2B
100
AcDbDictionary
  3
DWGSETTINGS
350
2D
  0
XRECORD
  5
328B
102
{ACAD_REACTORS
330
328A
102
}
330
328A
100
AcDbXrecord
 90
        1
  0
XRECORD
  5
328C
102
{ACAD_REACTORS
330
328A
102
}
330
328A
100
AcDbXrecord
 90
       70
  0
XRECORD
  5
328D
102
{ACAD_REACTORS
330
328A
102
}
330
328A
100
AcDbXrecord
  1

  0
XRECORD
  5
328E
102
{ACAD_REACTORS
330
328A
102
}
330
328A
100
AcDbXrecord
  1
ASAMI.ctb
  0
XRECORD
  5
328F
102
{ACAD_REACTORS
330
328A
102
}
330
328A
100
AcDbXrecord
340
1A
  0
XRECORD
  5
3290
102
{ACAD_REACTORS
330
328A
102
}
330
328A
100
AcDbXrecord
340
19
  0
XRECORD
  5
3291
102
{ACAD_REACTORS
330
328A
102
}
330
328A
100
AcDbXrecord
340
E
  0
XRECORD
  5
3292
102
{ACAD_REACTORS
330
328A
102
}
330
328A
100
AcDbXrecord
 90
    10781
  0
XRECORD
  5
3293
102
{ACAD_REACTORS
330
328A
102
}
330
328A
100
AcDbXrecord
 90
        4
  0
XRECORD
  5
3294
102
{ACAD_REACTORS
330
328A
102
}
330
328A
100
AcDbXrecord
 90
        0
  0
XRECORD
  5
3295
102
{ACAD_REACTORS
330
328A
102
}
330
328A
100
AcDbXrecord
  1
{AFB28963-8C59-40AE-9337-C84526B81ACE}
  0
XRECORD
  5
3296
102
{ACAD_REACTORS
330
328A
102
}
330
328A
100
AcDbXrecord
  1
{27CFB115-B2B0-44D4-BB2B-2FEDBA5ED91A}
  0
XRECORD
  5
3297
102
{ACAD_REACTORS
330
328A
102
}
330
328A
100
AcDbXrecord
 40
0.0
  0
XRECORD
  5
3298
102
{ACAD_REACTORS
330
328A
102
}
330
328A
100
AcDbXrecord
1000
DSTYLE
1002
{
1070
    79
 70
     2
1070
   341
340
59
1070
   342
340
59
1070
   371
 70
    -1
1070
   372
 70
    -1
1002
}
  0
XRECORD
  5
3299
102
{ACAD_REACTORS
330
328A
102
}
330
328A
100
AcDbXrecord
340
0
  0
XRECORD
  5
329A
102
{ACAD_REACTORS
330
328A
102
}
330
328A
100
AcDbXrecord
 70
     0
  0
XRECORD
  5
329B
102
{ACAD_REACTORS
330
328A
102
}
330
328A
100
AcDbXrecord
340
0
  0
XRECORD
  5
329C
102
{ACAD_REACTORS
330
328A
102
}
330
328A
100
AcDbXrecord
 10
0.0
 20
0.0
 30
0.0
  0
XRECORD
  5
329D
102
{ACAD_REACTORS
330
328A
102
}
330
328A
100
AcDbXrecord
 10
0.0
 20
0.0
 30
0.0
  0
XRECORD
  5
329E
102
{ACAD_REACTORS
330
328A
102
}
330
328A
100
AcDbXrecord
 10
0.0
 20
0.0
 30
0.0
  0
XRECORD
  5
329F
102
{ACAD_REACTORS
330
328A
102
}
330
328A
100
AcDbXrecord
 10
0.0
 20
0.0
 30
0.0
  0
XRECORD
  5
32A0
102
{ACAD_REACTORS
330
328A
102
}
330
328A
100
AcDbXrecord
 10
0.0
 20
0.0
 30
0.0
  0
XRECORD
  5
32A1
102
{ACAD_REACTORS
330
328A
102
}
330
328A
100
AcDbXrecord
 10
0.0
 20
0.0
 30
0.0
  0
XRECORD
  5
32A2
102
{ACAD_REACTORS
330
328A
102
}
330
328A
100
AcDbXrecord
340
0
  0
XRECORD
  5
32A3
102
{ACAD_REACTORS
330
328A
102
}
330
328A
100
AcDbXrecord
 70
     0
  0
XRECORD
  5
32A4
102
{ACAD_REACTORS
330
328A
102
}
330
328A
100
AcDbXrecord
340
0
  0
XRECORD
  5
32A5
102
{ACAD_REACTORS
330
328A
102
}
330
328A
100
AcDbXrecord
 10
0.0
 20
0.0
 30
0.0
  0
XRECORD
  5
32A6
102
{ACAD_REACTORS
330
328A
102
}
330
328A
100
AcDbXrecord
 10
0.0
 20
0.0
 30
0.0
  0
XRECORD
  5
32A7
102
{ACAD_REACTORS
330
328A
102
}
330
328A
100
AcDbXrecord
 10
0.0
 20
0.0
 30
0.0
  0
XRECORD
  5
32A8
102
{ACAD_REACTORS
330
328A
102
}
330
328A
100
AcDbXrecord
 10
0.0
 20
0.0
 30
0.0
  0
XRECORD
  5
32A9
102
{ACAD_REACTORS
330
328A
102
}
330
328A
100
AcDbXrecord
 10
0.0
 20
0.0
 30
0.0
  0
XRECORD
  5
32AA
102
{ACAD_REACTORS
330
328A
102
}
330
328A
100
AcDbXrecord
 10
0.0
 20
0.0
 30
0.0
  0
LAYER_INDEX
  5
3281
102
{ACAD_REACTORS
330
3280
102
}
330
3280
100
AcDbIndex
 40
2452844.457618634
100
AcDbLayerIndex
  8
0
360
3282
 90
        0
  8
AM_0
360
3283
 90
       71
  8
AM_11
360
3284
 90
        5
  8
AM_6
360
3285
 90
        1
  8
AM_7
360
3286
 90
        1
  8
AM_5
360
3287
 90
        4
  8
Defpoints
360
3288
 90
        0
  0
XRECORD
  5
2D
102
{ACAD_REACTORS
330
2C
102
}
330
2C
100
AcDbXrecord
  1
VERSION
140
15.0
  1
PRODUCT
  2
AutoCAD Mechanical 2000
  0
IDBUFFER
  5
3282
330
0
100
AcDbIdBuffer
  0
IDBUFFER
  5
3283
330
0
100
AcDbIdBuffer
330
30F4
330
30F5
330
30F6
330
30F7
330
30F8
330
30F9
330
30FA
330
30FB
330
30FC
330
30FD
330
30FE
330
30FF
330
3100
330
3101
330
3102
330
3103
330
3104
330
3105
330
3106
330
3107
330
3108
330
3109
330
3135
330
2F93
330
2F94
330
2F97
330
2F98
330
2F99
330
2F9A
330
2F9B
330
2FCC
330
2FDD
330
2FDF
330
30AC
330
30AD
330
30AE
330
30AF
330
30B0
330
30B1
330
30B2
330
30B3
330
30B5
330
30B6
330
30B7
330
30B8
330
30BA
330
30BB
330
30BC
330
30BD
330
30CC
330
30DF
330
30E0
330
30E1
330
30E2
330
30E3
330
30E4
330
30E5
330
30E6
330
30E7
330
30E8
330
30E9
330
30EA
330
30EB
330
30EC
330
30ED
330
30EE
330
30EF
330
30F0
330
30F1
330
30F2
330
30F3
  0
IDBUFFER
  5
3284
330
0
100
AcDbIdBuffer
330
30B4
330
30B9
330
30CD
330
30CE
330
30CF
  0
IDBUFFER
  5
3285
330
0
100
AcDbIdBuffer
330
F07
  0
IDBUFFER
  5
3286
330
0
100
AcDbIdBuffer
330
2F95
  0
IDBUFFER
  5
3287
330
0
100
AcDbIdBuffer
330
2F92
330
2F96
330
30D0
330
310A
  0
IDBUFFER
  5
3288
330
0
100
AcDbIdBuffer
  0
ENDSEC
  0
EOF
