  0
SECTION
  2
HEADER
  9
$ACADVER
  1
AC1014
  9
$ACADMAINTVER
 70
     9
  9
$DWGCODEPAGE
  3
ANSI_932
  9
$INSBASE
 10
0.0
 20
0.0
 30
0.0
  9
$EXTMIN
 10
-70.72742599652301
 20
-27.23730472029745
 30
-0.00000001
  9
$EXTMAX
 10
10.1940799473851
 20
5.512696279702668
 30
0.00000001
  9
$LIMMIN
 10
-77.24556035390981
 20
-37.37254051317444
  9
$LIMMAX
 10
15.31981873260923
 20
9.551368917012894
  9
$ORTHOMODE
 70
     0
  9
$REGENMODE
 70
     1
  9
$FILLMODE
 70
     1
  9
$QTEXTMODE
 70
     0
  9
$MIRRTEXT
 70
     0
  9
$DRAGMODE
 70
     2
  9
$LTSCALE
 40
1.0
  9
$OSMODE
 70
  2103
  9
$ATTMODE
 70
     1
  9
$TEXTSIZE
 40
2.5
  9
$TRACEWID
 40
1.0
  9
$TEXTSTYLE
  7
STANDARD
  9
$CLAYER
  8
AM_0
  9
$CELTYPE
  6
BYLAYER
  9
$CECOLOR
 62
   256
  9
$CELTSCALE
 40
1.0
  9
$DELOBJ
 70
     1
  9
$DISPSILH
 70
     0
  9
$DIMSCALE
 40
1.0
  9
$DIMASZ
 40
2.5
  9
$DIMEXO
 40
1.0
  9
$DIMDLI
 40
12.0
  9
$DIMRND
 40
0.0
  9
$DIMDLE
 40
0.0
  9
$DIMEXE
 40
1.0
  9
$DIMTP
 40
0.1
  9
$DIMTM
 40
0.1
  9
$DIMTXT
 40
3.2
  9
$DIMCEN
 40
0.0
  9
$DIMTSZ
 40
0.0
  9
$DIMTOL
 70
     0
  9
$DIMLIM
 70
     0
  9
$DIMTIH
 70
     0
  9
$DIMTOH
 70
     0
  9
$DIMSE1
 70
     0
  9
$DIMSE2
 70
     0
  9
$DIMTAD
 70
     3
  9
$DIMZIN
 70
     8
  9
$DIMBLK
  1
OPEN30
  9
$DIMASO
 70
     1
  9
$DIMSHO
 70
     1
  9
$DIMPOST
  1

  9
$DIMAPOST
  1
"
  9
$DIMALT
 70
     0
  9
$DIMALTD
 70
     2
  9
$DIMALTF
 40
0.0393701
  9
$DIMLFAC
 40
1.0
  9
$DIMTOFL
 70
     1
  9
$DIMTVP
 40
0.0
  9
$DIMTIX
 70
     0
  9
$DIMSOXD
 70
     0
  9
$DIMSAH
 70
     0
  9
$DIMBLK1
  1

  9
$DIMBLK2
  1

  9
$DIMSTYLE
  2
AM_JIS
  9
$DIMCLRD
 70
   256
  9
$DIMCLRE
 70
   256
  9
$DIMCLRT
 70
     2
  9
$DIMTFAC
 40
0.71
  9
$DIMGAP
 40
1.5
  9
$DIMJUST
 70
     0
  9
$DIMSD1
 70
     0
  9
$DIMSD2
 70
     0
  9
$DIMTOLJ
 70
     0
  9
$DIMTZIN
 70
     0
  9
$DIMALTZ
 70
     0
  9
$DIMALTTZ
 70
     0
  9
$DIMFIT
 70
     3
  9
$DIMUPT
 70
     0
  9
$DIMUNIT
 70
     2
  9
$DIMDEC
 70
     3
  9
$DIMTDEC
 70
     3
  9
$DIMALTU
 70
     2
  9
$DIMALTTD
 70
     2
  9
$DIMTXSTY
  7
ASAMI
  9
$DIMAUNIT
 70
     0
  9
$LUNITS
 70
     2
  9
$LUPREC
 70
     2
  9
$SKETCHINC
 40
1.0
  9
$FILLETRAD
 40
2.5
  9
$AUNITS
 70
     0
  9
$AUPREC
 70
     0
  9
$MENU
  1
.
  9
$ELEVATION
 40
0.0
  9
$PELEVATION
 40
0.0
  9
$THICKNESS
 40
0.0
  9
$LIMCHECK
 70
     0
  9
$BLIPMODE
 70
     0
  9
$CHAMFERA
 40
0.5
  9
$CHAMFERB
 40
0.5
  9
$CHAMFERC
 40
20.0
  9
$CHAMFERD
 40
0.0
  9
$SKPOLY
 70
     0
  9
$TDCREATE
 40
2452808.461142939
  9
$TDUPDATE
 40
2452844.458055011
  9
$TDINDWG
 40
0.1782353241
  9
$TDUSRTIMER
 40
0.1782353241
  9
$USRTIMER
 70
     1
  9
$ANGBASE
 50
0.0
  9
$ANGDIR
 70
     0
  9
$PDMODE
 70
     0
  9
$PDSIZE
 40
0.0
  9
$PLINEWID
 40
0.0
  9
$COORDS
 70
     2
  9
$SPLFRAME
 70
     0
  9
$SPLINETYPE
 70
     6
  9
$SPLINESEGS
 70
     8
  9
$ATTDIA
 70
     1
  9
$ATTREQ
 70
     1
  9
$HANDLING
 70
 12289
  9
$HANDSEED
  5
2F5D
  9
$SURFTAB1
 70
     6
  9
$SURFTAB2
 70
     6
  9
$SURFTYPE
 70
     6
  9
$SURFU
 70
     6
  9
$SURFV
 70
     6
  9
$UCSNAME
  2

  9
$UCSORG
 10
0.0000000000166877
 20
-0.000000000000013
 30
0.0
  9
$UCSXDIR
 10
1.0
 20
0.0
 30
0.0
  9
$UCSYDIR
 10
0.0
 20
1.0
 30
0.0
  9
$PUCSNAME
  2

  9
$PUCSORG
 10
0.0
 20
0.0
 30
0.0
  9
$PUCSXDIR
 10
1.0
 20
0.0
 30
0.0
  9
$PUCSYDIR
 10
0.0
 20
1.0
 30
0.0
  9
$USERI1
 70
     0
  9
$USERI2
 70
     0
  9
$USERI3
 70
     0
  9
$USERI4
 70
     0
  9
$USERI5
 70
     0
  9
$USERR1
 40
0.0
  9
$USERR2
 40
0.0
  9
$USERR3
 40
0.0
  9
$USERR4
 40
0.0
  9
$USERR5
 40
0.0
  9
$WORLDVIEW
 70
     1
  9
$SHADEDGE
 70
     3
  9
$SHADEDIF
 70
    70
  9
$TILEMODE
 70
     1
  9
$MAXACTVP
 70
    64
  9
$PINSBASE
 10
0.0
 20
0.0
 30
0.0
  9
$PLIMCHECK
 70
     0
  9
$PEXTMIN
 10
1.000000000000000E+20
 20
1.000000000000000E+20
 30
1.000000000000000E+20
  9
$PEXTMAX
 10
-1.000000000000000E+20
 20
-1.000000000000000E+20
 30
-1.000000000000000E+20
  9
$PLIMMIN
 10
0.0
 20
0.0
  9
$PLIMMAX
 10
841.0
 20
594.0
  9
$UNITMODE
 70
     0
  9
$VISRETAIN
 70
     1
  9
$PLINEGEN
 70
     0
  9
$PSLTSCALE
 70
     0
  9
$TREEDEPTH
 70
  3020
  9
$PICKSTYLE
 70
     0
  9
$CMLSTYLE
  2
STANDARD
  9
$CMLJUST
 70
     0
  9
$CMLSCALE
 40
20.0
  9
$PROXYGRAPHICS
 70
     1
  9
$MEASUREMENT
 70
     1
  0
ENDSEC
  0
SECTION
  2
CLASSES
  0
CLASS
  1
ACDBDICTIONARYWDFLT
  2
AcDbDictionaryWithDefault
  3
AutoCAD 2000
 90
        0
280
     0
281
     0
  0
CLASS
  1
ACDBPLACEHOLDER
  2
AcDbPlaceHolder
  3
AutoCAD 2000
 90
        0
280
     0
281
     0
  0
CLASS
  1
LAYOUT
  2
AcDbLayout
  3
AutoCAD 2000
 90
        0
280
     0
281
     0
  0
CLASS
  1
AMGSETTINGSOBJ
  2
AmgSettingsObj
  3
"AcadM|Product Description: AutoCAD Mechanical 2000|Company: Autodesk"
 90
        0
280
     0
281
     0
  0
CLASS
  1
ACME_DOCUMENT
  2
AcMeDbDoc
  3
AcMeServices
 90
        0
280
     0
281
     0
  0
CLASS
  1
ACMESCOPE
  2
AcMeScope
  3
AcMeServices
 90
        0
280
     0
281
     0
  0
CLASS
  1
ACMECOMMANDHISTORY
  2
AcMeCommandHistory
  3
AcMeServices
 90
        0
280
     0
281
     0
  0
CLASS
  1
DICTIONARYVAR
  2
AcDbDictionaryVar
  3
AutoCAD 2000
 90
        0
280
     0
281
     0
  0
CLASS
  1
ACIMSYSVARMAN
  2
AcImSysVarManager
  3
AcMeServices
 90
        0
280
     0
281
     0
  0
CLASS
  1
ACIMREALSYSVAR
  2
AcImRealSysVar
  3
AcMeServices
 90
        0
280
     0
281
     0
  0
CLASS
  1
ACIMINTSYSVAR
  2
AcImIntSysVar
  3
AcMeServices
 90
        0
280
     0
281
     0
  0
CLASS
  1
ACMEDRAWINGMAN
  2
AcMeDrawingMan
  3
AcMeServices
 90
        0
280
     0
281
     0
  0
CLASS
  1
ACMEVIEW
  2
AcMeView
  3
AcMeServices
 90
        0
280
     0
281
     0
  0
CLASS
  1
ACDBENTITYCACHE
  2
AcMeEntityCache
  3
AcMeServices
 90
        0
280
     0
281
     0
  0
CLASS
  1
GSMANAGER
  2
AcMeGSManager
  3
AcMeServices
 90
        0
280
     0
281
     0
  0
CLASS
  1
AmdtInternalReactor
  2
AmdtInternalReactor
  3
AcMeServices
 90
        0
280
     0
281
     0
  0
CLASS
  1
ACMESTATEMGR
  2
AcMeStateMgr
  3
AcMeServices
 90
        0
280
     0
281
     0
  0
CLASS
  1
ACME_DATABASE
  2
AcMeDbDatabase
  3
AcMeServices
 90
        0
280
     0
281
     0
  0
CLASS
  1
ACRFINSADJUSTERMGR
  2
AcRfInsAdjusterMgr
  3
AcMeServices
 90
        0
280
     0
281
     0
  0
CLASS
  1
ACMDATADICTIONARY
  2
AcmDataDictionary
  3
"AcmSymBB|Product Description: AutoCAD Mechanical 2000|Company: Autodesk"
 90
        0
280
     0
281
     0
  0
CLASS
  1
ACMDATAENTRYBLOCK
  2
AcmDataEntryBlock
  3
"AcmSymBB|Product Description: AutoCAD Mechanical 2000|Company: Autodesk"
 90
        0
280
     0
281
     0
  0
CLASS
  1
AMGOBJPROPCFG
  2
AmgObjPropCfg
  3
"AmgLay|Product Description: AutoCAD Mechanical 2000|Company: Autodesk"
 90
        1
280
     0
281
     0
  0
CLASS
  1
ACAMGFILTERDAT
  2
AcAmgFilterDat
  3
"AcadM|Product Description: AutoCAD Mechanical 2000|Company: Autodesk"
 90
        0
280
     0
281
     0
  0
CLASS
  1
LAYER_INDEX
  2
AcDbLayerIndex
  3
AutoCAD 2000
 90
        0
280
     0
281
     0
  0
CLASS
  1
IDBUFFER
  2
AcDbIdBuffer
  3
AutoCAD 2000
 90
        0
280
     0
281
     0
  0
CLASS
  1
ACIMSTRSYSVAR
  2
AcImStrSysVar
  3
AcMeServices
 90
        0
280
     0
281
     0
  0
CLASS
  1
ACMSTANDARDJIS
  2
AcmStandardJIS
  3
"AcmSymBB|Product Description: AutoCAD Mechanical 2000|Company: Autodesk"
 90
        0
280
     0
281
     0
  0
CLASS
  1
ACMSURFSTANDARDJIS
  2
AcmSurfTextStdJIS
  3
"AcmSymBB|Product Description: AutoCAD Mechanical 2000|Company: Autodesk"
 90
        0
280
     0
281
     0
  0
CLASS
  1
ACMFCFSTANDARDJIS
  2
AcmFCFStdJIS
  3
"AcmSymBB|Product Description: AutoCAD Mechanical 2000|Company: Autodesk"
 90
        0
280
     0
281
     0
  0
CLASS
  1
ACMWELDSTANDARDJIS
  2
AcmWeldingStdJIS
  3
"AcmSymBB|Product Description: AutoCAD Mechanical 2000|Company: Autodesk"
 90
        0
280
     0
281
     0
  0
CLASS
  1
ACMIDSTANDARDJIS
  2
AcmIdStdJIS
  3
"AcmSymBB|Product Description: AutoCAD Mechanical 2000|Company: Autodesk"
 90
        0
280
     0
281
     0
  0
CLASS
  1
ACMDATUMSTANDARDJIS
  2
AcmDatumStdJIS
  3
"AcmSymBB|Product Description: AutoCAD Mechanical 2000|Company: Autodesk"
 90
        0
280
     0
281
     0
  0
CLASS
  1
ACMBOMSTANDARDJIS
  2
AcmBOMStdJIS
  3
"AcmSymBB|Product Description: AutoCAD Mechanical 2000|Company: Autodesk"
 90
        0
280
     0
281
     0
  0
CLASS
  1
ACMSTANDARDANSI
  2
AcmStandardANSI
  3
"AcmSymBB|Product Description: AutoCAD Mechanical 2000|Company: Autodesk"
 90
        0
280
     0
281
     0
  0
CLASS
  1
ACMSURFSTANDARDANSI
  2
AcmSurfTextStdANSI
  3
"AcmSymBB|Product Description: AutoCAD Mechanical 2000|Company: Autodesk"
 90
        0
280
     0
281
     0
  0
CLASS
  1
ACMFCFSTANDARDANSI
  2
AcmFCFStdANSI
  3
"AcmSymBB|Product Description: AutoCAD Mechanical 2000|Company: Autodesk"
 90
        0
280
     0
281
     0
  0
CLASS
  1
ACMWELDSTANDARDANSI
  2
AcmWeldingStdANSI
  3
"AcmSymBB|Product Description: AutoCAD Mechanical 2000|Company: Autodesk"
 90
        0
280
     0
281
     0
  0
CLASS
  1
ACMIDSTANDARDANSI
  2
AcmIdStdANSI
  3
"AcmSymBB|Product Description: AutoCAD Mechanical 2000|Company: Autodesk"
 90
        0
280
     0
281
     0
  0
CLASS
  1
ACMDATUMSTANDARDANSI
  2
AcmDatumStdANSI
  3
"AcmSymBB|Product Description: AutoCAD Mechanical 2000|Company: Autodesk"
 90
        0
280
     0
281
     0
  0
CLASS
  1
ACMBOMSTANDARDANSI
  2
AcmBOMStdANSI
  3
"AcmSymBB|Product Description: AutoCAD Mechanical 2000|Company: Autodesk"
 90
        0
280
     0
281
     0
  0
CLASS
  1
ACMSTANDARDBSI
  2
AcmStandardBSI
  3
"AcmSymBB|Product Description: AutoCAD Mechanical 2000|Company: Autodesk"
 90
        0
280
     0
281
     0
  0
CLASS
  1
ACMSURFSTANDARDBSI
  2
AcmSurfTextStdBSI
  3
"AcmSymBB|Product Description: AutoCAD Mechanical 2000|Company: Autodesk"
 90
        0
280
     0
281
     0
  0
CLASS
  1
ACMFCFSTANDARDBSI
  2
AcmFCFStdBSI
  3
"AcmSymBB|Product Description: AutoCAD Mechanical 2000|Company: Autodesk"
 90
        0
280
     0
281
     0
  0
CLASS
  1
ACMWELDSTANDARDBSI
  2
AcmWeldingStdBSI
  3
"AcmSymBB|Product Description: AutoCAD Mechanical 2000|Company: Autodesk"
 90
        0
280
     0
281
     0
  0
CLASS
  1
ACMIDSTANDARDBSI
  2
AcmIdStdBSI
  3
"AcmSymBB|Product Description: AutoCAD Mechanical 2000|Company: Autodesk"
 90
        0
280
     0
281
     0
  0
CLASS
  1
ACMDATUMSTANDARDBSI
  2
AcmDatumStdBSI
  3
"AcmSymBB|Product Description: AutoCAD Mechanical 2000|Company: Autodesk"
 90
        0
280
     0
281
     0
  0
CLASS
  1
ACMBOMSTANDARDBSI
  2
AcmBOMStdBSI
  3
"AcmSymBB|Product Description: AutoCAD Mechanical 2000|Company: Autodesk"
 90
        0
280
     0
281
     0
  0
CLASS
  1
LONG_TRANSACTION
  2
AcDbLongTransaction
  3
AutoCAD 2000
 90
        0
280
     0
281
     0
  0
CLASS
  1
LWPOLYLINE
  2
AcDbPolyline
  3
AutoCAD 2000
 90
        0
280
     0
281
     1
  0
CLASS
  1
HATCH
  2
AcDbHatch
  3
AutoCAD 2000
 90
        0
280
     0
281
     1
  0
CLASS
  1
XRECORD
  2
AcDbXrecord
  3
AutoCAD 2000
 90
        0
280
     0
281
     0
  0
ENDSEC
  0
SECTION
  2
TABLES
  0
TABLE
  2
VPORT
  5
8
330
0
100
AcDbSymbolTable
 70
     3
  0
VPORT
  5
2F32
330
8
100
AcDbSymbolTableRecord
100
AcDbViewportTableRecord
  2
*ACTIVE
 70
     0
 10
0.0
 20
0.0
 11
1.0
 21
1.0
 12
-30.26333787080758
 22
-10.85987912081149
 13
0.0
 23
0.0
 14
2.5
 24
2.5
 15
10.0
 25
10.0
 16
0.0
 26
0.0
 36
1.0
 17
0.0
 27
0.0
 37
0.0
 40
51.894352233209
 41
1.56570841889117
 42
50.0
 43
0.0
 44
0.0
 50
0.0
 51
0.0
 71
     0
 72
   100
 73
     1
 74
     3
 75
     0
 76
     0
 77
     0
 78
     0
  0
ENDTAB
  0
TABLE
  2
LTYPE
  5
5
330
0
100
AcDbSymbolTable
 70
    10
  0
LTYPE
  5
14
330
5
100
AcDbSymbolTableRecord
100
AcDbLinetypeTableRecord
  2
BYBLOCK
 70
     0
  3

 72
    65
 73
     0
 40
0.0
  0
LTYPE
  5
15
330
5
100
AcDbSymbolTableRecord
100
AcDbLinetypeTableRecord
  2
BYLAYER
 70
     0
  3

 72
    65
 73
     0
 40
0.0
  0
LTYPE
  5
16
330
5
100
AcDbSymbolTableRecord
100
AcDbLinetypeTableRecord
  2
CONTINUOUS
 70
     0
  3
Solid line
 72
    65
 73
     0
 40
0.0
  0
LTYPE
  5
4B
330
5
100
AcDbSymbolTableRecord
100
AcDbLinetypeTableRecord
  2
AM_ISO02W050
 70
     0
  3
__ __ __ __ __ __ __ __ __ __ __ __ __ __ __
 72
    65
 73
     2
 40
7.5
 49
6.0
 74
     0
 49
-1.5
 74
     0
  0
LTYPE
  5
4C
330
5
100
AcDbSymbolTableRecord
100
AcDbLinetypeTableRecord
  2
AM_ISO08W050
 70
     0
  3
____ . ____ . ____ . ____ . ____ . ____ . ____
 72
    65
 73
     4
 40
18.0
 49
12.0
 74
     0
 49
-1.5
 74
     0
 49
3.0
 74
     0
 49
-1.5
 74
     0
  0
LTYPE
  5
4D
330
5
100
AcDbSymbolTableRecord
100
AcDbLinetypeTableRecord
  2
AM_ISO09W050
 70
     0
  3
_____ . . _____ . . _____ . . ____ .. ____
 72
    65
 73
     6
 40
22.5
 49
12.0
 74
     0
 49
-1.5
 74
     0
 49
3.0
 74
     0
 49
-1.5
 74
     0
 49
3.0
 74
     0
 49
-1.5
 74
     0
  0
LTYPE
  5
4E
330
5
100
AcDbSymbolTableRecord
100
AcDbLinetypeTableRecord
  2
AMCONSTR
 70
     0
  3
_______________________
 72
    65
 73
     2
 40
9999.0
 49
9999.0
 74
     0
 49
0.0
 74
     0
  0
LTYPE
  5
4F
330
5
100
AcDbSymbolTableRecord
100
AcDbLinetypeTableRecord
  2
AM_ISO02W050X2
 70
     0
  3
 _ _ _ _ _ _ _ _ _ _ _ _
 72
    65
 73
     2
 40
3.75
 49
3.0
 74
     0
 49
-0.75
 74
     0
  0
LTYPE
  5
50
330
5
100
AcDbSymbolTableRecord
100
AcDbLinetypeTableRecord
  2
AM_ISO08W050X2
 70
     0
  3
__ . __ . __ . __ . __ . __
 72
    65
 73
     4
 40
9.0
 49
6.0
 74
     0
 49
-0.75
 74
     0
 49
1.5
 74
     0
 49
-0.75
 74
     0
  0
LTYPE
  5
53
330
5
100
AcDbSymbolTableRecord
100
AcDbLinetypeTableRecord
  2
AMZIGZAG
 70
     0
  3
/\/-/\/-/\/-/\/-/\/-/\/
 72
    65
 73
     2
 40
11.00009999999999
 49
0.0001
 74
     4
 75
   135
340
52
 46
0.04
 50
0.0
 44
0.0
 45
0.0
 49
-11.0
 74
     0
  0
LTYPE
  5
166
330
5
100
AcDbSymbolTableRecord
100
AcDbLinetypeTableRecord
  2
ACJISTGL
 70
     0
  3
_ _ _ _ _
 72
    65
 73
     2
 40
3.0
 49
2.0
 74
     0
 49
-1.0
 74
     0
  0
LTYPE
  5
26A
330
5
100
AcDbSymbolTableRecord
100
AcDbLinetypeTableRecord
  2
ACJISTGB
 70
     0
  3
__ . . __ . .
 72
    65
 73
     6
 40
9.0
 49
4.0
 74
     0
 49
-1.0
 74
     0
 49
1.0
 74
     0
 49
-1.0
 74
     0
 49
1.0
 74
     0
 49
-1.0
 74
     0
  0
ENDTAB
  0
TABLE
  2
LAYER
  5
2
330
0
100
AcDbSymbolTable
 70
     7
  0
LAYER
  5
10
330
2
100
AcDbSymbolTableRecord
100
AcDbLayerTableRecord
  2
0
 70
     0
 62
     7
  6
CONTINUOUS
  0
LAYER
  5
3F9
330
2
100
AcDbSymbolTableRecord
100
AcDbLayerTableRecord
  2
AM_0
 70
     0
 62
     7
  6
CONTINUOUS
  0
LAYER
  5
BA4
330
2
100
AcDbSymbolTableRecord
100
AcDbLayerTableRecord
  2
AM_11
 70
     0
 62
     3
  6
AM_ISO09W050
  0
LAYER
  5
BA6
330
2
100
AcDbSymbolTableRecord
100
AcDbLayerTableRecord
  2
AM_6
 70
     0
 62
     2
  6
CONTINUOUS
  0
LAYER
  5
BA7
330
2
100
AcDbSymbolTableRecord
100
AcDbLayerTableRecord
  2
AM_7
 70
     0
 62
     4
  6
AM_ISO08W050
  0
LAYER
  5
D0E
330
2
100
AcDbSymbolTableRecord
100
AcDbLayerTableRecord
  2
AM_5
 70
     0
 62
     3
  6
CONTINUOUS
  0
LAYER
  5
FE8
330
2
100
AcDbSymbolTableRecord
100
AcDbLayerTableRecord
  2
DEFPOINTS
 70
     0
 62
     7
  6
CONTINUOUS
  0
ENDTAB
  0
TABLE
  2
STYLE
  5
3
330
0
100
AcDbSymbolTable
 70
     5
  0
STYLE
  5
11
330
3
100
AcDbSymbolTableRecord
100
AcDbTextStyleTableRecord
  2
STANDARD
 70
     0
 40
0.0
 41
1.0
 50
0.0
 71
     0
 42
2.5
  3
simplex.shx
  4
EXTFONT.SHX
  0
STYLE
  5
52
330
3
100
AcDbSymbolTableRecord
100
AcDbTextStyleTableRecord
  2

 70
     1
 40
0.0
 41
1.0
 50
0.0
 71
     0
 42
2.5
  3
ltypeshp.shx
  4

  0
STYLE
  5
6B
330
3
100
AcDbSymbolTableRecord
100
AcDbTextStyleTableRecord
  2
ASAMI
 70
     0
 40
0.0
 41
1.0
 50
0.0
 71
     0
 42
2.5
  3
simplex.shx
  4
EXTFONT.SHX
  0
STYLE
  5
262
330
3
100
AcDbSymbolTableRecord
100
AcDbTextStyleTableRecord
  2
ACJISTS
 70
     0
 40
1.0
 41
1.0
 50
0.0
 71
     0
 42
2.5
  3
simplex.shx
  4
bigfont.shx
  0
STYLE
  5
269
330
3
100
AcDbSymbolTableRecord
100
AcDbTextStyleTableRecord
  2
ACJISGDT
 70
     0
 40
0.0
 41
1.0
 50
0.0
 71
     0
 42
2.5
  3
amgdtans.shx
  4

  0
ENDTAB
  0
TABLE
  2
VIEW
  5
6
330
0
100
AcDbSymbolTable
 70
     0
  0
ENDTAB
  0
TABLE
  2
UCS
  5
7
330
0
100
AcDbSymbolTable
 70
     0
  0
ENDTAB
  0
TABLE
  2
APPID
  5
9
330
0
100
AcDbSymbolTable
 70
    12
  0
APPID
  5
12
330
9
100
AcDbSymbolTableRecord
100
AcDbRegAppTableRecord
  2
ACAD
 70
     0
  0
APPID
  5
30
330
9
100
AcDbSymbolTableRecord
100
AcDbRegAppTableRecord
  2
MCAD_NO_VIS
 70
     0
  0
APPID
  5
31
330
9
100
AcDbSymbolTableRecord
100
AcDbRegAppTableRecord
  2
ACAD_TEMP_GRAPHIC
 70
     0
  0
APPID
  5
2C2
330
9
100
AcDbSymbolTableRecord
100
AcDbRegAppTableRecord
  2
GENIUS_GENDTOL_13
 70
     0
  0
APPID
  5
339
330
9
100
AcDbSymbolTableRecord
100
AcDbRegAppTableRecord
  2
GENIUS_GENODEF_13
 70
     0
  0
APPID
  5
33A
330
9
100
AcDbSymbolTableRecord
100
AcDbRegAppTableRecord
  2
GENIUS_GENOBJ-N-RSBK_13
 70
     0
  0
APPID
  5
33B
330
9
100
AcDbSymbolTableRecord
100
AcDbRegAppTableRecord
  2
GENIUS_GENOBJ-N-LIB_13
 70
     0
  0
APPID
  5
33C
330
9
100
AcDbSymbolTableRecord
100
AcDbRegAppTableRecord
  2
GENIUS_GENSCALE_13
 70
     0
  0
APPID
  5
378
330
9
100
AcDbSymbolTableRecord
100
AcDbRegAppTableRecord
  2
GENIUS_GENDIMSH_14
 70
     0
  0
APPID
  5
BA8
330
9
100
AcDbSymbolTableRecord
100
AcDbRegAppTableRecord
  2
GENIUS_GENOBJ-N-CEN_13
 70
     0
  0
APPID
  5
EE8
330
9
100
AcDbSymbolTableRecord
100
AcDbRegAppTableRecord
  2
GENIUS_GENFIL_13
 70
     0
  0
APPID
  5
EE9
330
9
100
AcDbSymbolTableRecord
100
AcDbRegAppTableRecord
  2
GENIUS_GENOBJ-N-CHA_13
 70
     0
  0
ENDTAB
  0
TABLE
  2
DIMSTYLE
  5
A
330
0
100
AcDbSymbolTable
 70
     8
  0
DIMSTYLE
105
58
102
{ACAD_REACTORS
330
2BB7
330
2CFA
330
2D34
330
2DC8
102
}
330
A
100
AcDbSymbolTableRecord
100
AcDbDimStyleTableRecord
  2
AM_JIS
 70
     0
  3

  4
"
  5
OPEN30
  6

  7

 40
0.5
 41
2.5
 42
1.0
 43
12.0
 44
1.0
 45
0.0
 46
0.0
 47
0.1
 48
0.1
140
3.2
141
0.0
142
0.0
143
0.0393701
144
1.0
145
0.0
146
0.71
147
1.5
 71
     0
 72
     0
 73
     0
 74
     0
 75
     0
 76
     0
 77
     3
 78
     8
170
     0
171
     2
172
     1
173
     0
174
     0
175
     0
176
   256
177
   256
178
     2
270
     2
271
     3
272
     3
273
     2
274
     2
340
6B
275
     0
280
     0
281
     0
282
     0
283
     0
284
     0
285
     0
286
     0
287
     3
288
     0
  0
DIMSTYLE
105
5F
330
A
100
AcDbSymbolTableRecord
100
AcDbDimStyleTableRecord
  2
AM_JIS$3
 70
     0
  3

  4
"
  5
OPEN30
  6

  7

 40
0.5
 41
2.5
 42
1.0
 43
10.0
 44
1.0
 45
0.0
 46
0.0
 47
0.1
 48
0.1
140
3.2
141
0.0
142
0.0
143
0.0393701
144
1.0
145
0.0
146
0.71
147
1.5
 71
     0
 72
     0
 73
     0
 74
     1
 75
     0
 76
     0
 77
     3
 78
     8
170
     0
171
     2
172
     0
173
     0
174
     0
175
     0
176
   256
177
   256
178
     2
270
     2
271
     2
272
     3
273
     2
274
     2
340
6B
275
     0
280
     0
281
     0
282
     0
283
     0
284
     0
285
     0
286
     0
287
     0
288
     1
  0
DIMSTYLE
105
60
330
A
100
AcDbSymbolTableRecord
100
AcDbDimStyleTableRecord
  2
AM_JIS$4
 70
     0
  3

  4
"
  5
OPEN30
  6

  7

 40
0.5
 41
2.5
 42
1.0
 43
10.0
 44
1.0
 45
0.0
 46
0.0
 47
0.1
 48
0.1
140
3.2
141
0.0
142
0.0
143
0.0393701
144
1.0
145
0.0
146
0.71
147
1.5
 71
     0
 72
     0
 73
     0
 74
     1
 75
     0
 76
     0
 77
     3
 78
     8
170
     0
171
     2
172
     0
173
     0
174
     0
175
     0
176
   256
177
   256
178
     2
270
     2
271
     2
272
     3
273
     2
274
     2
340
6B
275
     0
280
     0
281
     0
282
     0
283
     0
284
     0
285
     0
286
     0
287
     0
288
     1
  0
DIMSTYLE
105
61
330
A
100
AcDbSymbolTableRecord
100
AcDbDimStyleTableRecord
  2
AM_JIS$6
 70
     0
  3

  4
"
  5
OPEN30
  6

  7

 40
0.5
 41
2.5
 42
1.0
 43
10.0
 44
1.0
 45
0.0
 46
0.0
 47
0.1
 48
0.1
140
3.2
141
0.0
142
0.0
143
0.0393701
144
1.0
145
0.0
146
0.71
147
1.5
 71
     0
 72
     0
 73
     0
 74
     0
 75
     0
 76
     0
 77
     0
 78
     8
170
     0
171
     2
172
     1
173
     0
174
     0
175
     0
176
   256
177
   256
178
     2
270
     2
271
     2
272
     2
273
     2
274
     2
340
6B
275
     0
280
     0
281
     0
282
     0
283
     0
284
     0
285
     0
286
     0
287
     3
288
     0
  0
DIMSTYLE
105
62
330
A
100
AcDbSymbolTableRecord
100
AcDbDimStyleTableRecord
  2
AM_JIS$7
 70
     0
  3

  4
"
  5
OPEN30
  6

  7

 40
0.5
 41
2.5
 42
1.0
 43
10.0
 44
1.0
 45
0.0
 46
0.0
 47
0.1
 48
0.1
140
3.2
141
0.0
142
0.0
143
0.0393701
144
1.0
145
0.0
146
0.71
147
1.5
 71
     0
 72
     0
 73
     0
 74
     0
 75
     0
 76
     0
 77
     3
 78
     8
170
     0
171
     2
172
     1
173
     0
174
     0
175
     0
176
   256
177
   256
178
     2
270
     2
271
     2
272
     3
273
     2
274
     2
340
6B
275
     0
280
     0
281
     0
282
     0
283
     0
284
     0
285
     0
286
     0
287
     3
288
     0
  0
DIMSTYLE
105
63
330
A
100
AcDbSymbolTableRecord
100
AcDbDimStyleTableRecord
  2
AM_JIS$SF
 70
     0
  3

  4
"
  5
OPEN30
  6

  7

 40
0.5
 41
2.5
 42
1.0
 43
10.0
 44
1.0
 45
0.0
 46
0.0
 47
0.1
 48
0.1
140
3.2
141
0.0
142
0.0
143
0.0393701
144
1.0
145
0.0
146
0.71
147
1.5
 71
     0
 72
     0
 73
     0
 74
     0
 75
     1
 76
     1
 77
     3
 78
     8
170
     0
171
     2
172
     1
173
     0
174
     0
175
     0
176
   256
177
   256
178
     2
270
     2
271
     2
272
     2
273
     2
274
     2
340
6B
275
     0
280
     0
281
     0
282
     0
283
     0
284
     0
285
     0
286
     0
287
     3
288
     0
  0
DIMSTYLE
105
68
330
A
100
AcDbSymbolTableRecord
100
AcDbDimStyleTableRecord
  2
AM_JIS$SH
 70
     0
  3

  4
"
  5

  6
GENAXEH
  7
OPEN30
 40
0.5
 41
2.5
 42
1.0
 43
10.0
 44
1.0
 45
0.0
 46
0.0
 47
0.1
 48
0.1
140
3.2
141
0.0
142
0.0
143
0.0393701
144
2.0
145
0.0
146
0.71
147
1.5
 71
     0
 72
     0
 73
     0
 74
     0
 75
     1
 76
     1
 77
     3
 78
     8
170
     0
171
     2
172
     1
173
     1
174
     0
175
     0
176
   256
177
   256
178
     2
270
     2
271
     2
272
     2
273
     2
274
     2
340
6B
275
     0
280
     0
281
     0
282
     0
283
     0
284
     0
285
     0
286
     0
287
     3
288
     0
  0
DIMSTYLE
105
B34
330
A
100
AcDbSymbolTableRecord
100
AcDbDimStyleTableRecord
  2
AM_JIS$2
 70
     0
  3

  4
"
  5
OPEN30
  6

  7

 40
0.5
 41
2.5
 42
1.0
 43
12.0
 44
1.0
 45
0.0
 46
0.0
 47
0.1
 48
0.1
140
3.2
141
0.0
142
0.0
143
0.0393701
144
1.0
145
0.0
146
0.71
147
1.5
 71
     0
 72
     0
 73
     0
 74
     0
 75
     0
 76
     0
 77
     3
 78
     8
170
     0
171
     2
172
     1
173
     0
174
     0
175
     0
176
   256
177
   256
178
     2
270
     2
271
     3
272
     3
273
     2
274
     2
340
6B
275
     0
280
     0
281
     0
282
     0
283
     0
284
     0
285
     0
286
     0
287
     3
288
     0
  0
ENDTAB
  0
TABLE
  2
BLOCK_RECORD
  5
1
330
0
100
AcDbSymbolTable
 70
     9
  0
BLOCK_RECORD
  5
1F
102
{ACAD_XDICTIONARY
360
74
102
}
330
1
100
AcDbSymbolTableRecord
100
AcDbBlockTableRecord
  2
*MODEL_SPACE
  0
BLOCK_RECORD
  5
101
102
{ACAD_XDICTIONARY
360
2F5B
102
}
330
1
100
AcDbSymbolTableRecord
100
AcDbBlockTableRecord
  2
*PAPER_SPACE
  0
BLOCK_RECORD
  5
59
330
1
100
AcDbSymbolTableRecord
100
AcDbBlockTableRecord
  2
_OPEN30
  0
BLOCK_RECORD
  5
64
330
1
100
AcDbSymbolTableRecord
100
AcDbBlockTableRecord
  2
GENAXEH
  0
BLOCK_RECORD
  5
2C17
330
1
100
AcDbSymbolTableRecord
100
AcDbBlockTableRecord
  2
*D5
  0
BLOCK_RECORD
  5
2CFB
330
1
100
AcDbSymbolTableRecord
100
AcDbBlockTableRecord
  2
*D6
  0
BLOCK_RECORD
  5
2D35
330
1
100
AcDbSymbolTableRecord
100
AcDbBlockTableRecord
  2
*D7
  0
BLOCK_RECORD
  5
2DC9
330
1
100
AcDbSymbolTableRecord
100
AcDbBlockTableRecord
  2
*D8
  0
ENDTAB
  0
ENDSEC
  0
SECTION
  2
BLOCKS
  0
BLOCK
  5
20
330
1F
100
AcDbEntity
  8
0
100
AcDbBlockBegin
  2
*MODEL_SPACE
 70
     0
 10
0.0
 20
0.0
 30
0.0
  3
*MODEL_SPACE
  1

  0
ENDBLK
  5
21
330
1F
100
AcDbEntity
  8
0
100
AcDbBlockEnd
  0
BLOCK
  5
103
330
101
100
AcDbEntity
 67
     1
  8
0
100
AcDbBlockBegin
  2
*PAPER_SPACE
 70
     0
 10
0.0
 20
0.0
 30
0.0
  3
*PAPER_SPACE
  1

  0
ENDBLK
  5
104
330
101
100
AcDbEntity
 67
     1
  8
0
100
AcDbBlockEnd
  0
BLOCK
  5
5D
330
59
100
AcDbEntity
  8
0
100
AcDbBlockBegin
  2
_OPEN30
 70
     0
 10
0.0
 20
0.0
 30
0.0
  3
_OPEN30
  1

  0
LINE
  5
5A
330
59
100
AcDbEntity
  8
0
 62
     0
100
AcDbLine
 10
-1.0
 20
0.26794919
 30
0.0
 11
0.0
 21
0.0
 31
0.0
  0
LINE
  5
5B
330
59
100
AcDbEntity
  8
0
 62
     0
100
AcDbLine
 10
0.0
 20
0.0
 30
0.0
 11
-1.0
 21
-0.26794919
 31
0.0
  0
LINE
  5
5C
330
59
100
AcDbEntity
  8
0
 62
     0
100
AcDbLine
 10
0.0
 20
0.0
 30
0.0
 11
-1.0
 21
0.0
 31
0.0
  0
ENDBLK
  5
5E
330
59
100
AcDbEntity
  8
0
100
AcDbBlockEnd
  0
BLOCK
  5
66
330
64
100
AcDbEntity
  8
0
100
AcDbBlockBegin
  2
GENAXEH
 70
     0
 10
0.0
 20
0.0
 30
0.0
  3
GENAXEH
  1

  0
LINE
  5
65
330
64
100
AcDbEntity
  8
0
100
AcDbLine
 10
-1.0
 20
0.0
 30
0.0
 11
1.0
 21
0.0
 31
0.0
  0
ENDBLK
  5
67
330
64
100
AcDbEntity
  8
0
100
AcDbBlockEnd
  0
BLOCK
  5
2C21
330
2C17
100
AcDbEntity
  8
0
100
AcDbBlockBegin
  2
*D5
 70
     1
 10
0.0
 20
0.0
 30
0.0
  3
*D5
  1

  0
LINE
  5
2EE7
330
2C17
100
AcDbEntity
  8
AM_5
100
AcDbLine
 10
0.0000000000110841
 20
-3.419298245614044
 30
0.0
 11
0.0000000000110833
 21
-16.48730472029743
 31
0.0
  0
LINE
  5
2EE8
330
2C17
100
AcDbEntity
  8
AM_5
100
AcDbLine
 10
-59.99999999998891
 20
-2.971443030994745
 30
0.0
 11
-59.99999999998891
 21
-16.48730472029743
 31
0.0
  0
LINE
  5
2EE9
330
2C17
100
AcDbEntity
  8
AM_5
100
AcDbLine
 10
-1.249999999988916
 20
-15.98730472029743
 30
0.0
 11
-58.74999999998891
 21
-15.98730472029743
 31
0.0
  0
INSERT
  5
2EEA
330
2C17
100
AcDbEntity
  8
AM_5
100
AcDbBlockReference
  2
_OPEN30
 10
0.0000000000110833
 20
-15.98730472029743
 30
0.0
 41
1.25
 42
1.25
 43
1.25
  0
INSERT
  5
2EEB
330
2C17
100
AcDbEntity
  8
AM_5
100
AcDbBlockReference
  2
_OPEN30
 10
-59.99999999998891
 20
-15.98730472029743
 30
0.0
 41
1.25
 42
1.25
 43
1.25
 50
180.0
  0
MTEXT
  5
2EEC
330
2C17
100
AcDbEntity
  8
AM_5
 62
     2
100
AcDbMText
 10
-29.99999999998891
 20
-14.43730472029743
 30
0.0
 40
1.6
 41
0.0
 71
     5
 72
     1
  1
60
  7
ASAMI
1001
ACAD
1000
MTEXTBEGIN
1070
    73
1070
     1
1070
    44
1040
1.0
1070
    74
1070
     0
1000
MTEXTEND
  0
POINT
  5
2EED
330
2C17
100
AcDbEntity
  8
DEFPOINTS
 62
     0
100
AcDbPoint
 10
0.0000000000110841
 20
-2.919298245614044
 30
0.0
  0
POINT
  5
2EEE
330
2C17
100
AcDbEntity
  8
DEFPOINTS
 62
     0
100
AcDbPoint
 10
-59.99999999998891
 20
-2.471443030994745
 30
0.0
  0
POINT
  5
2EEF
330
2C17
100
AcDbEntity
  8
DEFPOINTS
 62
     0
100
AcDbPoint
 10
-59.99999999998891
 20
-15.98730472029743
 30
0.0
  0
ENDBLK
  5
2C22
330
2C17
100
AcDbEntity
  8
0
100
AcDbBlockEnd
  0
BLOCK
  5
2D07
330
2CFB
100
AcDbEntity
  8
0
100
AcDbBlockBegin
  2
*D6
 70
     1
 10
0.0
 20
0.0
 30
0.0
  3
*D6
  1

  0
LINE
  5
2F0C
330
2CFB
100
AcDbEntity
  8
AM_5
100
AcDbLine
 10
0.5000000000133764
 20
-2.987303721137351
 30
0.0
 11
10.1940799473851
 21
-2.987303721137354
 31
0.0
  0
LINE
  5
2F0D
330
2CFB
100
AcDbEntity
  8
AM_5
100
AcDbLine
 10
0.5000000000166873
 20
3.012696279702669
 30
0.0
 11
10.1940799473851
 21
3.012696279702667
 31
0.0
  0
LINE
  5
2F0E
330
2CFB
100
AcDbEntity
  8
AM_5
100
AcDbLine
 10
9.694079947385104
 20
-4.237303721137353
 30
0.0
 11
9.694079947385104
 21
-5.487303721137353
 31
0.0
  0
LINE
  5
2F0F
330
2CFB
100
AcDbEntity
  8
AM_5
100
AcDbLine
 10
9.694079947385107
 20
4.262696279702668
 30
0.0
 11
9.694079947385107
 21
5.512696279702668
 31
0.0
  0
LINE
  5
2F10
330
2CFB
100
AcDbEntity
  8
AM_5
100
AcDbLine
 10
9.694079947385105
 20
-2.987303721137354
 30
0.0
 11
9.694079947385105
 21
3.012696279702667
 31
0.0
  0
INSERT
  5
2F11
330
2CFB
100
AcDbEntity
  8
AM_5
100
AcDbBlockReference
  2
_OPEN30
 10
9.694079947385105
 20
-2.987303721137354
 30
0.0
 41
1.25
 42
1.25
 43
1.25
 50
90.0
  0
INSERT
  5
2F12
330
2CFB
100
AcDbEntity
  8
AM_5
100
AcDbBlockReference
  2
_OPEN30
 10
9.694079947385105
 20
3.012696279702667
 30
0.0
 41
1.25
 42
1.25
 43
1.25
 50
270.0
  0
MTEXT
  5
2F13
330
2CFB
100
AcDbEntity
  8
AM_5
 62
     2
100
AcDbMText
 10
8.144079947385105
 20
0.0126962792826559
 30
0.0
 40
1.6
 41
0.0
 71
     5
 72
     1
  1
%%c6
  7
ASAMI
 11
0.0000000000000001
 21
1.0
 31
0.0
1001
ACAD
1000
MTEXTBEGIN
1070
    73
1070
     1
1070
    44
1040
1.0
1070
    74
1070
     0
1000
MTEXTEND
  0
POINT
  5
2F14
330
2CFB
100
AcDbEntity
  8
DEFPOINTS
 62
     0
100
AcDbPoint
 10
0.0000000000133764
 20
-2.987303721137351
 30
0.0
  0
POINT
  5
2F15
330
2CFB
100
AcDbEntity
  8
DEFPOINTS
 62
     0
100
AcDbPoint
 10
0.0000000000166873
 20
3.012696279702669
 30
0.0
  0
POINT
  5
2F16
330
2CFB
100
AcDbEntity
  8
DEFPOINTS
 62
     0
100
AcDbPoint
 10
9.694079947385105
 20
3.012696279702667
 30
0.0
  0
ENDBLK
  5
2D08
330
2CFB
100
AcDbEntity
  8
0
100
AcDbBlockEnd
  0
BLOCK
  5
2D3F
330
2D35
100
AcDbEntity
  8
0
100
AcDbBlockBegin
  2
*D7
 70
     1
 10
0.0
 20
0.0
 30
0.0
  3
*D7
  1

  0
LINE
  5
2EF9
330
2D35
100
AcDbEntity
  8
AM_5
100
AcDbLine
 10
0.0000000000133765
 20
-3.487303720297297
 30
0.0
 11
0.000000000013376
 21
-10.48730472029737
 31
0.0
  0
LINE
  5
2EFA
330
2D35
100
AcDbEntity
  8
AM_5
100
AcDbLine
 10
-13.00000182896813
 20
-3.487303720297297
 30
0.0
 11
-13.00000182896813
 21
-10.48730472029737
 31
0.0
  0
LINE
  5
2EFB
330
2D35
100
AcDbEntity
  8
AM_5
100
AcDbLine
 10
-1.249999999986624
 20
-9.987304720297379
 30
0.0
 11
-11.75000182896813
 21
-9.987304720297379
 31
0.0
  0
INSERT
  5
2EFC
330
2D35
100
AcDbEntity
  8
AM_5
100
AcDbBlockReference
  2
_OPEN30
 10
0.0000000000133761
 20
-9.987304720297379
 30
0.0
 41
1.25
 42
1.25
 43
1.25
  0
INSERT
  5
2EFD
330
2D35
100
AcDbEntity
  8
AM_5
100
AcDbBlockReference
  2
_OPEN30
 10
-13.00000182896813
 20
-9.987304720297379
 30
0.0
 41
1.25
 42
1.25
 43
1.25
 50
180.0
  0
MTEXT
  5
2EFE
330
2D35
100
AcDbEntity
  8
AM_5
 62
     2
100
AcDbMText
 10
-6.50000091447738
 20
-8.437304720297378
 30
0.0
 40
1.6
 41
0.0
 71
     5
 72
     1
  1
13
  7
ASAMI
1001
ACAD
1000
MTEXTBEGIN
1070
    73
1070
     1
1070
    44
1040
1.0
1070
    74
1070
     0
1000
MTEXTEND
  0
POINT
  5
2EFF
330
2D35
100
AcDbEntity
  8
DEFPOINTS
 62
     0
100
AcDbPoint
 10
0.0000000000133765
 20
-2.987303720297297
 30
0.0
  0
POINT
  5
2F00
330
2D35
100
AcDbEntity
  8
DEFPOINTS
 62
     0
100
AcDbPoint
 10
-13.00000182896813
 20
-2.987303720297297
 30
0.0
  0
POINT
  5
2F01
330
2D35
100
AcDbEntity
  8
DEFPOINTS
 62
     0
100
AcDbPoint
 10
-13.00000182896813
 20
-9.987304720297379
 30
0.0
  0
ENDBLK
  5
2D40
330
2D35
100
AcDbEntity
  8
0
100
AcDbBlockEnd
  0
BLOCK
  5
2DD5
330
2DC9
100
AcDbEntity
  8
0
100
AcDbBlockBegin
  2
*D8
 70
     1
 10
0.0
 20
0.0
 30
0.0
  3
*D8
  1

  0
LINE
  5
2EF0
330
2DC9
100
AcDbEntity
  8
AM_5
100
AcDbLine
 10
-60.15624999998891
 20
-2.987303720297281
 30
0.0
 11
-68.87742599652302
 21
-2.987303720297278
 31
0.0
  0
LINE
  5
2EF1
330
2DC9
100
AcDbEntity
  8
AM_5
100
AcDbLine
 10
-60.15624999998891
 20
3.012696279702693
 30
0.0
 11
-68.87742599652302
 21
3.012696279702695
 31
0.0
  0
LINE
  5
2EF2
330
2DC9
100
AcDbEntity
  8
AM_5
100
AcDbLine
 10
-68.37742599652301
 20
-1.737303720297278
 30
0.0
 11
-68.37742599652301
 21
1.762696279702695
 31
0.0
  0
INSERT
  5
2EF3
330
2DC9
100
AcDbEntity
  8
AM_5
100
AcDbBlockReference
  2
_OPEN30
 10
-68.37742599652301
 20
-2.987303720297278
 30
0.0
 41
1.25
 42
1.25
 43
1.25
 50
270.0
  0
INSERT
  5
2EF4
330
2DC9
100
AcDbEntity
  8
AM_5
100
AcDbBlockReference
  2
_OPEN30
 10
-68.37742599652301
 20
3.012696279702695
 30
0.0
 41
1.25
 42
1.25
 43
1.25
 50
90.0
  0
MTEXT
  5
2EF5
330
2DC9
100
AcDbEntity
  8
AM_5
 62
     2
100
AcDbMText
 10
-69.92742599652301
 20
0.0126962797026974
 30
0.0
 40
1.6
 41
0.0
 71
     5
 72
     1
  1
%%c6
  7
ASAMI
 11
0.0000000000000001
 21
1.0
 31
0.0
1001
ACAD
1000
MTEXTBEGIN
1070
    73
1070
     1
1070
    44
1040
1.0
1070
    74
1070
     0
1000
MTEXTEND
  0
POINT
  5
2EF6
330
2DC9
100
AcDbEntity
  8
DEFPOINTS
 62
     0
100
AcDbPoint
 10
-59.65624999998891
 20
-2.987303720297281
 30
0.0
  0
POINT
  5
2EF7
330
2DC9
100
AcDbEntity
  8
DEFPOINTS
 62
     0
100
AcDbPoint
 10
-59.65624999998891
 20
3.012696279702693
 30
0.0
  0
POINT
  5
2EF8
330
2DC9
100
AcDbEntity
  8
DEFPOINTS
 62
     0
100
AcDbPoint
 10
-68.37742599652301
 20
3.012696279702695
 30
0.0
  0
ENDBLK
  5
2DD6
330
2DC9
100
AcDbEntity
  8
0
100
AcDbBlockEnd
  0
ENDSEC
  0
SECTION
  2
ENTITIES
  0
TEXT
  5
F07
330
1F
100
AcDbEntity
  8
AM_6
100
AcDbText
 10
-41.72619047617939
 20
-27.23730472029743
 30
0.0
 40
2.5
  1
SSUP3060ZX
 72
     4
 11
-29.99999999998891
 21
-25.98730472029743
 31
0.0
100
AcDbText
  0
DIMENSION
  5
2BB7
330
1F
100
AcDbEntity
  8
AM_5
100
AcDbDimension
  2
*D5
 10
-59.99999999998891
 20
-15.98730472029743
 30
0.0
 11
-29.99999999998891
 21
-14.43730472029743
 31
0.0
 70
    32
  1
<>
  3
AM_JIS
100
AcDbAlignedDimension
 13
0.0000000000110841
 23
-2.919298245614044
 33
0.0
 14
-59.99999999998891
 24
-2.471443030994745
 34
0.0
 50
0.0000000000000712
100
AcDbRotatedDimension
1001
GENIUS_GENDTOL_13
1000

1000
h7
1000

1040
0.0
  0
LINE
  5
2BBD
330
1F
100
AcDbEntity
  8
AM_0
100
AcDbLine
 10
-59.99999999998891
 20
2.762696279702692
 30
0.0
 11
-59.99999999998891
 21
-2.737303720297281
 31
0.0
  0
LINE
  5
2BBE
330
1F
100
AcDbEntity
  8
AM_0
100
AcDbLine
 10
-59.65624999998891
 20
3.012696279702693
 30
0.0
 11
-59.65624999998891
 21
-2.987303720297281
 31
0.0
  0
LINE
  5
2BBF
330
1F
100
AcDbEntity
  8
AM_0
100
AcDbLine
 10
-59.65624999998891
 20
-2.987303720297281
 30
0.0
 11
-59.99999999998891
 21
-2.737303720297281
 31
0.0
1001
GENIUS_GENFIL_13
1070
     0
1040
0.5
1040
0.5
1040
20.0
1040
0.0
1002
{
1002
}
1001
GENIUS_GENODEF_13
1002
{
1000
HIER
1070
     0
1002
}
1002
{
1000
MANEDIT
1070
     0
1002
}
1002
{
1000
NOSEL
1070
     0
1002
}
1002
{
1000
BEHIND
1070
     0
1002
}
1002
{
1000
REACTOR
1002
}
1001
GENIUS_GENOBJ-N-CHA_13
1002
{
1000
OWNER
1000
GEN
1002
}
  0
LINE
  5
2BC0
330
1F
100
AcDbEntity
  8
AM_0
100
AcDbLine
 10
-59.65624999998891
 20
3.012696279702693
 30
0.0
 11
-59.65624999998891
 21
3.012696279702693
 31
0.0
  0
LINE
  5
2BC1
330
1F
100
AcDbEntity
  8
AM_0
100
AcDbLine
 10
-59.65624999998891
 20
3.012696279702693
 30
0.0
 11
-59.99999999998891
 21
2.762696279702692
 31
0.0
1001
GENIUS_GENFIL_13
1070
     0
1040
0.5
1040
0.5
1040
20.0
1040
0.0
1002
{
1002
}
1001
GENIUS_GENODEF_13
1002
{
1000
HIER
1070
     0
1002
}
1002
{
1000
MANEDIT
1070
     0
1002
}
1002
{
1000
NOSEL
1070
     0
1002
}
1002
{
1000
BEHIND
1070
     0
1002
}
1002
{
1000
REACTOR
1002
}
1001
GENIUS_GENOBJ-N-CHA_13
1002
{
1000
OWNER
1000
GEN
1002
}
  0
LINE
  5
2CD6
330
1F
100
AcDbEntity
  8
AM_0
100
AcDbLine
 10
-1.80308625740697
 20
1.682547599128458
 30
0.0
 11
-1.468620879176268
 21
1.222688708126482
 31
0.0
  0
LINE
  5
2CD7
330
1F
100
AcDbEntity
  8
AM_0
100
AcDbLine
 10
0.0000000000133767
 20
-0.0507851188154129
 30
0.0
 11
-0.0638420382634607
 21
-0.1385620034562018
 31
0.0
  0
LINE
  5
2CD8
330
1F
100
AcDbEntity
  8
AM_0
100
AcDbLine
 10
-0.0780109488915624
 20
-0.0482980057558345
 30
0.0
 11
0.0000000000133767
 21
-0.5452720002563247
 31
0.0
  0
LINE
  5
2CD9
330
1F
100
AcDbEntity
  8
AM_0
100
AcDbLine
 10
0.0000000000133767
 20
-1.51893247403205
 30
0.0
 11
-0.5806508880449145
 21
-2.173071852387199
 31
0.0
  0
LINE
  5
2CDA
330
1F
100
AcDbEntity
  8
AM_0
100
AcDbLine
 10
0.0000000000133767
 20
-1.51893247403205
 30
0.0
 11
-0.0780109488915624
 21
-0.9017522611172418
 31
0.0
  0
LINE
  5
2CDB
330
1F
100
AcDbEntity
  8
AM_0
100
AcDbLine
 10
-0.1560218977967366
 20
-1.397903588693777
 30
0.0
 11
0.0000000000133767
 21
-1.51893247403205
 31
0.0
  0
LINE
  5
2CDC
330
1F
100
AcDbEntity
  8
AM_0
100
AcDbLine
 10
0.0000000000133767
 20
-1.51893247403205
 30
0.0
 11
-0.0780109488915624
 21
-1.88162107784993
 31
0.0
  0
LINE
  5
2CDD
330
1F
100
AcDbEntity
  8
AM_0
100
AcDbLine
 10
0.0000000000133767
 20
-0.5452720002563247
 30
0.0
 11
0.0000000000133767
 21
-1.51893247403205
 31
0.0
  0
LINE
  5
2CDE
330
1F
100
AcDbEntity
  8
AM_0
100
AcDbLine
 10
-0.0780109488915624
 20
-0.9017522611172418
 30
0.0
 11
-0.0780109488915624
 21
-0.0482980057558345
 31
0.0
  0
LINE
  5
2CDF
330
1F
100
AcDbEntity
  8
AM_0
100
AcDbLine
 10
-0.2467575369216294
 20
-1.279509486943568
 30
0.0
 11
-1.387027863246432
 21
-1.109826451622559
 31
0.0
  0
LINE
  5
2CE0
330
1F
100
AcDbEntity
  8
AM_0
100
AcDbLine
 10
-0.0780109488915624
 20
-0.0482980057558345
 30
0.0
 11
-0.3900547445122611
 21
1.313658572200832
 31
0.0
  0
LINE
  5
2CE1
330
1F
100
AcDbEntity
  8
AM_0
100
AcDbLine
 10
0.0000000000133767
 20
-0.0507851188154129
 30
0.0
 11
0.0000000000133767
 21
3.012696279702693
 31
0.0
  0
LINE
  5
2CE2
330
1F
100
AcDbEntity
  8
AM_11
100
AcDbLine
 10
0.000000000016688
 20
-2.987303720297297
 30
0.0
 11
0.0000000000166874
 21
3.012696279702693
 31
0.0
  0
LINE
  5
2CE3
330
1F
100
AcDbEntity
  8
AM_0
100
AcDbLine
 10
-0.0780109488915624
 20
-1.88162107784993
 30
0.0
 11
-0.3900547445122611
 21
-2.507681444073847
 31
0.0
  0
LINE
  5
2CE4
330
1F
100
AcDbEntity
  8
AM_11
100
AcDbLine
 10
0.0000000000166874
 20
-2.987303720297297
 30
0.0
 11
0.0000000000133767
 21
-1.51893247403205
 31
0.0
  0
LINE
  5
2CE5
330
1F
100
AcDbEntity
  8
AM_0
100
AcDbLine
 10
-11.44160583940509
 20
1.639918054587531
 30
0.0
 11
-11.44160583940341
 21
2.109078284143943
 31
0.0
  0
LINE
  5
2CE6
330
1F
100
AcDbEntity
  8
AM_0
100
AcDbLine
 10
-12.93683574996149
 20
3.012696279702693
 30
0.0
 11
-59.65624999998891
 21
3.012696279702693
 31
0.0
  0
POLYLINE
  5
2CE7
330
1F
100
AcDbEntity
  8
AM_0
100
AcDb2dPolyline
 66
     1
 10
0.0
 20
0.0
 30
0.0
 70
     2
  0
VERTEX
  5
2CE8
330
2CE7
100
AcDbEntity
  8
AM_0
100
AcDbVertex
100
AcDb2dVertex
 10
-11.44160583940202
 20
1.639918054586032
 30
0.0
 42
0.0163510200184555
  0
VERTEX
  5
2CE9
330
2CE7
100
AcDbEntity
  8
AM_0
100
AcDbVertex
100
AcDb2dVertex
 10
-12.05715457170826
 20
1.910297943012115
 30
0.0
 42
0.0236329905934865
 70
     1
  0
VERTEX
  5
2CEA
330
2CE7
100
AcDbEntity
  8
AM_0
100
AcDbVertex
100
AcDb2dVertex
 10
-12.49475364962261
 20
2.057568308893958
 30
0.0
 42
0.0136924015569504
  0
VERTEX
  5
2CEB
330
2CE7
100
AcDbEntity
  8
AM_0
100
AcDbVertex
100
AcDb2dVertex
 10
-13.55927220108062
 20
2.318298038523711
 30
0.0
 42
0.0437471596433213
 70
     1
  0
VERTEX
  5
2CEC
330
2CE7
100
AcDbEntity
  8
AM_0
100
AcDbVertex
100
AcDb2dVertex
 10
-13.89895072991354
 20
2.355391101006069
 30
0.0
 42
0.0737828887826182
  0
VERTEX
  5
2CED
330
2CE7
100
AcDbEntity
  8
AM_0
100
AcDbVertex
100
AcDb2dVertex
 10
-14.19859538762038
 20
2.30654640881628
 30
0.0
 42
0.3022986902902931
 70
     1
  0
VERTEX
  5
2CEE
330
2CE7
100
AcDbEntity
  8
AM_0
100
AcDbVertex
100
AcDb2dVertex
 10
-14.24999999998662
 20
2.235563638811329
 30
0.0
 42
0.1640404297379002
  0
VERTEX
  5
2CEF
330
2CE7
100
AcDbEntity
  8
AM_0
100
AcDbVertex
100
AcDb2dVertex
 10
-14.22508259825687
 20
2.104746198792105
 30
0.0
 42
0.0324399100382136
 70
     1
  0
VERTEX
  5
2CF0
330
2CE7
100
AcDbEntity
  8
AM_0
100
AcDbVertex
100
AcDb2dVertex
 10
-13.89895072991354
 20
1.562204955818397
 30
0.0
 42
0.0076492520245086
  0
VERTEX
  5
2CF1
330
2CE7
100
AcDbEntity
  8
AM_0
100
AcDbVertex
100
AcDb2dVertex
 10
-13.47759934154797
 20
0.9690159232914158
 30
0.0
 42
0.0033664759505265
 70
     1
  0
VERTEX
  5
2CF2
330
2CE7
100
AcDbEntity
  8
AM_0
100
AcDbVertex
100
AcDb2dVertex
 10
-12.49475364962124
 20
-0.3540971352620097
 30
0.0
 42
0.0145714002245221
  0
VERTEX
  5
2CF3
330
2CE7
100
AcDbEntity
  8
AM_0
100
AcDbVertex
100
AcDb2dVertex
 10
-12.15420844638219
 20
-0.7805807634962472
 30
0.0
 42
0.007325916991168
 70
     1
  0
VERTEX
  5
2CF4
330
2CE7
100
AcDbEntity
  8
AM_0
100
AcDbVertex
100
AcDb2dVertex
 10
-11.44542938246467
 20
-1.593712682998225
 30
0.0
  0
SEQEND
  5
2CF5
330
2CE7
100
AcDbEntity
  8
AM_0
  0
LINE
  5
2CF6
330
1F
100
AcDbEntity
  8
AM_0
100
AcDbLine
 10
-11.4244434311633
 20
-2.987303720297297
 30
0.0
 11
-59.65624999998891
 21
-2.987303720297281
 31
0.0
  0
LINE
  5
2CF7
330
1F
100
AcDbEntity
  8
AM_11
100
AcDbLine
 10
-13.00000182896813
 20
-2.987303720297297
 30
0.0
 11
-13.00000182896813
 21
3.012696279702693
 31
0.0
  0
LINE
  5
2CF8
330
1F
100
AcDbEntity
  8
AM_11
100
AcDbLine
 10
0.0000000000166874
 20
3.012696279702693
 30
0.0
 11
-13.00000182896813
 21
3.012696279702693
 31
0.0
  0
LINE
  5
2CF9
330
1F
100
AcDbEntity
  8
AM_11
100
AcDbLine
 10
-13.00000182896813
 20
-2.987303720297297
 30
0.0
 11
0.0000000000166874
 21
-2.987303720297297
 31
0.0
  0
DIMENSION
  5
2CFA
330
1F
100
AcDbEntity
  8
AM_5
100
AcDbDimension
  2
*D6
 10
9.694079947385105
 20
3.012696279702667
 30
0.0
 11
9.694079947385105
 21
0.0126962792826557
 31
0.0
 70
   160
  1
%%c<>
  3
AM_JIS
100
AcDbAlignedDimension
 13
0.0000000000133764
 23
-2.987303721137351
 33
0.0
 14
0.0000000000166873
 24
3.012696279702669
 34
0.0
 50
89.9999999953877
100
AcDbRotatedDimension
1001
GENIUS_GENDTOL_13
1000

1000
h7
1000

1040
0.0
  0
ELLIPSE
  5
2D09
330
1F
100
AcDbEntity
  8
AM_0
100
AcDbEllipse
 10
-0.0626685661246299
 20
-2.019922656008831
 30
0.0
 11
0.0000000000000075
 21
0.6169004176741693
 31
0.0
210
0.0
220
0.0
230
1.0
 40
0.86678832116809
 41
1.82167574773926
 42
2.482683360922191
  0
ELLIPSE
  5
2D0A
330
1F
100
AcDbEntity
  8
AM_0
100
AcDbEllipse
 10
4.141386558841587
 20
1.026219444036844
 30
0.0
 11
0.0000000000000294
 21
5.235748345856196
 31
0.0
210
0.0
220
0.0
230
1.0
 40
0.8667883211680866
 41
1.515869372210671
 42
1.947903343241
  0
SPLINE
  5
2D0B
330
1F
100
AcDbEntity
  8
AM_0
100
AcDbSpline
210
0.0
220
0.0
230
1.0
 70
     8
 71
     3
 72
     8
 73
     4
 74
     0
 42
0.0000000001
 43
0.0000000001
 40
0.0
 40
0.0
 40
0.0
 40
0.0
 40
8.272127900364923
 40
8.272127900364923
 40
8.272127900364923
 40
8.272127900364923
 10
-9.139416058727926
 20
3.012696279702693
 30
0.0
 10
-7.705379287678926
 20
3.012696279702693
 30
0.0
 10
-6.708757162254204
 20
1.51269627970271
 30
0.0
 10
-5.712135036829485
 20
0.0126962797027025
 30
0.0
  0
SPLINE
  5
2D0C
330
1F
100
AcDbEntity
  8
AM_0
100
AcDbSpline
210
0.0
220
0.0
230
1.0
 70
     8
 71
     3
 72
     8
 73
     4
 74
     0
 42
0.0000000001
 43
0.0000000001
 40
0.5179125576517913
 40
0.5179125576517913
 40
0.5179125576517913
 40
0.5179125576517913
 40
8.138271981564475
 40
8.138271981564475
 40
8.138271981564475
 40
8.138271981564475
 10
-8.367127720589188
 20
2.860832354569567
 30
0.0
 10
-7.092535319484426
 20
2.695531699452848
 30
0.0
 10
-6.14847325686352
 20
1.35411398957777
 30
0.0
 10
-5.204411194242605
 20
0.0126962797027707
 30
0.0
  0
SPLINE
  5
2D0D
330
1F
100
AcDbEntity
  8
AM_0
100
AcDbSpline
210
0.0
220
0.0
230
1.0
 70
     8
 71
     3
 72
     8
 73
     4
 74
     0
 42
0.0000000001
 43
0.0000000001
 40
0.2299567350972117
 40
0.2299567350972117
 40
0.2299567350972117
 40
0.2299567350972117
 40
7.769701155129346
 40
7.769701155129346
 40
7.769701155129346
 40
7.769701155129346
 10
-7.105288212403055
 20
2.478988763101762
 30
0.0
 10
-5.815575965335114
 20
2.40911257023616
 30
0.0
 10
-4.806189627454036
 20
1.210904424969392
 30
0.0
 10
-3.796803289573195
 20
0.0126962797027025
 30
0.0
  0
SPLINE
  5
2D0E
330
1F
100
AcDbEntity
  8
AM_0
100
AcDbSpline
210
0.0
220
0.0
230
1.0
 70
     8
 71
     3
 72
     8
 73
     4
 74
     0
 42
0.0000000001
 43
0.0000000001
 40
0.6397612841816997
 40
0.6397612841816997
 40
0.6397612841816997
 40
0.6397612841816997
 40
7.939880490758838
 40
7.939880490758838
 40
7.939880490758838
 40
7.939880490758838
 10
-7.66894561030219
 20
2.644748217118701
 30
0.0
 10
-6.45332779147497
 20
2.455822576055544
 30
0.0
 10
-5.510530840244379
 20
1.234259427879153
 30
0.0
 10
-4.567733889013784
 20
0.0126962797027707
 30
0.0
  0
SPLINE
  5
2D0F
330
1F
100
AcDbEntity
  8
AM_0
100
AcDbSpline
210
0.0
220
0.0
230
1.0
 70
     8
 71
     3
 72
     8
 73
     4
 74
     0
 42
0.0000000001
 43
0.0000000001
 40
0.0
 40
0.0
 40
0.0
 40
0.0
 40
3.655156164497277
 40
3.655156164497277
 40
3.655156164497277
 40
3.655156164497277
 10
-4.569708029355621
 20
3.012696279702693
 30
0.0
 10
-5.203357364442149
 20
3.01269627970317
 30
0.0
 10
-5.751604174351474
 20
2.719830485091582
 30
0.0
 10
-6.252184767096014
 20
2.263505770065179
 30
0.0
  0
SPLINE
  5
2D10
330
1F
100
AcDbEntity
  8
AM_0
100
AcDbSpline
210
0.0
220
0.0
230
1.0
 70
     8
 71
     3
 72
     8
 73
     4
 74
     0
 42
0.0000000001
 43
0.0000000001
 40
0.0
 40
0.0
 40
0.0
 40
0.0
 40
8.272127900365292
 40
8.272127900365292
 40
8.272127900365292
 40
8.272127900365292
 10
-2.284854014930801
 20
-2.987303720297366
 30
0.0
 10
-3.71889078597986
 20
-2.987303720297366
 30
0.0
 10
-4.71551291140467
 20
-1.487303720297366
 30
0.0
 10
-5.712135036829485
 20
0.0126962797026343
 30
0.0
  0
SPLINE
  5
2D11
330
1F
100
AcDbEntity
  8
AM_0
100
AcDbSpline
210
0.0
220
0.0
230
1.0
 70
     8
 71
     3
 72
     8
 73
     4
 74
     0
 42
0.0000000001
 43
0.0000000001
 40
0.0
 40
0.0
 40
0.0
 40
0.0
 40
1.981387939834528
 40
1.981387939834528
 40
1.981387939834528
 40
1.981387939834528
 10
-6.346838201716469
 20
-2.852476228983421
 30
0.0
 10
-6.003349416526129
 20
-2.852476228983352
 30
0.0
 10
-5.683725342976813
 20
-2.767559078876759
 30
0.0
 10
-5.382155748633137
 20
-2.618399169675314
 30
0.0
  0
SPLINE
  5
2D12
330
1F
100
AcDbEntity
  8
AM_0
100
AcDbSpline
210
0.0
220
0.0
230
1.0
 70
     8
 71
     3
 72
     8
 73
     4
 74
     0
 42
0.0000000001
 43
0.0000000001
 40
0.0
 40
0.0
 40
0.0
 40
0.0
 40
1.797818050668038
 40
1.797818050668038
 40
1.797818050668038
 40
1.797818050668038
 10
-5.710160896487648
 20
-2.644538522626936
 30
0.0
 10
-5.398495816425573
 20
-2.643922154058516
 30
0.0
 10
-5.104928636159019
 20
-2.57522322757996
 30
0.0
 10
-4.825361468953691
 20
-2.453857598844395
 30
0.0
  0
SPLINE
  5
2D13
330
1F
100
AcDbEntity
  8
AM_0
100
AcDbSpline
210
0.0
220
0.0
230
1.0
 70
     8
 71
     3
 72
     8
 73
     4
 74
     0
 42
0.0000000001
 43
0.0000000001
 40
0.0
 40
0.0
 40
0.0
 40
0.0
 40
7.769701155129467
 40
7.769701155129467
 40
7.769701155129467
 40
7.769701155129467
 10
-4.939230297047059
 20
-2.456808969209903
 30
0.0
 10
-6.286167541093536
 20
-2.456808969209903
 30
0.0
 10
-7.326339430019634
 20
-1.222056344753634
 30
0.0
 10
-8.36651131894574
 20
0.0126962797026343
 30
0.0
  0
SPLINE
  5
2D14
330
1F
100
AcDbEntity
  8
AM_0
100
AcDbSpline
210
0.0
220
0.0
230
1.0
 70
     8
 71
     3
 72
     8
 73
     4
 74
     0
 42
0.0000000001
 43
0.0000000001
 40
0.0
 40
0.0
 40
0.0
 40
0.0
 40
7.939880490758586
 40
7.939880490758586
 40
7.939880490758586
 40
7.939880490758586
 10
-5.710160896487648
 20
-2.644538522627005
 30
0.0
 10
-7.086600032659624
 20
-2.644538522627005
 30
0.0
 10
-8.112020975522861
 20
-1.315921121462185
 30
0.0
 10
-9.137441918386093
 20
0.0126962797026343
 30
0.0
  0
SPLINE
  5
2D15
330
1F
100
AcDbEntity
  8
AM_0
100
AcDbSpline
210
0.0
220
0.0
230
1.0
 70
     8
 71
     3
 72
     8
 73
     4
 74
     0
 42
0.0000000001
 43
0.0000000001
 40
0.0
 40
0.0
 40
0.0
 40
0.0
 40
8.138271981564608
 40
8.138271981564608
 40
8.138271981564608
 40
8.138271981564608
 10
-6.346838201716469
 20
-2.852476228983421
 30
0.0
 10
-7.757670023338395
 20
-2.852476228983421
 30
0.0
 10
-8.765894623476773
 20
-1.419889974640392
 30
0.0
 10
-9.774119223615151
 20
0.0126962797026343
 30
0.0
  0
SPLINE
  5
2D16
330
1F
100
AcDbEntity
  8
AM_0
100
AcDbSpline
210
0.0
220
0.0
230
1.0
 70
     8
 71
     3
 72
     8
 73
     4
 74
     0
 42
0.0000000001
 43
0.0000000001
 40
0.0
 40
0.0
 40
0.0
 40
0.0
 40
1.570112951298052
 40
1.570112951298052
 40
1.570112951298052
 40
1.570112951298052
 10
-6.854562044303345
 20
-2.987303720297366
 30
0.0
 10
-6.58237093048327
 20
-2.987303720297366
 30
0.0
 10
-6.325938525470921
 20
-2.933263318477753
 30
0.0
 10
-6.082273706172645
 20
-2.835439795167447
 30
0.0
  0
SPLINE
  5
2D17
330
1F
100
AcDbEntity
  8
AM_0
100
AcDbSpline
210
0.0
220
0.0
230
1.0
 70
     8
 71
     3
 72
     8
 73
     4
 74
     0
 42
0.0000000001
 43
0.0000000001
 40
0.1383879590723462
 40
0.1383879590723462
 40
0.1383879590723462
 40
0.1383879590723462
 40
7.769701155129346
 40
7.769701155129346
 40
7.769701155129346
 40
7.769701155129346
 10
-0.4412038863120986
 20
-2.455640807230527
 30
0.0
 10
-1.753512999858963
 20
-2.412824035363366
 30
0.0
 10
-2.775158144715959
 20
-1.200063877830332
 30
0.0
 10
-3.796803289573195
 20
0.0126962797026343
 30
0.0
  0
SPLINE
  5
2D18
330
1F
100
AcDbEntity
  8
AM_0
100
AcDbSpline
210
0.0
220
0.0
230
1.0
 70
     8
 71
     3
 72
     8
 73
     4
 74
     0
 42
0.0000000001
 43
0.0000000001
 40
0.0
 40
0.0
 40
0.0
 40
0.0
 40
7.939880490758586
 40
7.939880490758586
 40
7.939880490758586
 40
7.939880490758586
 10
-1.140452867115105
 20
-2.644538522627005
 30
0.0
 10
-2.516892003287078
 20
-2.644538522627005
 30
0.0
 10
-3.542312946150314
 20
-1.315921121462185
 30
0.0
 10
-4.56773388901355
 20
0.0126962797026343
 30
0.0
  0
SPLINE
  5
2D19
330
1F
100
AcDbEntity
  8
AM_0
100
AcDbSpline
210
0.0
220
0.0
230
1.0
 70
     8
 71
     3
 72
     8
 73
     4
 74
     0
 42
0.0000000001
 43
0.0000000001
 40
0.0
 40
0.0
 40
0.0
 40
0.0
 40
8.138271981564608
 40
8.138271981564608
 40
8.138271981564608
 40
8.138271981564608
 10
-1.777130172343923
 20
-2.852476228983421
 30
0.0
 10
-3.187961993965853
 20
-2.852476228983421
 30
0.0
 10
-4.196186594104229
 20
-1.419889974640392
 30
0.0
 10
-5.204411194242605
 20
0.0126962797026343
 30
0.0
  0
SPLINE
  5
2D1A
330
1F
100
AcDbEntity
  8
AM_0
100
AcDbSpline
210
0.0
220
0.0
230
1.0
 70
     8
 71
     3
 72
    10
 73
     6
 74
     0
 42
0.0000000001
 43
0.0000000001
 40
0.0
 40
0.0
 40
0.0
 40
0.0
 40
1.624816058741878
 40
2.635428435777873
 40
3.678161543961334
 40
3.678161543961334
 40
3.678161543961334
 40
3.678161543961334
 10
-0.5806508880449145
 20
-2.173071852387063
 30
0.0
 10
-0.8531574244326634
 20
-2.090839103637396
 30
0.0
 10
-1.218978830608838
 20
-1.974152393831163
 30
0.0
 10
-2.033532888013698
 20
-1.571397048400585
 30
0.0
 10
-1.566308404076854
 20
-1.083147807410055
 30
0.0
 10
-1.387027863246432
 20
-1.109826451622559
 30
0.0
  0
SPLINE
  5
2D1B
330
1F
100
AcDbEntity
  8
AM_0
100
AcDbSpline
210
0.0
220
0.0
230
1.0
 70
     8
 71
     3
 72
     8
 73
     4
 74
     0
 42
0.0000000001
 43
0.0000000001
 40
0.0
 40
0.0
 40
0.0
 40
0.0
 40
1.973247866266529
 40
1.973247866266529
 40
1.973247866266529
 40
1.973247866266529
 10
-4.939230297047059
 20
-2.456808969209903
 30
0.0
 10
-4.597152655997159
 20
-2.456808969209903
 30
0.0
 10
-4.274861149787361
 20
-2.377168352974042
 30
0.0
 10
-3.967330752670012
 20
-2.238113210659237
 30
0.0
  0
SPLINE
  5
2D1C
330
1F
100
AcDbEntity
  8
AM_0
100
AcDbSpline
210
0.0
220
0.0
230
1.0
 70
     8
 71
     3
 72
     8
 73
     4
 74
     0
 42
0.0000000001
 43
0.0000000001
 40
0.0
 40
0.0
 40
0.0
 40
0.0
 40
1.570112951298052
 40
1.570112951298052
 40
1.570112951298052
 40
1.570112951298052
 10
-2.284854014930801
 20
-2.987303720297366
 30
0.0
 10
-2.012662901110724
 20
-2.987303720297366
 30
0.0
 10
-1.756230496098377
 20
-2.933263318477753
 30
0.0
 10
-1.5125656768001
 20
-2.835439795167447
 30
0.0
  0
SPLINE
  5
2D1D
330
1F
100
AcDbEntity
  8
AM_0
100
AcDbSpline
210
0.0
220
0.0
230
1.0
 70
     8
 71
     3
 72
     8
 73
     4
 74
     0
 42
0.0000000001
 43
0.0000000001
 40
0.0
 40
0.0
 40
0.0
 40
0.0
 40
1.981387939834528
 40
1.981387939834528
 40
1.981387939834528
 40
1.981387939834528
 10
-1.777130172343923
 20
-2.852476228983421
 30
0.0
 10
-1.433641387153582
 20
-2.852476228983352
 30
0.0
 10
-1.114017313604269
 20
-2.767559078876759
 30
0.0
 10
-0.8124477192605947
 20
-2.618399169675314
 30
0.0
  0
SPLINE
  5
2D1E
330
1F
100
AcDbEntity
  8
AM_0
100
AcDbSpline
210
0.0
220
0.0
230
1.0
 70
     8
 71
     3
 72
     8
 73
     4
 74
     0
 42
0.0000000001
 43
0.0000000001
 40
0.0
 40
0.0
 40
0.0
 40
0.0
 40
1.512029330426235
 40
1.512029330426235
 40
1.512029330426235
 40
1.512029330426235
 10
-1.140452867115105
 20
-2.644538522626936
 30
0.0
 10
-0.8783313792658733
 20
-2.644020134598993
 30
0.0
 10
-0.6290112816764322
 20
-2.595344147979592
 30
0.0
 10
-0.3900547445122611
 20
-2.507681444073165
 30
0.0
  0
SPLINE
  5
2D1F
330
1F
100
AcDbEntity
  8
AM_0
100
AcDbSpline
210
0.0
220
0.0
230
1.0
 70
     8
 71
     3
 72
     8
 73
     4
 74
     0
 42
0.0000000001
 43
0.0000000001
 40
0.0
 40
0.0
 40
0.0
 40
0.0
 40
0.0092824582075338
 40
0.0092824582075338
 40
0.0092824582075338
 40
0.0092824582075338
 10
-0.3695222676747484
 20
-2.456808969209903
 30
0.0
 10
-0.3679130824013915
 20
-2.456808969209903
 30
0.0
 10
-0.366304334976617
 20
-2.45680720683884
 30
0.0
 10
-0.3646960248768082
 20
-2.456803684202357
 30
0.0
  0
SPLINE
  5
2D20
330
1F
100
AcDbEntity
  8
AM_0
100
AcDbSpline
210
0.0
220
0.0
230
1.0
 70
     8
 71
     3
 72
     8
 73
     4
 74
     0
 42
0.0000000001
 43
0.0000000001
 40
0.6397612841816997
 40
0.6397612841816997
 40
0.6397612841816997
 40
0.6397612841816997
 40
6.972227720174165
 40
6.972227720174165
 40
6.972227720174165
 40
6.972227720174165
 10
-3.099237580929886
 20
2.644748217118701
 30
0.0
 10
-2.044753562397282
 20
2.480865238351346
 30
0.0
 10
-1.195557501929128
 20
1.539959419932923
 30
0.0
 10
-0.3735729781178212
 20
0.4960568856639773
 30
0.0
  0
SPLINE
  5
2D21
330
1F
100
AcDbEntity
  8
AM_0
100
AcDbSpline
210
0.0
220
0.0
230
1.0
 70
     8
 71
     3
 72
     8
 73
     4
 74
     0
 42
0.0000000001
 43
0.0000000001
 40
0.5179125576517913
 40
0.5179125576517913
 40
0.5179125576517913
 40
0.5179125576517913
 40
8.138271981564475
 40
8.138271981564475
 40
8.138271981564475
 40
8.138271981564475
 10
-3.79741969121688
 20
2.860832354569567
 30
0.0
 10
-2.522827290111883
 20
2.695531699452848
 30
0.0
 10
-1.578765227490971
 20
1.35411398957777
 30
0.0
 10
-0.6347031648702976
 20
0.0126962797027707
 30
0.0
  0
SPLINE
  5
2D22
330
1F
100
AcDbEntity
  8
AM_0
100
AcDbSpline
210
0.0
220
0.0
230
1.0
 70
     8
 71
     3
 72
     8
 73
     4
 74
     0
 42
0.0000000001
 43
0.0000000001
 40
0.0
 40
0.0
 40
0.0
 40
0.0
 40
8.272127900365285
 40
8.272127900365285
 40
8.272127900365285
 40
8.272127900365285
 10
-4.569708029355621
 20
3.012696279702693
 30
0.0
 10
-3.135671258306559
 20
3.012696279702693
 30
0.0
 10
-2.13904913288175
 20
1.512696279702694
 30
0.0
 10
-1.142427007456938
 20
0.0126962797027025
 30
0.0
  0
SPLINE
  5
2D23
330
1F
100
AcDbEntity
  8
AM_0
100
AcDbSpline
210
0.0
220
0.0
230
1.0
 70
     8
 71
     3
 72
     8
 73
     4
 74
     0
 42
0.0000000001
 43
0.0000000001
 40
0.0
 40
0.0
 40
0.0
 40
0.0
 40
3.655156164497277
 40
3.655156164497277
 40
3.655156164497277
 40
3.655156164497277
 10
0.0000000000166874
 20
3.012696279702693
 30
0.0
 10
-0.6336493350696069
 20
3.01269627970317
 30
0.0
 10
-1.181896144979166
 20
2.719830485091582
 30
0.0
 10
-1.682476737723705
 20
2.263505770065179
 30
0.0
  0
SPLINE
  5
2D24
330
1F
100
AcDbEntity
  8
AM_0
100
AcDbSpline
210
0.0
220
0.0
230
1.0
 70
     8
 71
     3
 72
     8
 73
     4
 74
     0
 42
0.0000000001
 43
0.0000000001
 40
0.2299567350972117
 40
0.2299567350972117
 40
0.2299567350972117
 40
0.2299567350972117
 40
4.912075065647881
 40
4.912075065647881
 40
4.912075065647881
 40
4.912075065647881
 10
-2.535580183030512
 20
2.478988763101762
 30
0.0
 10
-1.73467964625795
 20
2.43559623077452
 30
0.0
 10
-1.041881366392764
 20
1.957084337026009
 30
0.0
 10
-0.3900547445122611
 20
1.313658572200832
 30
0.0
  0
SPLINE
  5
2D25
330
1F
100
AcDbEntity
  8
AM_0
100
AcDbSpline
210
0.0
220
0.0
230
1.0
 70
     8
 71
     3
 72
     8
 73
     4
 74
     0
 42
0.0000000001
 43
0.0000000001
 40
0.0
 40
0.0
 40
0.0
 40
0.0
 40
3.860109074512531
 40
3.860109074512531
 40
3.860109074512531
 40
3.860109074512531
 10
-0.1560218977964998
 20
3.006718643485492
 30
0.0
 10
-0.0261460966111786
 20
2.249376608912583
 30
0.0
 10
-1.133906764563436
 20
1.682547599128458
 30
0.0
 10
-1.803086257407917
 20
1.682547599128458
 30
0.0
  0
SPLINE
  5
2D26
330
1F
100
AcDbEntity
  8
AM_0
100
AcDbSpline
210
0.0
220
0.0
230
1.0
 70
     8
 71
     3
 72
     8
 73
     4
 74
     0
 42
0.0000000001
 43
0.0000000001
 40
6.850968446318445
 40
6.850968446318445
 40
6.850968446318445
 40
6.850968446318445
 40
8.138271981564475
 40
8.138271981564475
 40
8.138271981564475
 40
8.138271981564475
 10
-0.1546699467315272
 20
-0.6614490129112319
 30
0.0
 10
-0.3157432935315148
 20
-0.4405137761761189
 30
0.0
 10
-0.4752232292009061
 20
-0.2139087482367424
 30
0.0
 10
-0.6347031648702976
 20
0.0126962797026343
 30
0.0
  0
SPLINE
  5
2D27
330
1F
100
AcDbEntity
  8
AM_0
100
AcDbSpline
210
0.0
220
0.0
230
1.0
 70
     8
 71
     3
 72
     8
 73
     4
 74
     0
 42
0.0000000001
 43
0.0000000001
 40
5.58452476840911
 40
5.58452476840911
 40
5.58452476840911
 40
5.58452476840911
 40
8.27212790036518
 40
8.27212790036518
 40
8.27212790036518
 40
8.27212790036518
 10
-0.1560218977964998
 20
-1.397903588693504
 30
0.0
 10
-0.4948246546090981
 20
-0.961999650169475
 30
0.0
 10
-0.8186258310330185
 20
-0.4746516852334544
 30
0.0
 10
-1.142427007456938
 20
0.0126962797026343
 30
0.0
  0
SPLINE
  5
2D28
330
1F
100
AcDbEntity
  8
AM_0
100
AcDbSpline
210
0.0
220
0.0
230
1.0
 70
     8
 71
     3
 72
     8
 73
     4
 74
     0
 42
0.0000000001
 43
0.0000000001
 40
0.0
 40
0.0
 40
0.0
 40
0.0
 40
3.655156164497277
 40
3.655156164497277
 40
3.655156164497277
 40
3.655156164497277
 10
-9.139416058727926
 20
3.012696279702693
 30
0.0
 10
-9.77306539381446
 20
3.01269627970317
 30
0.0
 10
-10.32131220372378
 20
2.719830485091582
 30
0.0
 10
-10.82189279646832
 20
2.263505770065179
 30
0.0
  0
SPLINE
  5
2D29
330
1F
100
AcDbEntity
  8
AM_0
100
AcDbSpline
210
0.0
220
0.0
230
1.0
 70
     8
 71
     3
 72
     8
 73
     4
 74
     0
 42
0.0000000001
 43
0.0000000001
 40
0.0
 40
0.0
 40
0.0
 40
0.0
 40
8.27212790036493
 40
8.27212790036493
 40
8.27212790036493
 40
8.27212790036493
 10
-6.854562044303345
 20
-2.987303720297366
 30
0.0
 10
-8.288598815352342
 20
-2.987303720297366
 30
0.0
 10
-9.285220940777071
 20
-1.487303720297356
 30
0.0
 10
-10.28184306620179
 20
0.0126962797026343
 30
0.0
  0
SPLINE
  5
2D2A
330
1F
100
AcDbEntity
  8
AM_0
100
AcDbSpline
210
0.0
220
0.0
230
1.0
 70
     8
 71
     3
 72
     8
 73
     4
 74
     0
 42
0.0000000001
 43
0.0000000001
 40
0.0
 40
0.0
 40
0.0
 40
0.0
 40
1.570112951298052
 40
1.570112951298052
 40
1.570112951298052
 40
1.570112951298052
 10
-11.42461678865555
 20
-2.987303720297366
 30
0.0
 10
-11.15242567483547
 20
-2.987303720297366
 30
0.0
 10
-10.89599326982312
 20
-2.933263318477753
 30
0.0
 10
-10.65232845052485
 20
-2.835439795167447
 30
0.0
  0
SPLINE
  5
2D2B
330
1F
100
AcDbEntity
  8
AM_0
100
AcDbSpline
210
0.0
220
0.0
230
1.0
 70
     8
 71
     3
 72
     8
 73
     4
 74
     0
 42
0.0000000001
 43
0.0000000001
 40
0.1383879590723462
 40
0.1383879590723462
 40
0.1383879590723462
 40
0.1383879590723462
 40
4.12619780763684
 40
4.12619780763684
 40
4.12619780763684
 40
4.12619780763684
 10
-9.580966660036846
 20
-2.455640807230527
 30
0.0
 10
-10.2667253326159
 20
-2.433266526402443
 30
0.0
 10
-10.87311306464991
 20
-2.091418499573689
 30
0.0
 10
-11.44160583940202
 20
-1.597040543349468
 30
0.0
  0
SPLINE
  5
2D2C
330
1F
100
AcDbEntity
  8
AM_0
100
AcDbSpline
210
0.0
220
0.0
230
1.0
 70
     8
 71
     3
 72
     8
 73
     4
 74
     0
 42
0.0000000001
 43
0.0000000001
 40
0.0
 40
0.0
 40
0.0
 40
0.0
 40
1.973247866266529
 40
1.973247866266529
 40
1.973247866266529
 40
1.973247866266529
 10
-9.509111683909434
 20
-2.456808969209903
 30
0.0
 10
-9.167034042859533
 20
-2.456808969209903
 30
0.0
 10
-8.844742536649738
 20
-2.377168352974042
 30
0.0
 10
-8.537212139532382
 20
-2.238113210659237
 30
0.0
  0
SPLINE
  5
2D2D
330
1F
100
AcDbEntity
  8
AM_0
100
AcDbSpline
210
0.0
220
0.0
230
1.0
 70
     8
 71
     3
 72
     8
 73
     4
 74
     0
 42
0.0000000001
 43
0.0000000001
 40
0.0
 40
0.0
 40
0.0
 40
0.0
 40
1.570112951298052
 40
1.570112951298052
 40
1.570112951298052
 40
1.570112951298052
 10
-11.42444343116572
 20
-2.987303720297366
 30
0.0
 10
-11.15225231734564
 20
-2.987303720297366
 30
0.0
 10
-10.89581991233329
 20
-2.933263318477753
 30
0.0
 10
-10.65215509303502
 20
-2.835439795167447
 30
0.0
  0
SPLINE
  5
2D2E
330
1F
100
AcDbEntity
  8
AM_0
100
AcDbSpline
210
0.0
220
0.0
230
1.0
 70
     8
 71
     3
 72
     8
 73
     4
 74
     0
 42
0.0000000001
 43
0.0000000001
 40
0.6432030004477055
 40
0.6432030004477055
 40
0.6432030004477055
 40
0.6432030004477055
 40
1.797818050668038
 40
1.797818050668038
 40
1.797818050668038
 40
1.797818050668038
 10
-9.952292115948123
 20
-2.618439539576972
 30
0.0
 10
-9.760110894731354
 20
-2.588024249520917
 30
0.0
 10
-9.574789645149273
 20
-2.53180240614314
 30
0.0
 10
-9.395242855816062
 20
-2.453857598844395
 30
0.0
  0
SPLINE
  5
2D2F
330
1F
100
AcDbEntity
  8
AM_0
100
AcDbSpline
210
0.0
220
0.0
230
1.0
 70
     8
 71
     3
 72
     8
 73
     4
 74
     0
 42
0.0000000001
 43
0.0000000001
 40
0.5179125576349786
 40
0.5179125576349786
 40
0.5179125576349786
 40
0.5179125576349786
 40
1.981387939834528
 40
1.981387939834528
 40
1.981387939834528
 40
1.981387939834528
 10
-10.65215509303522
 20
-2.835439795165273
 30
0.0
 10
-10.40737207197403
 20
-2.803694122033602
 30
0.0
 10
-10.17477982432944
 20
-2.728570353590802
 30
0.0
 10
-9.952037135495512
 20
-2.618399169675314
 30
0.0
  0
SPLINE
  5
2D30
330
1F
100
AcDbEntity
  8
AM_0
100
AcDbSpline
210
0.0
220
0.0
230
1.0
 70
     8
 71
     3
 72
     8
 73
     4
 74
     0
 42
0.0000000001
 43
0.0000000001
 40
5.129729518825886
 40
5.129729518825886
 40
5.129729518825886
 40
5.129729518825886
 40
8.272127900365292
 40
8.272127900365292
 40
8.272127900365292
 40
8.272127900365292
 10
-11.44160583940509
 20
1.639918054587531
 30
0.0
 10
-11.0390324597079
 20
1.152329909424743
 30
0.0
 10
-10.66043776295484
 20
0.5825130945637192
 30
0.0
 10
-10.28184306620179
 20
0.0126962797027025
 30
0.0
  0
SPLINE
  5
2D31
330
1F
100
AcDbEntity
  8
AM_0
100
AcDbSpline
210
0.0
220
0.0
230
1.0
 70
     8
 71
     3
 72
     8
 73
     4
 74
     0
 42
0.0000000001
 43
0.0000000001
 40
0.2299567350972117
 40
0.2299567350972117
 40
0.2299567350972117
 40
0.2299567350972117
 40
7.769701155129346
 40
7.769701155129346
 40
7.769701155129346
 40
7.769701155129346
 10
-11.6749962417756
 20
2.5265603456478
 30
0.0
 10
-10.38528399470741
 20
2.40911257023616
 30
0.0
 10
-9.375897656826342
 20
1.210904424969392
 30
0.0
 10
-8.36651131894574
 20
0.0126962797027025
 30
0.0
  0
SPLINE
  5
2D32
330
1F
100
AcDbEntity
  8
AM_0
100
AcDbSpline
210
0.0
220
0.0
230
1.0
 70
     8
 71
     3
 72
     8
 73
     4
 74
     0
 42
0.0000000001
 43
0.0000000001
 40
0.5179125576517913
 40
0.5179125576517913
 40
0.5179125576517913
 40
0.5179125576517913
 40
8.138271981564475
 40
8.138271981564475
 40
8.138271981564475
 40
8.138271981564475
 10
-12.93683574996149
 20
3.012696279702693
 30
0.0
 10
-11.66224334885673
 20
2.695531699452848
 30
0.0
 10
-10.71818128623606
 20
1.35411398957777
 30
0.0
 10
-9.774119223615151
 20
0.0126962797027707
 30
0.0
  0
SPLINE
  5
2D33
330
1F
100
AcDbEntity
  8
AM_0
100
AcDbSpline
210
0.0
220
0.0
230
1.0
 70
     8
 71
     3
 72
     8
 73
     4
 74
     0
 42
0.0000000001
 43
0.0000000001
 40
0.6397612841816997
 40
0.6397612841816997
 40
0.6397612841816997
 40
0.6397612841816997
 40
7.939880490758838
 40
7.939880490758838
 40
7.939880490758838
 40
7.939880490758838
 10
-12.2386536396745
 20
2.725009837879225
 30
0.0
 10
-11.02303582084751
 20
2.455822576055544
 30
0.0
 10
-10.08023886961668
 20
1.234259427879153
 30
0.0
 10
-9.137441918386327
 20
0.0126962797027707
 30
0.0
  0
DIMENSION
  5
2D34
330
1F
100
AcDbEntity
  8
AM_5
100
AcDbDimension
  2
*D7
 10
-13.00000182896813
 20
-9.987304720297379
 30
0.0
 11
-6.50000091447738
 21
-8.437304720297378
 31
0.0
 70
    32
  1
<>
  3
AM_JIS
100
AcDbAlignedDimension
 13
0.0000000000133765
 23
-2.987303720297297
 33
0.0
 14
-13.00000182896813
 24
-2.987303720297297
 34
0.0
 50
0.0000000000001148
100
AcDbRotatedDimension
1001
GENIUS_GENDTOL_13
1000

1000
h7
1000

1040
0.0
  0
LINE
  5
2D41
330
1F
100
AcDbEntity
  8
AM_7
100
AcDbLine
 10
-58.52483508331972
 20
-0.0000000000000169
 30
0.0
 11
2.694078947385109
 21
-0.0000000000000141
 31
0.0
1001
GENIUS_GENODEF_13
1002
{
1000
HIER
1070
     0
1002
}
1002
{
1000
MANEDIT
1070
     0
1002
}
1002
{
1000
NOSEL
1070
     0
1002
}
1002
{
1000
BEHIND
1070
     0
1002
}
1002
{
1000
REACTOR
1002
}
1001
GENIUS_GENOBJ-N-CEN_13
1002
{
1000
OWNER
1000
GEN
1002
}
  0
LINE
  5
2D42
330
1F
100
AcDbEntity
  8
AM_7
100
AcDbLine
 10
-61.37742499652302
 20
-0.0000000000000153
 30
0.0
 11
2.437500000012136
 21
-0.0000000000000128
 31
0.0
1001
GENIUS_GENODEF_13
1002
{
1000
HIER
1070
     0
1002
}
1002
{
1000
MANEDIT
1070
     0
1002
}
1002
{
1000
NOSEL
1070
     0
1002
}
1002
{
1000
BEHIND
1070
     0
1002
}
1002
{
1000
REACTOR
1002
}
1001
GENIUS_GENOBJ-N-CEN_13
1002
{
1000
OWNER
1000
GEN
1002
}
  0
DIMENSION
  5
2DC8
330
1F
100
AcDbEntity
  8
AM_5
100
AcDbDimension
  2
*D8
 10
-68.37742599652301
 20
3.012696279702695
 30
0.0
 11
-69.92742599652301
 21
0.0126962797026974
 31
0.0
 70
    32
  1
%%c<>
  3
AM_JIS
100
AcDbAlignedDimension
 13
-59.65624999998891
 23
-2.987303720297281
 33
0.0
 14
-59.65624999998891
 24
3.012696279702693
 34
0.0
 50
270.0
100
AcDbRotatedDimension
1001
GENIUS_GENDTOL_13
1000

1000
h7
1000

1040
0.0
  0
VIEWPORT
  5
110
330
101
100
AcDbEntity
 67
     1
  8
0
100
AcDbViewport
 10
420.5
 20
297.0
 30
0.0
 40
948.9782706766916
 41
628.452
 68
     1
 69
     1
1001
ACAD
1000
MVIEW
1002
{
1070
    16
1010
0.0
1020
0.0
1030
0.0
1010
0.0
1020
0.0
1030
1.0
1040
0.0
1040
628.452
1040
420.5
1040
297.0
1040
50.0
1040
0.0
1040
0.0
1070
     0
1070
   100
1070
     1
1070
     1
1070
     0
1070
     0
1070
     0
1070
     0
1040
0.0
1040
0.0
1040
0.0
1040
10.0
1040
10.0
1040
10.0
1040
10.0
1070
     0
1002
{
1002
}
1002
}
  0
ENDSEC
  0
SECTION
  2
OBJECTS
  0
DICTIONARY
  5
C
330
0
100
AcDbDictionary
  3
ACAD_GROUP
350
D
  3
ACAD_LAYOUT
350
1A
  3
ACAD_MLINESTYLE
350
17
  3
ACAD_PLOTSETTINGS
350
19
  3
ACAD_PLOTSTYLENAME
350
E
  3
ACDBVARIABLEDICTIONARY
350
34
  3
ACMDICTIONARY
350
43
  3
AMG
350
2B
  3
AMGSNAPSETTINGS
350
6E
  3
DWGPROPS
350
2F27
  3
ACDBHEADERROUNDTRIPXREC
350
2F33
  0
DICTIONARY
  5
74
330
1F
100
AcDbDictionary
280
     1
  3
ACAD_INDEX
360
2F29
  3
ACAD_LAYOUTSELFREF
360
2F56
  0
DICTIONARY
  5
2F5B
330
101
100
AcDbDictionary
280
     1
  3
ACAD_LAYOUTSELFREF
360
2F5C
  0
DICTIONARY
  5
D
102
{ACAD_REACTORS
330
C
102
}
330
C
100
AcDbDictionary
  0
DICTIONARY
  5
1A
102
{ACAD_REACTORS
330
C
102
}
330
C
100
AcDbDictionary
  0
DICTIONARY
  5
17
102
{ACAD_REACTORS
330
C
102
}
330
C
100
AcDbDictionary
  3
STANDARD
350
18
  0
DICTIONARY
  5
19
102
{ACAD_REACTORS
330
C
102
}
330
C
100
AcDbDictionary
  0
ACDBDICTIONARYWDFLT
  5
E
102
{ACAD_REACTORS
330
C
102
}
330
C
100
AcDbDictionary
281
     1
  3
Normal
350
F
100
AcDbDictionaryWithDefault
340
F
  0
DICTIONARY
  5
34
102
{ACAD_REACTORS
330
C
102
}
330
C
100
AcDbDictionary
  3
INDEXCTL
350
35
  3
SORTENTS
350
B5E
  0
DICTIONARY
  5
43
102
{ACAD_REACTORS
330
C
102
}
330
C
100
AcDbDictionary
  3
ACMSTDDICTIONARY
350
260
  0
DICTIONARY
  5
2B
102
{ACAD_REACTORS
330
C
102
}
330
C
100
AcDbDictionary
  3
ACMGSETTINGS
350
2C
  0
DICTIONARY
  5
6E
102
{ACAD_REACTORS
330
C
102
}
330
C
100
AcDbDictionary
  0
XRECORD
  5
2F27
102
{ACAD_REACTORS
330
C
102
}
330
C
100
AcDbXrecord
  1
DWGPROPS COOKIE
  2

  3

  4

  6

  7

  8

  9

300
AmdtFileType=82
301
=
302
=
303
=
304
=
305
=
306
=
307
=
308
=
309
=
 40
0.1781902893518519
 41
2452808.461142939
 42
2452844.413873877
  1

 90
        1
  0
DICTIONARY
  5
2F33
102
{ACAD_REACTORS
330
C
102
}
330
C
100
AcDbDictionary
  3
TSTACKALIGN
350
2F34
  3
TSTACKSIZE
350
2F35
  3
HYPERLINKBASE
350
2F36
  3
STYLESHEET
350
2F37
  3
LAYOUTDICT
350
2F38
  3
PLOTSETDICT
350
2F39
  3
PLOTSTYLNAMDICT
350
2F3A
  3
LWETCUNION
350
2F3B
  3
INSUNITS
350
2F3C
  3
CEPSNTYPE
350
2F3D
  3
FINGERPRINTGUID
350
2F3E
  3
VERSIONGUID
350
2F3F
  3
PSVPSCALE
350
2F40
  3
DIMSTYLEDATA
350
2F41
  3
PUCSORTHOREF
350
2F42
  3
PUCSORTHOVIEW
350
2F43
  3
PUCSBASE
350
2F44
  3
PUCSORGTOP
350
2F45
  3
PUCSORGBOTTOM
350
2F46
  3
PUCSORGLEFT
350
2F47
  3
PUCSORGRIGHT
350
2F48
  3
PUCSORGFRONT
350
2F49
  3
PUCSORGBACK
350
2F4A
  3
UCSORTHOREF
350
2F4B
  3
UCSORTHOVIEW
350
2F4C
  3
UCSBASE
350
2F4D
  3
UCSORGTOP
350
2F4E
  3
UCSORGBOTTOM
350
2F4F
  3
UCSORGLEFT
350
2F50
  3
UCSORGRIGHT
350
2F51
  3
UCSORGFRONT
350
2F52
  3
UCSORGBACK
350
2F53
  0
DICTIONARY
  5
2F29
102
{ACAD_REACTORS
330
74
102
}
330
74
100
AcDbDictionary
  3
*A1
350
2F2A
  0
XRECORD
  5
2F56
102
{ACAD_REACTORS
330
74
102
}
330
74
100
AcDbXrecord
340
1F
  0
XRECORD
  5
2F5C
102
{ACAD_REACTORS
330
2F5B
102
}
330
2F5B
100
AcDbXrecord
340
101
  0
MLINESTYLE
  5
18
102
{ACAD_REACTORS
330
17
102
}
330
17
100
AcDbMlineStyle
  2
STANDARD
 70
     0
  3

 62
   256
 51
90.0
 52
90.0
 71
     2
 49
0.5
 62
   256
  6
BYLAYER
 49
-0.5
 62
   256
  6
BYLAYER
  0
ACDBPLACEHOLDER
  5
F
102
{ACAD_REACTORS
330
E
102
}
330
E
100
AcDbPlaceHolder
280
     0
  0
DICTIONARYVAR
  5
35
102
{ACAD_REACTORS
330
34
102
}
330
34
100
DictionaryVariables
280
     0
  1
1
  0
DICTIONARYVAR
  5
B5E
102
{ACAD_REACTORS
330
34
102
}
330
34
100
DictionaryVariables
280
     0
  1
96
  0
DICTIONARY
  5
260
102
{ACAD_REACTORS
330
43
102
}
330
43
100
AcDbDictionary
  0
DICTIONARY
  5
2C
102
{ACAD_REACTORS
330
2B
102
}
330
2B
100
AcDbDictionary
  3
DWGSETTINGS
350
2D
  0
XRECORD
  5
2F34
102
{ACAD_REACTORS
330
2F33
102
}
330
2F33
100
AcDbXrecord
 90
        1
  0
XRECORD
  5
2F35
102
{ACAD_REACTORS
330
2F33
102
}
330
2F33
100
AcDbXrecord
 90
       70
  0
XRECORD
  5
2F36
102
{ACAD_REACTORS
330
2F33
102
}
330
2F33
100
AcDbXrecord
  1

  0
XRECORD
  5
2F37
102
{ACAD_REACTORS
330
2F33
102
}
330
2F33
100
AcDbXrecord
  1
ASAMI.ctb
  0
XRECORD
  5
2F38
102
{ACAD_REACTORS
330
2F33
102
}
330
2F33
100
AcDbXrecord
340
1A
  0
XRECORD
  5
2F39
102
{ACAD_REACTORS
330
2F33
102
}
330
2F33
100
AcDbXrecord
340
19
  0
XRECORD
  5
2F3A
102
{ACAD_REACTORS
330
2F33
102
}
330
2F33
100
AcDbXrecord
340
E
  0
XRECORD
  5
2F3B
102
{ACAD_REACTORS
330
2F33
102
}
330
2F33
100
AcDbXrecord
 90
    10781
  0
XRECORD
  5
2F3C
102
{ACAD_REACTORS
330
2F33
102
}
330
2F33
100
AcDbXrecord
 90
        4
  0
XRECORD
  5
2F3D
102
{ACAD_REACTORS
330
2F33
102
}
330
2F33
100
AcDbXrecord
 90
        0
  0
XRECORD
  5
2F3E
102
{ACAD_REACTORS
330
2F33
102
}
330
2F33
100
AcDbXrecord
  1
{AFB28963-8C59-40AE-9337-C84526B81ACE}
  0
XRECORD
  5
2F3F
102
{ACAD_REACTORS
330
2F33
102
}
330
2F33
100
AcDbXrecord
  1
{CBF31441-2A73-4FE0-BDF1-43A376624C22}
  0
XRECORD
  5
2F40
102
{ACAD_REACTORS
330
2F33
102
}
330
2F33
100
AcDbXrecord
 40
0.0
  0
XRECORD
  5
2F41
102
{ACAD_REACTORS
330
2F33
102
}
330
2F33
100
AcDbXrecord
1000
DSTYLE
1002
{
1070
    79
 70
     2
1070
   341
340
59
1070
   342
340
59
1070
   371
 70
    -1
1070
   372
 70
    -1
1002
}
  0
XRECORD
  5
2F42
102
{ACAD_REACTORS
330
2F33
102
}
330
2F33
100
AcDbXrecord
340
0
  0
XRECORD
  5
2F43
102
{ACAD_REACTORS
330
2F33
102
}
330
2F33
100
AcDbXrecord
 70
     0
  0
XRECORD
  5
2F44
102
{ACAD_REACTORS
330
2F33
102
}
330
2F33
100
AcDbXrecord
340
0
  0
XRECORD
  5
2F45
102
{ACAD_REACTORS
330
2F33
102
}
330
2F33
100
AcDbXrecord
 10
0.0
 20
0.0
 30
0.0
  0
XRECORD
  5
2F46
102
{ACAD_REACTORS
330
2F33
102
}
330
2F33
100
AcDbXrecord
 10
0.0
 20
0.0
 30
0.0
  0
XRECORD
  5
2F47
102
{ACAD_REACTORS
330
2F33
102
}
330
2F33
100
AcDbXrecord
 10
0.0
 20
0.0
 30
0.0
  0
XRECORD
  5
2F48
102
{ACAD_REACTORS
330
2F33
102
}
330
2F33
100
AcDbXrecord
 10
0.0
 20
0.0
 30
0.0
  0
XRECORD
  5
2F49
102
{ACAD_REACTORS
330
2F33
102
}
330
2F33
100
AcDbXrecord
 10
0.0
 20
0.0
 30
0.0
  0
XRECORD
  5
2F4A
102
{ACAD_REACTORS
330
2F33
102
}
330
2F33
100
AcDbXrecord
 10
0.0
 20
0.0
 30
0.0
  0
XRECORD
  5
2F4B
102
{ACAD_REACTORS
330
2F33
102
}
330
2F33
100
AcDbXrecord
340
0
  0
XRECORD
  5
2F4C
102
{ACAD_REACTORS
330
2F33
102
}
330
2F33
100
AcDbXrecord
 70
     0
  0
XRECORD
  5
2F4D
102
{ACAD_REACTORS
330
2F33
102
}
330
2F33
100
AcDbXrecord
340
0
  0
XRECORD
  5
2F4E
102
{ACAD_REACTORS
330
2F33
102
}
330
2F33
100
AcDbXrecord
 10
0.0
 20
0.0
 30
0.0
  0
XRECORD
  5
2F4F
102
{ACAD_REACTORS
330
2F33
102
}
330
2F33
100
AcDbXrecord
 10
0.0
 20
0.0
 30
0.0
  0
XRECORD
  5
2F50
102
{ACAD_REACTORS
330
2F33
102
}
330
2F33
100
AcDbXrecord
 10
0.0
 20
0.0
 30
0.0
  0
XRECORD
  5
2F51
102
{ACAD_REACTORS
330
2F33
102
}
330
2F33
100
AcDbXrecord
 10
0.0
 20
0.0
 30
0.0
  0
XRECORD
  5
2F52
102
{ACAD_REACTORS
330
2F33
102
}
330
2F33
100
AcDbXrecord
 10
0.0
 20
0.0
 30
0.0
  0
XRECORD
  5
2F53
102
{ACAD_REACTORS
330
2F33
102
}
330
2F33
100
AcDbXrecord
 10
0.0
 20
0.0
 30
0.0
  0
LAYER_INDEX
  5
2F2A
102
{ACAD_REACTORS
330
2F29
102
}
330
2F29
100
AcDbIndex
 40
2452844.458055011
100
AcDbLayerIndex
  8
0
360
2F2B
 90
        0
  8
AM_0
360
2F2C
 90
       65
  8
AM_11
360
2F2D
 90
        5
  8
AM_6
360
2F2E
 90
        1
  8
AM_7
360
2F2F
 90
        2
  8
AM_5
360
2F30
 90
        4
  8
Defpoints
360
2F31
 90
        0
  0
XRECORD
  5
2D
102
{ACAD_REACTORS
330
2C
102
}
330
2C
100
AcDbXrecord
  1
VERSION
140
15.0
  1
PRODUCT
  2
AutoCAD Mechanical 2000
  0
IDBUFFER
  5
2F2B
330
0
100
AcDbIdBuffer
  0
IDBUFFER
  5
2F2C
330
0
100
AcDbIdBuffer
330
2D23
330
2D24
330
2D25
330
2D26
330
2D27
330
2D28
330
2D29
330
2D2A
330
2D2B
330
2D2C
330
2D2D
330
2D2E
330
2D2F
330
2D30
330
2D31
330
2D32
330
2D33
330
2BBD
330
2BBE
330
2BBF
330
2BC0
330
2BC1
330
2CD6
330
2CD7
330
2CD8
330
2CD9
330
2CDA
330
2CDB
330
2CDC
330
2CDD
330
2CDE
330
2CDF
330
2CE0
330
2CE1
330
2CE3
330
2CE5
330
2CE6
330
2CE7
330
2CF6
330
2D09
330
2D0A
330
2D0B
330
2D0C
330
2D0D
330
2D0E
330
2D0F
330
2D10
330
2D11
330
2D12
330
2D13
330
2D14
330
2D15
330
2D16
330
2D17
330
2D18
330
2D19
330
2D1A
330
2D1B
330
2D1C
330
2D1D
330
2D1E
330
2D1F
330
2D20
330
2D21
330
2D22
  0
IDBUFFER
  5
2F2D
330
0
100
AcDbIdBuffer
330
2CE2
330
2CE4
330
2CF7
330
2CF8
330
2CF9
  0
IDBUFFER
  5
2F2E
330
0
100
AcDbIdBuffer
330
F07
  0
IDBUFFER
  5
2F2F
330
0
100
AcDbIdBuffer
330
2D41
330
2D42
  0
IDBUFFER
  5
2F30
330
0
100
AcDbIdBuffer
330
2BB7
330
2CFA
330
2D34
330
2DC8
  0
IDBUFFER
  5
2F31
330
0
100
AcDbIdBuffer
  0
ENDSEC
  0
EOF
