  0
SECTION
  2
HEADER
  9
$ACADVER
  1
AC1014
  9
$ACADMAINTVER
 70
     9
  9
$DWGCODEPAGE
  3
ANSI_932
  9
$INSBASE
 10
0.0
 20
0.0
 30
0.0
  9
$EXTMIN
 10
-110.730567256414
 20
-51.64468720283522
 30
-0.00000001
  9
$EXTMAX
 10
18.31579047368419
 20
19.34999999999994
 30
0.00000001
  9
$LIMMIN
 10
-118.3220255378605
 20
-63.20014476363576
  9
$LIMMAX
 10
29.79800642633335
 20
25.52803032851204
  9
$ORTHOMODE
 70
     0
  9
$REGENMODE
 70
     1
  9
$FILLMODE
 70
     1
  9
$QTEXTMODE
 70
     0
  9
$MIRRTEXT
 70
     0
  9
$DRAGMODE
 70
     2
  9
$LTSCALE
 40
1.0
  9
$OSMODE
 70
  2103
  9
$ATTMODE
 70
     1
  9
$TEXTSIZE
 40
2.5
  9
$TRACEWID
 40
1.0
  9
$TEXTSTYLE
  7
ACJISGDT
  9
$CLAYER
  8
AM_0
  9
$CELTYPE
  6
BYLAYER
  9
$CECOLOR
 62
   256
  9
$CELTSCALE
 40
1.0
  9
$DELOBJ
 70
     1
  9
$DISPSILH
 70
     0
  9
$DIMSCALE
 40
1.0
  9
$DIMASZ
 40
2.5
  9
$DIMEXO
 40
1.0
  9
$DIMDLI
 40
12.0
  9
$DIMRND
 40
0.0
  9
$DIMDLE
 40
0.0
  9
$DIMEXE
 40
1.0
  9
$DIMTP
 40
0.1
  9
$DIMTM
 40
0.1
  9
$DIMTXT
 40
3.2
  9
$DIMCEN
 40
0.0
  9
$DIMTSZ
 40
0.0
  9
$DIMTOL
 70
     0
  9
$DIMLIM
 70
     0
  9
$DIMTIH
 70
     0
  9
$DIMTOH
 70
     0
  9
$DIMSE1
 70
     0
  9
$DIMSE2
 70
     0
  9
$DIMTAD
 70
     3
  9
$DIMZIN
 70
     8
  9
$DIMBLK
  1
OPEN30
  9
$DIMASO
 70
     1
  9
$DIMSHO
 70
     1
  9
$DIMPOST
  1

  9
$DIMAPOST
  1
"
  9
$DIMALT
 70
     0
  9
$DIMALTD
 70
     2
  9
$DIMALTF
 40
0.0393701
  9
$DIMLFAC
 40
1.0
  9
$DIMTOFL
 70
     1
  9
$DIMTVP
 40
0.0
  9
$DIMTIX
 70
     0
  9
$DIMSOXD
 70
     0
  9
$DIMSAH
 70
     0
  9
$DIMBLK1
  1

  9
$DIMBLK2
  1

  9
$DIMSTYLE
  2
AM_JIS
  9
$DIMCLRD
 70
   256
  9
$DIMCLRE
 70
   256
  9
$DIMCLRT
 70
     2
  9
$DIMTFAC
 40
0.71
  9
$DIMGAP
 40
1.5
  9
$DIMJUST
 70
     0
  9
$DIMSD1
 70
     0
  9
$DIMSD2
 70
     0
  9
$DIMTOLJ
 70
     0
  9
$DIMTZIN
 70
     0
  9
$DIMALTZ
 70
     0
  9
$DIMALTTZ
 70
     0
  9
$DIMFIT
 70
     3
  9
$DIMUPT
 70
     0
  9
$DIMUNIT
 70
     2
  9
$DIMDEC
 70
     3
  9
$DIMTDEC
 70
     3
  9
$DIMALTU
 70
     2
  9
$DIMALTTD
 70
     2
  9
$DIMTXSTY
  7
ASAMI
  9
$DIMAUNIT
 70
     0
  9
$LUNITS
 70
     2
  9
$LUPREC
 70
     2
  9
$SKETCHINC
 40
1.0
  9
$FILLETRAD
 40
2.5
  9
$AUNITS
 70
     0
  9
$AUPREC
 70
     0
  9
$MENU
  1
.
  9
$ELEVATION
 40
0.0
  9
$PELEVATION
 40
0.0
  9
$THICKNESS
 40
0.0
  9
$LIMCHECK
 70
     0
  9
$BLIPMODE
 70
     0
  9
$CHAMFERA
 40
0.5
  9
$CHAMFERB
 40
0.5
  9
$CHAMFERC
 40
20.0
  9
$CHAMFERD
 40
0.0
  9
$SKPOLY
 70
     0
  9
$TDCREATE
 40
2452808.461142939
  9
$TDUPDATE
 40
2452844.458498796
  9
$TDINDWG
 40
0.0391921759
  9
$TDUSRTIMER
 40
0.0391921759
  9
$USRTIMER
 70
     1
  9
$ANGBASE
 50
0.0
  9
$ANGDIR
 70
     0
  9
$PDMODE
 70
     0
  9
$PDSIZE
 40
0.0
  9
$PLINEWID
 40
0.0
  9
$COORDS
 70
     2
  9
$SPLFRAME
 70
     0
  9
$SPLINETYPE
 70
     6
  9
$SPLINESEGS
 70
     8
  9
$ATTDIA
 70
     1
  9
$ATTREQ
 70
     1
  9
$HANDLING
 70
 12289
  9
$HANDSEED
  5
1D6D
  9
$SURFTAB1
 70
     6
  9
$SURFTAB2
 70
     6
  9
$SURFTYPE
 70
     6
  9
$SURFU
 70
     6
  9
$SURFV
 70
     6
  9
$UCSNAME
  2

  9
$UCSORG
 10
0.0
 20
-0.0000000000000052
 30
0.0
  9
$UCSXDIR
 10
1.0
 20
0.0
 30
0.0
  9
$UCSYDIR
 10
0.0
 20
1.0
 30
0.0
  9
$PUCSNAME
  2

  9
$PUCSORG
 10
0.0
 20
0.0
 30
0.0
  9
$PUCSXDIR
 10
1.0
 20
0.0
 30
0.0
  9
$PUCSYDIR
 10
0.0
 20
1.0
 30
0.0
  9
$USERI1
 70
     0
  9
$USERI2
 70
     0
  9
$USERI3
 70
     0
  9
$USERI4
 70
     0
  9
$USERI5
 70
     0
  9
$USERR1
 40
0.0
  9
$USERR2
 40
0.0
  9
$USERR3
 40
0.0
  9
$USERR4
 40
0.0
  9
$USERR5
 40
0.0
  9
$WORLDVIEW
 70
     1
  9
$SHADEDGE
 70
     3
  9
$SHADEDIF
 70
    70
  9
$TILEMODE
 70
     1
  9
$MAXACTVP
 70
    64
  9
$PINSBASE
 10
0.0
 20
0.0
 30
0.0
  9
$PLIMCHECK
 70
     0
  9
$PEXTMIN
 10
1.000000000000000E+20
 20
1.000000000000000E+20
 30
1.000000000000000E+20
  9
$PEXTMAX
 10
-1.000000000000000E+20
 20
-1.000000000000000E+20
 30
-1.000000000000000E+20
  9
$PLIMMIN
 10
0.0
 20
0.0
  9
$PLIMMAX
 10
841.0
 20
594.0
  9
$UNITMODE
 70
     0
  9
$VISRETAIN
 70
     1
  9
$PLINEGEN
 70
     0
  9
$PSLTSCALE
 70
     0
  9
$TREEDEPTH
 70
  3020
  9
$PICKSTYLE
 70
     0
  9
$CMLSTYLE
  2
STANDARD
  9
$CMLJUST
 70
     0
  9
$CMLSCALE
 40
20.0
  9
$PROXYGRAPHICS
 70
     1
  9
$MEASUREMENT
 70
     1
  0
ENDSEC
  0
SECTION
  2
CLASSES
  0
CLASS
  1
ACDBDICTIONARYWDFLT
  2
AcDbDictionaryWithDefault
  3
AutoCAD 2000
 90
        0
280
     0
281
     0
  0
CLASS
  1
ACDBPLACEHOLDER
  2
AcDbPlaceHolder
  3
AutoCAD 2000
 90
        0
280
     0
281
     0
  0
CLASS
  1
LAYOUT
  2
AcDbLayout
  3
AutoCAD 2000
 90
        0
280
     0
281
     0
  0
CLASS
  1
AMGSETTINGSOBJ
  2
AmgSettingsObj
  3
"AcadM|Product Description: AutoCAD Mechanical 2000|Company: Autodesk"
 90
        0
280
     0
281
     0
  0
CLASS
  1
ACME_DOCUMENT
  2
AcMeDbDoc
  3
AcMeServices
 90
        0
280
     0
281
     0
  0
CLASS
  1
ACMESCOPE
  2
AcMeScope
  3
AcMeServices
 90
        0
280
     0
281
     0
  0
CLASS
  1
ACMECOMMANDHISTORY
  2
AcMeCommandHistory
  3
AcMeServices
 90
        0
280
     0
281
     0
  0
CLASS
  1
DICTIONARYVAR
  2
AcDbDictionaryVar
  3
AutoCAD 2000
 90
        0
280
     0
281
     0
  0
CLASS
  1
ACIMSYSVARMAN
  2
AcImSysVarManager
  3
AcMeServices
 90
        0
280
     0
281
     0
  0
CLASS
  1
ACIMREALSYSVAR
  2
AcImRealSysVar
  3
AcMeServices
 90
        0
280
     0
281
     0
  0
CLASS
  1
ACIMINTSYSVAR
  2
AcImIntSysVar
  3
AcMeServices
 90
        0
280
     0
281
     0
  0
CLASS
  1
ACMEDRAWINGMAN
  2
AcMeDrawingMan
  3
AcMeServices
 90
        0
280
     0
281
     0
  0
CLASS
  1
ACMEVIEW
  2
AcMeView
  3
AcMeServices
 90
        0
280
     0
281
     0
  0
CLASS
  1
ACDBENTITYCACHE
  2
AcMeEntityCache
  3
AcMeServices
 90
        0
280
     0
281
     0
  0
CLASS
  1
GSMANAGER
  2
AcMeGSManager
  3
AcMeServices
 90
        0
280
     0
281
     0
  0
CLASS
  1
AmdtInternalReactor
  2
AmdtInternalReactor
  3
AcMeServices
 90
        0
280
     0
281
     0
  0
CLASS
  1
ACMESTATEMGR
  2
AcMeStateMgr
  3
AcMeServices
 90
        0
280
     0
281
     0
  0
CLASS
  1
ACME_DATABASE
  2
AcMeDbDatabase
  3
AcMeServices
 90
        0
280
     0
281
     0
  0
CLASS
  1
ACRFINSADJUSTERMGR
  2
AcRfInsAdjusterMgr
  3
AcMeServices
 90
        0
280
     0
281
     0
  0
CLASS
  1
ACMDATADICTIONARY
  2
AcmDataDictionary
  3
"AcmSymBB|Product Description: AutoCAD Mechanical 2000|Company: Autodesk"
 90
        0
280
     0
281
     0
  0
CLASS
  1
ACMDATAENTRYBLOCK
  2
AcmDataEntryBlock
  3
"AcmSymBB|Product Description: AutoCAD Mechanical 2000|Company: Autodesk"
 90
        0
280
     0
281
     0
  0
CLASS
  1
AMGOBJPROPCFG
  2
AmgObjPropCfg
  3
"AmgLay|Product Description: AutoCAD Mechanical 2000|Company: Autodesk"
 90
        1
280
     0
281
     0
  0
CLASS
  1
ACAMGFILTERDAT
  2
AcAmgFilterDat
  3
"AcadM|Product Description: AutoCAD Mechanical 2000|Company: Autodesk"
 90
        0
280
     0
281
     0
  0
CLASS
  1
LAYER_INDEX
  2
AcDbLayerIndex
  3
AutoCAD 2000
 90
        0
280
     0
281
     0
  0
CLASS
  1
IDBUFFER
  2
AcDbIdBuffer
  3
AutoCAD 2000
 90
        0
280
     0
281
     0
  0
CLASS
  1
ACIMSTRSYSVAR
  2
AcImStrSysVar
  3
AcMeServices
 90
        0
280
     0
281
     0
  0
CLASS
  1
ACMSTANDARDJIS
  2
AcmStandardJIS
  3
"AcmSymBB|Product Description: AutoCAD Mechanical 2000|Company: Autodesk"
 90
        0
280
     0
281
     0
  0
CLASS
  1
ACMSURFSTANDARDJIS
  2
AcmSurfTextStdJIS
  3
"AcmSymBB|Product Description: AutoCAD Mechanical 2000|Company: Autodesk"
 90
        0
280
     0
281
     0
  0
CLASS
  1
ACMFCFSTANDARDJIS
  2
AcmFCFStdJIS
  3
"AcmSymBB|Product Description: AutoCAD Mechanical 2000|Company: Autodesk"
 90
        0
280
     0
281
     0
  0
CLASS
  1
ACMWELDSTANDARDJIS
  2
AcmWeldingStdJIS
  3
"AcmSymBB|Product Description: AutoCAD Mechanical 2000|Company: Autodesk"
 90
        0
280
     0
281
     0
  0
CLASS
  1
ACMIDSTANDARDJIS
  2
AcmIdStdJIS
  3
"AcmSymBB|Product Description: AutoCAD Mechanical 2000|Company: Autodesk"
 90
        0
280
     0
281
     0
  0
CLASS
  1
ACMDATUMSTANDARDJIS
  2
AcmDatumStdJIS
  3
"AcmSymBB|Product Description: AutoCAD Mechanical 2000|Company: Autodesk"
 90
        0
280
     0
281
     0
  0
CLASS
  1
ACMBOMSTANDARDJIS
  2
AcmBOMStdJIS
  3
"AcmSymBB|Product Description: AutoCAD Mechanical 2000|Company: Autodesk"
 90
        0
280
     0
281
     0
  0
CLASS
  1
ACMSTANDARDANSI
  2
AcmStandardANSI
  3
"AcmSymBB|Product Description: AutoCAD Mechanical 2000|Company: Autodesk"
 90
        0
280
     0
281
     0
  0
CLASS
  1
ACMSURFSTANDARDANSI
  2
AcmSurfTextStdANSI
  3
"AcmSymBB|Product Description: AutoCAD Mechanical 2000|Company: Autodesk"
 90
        0
280
     0
281
     0
  0
CLASS
  1
ACMFCFSTANDARDANSI
  2
AcmFCFStdANSI
  3
"AcmSymBB|Product Description: AutoCAD Mechanical 2000|Company: Autodesk"
 90
        0
280
     0
281
     0
  0
CLASS
  1
ACMWELDSTANDARDANSI
  2
AcmWeldingStdANSI
  3
"AcmSymBB|Product Description: AutoCAD Mechanical 2000|Company: Autodesk"
 90
        0
280
     0
281
     0
  0
CLASS
  1
ACMIDSTANDARDANSI
  2
AcmIdStdANSI
  3
"AcmSymBB|Product Description: AutoCAD Mechanical 2000|Company: Autodesk"
 90
        0
280
     0
281
     0
  0
CLASS
  1
ACMDATUMSTANDARDANSI
  2
AcmDatumStdANSI
  3
"AcmSymBB|Product Description: AutoCAD Mechanical 2000|Company: Autodesk"
 90
        0
280
     0
281
     0
  0
CLASS
  1
ACMBOMSTANDARDANSI
  2
AcmBOMStdANSI
  3
"AcmSymBB|Product Description: AutoCAD Mechanical 2000|Company: Autodesk"
 90
        0
280
     0
281
     0
  0
CLASS
  1
ACMSTANDARDBSI
  2
AcmStandardBSI
  3
"AcmSymBB|Product Description: AutoCAD Mechanical 2000|Company: Autodesk"
 90
        0
280
     0
281
     0
  0
CLASS
  1
ACMSURFSTANDARDBSI
  2
AcmSurfTextStdBSI
  3
"AcmSymBB|Product Description: AutoCAD Mechanical 2000|Company: Autodesk"
 90
        0
280
     0
281
     0
  0
CLASS
  1
ACMFCFSTANDARDBSI
  2
AcmFCFStdBSI
  3
"AcmSymBB|Product Description: AutoCAD Mechanical 2000|Company: Autodesk"
 90
        0
280
     0
281
     0
  0
CLASS
  1
ACMWELDSTANDARDBSI
  2
AcmWeldingStdBSI
  3
"AcmSymBB|Product Description: AutoCAD Mechanical 2000|Company: Autodesk"
 90
        0
280
     0
281
     0
  0
CLASS
  1
ACMIDSTANDARDBSI
  2
AcmIdStdBSI
  3
"AcmSymBB|Product Description: AutoCAD Mechanical 2000|Company: Autodesk"
 90
        0
280
     0
281
     0
  0
CLASS
  1
ACMDATUMSTANDARDBSI
  2
AcmDatumStdBSI
  3
"AcmSymBB|Product Description: AutoCAD Mechanical 2000|Company: Autodesk"
 90
        0
280
     0
281
     0
  0
CLASS
  1
ACMBOMSTANDARDBSI
  2
AcmBOMStdBSI
  3
"AcmSymBB|Product Description: AutoCAD Mechanical 2000|Company: Autodesk"
 90
        0
280
     0
281
     0
  0
CLASS
  1
LONG_TRANSACTION
  2
AcDbLongTransaction
  3
AutoCAD 2000
 90
        0
280
     0
281
     0
  0
CLASS
  1
LWPOLYLINE
  2
AcDbPolyline
  3
AutoCAD 2000
 90
        0
280
     0
281
     1
  0
CLASS
  1
HATCH
  2
AcDbHatch
  3
AutoCAD 2000
 90
        0
280
     0
281
     1
  0
CLASS
  1
XRECORD
  2
AcDbXrecord
  3
AutoCAD 2000
 90
        0
280
     0
281
     0
  0
ENDSEC
  0
SECTION
  2
TABLES
  0
TABLE
  2
VPORT
  5
8
330
0
100
AcDbSymbolTable
 70
     3
  0
VPORT
  5
1D42
330
8
100
AcDbSymbolTableRecord
100
AcDbViewportTableRecord
  2
*ACTIVE
 70
     0
 10
0.0
 20
0.0
 11
1.0
 21
1.0
 12
-46.20890668870171
 22
-16.14894647115678
 13
0.0
 23
0.0
 14
2.5
 24
2.5
 15
10.0
 25
10.0
 16
0.0
 26
0.0
 36
1.0
 17
0.0
 27
0.0
 37
0.0
 40
82.75570878759795
 41
1.56570841889117
 42
50.0
 43
0.0
 44
0.0
 50
0.0
 51
0.0
 71
     0
 72
   100
 73
     1
 74
     3
 75
     0
 76
     0
 77
     0
 78
     0
  0
ENDTAB
  0
TABLE
  2
LTYPE
  5
5
330
0
100
AcDbSymbolTable
 70
    10
  0
LTYPE
  5
14
330
5
100
AcDbSymbolTableRecord
100
AcDbLinetypeTableRecord
  2
BYBLOCK
 70
     0
  3

 72
    65
 73
     0
 40
0.0
  0
LTYPE
  5
15
330
5
100
AcDbSymbolTableRecord
100
AcDbLinetypeTableRecord
  2
BYLAYER
 70
     0
  3

 72
    65
 73
     0
 40
0.0
  0
LTYPE
  5
16
330
5
100
AcDbSymbolTableRecord
100
AcDbLinetypeTableRecord
  2
CONTINUOUS
 70
     0
  3
Solid line
 72
    65
 73
     0
 40
0.0
  0
LTYPE
  5
4B
330
5
100
AcDbSymbolTableRecord
100
AcDbLinetypeTableRecord
  2
AM_ISO02W050
 70
     0
  3
__ __ __ __ __ __ __ __ __ __ __ __ __ __ __
 72
    65
 73
     2
 40
7.5
 49
6.0
 74
     0
 49
-1.5
 74
     0
  0
LTYPE
  5
4C
330
5
100
AcDbSymbolTableRecord
100
AcDbLinetypeTableRecord
  2
AM_ISO08W050
 70
     0
  3
____ . ____ . ____ . ____ . ____ . ____ . ____
 72
    65
 73
     4
 40
18.0
 49
12.0
 74
     0
 49
-1.5
 74
     0
 49
3.0
 74
     0
 49
-1.5
 74
     0
  0
LTYPE
  5
4D
330
5
100
AcDbSymbolTableRecord
100
AcDbLinetypeTableRecord
  2
AM_ISO09W050
 70
     0
  3
_____ . . _____ . . _____ . . ____ .. ____
 72
    65
 73
     6
 40
22.5
 49
12.0
 74
     0
 49
-1.5
 74
     0
 49
3.0
 74
     0
 49
-1.5
 74
     0
 49
3.0
 74
     0
 49
-1.5
 74
     0
  0
LTYPE
  5
4E
330
5
100
AcDbSymbolTableRecord
100
AcDbLinetypeTableRecord
  2
AMCONSTR
 70
     0
  3
_______________________
 72
    65
 73
     2
 40
9999.0
 49
9999.0
 74
     0
 49
0.0
 74
     0
  0
LTYPE
  5
4F
330
5
100
AcDbSymbolTableRecord
100
AcDbLinetypeTableRecord
  2
AM_ISO02W050X2
 70
     0
  3
 _ _ _ _ _ _ _ _ _ _ _ _
 72
    65
 73
     2
 40
3.75
 49
3.0
 74
     0
 49
-0.75
 74
     0
  0
LTYPE
  5
50
330
5
100
AcDbSymbolTableRecord
100
AcDbLinetypeTableRecord
  2
AM_ISO08W050X2
 70
     0
  3
__ . __ . __ . __ . __ . __
 72
    65
 73
     4
 40
9.0
 49
6.0
 74
     0
 49
-0.75
 74
     0
 49
1.5
 74
     0
 49
-0.75
 74
     0
  0
LTYPE
  5
53
330
5
100
AcDbSymbolTableRecord
100
AcDbLinetypeTableRecord
  2
AMZIGZAG
 70
     0
  3
/\/-/\/-/\/-/\/-/\/-/\/
 72
    65
 73
     2
 40
11.00009999999999
 49
0.0001
 74
     4
 75
   135
340
52
 46
0.04
 50
0.0
 44
0.0
 45
0.0
 49
-11.0
 74
     0
  0
LTYPE
  5
166
330
5
100
AcDbSymbolTableRecord
100
AcDbLinetypeTableRecord
  2
ACJISTGL
 70
     0
  3
_ _ _ _ _
 72
    65
 73
     2
 40
3.0
 49
2.0
 74
     0
 49
-1.0
 74
     0
  0
LTYPE
  5
26A
330
5
100
AcDbSymbolTableRecord
100
AcDbLinetypeTableRecord
  2
ACJISTGB
 70
     0
  3
__ . . __ . .
 72
    65
 73
     6
 40
9.0
 49
4.0
 74
     0
 49
-1.0
 74
     0
 49
1.0
 74
     0
 49
-1.0
 74
     0
 49
1.0
 74
     0
 49
-1.0
 74
     0
  0
ENDTAB
  0
TABLE
  2
LAYER
  5
2
330
0
100
AcDbSymbolTable
 70
     7
  0
LAYER
  5
10
330
2
100
AcDbSymbolTableRecord
100
AcDbLayerTableRecord
  2
0
 70
     0
 62
     7
  6
CONTINUOUS
  0
LAYER
  5
3F9
330
2
100
AcDbSymbolTableRecord
100
AcDbLayerTableRecord
  2
AM_0
 70
     0
 62
     7
  6
CONTINUOUS
  0
LAYER
  5
BA4
330
2
100
AcDbSymbolTableRecord
100
AcDbLayerTableRecord
  2
AM_11
 70
     0
 62
     3
  6
AM_ISO09W050
  0
LAYER
  5
BA6
330
2
100
AcDbSymbolTableRecord
100
AcDbLayerTableRecord
  2
AM_6
 70
     0
 62
     2
  6
CONTINUOUS
  0
LAYER
  5
BA7
330
2
100
AcDbSymbolTableRecord
100
AcDbLayerTableRecord
  2
AM_7
 70
     0
 62
     4
  6
AM_ISO08W050
  0
LAYER
  5
D0E
330
2
100
AcDbSymbolTableRecord
100
AcDbLayerTableRecord
  2
AM_5
 70
     0
 62
     3
  6
CONTINUOUS
  0
LAYER
  5
FE8
330
2
100
AcDbSymbolTableRecord
100
AcDbLayerTableRecord
  2
DEFPOINTS
 70
     0
 62
     7
  6
CONTINUOUS
  0
ENDTAB
  0
TABLE
  2
STYLE
  5
3
330
0
100
AcDbSymbolTable
 70
     5
  0
STYLE
  5
11
330
3
100
AcDbSymbolTableRecord
100
AcDbTextStyleTableRecord
  2
STANDARD
 70
     0
 40
0.0
 41
1.0
 50
0.0
 71
     0
 42
2.5
  3
simplex.shx
  4
EXTFONT.SHX
  0
STYLE
  5
52
330
3
100
AcDbSymbolTableRecord
100
AcDbTextStyleTableRecord
  2

 70
     1
 40
0.0
 41
1.0
 50
0.0
 71
     0
 42
2.5
  3
ltypeshp.shx
  4

  0
STYLE
  5
6B
330
3
100
AcDbSymbolTableRecord
100
AcDbTextStyleTableRecord
  2
ASAMI
 70
     0
 40
0.0
 41
1.0
 50
0.0
 71
     0
 42
2.5
  3
simplex.shx
  4
EXTFONT.SHX
  0
STYLE
  5
262
330
3
100
AcDbSymbolTableRecord
100
AcDbTextStyleTableRecord
  2
ACJISTS
 70
     0
 40
1.0
 41
1.0
 50
0.0
 71
     0
 42
2.5
  3
simplex.shx
  4
bigfont.shx
  0
STYLE
  5
269
330
3
100
AcDbSymbolTableRecord
100
AcDbTextStyleTableRecord
  2
ACJISGDT
 70
     0
 40
0.0
 41
1.0
 50
0.0
 71
     0
 42
2.5
  3
amgdtans.shx
  4

  0
ENDTAB
  0
TABLE
  2
VIEW
  5
6
330
0
100
AcDbSymbolTable
 70
     0
  0
ENDTAB
  0
TABLE
  2
UCS
  5
7
330
0
100
AcDbSymbolTable
 70
     0
  0
ENDTAB
  0
TABLE
  2
APPID
  5
9
330
0
100
AcDbSymbolTable
 70
    12
  0
APPID
  5
12
330
9
100
AcDbSymbolTableRecord
100
AcDbRegAppTableRecord
  2
ACAD
 70
     0
  0
APPID
  5
30
330
9
100
AcDbSymbolTableRecord
100
AcDbRegAppTableRecord
  2
MCAD_NO_VIS
 70
     0
  0
APPID
  5
31
330
9
100
AcDbSymbolTableRecord
100
AcDbRegAppTableRecord
  2
ACAD_TEMP_GRAPHIC
 70
     0
  0
APPID
  5
2C2
330
9
100
AcDbSymbolTableRecord
100
AcDbRegAppTableRecord
  2
GENIUS_GENDTOL_13
 70
     0
  0
APPID
  5
339
330
9
100
AcDbSymbolTableRecord
100
AcDbRegAppTableRecord
  2
GENIUS_GENODEF_13
 70
     0
  0
APPID
  5
33A
330
9
100
AcDbSymbolTableRecord
100
AcDbRegAppTableRecord
  2
GENIUS_GENOBJ-N-RSBK_13
 70
     0
  0
APPID
  5
33B
330
9
100
AcDbSymbolTableRecord
100
AcDbRegAppTableRecord
  2
GENIUS_GENOBJ-N-LIB_13
 70
     0
  0
APPID
  5
33C
330
9
100
AcDbSymbolTableRecord
100
AcDbRegAppTableRecord
  2
GENIUS_GENSCALE_13
 70
     0
  0
APPID
  5
378
330
9
100
AcDbSymbolTableRecord
100
AcDbRegAppTableRecord
  2
GENIUS_GENDIMSH_14
 70
     0
  0
APPID
  5
BA8
330
9
100
AcDbSymbolTableRecord
100
AcDbRegAppTableRecord
  2
GENIUS_GENOBJ-N-CEN_13
 70
     0
  0
APPID
  5
EE8
330
9
100
AcDbSymbolTableRecord
100
AcDbRegAppTableRecord
  2
GENIUS_GENFIL_13
 70
     0
  0
APPID
  5
EE9
330
9
100
AcDbSymbolTableRecord
100
AcDbRegAppTableRecord
  2
GENIUS_GENOBJ-N-CHA_13
 70
     0
  0
ENDTAB
  0
TABLE
  2
DIMSTYLE
  5
A
330
0
100
AcDbSymbolTable
 70
     8
  0
DIMSTYLE
105
58
102
{ACAD_REACTORS
330
1A6D
330
1BA9
330
1BE2
330
1BF0
102
}
330
A
100
AcDbSymbolTableRecord
100
AcDbDimStyleTableRecord
  2
AM_JIS
 70
     0
  3

  4
"
  5
OPEN30
  6

  7

 40
1.0
 41
2.5
 42
1.0
 43
12.0
 44
1.0
 45
0.0
 46
0.0
 47
0.1
 48
0.1
140
3.2
141
0.0
142
0.0
143
0.0393701
144
1.0
145
0.0
146
0.71
147
1.5
 71
     0
 72
     0
 73
     0
 74
     0
 75
     0
 76
     0
 77
     3
 78
     8
170
     0
171
     2
172
     1
173
     0
174
     0
175
     0
176
   256
177
   256
178
     2
270
     2
271
     3
272
     3
273
     2
274
     2
340
6B
275
     0
280
     0
281
     0
282
     0
283
     0
284
     0
285
     0
286
     0
287
     3
288
     0
  0
DIMSTYLE
105
5F
330
A
100
AcDbSymbolTableRecord
100
AcDbDimStyleTableRecord
  2
AM_JIS$3
 70
     0
  3

  4
"
  5
OPEN30
  6

  7

 40
1.0
 41
2.5
 42
1.0
 43
10.0
 44
1.0
 45
0.0
 46
0.0
 47
0.1
 48
0.1
140
3.2
141
0.0
142
0.0
143
0.0393701
144
1.0
145
0.0
146
0.71
147
1.5
 71
     0
 72
     0
 73
     0
 74
     1
 75
     0
 76
     0
 77
     3
 78
     8
170
     0
171
     2
172
     0
173
     0
174
     0
175
     0
176
   256
177
   256
178
     2
270
     2
271
     2
272
     3
273
     2
274
     2
340
6B
275
     0
280
     0
281
     0
282
     0
283
     0
284
     0
285
     0
286
     0
287
     0
288
     1
  0
DIMSTYLE
105
60
330
A
100
AcDbSymbolTableRecord
100
AcDbDimStyleTableRecord
  2
AM_JIS$4
 70
     0
  3

  4
"
  5
OPEN30
  6

  7

 40
1.0
 41
2.5
 42
1.0
 43
10.0
 44
1.0
 45
0.0
 46
0.0
 47
0.1
 48
0.1
140
3.2
141
0.0
142
0.0
143
0.0393701
144
1.0
145
0.0
146
0.71
147
1.5
 71
     0
 72
     0
 73
     0
 74
     1
 75
     0
 76
     0
 77
     3
 78
     8
170
     0
171
     2
172
     0
173
     0
174
     0
175
     0
176
   256
177
   256
178
     2
270
     2
271
     2
272
     3
273
     2
274
     2
340
6B
275
     0
280
     0
281
     0
282
     0
283
     0
284
     0
285
     0
286
     0
287
     0
288
     1
  0
DIMSTYLE
105
61
330
A
100
AcDbSymbolTableRecord
100
AcDbDimStyleTableRecord
  2
AM_JIS$6
 70
     0
  3

  4
"
  5
OPEN30
  6

  7

 40
1.0
 41
2.5
 42
1.0
 43
10.0
 44
1.0
 45
0.0
 46
0.0
 47
0.1
 48
0.1
140
3.2
141
0.0
142
0.0
143
0.0393701
144
1.0
145
0.0
146
0.71
147
1.5
 71
     0
 72
     0
 73
     0
 74
     0
 75
     0
 76
     0
 77
     0
 78
     8
170
     0
171
     2
172
     1
173
     0
174
     0
175
     0
176
   256
177
   256
178
     2
270
     2
271
     2
272
     2
273
     2
274
     2
340
6B
275
     0
280
     0
281
     0
282
     0
283
     0
284
     0
285
     0
286
     0
287
     3
288
     0
  0
DIMSTYLE
105
62
330
A
100
AcDbSymbolTableRecord
100
AcDbDimStyleTableRecord
  2
AM_JIS$7
 70
     0
  3

  4
"
  5
OPEN30
  6

  7

 40
1.0
 41
2.5
 42
1.0
 43
10.0
 44
1.0
 45
0.0
 46
0.0
 47
0.1
 48
0.1
140
3.2
141
0.0
142
0.0
143
0.0393701
144
1.0
145
0.0
146
0.71
147
1.5
 71
     0
 72
     0
 73
     0
 74
     0
 75
     0
 76
     0
 77
     3
 78
     8
170
     0
171
     2
172
     1
173
     0
174
     0
175
     0
176
   256
177
   256
178
     2
270
     2
271
     2
272
     3
273
     2
274
     2
340
6B
275
     0
280
     0
281
     0
282
     0
283
     0
284
     0
285
     0
286
     0
287
     3
288
     0
  0
DIMSTYLE
105
63
330
A
100
AcDbSymbolTableRecord
100
AcDbDimStyleTableRecord
  2
AM_JIS$SF
 70
     0
  3

  4
"
  5
OPEN30
  6

  7

 40
1.0
 41
2.5
 42
1.0
 43
10.0
 44
1.0
 45
0.0
 46
0.0
 47
0.1
 48
0.1
140
3.2
141
0.0
142
0.0
143
0.0393701
144
1.0
145
0.0
146
0.71
147
1.5
 71
     0
 72
     0
 73
     0
 74
     0
 75
     1
 76
     1
 77
     3
 78
     8
170
     0
171
     2
172
     1
173
     0
174
     0
175
     0
176
   256
177
   256
178
     2
270
     2
271
     2
272
     2
273
     2
274
     2
340
6B
275
     0
280
     0
281
     0
282
     0
283
     0
284
     0
285
     0
286
     0
287
     3
288
     0
  0
DIMSTYLE
105
68
330
A
100
AcDbSymbolTableRecord
100
AcDbDimStyleTableRecord
  2
AM_JIS$SH
 70
     0
  3

  4
"
  5

  6
GENAXEH
  7
OPEN30
 40
1.0
 41
2.5
 42
1.0
 43
10.0
 44
1.0
 45
0.0
 46
0.0
 47
0.1
 48
0.1
140
3.2
141
0.0
142
0.0
143
0.0393701
144
2.0
145
0.0
146
0.71
147
1.5
 71
     0
 72
     0
 73
     0
 74
     0
 75
     1
 76
     1
 77
     3
 78
     8
170
     0
171
     2
172
     1
173
     1
174
     0
175
     0
176
   256
177
   256
178
     2
270
     2
271
     2
272
     2
273
     2
274
     2
340
6B
275
     0
280
     0
281
     0
282
     0
283
     0
284
     0
285
     0
286
     0
287
     3
288
     0
  0
DIMSTYLE
105
B34
330
A
100
AcDbSymbolTableRecord
100
AcDbDimStyleTableRecord
  2
AM_JIS$2
 70
     0
  3

  4
"
  5
OPEN30
  6

  7

 40
1.0
 41
2.5
 42
1.0
 43
12.0
 44
1.0
 45
0.0
 46
0.0
 47
0.1
 48
0.1
140
3.2
141
0.0
142
0.0
143
0.0393701
144
1.0
145
0.0
146
0.71
147
1.5
 71
     0
 72
     0
 73
     0
 74
     0
 75
     0
 76
     0
 77
     3
 78
     8
170
     0
171
     2
172
     1
173
     0
174
     0
175
     0
176
   256
177
   256
178
     2
270
     2
271
     3
272
     3
273
     2
274
     2
340
6B
275
     0
280
     0
281
     0
282
     0
283
     0
284
     0
285
     0
286
     0
287
     3
288
     0
  0
ENDTAB
  0
TABLE
  2
BLOCK_RECORD
  5
1
330
0
100
AcDbSymbolTable
 70
     9
  0
BLOCK_RECORD
  5
1F
102
{ACAD_XDICTIONARY
360
74
102
}
330
1
100
AcDbSymbolTableRecord
100
AcDbBlockTableRecord
  2
*MODEL_SPACE
  0
BLOCK_RECORD
  5
101
102
{ACAD_XDICTIONARY
360
1D6B
102
}
330
1
100
AcDbSymbolTableRecord
100
AcDbBlockTableRecord
  2
*PAPER_SPACE
  0
BLOCK_RECORD
  5
59
330
1
100
AcDbSymbolTableRecord
100
AcDbBlockTableRecord
  2
_OPEN30
  0
BLOCK_RECORD
  5
64
330
1
100
AcDbSymbolTableRecord
100
AcDbBlockTableRecord
  2
GENAXEH
  0
BLOCK_RECORD
  5
1AD2
330
1
100
AcDbSymbolTableRecord
100
AcDbBlockTableRecord
  2
*D5
  0
BLOCK_RECORD
  5
1BAA
330
1
100
AcDbSymbolTableRecord
100
AcDbBlockTableRecord
  2
*D6
  0
BLOCK_RECORD
  5
1BE3
330
1
100
AcDbSymbolTableRecord
100
AcDbBlockTableRecord
  2
*D7
  0
BLOCK_RECORD
  5
1BF1
330
1
100
AcDbSymbolTableRecord
100
AcDbBlockTableRecord
  2
*D8
  0
ENDTAB
  0
ENDSEC
  0
SECTION
  2
BLOCKS
  0
BLOCK
  5
20
330
1F
100
AcDbEntity
  8
0
100
AcDbBlockBegin
  2
*MODEL_SPACE
 70
     0
 10
0.0
 20
0.0
 30
0.0
  3
*MODEL_SPACE
  1

  0
ENDBLK
  5
21
330
1F
100
AcDbEntity
  8
0
100
AcDbBlockEnd
  0
BLOCK
  5
103
330
101
100
AcDbEntity
 67
     1
  8
0
100
AcDbBlockBegin
  2
*PAPER_SPACE
 70
     0
 10
0.0
 20
0.0
 30
0.0
  3
*PAPER_SPACE
  1

  0
ENDBLK
  5
104
330
101
100
AcDbEntity
 67
     1
  8
0
100
AcDbBlockEnd
  0
BLOCK
  5
5D
330
59
100
AcDbEntity
  8
0
100
AcDbBlockBegin
  2
_OPEN30
 70
     0
 10
0.0
 20
0.0
 30
0.0
  3
_OPEN30
  1

  0
LINE
  5
5A
330
59
100
AcDbEntity
  8
0
 62
     0
100
AcDbLine
 10
-1.0
 20
0.26794919
 30
0.0
 11
0.0
 21
0.0
 31
0.0
  0
LINE
  5
5B
330
59
100
AcDbEntity
  8
0
 62
     0
100
AcDbLine
 10
0.0
 20
0.0
 30
0.0
 11
-1.0
 21
-0.26794919
 31
0.0
  0
LINE
  5
5C
330
59
100
AcDbEntity
  8
0
 62
     0
100
AcDbLine
 10
0.0
 20
0.0
 30
0.0
 11
-1.0
 21
0.0
 31
0.0
  0
ENDBLK
  5
5E
330
59
100
AcDbEntity
  8
0
100
AcDbBlockEnd
  0
BLOCK
  5
66
330
64
100
AcDbEntity
  8
0
100
AcDbBlockBegin
  2
GENAXEH
 70
     0
 10
0.0
 20
0.0
 30
0.0
  3
GENAXEH
  1

  0
LINE
  5
65
330
64
100
AcDbEntity
  8
0
100
AcDbLine
 10
-1.0
 20
0.0
 30
0.0
 11
1.0
 21
0.0
 31
0.0
  0
ENDBLK
  5
67
330
64
100
AcDbEntity
  8
0
100
AcDbBlockEnd
  0
BLOCK
  5
1ADE
330
1AD2
100
AcDbEntity
  8
0
100
AcDbBlockBegin
  2
*D5
 70
     1
 10
0.0
 20
0.0
 30
0.0
  3
*D5
  1

  0
LINE
  5
1B02
330
1AD2
100
AcDbEntity
  8
AM_5
100
AcDbLine
 10
-90.6562500000056
 20
-5.000000000000018
 30
0.0
 11
-107.030567256414
 21
-5.000000000000014
 31
0.0
  0
LINE
  5
1B03
330
1AD2
100
AcDbEntity
  8
AM_5
100
AcDbLine
 10
-90.6562500000056
 20
4.999999999999968
 30
0.0
 11
-107.030567256414
 21
4.999999999999973
 31
0.0
  0
LINE
  5
1B04
330
1AD2
100
AcDbEntity
  8
AM_5
100
AcDbLine
 10
-106.030567256414
 20
-7.500000000000014
 30
0.0
 11
-106.030567256414
 21
-10.00000000000001
 31
0.0
  0
LINE
  5
1B05
330
1AD2
100
AcDbEntity
  8
AM_5
100
AcDbLine
 10
-106.030567256414
 20
7.499999999999973
 30
0.0
 11
-106.030567256414
 21
9.999999999999973
 31
0.0
  0
LINE
  5
1B06
330
1AD2
100
AcDbEntity
  8
AM_5
100
AcDbLine
 10
-106.030567256414
 20
-5.000000000000014
 30
0.0
 11
-106.030567256414
 21
4.999999999999973
 31
0.0
  0
INSERT
  5
1B07
330
1AD2
100
AcDbEntity
  8
AM_5
100
AcDbBlockReference
  2
_OPEN30
 10
-106.030567256414
 20
-5.000000000000014
 30
0.0
 41
2.5
 42
2.5
 43
2.5
 50
90.0
  0
INSERT
  5
1B08
330
1AD2
100
AcDbEntity
  8
AM_5
100
AcDbBlockReference
  2
_OPEN30
 10
-106.030567256414
 20
4.999999999999973
 30
0.0
 41
2.5
 42
2.5
 43
2.5
 50
270.0
  0
MTEXT
  5
1B09
330
1AD2
100
AcDbEntity
  8
AM_5
 62
     2
100
AcDbMText
 10
-109.130567256414
 20
-0.3790291664107123
 30
0.0
 40
3.2
 41
0.0
 71
     5
 72
     1
  1
%%c10
  7
ASAMI
 11
0.0000000000000001
 21
1.0
 31
0.0
1001
ACAD
1000
MTEXTBEGIN
1070
    73
1070
     1
1070
    44
1040
1.0
1070
    74
1070
     0
1000
MTEXTEND
  0
POINT
  5
1B0A
330
1AD2
100
AcDbEntity
  8
DEFPOINTS
 62
     0
100
AcDbPoint
 10
-89.6562500000056
 20
-5.000000000000019
 30
0.0
  0
POINT
  5
1B0B
330
1AD2
100
AcDbEntity
  8
DEFPOINTS
 62
     0
100
AcDbPoint
 10
-89.6562500000056
 20
4.999999999999968
 30
0.0
  0
POINT
  5
1B0C
330
1AD2
100
AcDbEntity
  8
DEFPOINTS
 62
     0
100
AcDbPoint
 10
-106.030567256414
 20
4.999999999999973
 30
0.0
  0
ENDBLK
  5
1ADF
330
1AD2
100
AcDbEntity
  8
0
100
AcDbBlockEnd
  0
BLOCK
  5
1BB5
330
1BAA
100
AcDbEntity
  8
0
100
AcDbBlockBegin
  2
*D6
 70
     1
 10
0.0
 20
0.0
 30
0.0
  3
*D6
  1

  0
LINE
  5
1C00
330
1BAA
100
AcDbEntity
  8
AM_5
100
AcDbLine
 10
0.9999999999951603
 20
-4.250000001190085
 30
0.0
 11
18.31579047368419
 21
-4.25000000119009
 31
0.0
  0
LINE
  5
1C01
330
1BAA
100
AcDbEntity
  8
AM_5
100
AcDbLine
 10
0.9999999999999992
 20
4.249999999999946
 30
0.0
 11
18.31579047368419
 21
4.249999999999941
 31
0.0
  0
LINE
  5
1C02
330
1BAA
100
AcDbEntity
  8
AM_5
100
AcDbLine
 10
17.31579047368419
 20
-1.750000001190089
 30
0.0
 11
17.31579047368419
 21
1.749999999999942
 31
0.0
  0
LINE
  5
1C03
330
1BAA
100
AcDbEntity
  8
AM_5
100
AcDbLine
 10
17.31579047368419
 20
4.249999999999942
 30
0.0
 11
17.3157904736842
 21
19.34999999999994
 31
0.0
  0
INSERT
  5
1C04
330
1BAA
100
AcDbEntity
  8
AM_5
100
AcDbBlockReference
  2
_OPEN30
 10
17.31579047368419
 20
-4.250000001190089
 30
0.0
 41
2.5
 42
2.5
 43
2.5
 50
270.0
  0
INSERT
  5
1C05
330
1BAA
100
AcDbEntity
  8
AM_5
100
AcDbBlockReference
  2
_OPEN30
 10
17.31579047368419
 20
4.249999999999942
 30
0.0
 41
2.5
 42
2.5
 43
2.5
 50
90.0
  0
MTEXT
  5
1C06
330
1BAA
100
AcDbEntity
  8
AM_5
 62
     2
100
AcDbMText
 10
14.21579047368419
 20
13.04999999999994
 30
0.0
 40
3.2
 41
0.0
 71
     5
 72
     1
  1
%%c8.5
  7
ASAMI
 11
0.0000000000000001
 21
1.0
 31
0.0
1001
ACAD
1000
MTEXTBEGIN
1070
    73
1070
     1
1070
    44
1040
1.0
1070
    74
1070
     0
1000
MTEXTEND
  0
POINT
  5
1C07
330
1BAA
100
AcDbEntity
  8
DEFPOINTS
 62
     0
100
AcDbPoint
 10
-0.0000000000048396
 20
-4.250000001190085
 30
0.0
  0
POINT
  5
1C08
330
1BAA
100
AcDbEntity
  8
DEFPOINTS
 62
     0
100
AcDbPoint
 10
-0.0000000000000006
 20
4.249999999999946
 30
0.0
  0
POINT
  5
1C09
330
1BAA
100
AcDbEntity
  8
DEFPOINTS
 62
     0
100
AcDbPoint
 10
17.31579047368419
 20
4.249999999999942
 30
0.0
  0
ENDBLK
  5
1BB6
330
1BAA
100
AcDbEntity
  8
0
100
AcDbBlockEnd
  0
BLOCK
  5
1BED
330
1BE3
100
AcDbEntity
  8
0
100
AcDbBlockBegin
  2
*D7
 70
     1
 10
0.0
 20
0.0
 30
0.0
  3
*D7
  1

  0
LINE
  5
1C83
330
1BE3
100
AcDbEntity
  8
AM_5
100
AcDbLine
 10
-0.0000000000048395
 20
-5.250000000000007
 30
0.0
 11
-0.0000000000048404
 21
-20.00000099999999
 31
0.0
  0
LINE
  5
1C84
330
1BE3
100
AcDbEntity
  8
AM_5
100
AcDbLine
 10
-19.00000267313166
 20
-5.250000000000007
 30
0.0
 11
-19.00000267313166
 21
-20.00000099999999
 31
0.0
  0
LINE
  5
1C85
330
1BE3
100
AcDbEntity
  8
AM_5
100
AcDbLine
 10
-2.50000000000484
 20
-19.00000099999999
 30
0.0
 11
-16.50000267313166
 21
-19.00000099999999
 31
0.0
  0
INSERT
  5
1C86
330
1BE3
100
AcDbEntity
  8
AM_5
100
AcDbBlockReference
  2
_OPEN30
 10
-0.0000000000048404
 20
-19.00000099999999
 30
0.0
 41
2.5
 42
2.5
 43
2.5
  0
INSERT
  5
1C87
330
1BE3
100
AcDbEntity
  8
AM_5
100
AcDbBlockReference
  2
_OPEN30
 10
-19.00000267313166
 20
-19.00000099999999
 30
0.0
 41
2.5
 42
2.5
 43
2.5
 50
180.0
  0
MTEXT
  5
1C88
330
1BE3
100
AcDbEntity
  8
AM_5
 62
     2
100
AcDbMText
 10
-9.500001336568253
 20
-15.90000099999999
 30
0.0
 40
3.2
 41
0.0
 71
     5
 72
     1
  1
19
  7
ASAMI
1001
ACAD
1000
MTEXTBEGIN
1070
    73
1070
     1
1070
    44
1040
1.0
1070
    74
1070
     0
1000
MTEXTEND
  0
POINT
  5
1C89
330
1BE3
100
AcDbEntity
  8
DEFPOINTS
 62
     0
100
AcDbPoint
 10
-0.0000000000048395
 20
-4.250000000000007
 30
0.0
  0
POINT
  5
1C8A
330
1BE3
100
AcDbEntity
  8
DEFPOINTS
 62
     0
100
AcDbPoint
 10
-19.00000267313166
 20
-4.250000000000007
 30
0.0
  0
POINT
  5
1C8B
330
1BE3
100
AcDbEntity
  8
DEFPOINTS
 62
     0
100
AcDbPoint
 10
-19.00000267313166
 20
-19.00000099999999
 30
0.0
  0
ENDBLK
  5
1BEE
330
1BE3
100
AcDbEntity
  8
0
100
AcDbBlockEnd
  0
BLOCK
  5
1BFB
330
1BF1
100
AcDbEntity
  8
0
100
AcDbBlockBegin
  2
*D8
 70
     1
 10
0.0
 20
0.0
 30
0.0
  3
*D8
  1

  0
LINE
  5
1C7A
330
1BF1
100
AcDbEntity
  8
AM_5
100
AcDbLine
 10
-0.0000000000056037
 20
-5.473684210526323
 30
0.0
 11
-0.0000000000056053
 21
-32.00000100000013
 31
0.0
  0
LINE
  5
1C7B
330
1BF1
100
AcDbEntity
  8
AM_5
100
AcDbLine
 10
-90.00000000000559
 20
-4.78736762562295
 30
0.0
 11
-90.00000000000559
 21
-32.00000100000013
 31
0.0
  0
LINE
  5
1C7C
330
1BF1
100
AcDbEntity
  8
AM_5
100
AcDbLine
 10
-2.500000000005605
 20
-31.00000100000013
 30
0.0
 11
-87.50000000000559
 21
-31.00000100000013
 31
0.0
  0
INSERT
  5
1C7D
330
1BF1
100
AcDbEntity
  8
AM_5
100
AcDbBlockReference
  2
_OPEN30
 10
-0.0000000000056052
 20
-31.00000100000013
 30
0.0
 41
2.5
 42
2.5
 43
2.5
  0
INSERT
  5
1C7E
330
1BF1
100
AcDbEntity
  8
AM_5
100
AcDbBlockReference
  2
_OPEN30
 10
-90.00000000000559
 20
-31.00000100000013
 30
0.0
 41
2.5
 42
2.5
 43
2.5
 50
180.0
  0
MTEXT
  5
1C7F
330
1BF1
100
AcDbEntity
  8
AM_5
 62
     2
100
AcDbMText
 10
-45.0000000000056
 20
-27.90000100000013
 30
0.0
 40
3.2
 41
0.0
 71
     5
 72
     1
  1
90
  7
ASAMI
1001
ACAD
1000
MTEXTBEGIN
1070
    73
1070
     1
1070
    44
1040
1.0
1070
    74
1070
     0
1000
MTEXTEND
  0
POINT
  5
1C80
330
1BF1
100
AcDbEntity
  8
DEFPOINTS
 62
     0
100
AcDbPoint
 10
-0.0000000000056036
 20
-4.473684210526323
 30
0.0
  0
POINT
  5
1C81
330
1BF1
100
AcDbEntity
  8
DEFPOINTS
 62
     0
100
AcDbPoint
 10
-90.00000000000559
 20
-3.78736762562295
 30
0.0
  0
POINT
  5
1C82
330
1BF1
100
AcDbEntity
  8
DEFPOINTS
 62
     0
100
AcDbPoint
 10
-90.00000000000559
 20
-31.00000100000013
 30
0.0
  0
ENDBLK
  5
1BFC
330
1BF1
100
AcDbEntity
  8
0
100
AcDbBlockEnd
  0
ENDSEC
  0
SECTION
  2
ENTITIES
  0
TEXT
  5
F07
330
1F
100
AcDbEntity
  8
AM_6
100
AcDbText
 10
-68.45238095238094
 20
-51.6446872028352
 30
0.0
 40
5.0
  1
SSUP3085ZX
 72
     4
 11
-45.0
 21
-49.1446872028352
 31
0.0
100
AcDbText
  0
LINE
  5
1A69
330
1F
100
AcDbEntity
  8
AM_0
100
AcDbLine
 10
-24.29903810567665
 20
4.999999999999979
 30
0.0
 11
-89.6562500000056
 21
4.999999999999968
 31
0.0
  0
LINE
  5
1A6A
330
1F
100
AcDbEntity
  8
AM_0
100
AcDbLine
 10
-89.6562500000056
 20
-5.000000000000019
 30
0.0
 11
-24.29903810567662
 21
-5.000000000000006
 31
0.0
  0
LINE
  5
1A6B
330
1F
100
AcDbEntity
  8
AM_0
100
AcDbLine
 10
-89.6562500000056
 20
4.999999999999968
 30
0.0
 11
-89.6562500000056
 21
-5.000000000000019
 31
0.0
  0
LINE
  5
1A6C
330
1F
100
AcDbEntity
  8
AM_0
100
AcDbLine
 10
-90.00000000000559
 20
4.687499999999968
 30
0.0
 11
-90.00000000000559
 21
-4.687500000000019
 31
0.0
  0
DIMENSION
  5
1A6D
330
1F
100
AcDbEntity
  8
AM_5
100
AcDbDimension
  2
*D5
 10
-106.030567256414
 20
4.999999999999973
 30
0.0
 11
-106.030567256414
 21
-0.3790291664107126
 31
0.0
 70
   160
  1
%%c<>
  3
AM_JIS
100
AcDbAlignedDimension
 13
-89.6562500000056
 23
-5.000000000000019
 33
0.0
 14
-89.6562500000056
 24
4.999999999999968
 34
0.0
 50
270.0
100
AcDbRotatedDimension
1001
GENIUS_GENDTOL_13
1000

1000
h7
1000

1040
0.0
  0
LINE
  5
1A6E
330
1F
100
AcDbEntity
  8
AM_0
100
AcDbLine
 10
-89.6562500000056
 20
-5.000000000000019
 30
0.0
 11
-90.00000000000559
 21
-4.687500000000019
 31
0.0
1001
GENIUS_GENFIL_13
1070
     0
1040
0.5
1040
0.5
1040
20.0
1040
0.0
1002
{
1002
}
1001
GENIUS_GENODEF_13
1002
{
1000
HIER
1070
     0
1002
}
1002
{
1000
MANEDIT
1070
     0
1002
}
1002
{
1000
NOSEL
1070
     0
1002
}
1002
{
1000
BEHIND
1070
     0
1002
}
1002
{
1000
REACTOR
1002
}
1001
GENIUS_GENOBJ-N-CHA_13
1002
{
1000
OWNER
1000
GEN
1002
}
  0
LINE
  5
1A6F
330
1F
100
AcDbEntity
  8
AM_0
100
AcDbLine
 10
-89.6562500000056
 20
4.999999999999968
 30
0.0
 11
-90.00000000000559
 21
4.687499999999968
 31
0.0
1001
GENIUS_GENFIL_13
1070
     0
1040
0.5
1040
0.5
1040
20.0
1040
0.0
1002
{
1002
}
1001
GENIUS_GENODEF_13
1002
{
1000
HIER
1070
     0
1002
}
1002
{
1000
MANEDIT
1070
     0
1002
}
1002
{
1000
NOSEL
1070
     0
1002
}
1002
{
1000
BEHIND
1070
     0
1002
}
1002
{
1000
REACTOR
1002
}
1001
GENIUS_GENOBJ-N-CHA_13
1002
{
1000
OWNER
1000
GEN
1002
}
  0
LINE
  5
1A70
330
1F
100
AcDbEntity
  8
AM_0
100
AcDbLine
 10
-89.6562500000056
 20
4.999999999999968
 30
0.0
 11
-89.6562500000056
 21
4.999999999999968
 31
0.0
  0
LINE
  5
1AB0
330
1F
100
AcDbEntity
  8
AM_0
100
AcDbLine
 10
-24.29903810567665
 20
4.999999999999981
 30
0.0
 11
-24.29903810567663
 21
-5.000000000000005
 31
0.0
  0
LINE
  5
1AB1
330
1F
100
AcDbEntity
  8
AM_0
100
AcDbLine
 10
-21.49999999999999
 20
4.249999999999978
 30
0.0
 11
-21.49999999999999
 21
-4.250000000000007
 31
0.0
  0
LINE
  5
1AB2
330
1F
100
AcDbEntity
  8
AM_0
100
AcDbLine
 10
-24.29903810567662
 20
-5.000000000000006
 30
0.0
 11
-21.49999999999999
 21
-4.250000000000007
 31
0.0
  0
LINE
  5
1AB4
330
1F
100
AcDbEntity
  8
AM_0
100
AcDbLine
 10
-24.29903810567665
 20
4.99999999999998
 30
0.0
 11
-21.49999999999999
 21
4.249999999999978
 31
0.0
  0
LINE
  5
1B85
330
1F
100
AcDbEntity
  8
AM_0
100
AcDbLine
 10
-0.0000000000048391
 20
-0.0899319812340051
 30
0.0
 11
-0.0933075944094477
 21
-0.214282567808456
 31
0.0
  0
LINE
  5
1B86
330
1F
100
AcDbEntity
  8
AM_0
100
AcDbLine
 10
-0.1140160022505193
 20
-1.295468766161596
 30
0.0
 11
-0.1140160022505193
 21
-0.086408571066269
 31
0.0
  0
LINE
  5
1B87
330
1F
100
AcDbEntity
  8
AM_0
100
AcDbLine
 10
-0.1140160022505193
 20
-0.086408571066269
 30
0.0
 11
-0.0000000000048391
 21
-0.7904550632752969
 31
0.0
  0
LINE
  5
1B88
330
1F
100
AcDbEntity
  8
AM_0
100
AcDbLine
 10
-0.0000000000048391
 20
-0.0899319812340051
 30
0.0
 11
-0.0000000000048391
 21
4.249999999999978
 31
0.0
  0
LINE
  5
1B89
330
1F
100
AcDbEntity
  8
AM_0
100
AcDbLine
 10
-2.635279914696117
 20
2.365622702519813
 30
0.0
 11
-2.146445900358937
 21
1.714155940267013
 31
0.0
  0
LINE
  5
1B8A
330
1F
100
AcDbEntity
  8
AM_0
100
AcDbLine
 10
-0.1140160022505193
 20
-0.086408571066269
 30
0.0
 11
-0.5700800112346176
 21
1.843029914372341
 31
0.0
  0
LINE
  5
1B8B
330
1F
100
AcDbEntity
  8
AM_0
100
AcDbLine
 10
-0.3606456309098482
 20
-1.830624836082225
 30
0.0
 11
-2.02719456938456
 21
-1.590240536044129
 31
0.0
  0
LINE
  5
1B8C
330
1F
100
AcDbEntity
  8
AM_0
100
AcDbLine
 10
-16.72234699607799
 20
2.3052308477535
 30
0.0
 11
-16.72234699607552
 21
2.96987450629175
 31
0.0
  0
LINE
  5
1B8D
330
1F
100
AcDbEntity
  8
AM_0
100
AcDbLine
 10
-0.0000000000048391
 20
-2.169807401124242
 30
0.0
 11
-0.1140160022505193
 21
-2.683616256532903
 31
0.0
  0
LINE
  5
1B8E
330
1F
100
AcDbEntity
  8
AM_0
100
AcDbLine
 10
-0.2280320044965433
 20
-1.998349813561688
 30
0.0
 11
-0.0000000000048391
 21
-2.169807401124242
 31
0.0
  0
LINE
  5
1B8F
330
1F
100
AcDbEntity
  8
AM_11
100
AcDbLine
 10
-0.0000000000000004
 20
-4.250000000000007
 30
0.0
 11
-0.0000000000048391
 21
-2.169807401124242
 31
0.0
  0
LINE
  5
1B90
330
1F
100
AcDbEntity
  8
AM_0
100
AcDbLine
 10
-0.1140160022505193
 20
-2.683616256532903
 30
0.0
 11
-0.5700800112346176
 21
-3.570535108683454
 31
0.0
  0
LINE
  5
1B91
330
1F
100
AcDbEntity
  8
AM_0
100
AcDbLine
 10
-0.0000000000048391
 20
-2.169807401124242
 30
0.0
 11
-0.8486436056284954
 21
-3.096504853794035
 31
0.0
  0
LINE
  5
1B92
330
1F
100
AcDbEntity
  8
AM_11
100
AcDbLine
 10
0.0000000000000004
 20
-4.250000000000007
 30
0.0
 11
-0.0000000000000004
 21
4.249999999999978
 31
0.0
  0
LINE
  5
1B93
330
1F
100
AcDbEntity
  8
AM_0
100
AcDbLine
 10
-0.0000000000048391
 20
-0.7904550632752969
 30
0.0
 11
-0.0000000000048391
 21
-2.169807401124242
 31
0.0
  0
LINE
  5
1B94
330
1F
100
AcDbEntity
  8
AM_0
100
AcDbLine
 10
-0.0000000000048391
 20
-2.169807401124242
 30
0.0
 11
-0.1140160022505193
 21
-1.295468766161596
 31
0.0
  0
LINE
  5
1B95
330
1F
100
AcDbEntity
  8
AM_0
100
AcDbLine
 10
-18.90768301919888
 20
4.249999999999978
 30
0.0
 11
-21.49999999999999
 21
4.249999999999978
 31
0.0
  0
LINE
  5
1B96
330
1F
100
AcDbEntity
  8
AM_11
100
AcDbLine
 10
-19.00000267313166
 20
-4.250000000000007
 30
0.0
 11
-19.00000267313166
 21
4.249999999999978
 31
0.0
  0
LINE
  5
1B97
330
1F
100
AcDbEntity
  8
AM_11
100
AcDbLine
 10
-0.0000000000000004
 20
4.249999999999978
 30
0.0
 11
-19.00000267313166
 21
4.249999999999978
 31
0.0
  0
LINE
  5
1B98
330
1F
100
AcDbEntity
  8
AM_11
100
AcDbLine
 10
-19.00000267313166
 20
-4.250000000000007
 30
0.0
 11
-0.0000000000000004
 21
-4.250000000000007
 31
0.0
  0
POLYLINE
  5
1B99
330
1F
100
AcDbEntity
  8
AM_0
100
AcDb2dPolyline
 66
     1
 10
0.0
 20
0.0
 30
0.0
 70
     2
  0
VERTEX
  5
1B9A
330
1B99
100
AcDbEntity
  8
AM_0
100
AcDbVertex
100
AcDb2dVertex
 10
-16.7223469960735
 20
2.305230847751376
 30
0.0
 42
0.0163510200184555
  0
VERTEX
  5
1B9B
330
1B99
100
AcDbEntity
  8
AM_0
100
AcDbVertex
100
AcDb2dVertex
 10
-17.62199514329031
 20
2.68826902302166
 30
0.0
 42
0.0236329905934865
 70
     1
  0
VERTEX
  5
1B9C
330
1B99
100
AcDbEntity
  8
AM_0
100
AcDbVertex
100
AcDb2dVertex
 10
-18.2615630263959
 20
2.89690204135427
 30
0.0
 42
0.0136924015569504
  0
VERTEX
  5
1B9D
330
1B99
100
AcDbEntity
  8
AM_0
100
AcDbVertex
100
AcDb2dVertex
 10
-19.81739783237299
 20
3.266269158329754
 30
0.0
 42
0.0437471596433213
 70
     1
  0
VERTEX
  5
1B9E
330
1B99
100
AcDbEntity
  8
AM_0
100
AcDbVertex
100
AcDb2dVertex
 10
-20.3138510668211
 20
3.318817663513095
 30
0.0
 42
0.0737828887826182
  0
VERTEX
  5
1B9F
330
1B99
100
AcDbEntity
  8
AM_0
100
AcDbVertex
100
AcDb2dVertex
 10
-20.75179325885418
 20
3.249621016244227
 30
0.0
 42
0.3022986902902931
 70
     1
  0
VERTEX
  5
1BA0
330
1B99
100
AcDbEntity
  8
AM_0
100
AcDbVertex
100
AcDb2dVertex
 10
-20.82692307692791
 20
3.149062092070546
 30
0.0
 42
0.1640404297379002
  0
VERTEX
  5
1BA1
330
1B99
100
AcDbEntity
  8
AM_0
100
AcDbVertex
100
AcDb2dVertex
 10
-20.79050533593828
 20
2.963737385376647
 30
0.0
 42
0.0324399100382136
 70
     1
  0
VERTEX
  5
1BA2
330
1B99
100
AcDbEntity
  8
AM_0
100
AcDbVertex
100
AcDb2dVertex
 10
-20.3138510668211
 20
2.195137291163893
 30
0.0
 42
0.0076492520245086
  0
VERTEX
  5
1BA3
330
1B99
100
AcDbEntity
  8
AM_0
100
AcDbVertex
100
AcDb2dVertex
 10
-19.6980298069022
 20
1.354786161750668
 30
0.0
 42
0.0033664759505265
 70
     1
  0
VERTEX
  5
1BA4
330
1B99
100
AcDbEntity
  8
AM_0
100
AcDbVertex
100
AcDb2dVertex
 10
-18.2615630263939
 20
-0.5196240045333508
 30
0.0
 42
0.0145714002245221
  0
VERTEX
  5
1BA5
330
1B99
100
AcDbEntity
  8
AM_0
100
AcDbVertex
100
AcDb2dVertex
 10
-17.7638431139676
 20
-1.123809144531853
 30
0.0
 42
0.007325916991168
 70
     1
  0
VERTEX
  5
1BA6
330
1B99
100
AcDbEntity
  8
AM_0
100
AcDbVertex
100
AcDb2dVertex
 10
-16.72793525131891
 20
-2.275746030492989
 30
0.0
  0
SEQEND
  5
1BA7
330
1B99
100
AcDbEntity
  8
AM_0
  0
LINE
  5
1BA8
330
1F
100
AcDbEntity
  8
AM_0
100
AcDbLine
 10
-16.6972634763418
 20
-4.250000000000007
 30
0.0
 11
-21.49999999999999
 21
-4.250000000000007
 31
0.0
  0
DIMENSION
  5
1BA9
330
1F
100
AcDbEntity
  8
AM_5
100
AcDbDimension
  2
*D6
 10
17.31579047368419
 20
4.249999999999942
 30
0.0
 11
17.31579047368419
 21
13.04999999999994
 31
0.0
 70
   160
  1
%%c<>
  3
AM_JIS
100
AcDbAlignedDimension
 13
-0.0000000000048396
 23
-4.250000001190085
 33
0.0
 14
-0.0000000000000006
 24
4.249999999999946
 34
0.0
 50
89.9999999952416
100
AcDbRotatedDimension
1001
GENIUS_GENDTOL_13
1000

1000
h7
1000

1040
0.0
  0
SPLINE
  5
1BB7
330
1F
100
AcDbEntity
  8
AM_0
100
AcDbSpline
210
0.0
220
0.0
230
1.0
 70
     8
 71
     3
 72
     8
 73
     4
 74
     0
 42
0.0000000001
 43
0.0000000001
 40
0.6397612841816997
 40
0.6397612841816997
 40
0.6397612841816997
 40
0.6397612841816997
 40
7.939880490758838
 40
7.939880490758838
 40
7.939880490758838
 40
7.939880490758838
 10
-17.88726301185635
 20
3.842444207416733
 30
0.0
 10
-16.11059081510922
 20
3.461095586499852
 30
0.0
 10
-14.73265680946416
 20
1.730547793249964
 30
0.0
 10
-13.35472280381979
 20
0.0000000000000884
 30
0.0
  0
SPLINE
  5
1BB8
330
1F
100
AcDbEntity
  8
AM_0
100
AcDbSpline
210
0.0
220
0.0
230
1.0
 70
     8
 71
     3
 72
     8
 73
     4
 74
     0
 42
0.0000000001
 43
0.0000000001
 40
0.5179125576517913
 40
0.5179125576517913
 40
0.5179125576517913
 40
0.5179125576517913
 40
8.138271981564475
 40
8.138271981564475
 40
8.138271981564475
 40
8.138271981564475
 10
-18.90768301919888
 20
4.249999999999978
 30
0.0
 10
-17.04481720219962
 20
3.800683511312697
 30
0.0
 10
-15.66503418760017
 20
1.900341755656338
 30
0.0
 10
-14.28525117300038
 20
0.0000000000000884
 30
0.0
  0
SPLINE
  5
1BB9
330
1F
100
AcDbEntity
  8
AM_0
100
AcDbSpline
210
0.0
220
0.0
230
1.0
 70
     8
 71
     3
 72
     8
 73
     4
 74
     0
 42
0.0000000001
 43
0.0000000001
 40
0.2299567350972117
 40
0.2299567350972117
 40
0.2299567350972117
 40
0.2299567350972117
 40
7.769701155129346
 40
7.769701155129346
 40
7.769701155129346
 40
7.769701155129346
 10
-17.06345604569642
 20
3.561307426755548
 30
0.0
 10
-15.17849199228908
 20
3.394923078255723
 30
0.0
 10
-13.70323503692443
 20
1.697461539127802
 30
0.0
 10
-12.22797808156047
 20
-0.0000000000000083
 30
0.0
  0
SPLINE
  5
1BBA
330
1F
100
AcDbEntity
  8
AM_0
100
AcDbSpline
210
0.0
220
0.0
230
1.0
 70
     8
 71
     3
 72
     8
 73
     4
 74
     0
 42
0.0000000001
 43
0.0000000001
 40
5.129729518825886
 40
5.129729518825886
 40
5.129729518825886
 40
5.129729518825886
 40
8.272127900365292
 40
8.272127900365292
 40
8.272127900365292
 40
8.272127900365292
 10
-16.72234699607799
 20
2.3052308477535
 30
0.0
 10
-16.13397051805901
 20
1.614480975439549
 30
0.0
 10
-15.58063980741993
 20
0.8072404877197651
 30
0.0
 10
-15.02730909678085
 20
-0.0000000000000083
 30
0.0
  0
SPLINE
  5
1BBB
330
1F
100
AcDbEntity
  8
AM_0
100
AcDbSpline
210
0.0
220
0.0
230
1.0
 70
     8
 71
     3
 72
     8
 73
     4
 74
     0
 42
0.0000000001
 43
0.0000000001
 40
0.5179125576349786
 40
0.5179125576349786
 40
0.5179125576349786
 40
0.5179125576349786
 40
1.981387939834528
 40
1.981387939834528
 40
1.981387939834528
 40
1.981387939834528
 10
-15.56853436676818
 20
-4.034859439396305
 30
0.0
 10
-15.21077456675566
 20
-3.989886402459773
 30
0.0
 10
-14.87083205096743
 20
-3.883461063832474
 30
0.0
 10
-14.54528504421014
 20
-3.727385219952199
 30
0.0
  0
SPLINE
  5
1BBC
330
1F
100
AcDbEntity
  8
AM_0
100
AcDbSpline
210
0.0
220
0.0
230
1.0
 70
     8
 71
     3
 72
     8
 73
     4
 74
     0
 42
0.0000000001
 43
0.0000000001
 40
0.6432030004477055
 40
0.6432030004477055
 40
0.6432030004477055
 40
0.6432030004477055
 40
1.797818050668038
 40
1.797818050668038
 40
1.797818050668038
 40
1.797818050668038
 10
-14.54565770794857
 20
-3.727442410646214
 30
0.0
 10
-14.26477746155483
 20
-3.684354083066802
 30
0.0
 10
-13.99392332755025
 20
-3.604706471614953
 30
0.0
 10
-13.73150878929402
 20
-3.494284661275063
 30
0.0
  0
SPLINE
  5
1BBD
330
1F
100
AcDbEntity
  8
AM_0
100
AcDbSpline
210
0.0
220
0.0
230
1.0
 70
     8
 71
     3
 72
     8
 73
     4
 74
     0
 42
0.0000000001
 43
0.0000000001
 40
0.0
 40
0.0
 40
0.0
 40
0.0
 40
1.570112951298052
 40
1.570112951298052
 40
1.570112951298052
 40
1.570112951298052
 10
-16.69726347634352
 20
-4.250000000000104
 30
0.0
 10
-16.29944569460649
 20
-4.250000000000104
 30
0.0
 10
-15.92465987189612
 20
-4.173442764088988
 30
0.0
 10
-15.56853436676788
 20
-4.034859439399386
 30
0.0
  0
SPLINE
  5
1BBE
330
1F
100
AcDbEntity
  8
AM_0
100
AcDbSpline
210
0.0
220
0.0
230
1.0
 70
     8
 71
     3
 72
     8
 73
     4
 74
     0
 42
0.0000000001
 43
0.0000000001
 40
0.0
 40
0.0
 40
0.0
 40
0.0
 40
1.973247866266529
 40
1.973247866266529
 40
1.973247866266529
 40
1.973247866266529
 10
-13.89793246112279
 20
-3.498465769292866
 30
0.0
 10
-13.39797283189601
 20
-3.498465769292866
 30
0.0
 10
-12.92693139974324
 20
-3.385641562958729
 30
0.0
 10
-12.47746389626402
 20
-3.188646778012755
 30
0.0
  0
SPLINE
  5
1BBF
330
1F
100
AcDbEntity
  8
AM_0
100
AcDbSpline
210
0.0
220
0.0
230
1.0
 70
     8
 71
     3
 72
     8
 73
     4
 74
     0
 42
0.0000000001
 43
0.0000000001
 40
0.1383879590723462
 40
0.1383879590723462
 40
0.1383879590723462
 40
0.1383879590723462
 40
4.12619780763684
 40
4.12619780763684
 40
4.12619780763684
 40
4.12619780763684
 10
-14.00295127238593
 20
-3.496810873155416
 30
0.0
 10
-15.00521394769379
 20
-3.465113975315631
 30
0.0
 10
-15.89147294066657
 20
-2.980829270641564
 30
0.0
 10
-16.7223469960735
 20
-2.280460499323917
 30
0.0
  0
SPLINE
  5
1BC0
330
1F
100
AcDbEntity
  8
AM_0
100
AcDbSpline
210
0.0
220
0.0
230
1.0
 70
     8
 71
     3
 72
     8
 73
     4
 74
     0
 42
0.0000000001
 43
0.0000000001
 40
0.0
 40
0.0
 40
0.0
 40
0.0
 40
1.570112951298052
 40
1.570112951298052
 40
1.570112951298052
 40
1.570112951298052
 10
-16.6975168449825
 20
-4.250000000000104
 30
0.0
 10
-16.29969906324547
 20
-4.250000000000104
 30
0.0
 10
-15.92491324053511
 20
-4.173442764088988
 30
0.0
 10
-15.56878773540686
 20
-4.034859439399386
 30
0.0
  0
SPLINE
  5
1BC1
330
1F
100
AcDbEntity
  8
AM_0
100
AcDbSpline
210
0.0
220
0.0
230
1.0
 70
     8
 71
     3
 72
     8
 73
     4
 74
     0
 42
0.0000000001
 43
0.0000000001
 40
0.0
 40
0.0
 40
0.0
 40
0.0
 40
8.27212790036493
 40
8.27212790036493
 40
8.27212790036493
 40
8.27212790036493
 10
-10.01820606477543
 20
-4.250000000000104
 30
0.0
 10
-12.11410596092396
 20
-4.250000000000104
 30
0.0
 10
-13.57070752885241
 20
-2.125000000000092
 30
0.0
 10
-15.02730909678085
 20
-0.0000000000001049
 30
0.0
  0
SPLINE
  5
1BC2
330
1F
100
AcDbEntity
  8
AM_0
100
AcDbSpline
210
0.0
220
0.0
230
1.0
 70
     8
 71
     3
 72
     8
 73
     4
 74
     0
 42
0.0000000001
 43
0.0000000001
 40
0.0
 40
0.0
 40
0.0
 40
0.0
 40
3.655156164497277
 40
3.655156164497277
 40
3.655156164497277
 40
3.655156164497277
 10
-13.35760808585751
 20
4.249999999999978
 30
0.0
 10
-14.28371096021475
 20
4.250000000000655
 30
0.0
 10
-15.08499475931299
 20
3.835106790967571
 30
0.0
 10
-15.81661254870886
 20
3.1886467780135
 30
0.0
  0
SPLINE
  5
1BC3
330
1F
100
AcDbEntity
  8
AM_0
100
AcDbSpline
210
0.0
220
0.0
230
1.0
 70
     8
 71
     3
 72
     8
 73
     4
 74
     0
 42
0.0000000001
 43
0.0000000001
 40
5.58452476840911
 40
5.58452476840911
 40
5.58452476840911
 40
5.58452476840911
 40
8.27212790036518
 40
8.27212790036518
 40
8.27212790036518
 40
8.27212790036518
 10
-0.2280320044961971
 20
-1.998349813561301
 30
0.0
 10
-0.7232052644530715
 20
-1.380819233985593
 30
0.0
 10
-1.196453137688032
 20
-0.6904096169928972
 30
0.0
 10
-1.669701010922991
 20
-0.0000000000001049
 30
0.0
  0
SPLINE
  5
1BC4
330
1F
100
AcDbEntity
  8
AM_0
100
AcDbSpline
210
0.0
220
0.0
230
1.0
 70
     8
 71
     3
 72
     8
 73
     4
 74
     0
 42
0.0000000001
 43
0.0000000001
 40
6.850968446318445
 40
6.850968446318445
 40
6.850968446318445
 40
6.850968446318445
 40
8.138271981564475
 40
8.138271981564475
 40
8.138271981564475
 40
8.138271981564475
 10
-0.2260560760166218
 20
-0.9550391645364156
 30
0.0
 10
-0.4614709674935267
 20
-0.6420475791616719
 30
0.0
 10
-0.6945570273180217
 20
-0.3210237895808885
 30
0.0
 10
-0.9276430871425169
 20
-0.0000000000001049
 30
0.0
  0
SPLINE
  5
1BC5
330
1F
100
AcDbEntity
  8
AM_0
100
AcDbSpline
210
0.0
220
0.0
230
1.0
 70
     8
 71
     3
 72
     8
 73
     4
 74
     0
 42
0.0000000001
 43
0.0000000001
 40
0.0
 40
0.0
 40
0.0
 40
0.0
 40
3.860109074512531
 40
3.860109074512531
 40
3.860109074512531
 40
3.860109074512531
 10
-0.2280320044961971
 20
4.241531682025613
 30
0.0
 10
-0.0382135258407276
 20
3.168630466380656
 30
0.0
 10
-1.657248348232488
 20
2.365622702519813
 30
0.0
 10
-2.6352799146975
 20
2.365622702519813
 30
0.0
  0
SPLINE
  5
1BC6
330
1F
100
AcDbEntity
  8
AM_0
100
AcDbSpline
210
0.0
220
0.0
230
1.0
 70
     8
 71
     3
 72
     8
 73
     4
 74
     0
 42
0.0000000001
 43
0.0000000001
 40
0.2299567350972117
 40
0.2299567350972117
 40
0.2299567350972117
 40
0.2299567350972117
 40
4.912075065647881
 40
4.912075065647881
 40
4.912075065647881
 40
4.912075065647881
 10
-3.705847959838216
 20
3.493914351481994
 30
0.0
 10
-2.535301021478318
 20
3.432441597351734
 30
0.0
 10
-1.52274968936766
 20
2.754549747874677
 30
0.0
 10
-0.5700800112346176
 20
1.843029914372341
 30
0.0
  0
SPLINE
  5
1BC7
330
1F
100
AcDbEntity
  8
AM_0
100
AcDbSpline
210
0.0
220
0.0
230
1.0
 70
     8
 71
     3
 72
     8
 73
     4
 74
     0
 42
0.0000000001
 43
0.0000000001
 40
0.0
 40
0.0
 40
0.0
 40
0.0
 40
3.655156164497277
 40
3.655156164497277
 40
3.655156164497277
 40
3.655156164497277
 10
-0.0000000000000004
 20
4.249999999999978
 30
0.0
 10
-0.9261028743568921
 20
4.250000000000655
 30
0.0
 10
-1.727386673455479
 20
3.835106790967571
 30
0.0
 10
-2.459004462851345
 20
3.1886467780135
 30
0.0
  0
SPLINE
  5
1BC8
330
1F
100
AcDbEntity
  8
AM_0
100
AcDbSpline
210
0.0
220
0.0
230
1.0
 70
     8
 71
     3
 72
     8
 73
     4
 74
     0
 42
0.0000000001
 43
0.0000000001
 40
0.0
 40
0.0
 40
0.0
 40
0.0
 40
8.272127900365285
 40
8.272127900365285
 40
8.272127900365285
 40
8.272127900365285
 10
-6.678804042928759
 20
4.249999999999978
 30
0.0
 10
-4.58290414678013
 20
4.249999999999978
 30
0.0
 10
-3.126302578851563
 20
2.124999999999979
 30
0.0
 10
-1.669701010922991
 20
-0.0000000000000083
 30
0.0
  0
SPLINE
  5
1BC9
330
1F
100
AcDbEntity
  8
AM_0
100
AcDbSpline
210
0.0
220
0.0
230
1.0
 70
     8
 71
     3
 72
     8
 73
     4
 74
     0
 42
0.0000000001
 43
0.0000000001
 40
0.5179125576517913
 40
0.5179125576517913
 40
0.5179125576517913
 40
0.5179125576517913
 40
8.138271981564475
 40
8.138271981564475
 40
8.138271981564475
 40
8.138271981564475
 10
-5.550074933341369
 20
4.034859439394717
 30
0.0
 10
-3.687209116341758
 20
3.800683511312697
 30
0.0
 10
-2.307426101741964
 20
1.900341755656338
 30
0.0
 10
-0.9276430871425169
 20
0.0000000000000884
 30
0.0
  0
SPLINE
  5
1BCA
330
1F
100
AcDbEntity
  8
AM_0
100
AcDbSpline
210
0.0
220
0.0
230
1.0
 70
     8
 71
     3
 72
     8
 73
     4
 74
     0
 42
0.0000000001
 43
0.0000000001
 40
0.6397612841816997
 40
0.6397612841816997
 40
0.6397612841816997
 40
0.6397612841816997
 40
6.972227720174165
 40
6.972227720174165
 40
6.972227720174165
 40
6.972227720174165
 10
-4.52965492599884
 20
3.728740244672657
 30
0.0
 10
-2.988485975835802
 20
3.496572691418903
 30
0.0
 10
-1.747353272074654
 20
2.163622781992804
 30
0.0
 10
-0.5459912757350516
 20
0.6847608584451312
 30
0.0
  0
SPLINE
  5
1BCB
330
1F
100
AcDbEntity
  8
AM_0
100
AcDbSpline
210
0.0
220
0.0
230
1.0
 70
     8
 71
     3
 72
     8
 73
     4
 74
     0
 42
0.0000000001
 43
0.0000000001
 40
0.0
 40
0.0
 40
0.0
 40
0.0
 40
0.0092824582075338
 40
0.0092824582075338
 40
0.0092824582075338
 40
0.0092824582075338
 10
-0.5400710066259452
 20
-3.498465769292866
 30
0.0
 10
-0.5377191204571928
 20
-3.498465769292866
 30
0.0
 10
-0.5353678742209837
 20
-3.498463272600528
 30
0.0
 10
-0.5330172671520325
 20
-3.498458282198842
 30
0.0
  0
SPLINE
  5
1BCC
330
1F
100
AcDbEntity
  8
AM_0
100
AcDbSpline
210
0.0
220
0.0
230
1.0
 70
     8
 71
     3
 72
     8
 73
     4
 74
     0
 42
0.0000000001
 43
0.0000000001
 40
0.0
 40
0.0
 40
0.0
 40
0.0
 40
1.512029330426235
 40
1.512029330426235
 40
1.512029330426235
 40
1.512029330426235
 10
-1.666815728884929
 20
-3.764415969966997
 30
0.0
 10
-1.283715092797589
 20
-3.76368158692741
 30
0.0
 10
-0.9193241809360984
 20
-3.694723939216592
 30
0.0
 10
-0.5700800112346176
 20
-3.570535108682488
 30
0.0
  0
SPLINE
  5
1BCD
330
1F
100
AcDbEntity
  8
AM_0
100
AcDbSpline
210
0.0
220
0.0
230
1.0
 70
     8
 71
     3
 72
     8
 73
     4
 74
     0
 42
0.0000000001
 43
0.0000000001
 40
0.0
 40
0.0
 40
0.0
 40
0.0
 40
1.981387939834528
 40
1.981387939834528
 40
1.981387939834528
 40
1.981387939834528
 10
-2.597344098065509
 20
-4.058994387305349
 30
0.0
 10
-2.095322027402702
 20
-4.058994387305252
 30
0.0
 10
-1.628179150676784
 20
-3.938695091320911
 30
0.0
 10
-1.187423589712951
 20
-3.727385219952199
 30
0.0
  0
SPLINE
  5
1BCE
330
1F
100
AcDbEntity
  8
AM_0
100
AcDbSpline
210
0.0
220
0.0
230
1.0
 70
     8
 71
     3
 72
     8
 73
     4
 74
     0
 42
0.0000000001
 43
0.0000000001
 40
0.0
 40
0.0
 40
0.0
 40
0.0
 40
1.570112951298052
 40
1.570112951298052
 40
1.570112951298052
 40
1.570112951298052
 10
-3.33940202184633
 20
-4.250000000000104
 30
0.0
 10
-2.941584240109294
 20
-4.250000000000104
 30
0.0
 10
-2.566798417398941
 20
-4.173442764088988
 30
0.0
 10
-2.210672912270691
 20
-4.034859439399386
 30
0.0
  0
SPLINE
  5
1BCF
330
1F
100
AcDbEntity
  8
AM_0
100
AcDbSpline
210
0.0
220
0.0
230
1.0
 70
     8
 71
     3
 72
     8
 73
     4
 74
     0
 42
0.0000000001
 43
0.0000000001
 40
0.0
 40
0.0
 40
0.0
 40
0.0
 40
1.973247866266529
 40
1.973247866266529
 40
1.973247866266529
 40
1.973247866266529
 10
-7.218875049554705
 20
-3.498465769292866
 30
0.0
 10
-6.718915420327929
 20
-3.498465769292866
 30
0.0
 10
-6.247873988175149
 20
-3.385641562958729
 30
0.0
 10
-5.798406484695946
 20
-3.188646778012755
 30
0.0
  0
SPLINE
  5
1BD0
330
1F
100
AcDbEntity
  8
AM_0
100
AcDbSpline
210
0.0
220
0.0
230
1.0
 70
     8
 71
     3
 72
    10
 73
     6
 74
     0
 42
0.0000000001
 43
0.0000000001
 40
0.0
 40
0.0
 40
0.0
 40
0.0
 40
1.624816058741878
 40
2.635428435777873
 40
3.678161543961334
 40
3.678161543961334
 40
3.678161543961334
 40
3.678161543961334
 10
-0.8486436056284954
 20
-3.096504853793843
 30
0.0
 10
-1.24692238957982
 20
-2.980008459731815
 30
0.0
 10
-1.781584444760384
 20
-2.814702287506317
 30
0.0
 10
-2.972086528659795
 20
-2.244132214812998
 30
0.0
 10
-2.289219975213638
 20
-1.552445790076415
 30
0.0
 10
-2.02719456938456
 20
-1.590240536044129
 30
0.0
  0
SPLINE
  5
1BD1
330
1F
100
AcDbEntity
  8
AM_0
100
AcDbSpline
210
0.0
220
0.0
230
1.0
 70
     8
 71
     3
 72
     8
 73
     4
 74
     0
 42
0.0000000001
 43
0.0000000001
 40
0.0
 40
0.0
 40
0.0
 40
0.0
 40
8.138271981564608
 40
8.138271981564608
 40
8.138271981564608
 40
8.138271981564608
 10
-2.597344098065509
 20
-4.058994387305349
 30
0.0
 10
-4.65932906812833
 20
-4.058994387305349
 30
0.0
 10
-6.132888099099802
 20
-2.029497193652726
 30
0.0
 10
-7.606447130071274
 20
-0.0000000000001049
 30
0.0
  0
SPLINE
  5
1BD2
330
1F
100
AcDbEntity
  8
AM_0
100
AcDbSpline
210
0.0
220
0.0
230
1.0
 70
     8
 71
     3
 72
     8
 73
     4
 74
     0
 42
0.0000000001
 43
0.0000000001
 40
0.0
 40
0.0
 40
0.0
 40
0.0
 40
7.939880490758586
 40
7.939880490758586
 40
7.939880490758586
 40
7.939880490758586
 10
-1.666815728884929
 20
-3.764415969967095
 30
0.0
 10
-3.678534466367043
 20
-3.764415969967095
 30
0.0
 10
-5.177226613628695
 20
-1.8822079849836
 30
0.0
 10
-6.675918760890348
 20
-0.0000000000001049
 30
0.0
  0
SPLINE
  5
1BD3
330
1F
100
AcDbEntity
  8
AM_0
100
AcDbSpline
210
0.0
220
0.0
230
1.0
 70
     8
 71
     3
 72
     8
 73
     4
 74
     0
 42
0.0000000001
 43
0.0000000001
 40
0.1383879590723462
 40
0.1383879590723462
 40
0.1383879590723462
 40
0.1383879590723462
 40
7.769701155129346
 40
7.769701155129346
 40
7.769701155129346
 40
7.769701155129346
 10
-0.6448364492497644
 20
-3.496810873155416
 30
0.0
 10
-2.562826692125952
 20
-3.436153779676939
 30
0.0
 10
-4.056000365378484
 20
-1.718076889838473
 30
0.0
 10
-5.549174038631367
 20
-0.0000000000001049
 30
0.0
  0
SPLINE
  5
1BD4
330
1F
100
AcDbEntity
  8
AM_0
100
AcDbSpline
210
0.0
220
0.0
230
1.0
 70
     8
 71
     3
 72
     8
 73
     4
 74
     0
 42
0.0000000001
 43
0.0000000001
 40
0.0
 40
0.0
 40
0.0
 40
0.0
 40
1.570112951298052
 40
1.570112951298052
 40
1.570112951298052
 40
1.570112951298052
 10
-10.01820606477543
 20
-4.250000000000104
 30
0.0
 10
-9.620388283038403
 20
-4.250000000000104
 30
0.0
 10
-9.245602460328044
 20
-4.173442764088988
 30
0.0
 10
-8.889476955199794
 20
-4.034859439399386
 30
0.0
  0
SPLINE
  5
1BD5
330
1F
100
AcDbEntity
  8
AM_0
100
AcDbSpline
210
0.0
220
0.0
230
1.0
 70
     8
 71
     3
 72
     8
 73
     4
 74
     0
 42
0.0000000001
 43
0.0000000001
 40
0.0
 40
0.0
 40
0.0
 40
0.0
 40
8.138271981564608
 40
8.138271981564608
 40
8.138271981564608
 40
8.138271981564608
 10
-9.276148140994614
 20
-4.058994387305349
 30
0.0
 10
-11.33813311105743
 20
-4.058994387305349
 30
0.0
 10
-12.8116921420289
 20
-2.029497193652726
 30
0.0
 10
-14.28525117300038
 20
-0.0000000000001049
 30
0.0
  0
SPLINE
  5
1BD6
330
1F
100
AcDbEntity
  8
AM_0
100
AcDbSpline
210
0.0
220
0.0
230
1.0
 70
     8
 71
     3
 72
     8
 73
     4
 74
     0
 42
0.0000000001
 43
0.0000000001
 40
0.0
 40
0.0
 40
0.0
 40
0.0
 40
7.939880490758586
 40
7.939880490758586
 40
7.939880490758586
 40
7.939880490758586
 10
-8.34561977181403
 20
-3.764415969967095
 30
0.0
 10
-10.35733850929615
 20
-3.764415969967095
 30
0.0
 10
-11.8560306565578
 20
-1.8822079849836
 30
0.0
 10
-13.35472280381945
 20
-0.0000000000001049
 30
0.0
  0
SPLINE
  5
1BD7
330
1F
100
AcDbEntity
  8
AM_0
100
AcDbSpline
210
0.0
220
0.0
230
1.0
 70
     8
 71
     3
 72
     8
 73
     4
 74
     0
 42
0.0000000001
 43
0.0000000001
 40
0.0
 40
0.0
 40
0.0
 40
0.0
 40
7.769701155129467
 40
7.769701155129467
 40
7.769701155129467
 40
7.769701155129467
 10
-7.218875049554705
 20
-3.498465769292866
 30
0.0
 10
-9.187475637007251
 20
-3.498465769292866
 30
0.0
 10
-10.70772685928385
 20
-1.749232884646485
 30
0.0
 10
-12.22797808156047
 20
-0.0000000000001049
 30
0.0
  0
SPLINE
  5
1BD8
330
1F
100
AcDbEntity
  8
AM_0
100
AcDbSpline
210
0.0
220
0.0
230
1.0
 70
     8
 71
     3
 72
     8
 73
     4
 74
     0
 42
0.0000000001
 43
0.0000000001
 40
0.0
 40
0.0
 40
0.0
 40
0.0
 40
1.797818050668038
 40
1.797818050668038
 40
1.797818050668038
 40
1.797818050668038
 10
-8.34561977181403
 20
-3.764415969966997
 30
0.0
 10
-7.890109270184844
 20
-3.763542781161734
 30
0.0
 10
-7.461049545179879
 20
-3.66621930198378
 30
0.0
 10
-7.052451377725937
 20
-3.494284661275063
 30
0.0
  0
SPLINE
  5
1BD9
330
1F
100
AcDbEntity
  8
AM_0
100
AcDbSpline
210
0.0
220
0.0
230
1.0
 70
     8
 71
     3
 72
     8
 73
     4
 74
     0
 42
0.0000000001
 43
0.0000000001
 40
0.0
 40
0.0
 40
0.0
 40
0.0
 40
1.981387939834528
 40
1.981387939834528
 40
1.981387939834528
 40
1.981387939834528
 10
-9.276148140994614
 20
-4.058994387305349
 30
0.0
 10
-8.77412607033181
 20
-4.058994387305252
 30
0.0
 10
-8.306983193605885
 20
-3.938695091320911
 30
0.0
 10
-7.866227632642053
 20
-3.727385219952199
 30
0.0
  0
SPLINE
  5
1BDA
330
1F
100
AcDbEntity
  8
AM_0
100
AcDbSpline
210
0.0
220
0.0
230
1.0
 70
     8
 71
     3
 72
     8
 73
     4
 74
     0
 42
0.0000000001
 43
0.0000000001
 40
0.0
 40
0.0
 40
0.0
 40
0.0
 40
8.272127900365292
 40
8.272127900365292
 40
8.272127900365292
 40
8.272127900365292
 10
-3.33940202184633
 20
-4.250000000000104
 30
0.0
 10
-5.435301917994955
 20
-4.250000000000104
 30
0.0
 10
-6.891903485923524
 20
-2.125000000000105
 30
0.0
 10
-8.348505053852099
 20
-0.0000000000001049
 30
0.0
  0
SPLINE
  5
1BDB
330
1F
100
AcDbEntity
  8
AM_0
100
AcDbSpline
210
0.0
220
0.0
230
1.0
 70
     8
 71
     3
 72
     8
 73
     4
 74
     0
 42
0.0000000001
 43
0.0000000001
 40
0.0
 40
0.0
 40
0.0
 40
0.0
 40
3.655156164497277
 40
3.655156164497277
 40
3.655156164497277
 40
3.655156164497277
 10
-6.678804042928759
 20
4.249999999999978
 30
0.0
 10
-7.604906917285994
 20
4.250000000000655
 30
0.0
 10
-8.406190716384237
 20
3.835106790967571
 30
0.0
 10
-9.137808505780103
 20
3.1886467780135
 30
0.0
  0
SPLINE
  5
1BDC
330
1F
100
AcDbEntity
  8
AM_0
100
AcDbSpline
210
0.0
220
0.0
230
1.0
 70
     8
 71
     3
 72
     8
 73
     4
 74
     0
 42
0.0000000001
 43
0.0000000001
 40
0.6397612841816997
 40
0.6397612841816997
 40
0.6397612841816997
 40
0.6397612841816997
 40
7.939880490758838
 40
7.939880490758838
 40
7.939880490758838
 40
7.939880490758838
 10
-11.20845896892759
 20
3.728740244672657
 30
0.0
 10
-9.431786772180116
 20
3.461095586499852
 30
0.0
 10
-8.053852766535406
 20
1.730547793249964
 30
0.0
 10
-6.675918760890692
 20
0.0000000000000884
 30
0.0
  0
SPLINE
  5
1BDD
330
1F
100
AcDbEntity
  8
AM_0
100
AcDbSpline
210
0.0
220
0.0
230
1.0
 70
     8
 71
     3
 72
     8
 73
     4
 74
     0
 42
0.0000000001
 43
0.0000000001
 40
0.2299567350972117
 40
0.2299567350972117
 40
0.2299567350972117
 40
0.2299567350972117
 40
7.769701155129346
 40
7.769701155129346
 40
7.769701155129346
 40
7.769701155129346
 10
-10.38465200276732
 20
3.493914351481994
 30
0.0
 10
-8.499687949360325
 20
3.394923078255723
 30
0.0
 10
-7.024430993995673
 20
1.697461539127802
 30
0.0
 10
-5.549174038631367
 20
-0.0000000000000083
 30
0.0
  0
SPLINE
  5
1BDE
330
1F
100
AcDbEntity
  8
AM_0
100
AcDbSpline
210
0.0
220
0.0
230
1.0
 70
     8
 71
     3
 72
     8
 73
     4
 74
     0
 42
0.0000000001
 43
0.0000000001
 40
0.5179125576517913
 40
0.5179125576517913
 40
0.5179125576517913
 40
0.5179125576517913
 40
8.138271981564475
 40
8.138271981564475
 40
8.138271981564475
 40
8.138271981564475
 10
-12.22887897627012
 20
4.034859439394717
 30
0.0
 10
-10.36601315927086
 20
3.800683511312697
 30
0.0
 10
-8.986230144671074
 20
1.900341755656338
 30
0.0
 10
-7.606447130071274
 20
0.0000000000000884
 30
0.0
  0
SPLINE
  5
1BDF
330
1F
100
AcDbEntity
  8
AM_0
100
AcDbSpline
210
0.0
220
0.0
230
1.0
 70
     8
 71
     3
 72
     8
 73
     4
 74
     0
 42
0.0000000001
 43
0.0000000001
 40
0.0
 40
0.0
 40
0.0
 40
0.0
 40
8.272127900364923
 40
8.272127900364923
 40
8.272127900364923
 40
8.272127900364923
 10
-13.35760808585751
 20
4.249999999999978
 30
0.0
 10
-11.26170818970897
 20
4.249999999999978
 30
0.0
 10
-9.805106621780538
 20
2.125000000000003
 30
0.0
 10
-8.348505053852099
 20
-0.0000000000000083
 30
0.0
  0
ELLIPSE
  5
1BE0
330
1F
100
AcDbEntity
  8
AM_0
100
AcDbEllipse
 10
6.052795739821007
 20
1.435824482806693
 30
0.0
 11
0.0000000000000768
 21
7.417310156629588
 31
0.0
210
0.0
220
0.0
230
1.0
 40
0.8942431548702469
 41
1.515869372210675
 42
1.947903343241009
  0
ELLIPSE
  5
1BE1
330
1F
100
AcDbEntity
  8
AM_0
100
AcDbEllipse
 10
-0.0915925197450027
 20
-2.879543492258014
 30
0.0
 11
0.0000000000000176
 21
0.8739422583717406
 31
0.0
210
0.0
220
0.0
230
1.0
 40
0.8942431548702463
 41
1.82167574773927
 42
2.482683360922202
  0
DIMENSION
  5
1BE2
330
1F
100
AcDbEntity
  8
AM_5
100
AcDbDimension
  2
*D7
 10
-19.00000267313166
 20
-19.00000099999999
 30
0.0
 11
-9.500001336568253
 21
-15.90000099999999
 31
0.0
 70
    32
  1
<>
  3
AM_JIS
100
AcDbAlignedDimension
 13
-0.0000000000048395
 23
-4.250000000000007
 33
0.0
 14
-19.00000267313166
 24
-4.250000000000007
 34
0.0
 50
0.0000000000001114
100
AcDbRotatedDimension
1001
GENIUS_GENDTOL_13
1000

1000
h7
1000

1040
0.0
  0
LINE
  5
1BEF
330
1F
100
AcDbEntity
  8
AM_7
100
AcDbLine
 10
-92.03056625641405
 20
-0.0000000000000194
 30
0.0
 11
2.999999999994397
 21
-0.0000000000000127
 31
0.0
1001
GENIUS_GENODEF_13
1002
{
1000
HIER
1070
     0
1002
}
1002
{
1000
MANEDIT
1070
     0
1002
}
1002
{
1000
NOSEL
1070
     0
1002
}
1002
{
1000
BEHIND
1070
     0
1002
}
1002
{
1000
REACTOR
1002
}
1001
GENIUS_GENOBJ-N-CEN_13
1002
{
1000
OWNER
1000
GEN
1002
}
  0
DIMENSION
  5
1BF0
330
1F
100
AcDbEntity
  8
AM_5
100
AcDbDimension
  2
*D8
 10
-90.00000000000559
 20
-31.00000100000013
 30
0.0
 11
-45.0000000000056
 21
-27.90000100000013
 31
0.0
 70
    32
  1
<>
  3
AM_JIS
100
AcDbAlignedDimension
 13
-0.0000000000056036
 23
-4.473684210526323
 33
0.0
 14
-90.00000000000559
 24
-3.78736762562295
 34
0.0
 50
0.0000000000001091
100
AcDbRotatedDimension
1001
GENIUS_GENDTOL_13
1000

1000
h7
1000

1040
0.0
  0
LINE
  5
1BFD
330
1F
100
AcDbEntity
  8
AM_7
100
AcDbLine
 10
-92.03056625641405
 20
-0.0000000000000194
 30
0.0
 11
3.31578947368421
 21
-0.0000000000000149
 31
0.0
1001
GENIUS_GENODEF_13
1002
{
1000
HIER
1070
     0
1002
}
1002
{
1000
MANEDIT
1070
     0
1002
}
1002
{
1000
NOSEL
1070
     0
1002
}
1002
{
1000
BEHIND
1070
     0
1002
}
1002
{
1000
REACTOR
1002
}
1001
GENIUS_GENOBJ-N-CEN_13
1002
{
1000
OWNER
1000
GEN
1002
}
  0
VIEWPORT
  5
110
330
101
100
AcDbEntity
 67
     1
  8
0
100
AcDbViewport
 10
420.5
 20
297.0
 30
0.0
 40
948.9782706766916
 41
628.452
 68
     1
 69
     1
1001
ACAD
1000
MVIEW
1002
{
1070
    16
1010
0.0
1020
0.0
1030
0.0
1010
0.0
1020
0.0
1030
1.0
1040
0.0
1040
628.452
1040
420.5
1040
297.0
1040
50.0
1040
0.0
1040
0.0
1070
     0
1070
   100
1070
     1
1070
     1
1070
     0
1070
     0
1070
     0
1070
     0
1040
0.0
1040
0.0
1040
0.0
1040
10.0
1040
10.0
1040
10.0
1040
10.0
1070
     0
1002
{
1002
}
1002
}
  0
ENDSEC
  0
SECTION
  2
OBJECTS
  0
DICTIONARY
  5
C
330
0
100
AcDbDictionary
  3
ACAD_GROUP
350
D
  3
ACAD_LAYOUT
350
1A
  3
ACAD_MLINESTYLE
350
17
  3
ACAD_PLOTSETTINGS
350
19
  3
ACAD_PLOTSTYLENAME
350
E
  3
ACDBVARIABLEDICTIONARY
350
34
  3
ACMDICTIONARY
350
43
  3
AMG
350
2B
  3
AMGSNAPSETTINGS
350
6E
  3
DWGPROPS
350
1D37
  3
ACDBHEADERROUNDTRIPXREC
350
1D43
  0
DICTIONARY
  5
74
330
1F
100
AcDbDictionary
280
     1
  3
ACAD_INDEX
360
1D39
  3
ACAD_LAYOUTSELFREF
360
1D66
  0
DICTIONARY
  5
1D6B
330
101
100
AcDbDictionary
280
     1
  3
ACAD_LAYOUTSELFREF
360
1D6C
  0
DICTIONARY
  5
D
102
{ACAD_REACTORS
330
C
102
}
330
C
100
AcDbDictionary
  0
DICTIONARY
  5
1A
102
{ACAD_REACTORS
330
C
102
}
330
C
100
AcDbDictionary
  0
DICTIONARY
  5
17
102
{ACAD_REACTORS
330
C
102
}
330
C
100
AcDbDictionary
  3
STANDARD
350
18
  0
DICTIONARY
  5
19
102
{ACAD_REACTORS
330
C
102
}
330
C
100
AcDbDictionary
  0
ACDBDICTIONARYWDFLT
  5
E
102
{ACAD_REACTORS
330
C
102
}
330
C
100
AcDbDictionary
281
     1
  3
Normal
350
F
100
AcDbDictionaryWithDefault
340
F
  0
DICTIONARY
  5
34
102
{ACAD_REACTORS
330
C
102
}
330
C
100
AcDbDictionary
  3
INDEXCTL
350
35
  3
SORTENTS
350
B5E
  0
DICTIONARY
  5
43
102
{ACAD_REACTORS
330
C
102
}
330
C
100
AcDbDictionary
  3
ACMSTDDICTIONARY
350
260
  0
DICTIONARY
  5
2B
102
{ACAD_REACTORS
330
C
102
}
330
C
100
AcDbDictionary
  3
ACMGSETTINGS
350
2C
  0
DICTIONARY
  5
6E
102
{ACAD_REACTORS
330
C
102
}
330
C
100
AcDbDictionary
  0
XRECORD
  5
1D37
102
{ACAD_REACTORS
330
C
102
}
330
C
100
AcDbXrecord
  1
DWGPROPS COOKIE
  2

  3

  4

  6

  7

  8

  9

300
AmdtFileType=82
301
=
302
=
303
=
304
=
305
=
306
=
307
=
308
=
309
=
 40
0.0391467824074074
 41
2452808.461142939
 42
2452844.412142106
  1

 90
        1
  0
DICTIONARY
  5
1D43
102
{ACAD_REACTORS
330
C
102
}
330
C
100
AcDbDictionary
  3
TSTACKALIGN
350
1D44
  3
TSTACKSIZE
350
1D45
  3
HYPERLINKBASE
350
1D46
  3
STYLESHEET
350
1D47
  3
LAYOUTDICT
350
1D48
  3
PLOTSETDICT
350
1D49
  3
PLOTSTYLNAMDICT
350
1D4A
  3
LWETCUNION
350
1D4B
  3
INSUNITS
350
1D4C
  3
CEPSNTYPE
350
1D4D
  3
FINGERPRINTGUID
350
1D4E
  3
VERSIONGUID
350
1D4F
  3
PSVPSCALE
350
1D50
  3
DIMSTYLEDATA
350
1D51
  3
PUCSORTHOREF
350
1D52
  3
PUCSORTHOVIEW
350
1D53
  3
PUCSBASE
350
1D54
  3
PUCSORGTOP
350
1D55
  3
PUCSORGBOTTOM
350
1D56
  3
PUCSORGLEFT
350
1D57
  3
PUCSORGRIGHT
350
1D58
  3
PUCSORGFRONT
350
1D59
  3
PUCSORGBACK
350
1D5A
  3
UCSORTHOREF
350
1D5B
  3
UCSORTHOVIEW
350
1D5C
  3
UCSBASE
350
1D5D
  3
UCSORGTOP
350
1D5E
  3
UCSORGBOTTOM
350
1D5F
  3
UCSORGLEFT
350
1D60
  3
UCSORGRIGHT
350
1D61
  3
UCSORGFRONT
350
1D62
  3
UCSORGBACK
350
1D63
  0
DICTIONARY
  5
1D39
102
{ACAD_REACTORS
330
74
102
}
330
74
100
AcDbDictionary
  3
*A1
350
1D3A
  0
XRECORD
  5
1D66
102
{ACAD_REACTORS
330
74
102
}
330
74
100
AcDbXrecord
340
1F
  0
XRECORD
  5
1D6C
102
{ACAD_REACTORS
330
1D6B
102
}
330
1D6B
100
AcDbXrecord
340
101
  0
MLINESTYLE
  5
18
102
{ACAD_REACTORS
330
17
102
}
330
17
100
AcDbMlineStyle
  2
STANDARD
 70
     0
  3

 62
   256
 51
90.0
 52
90.0
 71
     2
 49
0.5
 62
   256
  6
BYLAYER
 49
-0.5
 62
   256
  6
BYLAYER
  0
ACDBPLACEHOLDER
  5
F
102
{ACAD_REACTORS
330
E
102
}
330
E
100
AcDbPlaceHolder
280
     0
  0
DICTIONARYVAR
  5
35
102
{ACAD_REACTORS
330
34
102
}
330
34
100
DictionaryVariables
280
     0
  1
1
  0
DICTIONARYVAR
  5
B5E
102
{ACAD_REACTORS
330
34
102
}
330
34
100
DictionaryVariables
280
     0
  1
96
  0
DICTIONARY
  5
260
102
{ACAD_REACTORS
330
43
102
}
330
43
100
AcDbDictionary
  0
DICTIONARY
  5
2C
102
{ACAD_REACTORS
330
2B
102
}
330
2B
100
AcDbDictionary
  3
DWGSETTINGS
350
2D
  0
XRECORD
  5
1D44
102
{ACAD_REACTORS
330
1D43
102
}
330
1D43
100
AcDbXrecord
 90
        1
  0
XRECORD
  5
1D45
102
{ACAD_REACTORS
330
1D43
102
}
330
1D43
100
AcDbXrecord
 90
       70
  0
XRECORD
  5
1D46
102
{ACAD_REACTORS
330
1D43
102
}
330
1D43
100
AcDbXrecord
  1

  0
XRECORD
  5
1D47
102
{ACAD_REACTORS
330
1D43
102
}
330
1D43
100
AcDbXrecord
  1
ASAMI.ctb
  0
XRECORD
  5
1D48
102
{ACAD_REACTORS
330
1D43
102
}
330
1D43
100
AcDbXrecord
340
1A
  0
XRECORD
  5
1D49
102
{ACAD_REACTORS
330
1D43
102
}
330
1D43
100
AcDbXrecord
340
19
  0
XRECORD
  5
1D4A
102
{ACAD_REACTORS
330
1D43
102
}
330
1D43
100
AcDbXrecord
340
E
  0
XRECORD
  5
1D4B
102
{ACAD_REACTORS
330
1D43
102
}
330
1D43
100
AcDbXrecord
 90
    10781
  0
XRECORD
  5
1D4C
102
{ACAD_REACTORS
330
1D43
102
}
330
1D43
100
AcDbXrecord
 90
        4
  0
XRECORD
  5
1D4D
102
{ACAD_REACTORS
330
1D43
102
}
330
1D43
100
AcDbXrecord
 90
        0
  0
XRECORD
  5
1D4E
102
{ACAD_REACTORS
330
1D43
102
}
330
1D43
100
AcDbXrecord
  1
{AFB28963-8C59-40AE-9337-C84526B81ACE}
  0
XRECORD
  5
1D4F
102
{ACAD_REACTORS
330
1D43
102
}
330
1D43
100
AcDbXrecord
  1
{64CA53CA-A7D7-4D82-8F7D-928CFD84A04C}
  0
XRECORD
  5
1D50
102
{ACAD_REACTORS
330
1D43
102
}
330
1D43
100
AcDbXrecord
 40
0.0
  0
XRECORD
  5
1D51
102
{ACAD_REACTORS
330
1D43
102
}
330
1D43
100
AcDbXrecord
1000
DSTYLE
1002
{
1070
    79
 70
     2
1070
   341
340
59
1070
   342
340
59
1070
   371
 70
    -1
1070
   372
 70
    -1
1002
}
  0
XRECORD
  5
1D52
102
{ACAD_REACTORS
330
1D43
102
}
330
1D43
100
AcDbXrecord
340
0
  0
XRECORD
  5
1D53
102
{ACAD_REACTORS
330
1D43
102
}
330
1D43
100
AcDbXrecord
 70
     0
  0
XRECORD
  5
1D54
102
{ACAD_REACTORS
330
1D43
102
}
330
1D43
100
AcDbXrecord
340
0
  0
XRECORD
  5
1D55
102
{ACAD_REACTORS
330
1D43
102
}
330
1D43
100
AcDbXrecord
 10
0.0
 20
0.0
 30
0.0
  0
XRECORD
  5
1D56
102
{ACAD_REACTORS
330
1D43
102
}
330
1D43
100
AcDbXrecord
 10
0.0
 20
0.0
 30
0.0
  0
XRECORD
  5
1D57
102
{ACAD_REACTORS
330
1D43
102
}
330
1D43
100
AcDbXrecord
 10
0.0
 20
0.0
 30
0.0
  0
XRECORD
  5
1D58
102
{ACAD_REACTORS
330
1D43
102
}
330
1D43
100
AcDbXrecord
 10
0.0
 20
0.0
 30
0.0
  0
XRECORD
  5
1D59
102
{ACAD_REACTORS
330
1D43
102
}
330
1D43
100
AcDbXrecord
 10
0.0
 20
0.0
 30
0.0
  0
XRECORD
  5
1D5A
102
{ACAD_REACTORS
330
1D43
102
}
330
1D43
100
AcDbXrecord
 10
0.0
 20
0.0
 30
0.0
  0
XRECORD
  5
1D5B
102
{ACAD_REACTORS
330
1D43
102
}
330
1D43
100
AcDbXrecord
340
0
  0
XRECORD
  5
1D5C
102
{ACAD_REACTORS
330
1D43
102
}
330
1D43
100
AcDbXrecord
 70
     0
  0
XRECORD
  5
1D5D
102
{ACAD_REACTORS
330
1D43
102
}
330
1D43
100
AcDbXrecord
340
0
  0
XRECORD
  5
1D5E
102
{ACAD_REACTORS
330
1D43
102
}
330
1D43
100
AcDbXrecord
 10
0.0
 20
0.0
 30
0.0
  0
XRECORD
  5
1D5F
102
{ACAD_REACTORS
330
1D43
102
}
330
1D43
100
AcDbXrecord
 10
0.0
 20
0.0
 30
0.0
  0
XRECORD
  5
1D60
102
{ACAD_REACTORS
330
1D43
102
}
330
1D43
100
AcDbXrecord
 10
0.0
 20
0.0
 30
0.0
  0
XRECORD
  5
1D61
102
{ACAD_REACTORS
330
1D43
102
}
330
1D43
100
AcDbXrecord
 10
0.0
 20
0.0
 30
0.0
  0
XRECORD
  5
1D62
102
{ACAD_REACTORS
330
1D43
102
}
330
1D43
100
AcDbXrecord
 10
0.0
 20
0.0
 30
0.0
  0
XRECORD
  5
1D63
102
{ACAD_REACTORS
330
1D43
102
}
330
1D43
100
AcDbXrecord
 10
0.0
 20
0.0
 30
0.0
  0
LAYER_INDEX
  5
1D3A
102
{ACAD_REACTORS
330
1D39
102
}
330
1D39
100
AcDbIndex
 40
2452844.458498796
100
AcDbLayerIndex
  8
0
360
1D3B
 90
        0
  8
AM_0
360
1D3C
 90
       71
  8
AM_11
360
1D3D
 90
        5
  8
AM_6
360
1D3E
 90
        1
  8
AM_7
360
1D3F
 90
        2
  8
AM_5
360
1D40
 90
        4
  8
Defpoints
360
1D41
 90
        0
  0
XRECORD
  5
2D
102
{ACAD_REACTORS
330
2C
102
}
330
2C
100
AcDbXrecord
  1
VERSION
140
15.0
  1
PRODUCT
  2
AutoCAD Mechanical 2000
  0
IDBUFFER
  5
1D3B
330
0
100
AcDbIdBuffer
  0
IDBUFFER
  5
1D3C
330
0
100
AcDbIdBuffer
330
1BCB
330
1BCC
330
1BCD
330
1BCE
330
1BCF
330
1BD0
330
1BD1
330
1BD2
330
1BD3
330
1BD4
330
1BD5
330
1BD6
330
1BD7
330
1BD8
330
1BD9
330
1BDA
330
1BDB
330
1BDC
330
1BDD
330
1BDE
330
1BDF
330
1BE0
330
1BE1
330
1A69
330
1A6A
330
1A6B
330
1A6C
330
1A6E
330
1A6F
330
1A70
330
1AB0
330
1AB1
330
1AB2
330
1AB4
330
1B85
330
1B86
330
1B87
330
1B88
330
1B89
330
1B8A
330
1B8B
330
1B8C
330
1B8D
330
1B8E
330
1B90
330
1B91
330
1B93
330
1B94
330
1B95
330
1B99
330
1BA8
330
1BB7
330
1BB8
330
1BB9
330
1BBA
330
1BBB
330
1BBC
330
1BBD
330
1BBE
330
1BBF
330
1BC0
330
1BC1
330
1BC2
330
1BC3
330
1BC4
330
1BC5
330
1BC6
330
1BC7
330
1BC8
330
1BC9
330
1BCA
  0
IDBUFFER
  5
1D3D
330
0
100
AcDbIdBuffer
330
1B8F
330
1B92
330
1B96
330
1B97
330
1B98
  0
IDBUFFER
  5
1D3E
330
0
100
AcDbIdBuffer
330
F07
  0
IDBUFFER
  5
1D3F
330
0
100
AcDbIdBuffer
330
1BEF
330
1BFD
  0
IDBUFFER
  5
1D40
330
0
100
AcDbIdBuffer
330
1A6D
330
1BA9
330
1BE2
330
1BF0
  0
IDBUFFER
  5
1D41
330
0
100
AcDbIdBuffer
  0
ENDSEC
  0
EOF
