  0
SECTION
  2
HEADER
  9
$ACADVER
  1
AC1014
  9
$ACADMAINTVER
 70
     9
  9
$DWGCODEPAGE
  3
ANSI_932
  9
$INSBASE
 10
0.0
 20
0.0
 30
0.0
  9
$EXTMIN
 10
-110.730567256414
 20
-53.50000000000016
 30
-0.00000001
  9
$EXTMAX
 10
18.31579047368419
 20
19.84999999999994
 30
0.00000001
  9
$LIMMIN
 10
-122.4546817841135
 20
-66.24777602773566
  9
$LIMMAX
 10
29.01852705487965
 20
26.05441455694045
  9
$ORTHOMODE
 70
     0
  9
$REGENMODE
 70
     1
  9
$FILLMODE
 70
     1
  9
$QTEXTMODE
 70
     0
  9
$MIRRTEXT
 70
     0
  9
$DRAGMODE
 70
     2
  9
$LTSCALE
 40
1.0
  9
$OSMODE
 70
  2103
  9
$ATTMODE
 70
     1
  9
$TEXTSIZE
 40
2.5
  9
$TRACEWID
 40
1.0
  9
$TEXTSTYLE
  7
ACJISGDT
  9
$CLAYER
  8
AM_0
  9
$CELTYPE
  6
BYLAYER
  9
$CECOLOR
 62
   256
  9
$CELTSCALE
 40
1.0
  9
$DELOBJ
 70
     1
  9
$DISPSILH
 70
     0
  9
$DIMSCALE
 40
1.0
  9
$DIMASZ
 40
2.5
  9
$DIMEXO
 40
1.0
  9
$DIMDLI
 40
12.0
  9
$DIMRND
 40
0.0
  9
$DIMDLE
 40
0.0
  9
$DIMEXE
 40
1.0
  9
$DIMTP
 40
0.1
  9
$DIMTM
 40
0.1
  9
$DIMTXT
 40
3.2
  9
$DIMCEN
 40
0.0
  9
$DIMTSZ
 40
0.0
  9
$DIMTOL
 70
     0
  9
$DIMLIM
 70
     0
  9
$DIMTIH
 70
     0
  9
$DIMTOH
 70
     0
  9
$DIMSE1
 70
     0
  9
$DIMSE2
 70
     0
  9
$DIMTAD
 70
     3
  9
$DIMZIN
 70
     8
  9
$DIMBLK
  1
OPEN30
  9
$DIMASO
 70
     1
  9
$DIMSHO
 70
     1
  9
$DIMPOST
  1

  9
$DIMAPOST
  1
"
  9
$DIMALT
 70
     0
  9
$DIMALTD
 70
     2
  9
$DIMALTF
 40
0.0393701
  9
$DIMLFAC
 40
1.0
  9
$DIMTOFL
 70
     1
  9
$DIMTVP
 40
0.0
  9
$DIMTIX
 70
     0
  9
$DIMSOXD
 70
     0
  9
$DIMSAH
 70
     0
  9
$DIMBLK1
  1

  9
$DIMBLK2
  1

  9
$DIMSTYLE
  2
AM_JIS
  9
$DIMCLRD
 70
   256
  9
$DIMCLRE
 70
   256
  9
$DIMCLRT
 70
     2
  9
$DIMTFAC
 40
0.71
  9
$DIMGAP
 40
1.5
  9
$DIMJUST
 70
     0
  9
$DIMSD1
 70
     0
  9
$DIMSD2
 70
     0
  9
$DIMTOLJ
 70
     0
  9
$DIMTZIN
 70
     0
  9
$DIMALTZ
 70
     0
  9
$DIMALTTZ
 70
     0
  9
$DIMFIT
 70
     3
  9
$DIMUPT
 70
     0
  9
$DIMUNIT
 70
     2
  9
$DIMDEC
 70
     3
  9
$DIMTDEC
 70
     3
  9
$DIMALTU
 70
     2
  9
$DIMALTTD
 70
     2
  9
$DIMTXSTY
  7
ASAMI
  9
$DIMAUNIT
 70
     0
  9
$LUNITS
 70
     2
  9
$LUPREC
 70
     2
  9
$SKETCHINC
 40
1.0
  9
$FILLETRAD
 40
2.5
  9
$AUNITS
 70
     0
  9
$AUPREC
 70
     0
  9
$MENU
  1
.
  9
$ELEVATION
 40
0.0
  9
$PELEVATION
 40
0.0
  9
$THICKNESS
 40
0.0
  9
$LIMCHECK
 70
     0
  9
$BLIPMODE
 70
     0
  9
$CHAMFERA
 40
0.5
  9
$CHAMFERB
 40
0.5
  9
$CHAMFERC
 40
20.0
  9
$CHAMFERD
 40
0.0
  9
$SKPOLY
 70
     0
  9
$TDCREATE
 40
2452808.461142939
  9
$TDUPDATE
 40
2452844.458678738
  9
$TDINDWG
 40
0.0397162500
  9
$TDUSRTIMER
 40
0.0397162500
  9
$USRTIMER
 70
     1
  9
$ANGBASE
 50
0.0
  9
$ANGDIR
 70
     0
  9
$PDMODE
 70
     0
  9
$PDSIZE
 40
0.0
  9
$PLINEWID
 40
0.0
  9
$COORDS
 70
     2
  9
$SPLFRAME
 70
     0
  9
$SPLINETYPE
 70
     6
  9
$SPLINESEGS
 70
     8
  9
$ATTDIA
 70
     1
  9
$ATTREQ
 70
     1
  9
$HANDLING
 70
 12289
  9
$HANDSEED
  5
1BEB
  9
$SURFTAB1
 70
     6
  9
$SURFTAB2
 70
     6
  9
$SURFTYPE
 70
     6
  9
$SURFU
 70
     6
  9
$SURFV
 70
     6
  9
$UCSNAME
  2

  9
$UCSORG
 10
0.0
 20
-0.0000000000000031
 30
0.0
  9
$UCSXDIR
 10
1.0
 20
0.0
 30
0.0
  9
$UCSYDIR
 10
0.0
 20
1.0
 30
0.0
  9
$PUCSNAME
  2

  9
$PUCSORG
 10
0.0
 20
0.0
 30
0.0
  9
$PUCSXDIR
 10
1.0
 20
0.0
 30
0.0
  9
$PUCSYDIR
 10
0.0
 20
1.0
 30
0.0
  9
$USERI1
 70
     0
  9
$USERI2
 70
     0
  9
$USERI3
 70
     0
  9
$USERI4
 70
     0
  9
$USERI5
 70
     0
  9
$USERR1
 40
0.0
  9
$USERR2
 40
0.0
  9
$USERR3
 40
0.0
  9
$USERR4
 40
0.0
  9
$USERR5
 40
0.0
  9
$WORLDVIEW
 70
     1
  9
$SHADEDGE
 70
     3
  9
$SHADEDIF
 70
    70
  9
$TILEMODE
 70
     1
  9
$MAXACTVP
 70
    64
  9
$PINSBASE
 10
0.0
 20
0.0
 30
0.0
  9
$PLIMCHECK
 70
     0
  9
$PEXTMIN
 10
1.000000000000000E+20
 20
1.000000000000000E+20
 30
1.000000000000000E+20
  9
$PEXTMAX
 10
-1.000000000000000E+20
 20
-1.000000000000000E+20
 30
-1.000000000000000E+20
  9
$PLIMMIN
 10
0.0
 20
0.0
  9
$PLIMMAX
 10
841.0
 20
594.0
  9
$UNITMODE
 70
     0
  9
$VISRETAIN
 70
     1
  9
$PLINEGEN
 70
     0
  9
$PSLTSCALE
 70
     0
  9
$TREEDEPTH
 70
  3020
  9
$PICKSTYLE
 70
     0
  9
$CMLSTYLE
  2
STANDARD
  9
$CMLJUST
 70
     0
  9
$CMLSCALE
 40
20.0
  9
$PROXYGRAPHICS
 70
     1
  9
$MEASUREMENT
 70
     1
  0
ENDSEC
  0
SECTION
  2
CLASSES
  0
CLASS
  1
ACDBDICTIONARYWDFLT
  2
AcDbDictionaryWithDefault
  3
AutoCAD 2000
 90
        0
280
     0
281
     0
  0
CLASS
  1
ACDBPLACEHOLDER
  2
AcDbPlaceHolder
  3
AutoCAD 2000
 90
        0
280
     0
281
     0
  0
CLASS
  1
LAYOUT
  2
AcDbLayout
  3
AutoCAD 2000
 90
        0
280
     0
281
     0
  0
CLASS
  1
AMGSETTINGSOBJ
  2
AmgSettingsObj
  3
"AcadM|Product Description: AutoCAD Mechanical 2000|Company: Autodesk"
 90
        0
280
     0
281
     0
  0
CLASS
  1
ACME_DOCUMENT
  2
AcMeDbDoc
  3
AcMeServices
 90
        0
280
     0
281
     0
  0
CLASS
  1
ACMESCOPE
  2
AcMeScope
  3
AcMeServices
 90
        0
280
     0
281
     0
  0
CLASS
  1
ACMECOMMANDHISTORY
  2
AcMeCommandHistory
  3
AcMeServices
 90
        0
280
     0
281
     0
  0
CLASS
  1
DICTIONARYVAR
  2
AcDbDictionaryVar
  3
AutoCAD 2000
 90
        0
280
     0
281
     0
  0
CLASS
  1
ACIMSYSVARMAN
  2
AcImSysVarManager
  3
AcMeServices
 90
        0
280
     0
281
     0
  0
CLASS
  1
ACIMREALSYSVAR
  2
AcImRealSysVar
  3
AcMeServices
 90
        0
280
     0
281
     0
  0
CLASS
  1
ACIMINTSYSVAR
  2
AcImIntSysVar
  3
AcMeServices
 90
        0
280
     0
281
     0
  0
CLASS
  1
ACMEDRAWINGMAN
  2
AcMeDrawingMan
  3
AcMeServices
 90
        0
280
     0
281
     0
  0
CLASS
  1
ACMEVIEW
  2
AcMeView
  3
AcMeServices
 90
        0
280
     0
281
     0
  0
CLASS
  1
ACDBENTITYCACHE
  2
AcMeEntityCache
  3
AcMeServices
 90
        0
280
     0
281
     0
  0
CLASS
  1
GSMANAGER
  2
AcMeGSManager
  3
AcMeServices
 90
        0
280
     0
281
     0
  0
CLASS
  1
AmdtInternalReactor
  2
AmdtInternalReactor
  3
AcMeServices
 90
        0
280
     0
281
     0
  0
CLASS
  1
ACMESTATEMGR
  2
AcMeStateMgr
  3
AcMeServices
 90
        0
280
     0
281
     0
  0
CLASS
  1
ACME_DATABASE
  2
AcMeDbDatabase
  3
AcMeServices
 90
        0
280
     0
281
     0
  0
CLASS
  1
ACRFINSADJUSTERMGR
  2
AcRfInsAdjusterMgr
  3
AcMeServices
 90
        0
280
     0
281
     0
  0
CLASS
  1
ACMDATADICTIONARY
  2
AcmDataDictionary
  3
"AcmSymBB|Product Description: AutoCAD Mechanical 2000|Company: Autodesk"
 90
        0
280
     0
281
     0
  0
CLASS
  1
ACMDATAENTRYBLOCK
  2
AcmDataEntryBlock
  3
"AcmSymBB|Product Description: AutoCAD Mechanical 2000|Company: Autodesk"
 90
        0
280
     0
281
     0
  0
CLASS
  1
AMGOBJPROPCFG
  2
AmgObjPropCfg
  3
"AmgLay|Product Description: AutoCAD Mechanical 2000|Company: Autodesk"
 90
        1
280
     0
281
     0
  0
CLASS
  1
ACAMGFILTERDAT
  2
AcAmgFilterDat
  3
"AcadM|Product Description: AutoCAD Mechanical 2000|Company: Autodesk"
 90
        0
280
     0
281
     0
  0
CLASS
  1
LAYER_INDEX
  2
AcDbLayerIndex
  3
AutoCAD 2000
 90
        0
280
     0
281
     0
  0
CLASS
  1
IDBUFFER
  2
AcDbIdBuffer
  3
AutoCAD 2000
 90
        0
280
     0
281
     0
  0
CLASS
  1
ACIMSTRSYSVAR
  2
AcImStrSysVar
  3
AcMeServices
 90
        0
280
     0
281
     0
  0
CLASS
  1
ACMSTANDARDJIS
  2
AcmStandardJIS
  3
"AcmSymBB|Product Description: AutoCAD Mechanical 2000|Company: Autodesk"
 90
        0
280
     0
281
     0
  0
CLASS
  1
ACMSURFSTANDARDJIS
  2
AcmSurfTextStdJIS
  3
"AcmSymBB|Product Description: AutoCAD Mechanical 2000|Company: Autodesk"
 90
        0
280
     0
281
     0
  0
CLASS
  1
ACMFCFSTANDARDJIS
  2
AcmFCFStdJIS
  3
"AcmSymBB|Product Description: AutoCAD Mechanical 2000|Company: Autodesk"
 90
        0
280
     0
281
     0
  0
CLASS
  1
ACMWELDSTANDARDJIS
  2
AcmWeldingStdJIS
  3
"AcmSymBB|Product Description: AutoCAD Mechanical 2000|Company: Autodesk"
 90
        0
280
     0
281
     0
  0
CLASS
  1
ACMIDSTANDARDJIS
  2
AcmIdStdJIS
  3
"AcmSymBB|Product Description: AutoCAD Mechanical 2000|Company: Autodesk"
 90
        0
280
     0
281
     0
  0
CLASS
  1
ACMDATUMSTANDARDJIS
  2
AcmDatumStdJIS
  3
"AcmSymBB|Product Description: AutoCAD Mechanical 2000|Company: Autodesk"
 90
        0
280
     0
281
     0
  0
CLASS
  1
ACMBOMSTANDARDJIS
  2
AcmBOMStdJIS
  3
"AcmSymBB|Product Description: AutoCAD Mechanical 2000|Company: Autodesk"
 90
        0
280
     0
281
     0
  0
CLASS
  1
ACMSTANDARDANSI
  2
AcmStandardANSI
  3
"AcmSymBB|Product Description: AutoCAD Mechanical 2000|Company: Autodesk"
 90
        0
280
     0
281
     0
  0
CLASS
  1
ACMSURFSTANDARDANSI
  2
AcmSurfTextStdANSI
  3
"AcmSymBB|Product Description: AutoCAD Mechanical 2000|Company: Autodesk"
 90
        0
280
     0
281
     0
  0
CLASS
  1
ACMFCFSTANDARDANSI
  2
AcmFCFStdANSI
  3
"AcmSymBB|Product Description: AutoCAD Mechanical 2000|Company: Autodesk"
 90
        0
280
     0
281
     0
  0
CLASS
  1
ACMWELDSTANDARDANSI
  2
AcmWeldingStdANSI
  3
"AcmSymBB|Product Description: AutoCAD Mechanical 2000|Company: Autodesk"
 90
        0
280
     0
281
     0
  0
CLASS
  1
ACMIDSTANDARDANSI
  2
AcmIdStdANSI
  3
"AcmSymBB|Product Description: AutoCAD Mechanical 2000|Company: Autodesk"
 90
        0
280
     0
281
     0
  0
CLASS
  1
ACMDATUMSTANDARDANSI
  2
AcmDatumStdANSI
  3
"AcmSymBB|Product Description: AutoCAD Mechanical 2000|Company: Autodesk"
 90
        0
280
     0
281
     0
  0
CLASS
  1
ACMBOMSTANDARDANSI
  2
AcmBOMStdANSI
  3
"AcmSymBB|Product Description: AutoCAD Mechanical 2000|Company: Autodesk"
 90
        0
280
     0
281
     0
  0
CLASS
  1
ACMSTANDARDBSI
  2
AcmStandardBSI
  3
"AcmSymBB|Product Description: AutoCAD Mechanical 2000|Company: Autodesk"
 90
        0
280
     0
281
     0
  0
CLASS
  1
ACMSURFSTANDARDBSI
  2
AcmSurfTextStdBSI
  3
"AcmSymBB|Product Description: AutoCAD Mechanical 2000|Company: Autodesk"
 90
        0
280
     0
281
     0
  0
CLASS
  1
ACMFCFSTANDARDBSI
  2
AcmFCFStdBSI
  3
"AcmSymBB|Product Description: AutoCAD Mechanical 2000|Company: Autodesk"
 90
        0
280
     0
281
     0
  0
CLASS
  1
ACMWELDSTANDARDBSI
  2
AcmWeldingStdBSI
  3
"AcmSymBB|Product Description: AutoCAD Mechanical 2000|Company: Autodesk"
 90
        0
280
     0
281
     0
  0
CLASS
  1
ACMIDSTANDARDBSI
  2
AcmIdStdBSI
  3
"AcmSymBB|Product Description: AutoCAD Mechanical 2000|Company: Autodesk"
 90
        0
280
     0
281
     0
  0
CLASS
  1
ACMDATUMSTANDARDBSI
  2
AcmDatumStdBSI
  3
"AcmSymBB|Product Description: AutoCAD Mechanical 2000|Company: Autodesk"
 90
        0
280
     0
281
     0
  0
CLASS
  1
ACMBOMSTANDARDBSI
  2
AcmBOMStdBSI
  3
"AcmSymBB|Product Description: AutoCAD Mechanical 2000|Company: Autodesk"
 90
        0
280
     0
281
     0
  0
CLASS
  1
LONG_TRANSACTION
  2
AcDbLongTransaction
  3
AutoCAD 2000
 90
        0
280
     0
281
     0
  0
CLASS
  1
LWPOLYLINE
  2
AcDbPolyline
  3
AutoCAD 2000
 90
        0
280
     0
281
     1
  0
CLASS
  1
HATCH
  2
AcDbHatch
  3
AutoCAD 2000
 90
        0
280
     0
281
     1
  0
CLASS
  1
XRECORD
  2
AcDbXrecord
  3
AutoCAD 2000
 90
        0
280
     0
281
     0
  0
ENDSEC
  0
SECTION
  2
TABLES
  0
TABLE
  2
VPORT
  5
8
330
0
100
AcDbSymbolTable
 70
     3
  0
VPORT
  5
1BC0
330
8
100
AcDbSymbolTableRecord
100
AcDbViewportTableRecord
  2
*ACTIVE
 70
     0
 10
0.0
 20
0.0
 11
1.0
 21
1.0
 12
-46.20599168289797
 22
-16.8250529473719
 13
0.0
 23
0.0
 14
2.5
 24
2.5
 15
10.0
 25
10.0
 16
0.0
 26
0.0
 36
1.0
 17
0.0
 27
0.0
 37
0.0
 40
82.75688976703083
 41
1.56570841889117
 42
50.0
 43
0.0
 44
0.0
 50
0.0
 51
0.0
 71
     0
 72
   100
 73
     1
 74
     3
 75
     0
 76
     0
 77
     0
 78
     0
  0
ENDTAB
  0
TABLE
  2
LTYPE
  5
5
330
0
100
AcDbSymbolTable
 70
    10
  0
LTYPE
  5
14
330
5
100
AcDbSymbolTableRecord
100
AcDbLinetypeTableRecord
  2
BYBLOCK
 70
     0
  3

 72
    65
 73
     0
 40
0.0
  0
LTYPE
  5
15
330
5
100
AcDbSymbolTableRecord
100
AcDbLinetypeTableRecord
  2
BYLAYER
 70
     0
  3

 72
    65
 73
     0
 40
0.0
  0
LTYPE
  5
16
330
5
100
AcDbSymbolTableRecord
100
AcDbLinetypeTableRecord
  2
CONTINUOUS
 70
     0
  3
Solid line
 72
    65
 73
     0
 40
0.0
  0
LTYPE
  5
4B
330
5
100
AcDbSymbolTableRecord
100
AcDbLinetypeTableRecord
  2
AM_ISO02W050
 70
     0
  3
__ __ __ __ __ __ __ __ __ __ __ __ __ __ __
 72
    65
 73
     2
 40
7.5
 49
6.0
 74
     0
 49
-1.5
 74
     0
  0
LTYPE
  5
4C
330
5
100
AcDbSymbolTableRecord
100
AcDbLinetypeTableRecord
  2
AM_ISO08W050
 70
     0
  3
____ . ____ . ____ . ____ . ____ . ____ . ____
 72
    65
 73
     4
 40
18.0
 49
12.0
 74
     0
 49
-1.5
 74
     0
 49
3.0
 74
     0
 49
-1.5
 74
     0
  0
LTYPE
  5
4D
330
5
100
AcDbSymbolTableRecord
100
AcDbLinetypeTableRecord
  2
AM_ISO09W050
 70
     0
  3
_____ . . _____ . . _____ . . ____ .. ____
 72
    65
 73
     6
 40
22.5
 49
12.0
 74
     0
 49
-1.5
 74
     0
 49
3.0
 74
     0
 49
-1.5
 74
     0
 49
3.0
 74
     0
 49
-1.5
 74
     0
  0
LTYPE
  5
4E
330
5
100
AcDbSymbolTableRecord
100
AcDbLinetypeTableRecord
  2
AMCONSTR
 70
     0
  3
_______________________
 72
    65
 73
     2
 40
9999.0
 49
9999.0
 74
     0
 49
0.0
 74
     0
  0
LTYPE
  5
4F
330
5
100
AcDbSymbolTableRecord
100
AcDbLinetypeTableRecord
  2
AM_ISO02W050X2
 70
     0
  3
 _ _ _ _ _ _ _ _ _ _ _ _
 72
    65
 73
     2
 40
3.75
 49
3.0
 74
     0
 49
-0.75
 74
     0
  0
LTYPE
  5
50
330
5
100
AcDbSymbolTableRecord
100
AcDbLinetypeTableRecord
  2
AM_ISO08W050X2
 70
     0
  3
__ . __ . __ . __ . __ . __
 72
    65
 73
     4
 40
9.0
 49
6.0
 74
     0
 49
-0.75
 74
     0
 49
1.5
 74
     0
 49
-0.75
 74
     0
  0
LTYPE
  5
53
330
5
100
AcDbSymbolTableRecord
100
AcDbLinetypeTableRecord
  2
AMZIGZAG
 70
     0
  3
/\/-/\/-/\/-/\/-/\/-/\/
 72
    65
 73
     2
 40
11.00009999999999
 49
0.0001
 74
     4
 75
   135
340
52
 46
0.04
 50
0.0
 44
0.0
 45
0.0
 49
-11.0
 74
     0
  0
LTYPE
  5
166
330
5
100
AcDbSymbolTableRecord
100
AcDbLinetypeTableRecord
  2
ACJISTGL
 70
     0
  3
_ _ _ _ _
 72
    65
 73
     2
 40
3.0
 49
2.0
 74
     0
 49
-1.0
 74
     0
  0
LTYPE
  5
26A
330
5
100
AcDbSymbolTableRecord
100
AcDbLinetypeTableRecord
  2
ACJISTGB
 70
     0
  3
__ . . __ . .
 72
    65
 73
     6
 40
9.0
 49
4.0
 74
     0
 49
-1.0
 74
     0
 49
1.0
 74
     0
 49
-1.0
 74
     0
 49
1.0
 74
     0
 49
-1.0
 74
     0
  0
ENDTAB
  0
TABLE
  2
LAYER
  5
2
330
0
100
AcDbSymbolTable
 70
     7
  0
LAYER
  5
10
330
2
100
AcDbSymbolTableRecord
100
AcDbLayerTableRecord
  2
0
 70
     0
 62
     7
  6
CONTINUOUS
  0
LAYER
  5
3F9
330
2
100
AcDbSymbolTableRecord
100
AcDbLayerTableRecord
  2
AM_0
 70
     0
 62
     7
  6
CONTINUOUS
  0
LAYER
  5
BA4
330
2
100
AcDbSymbolTableRecord
100
AcDbLayerTableRecord
  2
AM_11
 70
     0
 62
     3
  6
AM_ISO09W050
  0
LAYER
  5
BA6
330
2
100
AcDbSymbolTableRecord
100
AcDbLayerTableRecord
  2
AM_6
 70
     0
 62
     2
  6
CONTINUOUS
  0
LAYER
  5
BA7
330
2
100
AcDbSymbolTableRecord
100
AcDbLayerTableRecord
  2
AM_7
 70
     0
 62
     4
  6
AM_ISO08W050
  0
LAYER
  5
D0E
330
2
100
AcDbSymbolTableRecord
100
AcDbLayerTableRecord
  2
AM_5
 70
     0
 62
     3
  6
CONTINUOUS
  0
LAYER
  5
FE8
330
2
100
AcDbSymbolTableRecord
100
AcDbLayerTableRecord
  2
DEFPOINTS
 70
     0
 62
     7
  6
CONTINUOUS
  0
ENDTAB
  0
TABLE
  2
STYLE
  5
3
330
0
100
AcDbSymbolTable
 70
     5
  0
STYLE
  5
11
330
3
100
AcDbSymbolTableRecord
100
AcDbTextStyleTableRecord
  2
STANDARD
 70
     0
 40
0.0
 41
1.0
 50
0.0
 71
     0
 42
2.5
  3
simplex.shx
  4
EXTFONT.SHX
  0
STYLE
  5
52
330
3
100
AcDbSymbolTableRecord
100
AcDbTextStyleTableRecord
  2

 70
     1
 40
0.0
 41
1.0
 50
0.0
 71
     0
 42
2.5
  3
ltypeshp.shx
  4

  0
STYLE
  5
6B
330
3
100
AcDbSymbolTableRecord
100
AcDbTextStyleTableRecord
  2
ASAMI
 70
     0
 40
0.0
 41
1.0
 50
0.0
 71
     0
 42
2.5
  3
simplex.shx
  4
EXTFONT.SHX
  0
STYLE
  5
262
330
3
100
AcDbSymbolTableRecord
100
AcDbTextStyleTableRecord
  2
ACJISTS
 70
     0
 40
1.0
 41
1.0
 50
0.0
 71
     0
 42
2.5
  3
simplex.shx
  4
bigfont.shx
  0
STYLE
  5
269
330
3
100
AcDbSymbolTableRecord
100
AcDbTextStyleTableRecord
  2
ACJISGDT
 70
     0
 40
0.0
 41
1.0
 50
0.0
 71
     0
 42
2.5
  3
amgdtans.shx
  4

  0
ENDTAB
  0
TABLE
  2
VIEW
  5
6
330
0
100
AcDbSymbolTable
 70
     0
  0
ENDTAB
  0
TABLE
  2
UCS
  5
7
330
0
100
AcDbSymbolTable
 70
     0
  0
ENDTAB
  0
TABLE
  2
APPID
  5
9
330
0
100
AcDbSymbolTable
 70
    12
  0
APPID
  5
12
330
9
100
AcDbSymbolTableRecord
100
AcDbRegAppTableRecord
  2
ACAD
 70
     0
  0
APPID
  5
30
330
9
100
AcDbSymbolTableRecord
100
AcDbRegAppTableRecord
  2
MCAD_NO_VIS
 70
     0
  0
APPID
  5
31
330
9
100
AcDbSymbolTableRecord
100
AcDbRegAppTableRecord
  2
ACAD_TEMP_GRAPHIC
 70
     0
  0
APPID
  5
2C2
330
9
100
AcDbSymbolTableRecord
100
AcDbRegAppTableRecord
  2
GENIUS_GENDTOL_13
 70
     0
  0
APPID
  5
339
330
9
100
AcDbSymbolTableRecord
100
AcDbRegAppTableRecord
  2
GENIUS_GENODEF_13
 70
     0
  0
APPID
  5
33A
330
9
100
AcDbSymbolTableRecord
100
AcDbRegAppTableRecord
  2
GENIUS_GENOBJ-N-RSBK_13
 70
     0
  0
APPID
  5
33B
330
9
100
AcDbSymbolTableRecord
100
AcDbRegAppTableRecord
  2
GENIUS_GENOBJ-N-LIB_13
 70
     0
  0
APPID
  5
33C
330
9
100
AcDbSymbolTableRecord
100
AcDbRegAppTableRecord
  2
GENIUS_GENSCALE_13
 70
     0
  0
APPID
  5
378
330
9
100
AcDbSymbolTableRecord
100
AcDbRegAppTableRecord
  2
GENIUS_GENDIMSH_14
 70
     0
  0
APPID
  5
BA8
330
9
100
AcDbSymbolTableRecord
100
AcDbRegAppTableRecord
  2
GENIUS_GENOBJ-N-CEN_13
 70
     0
  0
APPID
  5
EE8
330
9
100
AcDbSymbolTableRecord
100
AcDbRegAppTableRecord
  2
GENIUS_GENFIL_13
 70
     0
  0
APPID
  5
EE9
330
9
100
AcDbSymbolTableRecord
100
AcDbRegAppTableRecord
  2
GENIUS_GENOBJ-N-CHA_13
 70
     0
  0
ENDTAB
  0
TABLE
  2
DIMSTYLE
  5
A
330
0
100
AcDbSymbolTable
 70
     8
  0
DIMSTYLE
105
58
102
{ACAD_REACTORS
330
18A5
330
19C6
330
19FE
330
1A46
102
}
330
A
100
AcDbSymbolTableRecord
100
AcDbDimStyleTableRecord
  2
AM_JIS
 70
     0
  3

  4
"
  5
OPEN30
  6

  7

 40
1.0
 41
2.5
 42
1.0
 43
12.0
 44
1.0
 45
0.0
 46
0.0
 47
0.1
 48
0.1
140
3.2
141
0.0
142
0.0
143
0.0393701
144
1.0
145
0.0
146
0.71
147
1.5
 71
     0
 72
     0
 73
     0
 74
     0
 75
     0
 76
     0
 77
     3
 78
     8
170
     0
171
     2
172
     1
173
     0
174
     0
175
     0
176
   256
177
   256
178
     2
270
     2
271
     3
272
     3
273
     2
274
     2
340
6B
275
     0
280
     0
281
     0
282
     0
283
     0
284
     0
285
     0
286
     0
287
     3
288
     0
  0
DIMSTYLE
105
5F
330
A
100
AcDbSymbolTableRecord
100
AcDbDimStyleTableRecord
  2
AM_JIS$3
 70
     0
  3

  4
"
  5
OPEN30
  6

  7

 40
1.0
 41
2.5
 42
1.0
 43
10.0
 44
1.0
 45
0.0
 46
0.0
 47
0.1
 48
0.1
140
3.2
141
0.0
142
0.0
143
0.0393701
144
1.0
145
0.0
146
0.71
147
1.5
 71
     0
 72
     0
 73
     0
 74
     1
 75
     0
 76
     0
 77
     3
 78
     8
170
     0
171
     2
172
     0
173
     0
174
     0
175
     0
176
   256
177
   256
178
     2
270
     2
271
     2
272
     3
273
     2
274
     2
340
6B
275
     0
280
     0
281
     0
282
     0
283
     0
284
     0
285
     0
286
     0
287
     0
288
     1
  0
DIMSTYLE
105
60
330
A
100
AcDbSymbolTableRecord
100
AcDbDimStyleTableRecord
  2
AM_JIS$4
 70
     0
  3

  4
"
  5
OPEN30
  6

  7

 40
1.0
 41
2.5
 42
1.0
 43
10.0
 44
1.0
 45
0.0
 46
0.0
 47
0.1
 48
0.1
140
3.2
141
0.0
142
0.0
143
0.0393701
144
1.0
145
0.0
146
0.71
147
1.5
 71
     0
 72
     0
 73
     0
 74
     1
 75
     0
 76
     0
 77
     3
 78
     8
170
     0
171
     2
172
     0
173
     0
174
     0
175
     0
176
   256
177
   256
178
     2
270
     2
271
     2
272
     3
273
     2
274
     2
340
6B
275
     0
280
     0
281
     0
282
     0
283
     0
284
     0
285
     0
286
     0
287
     0
288
     1
  0
DIMSTYLE
105
61
330
A
100
AcDbSymbolTableRecord
100
AcDbDimStyleTableRecord
  2
AM_JIS$6
 70
     0
  3

  4
"
  5
OPEN30
  6

  7

 40
1.0
 41
2.5
 42
1.0
 43
10.0
 44
1.0
 45
0.0
 46
0.0
 47
0.1
 48
0.1
140
3.2
141
0.0
142
0.0
143
0.0393701
144
1.0
145
0.0
146
0.71
147
1.5
 71
     0
 72
     0
 73
     0
 74
     0
 75
     0
 76
     0
 77
     0
 78
     8
170
     0
171
     2
172
     1
173
     0
174
     0
175
     0
176
   256
177
   256
178
     2
270
     2
271
     2
272
     2
273
     2
274
     2
340
6B
275
     0
280
     0
281
     0
282
     0
283
     0
284
     0
285
     0
286
     0
287
     3
288
     0
  0
DIMSTYLE
105
62
330
A
100
AcDbSymbolTableRecord
100
AcDbDimStyleTableRecord
  2
AM_JIS$7
 70
     0
  3

  4
"
  5
OPEN30
  6

  7

 40
1.0
 41
2.5
 42
1.0
 43
10.0
 44
1.0
 45
0.0
 46
0.0
 47
0.1
 48
0.1
140
3.2
141
0.0
142
0.0
143
0.0393701
144
1.0
145
0.0
146
0.71
147
1.5
 71
     0
 72
     0
 73
     0
 74
     0
 75
     0
 76
     0
 77
     3
 78
     8
170
     0
171
     2
172
     1
173
     0
174
     0
175
     0
176
   256
177
   256
178
     2
270
     2
271
     2
272
     3
273
     2
274
     2
340
6B
275
     0
280
     0
281
     0
282
     0
283
     0
284
     0
285
     0
286
     0
287
     3
288
     0
  0
DIMSTYLE
105
63
330
A
100
AcDbSymbolTableRecord
100
AcDbDimStyleTableRecord
  2
AM_JIS$SF
 70
     0
  3

  4
"
  5
OPEN30
  6

  7

 40
1.0
 41
2.5
 42
1.0
 43
10.0
 44
1.0
 45
0.0
 46
0.0
 47
0.1
 48
0.1
140
3.2
141
0.0
142
0.0
143
0.0393701
144
1.0
145
0.0
146
0.71
147
1.5
 71
     0
 72
     0
 73
     0
 74
     0
 75
     1
 76
     1
 77
     3
 78
     8
170
     0
171
     2
172
     1
173
     0
174
     0
175
     0
176
   256
177
   256
178
     2
270
     2
271
     2
272
     2
273
     2
274
     2
340
6B
275
     0
280
     0
281
     0
282
     0
283
     0
284
     0
285
     0
286
     0
287
     3
288
     0
  0
DIMSTYLE
105
68
330
A
100
AcDbSymbolTableRecord
100
AcDbDimStyleTableRecord
  2
AM_JIS$SH
 70
     0
  3

  4
"
  5

  6
GENAXEH
  7
OPEN30
 40
1.0
 41
2.5
 42
1.0
 43
10.0
 44
1.0
 45
0.0
 46
0.0
 47
0.1
 48
0.1
140
3.2
141
0.0
142
0.0
143
0.0393701
144
2.0
145
0.0
146
0.71
147
1.5
 71
     0
 72
     0
 73
     0
 74
     0
 75
     1
 76
     1
 77
     3
 78
     8
170
     0
171
     2
172
     1
173
     1
174
     0
175
     0
176
   256
177
   256
178
     2
270
     2
271
     2
272
     2
273
     2
274
     2
340
6B
275
     0
280
     0
281
     0
282
     0
283
     0
284
     0
285
     0
286
     0
287
     3
288
     0
  0
DIMSTYLE
105
B34
330
A
100
AcDbSymbolTableRecord
100
AcDbDimStyleTableRecord
  2
AM_JIS$2
 70
     0
  3

  4
"
  5
OPEN30
  6

  7

 40
1.0
 41
2.5
 42
1.0
 43
12.0
 44
1.0
 45
0.0
 46
0.0
 47
0.1
 48
0.1
140
3.2
141
0.0
142
0.0
143
0.0393701
144
1.0
145
0.0
146
0.71
147
1.5
 71
     0
 72
     0
 73
     0
 74
     0
 75
     0
 76
     0
 77
     3
 78
     8
170
     0
171
     2
172
     1
173
     0
174
     0
175
     0
176
   256
177
   256
178
     2
270
     2
271
     3
272
     3
273
     2
274
     2
340
6B
275
     0
280
     0
281
     0
282
     0
283
     0
284
     0
285
     0
286
     0
287
     3
288
     0
  0
ENDTAB
  0
TABLE
  2
BLOCK_RECORD
  5
1
330
0
100
AcDbSymbolTable
 70
     9
  0
BLOCK_RECORD
  5
1F
102
{ACAD_XDICTIONARY
360
74
102
}
330
1
100
AcDbSymbolTableRecord
100
AcDbBlockTableRecord
  2
*MODEL_SPACE
  0
BLOCK_RECORD
  5
101
102
{ACAD_XDICTIONARY
360
1BE9
102
}
330
1
100
AcDbSymbolTableRecord
100
AcDbBlockTableRecord
  2
*PAPER_SPACE
  0
BLOCK_RECORD
  5
59
330
1
100
AcDbSymbolTableRecord
100
AcDbBlockTableRecord
  2
_OPEN30
  0
BLOCK_RECORD
  5
64
330
1
100
AcDbSymbolTableRecord
100
AcDbBlockTableRecord
  2
GENAXEH
  0
BLOCK_RECORD
  5
18FC
330
1
100
AcDbSymbolTableRecord
100
AcDbBlockTableRecord
  2
*D5
  0
BLOCK_RECORD
  5
19C7
330
1
100
AcDbSymbolTableRecord
100
AcDbBlockTableRecord
  2
*D6
  0
BLOCK_RECORD
  5
19FF
330
1
100
AcDbSymbolTableRecord
100
AcDbBlockTableRecord
  2
*D7
  0
BLOCK_RECORD
  5
1A47
330
1
100
AcDbSymbolTableRecord
100
AcDbBlockTableRecord
  2
*D8
  0
ENDTAB
  0
ENDSEC
  0
SECTION
  2
BLOCKS
  0
BLOCK
  5
20
330
1F
100
AcDbEntity
  8
0
100
AcDbBlockBegin
  2
*MODEL_SPACE
 70
     0
 10
0.0
 20
0.0
 30
0.0
  3
*MODEL_SPACE
  1

  0
ENDBLK
  5
21
330
1F
100
AcDbEntity
  8
0
100
AcDbBlockEnd
  0
BLOCK
  5
103
330
101
100
AcDbEntity
 67
     1
  8
0
100
AcDbBlockBegin
  2
*PAPER_SPACE
 70
     0
 10
0.0
 20
0.0
 30
0.0
  3
*PAPER_SPACE
  1

  0
ENDBLK
  5
104
330
101
100
AcDbEntity
 67
     1
  8
0
100
AcDbBlockEnd
  0
BLOCK
  5
5D
330
59
100
AcDbEntity
  8
0
100
AcDbBlockBegin
  2
_OPEN30
 70
     0
 10
0.0
 20
0.0
 30
0.0
  3
_OPEN30
  1

  0
LINE
  5
5A
330
59
100
AcDbEntity
  8
0
 62
     0
100
AcDbLine
 10
-1.0
 20
0.26794919
 30
0.0
 11
0.0
 21
0.0
 31
0.0
  0
LINE
  5
5B
330
59
100
AcDbEntity
  8
0
 62
     0
100
AcDbLine
 10
0.0
 20
0.0
 30
0.0
 11
-1.0
 21
-0.26794919
 31
0.0
  0
LINE
  5
5C
330
59
100
AcDbEntity
  8
0
 62
     0
100
AcDbLine
 10
0.0
 20
0.0
 30
0.0
 11
-1.0
 21
0.0
 31
0.0
  0
ENDBLK
  5
5E
330
59
100
AcDbEntity
  8
0
100
AcDbBlockEnd
  0
BLOCK
  5
66
330
64
100
AcDbEntity
  8
0
100
AcDbBlockBegin
  2
GENAXEH
 70
     0
 10
0.0
 20
0.0
 30
0.0
  3
GENAXEH
  1

  0
LINE
  5
65
330
64
100
AcDbEntity
  8
0
100
AcDbLine
 10
-1.0
 20
0.0
 30
0.0
 11
1.0
 21
0.0
 31
0.0
  0
ENDBLK
  5
67
330
64
100
AcDbEntity
  8
0
100
AcDbBlockEnd
  0
BLOCK
  5
1906
330
18FC
100
AcDbEntity
  8
0
100
AcDbBlockBegin
  2
*D5
 70
     1
 10
0.0
 20
0.0
 30
0.0
  3
*D5
  1

  0
LINE
  5
1922
330
18FC
100
AcDbEntity
  8
AM_5
100
AcDbLine
 10
-0.0000000000056037
 20
-5.999999999999997
 30
0.0
 11
-0.0000000000056052
 21
-32.00000100000029
 31
0.0
  0
LINE
  5
1923
330
18FC
100
AcDbEntity
  8
AM_5
100
AcDbLine
 10
-90.00000000000559
 20
-5.232940287460933
 30
0.0
 11
-90.00000000000559
 21
-32.00000100000028
 31
0.0
  0
LINE
  5
1924
330
18FC
100
AcDbEntity
  8
AM_5
100
AcDbLine
 10
-2.500000000005605
 20
-31.00000100000029
 30
0.0
 11
-87.50000000000559
 21
-31.00000100000029
 31
0.0
  0
INSERT
  5
1925
330
18FC
100
AcDbEntity
  8
AM_5
100
AcDbBlockReference
  2
_OPEN30
 10
-0.0000000000056052
 20
-31.00000100000029
 30
0.0
 41
2.5
 42
2.5
 43
2.5
  0
INSERT
  5
1926
330
18FC
100
AcDbEntity
  8
AM_5
100
AcDbBlockReference
  2
_OPEN30
 10
-90.00000000000559
 20
-31.00000100000029
 30
0.0
 41
2.5
 42
2.5
 43
2.5
 50
180.0
  0
MTEXT
  5
1927
330
18FC
100
AcDbEntity
  8
AM_5
 62
     2
100
AcDbMText
 10
-45.0000000000056
 20
-27.90000100000029
 30
0.0
 40
3.2
 41
0.0
 71
     5
 72
     1
  1
90
  7
ASAMI
1001
ACAD
1000
MTEXTBEGIN
1070
    73
1070
     1
1070
    44
1040
1.0
1070
    74
1070
     0
1000
MTEXTEND
  0
POINT
  5
1928
330
18FC
100
AcDbEntity
  8
DEFPOINTS
 62
     0
100
AcDbPoint
 10
-0.0000000000056036
 20
-4.999999999999997
 30
0.0
  0
POINT
  5
1929
330
18FC
100
AcDbEntity
  8
DEFPOINTS
 62
     0
100
AcDbPoint
 10
-90.00000000000559
 20
-4.232940287460933
 30
0.0
  0
POINT
  5
192A
330
18FC
100
AcDbEntity
  8
DEFPOINTS
 62
     0
100
AcDbPoint
 10
-90.00000000000559
 20
-31.00000100000029
 30
0.0
  0
ENDBLK
  5
1907
330
18FC
100
AcDbEntity
  8
0
100
AcDbBlockEnd
  0
BLOCK
  5
19D1
330
19C7
100
AcDbEntity
  8
0
100
AcDbBlockBegin
  2
*D6
 70
     1
 10
0.0
 20
0.0
 30
0.0
  3
*D6
  1

  0
LINE
  5
1AFE
330
19C7
100
AcDbEntity
  8
AM_5
100
AcDbLine
 10
0.9999999999951603
 20
-4.750000001330083
 30
0.0
 11
18.31579047368419
 21
-4.750000001330088
 31
0.0
  0
LINE
  5
1AFF
330
19C7
100
AcDbEntity
  8
AM_5
100
AcDbLine
 10
0.9999999999999992
 20
4.749999999999952
 30
0.0
 11
18.31579047368419
 21
4.749999999999946
 31
0.0
  0
LINE
  5
1B00
330
19C7
100
AcDbEntity
  8
AM_5
100
AcDbLine
 10
17.31579047368419
 20
-2.250000001330088
 30
0.0
 11
17.31579047368419
 21
2.249999999999947
 31
0.0
  0
LINE
  5
1B01
330
19C7
100
AcDbEntity
  8
AM_5
100
AcDbLine
 10
17.31579047368419
 20
4.749999999999947
 30
0.0
 11
17.3157904736842
 21
19.84999999999994
 31
0.0
  0
INSERT
  5
1B02
330
19C7
100
AcDbEntity
  8
AM_5
100
AcDbBlockReference
  2
_OPEN30
 10
17.31579047368419
 20
-4.750000001330088
 30
0.0
 41
2.5
 42
2.5
 43
2.5
 50
270.0
  0
INSERT
  5
1B03
330
19C7
100
AcDbEntity
  8
AM_5
100
AcDbBlockReference
  2
_OPEN30
 10
17.31579047368419
 20
4.749999999999947
 30
0.0
 41
2.5
 42
2.5
 43
2.5
 50
90.0
  0
MTEXT
  5
1B04
330
19C7
100
AcDbEntity
  8
AM_5
 62
     2
100
AcDbMText
 10
14.21579047368419
 20
13.54999999999995
 30
0.0
 40
3.2
 41
0.0
 71
     5
 72
     1
  1
%%c9.5
  7
ASAMI
 11
0.0000000000000001
 21
1.0
 31
0.0
1001
ACAD
1000
MTEXTBEGIN
1070
    73
1070
     1
1070
    44
1040
1.0
1070
    74
1070
     0
1000
MTEXTEND
  0
POINT
  5
1B05
330
19C7
100
AcDbEntity
  8
DEFPOINTS
 62
     0
100
AcDbPoint
 10
-0.0000000000048396
 20
-4.750000001330083
 30
0.0
  0
POINT
  5
1B06
330
19C7
100
AcDbEntity
  8
DEFPOINTS
 62
     0
100
AcDbPoint
 10
-0.0000000000000006
 20
4.749999999999952
 30
0.0
  0
POINT
  5
1B07
330
19C7
100
AcDbEntity
  8
DEFPOINTS
 62
     0
100
AcDbPoint
 10
17.31579047368419
 20
4.749999999999947
 30
0.0
  0
ENDBLK
  5
19D2
330
19C7
100
AcDbEntity
  8
0
100
AcDbBlockEnd
  0
BLOCK
  5
1A09
330
19FF
100
AcDbEntity
  8
0
100
AcDbBlockBegin
  2
*D7
 70
     1
 10
0.0
 20
0.0
 30
0.0
  3
*D7
  1

  0
LINE
  5
1AEC
330
19FF
100
AcDbEntity
  8
AM_5
100
AcDbLine
 10
-0.0000000000048395
 20
-5.749999999999997
 30
0.0
 11
-0.0000000000048404
 21
-20.00000099999998
 31
0.0
  0
LINE
  5
1AED
330
19FF
100
AcDbEntity
  8
AM_5
100
AcDbLine
 10
-19.00000267313166
 20
-5.749999999999997
 30
0.0
 11
-19.00000267313166
 21
-20.00000099999998
 31
0.0
  0
LINE
  5
1AEE
330
19FF
100
AcDbEntity
  8
AM_5
100
AcDbLine
 10
-2.50000000000484
 20
-19.00000099999998
 30
0.0
 11
-16.50000267313166
 21
-19.00000099999998
 31
0.0
  0
INSERT
  5
1AEF
330
19FF
100
AcDbEntity
  8
AM_5
100
AcDbBlockReference
  2
_OPEN30
 10
-0.0000000000048403
 20
-19.00000099999998
 30
0.0
 41
2.5
 42
2.5
 43
2.5
  0
INSERT
  5
1AF0
330
19FF
100
AcDbEntity
  8
AM_5
100
AcDbBlockReference
  2
_OPEN30
 10
-19.00000267313166
 20
-19.00000099999998
 30
0.0
 41
2.5
 42
2.5
 43
2.5
 50
180.0
  0
MTEXT
  5
1AF1
330
19FF
100
AcDbEntity
  8
AM_5
 62
     2
100
AcDbMText
 10
-9.500001336568253
 20
-15.90000099999998
 30
0.0
 40
3.2
 41
0.0
 71
     5
 72
     1
  1
19
  7
ASAMI
1001
ACAD
1000
MTEXTBEGIN
1070
    73
1070
     1
1070
    44
1040
1.0
1070
    74
1070
     0
1000
MTEXTEND
  0
POINT
  5
1AF2
330
19FF
100
AcDbEntity
  8
DEFPOINTS
 62
     0
100
AcDbPoint
 10
-0.0000000000048395
 20
-4.749999999999997
 30
0.0
  0
POINT
  5
1AF3
330
19FF
100
AcDbEntity
  8
DEFPOINTS
 62
     0
100
AcDbPoint
 10
-19.00000267313166
 20
-4.749999999999997
 30
0.0
  0
POINT
  5
1AF4
330
19FF
100
AcDbEntity
  8
DEFPOINTS
 62
     0
100
AcDbPoint
 10
-19.00000267313166
 20
-19.00000099999998
 30
0.0
  0
ENDBLK
  5
1A0A
330
19FF
100
AcDbEntity
  8
0
100
AcDbBlockEnd
  0
BLOCK
  5
1A51
330
1A47
100
AcDbEntity
  8
0
100
AcDbBlockBegin
  2
*D8
 70
     1
 10
0.0
 20
0.0
 30
0.0
  3
*D8
  1

  0
LINE
  5
1AE1
330
1A47
100
AcDbEntity
  8
AM_5
100
AcDbLine
 10
-90.6562500000056
 20
-5.000000000000007
 30
0.0
 11
-107.030567256414
 21
-5.000000000000003
 31
0.0
  0
LINE
  5
1AE2
330
1A47
100
AcDbEntity
  8
AM_5
100
AcDbLine
 10
-90.6562500000056
 20
4.999999999999979
 30
0.0
 11
-107.030567256414
 21
4.999999999999984
 31
0.0
  0
LINE
  5
1AE3
330
1A47
100
AcDbEntity
  8
AM_5
100
AcDbLine
 10
-106.030567256414
 20
-7.500000000000003
 30
0.0
 11
-106.030567256414
 21
-10.0
 31
0.0
  0
LINE
  5
1AE4
330
1A47
100
AcDbEntity
  8
AM_5
100
AcDbLine
 10
-106.030567256414
 20
7.499999999999984
 30
0.0
 11
-106.030567256414
 21
9.999999999999984
 31
0.0
  0
LINE
  5
1AE5
330
1A47
100
AcDbEntity
  8
AM_5
100
AcDbLine
 10
-106.030567256414
 20
-5.000000000000003
 30
0.0
 11
-106.030567256414
 21
4.999999999999984
 31
0.0
  0
INSERT
  5
1AE6
330
1A47
100
AcDbEntity
  8
AM_5
100
AcDbBlockReference
  2
_OPEN30
 10
-106.030567256414
 20
-5.000000000000003
 30
0.0
 41
2.5
 42
2.5
 43
2.5
 50
90.0
  0
INSERT
  5
1AE7
330
1A47
100
AcDbEntity
  8
AM_5
100
AcDbBlockReference
  2
_OPEN30
 10
-106.030567256414
 20
4.999999999999984
 30
0.0
 41
2.5
 42
2.5
 43
2.5
 50
270.0
  0
MTEXT
  5
1AE8
330
1A47
100
AcDbEntity
  8
AM_5
 62
     2
100
AcDbMText
 10
-109.130567256414
 20
-0.3790291664107018
 30
0.0
 40
3.2
 41
0.0
 71
     5
 72
     1
  1
%%c10
  7
ASAMI
 11
0.0000000000000001
 21
1.0
 31
0.0
1001
ACAD
1000
MTEXTBEGIN
1070
    73
1070
     1
1070
    44
1040
1.0
1070
    74
1070
     0
1000
MTEXTEND
  0
POINT
  5
1AE9
330
1A47
100
AcDbEntity
  8
DEFPOINTS
 62
     0
100
AcDbPoint
 10
-89.6562500000056
 20
-5.000000000000008
 30
0.0
  0
POINT
  5
1AEA
330
1A47
100
AcDbEntity
  8
DEFPOINTS
 62
     0
100
AcDbPoint
 10
-89.6562500000056
 20
4.999999999999978
 30
0.0
  0
POINT
  5
1AEB
330
1A47
100
AcDbEntity
  8
DEFPOINTS
 62
     0
100
AcDbPoint
 10
-106.030567256414
 20
4.999999999999984
 30
0.0
  0
ENDBLK
  5
1A52
330
1A47
100
AcDbEntity
  8
0
100
AcDbBlockEnd
  0
ENDSEC
  0
SECTION
  2
ENTITIES
  0
TEXT
  5
F07
330
1F
100
AcDbEntity
  8
AM_6
100
AcDbText
 10
-68.45238095238094
 20
-53.50000000000013
 30
0.0
 40
5.0
  1
SSUP3095ZX
 72
     4
 11
-45.0
 21
-51.00000000000013
 31
0.0
100
AcDbText
  0
LINE
  5
1777
330
1F
100
AcDbEntity
  8
AM_7
100
AcDbLine
 10
-92.03056625641405
 20
-0.0000000000000103
 30
0.0
 11
3.31578947368421
 21
-0.0000000000000053
 31
0.0
1001
GENIUS_GENODEF_13
1002
{
1000
HIER
1070
     0
1002
}
1002
{
1000
MANEDIT
1070
     0
1002
}
1002
{
1000
NOSEL
1070
     0
1002
}
1002
{
1000
BEHIND
1070
     0
1002
}
1002
{
1000
REACTOR
1002
}
1001
GENIUS_GENOBJ-N-CEN_13
1002
{
1000
OWNER
1000
GEN
1002
}
  0
LINE
  5
18A2
330
1F
100
AcDbEntity
  8
AM_7
100
AcDbLine
 10
-92.03056625641405
 20
-0.0000000000000103
 30
0.0
 11
2.999999999994397
 21
-0.0000000000000028
 31
0.0
1001
GENIUS_GENODEF_13
1002
{
1000
HIER
1070
     0
1002
}
1002
{
1000
MANEDIT
1070
     0
1002
}
1002
{
1000
NOSEL
1070
     0
1002
}
1002
{
1000
BEHIND
1070
     0
1002
}
1002
{
1000
REACTOR
1002
}
1001
GENIUS_GENOBJ-N-CEN_13
1002
{
1000
OWNER
1000
GEN
1002
}
  0
LINE
  5
18A3
330
1F
100
AcDbEntity
  8
AM_0
100
AcDbLine
 10
-89.6562500000056
 20
-5.000000000000008
 30
0.0
 11
-22.4330127018922
 21
-4.999999999999995
 31
0.0
  0
LINE
  5
18A4
330
1F
100
AcDbEntity
  8
AM_0
100
AcDbLine
 10
-22.43301270189222
 20
4.999999999999992
 30
0.0
 11
-89.6562500000056
 21
4.999999999999978
 31
0.0
  0
DIMENSION
  5
18A5
330
1F
100
AcDbEntity
  8
AM_5
100
AcDbDimension
  2
*D5
 10
-90.00000000000559
 20
-31.00000100000029
 30
0.0
 11
-45.0000000000056
 21
-27.90000100000029
 31
0.0
 70
    32
  1
<>
  3
AM_JIS
100
AcDbAlignedDimension
 13
-0.0000000000056036
 23
-4.999999999999997
 33
0.0
 14
-90.00000000000559
 24
-4.232940287460933
 34
0.0
 50
0.0000000000001219
100
AcDbRotatedDimension
1001
GENIUS_GENDTOL_13
1000

1000
h7
1000

1040
0.0
  0
LINE
  5
18A6
330
1F
100
AcDbEntity
  8
AM_0
100
AcDbLine
 10
-89.6562500000056
 20
4.999999999999978
 30
0.0
 11
-89.6562500000056
 21
-5.000000000000008
 31
0.0
  0
LINE
  5
18A7
330
1F
100
AcDbEntity
  8
AM_0
100
AcDbLine
 10
-90.00000000000559
 20
4.687499999999978
 30
0.0
 11
-90.00000000000559
 21
-4.687500000000008
 31
0.0
  0
LINE
  5
18A8
330
1F
100
AcDbEntity
  8
AM_0
100
AcDbLine
 10
-89.6562500000056
 20
-5.000000000000008
 30
0.0
 11
-90.00000000000559
 21
-4.687500000000008
 31
0.0
1001
GENIUS_GENFIL_13
1070
     0
1040
0.5
1040
0.5
1040
20.0
1040
0.0
1002
{
1002
}
1001
GENIUS_GENODEF_13
1002
{
1000
HIER
1070
     0
1002
}
1002
{
1000
MANEDIT
1070
     0
1002
}
1002
{
1000
NOSEL
1070
     0
1002
}
1002
{
1000
BEHIND
1070
     0
1002
}
1002
{
1000
REACTOR
1002
}
1001
GENIUS_GENOBJ-N-CHA_13
1002
{
1000
OWNER
1000
GEN
1002
}
  0
LINE
  5
18A9
330
1F
100
AcDbEntity
  8
AM_0
100
AcDbLine
 10
-89.6562500000056
 20
4.999999999999978
 30
0.0
 11
-90.00000000000559
 21
4.687499999999978
 31
0.0
1001
GENIUS_GENFIL_13
1070
     0
1040
0.5
1040
0.5
1040
20.0
1040
0.0
1002
{
1002
}
1001
GENIUS_GENODEF_13
1002
{
1000
HIER
1070
     0
1002
}
1002
{
1000
MANEDIT
1070
     0
1002
}
1002
{
1000
NOSEL
1070
     0
1002
}
1002
{
1000
BEHIND
1070
     0
1002
}
1002
{
1000
REACTOR
1002
}
1001
GENIUS_GENOBJ-N-CHA_13
1002
{
1000
OWNER
1000
GEN
1002
}
  0
LINE
  5
18AA
330
1F
100
AcDbEntity
  8
AM_0
100
AcDbLine
 10
-89.6562500000056
 20
4.999999999999978
 30
0.0
 11
-89.6562500000056
 21
4.999999999999978
 31
0.0
  0
LINE
  5
19A2
330
1F
100
AcDbEntity
  8
AM_0
100
AcDbLine
 10
-0.0000000000048391
 20
-0.1005122143203472
 30
0.0
 11
-0.0933075944094477
 21
-0.239492281668263
 31
0.0
  0
LINE
  5
19A3
330
1F
100
AcDbEntity
  8
AM_0
100
AcDbLine
 10
-2.635279914696117
 20
2.643931255757449
 30
0.0
 11
-2.146445900358937
 21
1.91582134500432
 31
0.0
  0
LINE
  5
19A4
330
1F
100
AcDbEntity
  8
AM_0
100
AcDbLine
 10
-0.1140160022505193
 20
-0.0965742853093481
 30
0.0
 11
-0.5700800112346176
 21
2.05985696312204
 31
0.0
  0
LINE
  5
19A5
330
1F
100
AcDbEntity
  8
AM_0
100
AcDbLine
 10
-0.0000000000048391
 20
-0.1005122143203472
 30
0.0
 11
-0.0000000000048391
 21
4.749999999999987
 31
0.0
  0
LINE
  5
19A6
330
1F
100
AcDbEntity
  8
AM_0
100
AcDbLine
 10
-0.0000000000048391
 20
-2.425078860080024
 30
0.0
 11
-0.1140160022505193
 21
-2.999335816124997
 31
0.0
  0
LINE
  5
19A7
330
1F
100
AcDbEntity
  8
AM_0
100
AcDbLine
 10
-0.0000000000048391
 20
-0.8834497766017911
 30
0.0
 11
-0.0000000000048391
 21
-2.425078860080024
 31
0.0
  0
LINE
  5
19A8
330
1F
100
AcDbEntity
  8
AM_0
100
AcDbLine
 10
-0.0000000000048391
 20
-2.425078860080024
 30
0.0
 11
-0.1140160022505193
 21
-1.447876856298242
 31
0.0
  0
LINE
  5
19A9
330
1F
100
AcDbEntity
  8
AM_0
100
AcDbLine
 10
-0.2280320044965433
 20
-2.233449791627757
 30
0.0
 11
-0.0000000000048391
 21
-2.425078860080024
 31
0.0
  0
LINE
  5
19AA
330
1F
100
AcDbEntity
  8
AM_0
100
AcDbLine
 10
-0.3606456309098482
 20
-2.045992463856592
 30
0.0
 11
-2.02719456938456
 21
-1.777327657931662
 31
0.0
  0
LINE
  5
19AB
330
1F
100
AcDbEntity
  8
AM_0
100
AcDbLine
 10
-0.0000000000048391
 20
-2.425078860080024
 30
0.0
 11
-0.8486436056284954
 21
-3.460799542475675
 31
0.0
  0
LINE
  5
19AC
330
1F
100
AcDbEntity
  8
AM_0
100
AcDbLine
 10
-0.1140160022505193
 20
-2.999335816124997
 30
0.0
 11
-0.5700800112346176
 21
-3.990598062646202
 31
0.0
  0
LINE
  5
19AD
330
1F
100
AcDbEntity
  8
AM_11
100
AcDbLine
 10
-0.0000000000000004
 20
-4.749999999999997
 30
0.0
 11
-0.0000000000048391
 21
-2.425078860080024
 31
0.0
  0
LINE
  5
19AE
330
1F
100
AcDbEntity
  8
AM_11
100
AcDbLine
 10
0.0000000000000004
 20
-4.749999999999997
 30
0.0
 11
-0.0000000000000004
 21
4.749999999999987
 31
0.0
  0
LINE
  5
19AF
330
1F
100
AcDbEntity
  8
AM_0
100
AcDbLine
 10
-0.1140160022505193
 20
-1.447876856298242
 30
0.0
 11
-0.1140160022505193
 21
-0.0965742853093481
 31
0.0
  0
LINE
  5
19B0
330
1F
100
AcDbEntity
  8
AM_0
100
AcDbLine
 10
-0.1140160022505193
 20
-0.0965742853093481
 30
0.0
 11
-0.0000000000048391
 21
-0.8834497766017911
 31
0.0
  0
LINE
  5
19B1
330
1F
100
AcDbEntity
  8
AM_0
100
AcDbLine
 10
-16.72234699607799
 20
2.576434476900982
 30
0.0
 11
-16.72234699607552
 21
3.319271507031967
 31
0.0
  0
LINE
  5
19B2
330
1F
100
AcDbEntity
  8
AM_0
100
AcDbLine
 10
-18.90768301919888
 20
4.749999999999987
 30
0.0
 11
-21.49999999999999
 21
4.749999999999987
 31
0.0
  0
LINE
  5
19B3
330
1F
100
AcDbEntity
  8
AM_0
100
AcDbLine
 10
-16.6972634763418
 20
-4.749999999999997
 30
0.0
 11
-21.49999999999999
 21
-4.749999999999997
 31
0.0
  0
POLYLINE
  5
19B4
330
1F
100
AcDbEntity
  8
AM_0
100
AcDb2dPolyline
 66
     1
 10
0.0
 20
0.0
 30
0.0
 70
     2
  0
VERTEX
  5
19B5
330
19B4
100
AcDbEntity
  8
AM_0
100
AcDbVertex
100
AcDb2dVertex
 10
-16.7223469960735
 20
2.576434476898608
 30
0.0
 42
0.0163510200184555
  0
VERTEX
  5
19B6
330
19B4
100
AcDbEntity
  8
AM_0
100
AcDbVertex
100
AcDb2dVertex
 10
-17.62199514329031
 20
3.004535966906572
 30
0.0
 42
0.0236329905934865
 70
     1
  0
VERTEX
  5
19B7
330
19B4
100
AcDbEntity
  8
AM_0
100
AcDbVertex
100
AcDb2dVertex
 10
-18.2615630263959
 20
3.23771404621949
 30
0.0
 42
0.0136924015569504
  0
VERTEX
  5
19B8
330
19B4
100
AcDbEntity
  8
AM_0
100
AcDbVertex
100
AcDb2dVertex
 10
-19.81739783237299
 20
3.650536118133266
 30
0.0
 42
0.0437471596433213
 70
     1
  0
VERTEX
  5
19B9
330
19B4
100
AcDbEntity
  8
AM_0
100
AcDbVertex
100
AcDb2dVertex
 10
-20.3138510668211
 20
3.709266800397
 30
0.0
 42
0.0737828887826182
  0
VERTEX
  5
19BA
330
19B4
100
AcDbEntity
  8
AM_0
100
AcDbVertex
100
AcDb2dVertex
 10
-20.75179325885418
 20
3.631929371096501
 30
0.0
 42
0.3022986902902931
 70
     1
  0
VERTEX
  5
19BB
330
19B4
100
AcDbEntity
  8
AM_0
100
AcDbVertex
100
AcDb2dVertex
 10
-20.82692307692791
 20
3.519539985255328
 30
0.0
 42
0.1640404297379002
  0
VERTEX
  5
19BC
330
19B4
100
AcDbEntity
  8
AM_0
100
AcDbVertex
100
AcDb2dVertex
 10
-20.79050533593828
 20
3.312412371891558
 30
0.0
 42
0.0324399100382136
 70
     1
  0
VERTEX
  5
19BD
330
19B4
100
AcDbEntity
  8
AM_0
100
AcDbVertex
100
AcDb2dVertex
 10
-20.3138510668211
 20
2.453388737183186
 30
0.0
 42
0.0076492520245086
  0
VERTEX
  5
19BE
330
19B4
100
AcDbEntity
  8
AM_0
100
AcDbVertex
100
AcDb2dVertex
 10
-19.6980298069022
 20
1.514172769015464
 30
0.0
 42
0.0033664759505265
 70
     1
  0
VERTEX
  5
19BF
330
19B4
100
AcDbEntity
  8
AM_0
100
AcDbVertex
100
AcDb2dVertex
 10
-18.2615630263939
 20
-0.5807562403607923
 30
0.0
 42
0.0145714002245221
  0
VERTEX
  5
19C0
330
19B4
100
AcDbEntity
  8
AM_0
100
AcDbVertex
100
AcDb2dVertex
 10
-17.7638431139676
 20
-1.256021985065001
 30
0.0
 42
0.007325916991168
 70
     1
  0
VERTEX
  5
19C1
330
19B4
100
AcDbEntity
  8
AM_0
100
AcDbVertex
100
AcDb2dVertex
 10
-16.72793525131891
 20
-2.5434808576098
 30
0.0
  0
SEQEND
  5
19C2
330
19B4
100
AcDbEntity
  8
AM_0
  0
LINE
  5
19C3
330
1F
100
AcDbEntity
  8
AM_11
100
AcDbLine
 10
-19.00000267313166
 20
-4.749999999999997
 30
0.0
 11
-19.00000267313166
 21
4.749999999999987
 31
0.0
  0
LINE
  5
19C4
330
1F
100
AcDbEntity
  8
AM_11
100
AcDbLine
 10
-0.0000000000000004
 20
4.749999999999987
 30
0.0
 11
-19.00000267313166
 21
4.749999999999987
 31
0.0
  0
LINE
  5
19C5
330
1F
100
AcDbEntity
  8
AM_11
100
AcDbLine
 10
-19.00000267313166
 20
-4.749999999999997
 30
0.0
 11
-0.0000000000000004
 21
-4.749999999999997
 31
0.0
  0
DIMENSION
  5
19C6
330
1F
100
AcDbEntity
  8
AM_5
100
AcDbDimension
  2
*D6
 10
17.31579047368419
 20
4.749999999999947
 30
0.0
 11
17.31579047368419
 21
13.54999999999995
 31
0.0
 70
   160
  1
%%c<>
  3
AM_JIS
100
AcDbAlignedDimension
 13
-0.0000000000048396
 23
-4.750000001330083
 33
0.0
 14
-0.0000000000000006
 24
4.749999999999952
 34
0.0
 50
89.99999999574248
100
AcDbRotatedDimension
1001
GENIUS_GENDTOL_13
1000

1000
h7
1000

1040
0.0
  0
ELLIPSE
  5
19D3
330
1F
100
AcDbEntity
  8
AM_0
100
AcDbEllipse
 10
6.052795739821007
 20
1.604745010195727
 30
0.0
 11
0.0000000000000218
 21
8.289934880938972
 31
0.0
210
0.0
220
0.0
230
1.0
 40
0.8001122964628509
 41
1.515869372210668
 42
1.947903343241002
  0
ELLIPSE
  5
19D4
330
1F
100
AcDbEntity
  8
AM_0
100
AcDbEllipse
 10
-0.0915925197450027
 20
-3.218313314876593
 30
0.0
 11
0.0000000000000061
 21
0.9767589946507694
 31
0.0
210
0.0
220
0.0
230
1.0
 40
0.8001122964628523
 41
1.821675747739257
 42
2.482683360922189
  0
SPLINE
  5
19D5
330
1F
100
AcDbEntity
  8
AM_0
100
AcDbSpline
210
0.0
220
0.0
230
1.0
 70
     8
 71
     3
 72
     8
 73
     4
 74
     0
 42
0.0000000001
 43
0.0000000001
 40
0.6397612841816997
 40
0.6397612841816997
 40
0.6397612841816997
 40
0.6397612841816997
 40
7.939880490758838
 40
7.939880490758838
 40
7.939880490758838
 40
7.939880490758838
 10
-17.88726301185635
 20
4.29449646711283
 30
0.0
 10
-16.11059081510922
 20
3.86828330255867
 30
0.0
 10
-14.73265680946416
 20
1.934141651279383
 30
0.0
 10
-13.35472280381979
 20
0.0000000000001102
 30
0.0
  0
SPLINE
  5
19D6
330
1F
100
AcDbEntity
  8
AM_0
100
AcDbSpline
210
0.0
220
0.0
230
1.0
 70
     8
 71
     3
 72
     8
 73
     4
 74
     0
 42
0.0000000001
 43
0.0000000001
 40
0.5179125576517913
 40
0.5179125576517913
 40
0.5179125576517913
 40
0.5179125576517913
 40
8.138271981564475
 40
8.138271981564475
 40
8.138271981564475
 40
8.138271981564475
 10
-18.90768301919888
 20
4.749999999999987
 30
0.0
 10
-17.04481720219962
 20
4.247822747937732
 30
0.0
 10
-15.66503418760017
 20
2.123911373968859
 30
0.0
 10
-14.28525117300038
 20
0.0000000000001102
 30
0.0
  0
SPLINE
  5
19D7
330
1F
100
AcDbEntity
  8
AM_0
100
AcDbSpline
210
0.0
220
0.0
230
1.0
 70
     8
 71
     3
 72
     8
 73
     4
 74
     0
 42
0.0000000001
 43
0.0000000001
 40
0.2299567350972117
 40
0.2299567350972117
 40
0.2299567350972117
 40
0.2299567350972117
 40
7.769701155129346
 40
7.769701155129346
 40
7.769701155129346
 40
7.769701155129346
 10
-17.06345604569642
 20
3.980284771079742
 30
0.0
 10
-15.17849199228908
 20
3.794325793344643
 30
0.0
 10
-13.70323503692443
 20
1.897162896672261
 30
0.0
 10
-12.22797808156047
 20
0.0000000000000021
 30
0.0
  0
SPLINE
  5
19D8
330
1F
100
AcDbEntity
  8
AM_0
100
AcDbSpline
210
0.0
220
0.0
230
1.0
 70
     8
 71
     3
 72
     8
 73
     4
 74
     0
 42
0.0000000001
 43
0.0000000001
 40
5.129729518825886
 40
5.129729518825886
 40
5.129729518825886
 40
5.129729518825886
 40
8.272127900365292
 40
8.272127900365292
 40
8.272127900365292
 40
8.272127900365292
 10
-16.72234699607799
 20
2.576434476900982
 30
0.0
 10
-16.13397051805901
 20
1.804419913726567
 30
0.0
 10
-15.58063980741993
 20
0.9022099568632782
 30
0.0
 10
-15.02730909678085
 20
0.0000000000000021
 30
0.0
  0
SPLINE
  5
19D9
330
1F
100
AcDbEntity
  8
AM_0
100
AcDbSpline
210
0.0
220
0.0
230
1.0
 70
     8
 71
     3
 72
     8
 73
     4
 74
     0
 42
0.0000000001
 43
0.0000000001
 40
0.5179125576349786
 40
0.5179125576349786
 40
0.5179125576349786
 40
0.5179125576349786
 40
1.981387939834528
 40
1.981387939834528
 40
1.981387939834528
 40
1.981387939834528
 10
-15.56853436676818
 20
-4.509548785207623
 30
0.0
 10
-15.21077456675566
 20
-4.459284802749147
 30
0.0
 10
-14.87083205096743
 20
-4.340338836048047
 30
0.0
 10
-14.54528504421014
 20
-4.165901128181857
 30
0.0
  0
SPLINE
  5
19DA
330
1F
100
AcDbEntity
  8
AM_0
100
AcDbSpline
210
0.0
220
0.0
230
1.0
 70
     8
 71
     3
 72
     8
 73
     4
 74
     0
 42
0.0000000001
 43
0.0000000001
 40
0.6432030004477055
 40
0.6432030004477055
 40
0.6432030004477055
 40
0.6432030004477055
 40
1.797818050668038
 40
1.797818050668038
 40
1.797818050668038
 40
1.797818050668038
 10
-14.54565770794857
 20
-4.165965047192815
 30
0.0
 10
-14.26477746155483
 20
-4.117807504604061
 30
0.0
 10
-13.99392332755025
 20
-4.028789585922583
 30
0.0
 10
-13.73150878929402
 20
-3.905376974366235
 30
0.0
  0
SPLINE
  5
19DB
330
1F
100
AcDbEntity
  8
AM_0
100
AcDbSpline
210
0.0
220
0.0
230
1.0
 70
     8
 71
     3
 72
     8
 73
     4
 74
     0
 42
0.0000000001
 43
0.0000000001
 40
0.0
 40
0.0
 40
0.0
 40
0.0
 40
1.570112951298052
 40
1.570112951298052
 40
1.570112951298052
 40
1.570112951298052
 10
-16.69726347634352
 20
-4.750000000000105
 30
0.0
 10
-16.29944569460649
 20
-4.750000000000105
 30
0.0
 10
-15.92465987189612
 20
-4.664436030452387
 30
0.0
 10
-15.56853436676788
 20
-4.509548785211066
 30
0.0
  0
SPLINE
  5
19DC
330
1F
100
AcDbEntity
  8
AM_0
100
AcDbSpline
210
0.0
220
0.0
230
1.0
 70
     8
 71
     3
 72
     8
 73
     4
 74
     0
 42
0.0000000001
 43
0.0000000001
 40
0.0
 40
0.0
 40
0.0
 40
0.0
 40
1.973247866266529
 40
1.973247866266529
 40
1.973247866266529
 40
1.973247866266529
 10
-13.89793246112279
 20
-3.910049977444956
 30
0.0
 10
-13.39797283189601
 20
-3.910049977444956
 30
0.0
 10
-12.92693139974324
 20
-3.783952335071509
 30
0.0
 10
-12.47746389626402
 20
-3.563781693073068
 30
0.0
  0
SPLINE
  5
19DD
330
1F
100
AcDbEntity
  8
AM_0
100
AcDbSpline
210
0.0
220
0.0
230
1.0
 70
     8
 71
     3
 72
     8
 73
     4
 74
     0
 42
0.0000000001
 43
0.0000000001
 40
0.1383879590723462
 40
0.1383879590723462
 40
0.1383879590723462
 40
0.1383879590723462
 40
4.12619780763684
 40
4.12619780763684
 40
4.12619780763684
 40
4.12619780763684
 10
-14.00295127238593
 20
-3.908200387644277
 30
0.0
 10
-15.00521394769379
 20
-3.872774442999811
 30
0.0
 10
-15.89147294066657
 20
-3.331515067187619
 30
0.0
 10
-16.7223469960735
 20
-2.548749969832601
 30
0.0
  0
SPLINE
  5
19DE
330
1F
100
AcDbEntity
  8
AM_0
100
AcDbSpline
210
0.0
220
0.0
230
1.0
 70
     8
 71
     3
 72
     8
 73
     4
 74
     0
 42
0.0000000001
 43
0.0000000001
 40
0.0
 40
0.0
 40
0.0
 40
0.0
 40
1.570112951298052
 40
1.570112951298052
 40
1.570112951298052
 40
1.570112951298052
 10
-16.6975168449825
 20
-4.750000000000105
 30
0.0
 10
-16.29969906324547
 20
-4.750000000000105
 30
0.0
 10
-15.92491324053511
 20
-4.664436030452387
 30
0.0
 10
-15.56878773540686
 20
-4.509548785211066
 30
0.0
  0
SPLINE
  5
19DF
330
1F
100
AcDbEntity
  8
AM_0
100
AcDbSpline
210
0.0
220
0.0
230
1.0
 70
     8
 71
     3
 72
     8
 73
     4
 74
     0
 42
0.0000000001
 43
0.0000000001
 40
0.0
 40
0.0
 40
0.0
 40
0.0
 40
8.27212790036493
 40
8.27212790036493
 40
8.27212790036493
 40
8.27212790036493
 10
-10.01820606477543
 20
-4.750000000000105
 30
0.0
 10
-12.11410596092396
 20
-4.750000000000105
 30
0.0
 10
-13.57070752885241
 20
-2.375000000000092
 30
0.0
 10
-15.02730909678085
 20
-0.0000000000001059
 30
0.0
  0
SPLINE
  5
19E0
330
1F
100
AcDbEntity
  8
AM_0
100
AcDbSpline
210
0.0
220
0.0
230
1.0
 70
     8
 71
     3
 72
     8
 73
     4
 74
     0
 42
0.0000000001
 43
0.0000000001
 40
0.0
 40
0.0
 40
0.0
 40
0.0
 40
3.655156164497277
 40
3.655156164497277
 40
3.655156164497277
 40
3.655156164497277
 10
-13.35760808585751
 20
4.749999999999987
 30
0.0
 10
-14.28371096021475
 20
4.750000000000744
 30
0.0
 10
-15.08499475931299
 20
4.286295825199061
 30
0.0
 10
-15.81661254870886
 20
3.563781693073923
 30
0.0
  0
SPLINE
  5
19E1
330
1F
100
AcDbEntity
  8
AM_0
100
AcDbSpline
210
0.0
220
0.0
230
1.0
 70
     8
 71
     3
 72
     8
 73
     4
 74
     0
 42
0.0000000001
 43
0.0000000001
 40
5.58452476840911
 40
5.58452476840911
 40
5.58452476840911
 40
5.58452476840911
 40
8.27212790036518
 40
8.27212790036518
 40
8.27212790036518
 40
8.27212790036518
 10
-0.2280320044961971
 20
-2.233449791627325
 30
0.0
 10
-0.7232052644530715
 20
-1.543268555630945
 30
0.0
 10
-1.196453137688032
 20
-0.7716342778155796
 30
0.0
 10
-1.669701010922991
 20
-0.0000000000001059
 30
0.0
  0
SPLINE
  5
19E2
330
1F
100
AcDbEntity
  8
AM_0
100
AcDbSpline
210
0.0
220
0.0
230
1.0
 70
     8
 71
     3
 72
     8
 73
     4
 74
     0
 42
0.0000000001
 43
0.0000000001
 40
6.850968446318445
 40
6.850968446318445
 40
6.850968446318445
 40
6.850968446318445
 40
8.138271981564475
 40
8.138271981564475
 40
8.138271981564475
 40
8.138271981564475
 10
-0.2260560760166218
 20
-1.067396713305394
 30
0.0
 10
-0.4614709674935267
 20
-0.7175825884747984
 30
0.0
 10
-0.6945570273180217
 20
-0.3587912942374522
 30
0.0
 10
-0.9276430871425169
 20
-0.0000000000001059
 30
0.0
  0
SPLINE
  5
19E3
330
1F
100
AcDbEntity
  8
AM_0
100
AcDbSpline
210
0.0
220
0.0
230
1.0
 70
     8
 71
     3
 72
     8
 73
     4
 74
     0
 42
0.0000000001
 43
0.0000000001
 40
0.0
 40
0.0
 40
0.0
 40
0.0
 40
3.860109074512531
 40
3.860109074512531
 40
3.860109074512531
 40
3.860109074512531
 10
-0.2280320044961971
 20
4.740535409322756
 30
0.0
 10
-0.0382135258407276
 20
3.54141052124898
 30
0.0
 10
-1.657248348232488
 20
2.643931255757449
 30
0.0
 10
-2.6352799146975
 20
2.643931255757449
 30
0.0
  0
SPLINE
  5
19E4
330
1F
100
AcDbEntity
  8
AM_0
100
AcDbSpline
210
0.0
220
0.0
230
1.0
 70
     8
 71
     3
 72
     8
 73
     4
 74
     0
 42
0.0000000001
 43
0.0000000001
 40
0.2299567350972117
 40
0.2299567350972117
 40
0.2299567350972117
 40
0.2299567350972117
 40
4.912075065647881
 40
4.912075065647881
 40
4.912075065647881
 40
4.912075065647881
 10
-3.705847959838216
 20
3.904963098715181
 30
0.0
 10
-2.535301021478318
 20
3.836258255863714
 30
0.0
 10
-1.52274968936766
 20
3.078614424095239
 30
0.0
 10
-0.5700800112346176
 20
2.05985696312204
 30
0.0
  0
SPLINE
  5
19E5
330
1F
100
AcDbEntity
  8
AM_0
100
AcDbSpline
210
0.0
220
0.0
230
1.0
 70
     8
 71
     3
 72
     8
 73
     4
 74
     0
 42
0.0000000001
 43
0.0000000001
 40
0.0
 40
0.0
 40
0.0
 40
0.0
 40
3.655156164497277
 40
3.655156164497277
 40
3.655156164497277
 40
3.655156164497277
 10
-0.0000000000000004
 20
4.749999999999987
 30
0.0
 10
-0.9261028743568921
 20
4.750000000000744
 30
0.0
 10
-1.727386673455479
 20
4.286295825199061
 30
0.0
 10
-2.459004462851345
 20
3.563781693073923
 30
0.0
  0
SPLINE
  5
19E6
330
1F
100
AcDbEntity
  8
AM_0
100
AcDbSpline
210
0.0
220
0.0
230
1.0
 70
     8
 71
     3
 72
     8
 73
     4
 74
     0
 42
0.0000000001
 43
0.0000000001
 40
0.0
 40
0.0
 40
0.0
 40
0.0
 40
8.272127900365285
 40
8.272127900365285
 40
8.272127900365285
 40
8.272127900365285
 10
-6.678804042928759
 20
4.749999999999987
 30
0.0
 10
-4.58290414678013
 20
4.749999999999987
 30
0.0
 10
-3.126302578851563
 20
2.374999999999988
 30
0.0
 10
-1.669701010922991
 20
0.0000000000000021
 30
0.0
  0
SPLINE
  5
19E7
330
1F
100
AcDbEntity
  8
AM_0
100
AcDbSpline
210
0.0
220
0.0
230
1.0
 70
     8
 71
     3
 72
     8
 73
     4
 74
     0
 42
0.0000000001
 43
0.0000000001
 40
0.5179125576517913
 40
0.5179125576517913
 40
0.5179125576517913
 40
0.5179125576517913
 40
8.138271981564475
 40
8.138271981564475
 40
8.138271981564475
 40
8.138271981564475
 10
-5.550074933341369
 20
4.509548785205873
 30
0.0
 10
-3.687209116341758
 20
4.247822747937732
 30
0.0
 10
-2.307426101741964
 20
2.123911373968859
 30
0.0
 10
-0.9276430871425169
 20
0.0000000000001102
 30
0.0
  0
SPLINE
  5
19E8
330
1F
100
AcDbEntity
  8
AM_0
100
AcDbSpline
210
0.0
220
0.0
230
1.0
 70
     8
 71
     3
 72
     8
 73
     4
 74
     0
 42
0.0000000001
 43
0.0000000001
 40
0.6397612841816997
 40
0.6397612841816997
 40
0.6397612841816997
 40
0.6397612841816997
 40
6.972227720174165
 40
6.972227720174165
 40
6.972227720174165
 40
6.972227720174165
 10
-4.52965492599884
 20
4.167415567575334
 30
0.0
 10
-2.988485975835802
 20
3.907934184527021
 30
0.0
 10
-1.747353272074654
 20
2.418166638697851
 30
0.0
 10
-0.5459912757350516
 20
0.7653209594386873
 30
0.0
  0
SPLINE
  5
19E9
330
1F
100
AcDbEntity
  8
AM_0
100
AcDbSpline
210
0.0
220
0.0
230
1.0
 70
     8
 71
     3
 72
     8
 73
     4
 74
     0
 42
0.0000000001
 43
0.0000000001
 40
0.0
 40
0.0
 40
0.0
 40
0.0
 40
0.0092824582075338
 40
0.0092824582075338
 40
0.0092824582075338
 40
0.0092824582075338
 10
-0.5400710066259452
 20
-3.910049977444956
 30
0.0
 10
-0.5377191204571928
 20
-3.910049977444956
 30
0.0
 10
-0.5353678742209837
 20
-3.910047187024107
 30
0.0
 10
-0.5330172671520325
 20
-3.910041609516341
 30
0.0
  0
SPLINE
  5
19EA
330
1F
100
AcDbEntity
  8
AM_0
100
AcDbSpline
210
0.0
220
0.0
230
1.0
 70
     8
 71
     3
 72
     8
 73
     4
 74
     0
 42
0.0000000001
 43
0.0000000001
 40
0.0
 40
0.0
 40
0.0
 40
0.0
 40
1.512029330426235
 40
1.512029330426235
 40
1.512029330426235
 40
1.512029330426235
 10
-1.666815728884929
 20
-4.207288437021926
 30
0.0
 10
-1.283715092797589
 20
-4.206467655977681
 30
0.0
 10
-0.9193241809360984
 20
-4.129397343830297
 30
0.0
 10
-0.5700800112346176
 20
-3.990598062645122
 30
0.0
  0
SPLINE
  5
19EB
330
1F
100
AcDbEntity
  8
AM_0
100
AcDbSpline
210
0.0
220
0.0
230
1.0
 70
     8
 71
     3
 72
     8
 73
     4
 74
     0
 42
0.0000000001
 43
0.0000000001
 40
0.0
 40
0.0
 40
0.0
 40
0.0
 40
1.981387939834528
 40
1.981387939834528
 40
1.981387939834528
 40
1.981387939834528
 10
-2.597344098065509
 20
-4.536523138753025
 30
0.0
 10
-2.095322027402702
 20
-4.536523138752918
 30
0.0
 10
-1.628179150676784
 20
-4.402070984417477
 30
0.0
 10
-1.187423589712951
 20
-4.165901128181857
 30
0.0
  0
SPLINE
  5
19EC
330
1F
100
AcDbEntity
  8
AM_0
100
AcDbSpline
210
0.0
220
0.0
230
1.0
 70
     8
 71
     3
 72
     8
 73
     4
 74
     0
 42
0.0000000001
 43
0.0000000001
 40
0.0
 40
0.0
 40
0.0
 40
0.0
 40
1.570112951298052
 40
1.570112951298052
 40
1.570112951298052
 40
1.570112951298052
 10
-3.33940202184633
 20
-4.750000000000105
 30
0.0
 10
-2.941584240109294
 20
-4.750000000000105
 30
0.0
 10
-2.566798417398941
 20
-4.664436030452387
 30
0.0
 10
-2.210672912270691
 20
-4.509548785211066
 30
0.0
  0
SPLINE
  5
19ED
330
1F
100
AcDbEntity
  8
AM_0
100
AcDbSpline
210
0.0
220
0.0
230
1.0
 70
     8
 71
     3
 72
     8
 73
     4
 74
     0
 42
0.0000000001
 43
0.0000000001
 40
0.0
 40
0.0
 40
0.0
 40
0.0
 40
1.973247866266529
 40
1.973247866266529
 40
1.973247866266529
 40
1.973247866266529
 10
-7.218875049554705
 20
-3.910049977444956
 30
0.0
 10
-6.718915420327929
 20
-3.910049977444956
 30
0.0
 10
-6.247873988175149
 20
-3.783952335071509
 30
0.0
 10
-5.798406484695946
 20
-3.563781693073068
 30
0.0
  0
SPLINE
  5
19EE
330
1F
100
AcDbEntity
  8
AM_0
100
AcDbSpline
210
0.0
220
0.0
230
1.0
 70
     8
 71
     3
 72
    10
 73
     6
 74
     0
 42
0.0000000001
 43
0.0000000001
 40
0.0
 40
0.0
 40
0.0
 40
0.0
 40
1.624816058741878
 40
2.635428435777873
 40
3.678161543961334
 40
3.678161543961334
 40
3.678161543961334
 40
3.678161543961334
 10
-0.8486436056284954
 20
-3.460799542475459
 30
0.0
 10
-1.24692238957982
 20
-3.330597690288487
 30
0.0
 10
-1.781584444760384
 20
-3.145843733095283
 30
0.0
 10
-2.972086528659795
 20
-2.508147769496869
 30
0.0
 10
-2.289219975213638
 20
-1.735086471261864
 30
0.0
 10
-2.02719456938456
 20
-1.777327657931662
 30
0.0
  0
SPLINE
  5
19EF
330
1F
100
AcDbEntity
  8
AM_0
100
AcDbSpline
210
0.0
220
0.0
230
1.0
 70
     8
 71
     3
 72
     8
 73
     4
 74
     0
 42
0.0000000001
 43
0.0000000001
 40
0.0
 40
0.0
 40
0.0
 40
0.0
 40
8.138271981564608
 40
8.138271981564608
 40
8.138271981564608
 40
8.138271981564608
 10
-2.597344098065509
 20
-4.536523138753025
 30
0.0
 10
-4.65932906812833
 20
-4.536523138753025
 30
0.0
 10
-6.132888099099802
 20
-2.268261569376565
 30
0.0
 10
-7.606447130071274
 20
-0.0000000000001059
 30
0.0
  0
SPLINE
  5
19F0
330
1F
100
AcDbEntity
  8
AM_0
100
AcDbSpline
210
0.0
220
0.0
230
1.0
 70
     8
 71
     3
 72
     8
 73
     4
 74
     0
 42
0.0000000001
 43
0.0000000001
 40
0.0
 40
0.0
 40
0.0
 40
0.0
 40
7.939880490758586
 40
7.939880490758586
 40
7.939880490758586
 40
7.939880490758586
 10
-1.666815728884929
 20
-4.207288437022035
 30
0.0
 10
-3.678534466367043
 20
-4.207288437022035
 30
0.0
 10
-5.177226613628695
 20
-2.103644218511071
 30
0.0
 10
-6.675918760890348
 20
-0.0000000000001059
 30
0.0
  0
SPLINE
  5
19F1
330
1F
100
AcDbEntity
  8
AM_0
100
AcDbSpline
210
0.0
220
0.0
230
1.0
 70
     8
 71
     3
 72
     8
 73
     4
 74
     0
 42
0.0000000001
 43
0.0000000001
 40
0.1383879590723462
 40
0.1383879590723462
 40
0.1383879590723462
 40
0.1383879590723462
 40
7.769701155129346
 40
7.769701155129346
 40
7.769701155129346
 40
7.769701155129346
 10
-0.6448364492497644
 20
-3.908200387644277
 30
0.0
 10
-2.562826692125952
 20
-3.840407165521273
 30
0.0
 10
-4.056000365378484
 20
-1.920203582760635
 30
0.0
 10
-5.549174038631367
 20
-0.0000000000001059
 30
0.0
  0
SPLINE
  5
19F2
330
1F
100
AcDbEntity
  8
AM_0
100
AcDbSpline
210
0.0
220
0.0
230
1.0
 70
     8
 71
     3
 72
     8
 73
     4
 74
     0
 42
0.0000000001
 43
0.0000000001
 40
0.0
 40
0.0
 40
0.0
 40
0.0
 40
1.570112951298052
 40
1.570112951298052
 40
1.570112951298052
 40
1.570112951298052
 10
-10.01820606477543
 20
-4.750000000000105
 30
0.0
 10
-9.620388283038403
 20
-4.750000000000105
 30
0.0
 10
-9.245602460328044
 20
-4.664436030452387
 30
0.0
 10
-8.889476955199794
 20
-4.509548785211066
 30
0.0
  0
SPLINE
  5
19F3
330
1F
100
AcDbEntity
  8
AM_0
100
AcDbSpline
210
0.0
220
0.0
230
1.0
 70
     8
 71
     3
 72
     8
 73
     4
 74
     0
 42
0.0000000001
 43
0.0000000001
 40
0.0
 40
0.0
 40
0.0
 40
0.0
 40
8.138271981564608
 40
8.138271981564608
 40
8.138271981564608
 40
8.138271981564608
 10
-9.276148140994614
 20
-4.536523138753025
 30
0.0
 10
-11.33813311105743
 20
-4.536523138753025
 30
0.0
 10
-12.8116921420289
 20
-2.268261569376565
 30
0.0
 10
-14.28525117300038
 20
-0.0000000000001059
 30
0.0
  0
SPLINE
  5
19F4
330
1F
100
AcDbEntity
  8
AM_0
100
AcDbSpline
210
0.0
220
0.0
230
1.0
 70
     8
 71
     3
 72
     8
 73
     4
 74
     0
 42
0.0000000001
 43
0.0000000001
 40
0.0
 40
0.0
 40
0.0
 40
0.0
 40
7.939880490758586
 40
7.939880490758586
 40
7.939880490758586
 40
7.939880490758586
 10
-8.34561977181403
 20
-4.207288437022035
 30
0.0
 10
-10.35733850929615
 20
-4.207288437022035
 30
0.0
 10
-11.8560306565578
 20
-2.103644218511071
 30
0.0
 10
-13.35472280381945
 20
-0.0000000000001059
 30
0.0
  0
SPLINE
  5
19F5
330
1F
100
AcDbEntity
  8
AM_0
100
AcDbSpline
210
0.0
220
0.0
230
1.0
 70
     8
 71
     3
 72
     8
 73
     4
 74
     0
 42
0.0000000001
 43
0.0000000001
 40
0.0
 40
0.0
 40
0.0
 40
0.0
 40
7.769701155129467
 40
7.769701155129467
 40
7.769701155129467
 40
7.769701155129467
 10
-7.218875049554705
 20
-3.910049977444956
 30
0.0
 10
-9.187475637007251
 20
-3.910049977444956
 30
0.0
 10
-10.70772685928385
 20
-1.955024988722531
 30
0.0
 10
-12.22797808156047
 20
-0.0000000000001059
 30
0.0
  0
SPLINE
  5
19F6
330
1F
100
AcDbEntity
  8
AM_0
100
AcDbSpline
210
0.0
220
0.0
230
1.0
 70
     8
 71
     3
 72
     8
 73
     4
 74
     0
 42
0.0000000001
 43
0.0000000001
 40
0.0
 40
0.0
 40
0.0
 40
0.0
 40
1.797818050668038
 40
1.797818050668038
 40
1.797818050668038
 40
1.797818050668038
 10
-8.34561977181403
 20
-4.207288437021926
 30
0.0
 10
-7.890109270184844
 20
-4.206312520121926
 30
0.0
 10
-7.461049545179879
 20
-4.097539219864213
 30
0.0
 10
-7.052451377725937
 20
-3.905376974366235
 30
0.0
  0
SPLINE
  5
19F7
330
1F
100
AcDbEntity
  8
AM_0
100
AcDbSpline
210
0.0
220
0.0
230
1.0
 70
     8
 71
     3
 72
     8
 73
     4
 74
     0
 42
0.0000000001
 43
0.0000000001
 40
0.0
 40
0.0
 40
0.0
 40
0.0
 40
1.981387939834528
 40
1.981387939834528
 40
1.981387939834528
 40
1.981387939834528
 10
-9.276148140994614
 20
-4.536523138753025
 30
0.0
 10
-8.77412607033181
 20
-4.536523138752918
 30
0.0
 10
-8.306983193605885
 20
-4.402070984417477
 30
0.0
 10
-7.866227632642053
 20
-4.165901128181857
 30
0.0
  0
SPLINE
  5
19F8
330
1F
100
AcDbEntity
  8
AM_0
100
AcDbSpline
210
0.0
220
0.0
230
1.0
 70
     8
 71
     3
 72
     8
 73
     4
 74
     0
 42
0.0000000001
 43
0.0000000001
 40
0.0
 40
0.0
 40
0.0
 40
0.0
 40
8.272127900365292
 40
8.272127900365292
 40
8.272127900365292
 40
8.272127900365292
 10
-3.33940202184633
 20
-4.750000000000105
 30
0.0
 10
-5.435301917994955
 20
-4.750000000000105
 30
0.0
 10
-6.891903485923524
 20
-2.375000000000106
 30
0.0
 10
-8.348505053852099
 20
-0.0000000000001059
 30
0.0
  0
SPLINE
  5
19F9
330
1F
100
AcDbEntity
  8
AM_0
100
AcDbSpline
210
0.0
220
0.0
230
1.0
 70
     8
 71
     3
 72
     8
 73
     4
 74
     0
 42
0.0000000001
 43
0.0000000001
 40
0.0
 40
0.0
 40
0.0
 40
0.0
 40
3.655156164497277
 40
3.655156164497277
 40
3.655156164497277
 40
3.655156164497277
 10
-6.678804042928759
 20
4.749999999999987
 30
0.0
 10
-7.604906917285994
 20
4.750000000000744
 30
0.0
 10
-8.406190716384237
 20
4.286295825199061
 30
0.0
 10
-9.137808505780103
 20
3.563781693073923
 30
0.0
  0
SPLINE
  5
19FA
330
1F
100
AcDbEntity
  8
AM_0
100
AcDbSpline
210
0.0
220
0.0
230
1.0
 70
     8
 71
     3
 72
     8
 73
     4
 74
     0
 42
0.0000000001
 43
0.0000000001
 40
0.6397612841816997
 40
0.6397612841816997
 40
0.6397612841816997
 40
0.6397612841816997
 40
7.939880490758838
 40
7.939880490758838
 40
7.939880490758838
 40
7.939880490758838
 10
-11.20845896892759
 20
4.167415567575334
 30
0.0
 10
-9.431786772180116
 20
3.86828330255867
 30
0.0
 10
-8.053852766535406
 20
1.934141651279383
 30
0.0
 10
-6.675918760890692
 20
0.0000000000001102
 30
0.0
  0
SPLINE
  5
19FB
330
1F
100
AcDbEntity
  8
AM_0
100
AcDbSpline
210
0.0
220
0.0
230
1.0
 70
     8
 71
     3
 72
     8
 73
     4
 74
     0
 42
0.0000000001
 43
0.0000000001
 40
0.2299567350972117
 40
0.2299567350972117
 40
0.2299567350972117
 40
0.2299567350972117
 40
7.769701155129346
 40
7.769701155129346
 40
7.769701155129346
 40
7.769701155129346
 10
-10.38465200276732
 20
3.904963098715181
 30
0.0
 10
-8.499687949360325
 20
3.794325793344643
 30
0.0
 10
-7.024430993995673
 20
1.897162896672261
 30
0.0
 10
-5.549174038631367
 20
0.0000000000000021
 30
0.0
  0
SPLINE
  5
19FC
330
1F
100
AcDbEntity
  8
AM_0
100
AcDbSpline
210
0.0
220
0.0
230
1.0
 70
     8
 71
     3
 72
     8
 73
     4
 74
     0
 42
0.0000000001
 43
0.0000000001
 40
0.5179125576517913
 40
0.5179125576517913
 40
0.5179125576517913
 40
0.5179125576517913
 40
8.138271981564475
 40
8.138271981564475
 40
8.138271981564475
 40
8.138271981564475
 10
-12.22887897627012
 20
4.509548785205873
 30
0.0
 10
-10.36601315927086
 20
4.247822747937732
 30
0.0
 10
-8.986230144671074
 20
2.123911373968859
 30
0.0
 10
-7.606447130071274
 20
0.0000000000001102
 30
0.0
  0
SPLINE
  5
19FD
330
1F
100
AcDbEntity
  8
AM_0
100
AcDbSpline
210
0.0
220
0.0
230
1.0
 70
     8
 71
     3
 72
     8
 73
     4
 74
     0
 42
0.0000000001
 43
0.0000000001
 40
0.0
 40
0.0
 40
0.0
 40
0.0
 40
8.272127900364923
 40
8.272127900364923
 40
8.272127900364923
 40
8.272127900364923
 10
-13.35760808585751
 20
4.749999999999987
 30
0.0
 10
-11.26170818970897
 20
4.749999999999987
 30
0.0
 10
-9.805106621780538
 20
2.375000000000015
 30
0.0
 10
-8.348505053852099
 20
0.0000000000000021
 30
0.0
  0
DIMENSION
  5
19FE
330
1F
100
AcDbEntity
  8
AM_5
100
AcDbDimension
  2
*D7
 10
-19.00000267313166
 20
-19.00000099999998
 30
0.0
 11
-9.500001336568253
 21
-15.90000099999998
 31
0.0
 70
    32
  1
<>
  3
AM_JIS
100
AcDbAlignedDimension
 13
-0.0000000000048395
 23
-4.749999999999997
 33
0.0
 14
-19.00000267313166
 24
-4.749999999999997
 34
0.0
 50
0.0000000000001245
100
AcDbRotatedDimension
1001
GENIUS_GENDTOL_13
1000

1000
h7
1000

1040
0.0
  0
LINE
  5
1A38
330
1F
100
AcDbEntity
  8
AM_0
100
AcDbLine
 10
-22.43301270189222
 20
4.999999999999992
 30
0.0
 11
-22.4330127018922
 21
-4.999999999999995
 31
0.0
  0
LINE
  5
1A39
330
1F
100
AcDbEntity
  8
AM_0
100
AcDbLine
 10
-22.43301270189222
 20
4.999999999999992
 30
0.0
 11
-21.49999999999999
 21
4.749999999999987
 31
0.0
  0
LINE
  5
1A3A
330
1F
100
AcDbEntity
  8
AM_0
100
AcDbLine
 10
-22.43301270189219
 20
-4.999999999999995
 30
0.0
 11
-21.49999999999999
 21
-4.749999999999997
 31
0.0
  0
LINE
  5
1A3C
330
1F
100
AcDbEntity
  8
AM_0
100
AcDbLine
 10
-21.49999999999999
 20
4.749999999999987
 30
0.0
 11
-21.49999999999999
 21
-4.749999999999997
 31
0.0
  0
DIMENSION
  5
1A46
330
1F
100
AcDbEntity
  8
AM_5
100
AcDbDimension
  2
*D8
 10
-106.030567256414
 20
4.999999999999984
 30
0.0
 11
-106.030567256414
 21
-0.3790291664107022
 31
0.0
 70
   160
  1
%%c<>
  3
AM_JIS
100
AcDbAlignedDimension
 13
-89.6562500000056
 23
-5.000000000000008
 33
0.0
 14
-89.6562500000056
 24
4.999999999999978
 34
0.0
 50
270.0
100
AcDbRotatedDimension
1001
GENIUS_GENDTOL_13
1000

1000
h7
1000

1040
0.0
  0
VIEWPORT
  5
110
330
101
100
AcDbEntity
 67
     1
  8
0
100
AcDbViewport
 10
420.5
 20
297.0
 30
0.0
 40
948.9782706766916
 41
628.452
 68
     1
 69
     1
1001
ACAD
1000
MVIEW
1002
{
1070
    16
1010
0.0
1020
0.0
1030
0.0
1010
0.0
1020
0.0
1030
1.0
1040
0.0
1040
628.452
1040
420.5
1040
297.0
1040
50.0
1040
0.0
1040
0.0
1070
     0
1070
   100
1070
     1
1070
     1
1070
     0
1070
     0
1070
     0
1070
     0
1040
0.0
1040
0.0
1040
0.0
1040
10.0
1040
10.0
1040
10.0
1040
10.0
1070
     0
1002
{
1002
}
1002
}
  0
ENDSEC
  0
SECTION
  2
OBJECTS
  0
DICTIONARY
  5
C
330
0
100
AcDbDictionary
  3
ACAD_GROUP
350
D
  3
ACAD_LAYOUT
350
1A
  3
ACAD_MLINESTYLE
350
17
  3
ACAD_PLOTSETTINGS
350
19
  3
ACAD_PLOTSTYLENAME
350
E
  3
ACDBVARIABLEDICTIONARY
350
34
  3
ACMDICTIONARY
350
43
  3
AMG
350
2B
  3
AMGSNAPSETTINGS
350
6E
  3
DWGPROPS
350
1BB5
  3
ACDBHEADERROUNDTRIPXREC
350
1BC1
  0
DICTIONARY
  5
74
330
1F
100
AcDbDictionary
280
     1
  3
ACAD_INDEX
360
1BB7
  3
ACAD_LAYOUTSELFREF
360
1BE4
  0
DICTIONARY
  5
1BE9
330
101
100
AcDbDictionary
280
     1
  3
ACAD_LAYOUTSELFREF
360
1BEA
  0
DICTIONARY
  5
D
102
{ACAD_REACTORS
330
C
102
}
330
C
100
AcDbDictionary
  0
DICTIONARY
  5
1A
102
{ACAD_REACTORS
330
C
102
}
330
C
100
AcDbDictionary
  0
DICTIONARY
  5
17
102
{ACAD_REACTORS
330
C
102
}
330
C
100
AcDbDictionary
  3
STANDARD
350
18
  0
DICTIONARY
  5
19
102
{ACAD_REACTORS
330
C
102
}
330
C
100
AcDbDictionary
  0
ACDBDICTIONARYWDFLT
  5
E
102
{ACAD_REACTORS
330
C
102
}
330
C
100
AcDbDictionary
281
     1
  3
Normal
350
F
100
AcDbDictionaryWithDefault
340
F
  0
DICTIONARY
  5
34
102
{ACAD_REACTORS
330
C
102
}
330
C
100
AcDbDictionary
  3
INDEXCTL
350
35
  3
SORTENTS
350
B5E
  0
DICTIONARY
  5
43
102
{ACAD_REACTORS
330
C
102
}
330
C
100
AcDbDictionary
  3
ACMSTDDICTIONARY
350
260
  0
DICTIONARY
  5
2B
102
{ACAD_REACTORS
330
C
102
}
330
C
100
AcDbDictionary
  3
ACMGSETTINGS
350
2C
  0
DICTIONARY
  5
6E
102
{ACAD_REACTORS
330
C
102
}
330
C
100
AcDbDictionary
  0
XRECORD
  5
1BB5
102
{ACAD_REACTORS
330
C
102
}
330
C
100
AcDbXrecord
  1
DWGPROPS COOKIE
  2

  3

  4

  6

  7

  8

  9

300
AmdtFileType=82
301
=
302
=
303
=
304
=
305
=
306
=
307
=
308
=
309
=
 40
0.0396706828703704
 41
2452808.461142939
 42
2452844.411555625
  1

 90
        1
  0
DICTIONARY
  5
1BC1
102
{ACAD_REACTORS
330
C
102
}
330
C
100
AcDbDictionary
  3
TSTACKALIGN
350
1BC2
  3
TSTACKSIZE
350
1BC3
  3
HYPERLINKBASE
350
1BC4
  3
STYLESHEET
350
1BC5
  3
LAYOUTDICT
350
1BC6
  3
PLOTSETDICT
350
1BC7
  3
PLOTSTYLNAMDICT
350
1BC8
  3
LWETCUNION
350
1BC9
  3
INSUNITS
350
1BCA
  3
CEPSNTYPE
350
1BCB
  3
FINGERPRINTGUID
350
1BCC
  3
VERSIONGUID
350
1BCD
  3
PSVPSCALE
350
1BCE
  3
DIMSTYLEDATA
350
1BCF
  3
PUCSORTHOREF
350
1BD0
  3
PUCSORTHOVIEW
350
1BD1
  3
PUCSBASE
350
1BD2
  3
PUCSORGTOP
350
1BD3
  3
PUCSORGBOTTOM
350
1BD4
  3
PUCSORGLEFT
350
1BD5
  3
PUCSORGRIGHT
350
1BD6
  3
PUCSORGFRONT
350
1BD7
  3
PUCSORGBACK
350
1BD8
  3
UCSORTHOREF
350
1BD9
  3
UCSORTHOVIEW
350
1BDA
  3
UCSBASE
350
1BDB
  3
UCSORGTOP
350
1BDC
  3
UCSORGBOTTOM
350
1BDD
  3
UCSORGLEFT
350
1BDE
  3
UCSORGRIGHT
350
1BDF
  3
UCSORGFRONT
350
1BE0
  3
UCSORGBACK
350
1BE1
  0
DICTIONARY
  5
1BB7
102
{ACAD_REACTORS
330
74
102
}
330
74
100
AcDbDictionary
  3
*A1
350
1BB8
  0
XRECORD
  5
1BE4
102
{ACAD_REACTORS
330
74
102
}
330
74
100
AcDbXrecord
340
1F
  0
XRECORD
  5
1BEA
102
{ACAD_REACTORS
330
1BE9
102
}
330
1BE9
100
AcDbXrecord
340
101
  0
MLINESTYLE
  5
18
102
{ACAD_REACTORS
330
17
102
}
330
17
100
AcDbMlineStyle
  2
STANDARD
 70
     0
  3

 62
   256
 51
90.0
 52
90.0
 71
     2
 49
0.5
 62
   256
  6
BYLAYER
 49
-0.5
 62
   256
  6
BYLAYER
  0
ACDBPLACEHOLDER
  5
F
102
{ACAD_REACTORS
330
E
102
}
330
E
100
AcDbPlaceHolder
280
     0
  0
DICTIONARYVAR
  5
35
102
{ACAD_REACTORS
330
34
102
}
330
34
100
DictionaryVariables
280
     0
  1
1
  0
DICTIONARYVAR
  5
B5E
102
{ACAD_REACTORS
330
34
102
}
330
34
100
DictionaryVariables
280
     0
  1
96
  0
DICTIONARY
  5
260
102
{ACAD_REACTORS
330
43
102
}
330
43
100
AcDbDictionary
  0
DICTIONARY
  5
2C
102
{ACAD_REACTORS
330
2B
102
}
330
2B
100
AcDbDictionary
  3
DWGSETTINGS
350
2D
  0
XRECORD
  5
1BC2
102
{ACAD_REACTORS
330
1BC1
102
}
330
1BC1
100
AcDbXrecord
 90
        1
  0
XRECORD
  5
1BC3
102
{ACAD_REACTORS
330
1BC1
102
}
330
1BC1
100
AcDbXrecord
 90
       70
  0
XRECORD
  5
1BC4
102
{ACAD_REACTORS
330
1BC1
102
}
330
1BC1
100
AcDbXrecord
  1

  0
XRECORD
  5
1BC5
102
{ACAD_REACTORS
330
1BC1
102
}
330
1BC1
100
AcDbXrecord
  1
ASAMI.ctb
  0
XRECORD
  5
1BC6
102
{ACAD_REACTORS
330
1BC1
102
}
330
1BC1
100
AcDbXrecord
340
1A
  0
XRECORD
  5
1BC7
102
{ACAD_REACTORS
330
1BC1
102
}
330
1BC1
100
AcDbXrecord
340
19
  0
XRECORD
  5
1BC8
102
{ACAD_REACTORS
330
1BC1
102
}
330
1BC1
100
AcDbXrecord
340
E
  0
XRECORD
  5
1BC9
102
{ACAD_REACTORS
330
1BC1
102
}
330
1BC1
100
AcDbXrecord
 90
    10781
  0
XRECORD
  5
1BCA
102
{ACAD_REACTORS
330
1BC1
102
}
330
1BC1
100
AcDbXrecord
 90
        4
  0
XRECORD
  5
1BCB
102
{ACAD_REACTORS
330
1BC1
102
}
330
1BC1
100
AcDbXrecord
 90
        0
  0
XRECORD
  5
1BCC
102
{ACAD_REACTORS
330
1BC1
102
}
330
1BC1
100
AcDbXrecord
  1
{AFB28963-8C59-40AE-9337-C84526B81ACE}
  0
XRECORD
  5
1BCD
102
{ACAD_REACTORS
330
1BC1
102
}
330
1BC1
100
AcDbXrecord
  1
{FDAEC82B-F3FF-4CBB-B3FD-08DF135A1303}
  0
XRECORD
  5
1BCE
102
{ACAD_REACTORS
330
1BC1
102
}
330
1BC1
100
AcDbXrecord
 40
0.0
  0
XRECORD
  5
1BCF
102
{ACAD_REACTORS
330
1BC1
102
}
330
1BC1
100
AcDbXrecord
1000
DSTYLE
1002
{
1070
    79
 70
     2
1070
   341
340
59
1070
   342
340
59
1070
   371
 70
    -1
1070
   372
 70
    -1
1002
}
  0
XRECORD
  5
1BD0
102
{ACAD_REACTORS
330
1BC1
102
}
330
1BC1
100
AcDbXrecord
340
0
  0
XRECORD
  5
1BD1
102
{ACAD_REACTORS
330
1BC1
102
}
330
1BC1
100
AcDbXrecord
 70
     0
  0
XRECORD
  5
1BD2
102
{ACAD_REACTORS
330
1BC1
102
}
330
1BC1
100
AcDbXrecord
340
0
  0
XRECORD
  5
1BD3
102
{ACAD_REACTORS
330
1BC1
102
}
330
1BC1
100
AcDbXrecord
 10
0.0
 20
0.0
 30
0.0
  0
XRECORD
  5
1BD4
102
{ACAD_REACTORS
330
1BC1
102
}
330
1BC1
100
AcDbXrecord
 10
0.0
 20
0.0
 30
0.0
  0
XRECORD
  5
1BD5
102
{ACAD_REACTORS
330
1BC1
102
}
330
1BC1
100
AcDbXrecord
 10
0.0
 20
0.0
 30
0.0
  0
XRECORD
  5
1BD6
102
{ACAD_REACTORS
330
1BC1
102
}
330
1BC1
100
AcDbXrecord
 10
0.0
 20
0.0
 30
0.0
  0
XRECORD
  5
1BD7
102
{ACAD_REACTORS
330
1BC1
102
}
330
1BC1
100
AcDbXrecord
 10
0.0
 20
0.0
 30
0.0
  0
XRECORD
  5
1BD8
102
{ACAD_REACTORS
330
1BC1
102
}
330
1BC1
100
AcDbXrecord
 10
0.0
 20
0.0
 30
0.0
  0
XRECORD
  5
1BD9
102
{ACAD_REACTORS
330
1BC1
102
}
330
1BC1
100
AcDbXrecord
340
0
  0
XRECORD
  5
1BDA
102
{ACAD_REACTORS
330
1BC1
102
}
330
1BC1
100
AcDbXrecord
 70
     0
  0
XRECORD
  5
1BDB
102
{ACAD_REACTORS
330
1BC1
102
}
330
1BC1
100
AcDbXrecord
340
0
  0
XRECORD
  5
1BDC
102
{ACAD_REACTORS
330
1BC1
102
}
330
1BC1
100
AcDbXrecord
 10
0.0
 20
0.0
 30
0.0
  0
XRECORD
  5
1BDD
102
{ACAD_REACTORS
330
1BC1
102
}
330
1BC1
100
AcDbXrecord
 10
0.0
 20
0.0
 30
0.0
  0
XRECORD
  5
1BDE
102
{ACAD_REACTORS
330
1BC1
102
}
330
1BC1
100
AcDbXrecord
 10
0.0
 20
0.0
 30
0.0
  0
XRECORD
  5
1BDF
102
{ACAD_REACTORS
330
1BC1
102
}
330
1BC1
100
AcDbXrecord
 10
0.0
 20
0.0
 30
0.0
  0
XRECORD
  5
1BE0
102
{ACAD_REACTORS
330
1BC1
102
}
330
1BC1
100
AcDbXrecord
 10
0.0
 20
0.0
 30
0.0
  0
XRECORD
  5
1BE1
102
{ACAD_REACTORS
330
1BC1
102
}
330
1BC1
100
AcDbXrecord
 10
0.0
 20
0.0
 30
0.0
  0
LAYER_INDEX
  5
1BB8
102
{ACAD_REACTORS
330
1BB7
102
}
330
1BB7
100
AcDbIndex
 40
2452844.458678738
100
AcDbLayerIndex
  8
0
360
1BB9
 90
        0
  8
AM_0
360
1BBA
 90
       71
  8
AM_11
360
1BBB
 90
        5
  8
AM_6
360
1BBC
 90
        1
  8
AM_7
360
1BBD
 90
        2
  8
AM_5
360
1BBE
 90
        4
  8
Defpoints
360
1BBF
 90
        0
  0
XRECORD
  5
2D
102
{ACAD_REACTORS
330
2C
102
}
330
2C
100
AcDbXrecord
  1
VERSION
140
15.0
  1
PRODUCT
  2
AutoCAD Mechanical 2000
  0
IDBUFFER
  5
1BB9
330
0
100
AcDbIdBuffer
  0
IDBUFFER
  5
1BBA
330
0
100
AcDbIdBuffer
330
19EB
330
19EC
330
19ED
330
19EE
330
19EF
330
19F0
330
19F1
330
19F2
330
19F3
330
19F4
330
19F5
330
19F6
330
19F7
330
19F8
330
19F9
330
19FA
330
19FB
330
19FC
330
19FD
330
1A38
330
1A39
330
1A3A
330
1A3C
330
18A3
330
18A4
330
18A6
330
18A7
330
18A8
330
18A9
330
18AA
330
19A2
330
19A3
330
19A4
330
19A5
330
19A6
330
19A7
330
19A8
330
19A9
330
19AA
330
19AB
330
19AC
330
19AF
330
19B0
330
19B1
330
19B2
330
19B3
330
19B4
330
19D3
330
19D4
330
19D5
330
19D6
330
19D7
330
19D8
330
19D9
330
19DA
330
19DB
330
19DC
330
19DD
330
19DE
330
19DF
330
19E0
330
19E1
330
19E2
330
19E3
330
19E4
330
19E5
330
19E6
330
19E7
330
19E8
330
19E9
330
19EA
  0
IDBUFFER
  5
1BBB
330
0
100
AcDbIdBuffer
330
19AD
330
19AE
330
19C3
330
19C4
330
19C5
  0
IDBUFFER
  5
1BBC
330
0
100
AcDbIdBuffer
330
F07
  0
IDBUFFER
  5
1BBD
330
0
100
AcDbIdBuffer
330
1777
330
18A2
  0
IDBUFFER
  5
1BBE
330
0
100
AcDbIdBuffer
330
18A5
330
19C6
330
19FE
330
1A46
  0
IDBUFFER
  5
1BBF
330
0
100
AcDbIdBuffer
  0
ENDSEC
  0
EOF
