  0
SECTION
  2
HEADER
  9
$ACADVER
  1
AC1014
  9
$ACADMAINTVER
 70
     9
  9
$DWGCODEPAGE
  3
ANSI_932
  9
$INSBASE
 10
0.0
 20
0.0
 30
0.0
  9
$EXTMIN
 10
-131.1874034467853
 20
-59.37590829127477
 30
-0.00000001
  9
$EXTMAX
 10
18.54545554545453
 20
12.49999999999996
 30
0.00000001
  9
$LIMMIN
 10
-144.4450763185947
 20
-71.85423359341001
  9
$LIMMAX
 10
34.14667887554446
 20
23.60294563132526
  9
$ORTHOMODE
 70
     0
  9
$REGENMODE
 70
     1
  9
$FILLMODE
 70
     1
  9
$QTEXTMODE
 70
     0
  9
$MIRRTEXT
 70
     0
  9
$DRAGMODE
 70
     2
  9
$LTSCALE
 40
1.0
  9
$OSMODE
 70
  2103
  9
$ATTMODE
 70
     1
  9
$TEXTSIZE
 40
2.5
  9
$TRACEWID
 40
1.0
  9
$TEXTSTYLE
  7
ACJISGDT
  9
$CLAYER
  8
AM_0
  9
$CELTYPE
  6
BYLAYER
  9
$CECOLOR
 62
   256
  9
$CELTSCALE
 40
1.0
  9
$DELOBJ
 70
     1
  9
$DISPSILH
 70
     0
  9
$DIMSCALE
 40
1.0
  9
$DIMASZ
 40
2.5
  9
$DIMEXO
 40
1.0
  9
$DIMDLI
 40
12.0
  9
$DIMRND
 40
0.0
  9
$DIMDLE
 40
0.0
  9
$DIMEXE
 40
1.0
  9
$DIMTP
 40
0.1
  9
$DIMTM
 40
0.1
  9
$DIMTXT
 40
3.2
  9
$DIMCEN
 40
0.0
  9
$DIMTSZ
 40
0.0
  9
$DIMTOL
 70
     0
  9
$DIMLIM
 70
     0
  9
$DIMTIH
 70
     0
  9
$DIMTOH
 70
     0
  9
$DIMSE1
 70
     0
  9
$DIMSE2
 70
     0
  9
$DIMTAD
 70
     3
  9
$DIMZIN
 70
     8
  9
$DIMBLK
  1
OPEN30
  9
$DIMASO
 70
     1
  9
$DIMSHO
 70
     1
  9
$DIMPOST
  1

  9
$DIMAPOST
  1
"
  9
$DIMALT
 70
     0
  9
$DIMALTD
 70
     2
  9
$DIMALTF
 40
0.0393701
  9
$DIMLFAC
 40
1.0
  9
$DIMTOFL
 70
     1
  9
$DIMTVP
 40
0.0
  9
$DIMTIX
 70
     0
  9
$DIMSOXD
 70
     0
  9
$DIMSAH
 70
     0
  9
$DIMBLK1
  1

  9
$DIMBLK2
  1

  9
$DIMSTYLE
  2
AM_JIS
  9
$DIMCLRD
 70
   256
  9
$DIMCLRE
 70
   256
  9
$DIMCLRT
 70
     2
  9
$DIMTFAC
 40
0.71
  9
$DIMGAP
 40
1.5
  9
$DIMJUST
 70
     0
  9
$DIMSD1
 70
     0
  9
$DIMSD2
 70
     0
  9
$DIMTOLJ
 70
     0
  9
$DIMTZIN
 70
     0
  9
$DIMALTZ
 70
     0
  9
$DIMALTTZ
 70
     0
  9
$DIMFIT
 70
     3
  9
$DIMUPT
 70
     0
  9
$DIMUNIT
 70
     2
  9
$DIMDEC
 70
     3
  9
$DIMTDEC
 70
     3
  9
$DIMALTU
 70
     2
  9
$DIMALTTD
 70
     2
  9
$DIMTXSTY
  7
ASAMI
  9
$DIMAUNIT
 70
     0
  9
$LUNITS
 70
     2
  9
$LUPREC
 70
     2
  9
$SKETCHINC
 40
1.0
  9
$FILLETRAD
 40
2.5
  9
$AUNITS
 70
     0
  9
$AUPREC
 70
     0
  9
$MENU
  1
.
  9
$ELEVATION
 40
0.0
  9
$PELEVATION
 40
0.0
  9
$THICKNESS
 40
0.0
  9
$LIMCHECK
 70
     0
  9
$BLIPMODE
 70
     0
  9
$CHAMFERA
 40
0.5
  9
$CHAMFERB
 40
0.5
  9
$CHAMFERC
 40
20.0
  9
$CHAMFERD
 40
0.0
  9
$SKPOLY
 70
     0
  9
$TDCREATE
 40
2452808.461142939
  9
$TDUPDATE
 40
2452844.459214410
  9
$TDINDWG
 40
0.0785224884
  9
$TDUSRTIMER
 40
0.0785224884
  9
$USRTIMER
 70
     1
  9
$ANGBASE
 50
0.0
  9
$ANGDIR
 70
     0
  9
$PDMODE
 70
     0
  9
$PDSIZE
 40
0.0
  9
$PLINEWID
 40
0.0
  9
$COORDS
 70
     2
  9
$SPLFRAME
 70
     0
  9
$SPLINETYPE
 70
     6
  9
$SPLINESEGS
 70
     8
  9
$ATTDIA
 70
     1
  9
$ATTREQ
 70
     1
  9
$HANDLING
 70
 12289
  9
$HANDSEED
  5
2407
  9
$SURFTAB1
 70
     6
  9
$SURFTAB2
 70
     6
  9
$SURFTYPE
 70
     6
  9
$SURFU
 70
     6
  9
$SURFV
 70
     6
  9
$UCSNAME
  2

  9
$UCSORG
 10
-0.0000000000000002
 20
0.0000000000000031
 30
0.0
  9
$UCSXDIR
 10
1.0
 20
0.0
 30
0.0
  9
$UCSYDIR
 10
0.0
 20
1.0
 30
0.0
  9
$PUCSNAME
  2

  9
$PUCSORG
 10
0.0
 20
0.0
 30
0.0
  9
$PUCSXDIR
 10
1.0
 20
0.0
 30
0.0
  9
$PUCSYDIR
 10
0.0
 20
1.0
 30
0.0
  9
$USERI1
 70
     0
  9
$USERI2
 70
     0
  9
$USERI3
 70
     0
  9
$USERI4
 70
     0
  9
$USERI5
 70
     0
  9
$USERR1
 40
0.0
  9
$USERR2
 40
0.0
  9
$USERR3
 40
0.0
  9
$USERR4
 40
0.0
  9
$USERR5
 40
0.0
  9
$WORLDVIEW
 70
     1
  9
$SHADEDGE
 70
     3
  9
$SHADEDIF
 70
    70
  9
$TILEMODE
 70
     1
  9
$MAXACTVP
 70
    64
  9
$PINSBASE
 10
0.0
 20
0.0
 30
0.0
  9
$PLIMCHECK
 70
     0
  9
$PEXTMIN
 10
1.000000000000000E+20
 20
1.000000000000000E+20
 30
1.000000000000000E+20
  9
$PEXTMAX
 10
-1.000000000000000E+20
 20
-1.000000000000000E+20
 30
-1.000000000000000E+20
  9
$PLIMMIN
 10
0.0
 20
0.0
  9
$PLIMMAX
 10
841.0
 20
594.0
  9
$UNITMODE
 70
     0
  9
$VISRETAIN
 70
     1
  9
$PLINEGEN
 70
     0
  9
$PSLTSCALE
 70
     0
  9
$TREEDEPTH
 70
  3020
  9
$PICKSTYLE
 70
     0
  9
$CMLSTYLE
  2
STANDARD
  9
$CMLJUST
 70
     0
  9
$CMLSCALE
 40
20.0
  9
$PROXYGRAPHICS
 70
     1
  9
$MEASUREMENT
 70
     1
  0
ENDSEC
  0
SECTION
  2
CLASSES
  0
CLASS
  1
ACDBDICTIONARYWDFLT
  2
AcDbDictionaryWithDefault
  3
AutoCAD 2000
 90
        0
280
     0
281
     0
  0
CLASS
  1
ACDBPLACEHOLDER
  2
AcDbPlaceHolder
  3
AutoCAD 2000
 90
        0
280
     0
281
     0
  0
CLASS
  1
LAYOUT
  2
AcDbLayout
  3
AutoCAD 2000
 90
        0
280
     0
281
     0
  0
CLASS
  1
AMGSETTINGSOBJ
  2
AmgSettingsObj
  3
"AcadM|Product Description: AutoCAD Mechanical 2000|Company: Autodesk"
 90
        0
280
     0
281
     0
  0
CLASS
  1
ACME_DOCUMENT
  2
AcMeDbDoc
  3
AcMeServices
 90
        0
280
     0
281
     0
  0
CLASS
  1
ACMESCOPE
  2
AcMeScope
  3
AcMeServices
 90
        0
280
     0
281
     0
  0
CLASS
  1
ACMECOMMANDHISTORY
  2
AcMeCommandHistory
  3
AcMeServices
 90
        0
280
     0
281
     0
  0
CLASS
  1
DICTIONARYVAR
  2
AcDbDictionaryVar
  3
AutoCAD 2000
 90
        0
280
     0
281
     0
  0
CLASS
  1
ACIMSYSVARMAN
  2
AcImSysVarManager
  3
AcMeServices
 90
        0
280
     0
281
     0
  0
CLASS
  1
ACIMREALSYSVAR
  2
AcImRealSysVar
  3
AcMeServices
 90
        0
280
     0
281
     0
  0
CLASS
  1
ACIMINTSYSVAR
  2
AcImIntSysVar
  3
AcMeServices
 90
        0
280
     0
281
     0
  0
CLASS
  1
ACMEDRAWINGMAN
  2
AcMeDrawingMan
  3
AcMeServices
 90
        0
280
     0
281
     0
  0
CLASS
  1
ACMEVIEW
  2
AcMeView
  3
AcMeServices
 90
        0
280
     0
281
     0
  0
CLASS
  1
ACDBENTITYCACHE
  2
AcMeEntityCache
  3
AcMeServices
 90
        0
280
     0
281
     0
  0
CLASS
  1
GSMANAGER
  2
AcMeGSManager
  3
AcMeServices
 90
        0
280
     0
281
     0
  0
CLASS
  1
AmdtInternalReactor
  2
AmdtInternalReactor
  3
AcMeServices
 90
        0
280
     0
281
     0
  0
CLASS
  1
ACMESTATEMGR
  2
AcMeStateMgr
  3
AcMeServices
 90
        0
280
     0
281
     0
  0
CLASS
  1
ACME_DATABASE
  2
AcMeDbDatabase
  3
AcMeServices
 90
        0
280
     0
281
     0
  0
CLASS
  1
ACRFINSADJUSTERMGR
  2
AcRfInsAdjusterMgr
  3
AcMeServices
 90
        0
280
     0
281
     0
  0
CLASS
  1
ACMDATADICTIONARY
  2
AcmDataDictionary
  3
"AcmSymBB|Product Description: AutoCAD Mechanical 2000|Company: Autodesk"
 90
        0
280
     0
281
     0
  0
CLASS
  1
ACMDATAENTRYBLOCK
  2
AcmDataEntryBlock
  3
"AcmSymBB|Product Description: AutoCAD Mechanical 2000|Company: Autodesk"
 90
        0
280
     0
281
     0
  0
CLASS
  1
AMGOBJPROPCFG
  2
AmgObjPropCfg
  3
"AmgLay|Product Description: AutoCAD Mechanical 2000|Company: Autodesk"
 90
        1
280
     0
281
     0
  0
CLASS
  1
ACAMGFILTERDAT
  2
AcAmgFilterDat
  3
"AcadM|Product Description: AutoCAD Mechanical 2000|Company: Autodesk"
 90
        0
280
     0
281
     0
  0
CLASS
  1
LAYER_INDEX
  2
AcDbLayerIndex
  3
AutoCAD 2000
 90
        0
280
     0
281
     0
  0
CLASS
  1
IDBUFFER
  2
AcDbIdBuffer
  3
AutoCAD 2000
 90
        0
280
     0
281
     0
  0
CLASS
  1
ACIMSTRSYSVAR
  2
AcImStrSysVar
  3
AcMeServices
 90
        0
280
     0
281
     0
  0
CLASS
  1
ACMSTANDARDJIS
  2
AcmStandardJIS
  3
"AcmSymBB|Product Description: AutoCAD Mechanical 2000|Company: Autodesk"
 90
        0
280
     0
281
     0
  0
CLASS
  1
ACMSURFSTANDARDJIS
  2
AcmSurfTextStdJIS
  3
"AcmSymBB|Product Description: AutoCAD Mechanical 2000|Company: Autodesk"
 90
        0
280
     0
281
     0
  0
CLASS
  1
ACMFCFSTANDARDJIS
  2
AcmFCFStdJIS
  3
"AcmSymBB|Product Description: AutoCAD Mechanical 2000|Company: Autodesk"
 90
        0
280
     0
281
     0
  0
CLASS
  1
ACMWELDSTANDARDJIS
  2
AcmWeldingStdJIS
  3
"AcmSymBB|Product Description: AutoCAD Mechanical 2000|Company: Autodesk"
 90
        0
280
     0
281
     0
  0
CLASS
  1
ACMIDSTANDARDJIS
  2
AcmIdStdJIS
  3
"AcmSymBB|Product Description: AutoCAD Mechanical 2000|Company: Autodesk"
 90
        0
280
     0
281
     0
  0
CLASS
  1
ACMDATUMSTANDARDJIS
  2
AcmDatumStdJIS
  3
"AcmSymBB|Product Description: AutoCAD Mechanical 2000|Company: Autodesk"
 90
        0
280
     0
281
     0
  0
CLASS
  1
ACMBOMSTANDARDJIS
  2
AcmBOMStdJIS
  3
"AcmSymBB|Product Description: AutoCAD Mechanical 2000|Company: Autodesk"
 90
        0
280
     0
281
     0
  0
CLASS
  1
ACMSTANDARDANSI
  2
AcmStandardANSI
  3
"AcmSymBB|Product Description: AutoCAD Mechanical 2000|Company: Autodesk"
 90
        0
280
     0
281
     0
  0
CLASS
  1
ACMSURFSTANDARDANSI
  2
AcmSurfTextStdANSI
  3
"AcmSymBB|Product Description: AutoCAD Mechanical 2000|Company: Autodesk"
 90
        0
280
     0
281
     0
  0
CLASS
  1
ACMFCFSTANDARDANSI
  2
AcmFCFStdANSI
  3
"AcmSymBB|Product Description: AutoCAD Mechanical 2000|Company: Autodesk"
 90
        0
280
     0
281
     0
  0
CLASS
  1
ACMWELDSTANDARDANSI
  2
AcmWeldingStdANSI
  3
"AcmSymBB|Product Description: AutoCAD Mechanical 2000|Company: Autodesk"
 90
        0
280
     0
281
     0
  0
CLASS
  1
ACMIDSTANDARDANSI
  2
AcmIdStdANSI
  3
"AcmSymBB|Product Description: AutoCAD Mechanical 2000|Company: Autodesk"
 90
        0
280
     0
281
     0
  0
CLASS
  1
ACMDATUMSTANDARDANSI
  2
AcmDatumStdANSI
  3
"AcmSymBB|Product Description: AutoCAD Mechanical 2000|Company: Autodesk"
 90
        0
280
     0
281
     0
  0
CLASS
  1
ACMBOMSTANDARDANSI
  2
AcmBOMStdANSI
  3
"AcmSymBB|Product Description: AutoCAD Mechanical 2000|Company: Autodesk"
 90
        0
280
     0
281
     0
  0
CLASS
  1
ACMSTANDARDBSI
  2
AcmStandardBSI
  3
"AcmSymBB|Product Description: AutoCAD Mechanical 2000|Company: Autodesk"
 90
        0
280
     0
281
     0
  0
CLASS
  1
ACMSURFSTANDARDBSI
  2
AcmSurfTextStdBSI
  3
"AcmSymBB|Product Description: AutoCAD Mechanical 2000|Company: Autodesk"
 90
        0
280
     0
281
     0
  0
CLASS
  1
ACMFCFSTANDARDBSI
  2
AcmFCFStdBSI
  3
"AcmSymBB|Product Description: AutoCAD Mechanical 2000|Company: Autodesk"
 90
        0
280
     0
281
     0
  0
CLASS
  1
ACMWELDSTANDARDBSI
  2
AcmWeldingStdBSI
  3
"AcmSymBB|Product Description: AutoCAD Mechanical 2000|Company: Autodesk"
 90
        0
280
     0
281
     0
  0
CLASS
  1
ACMIDSTANDARDBSI
  2
AcmIdStdBSI
  3
"AcmSymBB|Product Description: AutoCAD Mechanical 2000|Company: Autodesk"
 90
        0
280
     0
281
     0
  0
CLASS
  1
ACMDATUMSTANDARDBSI
  2
AcmDatumStdBSI
  3
"AcmSymBB|Product Description: AutoCAD Mechanical 2000|Company: Autodesk"
 90
        0
280
     0
281
     0
  0
CLASS
  1
ACMBOMSTANDARDBSI
  2
AcmBOMStdBSI
  3
"AcmSymBB|Product Description: AutoCAD Mechanical 2000|Company: Autodesk"
 90
        0
280
     0
281
     0
  0
CLASS
  1
LONG_TRANSACTION
  2
AcDbLongTransaction
  3
AutoCAD 2000
 90
        0
280
     0
281
     0
  0
CLASS
  1
LWPOLYLINE
  2
AcDbPolyline
  3
AutoCAD 2000
 90
        0
280
     0
281
     1
  0
CLASS
  1
HATCH
  2
AcDbHatch
  3
AutoCAD 2000
 90
        0
280
     0
281
     1
  0
CLASS
  1
XRECORD
  2
AcDbXrecord
  3
AutoCAD 2000
 90
        0
280
     0
281
     0
  0
ENDSEC
  0
SECTION
  2
TABLES
  0
TABLE
  2
VPORT
  5
8
330
0
100
AcDbSymbolTable
 70
     3
  0
VPORT
  5
23DC
330
8
100
AcDbSymbolTableRecord
100
AcDbViewportTableRecord
  2
*ACTIVE
 70
     0
 10
0.0
 20
0.0
 11
1.0
 21
1.0
 12
-56.31948739851688
 22
-23.43814257411967
 13
0.0
 23
0.0
 14
2.5
 24
2.5
 15
10.0
 25
10.0
 16
0.0
 26
0.0
 36
1.0
 17
0.0
 27
0.0
 37
0.0
 40
96.01868937686145
 41
1.56570841889117
 42
50.0
 43
0.0
 44
0.0
 50
0.0
 51
0.0
 71
     0
 72
   100
 73
     1
 74
     3
 75
     0
 76
     0
 77
     0
 78
     0
  0
ENDTAB
  0
TABLE
  2
LTYPE
  5
5
330
0
100
AcDbSymbolTable
 70
    10
  0
LTYPE
  5
14
330
5
100
AcDbSymbolTableRecord
100
AcDbLinetypeTableRecord
  2
BYBLOCK
 70
     0
  3

 72
    65
 73
     0
 40
0.0
  0
LTYPE
  5
15
330
5
100
AcDbSymbolTableRecord
100
AcDbLinetypeTableRecord
  2
BYLAYER
 70
     0
  3

 72
    65
 73
     0
 40
0.0
  0
LTYPE
  5
16
330
5
100
AcDbSymbolTableRecord
100
AcDbLinetypeTableRecord
  2
CONTINUOUS
 70
     0
  3
Solid line
 72
    65
 73
     0
 40
0.0
  0
LTYPE
  5
4B
330
5
100
AcDbSymbolTableRecord
100
AcDbLinetypeTableRecord
  2
AM_ISO02W050
 70
     0
  3
__ __ __ __ __ __ __ __ __ __ __ __ __ __ __
 72
    65
 73
     2
 40
7.5
 49
6.0
 74
     0
 49
-1.5
 74
     0
  0
LTYPE
  5
4C
330
5
100
AcDbSymbolTableRecord
100
AcDbLinetypeTableRecord
  2
AM_ISO08W050
 70
     0
  3
____ . ____ . ____ . ____ . ____ . ____ . ____
 72
    65
 73
     4
 40
18.0
 49
12.0
 74
     0
 49
-1.5
 74
     0
 49
3.0
 74
     0
 49
-1.5
 74
     0
  0
LTYPE
  5
4D
330
5
100
AcDbSymbolTableRecord
100
AcDbLinetypeTableRecord
  2
AM_ISO09W050
 70
     0
  3
_____ . . _____ . . _____ . . ____ .. ____
 72
    65
 73
     6
 40
22.5
 49
12.0
 74
     0
 49
-1.5
 74
     0
 49
3.0
 74
     0
 49
-1.5
 74
     0
 49
3.0
 74
     0
 49
-1.5
 74
     0
  0
LTYPE
  5
4E
330
5
100
AcDbSymbolTableRecord
100
AcDbLinetypeTableRecord
  2
AMCONSTR
 70
     0
  3
_______________________
 72
    65
 73
     2
 40
9999.0
 49
9999.0
 74
     0
 49
0.0
 74
     0
  0
LTYPE
  5
4F
330
5
100
AcDbSymbolTableRecord
100
AcDbLinetypeTableRecord
  2
AM_ISO02W050X2
 70
     0
  3
 _ _ _ _ _ _ _ _ _ _ _ _
 72
    65
 73
     2
 40
3.75
 49
3.0
 74
     0
 49
-0.75
 74
     0
  0
LTYPE
  5
50
330
5
100
AcDbSymbolTableRecord
100
AcDbLinetypeTableRecord
  2
AM_ISO08W050X2
 70
     0
  3
__ . __ . __ . __ . __ . __
 72
    65
 73
     4
 40
9.0
 49
6.0
 74
     0
 49
-0.75
 74
     0
 49
1.5
 74
     0
 49
-0.75
 74
     0
  0
LTYPE
  5
53
330
5
100
AcDbSymbolTableRecord
100
AcDbLinetypeTableRecord
  2
AMZIGZAG
 70
     0
  3
/\/-/\/-/\/-/\/-/\/-/\/
 72
    65
 73
     2
 40
11.00009999999999
 49
0.0001
 74
     4
 75
   135
340
52
 46
0.04
 50
0.0
 44
0.0
 45
0.0
 49
-11.0
 74
     0
  0
LTYPE
  5
166
330
5
100
AcDbSymbolTableRecord
100
AcDbLinetypeTableRecord
  2
ACJISTGL
 70
     0
  3
_ _ _ _ _
 72
    65
 73
     2
 40
3.0
 49
2.0
 74
     0
 49
-1.0
 74
     0
  0
LTYPE
  5
26A
330
5
100
AcDbSymbolTableRecord
100
AcDbLinetypeTableRecord
  2
ACJISTGB
 70
     0
  3
__ . . __ . .
 72
    65
 73
     6
 40
9.0
 49
4.0
 74
     0
 49
-1.0
 74
     0
 49
1.0
 74
     0
 49
-1.0
 74
     0
 49
1.0
 74
     0
 49
-1.0
 74
     0
  0
ENDTAB
  0
TABLE
  2
LAYER
  5
2
330
0
100
AcDbSymbolTable
 70
     7
  0
LAYER
  5
10
330
2
100
AcDbSymbolTableRecord
100
AcDbLayerTableRecord
  2
0
 70
     0
 62
     7
  6
CONTINUOUS
  0
LAYER
  5
3F9
330
2
100
AcDbSymbolTableRecord
100
AcDbLayerTableRecord
  2
AM_0
 70
     0
 62
     7
  6
CONTINUOUS
  0
LAYER
  5
BA4
330
2
100
AcDbSymbolTableRecord
100
AcDbLayerTableRecord
  2
AM_11
 70
     0
 62
     3
  6
AM_ISO09W050
  0
LAYER
  5
BA6
330
2
100
AcDbSymbolTableRecord
100
AcDbLayerTableRecord
  2
AM_6
 70
     0
 62
     2
  6
CONTINUOUS
  0
LAYER
  5
BA7
330
2
100
AcDbSymbolTableRecord
100
AcDbLayerTableRecord
  2
AM_7
 70
     0
 62
     4
  6
AM_ISO08W050
  0
LAYER
  5
D0E
330
2
100
AcDbSymbolTableRecord
100
AcDbLayerTableRecord
  2
AM_5
 70
     0
 62
     3
  6
CONTINUOUS
  0
LAYER
  5
FE8
330
2
100
AcDbSymbolTableRecord
100
AcDbLayerTableRecord
  2
DEFPOINTS
 70
     0
 62
     7
  6
CONTINUOUS
  0
ENDTAB
  0
TABLE
  2
STYLE
  5
3
330
0
100
AcDbSymbolTable
 70
     5
  0
STYLE
  5
11
330
3
100
AcDbSymbolTableRecord
100
AcDbTextStyleTableRecord
  2
STANDARD
 70
     0
 40
0.0
 41
1.0
 50
0.0
 71
     0
 42
2.5
  3
simplex.shx
  4
EXTFONT.SHX
  0
STYLE
  5
52
330
3
100
AcDbSymbolTableRecord
100
AcDbTextStyleTableRecord
  2

 70
     1
 40
0.0
 41
1.0
 50
0.0
 71
     0
 42
2.5
  3
ltypeshp.shx
  4

  0
STYLE
  5
6B
330
3
100
AcDbSymbolTableRecord
100
AcDbTextStyleTableRecord
  2
ASAMI
 70
     0
 40
0.0
 41
1.0
 50
0.0
 71
     0
 42
2.5
  3
simplex.shx
  4
EXTFONT.SHX
  0
STYLE
  5
262
330
3
100
AcDbSymbolTableRecord
100
AcDbTextStyleTableRecord
  2
ACJISTS
 70
     0
 40
1.0
 41
1.0
 50
0.0
 71
     0
 42
2.5
  3
simplex.shx
  4
bigfont.shx
  0
STYLE
  5
269
330
3
100
AcDbSymbolTableRecord
100
AcDbTextStyleTableRecord
  2
ACJISGDT
 70
     0
 40
0.0
 41
1.0
 50
0.0
 71
     0
 42
2.5
  3
amgdtans.shx
  4

  0
ENDTAB
  0
TABLE
  2
VIEW
  5
6
330
0
100
AcDbSymbolTable
 70
     0
  0
ENDTAB
  0
TABLE
  2
UCS
  5
7
330
0
100
AcDbSymbolTable
 70
     0
  0
ENDTAB
  0
TABLE
  2
APPID
  5
9
330
0
100
AcDbSymbolTable
 70
    12
  0
APPID
  5
12
330
9
100
AcDbSymbolTableRecord
100
AcDbRegAppTableRecord
  2
ACAD
 70
     0
  0
APPID
  5
30
330
9
100
AcDbSymbolTableRecord
100
AcDbRegAppTableRecord
  2
MCAD_NO_VIS
 70
     0
  0
APPID
  5
31
330
9
100
AcDbSymbolTableRecord
100
AcDbRegAppTableRecord
  2
ACAD_TEMP_GRAPHIC
 70
     0
  0
APPID
  5
2C2
330
9
100
AcDbSymbolTableRecord
100
AcDbRegAppTableRecord
  2
GENIUS_GENDTOL_13
 70
     0
  0
APPID
  5
339
330
9
100
AcDbSymbolTableRecord
100
AcDbRegAppTableRecord
  2
GENIUS_GENODEF_13
 70
     0
  0
APPID
  5
33A
330
9
100
AcDbSymbolTableRecord
100
AcDbRegAppTableRecord
  2
GENIUS_GENOBJ-N-RSBK_13
 70
     0
  0
APPID
  5
33B
330
9
100
AcDbSymbolTableRecord
100
AcDbRegAppTableRecord
  2
GENIUS_GENOBJ-N-LIB_13
 70
     0
  0
APPID
  5
33C
330
9
100
AcDbSymbolTableRecord
100
AcDbRegAppTableRecord
  2
GENIUS_GENSCALE_13
 70
     0
  0
APPID
  5
378
330
9
100
AcDbSymbolTableRecord
100
AcDbRegAppTableRecord
  2
GENIUS_GENDIMSH_14
 70
     0
  0
APPID
  5
BA8
330
9
100
AcDbSymbolTableRecord
100
AcDbRegAppTableRecord
  2
GENIUS_GENOBJ-N-CEN_13
 70
     0
  0
APPID
  5
EE8
330
9
100
AcDbSymbolTableRecord
100
AcDbRegAppTableRecord
  2
GENIUS_GENFIL_13
 70
     0
  0
APPID
  5
EE9
330
9
100
AcDbSymbolTableRecord
100
AcDbRegAppTableRecord
  2
GENIUS_GENOBJ-N-CHA_13
 70
     0
  0
ENDTAB
  0
TABLE
  2
DIMSTYLE
  5
A
330
0
100
AcDbSymbolTable
 70
     8
  0
DIMSTYLE
105
58
102
{ACAD_REACTORS
330
206A
330
206E
330
21A4
330
21DE
102
}
330
A
100
AcDbSymbolTableRecord
100
AcDbDimStyleTableRecord
  2
AM_JIS
 70
     0
  3

  4
"
  5
OPEN30
  6

  7

 40
1.0
 41
2.5
 42
1.0
 43
12.0
 44
1.0
 45
0.0
 46
0.0
 47
0.1
 48
0.1
140
3.2
141
0.0
142
0.0
143
0.0393701
144
1.0
145
0.0
146
0.71
147
1.5
 71
     0
 72
     0
 73
     0
 74
     0
 75
     0
 76
     0
 77
     3
 78
     8
170
     0
171
     2
172
     1
173
     0
174
     0
175
     0
176
   256
177
   256
178
     2
270
     2
271
     3
272
     3
273
     2
274
     2
340
6B
275
     0
280
     0
281
     0
282
     0
283
     0
284
     0
285
     0
286
     0
287
     3
288
     0
  0
DIMSTYLE
105
5F
330
A
100
AcDbSymbolTableRecord
100
AcDbDimStyleTableRecord
  2
AM_JIS$3
 70
     0
  3

  4
"
  5
OPEN30
  6

  7

 40
1.0
 41
2.5
 42
1.0
 43
10.0
 44
1.0
 45
0.0
 46
0.0
 47
0.1
 48
0.1
140
3.2
141
0.0
142
0.0
143
0.0393701
144
1.0
145
0.0
146
0.71
147
1.5
 71
     0
 72
     0
 73
     0
 74
     1
 75
     0
 76
     0
 77
     3
 78
     8
170
     0
171
     2
172
     0
173
     0
174
     0
175
     0
176
   256
177
   256
178
     2
270
     2
271
     2
272
     3
273
     2
274
     2
340
6B
275
     0
280
     0
281
     0
282
     0
283
     0
284
     0
285
     0
286
     0
287
     0
288
     1
  0
DIMSTYLE
105
60
330
A
100
AcDbSymbolTableRecord
100
AcDbDimStyleTableRecord
  2
AM_JIS$4
 70
     0
  3

  4
"
  5
OPEN30
  6

  7

 40
1.0
 41
2.5
 42
1.0
 43
10.0
 44
1.0
 45
0.0
 46
0.0
 47
0.1
 48
0.1
140
3.2
141
0.0
142
0.0
143
0.0393701
144
1.0
145
0.0
146
0.71
147
1.5
 71
     0
 72
     0
 73
     0
 74
     1
 75
     0
 76
     0
 77
     3
 78
     8
170
     0
171
     2
172
     0
173
     0
174
     0
175
     0
176
   256
177
   256
178
     2
270
     2
271
     2
272
     3
273
     2
274
     2
340
6B
275
     0
280
     0
281
     0
282
     0
283
     0
284
     0
285
     0
286
     0
287
     0
288
     1
  0
DIMSTYLE
105
61
330
A
100
AcDbSymbolTableRecord
100
AcDbDimStyleTableRecord
  2
AM_JIS$6
 70
     0
  3

  4
"
  5
OPEN30
  6

  7

 40
1.0
 41
2.5
 42
1.0
 43
10.0
 44
1.0
 45
0.0
 46
0.0
 47
0.1
 48
0.1
140
3.2
141
0.0
142
0.0
143
0.0393701
144
1.0
145
0.0
146
0.71
147
1.5
 71
     0
 72
     0
 73
     0
 74
     0
 75
     0
 76
     0
 77
     0
 78
     8
170
     0
171
     2
172
     1
173
     0
174
     0
175
     0
176
   256
177
   256
178
     2
270
     2
271
     2
272
     2
273
     2
274
     2
340
6B
275
     0
280
     0
281
     0
282
     0
283
     0
284
     0
285
     0
286
     0
287
     3
288
     0
  0
DIMSTYLE
105
62
330
A
100
AcDbSymbolTableRecord
100
AcDbDimStyleTableRecord
  2
AM_JIS$7
 70
     0
  3

  4
"
  5
OPEN30
  6

  7

 40
1.0
 41
2.5
 42
1.0
 43
10.0
 44
1.0
 45
0.0
 46
0.0
 47
0.1
 48
0.1
140
3.2
141
0.0
142
0.0
143
0.0393701
144
1.0
145
0.0
146
0.71
147
1.5
 71
     0
 72
     0
 73
     0
 74
     0
 75
     0
 76
     0
 77
     3
 78
     8
170
     0
171
     2
172
     1
173
     0
174
     0
175
     0
176
   256
177
   256
178
     2
270
     2
271
     2
272
     3
273
     2
274
     2
340
6B
275
     0
280
     0
281
     0
282
     0
283
     0
284
     0
285
     0
286
     0
287
     3
288
     0
  0
DIMSTYLE
105
63
330
A
100
AcDbSymbolTableRecord
100
AcDbDimStyleTableRecord
  2
AM_JIS$SF
 70
     0
  3

  4
"
  5
OPEN30
  6

  7

 40
1.0
 41
2.5
 42
1.0
 43
10.0
 44
1.0
 45
0.0
 46
0.0
 47
0.1
 48
0.1
140
3.2
141
0.0
142
0.0
143
0.0393701
144
1.0
145
0.0
146
0.71
147
1.5
 71
     0
 72
     0
 73
     0
 74
     0
 75
     1
 76
     1
 77
     3
 78
     8
170
     0
171
     2
172
     1
173
     0
174
     0
175
     0
176
   256
177
   256
178
     2
270
     2
271
     2
272
     2
273
     2
274
     2
340
6B
275
     0
280
     0
281
     0
282
     0
283
     0
284
     0
285
     0
286
     0
287
     3
288
     0
  0
DIMSTYLE
105
68
330
A
100
AcDbSymbolTableRecord
100
AcDbDimStyleTableRecord
  2
AM_JIS$SH
 70
     0
  3

  4
"
  5

  6
GENAXEH
  7
OPEN30
 40
1.0
 41
2.5
 42
1.0
 43
10.0
 44
1.0
 45
0.0
 46
0.0
 47
0.1
 48
0.1
140
3.2
141
0.0
142
0.0
143
0.0393701
144
2.0
145
0.0
146
0.71
147
1.5
 71
     0
 72
     0
 73
     0
 74
     0
 75
     1
 76
     1
 77
     3
 78
     8
170
     0
171
     2
172
     1
173
     1
174
     0
175
     0
176
   256
177
   256
178
     2
270
     2
271
     2
272
     2
273
     2
274
     2
340
6B
275
     0
280
     0
281
     0
282
     0
283
     0
284
     0
285
     0
286
     0
287
     3
288
     0
  0
DIMSTYLE
105
B34
330
A
100
AcDbSymbolTableRecord
100
AcDbDimStyleTableRecord
  2
AM_JIS$2
 70
     0
  3

  4
"
  5
OPEN30
  6

  7

 40
1.0
 41
2.5
 42
1.0
 43
12.0
 44
1.0
 45
0.0
 46
0.0
 47
0.1
 48
0.1
140
3.2
141
0.0
142
0.0
143
0.0393701
144
1.0
145
0.0
146
0.71
147
1.5
 71
     0
 72
     0
 73
     0
 74
     0
 75
     0
 76
     0
 77
     3
 78
     8
170
     0
171
     2
172
     1
173
     0
174
     0
175
     0
176
   256
177
   256
178
     2
270
     2
271
     3
272
     3
273
     2
274
     2
340
6B
275
     0
280
     0
281
     0
282
     0
283
     0
284
     0
285
     0
286
     0
287
     3
288
     0
  0
ENDTAB
  0
TABLE
  2
BLOCK_RECORD
  5
1
330
0
100
AcDbSymbolTable
 70
     9
  0
BLOCK_RECORD
  5
1F
102
{ACAD_XDICTIONARY
360
74
102
}
330
1
100
AcDbSymbolTableRecord
100
AcDbBlockTableRecord
  2
*MODEL_SPACE
  0
BLOCK_RECORD
  5
101
102
{ACAD_XDICTIONARY
360
2405
102
}
330
1
100
AcDbSymbolTableRecord
100
AcDbBlockTableRecord
  2
*PAPER_SPACE
  0
BLOCK_RECORD
  5
59
330
1
100
AcDbSymbolTableRecord
100
AcDbBlockTableRecord
  2
_OPEN30
  0
BLOCK_RECORD
  5
64
330
1
100
AcDbSymbolTableRecord
100
AcDbBlockTableRecord
  2
GENAXEH
  0
BLOCK_RECORD
  5
20C8
330
1
100
AcDbSymbolTableRecord
100
AcDbBlockTableRecord
  2
*D5
  0
BLOCK_RECORD
  5
20D4
330
1
100
AcDbSymbolTableRecord
100
AcDbBlockTableRecord
  2
*D6
  0
BLOCK_RECORD
  5
21A5
330
1
100
AcDbSymbolTableRecord
100
AcDbBlockTableRecord
  2
*D7
  0
BLOCK_RECORD
  5
21DF
330
1
100
AcDbSymbolTableRecord
100
AcDbBlockTableRecord
  2
*D8
  0
ENDTAB
  0
ENDSEC
  0
SECTION
  2
BLOCKS
  0
BLOCK
  5
20
330
1F
100
AcDbEntity
  8
0
100
AcDbBlockBegin
  2
*MODEL_SPACE
 70
     0
 10
0.0
 20
0.0
 30
0.0
  3
*MODEL_SPACE
  1

  0
ENDBLK
  5
21
330
1F
100
AcDbEntity
  8
0
100
AcDbBlockEnd
  0
BLOCK
  5
103
330
101
100
AcDbEntity
 67
     1
  8
0
100
AcDbBlockBegin
  2
*PAPER_SPACE
 70
     0
 10
0.0
 20
0.0
 30
0.0
  3
*PAPER_SPACE
  1

  0
ENDBLK
  5
104
330
101
100
AcDbEntity
 67
     1
  8
0
100
AcDbBlockEnd
  0
BLOCK
  5
5D
330
59
100
AcDbEntity
  8
0
100
AcDbBlockBegin
  2
_OPEN30
 70
     0
 10
0.0
 20
0.0
 30
0.0
  3
_OPEN30
  1

  0
LINE
  5
5A
330
59
100
AcDbEntity
  8
0
 62
     0
100
AcDbLine
 10
-1.0
 20
0.26794919
 30
0.0
 11
0.0
 21
0.0
 31
0.0
  0
LINE
  5
5B
330
59
100
AcDbEntity
  8
0
 62
     0
100
AcDbLine
 10
0.0
 20
0.0
 30
0.0
 11
-1.0
 21
-0.26794919
 31
0.0
  0
LINE
  5
5C
330
59
100
AcDbEntity
  8
0
 62
     0
100
AcDbLine
 10
0.0
 20
0.0
 30
0.0
 11
-1.0
 21
0.0
 31
0.0
  0
ENDBLK
  5
5E
330
59
100
AcDbEntity
  8
0
100
AcDbBlockEnd
  0
BLOCK
  5
66
330
64
100
AcDbEntity
  8
0
100
AcDbBlockBegin
  2
GENAXEH
 70
     0
 10
0.0
 20
0.0
 30
0.0
  3
GENAXEH
  1

  0
LINE
  5
65
330
64
100
AcDbEntity
  8
0
100
AcDbLine
 10
-1.0
 20
0.0
 30
0.0
 11
1.0
 21
0.0
 31
0.0
  0
ENDBLK
  5
67
330
64
100
AcDbEntity
  8
0
100
AcDbBlockEnd
  0
BLOCK
  5
20D2
330
20C8
100
AcDbEntity
  8
0
100
AcDbBlockBegin
  2
*D5
 70
     1
 10
0.0
 20
0.0
 30
0.0
  3
*D5
  1

  0
LINE
  5
22A3
330
20C8
100
AcDbEntity
  8
AM_5
100
AcDbLine
 10
0.0000000000066213
 20
-8.500000002100144
 30
0.0
 11
0.0000000000066197
 21
-35.00000100000014
 31
0.0
  0
LINE
  5
22A4
330
20C8
100
AcDbEntity
  8
AM_5
100
AcDbLine
 10
-110.0
 20
-7.772704459937482
 30
0.0
 11
-110.0
 21
-35.00000100000014
 31
0.0
  0
LINE
  5
22A5
330
20C8
100
AcDbEntity
  8
AM_5
100
AcDbLine
 10
-2.49999999999338
 20
-34.00000100000014
 30
0.0
 11
-107.4999999999999
 21
-34.00000100000014
 31
0.0
  0
INSERT
  5
22A6
330
20C8
100
AcDbEntity
  8
AM_5
100
AcDbBlockReference
  2
_OPEN30
 10
0.0000000000066197
 20
-34.00000100000014
 30
0.0
 41
2.5
 42
2.5
 43
2.5
  0
INSERT
  5
22A7
330
20C8
100
AcDbEntity
  8
AM_5
100
AcDbBlockReference
  2
_OPEN30
 10
-110.0
 20
-34.00000100000014
 30
0.0
 41
2.5
 42
2.5
 43
2.5
 50
180.0
  0
MTEXT
  5
22A8
330
20C8
100
AcDbEntity
  8
AM_5
 62
     2
100
AcDbMText
 10
-54.99999999999669
 20
-30.90000100000014
 30
0.0
 40
3.2
 41
0.0
 71
     5
 72
     1
  1
110
  7
ASAMI
1001
ACAD
1000
MTEXTBEGIN
1070
    73
1070
     1
1070
    44
1040
1.0
1070
    74
1070
     0
1000
MTEXTEND
  0
POINT
  5
22A9
330
20C8
100
AcDbEntity
  8
DEFPOINTS
 62
     0
100
AcDbPoint
 10
0.0000000000066214
 20
-7.500000002100144
 30
0.0
  0
POINT
  5
22AA
330
20C8
100
AcDbEntity
  8
DEFPOINTS
 62
     0
100
AcDbPoint
 10
-110.0
 20
-6.772704459937482
 30
0.0
  0
POINT
  5
22AB
330
20C8
100
AcDbEntity
  8
DEFPOINTS
 62
     0
100
AcDbPoint
 10
-110.0
 20
-34.00000100000014
 30
0.0
  0
ENDBLK
  5
20D3
330
20C8
100
AcDbEntity
  8
0
100
AcDbBlockEnd
  0
BLOCK
  5
20DE
330
20D4
100
AcDbEntity
  8
0
100
AcDbBlockBegin
  2
*D6
 70
     1
 10
0.0
 20
0.0
 30
0.0
  3
*D6
  1

  0
LINE
  5
2103
330
20D4
100
AcDbEntity
  8
AM_5
100
AcDbLine
 10
-110.4999999999999
 20
-8.000000000000003
 30
0.0
 11
-127.4874034467853
 21
-7.999999999999998
 31
0.0
  0
LINE
  5
2104
330
20D4
100
AcDbEntity
  8
AM_5
100
AcDbLine
 10
-110.4999999999999
 20
7.999999999999977
 30
0.0
 11
-127.4874034467853
 21
7.999999999999982
 31
0.0
  0
LINE
  5
2105
330
20D4
100
AcDbEntity
  8
AM_5
100
AcDbLine
 10
-126.4874034467853
 20
-5.499999999999998
 30
0.0
 11
-126.4874034467853
 21
5.499999999999982
 31
0.0
  0
INSERT
  5
2106
330
20D4
100
AcDbEntity
  8
AM_5
100
AcDbBlockReference
  2
_OPEN30
 10
-126.4874034467853
 20
-7.999999999999998
 30
0.0
 41
2.5
 42
2.5
 43
2.5
 50
270.0
  0
INSERT
  5
2107
330
20D4
100
AcDbEntity
  8
AM_5
100
AcDbBlockReference
  2
_OPEN30
 10
-126.4874034467853
 20
7.999999999999982
 30
0.0
 41
2.5
 42
2.5
 43
2.5
 50
90.0
  0
MTEXT
  5
2108
330
20D4
100
AcDbEntity
  8
AM_5
 62
     2
100
AcDbMText
 10
-129.5874034467853
 20
-0.0000000000000283
 30
0.0
 40
3.2
 41
0.0
 71
     5
 72
     1
  1
%%c16
  7
ASAMI
 11
0.0000000000000001
 21
1.0
 31
0.0
1001
ACAD
1000
MTEXTBEGIN
1070
    73
1070
     1
1070
    44
1040
1.0
1070
    74
1070
     0
1000
MTEXTEND
  0
POINT
  5
2109
330
20D4
100
AcDbEntity
  8
DEFPOINTS
 62
     0
100
AcDbPoint
 10
-109.4999999999999
 20
-8.000000000000003
 30
0.0
  0
POINT
  5
210A
330
20D4
100
AcDbEntity
  8
DEFPOINTS
 62
     0
100
AcDbPoint
 10
-109.4999999999999
 20
7.999999999999976
 30
0.0
  0
POINT
  5
210B
330
20D4
100
AcDbEntity
  8
DEFPOINTS
 62
     0
100
AcDbPoint
 10
-126.4874034467853
 20
7.999999999999982
 30
0.0
  0
ENDBLK
  5
20DF
330
20D4
100
AcDbEntity
  8
0
100
AcDbBlockEnd
  0
BLOCK
  5
21B1
330
21A5
100
AcDbEntity
  8
0
100
AcDbBlockBegin
  2
*D7
 70
     1
 10
0.0
 20
0.0
 30
0.0
  3
*D7
  1

  0
LINE
  5
22C0
330
21A5
100
AcDbEntity
  8
AM_5
100
AcDbLine
 10
1.000000000006621
 20
-7.500000000000005
 30
0.0
 11
18.54545554545453
 21
-7.50000000000001
 31
0.0
  0
LINE
  5
22C1
330
21A5
100
AcDbEntity
  8
AM_5
100
AcDbLine
 10
1.000000000006621
 20
7.499999999999971
 30
0.0
 11
18.54545554545453
 21
7.499999999999966
 31
0.0
  0
LINE
  5
22C2
330
21A5
100
AcDbEntity
  8
AM_5
100
AcDbLine
 10
17.54545554545452
 20
-10.00000000000001
 30
0.0
 11
17.54545554545452
 21
-12.50000000000001
 31
0.0
  0
LINE
  5
22C3
330
21A5
100
AcDbEntity
  8
AM_5
100
AcDbLine
 10
17.54545554545453
 20
9.999999999999968
 30
0.0
 11
17.54545554545453
 21
12.49999999999996
 31
0.0
  0
LINE
  5
22C4
330
21A5
100
AcDbEntity
  8
AM_5
100
AcDbLine
 10
17.54545554545453
 20
-7.500000000000009
 30
0.0
 11
17.54545554545453
 21
7.499999999999967
 31
0.0
  0
INSERT
  5
22C5
330
21A5
100
AcDbEntity
  8
AM_5
100
AcDbBlockReference
  2
_OPEN30
 10
17.54545554545453
 20
-7.500000000000009
 30
0.0
 41
2.5
 42
2.5
 43
2.5
 50
90.0
  0
INSERT
  5
22C6
330
21A5
100
AcDbEntity
  8
AM_5
100
AcDbBlockReference
  2
_OPEN30
 10
17.54545554545453
 20
7.499999999999967
 30
0.0
 41
2.5
 42
2.5
 43
2.5
 50
270.0
  0
MTEXT
  5
22C7
330
21A5
100
AcDbEntity
  8
AM_5
 62
     2
100
AcDbMText
 10
14.44545554545452
 20
-0.5723401049102611
 30
0.0
 40
3.2
 41
0.0
 71
     5
 72
     1
  1
%%c15
  7
ASAMI
 11
0.0000000000000001
 21
1.0
 31
0.0
1001
ACAD
1000
MTEXTBEGIN
1070
    73
1070
     1
1070
    44
1040
1.0
1070
    74
1070
     0
1000
MTEXTEND
  0
POINT
  5
22C8
330
21A5
100
AcDbEntity
  8
DEFPOINTS
 62
     0
100
AcDbPoint
 10
0.0000000000066214
 20
-7.500000000000005
 30
0.0
  0
POINT
  5
22C9
330
21A5
100
AcDbEntity
  8
DEFPOINTS
 62
     0
100
AcDbPoint
 10
0.0000000000066214
 20
7.499999999999971
 30
0.0
  0
POINT
  5
22CA
330
21A5
100
AcDbEntity
  8
DEFPOINTS
 62
     0
100
AcDbPoint
 10
17.54545554545453
 20
7.499999999999967
 30
0.0
  0
ENDBLK
  5
21B2
330
21A5
100
AcDbEntity
  8
0
100
AcDbBlockEnd
  0
BLOCK
  5
21E9
330
21DF
100
AcDbEntity
  8
0
100
AcDbBlockBegin
  2
*D8
 70
     1
 10
0.0
 20
0.0
 30
0.0
  3
*D8
  1

  0
LINE
  5
22AC
330
21DF
100
AcDbEntity
  8
AM_5
100
AcDbLine
 10
-0.0000000000000036
 20
-8.500000000000005
 30
0.0
 11
-0.0000000000000045
 21
-23.000001
 31
0.0
  0
LINE
  5
22AD
330
21DF
100
AcDbEntity
  8
AM_5
100
AcDbLine
 10
-26.00000365796302
 20
-8.500000000000005
 30
0.0
 11
-26.00000365796302
 21
-23.000001
 31
0.0
  0
LINE
  5
22AE
330
21DF
100
AcDbEntity
  8
AM_5
100
AcDbLine
 10
-2.500000000000004
 20
-22.000001
 30
0.0
 11
-23.50000365796302
 21
-22.000001
 31
0.0
  0
INSERT
  5
22AF
330
21DF
100
AcDbEntity
  8
AM_5
100
AcDbBlockReference
  2
_OPEN30
 10
-0.0000000000000044
 20
-22.000001
 30
0.0
 41
2.5
 42
2.5
 43
2.5
  0
INSERT
  5
22B0
330
21DF
100
AcDbEntity
  8
AM_5
100
AcDbBlockReference
  2
_OPEN30
 10
-26.00000365796302
 20
-22.000001
 30
0.0
 41
2.5
 42
2.5
 43
2.5
 50
180.0
  0
MTEXT
  5
22B1
330
21DF
100
AcDbEntity
  8
AM_5
 62
     2
100
AcDbMText
 10
-13.00000182898151
 20
-18.900001
 30
0.0
 40
3.2
 41
0.0
 71
     5
 72
     1
  1
26
  7
ASAMI
1001
ACAD
1000
MTEXTBEGIN
1070
    73
1070
     1
1070
    44
1040
1.0
1070
    74
1070
     0
1000
MTEXTEND
  0
POINT
  5
22B2
330
21DF
100
AcDbEntity
  8
DEFPOINTS
 62
     0
100
AcDbPoint
 10
-0.0000000000000036
 20
-7.500000000000005
 30
0.0
  0
POINT
  5
22B3
330
21DF
100
AcDbEntity
  8
DEFPOINTS
 62
     0
100
AcDbPoint
 10
-26.00000365796302
 20
-7.500000000000005
 30
0.0
  0
POINT
  5
22B4
330
21DF
100
AcDbEntity
  8
DEFPOINTS
 62
     0
100
AcDbPoint
 10
-26.00000365796302
 20
-22.000001
 30
0.0
  0
ENDBLK
  5
21EA
330
21DF
100
AcDbEntity
  8
0
100
AcDbBlockEnd
  0
ENDSEC
  0
SECTION
  2
ENTITIES
  0
TEXT
  5
F07
330
1F
100
AcDbEntity
  8
AM_6
100
AcDbText
 10
-77.97619047619048
 20
-59.37590829127475
 30
0.0
 40
5.0
  1
SSUP3150ZX
 72
     4
 11
-55.0
 21
-56.87590829127475
 31
0.0
100
AcDbText
  0
DIMENSION
  5
206A
330
1F
100
AcDbEntity
  8
AM_5
100
AcDbDimension
  2
*D5
 10
-110.0
 20
-34.00000100000014
 30
0.0
 11
-54.99999999999669
 21
-30.90000100000014
 31
0.0
 70
    32
  1
<>
  3
AM_JIS
100
AcDbAlignedDimension
 13
0.0000000000066214
 23
-7.500000002100144
 33
0.0
 14
-110.0
 24
-6.772704459937482
 34
0.0
 50
0.0000000000001341
100
AcDbRotatedDimension
1001
GENIUS_GENDTOL_13
1000

1000
h7
1000

1040
0.0
  0
LINE
  5
206B
330
1F
100
AcDbEntity
  8
AM_0
100
AcDbLine
 10
-30.3660254037778
 20
7.999999999999976
 30
0.0
 11
-109.4999999999999
 21
7.999999999999976
 31
0.0
  0
LINE
  5
206C
330
1F
100
AcDbEntity
  8
AM_0
100
AcDbLine
 10
-109.4999999999999
 20
-8.000000000000003
 30
0.0
 11
-30.3660254037778
 21
-8.000000000000003
 31
0.0
  0
DIMENSION
  5
206E
330
1F
100
AcDbEntity
  8
AM_5
100
AcDbDimension
  2
*D6
 10
-126.4874034467853
 20
7.999999999999982
 30
0.0
 11
-129.5874034467853
 21
-0.0000000000000283
 31
0.0
 70
    32
  1
%%c<>
  3
AM_JIS
100
AcDbAlignedDimension
 13
-109.4999999999999
 23
-8.000000000000003
 33
0.0
 14
-109.4999999999999
 24
7.999999999999976
 34
0.0
 50
270.0
100
AcDbRotatedDimension
1001
GENIUS_GENDTOL_13
1000

1000
h7
1000

1040
0.0
  0
LINE
  5
206F
330
1F
100
AcDbEntity
  8
AM_0
100
AcDbLine
 10
-110.0
 20
7.499999999999976
 30
0.0
 11
-110.0
 21
-7.500000000000003
 31
0.0
  0
LINE
  5
2070
330
1F
100
AcDbEntity
  8
AM_0
100
AcDbLine
 10
-109.4999999999999
 20
7.999999999999976
 30
0.0
 11
-109.4999999999999
 21
-8.000000000000003
 31
0.0
  0
LINE
  5
2071
330
1F
100
AcDbEntity
  8
AM_0
100
AcDbLine
 10
-109.4999999999999
 20
-8.000000000000003
 30
0.0
 11
-110.0
 21
-7.500000000000003
 31
0.0
1001
GENIUS_GENFIL_13
1070
     0
1040
0.5
1040
0.5
1040
20.0
1040
0.0
1002
{
1002
}
1001
GENIUS_GENODEF_13
1002
{
1000
HIER
1070
     0
1002
}
1002
{
1000
MANEDIT
1070
     0
1002
}
1002
{
1000
NOSEL
1070
     0
1002
}
1002
{
1000
BEHIND
1070
     0
1002
}
1002
{
1000
REACTOR
1002
}
1001
GENIUS_GENOBJ-N-CHA_13
1002
{
1000
OWNER
1000
GEN
1002
}
  0
LINE
  5
2072
330
1F
100
AcDbEntity
  8
AM_0
100
AcDbLine
 10
-109.4999999999999
 20
7.999999999999976
 30
0.0
 11
-110.0
 21
7.499999999999976
 31
0.0
1001
GENIUS_GENFIL_13
1070
     0
1040
0.5
1040
0.5
1040
20.0
1040
0.0
1002
{
1002
}
1001
GENIUS_GENODEF_13
1002
{
1000
HIER
1070
     0
1002
}
1002
{
1000
MANEDIT
1070
     0
1002
}
1002
{
1000
NOSEL
1070
     0
1002
}
1002
{
1000
BEHIND
1070
     0
1002
}
1002
{
1000
REACTOR
1002
}
1001
GENIUS_GENOBJ-N-CHA_13
1002
{
1000
OWNER
1000
GEN
1002
}
  0
LINE
  5
2073
330
1F
100
AcDbEntity
  8
AM_0
100
AcDbLine
 10
-109.4999999999999
 20
7.999999999999976
 30
0.0
 11
-109.4999999999999
 21
7.999999999999976
 31
0.0
  0
LINE
  5
20A4
330
1F
100
AcDbEntity
  8
AM_0
100
AcDbLine
 10
-30.36602540377778
 20
-8.000000000000019
 30
0.0
 11
-30.36602540377774
 21
7.99999999999996
 31
0.0
  0
LINE
  5
20A5
330
1F
100
AcDbEntity
  8
AM_0
100
AcDbLine
 10
-28.49999999999333
 20
7.499999999999971
 30
0.0
 11
-28.49999999999338
 21
-7.500000000000006
 31
0.0
  0
LINE
  5
20B6
330
1F
100
AcDbEntity
  8
AM_0
100
AcDbLine
 10
-28.49999999999337
 20
-7.500000000000007
 30
0.0
 11
-30.3660254037778
 21
-8.000000000000003
 31
0.0
  0
LINE
  5
20B9
330
1F
100
AcDbEntity
  8
AM_0
100
AcDbLine
 10
-30.3660254037778
 20
7.999999999999976
 30
0.0
 11
-28.49999999999333
 21
7.499999999999971
 31
0.0
  0
LINE
  5
2181
330
1F
100
AcDbEntity
  8
AM_0
100
AcDbLine
 10
-0.1560218978098786
 20
-0.1524857136463483
 30
0.0
 11
-0.0000000000000004
 21
-1.394920699897574
 31
0.0
  0
LINE
  5
2182
330
1F
100
AcDbEntity
  8
AM_0
100
AcDbLine
 10
-0.0000000000000004
 20
-0.1587034962952944
 30
0.0
 11
-0.1276840765536752
 21
-0.3781457078972666
 31
0.0
  0
LINE
  5
2183
330
1F
100
AcDbEntity
  8
AM_0
100
AcDbLine
 10
-0.1560218978098786
 20
-0.1524857136463483
 30
0.0
 11
-0.7801094890512759
 21
3.252405731245318
 31
0.0
  0
LINE
  5
2184
330
1F
100
AcDbEntity
  8
AM_0
100
AcDbLine
 10
-0.0000000000000004
 20
-3.829071884336888
 30
0.0
 11
-0.1560218978098786
 21
-2.286121352049866
 31
0.0
  0
LINE
  5
2185
330
1F
100
AcDbEntity
  8
AM_0
100
AcDbLine
 10
-0.3120437956202271
 20
-3.526499670991205
 30
0.0
 11
-0.0000000000000004
 21
-3.829071884336888
 31
0.0
  0
LINE
  5
2186
330
1F
100
AcDbEntity
  8
AM_0
100
AcDbLine
 10
-0.1560218978098786
 20
-4.735793393881584
 30
0.0
 11
-0.7801094890512759
 21
-6.300944309441382
 31
0.0
  0
LINE
  5
2187
330
1F
100
AcDbEntity
  8
AM_0
100
AcDbLine
 10
-0.0000000000000004
 20
-3.829071884336888
 30
0.0
 11
-0.1560218978098786
 21
-4.735793393881584
 31
0.0
  0
LINE
  5
2188
330
1F
100
AcDbEntity
  8
AM_0
100
AcDbLine
 10
-0.0000000000000004
 20
-3.829071884336888
 30
0.0
 11
-1.161301776116582
 21
-5.46442033022476
 31
0.0
  0
LINE
  5
2189
330
1F
100
AcDbEntity
  8
AM_0
100
AcDbLine
 10
-0.1560218978098786
 20
-2.286121352049866
 30
0.0
 11
-0.1560218978098786
 21
-0.1524857136463483
 31
0.0
  0
LINE
  5
218A
330
1F
100
AcDbEntity
  8
AM_0
100
AcDbLine
 10
-0.0000000000000004
 20
-1.394920699897574
 30
0.0
 11
-0.0000000000000004
 21
-3.829071884336888
 31
0.0
  0
LINE
  5
218B
330
1F
100
AcDbEntity
  8
AM_0
100
AcDbLine
 10
-0.4935150738700126
 20
-3.230514416615681
 30
0.0
 11
-2.774055726519619
 21
-2.806306828313159
 31
0.0
  0
LINE
  5
218C
330
1F
100
AcDbEntity
  8
AM_11
100
AcDbLine
 10
0.000000000006621
 20
-7.500000000000005
 30
0.0
 11
-0.000000000020435
 21
7.49999999999997
 31
0.0
  0
LINE
  5
218D
330
1F
100
AcDbEntity
  8
AM_0
100
AcDbLine
 10
-0.0000000000000004
 20
-0.1587034962952944
 30
0.0
 11
-0.0000000000000004
 21
7.499999999999971
 31
0.0
  0
LINE
  5
218E
330
1F
100
AcDbEntity
  8
AM_0
100
AcDbLine
 10
-3.606172514840698
 20
4.174628298564385
 30
0.0
 11
-2.937241758379292
 21
3.024981071059444
 31
0.0
  0
LINE
  5
218F
330
1F
100
AcDbEntity
  8
AM_0
100
AcDbLine
 10
-22.88321167883695
 20
4.068054437212069
 30
0.0
 11
-22.88321167883357
 21
5.24095501110309
 31
0.0
  0
LINE
  5
2190
330
1F
100
AcDbEntity
  8
AM_0
100
AcDbLine
 10
-25.87367149994974
 20
7.499999999999971
 30
0.0
 11
-28.49999999999333
 21
7.499999999999971
 31
0.0
  0
LINE
  5
2191
330
1F
100
AcDbEntity
  8
AM_11
100
AcDbLine
 10
-26.00000365796302
 20
-7.500000000000006
 30
0.0
 11
-26.00000365796303
 21
7.499999999999971
 31
0.0
  0
POLYLINE
  5
2192
330
1F
100
AcDbEntity
  8
AM_0
100
AcDb2dPolyline
 66
     1
 10
0.0
 20
0.0
 30
0.0
 70
     2
  0
VERTEX
  5
2193
330
2192
100
AcDbEntity
  8
AM_0
100
AcDbVertex
100
AcDb2dVertex
 10
-22.88321167883081
 20
4.068054437208319
 30
0.0
 42
0.0163510200184555
  0
VERTEX
  5
2194
330
2192
100
AcDbEntity
  8
AM_0
100
AcDbVertex
100
AcDb2dVertex
 10
-24.11430914344328
 20
4.744004158273527
 30
0.0
 42
0.0236329905934865
 70
     1
  0
VERTEX
  5
2195
330
2192
100
AcDbEntity
  8
AM_0
100
AcDbVertex
100
AcDb2dVertex
 10
-24.98950729927199
 20
5.112180072978134
 30
0.0
 42
0.0136924015569504
  0
VERTEX
  5
2196
330
2192
100
AcDbEntity
  8
AM_0
100
AcDbVertex
100
AcDb2dVertex
 10
-27.118544402188
 20
5.764004397052518
 30
0.0
 42
0.0437471596433213
 70
     1
  0
VERTEX
  5
2197
330
2192
100
AcDbEntity
  8
AM_0
100
AcDbVertex
100
AcDb2dVertex
 10
-27.79790145985384
 20
5.856737053258413
 30
0.0
 42
0.0737828887826182
  0
VERTEX
  5
2198
330
2192
100
AcDbEntity
  8
AM_0
100
AcDbVertex
100
AcDb2dVertex
 10
-28.39719077526751
 20
5.734625322783941
 30
0.0
 42
0.3022986902902931
 70
     1
  0
VERTEX
  5
2199
330
2192
100
AcDbEntity
  8
AM_0
100
AcDbVertex
100
AcDb2dVertex
 10
-28.49999999999999
 20
5.557168397771562
 30
0.0
 42
0.1640404297379002
  0
VERTEX
  5
219A
330
2192
100
AcDbEntity
  8
AM_0
100
AcDbVertex
100
AcDb2dVertex
 10
-28.45016519654051
 20
5.230124797723505
 30
0.0
 42
0.0324399100382136
 70
     1
  0
VERTEX
  5
219B
330
2192
100
AcDbEntity
  8
AM_0
100
AcDbVertex
100
AcDb2dVertex
 10
-27.79790145985384
 20
3.873771690289232
 30
0.0
 42
0.0076492520245086
  0
VERTEX
  5
219C
330
2192
100
AcDbEntity
  8
AM_0
100
AcDbVertex
100
AcDb2dVertex
 10
-26.9551986831227
 20
2.390799108971777
 30
0.0
 42
0.0033664759505265
 70
     1
  0
VERTEX
  5
219D
330
2192
100
AcDbEntity
  8
AM_0
100
AcDbVertex
100
AcDb2dVertex
 10
-24.98950729926925
 20
-0.9169835374117868
 30
0.0
 42
0.0145714002245221
  0
VERTEX
  5
219E
330
2192
100
AcDbEntity
  8
AM_0
100
AcDbVertex
100
AcDb2dVertex
 10
-24.30841689279115
 20
-1.983192607997379
 30
0.0
 42
0.007325916991168
 70
     1
  0
VERTEX
  5
219F
330
2192
100
AcDbEntity
  8
AM_0
100
AcDbVertex
100
AcDb2dVertex
 10
-22.89085876495609
 20
-4.016022406752325
 30
0.0
  0
SEQEND
  5
21A0
330
2192
100
AcDbEntity
  8
AM_0
  0
LINE
  5
21A1
330
1F
100
AcDbEntity
  8
AM_11
100
AcDbLine
 10
-26.00000365796302
 20
-7.500000000000006
 30
0.0
 11
0.000000000006621
 21
-7.500000000000005
 31
0.0
  0
LINE
  5
21A2
330
1F
100
AcDbEntity
  8
AM_11
100
AcDbLine
 10
-0.000000000020435
 20
7.49999999999997
 30
0.0
 11
-26.00000365796303
 21
7.499999999999971
 31
0.0
  0
LINE
  5
21A3
330
1F
100
AcDbEntity
  8
AM_0
100
AcDbLine
 10
-22.84888686235773
 20
-7.500000000000005
 30
0.0
 11
-28.49999999999338
 21
-7.500000000000006
 31
0.0
  0
DIMENSION
  5
21A4
330
1F
100
AcDbEntity
  8
AM_5
100
AcDbDimension
  2
*D7
 10
17.54545554545453
 20
7.499999999999967
 30
0.0
 11
17.54545554545453
 21
-0.5723401049102616
 31
0.0
 70
   160
  1
%%c<>
  3
AM_JIS
100
AcDbAlignedDimension
 13
0.0000000000066214
 23
-7.500000000000005
 33
0.0
 14
0.0000000000066214
 24
7.499999999999971
 34
0.0
 50
89.99999999631015
100
AcDbRotatedDimension
1001
GENIUS_GENDTOL_13
1000

1000
h7
1000

1040
0.0
  0
ELLIPSE
  5
21B3
330
1F
100
AcDbEntity
  8
AM_0
100
AcDbEllipse
 10
-0.1253371322760136
 20
-5.08154733927884
 30
0.0
 11
0.0000000000000114
 21
1.542251044185422
 31
0.0
210
0.0
220
0.0
230
1.0
 40
0.6934306569344733
 41
1.82167574773926
 42
2.482683360922193
  0
ELLIPSE
  5
21B4
330
1F
100
AcDbEntity
  8
AM_0
100
AcDbEllipse
 10
8.28277311765642
 20
2.53380791083535
 30
0.0
 11
0.0000000000000322
 21
13.08937086464046
 31
0.0
210
0.0
220
0.0
230
1.0
 40
0.6934306569344714
 41
1.515869372210667
 42
1.947903343241003
  0
SPLINE
  5
21B5
330
1F
100
AcDbEntity
  8
AM_0
100
AcDbSpline
210
0.0
220
0.0
230
1.0
 70
     8
 71
     3
 72
     8
 73
     4
 74
     0
 42
0.0000000001
 43
0.0000000001
 40
0.0
 40
0.0
 40
0.0
 40
0.0
 40
8.272127900364923
 40
8.272127900364923
 40
8.272127900364923
 40
8.272127900364923
 10
-18.2788321174826
 20
7.499999999999971
 30
0.0
 10
-15.41075857538461
 20
7.499999999999971
 30
0.0
 10
-13.41751432453516
 20
3.750000000000015
 30
0.0
 10
-11.42427007368572
 20
-0.0000000000000059
 30
0.0
  0
SPLINE
  5
21B6
330
1F
100
AcDbEntity
  8
AM_0
100
AcDbSpline
210
0.0
220
0.0
230
1.0
 70
     8
 71
     3
 72
     8
 73
     4
 74
     0
 42
0.0000000001
 43
0.0000000001
 40
0.5179125576517913
 40
0.5179125576517913
 40
0.5179125576517913
 40
0.5179125576517913
 40
8.138271981564475
 40
8.138271981564475
 40
8.138271981564475
 40
8.138271981564475
 10
-16.73425544120513
 20
7.120340187167158
 30
0.0
 10
-14.18507063899561
 20
6.707088549375358
 30
0.0
 10
-12.29694651375379
 20
3.353544274687664
 30
0.0
 10
-10.40882238851196
 20
0.0000000000001646
 30
0.0
  0
SPLINE
  5
21B7
330
1F
100
AcDbEntity
  8
AM_0
100
AcDbSpline
210
0.0
220
0.0
230
1.0
 70
     8
 71
     3
 72
     8
 73
     4
 74
     0
 42
0.0000000001
 43
0.0000000001
 40
0.2299567350972117
 40
0.2299567350972117
 40
0.2299567350972117
 40
0.2299567350972117
 40
7.769701155129346
 40
7.769701155129346
 40
7.769701155129346
 40
7.769701155129346
 10
-14.21057642483286
 20
6.165731208497646
 30
0.0
 10
-11.63115193069698
 20
5.991040726333638
 30
0.0
 10
-9.612379254934825
 20
2.995520363166719
 30
0.0
 10
-7.593606579173143
 20
-0.0000000000000059
 30
0.0
  0
SPLINE
  5
21B8
330
1F
100
AcDbEntity
  8
AM_0
100
AcDbSpline
210
0.0
220
0.0
230
1.0
 70
     8
 71
     3
 72
     8
 73
     4
 74
     0
 42
0.0000000001
 43
0.0000000001
 40
0.6397612841816997
 40
0.6397612841816997
 40
0.6397612841816997
 40
0.6397612841816997
 40
7.939880490758838
 40
7.939880490758838
 40
7.939880490758838
 40
7.939880490758838
 10
-15.33789122063114
 20
6.580129843539992
 30
0.0
 10
-12.90665558297669
 20
6.107815740882102
 30
0.0
 10
-11.02106168051551
 20
3.053907870441123
 30
0.0
 10
-9.135467778054326
 20
0.0000000000001646
 30
0.0
  0
SPLINE
  5
21B9
330
1F
100
AcDbEntity
  8
AM_0
100
AcDbSpline
210
0.0
220
0.0
230
1.0
 70
     8
 71
     3
 72
     8
 73
     4
 74
     0
 42
0.0000000001
 43
0.0000000001
 40
0.0
 40
0.0
 40
0.0
 40
0.0
 40
3.655156164497277
 40
3.655156164497277
 40
3.655156164497277
 40
3.655156164497277
 10
-9.139416058737996
 20
7.499999999999971
 30
0.0
 10
-10.40671472891105
 20
7.500000000001165
 30
0.0
 10
-11.5032083487297
 20
6.767835513472194
 30
0.0
 10
-12.50436953421878
 20
5.627023725906186
 30
0.0
  0
SPLINE
  5
21BA
330
1F
100
AcDbEntity
  8
AM_0
100
AcDbSpline
210
0.0
220
0.0
230
1.0
 70
     8
 71
     3
 72
     8
 73
     4
 74
     0
 42
0.0000000001
 43
0.0000000001
 40
0.0
 40
0.0
 40
0.0
 40
0.0
 40
8.272127900365292
 40
8.272127900365292
 40
8.272127900365292
 40
8.272127900365292
 10
-4.569708029888356
 20
-7.500000000000175
 30
0.0
 10
-7.437781571986476
 20
-7.500000000000175
 30
0.0
 10
-9.431025822836096
 20
-3.750000000000176
 30
0.0
 10
-11.42427007368572
 20
-0.0000000000001765
 30
0.0
  0
SPLINE
  5
21BB
330
1F
100
AcDbEntity
  8
AM_0
100
AcDbSpline
210
0.0
220
0.0
230
1.0
 70
     8
 71
     3
 72
     8
 73
     4
 74
     0
 42
0.0000000001
 43
0.0000000001
 40
0.0
 40
0.0
 40
0.0
 40
0.0
 40
1.981387939834528
 40
1.981387939834528
 40
1.981387939834528
 40
1.981387939834528
 10
-12.69367640345969
 20
-7.162931271715313
 30
0.0
 10
-12.00669883307901
 20
-7.162931271715143
 30
0.0
 10
-11.36745068598038
 20
-6.950638396448658
 30
0.0
 10
-10.76431149729303
 20
-6.577738623445048
 30
0.0
  0
SPLINE
  5
21BC
330
1F
100
AcDbEntity
  8
AM_0
100
AcDbSpline
210
0.0
220
0.0
230
1.0
 70
     8
 71
     3
 72
     8
 73
     4
 74
     0
 42
0.0000000001
 43
0.0000000001
 40
0.0
 40
0.0
 40
0.0
 40
0.0
 40
1.797818050668038
 40
1.797818050668038
 40
1.797818050668038
 40
1.797818050668038
 10
-11.42032179300205
 20
-6.643087005824105
 30
0.0
 10
-10.7969916328779
 20
-6.641546084403051
 30
0.0
 10
-10.20985727234479
 20
-6.469798768206663
 30
0.0
 10
-9.650722937934135
 20
-6.166384696367748
 30
0.0
  0
SPLINE
  5
21BD
330
1F
100
AcDbEntity
  8
AM_0
100
AcDbSpline
210
0.0
220
0.0
230
1.0
 70
     8
 71
     3
 72
     8
 73
     4
 74
     0
 42
0.0000000001
 43
0.0000000001
 40
0.0
 40
0.0
 40
0.0
 40
0.0
 40
7.769701155129467
 40
7.769701155129467
 40
7.769701155129467
 40
7.769701155129467
 10
-9.87846059412087
 20
-6.173763122281519
 30
0.0
 10
-12.57233508221382
 20
-6.173763122281519
 30
0.0
 10
-14.65267886006603
 20
-3.086881561140847
 30
0.0
 10
-16.73302263791823
 20
-0.0000000000001765
 30
0.0
  0
SPLINE
  5
21BE
330
1F
100
AcDbEntity
  8
AM_0
100
AcDbSpline
210
0.0
220
0.0
230
1.0
 70
     8
 71
     3
 72
     8
 73
     4
 74
     0
 42
0.0000000001
 43
0.0000000001
 40
0.0
 40
0.0
 40
0.0
 40
0.0
 40
7.939880490758586
 40
7.939880490758586
 40
7.939880490758586
 40
7.939880490758586
 10
-11.42032179300205
 20
-6.643087005824275
 30
0.0
 10
-14.173200065346
 20
-6.643087005824275
 30
0.0
 10
-16.22404195107247
 20
-3.321543502912226
 30
0.0
 10
-18.27488383679894
 20
-0.0000000000001765
 30
0.0
  0
SPLINE
  5
21BF
330
1F
100
AcDbEntity
  8
AM_0
100
AcDbSpline
210
0.0
220
0.0
230
1.0
 70
     8
 71
     3
 72
     8
 73
     4
 74
     0
 42
0.0000000001
 43
0.0000000001
 40
0.0
 40
0.0
 40
0.0
 40
0.0
 40
8.138271981564608
 40
8.138271981564608
 40
8.138271981564608
 40
8.138271981564608
 10
-12.69367640345969
 20
-7.162931271715313
 30
0.0
 10
-15.51534004670354
 20
-7.162931271715313
 30
0.0
 10
-17.5317892469803
 20
-3.581465635857744
 30
0.0
 10
-19.54823844725705
 20
-0.0000000000001765
 30
0.0
  0
SPLINE
  5
21C0
330
1F
100
AcDbEntity
  8
AM_0
100
AcDbSpline
210
0.0
220
0.0
230
1.0
 70
     8
 71
     3
 72
     8
 73
     4
 74
     0
 42
0.0000000001
 43
0.0000000001
 40
0.0
 40
0.0
 40
0.0
 40
0.0
 40
1.570112951298052
 40
1.570112951298052
 40
1.570112951298052
 40
1.570112951298052
 10
-13.70912408863344
 20
-7.500000000000175
 30
0.0
 10
-13.16474186099329
 20
-7.500000000000175
 30
0.0
 10
-12.65187705096859
 20
-7.364898995451147
 30
0.0
 10
-12.16454741237204
 20
-7.120340187175377
 30
0.0
  0
SPLINE
  5
21C1
330
1F
100
AcDbEntity
  8
AM_0
100
AcDbSpline
210
0.0
220
0.0
230
1.0
 70
     8
 71
     3
 72
     8
 73
     4
 74
     0
 42
0.0000000001
 43
0.0000000001
 40
0.1383879590723462
 40
0.1383879590723462
 40
0.1383879590723462
 40
0.1383879590723462
 40
7.769701155129346
 40
7.769701155129346
 40
7.769701155129346
 40
7.769701155129346
 10
-0.8824077726509505
 20
-6.170842717333078
 30
0.0
 10
-3.507025999744681
 20
-6.063800787665178
 30
0.0
 10
-5.550316289458673
 20
-3.031900393832591
 30
0.0
 10
-7.593606579173143
 20
-0.0000000000001765
 30
0.0
  0
SPLINE
  5
21C2
330
1F
100
AcDbEntity
  8
AM_0
100
AcDbSpline
210
0.0
220
0.0
230
1.0
 70
     8
 71
     3
 72
     8
 73
     4
 74
     0
 42
0.0000000001
 43
0.0000000001
 40
0.0
 40
0.0
 40
0.0
 40
0.0
 40
7.939880490758586
 40
7.939880490758586
 40
7.939880490758586
 40
7.939880490758586
 10
-2.280905734256965
 20
-6.643087005824275
 30
0.0
 10
-5.03378400660091
 20
-6.643087005824275
 30
0.0
 10
-7.084625892327383
 20
-3.321543502912226
 30
0.0
 10
-9.135467778053856
 20
-0.0000000000001765
 30
0.0
  0
SPLINE
  5
21C3
330
1F
100
AcDbEntity
  8
AM_0
100
AcDbSpline
210
0.0
220
0.0
230
1.0
 70
     8
 71
     3
 72
     8
 73
     4
 74
     0
 42
0.0000000001
 43
0.0000000001
 40
0.0
 40
0.0
 40
0.0
 40
0.0
 40
8.138271981564608
 40
8.138271981564608
 40
8.138271981564608
 40
8.138271981564608
 10
-3.554260344714601
 20
-7.162931271715313
 30
0.0
 10
-6.375923987958461
 20
-7.162931271715313
 30
0.0
 10
-8.392373188235215
 20
-3.581465635857744
 30
0.0
 10
-10.40882238851196
 20
-0.0000000000001765
 30
0.0
  0
SPLINE
  5
21C4
330
1F
100
AcDbEntity
  8
AM_0
100
AcDbSpline
210
0.0
220
0.0
230
1.0
 70
     8
 71
     3
 72
    10
 73
     6
 74
     0
 42
0.0000000001
 43
0.0000000001
 40
0.0
 40
0.0
 40
0.0
 40
0.0
 40
1.624816058741878
 40
2.635428435777873
 40
3.678161543961334
 40
3.678161543961334
 40
3.678161543961334
 40
3.678161543961334
 10
-1.161301776116582
 20
-5.464420330224418
 30
0.0
 10
-1.70631484889208
 20
-5.258838458350252
 30
0.0
 10
-2.437957661244431
 20
-4.967121683834667
 30
0.0
 10
-4.067065776054151
 20
-3.960233320258224
 30
0.0
 10
-3.132616808180462
 20
-2.7396102177819
 30
0.0
 10
-2.774055726519619
 20
-2.806306828313159
 30
0.0
  0
SPLINE
  5
21C5
330
1F
100
AcDbEntity
  8
AM_0
100
AcDbSpline
210
0.0
220
0.0
230
1.0
 70
     8
 71
     3
 72
     8
 73
     4
 74
     0
 42
0.0000000001
 43
0.0000000001
 40
0.0
 40
0.0
 40
0.0
 40
0.0
 40
1.973247866266529
 40
1.973247866266529
 40
1.973247866266529
 40
1.973247866266529
 10
-9.87846059412087
 20
-6.173763122281519
 30
0.0
 10
-9.194305312021072
 20
-6.173763122281519
 30
0.0
 10
-8.549722299601478
 20
-5.974661581691867
 30
0.0
 10
-7.934661505366779
 20
-5.627023725904853
 30
0.0
  0
SPLINE
  5
21C6
330
1F
100
AcDbEntity
  8
AM_0
100
AcDbSpline
210
0.0
220
0.0
230
1.0
 70
     8
 71
     3
 72
     8
 73
     4
 74
     0
 42
0.0000000001
 43
0.0000000001
 40
0.0
 40
0.0
 40
0.0
 40
0.0
 40
1.570112951298052
 40
1.570112951298052
 40
1.570112951298052
 40
1.570112951298052
 10
-4.569708029888356
 20
-7.500000000000175
 30
0.0
 10
-4.025325802248202
 20
-7.500000000000175
 30
0.0
 10
-3.512460992223509
 20
-7.364898995451147
 30
0.0
 10
-3.025131353626956
 20
-7.120340187175377
 30
0.0
  0
SPLINE
  5
21C7
330
1F
100
AcDbEntity
  8
AM_0
100
AcDbSpline
210
0.0
220
0.0
230
1.0
 70
     8
 71
     3
 72
     8
 73
     4
 74
     0
 42
0.0000000001
 43
0.0000000001
 40
0.0
 40
0.0
 40
0.0
 40
0.0
 40
1.981387939834528
 40
1.981387939834528
 40
1.981387939834528
 40
1.981387939834528
 10
-3.554260344714601
 20
-7.162931271715313
 30
0.0
 10
-2.867282774333918
 20
-7.162931271715143
 30
0.0
 10
-2.228034627235293
 20
-6.950638396448658
 30
0.0
 10
-1.624895438547943
 20
-6.577738623445048
 30
0.0
  0
SPLINE
  5
21C8
330
1F
100
AcDbEntity
  8
AM_0
100
AcDbSpline
210
0.0
220
0.0
230
1.0
 70
     8
 71
     3
 72
     8
 73
     4
 74
     0
 42
0.0000000001
 43
0.0000000001
 40
0.0
 40
0.0
 40
0.0
 40
0.0
 40
1.512029330426235
 40
1.512029330426235
 40
1.512029330426235
 40
1.512029330426235
 10
-2.280905734256965
 20
-6.643087005824105
 30
0.0
 10
-1.756662758558499
 20
-6.641791035754243
 30
0.0
 10
-1.258022563379618
 20
-6.520101069205741
 30
0.0
 10
-0.7801094890512759
 20
-6.300944309439676
 30
0.0
  0
SPLINE
  5
21C9
330
1F
100
AcDbEntity
  8
AM_0
100
AcDbSpline
210
0.0
220
0.0
230
1.0
 70
     8
 71
     3
 72
     8
 73
     4
 74
     0
 42
0.0000000001
 43
0.0000000001
 40
0.0
 40
0.0
 40
0.0
 40
0.0
 40
0.0092824582075338
 40
0.0092824582075338
 40
0.0092824582075338
 40
0.0092824582075338
 10
-0.7390445353762506
 20
-6.173763122281519
 30
0.0
 10
-0.7358261648295369
 20
-6.173763122281519
 30
0.0
 10
-0.7326086699799877
 20
-6.173758716353864
 30
0.0
 10
-0.7293920497803701
 20
-6.173749909762653
 30
0.0
  0
SPLINE
  5
21CA
330
1F
100
AcDbEntity
  8
AM_0
100
AcDbSpline
210
0.0
220
0.0
230
1.0
 70
     8
 71
     3
 72
     8
 73
     4
 74
     0
 42
0.0000000001
 43
0.0000000001
 40
0.6397612841816997
 40
0.6397612841816997
 40
0.6397612841816997
 40
0.6397612841816997
 40
6.972227720174165
 40
6.972227720174165
 40
6.972227720174165
 40
6.972227720174165
 10
-6.198475161886526
 20
6.580129843539992
 30
0.0
 10
-4.089507124821318
 20
6.170422396621605
 30
0.0
 10
-2.39111500388501
 20
3.818157850575546
 30
0.0
 10
-0.7471459562623963
 20
1.20840151490318
 30
0.0
  0
SPLINE
  5
21CB
330
1F
100
AcDbEntity
  8
AM_0
100
AcDbSpline
210
0.0
220
0.0
230
1.0
 70
     8
 71
     3
 72
     8
 73
     4
 74
     0
 42
0.0000000001
 43
0.0000000001
 40
0.5179125576517913
 40
0.5179125576517913
 40
0.5179125576517913
 40
0.5179125576517913
 40
8.138271981564475
 40
8.138271981564475
 40
8.138271981564475
 40
8.138271981564475
 10
-7.594839382460514
 20
7.120340187167158
 30
0.0
 10
-5.045654580250521
 20
6.707088549375358
 30
0.0
 10
-3.157530455008698
 20
3.353544274687664
 30
0.0
 10
-1.269406329767348
 20
0.0000000000001646
 30
0.0
  0
SPLINE
  5
21CC
330
1F
100
AcDbEntity
  8
AM_0
100
AcDbSpline
210
0.0
220
0.0
230
1.0
 70
     8
 71
     3
 72
     8
 73
     4
 74
     0
 42
0.0000000001
 43
0.0000000001
 40
0.0
 40
0.0
 40
0.0
 40
0.0
 40
8.272127900365285
 40
8.272127900365285
 40
8.272127900365285
 40
8.272127900365285
 10
-9.139416058737996
 20
7.499999999999971
 30
0.0
 10
-6.271342516639872
 20
7.499999999999971
 30
0.0
 10
-4.278098265790252
 20
3.749999999999972
 30
0.0
 10
-2.284854014940629
 20
-0.0000000000000059
 30
0.0
  0
SPLINE
  5
21CD
330
1F
100
AcDbEntity
  8
AM_0
100
AcDbSpline
210
0.0
220
0.0
230
1.0
 70
     8
 71
     3
 72
     8
 73
     4
 74
     0
 42
0.0000000001
 43
0.0000000001
 40
0.0
 40
0.0
 40
0.0
 40
0.0
 40
3.655156164497277
 40
3.655156164497277
 40
3.655156164497277
 40
3.655156164497277
 10
0.000000000006621
 20
7.499999999999971
 30
0.0
 10
-1.267298670165967
 20
7.500000000001165
 30
0.0
 10
-2.363792289985087
 20
6.767835513472194
 30
0.0
 10
-3.364953475474167
 20
5.627023725906186
 30
0.0
  0
SPLINE
  5
21CE
330
1F
100
AcDbEntity
  8
AM_0
100
AcDbSpline
210
0.0
220
0.0
230
1.0
 70
     8
 71
     3
 72
     8
 73
     4
 74
     0
 42
0.0000000001
 43
0.0000000001
 40
0.2299567350972117
 40
0.2299567350972117
 40
0.2299567350972117
 40
0.2299567350972117
 40
4.912075065647881
 40
4.912075065647881
 40
4.912075065647881
 40
4.912075065647881
 10
-5.071160366087778
 20
6.165731208497646
 30
0.0
 10
-3.469359292542657
 20
6.05724987767954
 30
0.0
 10
-2.083762732812282
 20
4.860970143308264
 30
0.0
 10
-0.7801094890512759
 20
3.252405731245318
 30
0.0
  0
SPLINE
  5
21CF
330
1F
100
AcDbEntity
  8
AM_0
100
AcDbSpline
210
0.0
220
0.0
230
1.0
 70
     8
 71
     3
 72
     8
 73
     4
 74
     0
 42
0.0000000001
 43
0.0000000001
 40
0.0
 40
0.0
 40
0.0
 40
0.0
 40
3.860109074512531
 40
3.860109074512531
 40
3.860109074512531
 40
3.860109074512531
 10
-0.3120437956197534
 20
7.485055909456974
 30
0.0
 10
-0.052292193249111
 20
5.591700823024696
 30
0.0
 10
-2.267813529153626
 20
4.174628298564385
 30
0.0
 10
-3.606172514842588
 20
4.174628298564385
 30
0.0
  0
SPLINE
  5
21D0
330
1F
100
AcDbEntity
  8
AM_0
100
AcDbSpline
210
0.0
220
0.0
230
1.0
 70
     8
 71
     3
 72
     8
 73
     4
 74
     0
 42
0.0000000001
 43
0.0000000001
 40
6.850968446318445
 40
6.850968446318445
 40
6.850968446318445
 40
6.850968446318445
 40
8.138271981564475
 40
8.138271981564475
 40
8.138271981564475
 40
8.138271981564475
 10
-0.3093398934898082
 20
-1.685363231534842
 30
0.0
 10
-0.6314865870897833
 20
-1.133025139697059
 30
0.0
 10
-0.9504464584285658
 20
-0.5665125698486181
 30
0.0
 10
-1.269406329767348
 20
-0.0000000000001765
 30
0.0
  0
SPLINE
  5
21D1
330
1F
100
AcDbEntity
  8
AM_0
100
AcDbSpline
210
0.0
220
0.0
230
1.0
 70
     8
 71
     3
 72
     8
 73
     4
 74
     0
 42
0.0000000001
 43
0.0000000001
 40
5.58452476840911
 40
5.58452476840911
 40
5.58452476840911
 40
5.58452476840911
 40
8.27212790036518
 40
8.27212790036518
 40
8.27212790036518
 40
8.27212790036518
 10
-0.3120437956197534
 20
-3.526499670990522
 30
0.0
 10
-0.9896493092449498
 20
-2.436739824680449
 30
0.0
 10
-1.63725166209279
 20
-1.218369912340398
 30
0.0
 10
-2.284854014940629
 20
-0.0000000000001765
 30
0.0
  0
SPLINE
  5
21D2
330
1F
100
AcDbEntity
  8
AM_0
100
AcDbSpline
210
0.0
220
0.0
230
1.0
 70
     8
 71
     3
 72
     8
 73
     4
 74
     0
 42
0.0000000001
 43
0.0000000001
 40
0.0
 40
0.0
 40
0.0
 40
0.0
 40
3.655156164497277
 40
3.655156164497277
 40
3.655156164497277
 40
3.655156164497277
 10
-18.2788321174826
 20
7.499999999999971
 30
0.0
 10
-19.54613078765567
 20
7.500000000001165
 30
0.0
 10
-20.64262440747432
 20
6.767835513472194
 30
0.0
 10
-21.6437855929634
 20
5.627023725906186
 30
0.0
  0
SPLINE
  5
21D3
330
1F
100
AcDbEntity
  8
AM_0
100
AcDbSpline
210
0.0
220
0.0
230
1.0
 70
     8
 71
     3
 72
     8
 73
     4
 74
     0
 42
0.0000000001
 43
0.0000000001
 40
0.0
 40
0.0
 40
0.0
 40
0.0
 40
8.27212790036493
 40
8.27212790036493
 40
8.27212790036493
 40
8.27212790036493
 10
-13.70912408863344
 20
-7.500000000000175
 30
0.0
 10
-16.57719763073144
 20
-7.500000000000175
 30
0.0
 10
-18.57044188158089
 20
-3.750000000000154
 30
0.0
 10
-20.56368613243034
 20
-0.0000000000001765
 30
0.0
  0
SPLINE
  5
21D4
330
1F
100
AcDbEntity
  8
AM_0
100
AcDbSpline
210
0.0
220
0.0
230
1.0
 70
     8
 71
     3
 72
     8
 73
     4
 74
     0
 42
0.0000000001
 43
0.0000000001
 40
0.0
 40
0.0
 40
0.0
 40
0.0
 40
1.570112951298052
 40
1.570112951298052
 40
1.570112951298052
 40
1.570112951298052
 10
-22.84923357733786
 20
-7.500000000000175
 30
0.0
 10
-22.30485134969771
 20
-7.500000000000175
 30
0.0
 10
-21.791986539673
 20
-7.364898995451147
 30
0.0
 10
-21.30465690107646
 20
-7.120340187175377
 30
0.0
  0
SPLINE
  5
21D5
330
1F
100
AcDbEntity
  8
AM_0
100
AcDbSpline
210
0.0
220
0.0
230
1.0
 70
     8
 71
     3
 72
     8
 73
     4
 74
     0
 42
0.0000000001
 43
0.0000000001
 40
0.1383879590723462
 40
0.1383879590723462
 40
0.1383879590723462
 40
0.1383879590723462
 40
4.12619780763684
 40
4.12619780763684
 40
4.12619780763684
 40
4.12619780763684
 10
-19.16193332010045
 20
-6.170842717333078
 30
0.0
 10
-20.53345066525857
 20
-6.11490701526287
 30
0.0
 10
-21.74622612932658
 20
-5.260286948190985
 30
0.0
 10
-22.8832116788308
 20
-4.024342057630432
 30
0.0
  0
SPLINE
  5
21D6
330
1F
100
AcDbEntity
  8
AM_0
100
AcDbSpline
210
0.0
220
0.0
230
1.0
 70
     8
 71
     3
 72
     8
 73
     4
 74
     0
 42
0.0000000001
 43
0.0000000001
 40
0.0
 40
0.0
 40
0.0
 40
0.0
 40
1.973247866266529
 40
1.973247866266529
 40
1.973247866266529
 40
1.973247866266529
 10
-19.01822336784562
 20
-6.173763122281519
 30
0.0
 10
-18.33406808574582
 20
-6.173763122281519
 30
0.0
 10
-17.68948507332623
 20
-5.974661581691867
 30
0.0
 10
-17.07442427909152
 20
-5.627023725904853
 30
0.0
  0
SPLINE
  5
21D7
330
1F
100
AcDbEntity
  8
AM_0
100
AcDbSpline
210
0.0
220
0.0
230
1.0
 70
     8
 71
     3
 72
     8
 73
     4
 74
     0
 42
0.0000000001
 43
0.0000000001
 40
0.0
 40
0.0
 40
0.0
 40
0.0
 40
1.570112951298052
 40
1.570112951298052
 40
1.570112951298052
 40
1.570112951298052
 10
-22.8488868623582
 20
-7.500000000000175
 30
0.0
 10
-22.30450463471805
 20
-7.500000000000175
 30
0.0
 10
-21.79163982469334
 20
-7.364898995451147
 30
0.0
 10
-21.30431018609679
 20
-7.120340187175377
 30
0.0
  0
SPLINE
  5
21D8
330
1F
100
AcDbEntity
  8
AM_0
100
AcDbSpline
210
0.0
220
0.0
230
1.0
 70
     8
 71
     3
 72
     8
 73
     4
 74
     0
 42
0.0000000001
 43
0.0000000001
 40
0.6432030004477055
 40
0.6432030004477055
 40
0.6432030004477055
 40
0.6432030004477055
 40
1.797818050668038
 40
1.797818050668038
 40
1.797818050668038
 40
1.797818050668038
 10
-19.904584231923
 20
-6.577839548199191
 30
0.0
 10
-19.52022178948946
 20
-6.501801323059053
 30
0.0
 10
-19.1495792903253
 20
-6.361246714614614
 30
0.0
 10
-18.79048571165888
 20
-6.166384696367748
 30
0.0
  0
SPLINE
  5
21D9
330
1F
100
AcDbEntity
  8
AM_0
100
AcDbSpline
210
0.0
220
0.0
230
1.0
 70
     8
 71
     3
 72
     8
 73
     4
 74
     0
 42
0.0000000001
 43
0.0000000001
 40
0.5179125576349786
 40
0.5179125576349786
 40
0.5179125576349786
 40
0.5179125576349786
 40
1.981387939834528
 40
1.981387939834528
 40
1.981387939834528
 40
1.981387939834528
 10
-21.30431018609721
 20
-7.120340187169942
 30
0.0
 10
-20.81474414397482
 20
-7.040976004340768
 30
0.0
 10
-20.34955964868566
 20
-6.85316658323377
 30
0.0
 10
-19.90407427101778
 20
-6.577738623445048
 30
0.0
  0
SPLINE
  5
21DA
330
1F
100
AcDbEntity
  8
AM_0
100
AcDbSpline
210
0.0
220
0.0
230
1.0
 70
     8
 71
     3
 72
     8
 73
     4
 74
     0
 42
0.0000000001
 43
0.0000000001
 40
5.129729518825886
 40
5.129729518825886
 40
5.129729518825886
 40
5.129729518825886
 40
8.272127900365292
 40
8.272127900365292
 40
8.272127900365292
 40
8.272127900365292
 10
-22.88321167883695
 20
4.068054437212069
 30
0.0
 10
-22.07806491944257
 20
2.849084074305097
 30
0.0
 10
-21.32087552593644
 20
1.424542037152535
 30
0.0
 10
-20.56368613243034
 20
-0.0000000000000059
 30
0.0
  0
SPLINE
  5
21DB
330
1F
100
AcDbEntity
  8
AM_0
100
AcDbSpline
210
0.0
220
0.0
230
1.0
 70
     8
 71
     3
 72
     8
 73
     4
 74
     0
 42
0.0000000001
 43
0.0000000001
 40
0.5179125576517913
 40
0.5179125576517913
 40
0.5179125576517913
 40
0.5179125576517913
 40
8.138271981564475
 40
8.138271981564475
 40
8.138271981564475
 40
8.138271981564475
 10
-25.87367149994974
 20
7.499999999999971
 30
0.0
 10
-23.32448669774022
 20
6.707088549375358
 30
0.0
 10
-21.43636257249887
 20
3.353544274687664
 30
0.0
 10
-19.54823844725705
 20
0.0000000000001646
 30
0.0
  0
SPLINE
  5
21DC
330
1F
100
AcDbEntity
  8
AM_0
100
AcDbSpline
210
0.0
220
0.0
230
1.0
 70
     8
 71
     3
 72
     8
 73
     4
 74
     0
 42
0.0000000001
 43
0.0000000001
 40
0.6397612841816997
 40
0.6397612841816997
 40
0.6397612841816997
 40
0.6397612841816997
 40
7.939880490758838
 40
7.939880490758838
 40
7.939880490758838
 40
7.939880490758838
 10
-24.47730727937575
 20
6.780783895441302
 30
0.0
 10
-22.04607164172178
 20
6.107815740882102
 30
0.0
 10
-20.16047773926012
 20
3.053907870441123
 30
0.0
 10
-18.27488383679941
 20
0.0000000000001646
 30
0.0
  0
SPLINE
  5
21DD
330
1F
100
AcDbEntity
  8
AM_0
100
AcDbSpline
210
0.0
220
0.0
230
1.0
 70
     8
 71
     3
 72
     8
 73
     4
 74
     0
 42
0.0000000001
 43
0.0000000001
 40
0.2299567350972117
 40
0.2299567350972117
 40
0.2299567350972117
 40
0.2299567350972117
 40
7.769701155129346
 40
7.769701155129346
 40
7.769701155129346
 40
7.769701155129346
 10
-23.34999248357795
 20
6.284660164862742
 30
0.0
 10
-20.77056798944159
 20
5.991040726333638
 30
0.0
 10
-18.75179531367944
 20
2.995520363166719
 30
0.0
 10
-16.73302263791823
 20
-0.0000000000000059
 30
0.0
  0
DIMENSION
  5
21DE
330
1F
100
AcDbEntity
  8
AM_5
100
AcDbDimension
  2
*D8
 10
-26.00000365796302
 20
-22.000001
 30
0.0
 11
-13.00000182898151
 21
-18.900001
 31
0.0
 70
    32
  1
<>
  3
AM_JIS
100
AcDbAlignedDimension
 13
-0.0000000000000036
 23
-7.500000000000005
 33
0.0
 14
-26.00000365796302
 24
-7.500000000000005
 34
0.0
 50
0.0000000000001437
100
AcDbRotatedDimension
1001
GENIUS_GENDTOL_13
1000

1000
h7
1000

1040
0.0
  0
LINE
  5
21EB
330
1F
100
AcDbEntity
  8
AM_7
100
AcDbLine
 10
-112.4874024467853
 20
-0.000000000000005
 30
0.0
 11
3.545454545454545
 21
-0.0000000000000138
 31
0.0
1001
GENIUS_GENODEF_13
1002
{
1000
HIER
1070
     0
1002
}
1002
{
1000
MANEDIT
1070
     0
1002
}
1002
{
1000
NOSEL
1070
     0
1002
}
1002
{
1000
BEHIND
1070
     0
1002
}
1002
{
1000
REACTOR
1002
}
1001
GENIUS_GENOBJ-N-CEN_13
1002
{
1000
OWNER
1000
GEN
1002
}
  0
VIEWPORT
  5
110
330
101
100
AcDbEntity
 67
     1
  8
0
100
AcDbViewport
 10
420.5
 20
297.0
 30
0.0
 40
948.9782706766916
 41
628.452
 68
     1
 69
     1
1001
ACAD
1000
MVIEW
1002
{
1070
    16
1010
0.0
1020
0.0
1030
0.0
1010
0.0
1020
0.0
1030
1.0
1040
0.0
1040
628.452
1040
420.5
1040
297.0
1040
50.0
1040
0.0
1040
0.0
1070
     0
1070
   100
1070
     1
1070
     1
1070
     0
1070
     0
1070
     0
1070
     0
1040
0.0
1040
0.0
1040
0.0
1040
10.0
1040
10.0
1040
10.0
1040
10.0
1070
     0
1002
{
1002
}
1002
}
  0
ENDSEC
  0
SECTION
  2
OBJECTS
  0
DICTIONARY
  5
C
330
0
100
AcDbDictionary
  3
ACAD_GROUP
350
D
  3
ACAD_LAYOUT
350
1A
  3
ACAD_MLINESTYLE
350
17
  3
ACAD_PLOTSETTINGS
350
19
  3
ACAD_PLOTSTYLENAME
350
E
  3
ACDBVARIABLEDICTIONARY
350
34
  3
ACMDICTIONARY
350
43
  3
AMG
350
2B
  3
AMGSNAPSETTINGS
350
6E
  3
DWGPROPS
350
23D1
  3
ACDBHEADERROUNDTRIPXREC
350
23DD
  0
DICTIONARY
  5
74
330
1F
100
AcDbDictionary
280
     1
  3
ACAD_INDEX
360
23D3
  3
ACAD_LAYOUTSELFREF
360
2400
  0
DICTIONARY
  5
2405
330
101
100
AcDbDictionary
280
     1
  3
ACAD_LAYOUTSELFREF
360
2406
  0
DICTIONARY
  5
D
102
{ACAD_REACTORS
330
C
102
}
330
C
100
AcDbDictionary
  0
DICTIONARY
  5
1A
102
{ACAD_REACTORS
330
C
102
}
330
C
100
AcDbDictionary
  0
DICTIONARY
  5
17
102
{ACAD_REACTORS
330
C
102
}
330
C
100
AcDbDictionary
  3
STANDARD
350
18
  0
DICTIONARY
  5
19
102
{ACAD_REACTORS
330
C
102
}
330
C
100
AcDbDictionary
  0
ACDBDICTIONARYWDFLT
  5
E
102
{ACAD_REACTORS
330
C
102
}
330
C
100
AcDbDictionary
281
     1
  3
Normal
350
F
100
AcDbDictionaryWithDefault
340
F
  0
DICTIONARY
  5
34
102
{ACAD_REACTORS
330
C
102
}
330
C
100
AcDbDictionary
  3
INDEXCTL
350
35
  3
SORTENTS
350
B5E
  0
DICTIONARY
  5
43
102
{ACAD_REACTORS
330
C
102
}
330
C
100
AcDbDictionary
  3
ACMSTDDICTIONARY
350
260
  0
DICTIONARY
  5
2B
102
{ACAD_REACTORS
330
C
102
}
330
C
100
AcDbDictionary
  3
ACMGSETTINGS
350
2C
  0
DICTIONARY
  5
6E
102
{ACAD_REACTORS
330
C
102
}
330
C
100
AcDbDictionary
  0
XRECORD
  5
23D1
102
{ACAD_REACTORS
330
C
102
}
330
C
100
AcDbXrecord
  1
DWGPROPS COOKIE
  2

  3

  4

  6

  7

  8

  9

300
AmdtFileType=82
301
=
302
=
303
=
304
=
305
=
306
=
307
=
308
=
309
=
 40
0.0784761921296296
 41
2452808.461142939
 42
2452844.407078992
  1

 90
        1
  0
DICTIONARY
  5
23DD
102
{ACAD_REACTORS
330
C
102
}
330
C
100
AcDbDictionary
  3
TSTACKALIGN
350
23DE
  3
TSTACKSIZE
350
23DF
  3
HYPERLINKBASE
350
23E0
  3
STYLESHEET
350
23E1
  3
LAYOUTDICT
350
23E2
  3
PLOTSETDICT
350
23E3
  3
PLOTSTYLNAMDICT
350
23E4
  3
LWETCUNION
350
23E5
  3
INSUNITS
350
23E6
  3
CEPSNTYPE
350
23E7
  3
FINGERPRINTGUID
350
23E8
  3
VERSIONGUID
350
23E9
  3
PSVPSCALE
350
23EA
  3
DIMSTYLEDATA
350
23EB
  3
PUCSORTHOREF
350
23EC
  3
PUCSORTHOVIEW
350
23ED
  3
PUCSBASE
350
23EE
  3
PUCSORGTOP
350
23EF
  3
PUCSORGBOTTOM
350
23F0
  3
PUCSORGLEFT
350
23F1
  3
PUCSORGRIGHT
350
23F2
  3
PUCSORGFRONT
350
23F3
  3
PUCSORGBACK
350
23F4
  3
UCSORTHOREF
350
23F5
  3
UCSORTHOVIEW
350
23F6
  3
UCSBASE
350
23F7
  3
UCSORGTOP
350
23F8
  3
UCSORGBOTTOM
350
23F9
  3
UCSORGLEFT
350
23FA
  3
UCSORGRIGHT
350
23FB
  3
UCSORGFRONT
350
23FC
  3
UCSORGBACK
350
23FD
  0
DICTIONARY
  5
23D3
102
{ACAD_REACTORS
330
74
102
}
330
74
100
AcDbDictionary
  3
*A1
350
23D4
  0
XRECORD
  5
2400
102
{ACAD_REACTORS
330
74
102
}
330
74
100
AcDbXrecord
340
1F
  0
XRECORD
  5
2406
102
{ACAD_REACTORS
330
2405
102
}
330
2405
100
AcDbXrecord
340
101
  0
MLINESTYLE
  5
18
102
{ACAD_REACTORS
330
17
102
}
330
17
100
AcDbMlineStyle
  2
STANDARD
 70
     0
  3

 62
   256
 51
90.0
 52
90.0
 71
     2
 49
0.5
 62
   256
  6
BYLAYER
 49
-0.5
 62
   256
  6
BYLAYER
  0
ACDBPLACEHOLDER
  5
F
102
{ACAD_REACTORS
330
E
102
}
330
E
100
AcDbPlaceHolder
280
     0
  0
DICTIONARYVAR
  5
35
102
{ACAD_REACTORS
330
34
102
}
330
34
100
DictionaryVariables
280
     0
  1
1
  0
DICTIONARYVAR
  5
B5E
102
{ACAD_REACTORS
330
34
102
}
330
34
100
DictionaryVariables
280
     0
  1
96
  0
DICTIONARY
  5
260
102
{ACAD_REACTORS
330
43
102
}
330
43
100
AcDbDictionary
  0
DICTIONARY
  5
2C
102
{ACAD_REACTORS
330
2B
102
}
330
2B
100
AcDbDictionary
  3
DWGSETTINGS
350
2D
  0
XRECORD
  5
23DE
102
{ACAD_REACTORS
330
23DD
102
}
330
23DD
100
AcDbXrecord
 90
        1
  0
XRECORD
  5
23DF
102
{ACAD_REACTORS
330
23DD
102
}
330
23DD
100
AcDbXrecord
 90
       70
  0
XRECORD
  5
23E0
102
{ACAD_REACTORS
330
23DD
102
}
330
23DD
100
AcDbXrecord
  1

  0
XRECORD
  5
23E1
102
{ACAD_REACTORS
330
23DD
102
}
330
23DD
100
AcDbXrecord
  1
ASAMI.ctb
  0
XRECORD
  5
23E2
102
{ACAD_REACTORS
330
23DD
102
}
330
23DD
100
AcDbXrecord
340
1A
  0
XRECORD
  5
23E3
102
{ACAD_REACTORS
330
23DD
102
}
330
23DD
100
AcDbXrecord
340
19
  0
XRECORD
  5
23E4
102
{ACAD_REACTORS
330
23DD
102
}
330
23DD
100
AcDbXrecord
340
E
  0
XRECORD
  5
23E5
102
{ACAD_REACTORS
330
23DD
102
}
330
23DD
100
AcDbXrecord
 90
    10781
  0
XRECORD
  5
23E6
102
{ACAD_REACTORS
330
23DD
102
}
330
23DD
100
AcDbXrecord
 90
        4
  0
XRECORD
  5
23E7
102
{ACAD_REACTORS
330
23DD
102
}
330
23DD
100
AcDbXrecord
 90
        0
  0
XRECORD
  5
23E8
102
{ACAD_REACTORS
330
23DD
102
}
330
23DD
100
AcDbXrecord
  1
{AFB28963-8C59-40AE-9337-C84526B81ACE}
  0
XRECORD
  5
23E9
102
{ACAD_REACTORS
330
23DD
102
}
330
23DD
100
AcDbXrecord
  1
{7C3CC074-D3C1-4774-896D-B6086CEB3DF7}
  0
XRECORD
  5
23EA
102
{ACAD_REACTORS
330
23DD
102
}
330
23DD
100
AcDbXrecord
 40
0.0
  0
XRECORD
  5
23EB
102
{ACAD_REACTORS
330
23DD
102
}
330
23DD
100
AcDbXrecord
1000
DSTYLE
1002
{
1070
    79
 70
     2
1070
   341
340
59
1070
   342
340
59
1070
   371
 70
    -1
1070
   372
 70
    -1
1002
}
  0
XRECORD
  5
23EC
102
{ACAD_REACTORS
330
23DD
102
}
330
23DD
100
AcDbXrecord
340
0
  0
XRECORD
  5
23ED
102
{ACAD_REACTORS
330
23DD
102
}
330
23DD
100
AcDbXrecord
 70
     0
  0
XRECORD
  5
23EE
102
{ACAD_REACTORS
330
23DD
102
}
330
23DD
100
AcDbXrecord
340
0
  0
XRECORD
  5
23EF
102
{ACAD_REACTORS
330
23DD
102
}
330
23DD
100
AcDbXrecord
 10
0.0
 20
0.0
 30
0.0
  0
XRECORD
  5
23F0
102
{ACAD_REACTORS
330
23DD
102
}
330
23DD
100
AcDbXrecord
 10
0.0
 20
0.0
 30
0.0
  0
XRECORD
  5
23F1
102
{ACAD_REACTORS
330
23DD
102
}
330
23DD
100
AcDbXrecord
 10
0.0
 20
0.0
 30
0.0
  0
XRECORD
  5
23F2
102
{ACAD_REACTORS
330
23DD
102
}
330
23DD
100
AcDbXrecord
 10
0.0
 20
0.0
 30
0.0
  0
XRECORD
  5
23F3
102
{ACAD_REACTORS
330
23DD
102
}
330
23DD
100
AcDbXrecord
 10
0.0
 20
0.0
 30
0.0
  0
XRECORD
  5
23F4
102
{ACAD_REACTORS
330
23DD
102
}
330
23DD
100
AcDbXrecord
 10
0.0
 20
0.0
 30
0.0
  0
XRECORD
  5
23F5
102
{ACAD_REACTORS
330
23DD
102
}
330
23DD
100
AcDbXrecord
340
0
  0
XRECORD
  5
23F6
102
{ACAD_REACTORS
330
23DD
102
}
330
23DD
100
AcDbXrecord
 70
     0
  0
XRECORD
  5
23F7
102
{ACAD_REACTORS
330
23DD
102
}
330
23DD
100
AcDbXrecord
340
0
  0
XRECORD
  5
23F8
102
{ACAD_REACTORS
330
23DD
102
}
330
23DD
100
AcDbXrecord
 10
0.0
 20
0.0
 30
0.0
  0
XRECORD
  5
23F9
102
{ACAD_REACTORS
330
23DD
102
}
330
23DD
100
AcDbXrecord
 10
0.0
 20
0.0
 30
0.0
  0
XRECORD
  5
23FA
102
{ACAD_REACTORS
330
23DD
102
}
330
23DD
100
AcDbXrecord
 10
0.0
 20
0.0
 30
0.0
  0
XRECORD
  5
23FB
102
{ACAD_REACTORS
330
23DD
102
}
330
23DD
100
AcDbXrecord
 10
0.0
 20
0.0
 30
0.0
  0
XRECORD
  5
23FC
102
{ACAD_REACTORS
330
23DD
102
}
330
23DD
100
AcDbXrecord
 10
0.0
 20
0.0
 30
0.0
  0
XRECORD
  5
23FD
102
{ACAD_REACTORS
330
23DD
102
}
330
23DD
100
AcDbXrecord
 10
0.0
 20
0.0
 30
0.0
  0
LAYER_INDEX
  5
23D4
102
{ACAD_REACTORS
330
23D3
102
}
330
23D3
100
AcDbIndex
 40
2452844.45921441
100
AcDbLayerIndex
  8
0
360
23D5
 90
        0
  8
AM_0
360
23D6
 90
       71
  8
AM_11
360
23D7
 90
        4
  8
AM_6
360
23D8
 90
        1
  8
AM_7
360
23D9
 90
        1
  8
AM_5
360
23DA
 90
        4
  8
Defpoints
360
23DB
 90
        0
  0
XRECORD
  5
2D
102
{ACAD_REACTORS
330
2C
102
}
330
2C
100
AcDbXrecord
  1
VERSION
140
15.0
  1
PRODUCT
  2
AutoCAD Mechanical 2000
  0
IDBUFFER
  5
23D5
330
0
100
AcDbIdBuffer
  0
IDBUFFER
  5
23D6
330
0
100
AcDbIdBuffer
330
21C7
330
21C8
330
21C9
330
21CA
330
21CB
330
21CC
330
21CD
330
21CE
330
21CF
330
21D0
330
21D1
330
21D2
330
21D3
330
21D4
330
21D5
330
21D6
330
21D7
330
21D8
330
21D9
330
21DA
330
21DB
330
21DC
330
21DD
330
206B
330
206C
330
206F
330
2070
330
2071
330
2072
330
2073
330
20A4
330
20A5
330
20B6
330
20B9
330
2181
330
2182
330
2183
330
2184
330
2185
330
2186
330
2187
330
2188
330
2189
330
218A
330
218B
330
218D
330
218E
330
218F
330
2190
330
2192
330
21A3
330
21B3
330
21B4
330
21B5
330
21B6
330
21B7
330
21B8
330
21B9
330
21BA
330
21BB
330
21BC
330
21BD
330
21BE
330
21BF
330
21C0
330
21C1
330
21C2
330
21C3
330
21C4
330
21C5
330
21C6
  0
IDBUFFER
  5
23D7
330
0
100
AcDbIdBuffer
330
218C
330
2191
330
21A1
330
21A2
  0
IDBUFFER
  5
23D8
330
0
100
AcDbIdBuffer
330
F07
  0
IDBUFFER
  5
23D9
330
0
100
AcDbIdBuffer
330
21EB
  0
IDBUFFER
  5
23DA
330
0
100
AcDbIdBuffer
330
206A
330
206E
330
21A4
330
21DE
  0
IDBUFFER
  5
23DB
330
0
100
AcDbIdBuffer
  0
ENDSEC
  0
EOF
