  0
SECTION
  2
HEADER
  9
$ACADVER
  1
AC1014
  9
$ACADMAINTVER
 70
     9
  9
$DWGCODEPAGE
  3
ANSI_932
  9
$INSBASE
 10
0.0
 20
0.0
 30
0.0
  9
$EXTMIN
 10
-136.6535519184122
 20
-56.4820175787193
 30
-0.00000001
  9
$EXTMAX
 10
19.36363736363634
 20
12.99999999999989
 30
0.00000001
  9
$LIMMIN
 10
-144.1546182627708
 20
-69.97894736042894
  9
$LIMMAX
 10
31.23040865991902
 20
25.93733629049109
  9
$ORTHOMODE
 70
     0
  9
$REGENMODE
 70
     1
  9
$FILLMODE
 70
     1
  9
$QTEXTMODE
 70
     0
  9
$MIRRTEXT
 70
     0
  9
$DRAGMODE
 70
     2
  9
$LTSCALE
 40
1.0
  9
$OSMODE
 70
  2103
  9
$ATTMODE
 70
     1
  9
$TEXTSIZE
 40
2.5
  9
$TRACEWID
 40
1.0
  9
$TEXTSTYLE
  7
ACJISGDT
  9
$CLAYER
  8
AM_11
  9
$CELTYPE
  6
BYLAYER
  9
$CECOLOR
 62
   256
  9
$CELTSCALE
 40
1.0
  9
$DELOBJ
 70
     1
  9
$DISPSILH
 70
     0
  9
$DIMSCALE
 40
1.0
  9
$DIMASZ
 40
2.5
  9
$DIMEXO
 40
1.0
  9
$DIMDLI
 40
12.0
  9
$DIMRND
 40
0.0
  9
$DIMDLE
 40
0.0
  9
$DIMEXE
 40
1.0
  9
$DIMTP
 40
0.1
  9
$DIMTM
 40
0.1
  9
$DIMTXT
 40
3.2
  9
$DIMCEN
 40
0.0
  9
$DIMTSZ
 40
0.0
  9
$DIMTOL
 70
     0
  9
$DIMLIM
 70
     0
  9
$DIMTIH
 70
     0
  9
$DIMTOH
 70
     0
  9
$DIMSE1
 70
     0
  9
$DIMSE2
 70
     0
  9
$DIMTAD
 70
     3
  9
$DIMZIN
 70
     8
  9
$DIMBLK
  1
OPEN30
  9
$DIMASO
 70
     1
  9
$DIMSHO
 70
     1
  9
$DIMPOST
  1

  9
$DIMAPOST
  1
"
  9
$DIMALT
 70
     0
  9
$DIMALTD
 70
     2
  9
$DIMALTF
 40
0.0393701
  9
$DIMLFAC
 40
1.0
  9
$DIMTOFL
 70
     1
  9
$DIMTVP
 40
0.0
  9
$DIMTIX
 70
     0
  9
$DIMSOXD
 70
     0
  9
$DIMSAH
 70
     0
  9
$DIMBLK1
  1

  9
$DIMBLK2
  1

  9
$DIMSTYLE
  2
AM_JIS
  9
$DIMCLRD
 70
   256
  9
$DIMCLRE
 70
   256
  9
$DIMCLRT
 70
     2
  9
$DIMTFAC
 40
0.71
  9
$DIMGAP
 40
1.5
  9
$DIMJUST
 70
     0
  9
$DIMSD1
 70
     0
  9
$DIMSD2
 70
     0
  9
$DIMTOLJ
 70
     0
  9
$DIMTZIN
 70
     0
  9
$DIMALTZ
 70
     0
  9
$DIMALTTZ
 70
     0
  9
$DIMFIT
 70
     3
  9
$DIMUPT
 70
     0
  9
$DIMUNIT
 70
     2
  9
$DIMDEC
 70
     3
  9
$DIMTDEC
 70
     3
  9
$DIMALTU
 70
     2
  9
$DIMALTTD
 70
     2
  9
$DIMTXSTY
  7
ASAMI
  9
$DIMAUNIT
 70
     0
  9
$LUNITS
 70
     2
  9
$LUPREC
 70
     2
  9
$SKETCHINC
 40
1.0
  9
$FILLETRAD
 40
2.5
  9
$AUNITS
 70
     0
  9
$AUPREC
 70
     0
  9
$MENU
  1
.
  9
$ELEVATION
 40
0.0
  9
$PELEVATION
 40
0.0
  9
$THICKNESS
 40
0.0
  9
$LIMCHECK
 70
     0
  9
$BLIPMODE
 70
     0
  9
$CHAMFERA
 40
0.5
  9
$CHAMFERB
 40
0.5
  9
$CHAMFERC
 40
20.0
  9
$CHAMFERD
 40
0.0
  9
$SKPOLY
 70
     0
  9
$TDCREATE
 40
2452808.461142939
  9
$TDUPDATE
 40
2452844.459304641
  9
$TDINDWG
 40
0.1443402894
  9
$TDUSRTIMER
 40
0.1443402894
  9
$USRTIMER
 70
     1
  9
$ANGBASE
 50
0.0
  9
$ANGDIR
 70
     0
  9
$PDMODE
 70
     0
  9
$PDSIZE
 40
0.0
  9
$PLINEWID
 40
0.0
  9
$COORDS
 70
     2
  9
$SPLFRAME
 70
     0
  9
$SPLINETYPE
 70
     6
  9
$SPLINESEGS
 70
     8
  9
$ATTDIA
 70
     1
  9
$ATTREQ
 70
     1
  9
$HANDLING
 70
 12289
  9
$HANDSEED
  5
24C6
  9
$SURFTAB1
 70
     6
  9
$SURFTAB2
 70
     6
  9
$SURFTYPE
 70
     6
  9
$SURFU
 70
     6
  9
$SURFV
 70
     6
  9
$UCSNAME
  2

  9
$UCSORG
 10
-0.0000000000000002
 20
-0.000000000000008
 30
0.0
  9
$UCSXDIR
 10
1.0
 20
0.0
 30
0.0
  9
$UCSYDIR
 10
0.0
 20
1.0
 30
0.0
  9
$PUCSNAME
  2

  9
$PUCSORG
 10
0.0
 20
0.0
 30
0.0
  9
$PUCSXDIR
 10
1.0
 20
0.0
 30
0.0
  9
$PUCSYDIR
 10
0.0
 20
1.0
 30
0.0
  9
$USERI1
 70
     0
  9
$USERI2
 70
     0
  9
$USERI3
 70
     0
  9
$USERI4
 70
     0
  9
$USERI5
 70
     0
  9
$USERR1
 40
0.0
  9
$USERR2
 40
0.0
  9
$USERR3
 40
0.0
  9
$USERR4
 40
0.0
  9
$USERR5
 40
0.0
  9
$WORLDVIEW
 70
     1
  9
$SHADEDGE
 70
     3
  9
$SHADEDIF
 70
    70
  9
$TILEMODE
 70
     1
  9
$MAXACTVP
 70
    64
  9
$PINSBASE
 10
0.0
 20
0.0
 30
0.0
  9
$PLIMCHECK
 70
     0
  9
$PEXTMIN
 10
1.000000000000000E+20
 20
1.000000000000000E+20
 30
1.000000000000000E+20
  9
$PEXTMAX
 10
-1.000000000000000E+20
 20
-1.000000000000000E+20
 30
-1.000000000000000E+20
  9
$PLIMMIN
 10
0.0
 20
0.0
  9
$PLIMMAX
 10
841.0
 20
594.0
  9
$UNITMODE
 70
     0
  9
$VISRETAIN
 70
     1
  9
$PLINEGEN
 70
     0
  9
$PSLTSCALE
 70
     0
  9
$TREEDEPTH
 70
  3020
  9
$PICKSTYLE
 70
     0
  9
$CMLSTYLE
  2
STANDARD
  9
$CMLJUST
 70
     0
  9
$CMLSCALE
 40
20.0
  9
$PROXYGRAPHICS
 70
     1
  9
$MEASUREMENT
 70
     1
  0
ENDSEC
  0
SECTION
  2
CLASSES
  0
CLASS
  1
ACDBDICTIONARYWDFLT
  2
AcDbDictionaryWithDefault
  3
AutoCAD 2000
 90
        0
280
     0
281
     0
  0
CLASS
  1
ACDBPLACEHOLDER
  2
AcDbPlaceHolder
  3
AutoCAD 2000
 90
        0
280
     0
281
     0
  0
CLASS
  1
LAYOUT
  2
AcDbLayout
  3
AutoCAD 2000
 90
        0
280
     0
281
     0
  0
CLASS
  1
AMGSETTINGSOBJ
  2
AmgSettingsObj
  3
"AcadM|Product Description: AutoCAD Mechanical 2000|Company: Autodesk"
 90
        0
280
     0
281
     0
  0
CLASS
  1
ACME_DOCUMENT
  2
AcMeDbDoc
  3
AcMeServices
 90
        0
280
     0
281
     0
  0
CLASS
  1
ACMESCOPE
  2
AcMeScope
  3
AcMeServices
 90
        0
280
     0
281
     0
  0
CLASS
  1
ACMECOMMANDHISTORY
  2
AcMeCommandHistory
  3
AcMeServices
 90
        0
280
     0
281
     0
  0
CLASS
  1
DICTIONARYVAR
  2
AcDbDictionaryVar
  3
AutoCAD 2000
 90
        0
280
     0
281
     0
  0
CLASS
  1
ACIMSYSVARMAN
  2
AcImSysVarManager
  3
AcMeServices
 90
        0
280
     0
281
     0
  0
CLASS
  1
ACIMREALSYSVAR
  2
AcImRealSysVar
  3
AcMeServices
 90
        0
280
     0
281
     0
  0
CLASS
  1
ACIMINTSYSVAR
  2
AcImIntSysVar
  3
AcMeServices
 90
        0
280
     0
281
     0
  0
CLASS
  1
ACMEDRAWINGMAN
  2
AcMeDrawingMan
  3
AcMeServices
 90
        0
280
     0
281
     0
  0
CLASS
  1
ACMEVIEW
  2
AcMeView
  3
AcMeServices
 90
        0
280
     0
281
     0
  0
CLASS
  1
ACDBENTITYCACHE
  2
AcMeEntityCache
  3
AcMeServices
 90
        0
280
     0
281
     0
  0
CLASS
  1
GSMANAGER
  2
AcMeGSManager
  3
AcMeServices
 90
        0
280
     0
281
     0
  0
CLASS
  1
AmdtInternalReactor
  2
AmdtInternalReactor
  3
AcMeServices
 90
        0
280
     0
281
     0
  0
CLASS
  1
ACMESTATEMGR
  2
AcMeStateMgr
  3
AcMeServices
 90
        0
280
     0
281
     0
  0
CLASS
  1
ACME_DATABASE
  2
AcMeDbDatabase
  3
AcMeServices
 90
        0
280
     0
281
     0
  0
CLASS
  1
ACRFINSADJUSTERMGR
  2
AcRfInsAdjusterMgr
  3
AcMeServices
 90
        0
280
     0
281
     0
  0
CLASS
  1
ACMDATADICTIONARY
  2
AcmDataDictionary
  3
"AcmSymBB|Product Description: AutoCAD Mechanical 2000|Company: Autodesk"
 90
        0
280
     0
281
     0
  0
CLASS
  1
ACMDATAENTRYBLOCK
  2
AcmDataEntryBlock
  3
"AcmSymBB|Product Description: AutoCAD Mechanical 2000|Company: Autodesk"
 90
        0
280
     0
281
     0
  0
CLASS
  1
AMGOBJPROPCFG
  2
AmgObjPropCfg
  3
"AmgLay|Product Description: AutoCAD Mechanical 2000|Company: Autodesk"
 90
        1
280
     0
281
     0
  0
CLASS
  1
ACAMGFILTERDAT
  2
AcAmgFilterDat
  3
"AcadM|Product Description: AutoCAD Mechanical 2000|Company: Autodesk"
 90
        0
280
     0
281
     0
  0
CLASS
  1
LAYER_INDEX
  2
AcDbLayerIndex
  3
AutoCAD 2000
 90
        0
280
     0
281
     0
  0
CLASS
  1
IDBUFFER
  2
AcDbIdBuffer
  3
AutoCAD 2000
 90
        0
280
     0
281
     0
  0
CLASS
  1
ACIMSTRSYSVAR
  2
AcImStrSysVar
  3
AcMeServices
 90
        0
280
     0
281
     0
  0
CLASS
  1
ACMSTANDARDJIS
  2
AcmStandardJIS
  3
"AcmSymBB|Product Description: AutoCAD Mechanical 2000|Company: Autodesk"
 90
        0
280
     0
281
     0
  0
CLASS
  1
ACMSURFSTANDARDJIS
  2
AcmSurfTextStdJIS
  3
"AcmSymBB|Product Description: AutoCAD Mechanical 2000|Company: Autodesk"
 90
        0
280
     0
281
     0
  0
CLASS
  1
ACMFCFSTANDARDJIS
  2
AcmFCFStdJIS
  3
"AcmSymBB|Product Description: AutoCAD Mechanical 2000|Company: Autodesk"
 90
        0
280
     0
281
     0
  0
CLASS
  1
ACMWELDSTANDARDJIS
  2
AcmWeldingStdJIS
  3
"AcmSymBB|Product Description: AutoCAD Mechanical 2000|Company: Autodesk"
 90
        0
280
     0
281
     0
  0
CLASS
  1
ACMIDSTANDARDJIS
  2
AcmIdStdJIS
  3
"AcmSymBB|Product Description: AutoCAD Mechanical 2000|Company: Autodesk"
 90
        0
280
     0
281
     0
  0
CLASS
  1
ACMDATUMSTANDARDJIS
  2
AcmDatumStdJIS
  3
"AcmSymBB|Product Description: AutoCAD Mechanical 2000|Company: Autodesk"
 90
        0
280
     0
281
     0
  0
CLASS
  1
ACMBOMSTANDARDJIS
  2
AcmBOMStdJIS
  3
"AcmSymBB|Product Description: AutoCAD Mechanical 2000|Company: Autodesk"
 90
        0
280
     0
281
     0
  0
CLASS
  1
ACMSTANDARDANSI
  2
AcmStandardANSI
  3
"AcmSymBB|Product Description: AutoCAD Mechanical 2000|Company: Autodesk"
 90
        0
280
     0
281
     0
  0
CLASS
  1
ACMSURFSTANDARDANSI
  2
AcmSurfTextStdANSI
  3
"AcmSymBB|Product Description: AutoCAD Mechanical 2000|Company: Autodesk"
 90
        0
280
     0
281
     0
  0
CLASS
  1
ACMFCFSTANDARDANSI
  2
AcmFCFStdANSI
  3
"AcmSymBB|Product Description: AutoCAD Mechanical 2000|Company: Autodesk"
 90
        0
280
     0
281
     0
  0
CLASS
  1
ACMWELDSTANDARDANSI
  2
AcmWeldingStdANSI
  3
"AcmSymBB|Product Description: AutoCAD Mechanical 2000|Company: Autodesk"
 90
        0
280
     0
281
     0
  0
CLASS
  1
ACMIDSTANDARDANSI
  2
AcmIdStdANSI
  3
"AcmSymBB|Product Description: AutoCAD Mechanical 2000|Company: Autodesk"
 90
        0
280
     0
281
     0
  0
CLASS
  1
ACMDATUMSTANDARDANSI
  2
AcmDatumStdANSI
  3
"AcmSymBB|Product Description: AutoCAD Mechanical 2000|Company: Autodesk"
 90
        0
280
     0
281
     0
  0
CLASS
  1
ACMBOMSTANDARDANSI
  2
AcmBOMStdANSI
  3
"AcmSymBB|Product Description: AutoCAD Mechanical 2000|Company: Autodesk"
 90
        0
280
     0
281
     0
  0
CLASS
  1
ACMSTANDARDBSI
  2
AcmStandardBSI
  3
"AcmSymBB|Product Description: AutoCAD Mechanical 2000|Company: Autodesk"
 90
        0
280
     0
281
     0
  0
CLASS
  1
ACMSURFSTANDARDBSI
  2
AcmSurfTextStdBSI
  3
"AcmSymBB|Product Description: AutoCAD Mechanical 2000|Company: Autodesk"
 90
        0
280
     0
281
     0
  0
CLASS
  1
ACMFCFSTANDARDBSI
  2
AcmFCFStdBSI
  3
"AcmSymBB|Product Description: AutoCAD Mechanical 2000|Company: Autodesk"
 90
        0
280
     0
281
     0
  0
CLASS
  1
ACMWELDSTANDARDBSI
  2
AcmWeldingStdBSI
  3
"AcmSymBB|Product Description: AutoCAD Mechanical 2000|Company: Autodesk"
 90
        0
280
     0
281
     0
  0
CLASS
  1
ACMIDSTANDARDBSI
  2
AcmIdStdBSI
  3
"AcmSymBB|Product Description: AutoCAD Mechanical 2000|Company: Autodesk"
 90
        0
280
     0
281
     0
  0
CLASS
  1
ACMDATUMSTANDARDBSI
  2
AcmDatumStdBSI
  3
"AcmSymBB|Product Description: AutoCAD Mechanical 2000|Company: Autodesk"
 90
        0
280
     0
281
     0
  0
CLASS
  1
ACMBOMSTANDARDBSI
  2
AcmBOMStdBSI
  3
"AcmSymBB|Product Description: AutoCAD Mechanical 2000|Company: Autodesk"
 90
        0
280
     0
281
     0
  0
CLASS
  1
LONG_TRANSACTION
  2
AcDbLongTransaction
  3
AutoCAD 2000
 90
        0
280
     0
281
     0
  0
CLASS
  1
LWPOLYLINE
  2
AcDbPolyline
  3
AutoCAD 2000
 90
        0
280
     0
281
     1
  0
CLASS
  1
HATCH
  2
AcDbHatch
  3
AutoCAD 2000
 90
        0
280
     0
281
     1
  0
CLASS
  1
XRECORD
  2
AcDbXrecord
  3
AutoCAD 2000
 90
        0
280
     0
281
     0
  0
ENDSEC
  0
SECTION
  2
TABLES
  0
TABLE
  2
VPORT
  5
8
330
0
100
AcDbSymbolTable
 70
     3
  0
VPORT
  5
249B
330
8
100
AcDbSymbolTableRecord
100
AcDbViewportTableRecord
  2
*ACTIVE
 70
     0
 10
0.0
 20
0.0
 11
1.0
 21
1.0
 12
-58.64250633495641
 22
-21.74153941521938
 13
0.0
 23
0.0
 14
2.5
 24
2.5
 15
10.0
 25
10.0
 16
0.0
 26
0.0
 36
1.0
 17
0.0
 27
0.0
 37
0.0
 40
100.0435178067859
 41
1.56570841889117
 42
50.0
 43
0.0
 44
0.0
 50
0.0
 51
0.0
 71
     0
 72
   100
 73
     1
 74
     3
 75
     0
 76
     0
 77
     0
 78
     0
  0
ENDTAB
  0
TABLE
  2
LTYPE
  5
5
330
0
100
AcDbSymbolTable
 70
    10
  0
LTYPE
  5
14
330
5
100
AcDbSymbolTableRecord
100
AcDbLinetypeTableRecord
  2
BYBLOCK
 70
     0
  3

 72
    65
 73
     0
 40
0.0
  0
LTYPE
  5
15
330
5
100
AcDbSymbolTableRecord
100
AcDbLinetypeTableRecord
  2
BYLAYER
 70
     0
  3

 72
    65
 73
     0
 40
0.0
  0
LTYPE
  5
16
330
5
100
AcDbSymbolTableRecord
100
AcDbLinetypeTableRecord
  2
CONTINUOUS
 70
     0
  3
Solid line
 72
    65
 73
     0
 40
0.0
  0
LTYPE
  5
4B
330
5
100
AcDbSymbolTableRecord
100
AcDbLinetypeTableRecord
  2
AM_ISO02W050
 70
     0
  3
__ __ __ __ __ __ __ __ __ __ __ __ __ __ __
 72
    65
 73
     2
 40
7.5
 49
6.0
 74
     0
 49
-1.5
 74
     0
  0
LTYPE
  5
4C
330
5
100
AcDbSymbolTableRecord
100
AcDbLinetypeTableRecord
  2
AM_ISO08W050
 70
     0
  3
____ . ____ . ____ . ____ . ____ . ____ . ____
 72
    65
 73
     4
 40
18.0
 49
12.0
 74
     0
 49
-1.5
 74
     0
 49
3.0
 74
     0
 49
-1.5
 74
     0
  0
LTYPE
  5
4D
330
5
100
AcDbSymbolTableRecord
100
AcDbLinetypeTableRecord
  2
AM_ISO09W050
 70
     0
  3
_____ . . _____ . . _____ . . ____ .. ____
 72
    65
 73
     6
 40
22.5
 49
12.0
 74
     0
 49
-1.5
 74
     0
 49
3.0
 74
     0
 49
-1.5
 74
     0
 49
3.0
 74
     0
 49
-1.5
 74
     0
  0
LTYPE
  5
4E
330
5
100
AcDbSymbolTableRecord
100
AcDbLinetypeTableRecord
  2
AMCONSTR
 70
     0
  3
_______________________
 72
    65
 73
     2
 40
9999.0
 49
9999.0
 74
     0
 49
0.0
 74
     0
  0
LTYPE
  5
4F
330
5
100
AcDbSymbolTableRecord
100
AcDbLinetypeTableRecord
  2
AM_ISO02W050X2
 70
     0
  3
 _ _ _ _ _ _ _ _ _ _ _ _
 72
    65
 73
     2
 40
3.75
 49
3.0
 74
     0
 49
-0.75
 74
     0
  0
LTYPE
  5
50
330
5
100
AcDbSymbolTableRecord
100
AcDbLinetypeTableRecord
  2
AM_ISO08W050X2
 70
     0
  3
__ . __ . __ . __ . __ . __
 72
    65
 73
     4
 40
9.0
 49
6.0
 74
     0
 49
-0.75
 74
     0
 49
1.5
 74
     0
 49
-0.75
 74
     0
  0
LTYPE
  5
53
330
5
100
AcDbSymbolTableRecord
100
AcDbLinetypeTableRecord
  2
AMZIGZAG
 70
     0
  3
/\/-/\/-/\/-/\/-/\/-/\/
 72
    65
 73
     2
 40
11.00009999999999
 49
0.0001
 74
     4
 75
   135
340
52
 46
0.04
 50
0.0
 44
0.0
 45
0.0
 49
-11.0
 74
     0
  0
LTYPE
  5
166
330
5
100
AcDbSymbolTableRecord
100
AcDbLinetypeTableRecord
  2
ACJISTGL
 70
     0
  3
_ _ _ _ _
 72
    65
 73
     2
 40
3.0
 49
2.0
 74
     0
 49
-1.0
 74
     0
  0
LTYPE
  5
26A
330
5
100
AcDbSymbolTableRecord
100
AcDbLinetypeTableRecord
  2
ACJISTGB
 70
     0
  3
__ . . __ . .
 72
    65
 73
     6
 40
9.0
 49
4.0
 74
     0
 49
-1.0
 74
     0
 49
1.0
 74
     0
 49
-1.0
 74
     0
 49
1.0
 74
     0
 49
-1.0
 74
     0
  0
ENDTAB
  0
TABLE
  2
LAYER
  5
2
330
0
100
AcDbSymbolTable
 70
     7
  0
LAYER
  5
10
330
2
100
AcDbSymbolTableRecord
100
AcDbLayerTableRecord
  2
0
 70
     0
 62
     7
  6
CONTINUOUS
  0
LAYER
  5
3F9
330
2
100
AcDbSymbolTableRecord
100
AcDbLayerTableRecord
  2
AM_0
 70
     0
 62
     7
  6
CONTINUOUS
  0
LAYER
  5
BA4
330
2
100
AcDbSymbolTableRecord
100
AcDbLayerTableRecord
  2
AM_11
 70
     0
 62
     3
  6
AM_ISO09W050
  0
LAYER
  5
BA6
330
2
100
AcDbSymbolTableRecord
100
AcDbLayerTableRecord
  2
AM_6
 70
     0
 62
     2
  6
CONTINUOUS
  0
LAYER
  5
BA7
330
2
100
AcDbSymbolTableRecord
100
AcDbLayerTableRecord
  2
AM_7
 70
     0
 62
     4
  6
AM_ISO08W050
  0
LAYER
  5
D0E
330
2
100
AcDbSymbolTableRecord
100
AcDbLayerTableRecord
  2
AM_5
 70
     0
 62
     3
  6
CONTINUOUS
  0
LAYER
  5
FE8
330
2
100
AcDbSymbolTableRecord
100
AcDbLayerTableRecord
  2
DEFPOINTS
 70
     0
 62
     7
  6
CONTINUOUS
  0
ENDTAB
  0
TABLE
  2
STYLE
  5
3
330
0
100
AcDbSymbolTable
 70
     5
  0
STYLE
  5
11
330
3
100
AcDbSymbolTableRecord
100
AcDbTextStyleTableRecord
  2
STANDARD
 70
     0
 40
0.0
 41
1.0
 50
0.0
 71
     0
 42
2.5
  3
simplex.shx
  4
EXTFONT.SHX
  0
STYLE
  5
52
330
3
100
AcDbSymbolTableRecord
100
AcDbTextStyleTableRecord
  2

 70
     1
 40
0.0
 41
1.0
 50
0.0
 71
     0
 42
2.5
  3
ltypeshp.shx
  4

  0
STYLE
  5
6B
330
3
100
AcDbSymbolTableRecord
100
AcDbTextStyleTableRecord
  2
ASAMI
 70
     0
 40
0.0
 41
1.0
 50
0.0
 71
     0
 42
2.5
  3
simplex.shx
  4
EXTFONT.SHX
  0
STYLE
  5
262
330
3
100
AcDbSymbolTableRecord
100
AcDbTextStyleTableRecord
  2
ACJISTS
 70
     0
 40
1.0
 41
1.0
 50
0.0
 71
     0
 42
2.5
  3
simplex.shx
  4
bigfont.shx
  0
STYLE
  5
269
330
3
100
AcDbSymbolTableRecord
100
AcDbTextStyleTableRecord
  2
ACJISGDT
 70
     0
 40
0.0
 41
1.0
 50
0.0
 71
     0
 42
2.5
  3
amgdtans.shx
  4

  0
ENDTAB
  0
TABLE
  2
VIEW
  5
6
330
0
100
AcDbSymbolTable
 70
     0
  0
ENDTAB
  0
TABLE
  2
UCS
  5
7
330
0
100
AcDbSymbolTable
 70
     0
  0
ENDTAB
  0
TABLE
  2
APPID
  5
9
330
0
100
AcDbSymbolTable
 70
    12
  0
APPID
  5
12
330
9
100
AcDbSymbolTableRecord
100
AcDbRegAppTableRecord
  2
ACAD
 70
     0
  0
APPID
  5
30
330
9
100
AcDbSymbolTableRecord
100
AcDbRegAppTableRecord
  2
MCAD_NO_VIS
 70
     0
  0
APPID
  5
31
330
9
100
AcDbSymbolTableRecord
100
AcDbRegAppTableRecord
  2
ACAD_TEMP_GRAPHIC
 70
     0
  0
APPID
  5
2C2
330
9
100
AcDbSymbolTableRecord
100
AcDbRegAppTableRecord
  2
GENIUS_GENDTOL_13
 70
     0
  0
APPID
  5
339
330
9
100
AcDbSymbolTableRecord
100
AcDbRegAppTableRecord
  2
GENIUS_GENODEF_13
 70
     0
  0
APPID
  5
33A
330
9
100
AcDbSymbolTableRecord
100
AcDbRegAppTableRecord
  2
GENIUS_GENOBJ-N-RSBK_13
 70
     0
  0
APPID
  5
33B
330
9
100
AcDbSymbolTableRecord
100
AcDbRegAppTableRecord
  2
GENIUS_GENOBJ-N-LIB_13
 70
     0
  0
APPID
  5
33C
330
9
100
AcDbSymbolTableRecord
100
AcDbRegAppTableRecord
  2
GENIUS_GENSCALE_13
 70
     0
  0
APPID
  5
378
330
9
100
AcDbSymbolTableRecord
100
AcDbRegAppTableRecord
  2
GENIUS_GENDIMSH_14
 70
     0
  0
APPID
  5
BA8
330
9
100
AcDbSymbolTableRecord
100
AcDbRegAppTableRecord
  2
GENIUS_GENOBJ-N-CEN_13
 70
     0
  0
APPID
  5
EE8
330
9
100
AcDbSymbolTableRecord
100
AcDbRegAppTableRecord
  2
GENIUS_GENFIL_13
 70
     0
  0
APPID
  5
EE9
330
9
100
AcDbSymbolTableRecord
100
AcDbRegAppTableRecord
  2
GENIUS_GENOBJ-N-CHA_13
 70
     0
  0
ENDTAB
  0
TABLE
  2
DIMSTYLE
  5
A
330
0
100
AcDbSymbolTable
 70
     8
  0
DIMSTYLE
105
58
102
{ACAD_REACTORS
330
20B1
330
22B4
330
22EE
330
23DD
102
}
330
A
100
AcDbSymbolTableRecord
100
AcDbDimStyleTableRecord
  2
AM_JIS
 70
     0
  3

  4
"
  5
OPEN30
  6

  7

 40
1.0
 41
2.5
 42
1.0
 43
12.0
 44
1.0
 45
0.0
 46
0.0
 47
0.1
 48
0.1
140
3.2
141
0.0
142
0.0
143
0.0393701
144
1.0
145
0.0
146
0.71
147
1.5
 71
     0
 72
     0
 73
     0
 74
     0
 75
     0
 76
     0
 77
     3
 78
     8
170
     0
171
     2
172
     1
173
     0
174
     0
175
     0
176
   256
177
   256
178
     2
270
     2
271
     3
272
     3
273
     2
274
     2
340
6B
275
     0
280
     0
281
     0
282
     0
283
     0
284
     0
285
     0
286
     0
287
     3
288
     0
  0
DIMSTYLE
105
5F
330
A
100
AcDbSymbolTableRecord
100
AcDbDimStyleTableRecord
  2
AM_JIS$3
 70
     0
  3

  4
"
  5
OPEN30
  6

  7

 40
1.0
 41
2.5
 42
1.0
 43
10.0
 44
1.0
 45
0.0
 46
0.0
 47
0.1
 48
0.1
140
3.2
141
0.0
142
0.0
143
0.0393701
144
1.0
145
0.0
146
0.71
147
1.5
 71
     0
 72
     0
 73
     0
 74
     1
 75
     0
 76
     0
 77
     3
 78
     8
170
     0
171
     2
172
     0
173
     0
174
     0
175
     0
176
   256
177
   256
178
     2
270
     2
271
     2
272
     3
273
     2
274
     2
340
6B
275
     0
280
     0
281
     0
282
     0
283
     0
284
     0
285
     0
286
     0
287
     0
288
     1
  0
DIMSTYLE
105
60
330
A
100
AcDbSymbolTableRecord
100
AcDbDimStyleTableRecord
  2
AM_JIS$4
 70
     0
  3

  4
"
  5
OPEN30
  6

  7

 40
1.0
 41
2.5
 42
1.0
 43
10.0
 44
1.0
 45
0.0
 46
0.0
 47
0.1
 48
0.1
140
3.2
141
0.0
142
0.0
143
0.0393701
144
1.0
145
0.0
146
0.71
147
1.5
 71
     0
 72
     0
 73
     0
 74
     1
 75
     0
 76
     0
 77
     3
 78
     8
170
     0
171
     2
172
     0
173
     0
174
     0
175
     0
176
   256
177
   256
178
     2
270
     2
271
     2
272
     3
273
     2
274
     2
340
6B
275
     0
280
     0
281
     0
282
     0
283
     0
284
     0
285
     0
286
     0
287
     0
288
     1
  0
DIMSTYLE
105
61
330
A
100
AcDbSymbolTableRecord
100
AcDbDimStyleTableRecord
  2
AM_JIS$6
 70
     0
  3

  4
"
  5
OPEN30
  6

  7

 40
1.0
 41
2.5
 42
1.0
 43
10.0
 44
1.0
 45
0.0
 46
0.0
 47
0.1
 48
0.1
140
3.2
141
0.0
142
0.0
143
0.0393701
144
1.0
145
0.0
146
0.71
147
1.5
 71
     0
 72
     0
 73
     0
 74
     0
 75
     0
 76
     0
 77
     0
 78
     8
170
     0
171
     2
172
     1
173
     0
174
     0
175
     0
176
   256
177
   256
178
     2
270
     2
271
     2
272
     2
273
     2
274
     2
340
6B
275
     0
280
     0
281
     0
282
     0
283
     0
284
     0
285
     0
286
     0
287
     3
288
     0
  0
DIMSTYLE
105
62
330
A
100
AcDbSymbolTableRecord
100
AcDbDimStyleTableRecord
  2
AM_JIS$7
 70
     0
  3

  4
"
  5
OPEN30
  6

  7

 40
1.0
 41
2.5
 42
1.0
 43
10.0
 44
1.0
 45
0.0
 46
0.0
 47
0.1
 48
0.1
140
3.2
141
0.0
142
0.0
143
0.0393701
144
1.0
145
0.0
146
0.71
147
1.5
 71
     0
 72
     0
 73
     0
 74
     0
 75
     0
 76
     0
 77
     3
 78
     8
170
     0
171
     2
172
     1
173
     0
174
     0
175
     0
176
   256
177
   256
178
     2
270
     2
271
     2
272
     3
273
     2
274
     2
340
6B
275
     0
280
     0
281
     0
282
     0
283
     0
284
     0
285
     0
286
     0
287
     3
288
     0
  0
DIMSTYLE
105
63
330
A
100
AcDbSymbolTableRecord
100
AcDbDimStyleTableRecord
  2
AM_JIS$SF
 70
     0
  3

  4
"
  5
OPEN30
  6

  7

 40
1.0
 41
2.5
 42
1.0
 43
10.0
 44
1.0
 45
0.0
 46
0.0
 47
0.1
 48
0.1
140
3.2
141
0.0
142
0.0
143
0.0393701
144
1.0
145
0.0
146
0.71
147
1.5
 71
     0
 72
     0
 73
     0
 74
     0
 75
     1
 76
     1
 77
     3
 78
     8
170
     0
171
     2
172
     1
173
     0
174
     0
175
     0
176
   256
177
   256
178
     2
270
     2
271
     2
272
     2
273
     2
274
     2
340
6B
275
     0
280
     0
281
     0
282
     0
283
     0
284
     0
285
     0
286
     0
287
     3
288
     0
  0
DIMSTYLE
105
68
330
A
100
AcDbSymbolTableRecord
100
AcDbDimStyleTableRecord
  2
AM_JIS$SH
 70
     0
  3

  4
"
  5

  6
GENAXEH
  7
OPEN30
 40
1.0
 41
2.5
 42
1.0
 43
10.0
 44
1.0
 45
0.0
 46
0.0
 47
0.1
 48
0.1
140
3.2
141
0.0
142
0.0
143
0.0393701
144
2.0
145
0.0
146
0.71
147
1.5
 71
     0
 72
     0
 73
     0
 74
     0
 75
     1
 76
     1
 77
     3
 78
     8
170
     0
171
     2
172
     1
173
     1
174
     0
175
     0
176
   256
177
   256
178
     2
270
     2
271
     2
272
     2
273
     2
274
     2
340
6B
275
     0
280
     0
281
     0
282
     0
283
     0
284
     0
285
     0
286
     0
287
     3
288
     0
  0
DIMSTYLE
105
B34
330
A
100
AcDbSymbolTableRecord
100
AcDbDimStyleTableRecord
  2
AM_JIS$2
 70
     0
  3

  4
"
  5
OPEN30
  6

  7

 40
1.0
 41
2.5
 42
1.0
 43
12.0
 44
1.0
 45
0.0
 46
0.0
 47
0.1
 48
0.1
140
3.2
141
0.0
142
0.0
143
0.0393701
144
1.0
145
0.0
146
0.71
147
1.5
 71
     0
 72
     0
 73
     0
 74
     0
 75
     0
 76
     0
 77
     3
 78
     8
170
     0
171
     2
172
     1
173
     0
174
     0
175
     0
176
   256
177
   256
178
     2
270
     2
271
     3
272
     3
273
     2
274
     2
340
6B
275
     0
280
     0
281
     0
282
     0
283
     0
284
     0
285
     0
286
     0
287
     3
288
     0
  0
ENDTAB
  0
TABLE
  2
BLOCK_RECORD
  5
1
330
0
100
AcDbSymbolTable
 70
     9
  0
BLOCK_RECORD
  5
1F
102
{ACAD_XDICTIONARY
360
74
102
}
330
1
100
AcDbSymbolTableRecord
100
AcDbBlockTableRecord
  2
*MODEL_SPACE
  0
BLOCK_RECORD
  5
101
102
{ACAD_XDICTIONARY
360
24C4
102
}
330
1
100
AcDbSymbolTableRecord
100
AcDbBlockTableRecord
  2
*PAPER_SPACE
  0
BLOCK_RECORD
  5
59
330
1
100
AcDbSymbolTableRecord
100
AcDbBlockTableRecord
  2
_OPEN30
  0
BLOCK_RECORD
  5
64
330
1
100
AcDbSymbolTableRecord
100
AcDbBlockTableRecord
  2
GENAXEH
  0
BLOCK_RECORD
  5
210B
330
1
100
AcDbSymbolTableRecord
100
AcDbBlockTableRecord
  2
*D5
  0
BLOCK_RECORD
  5
22B5
330
1
100
AcDbSymbolTableRecord
100
AcDbBlockTableRecord
  2
*D6
  0
BLOCK_RECORD
  5
22EF
330
1
100
AcDbSymbolTableRecord
100
AcDbBlockTableRecord
  2
*D7
  0
BLOCK_RECORD
  5
23DE
330
1
100
AcDbSymbolTableRecord
100
AcDbBlockTableRecord
  2
*D8
  0
ENDTAB
  0
ENDSEC
  0
SECTION
  2
BLOCKS
  0
BLOCK
  5
20
330
1F
100
AcDbEntity
  8
0
100
AcDbBlockBegin
  2
*MODEL_SPACE
 70
     0
 10
0.0
 20
0.0
 30
0.0
  3
*MODEL_SPACE
  1

  0
ENDBLK
  5
21
330
1F
100
AcDbEntity
  8
0
100
AcDbBlockEnd
  0
BLOCK
  5
103
330
101
100
AcDbEntity
 67
     1
  8
0
100
AcDbBlockBegin
  2
*PAPER_SPACE
 70
     0
 10
0.0
 20
0.0
 30
0.0
  3
*PAPER_SPACE
  1

  0
ENDBLK
  5
104
330
101
100
AcDbEntity
 67
     1
  8
0
100
AcDbBlockEnd
  0
BLOCK
  5
5D
330
59
100
AcDbEntity
  8
0
100
AcDbBlockBegin
  2
_OPEN30
 70
     0
 10
0.0
 20
0.0
 30
0.0
  3
_OPEN30
  1

  0
LINE
  5
5A
330
59
100
AcDbEntity
  8
0
 62
     0
100
AcDbLine
 10
-1.0
 20
0.26794919
 30
0.0
 11
0.0
 21
0.0
 31
0.0
  0
LINE
  5
5B
330
59
100
AcDbEntity
  8
0
 62
     0
100
AcDbLine
 10
0.0
 20
0.0
 30
0.0
 11
-1.0
 21
-0.26794919
 31
0.0
  0
LINE
  5
5C
330
59
100
AcDbEntity
  8
0
 62
     0
100
AcDbLine
 10
0.0
 20
0.0
 30
0.0
 11
-1.0
 21
0.0
 31
0.0
  0
ENDBLK
  5
5E
330
59
100
AcDbEntity
  8
0
100
AcDbBlockEnd
  0
BLOCK
  5
66
330
64
100
AcDbEntity
  8
0
100
AcDbBlockBegin
  2
GENAXEH
 70
     0
 10
0.0
 20
0.0
 30
0.0
  3
GENAXEH
  1

  0
LINE
  5
65
330
64
100
AcDbEntity
  8
0
100
AcDbLine
 10
-1.0
 20
0.0
 30
0.0
 11
1.0
 21
0.0
 31
0.0
  0
ENDBLK
  5
67
330
64
100
AcDbEntity
  8
0
100
AcDbBlockEnd
  0
BLOCK
  5
2115
330
210B
100
AcDbEntity
  8
0
100
AcDbBlockBegin
  2
*D5
 70
     1
 10
0.0
 20
0.0
 30
0.0
  3
*D5
  1

  0
LINE
  5
2366
330
210B
100
AcDbEntity
  8
AM_5
100
AcDbLine
 10
-0.0000000000000016
 20
-9.000000000000014
 30
0.0
 11
-0.0000000000000032
 21
-35.00000100000015
 31
0.0
  0
LINE
  5
2367
330
210B
100
AcDbEntity
  8
AM_5
100
AcDbLine
 10
-115.0
 20
-7.77270445993749
 30
0.0
 11
-115.0
 21
-35.00000100000015
 31
0.0
  0
LINE
  5
2368
330
210B
100
AcDbEntity
  8
AM_5
100
AcDbLine
 10
-2.500000000000003
 20
-34.00000100000015
 30
0.0
 11
-112.5
 21
-34.00000100000015
 31
0.0
  0
INSERT
  5
2369
330
210B
100
AcDbEntity
  8
AM_5
100
AcDbBlockReference
  2
_OPEN30
 10
-0.0000000000000031
 20
-34.00000100000015
 30
0.0
 41
2.5
 42
2.5
 43
2.5
  0
INSERT
  5
236A
330
210B
100
AcDbEntity
  8
AM_5
100
AcDbBlockReference
  2
_OPEN30
 10
-115.0
 20
-34.00000100000015
 30
0.0
 41
2.5
 42
2.5
 43
2.5
 50
180.0
  0
MTEXT
  5
236B
330
210B
100
AcDbEntity
  8
AM_5
 62
     2
100
AcDbMText
 10
-57.5
 20
-30.90000100000015
 30
0.0
 40
3.2
 41
0.0
 71
     5
 72
     1
  1
115
  7
ASAMI
1001
ACAD
1000
MTEXTBEGIN
1070
    73
1070
     1
1070
    44
1040
1.0
1070
    74
1070
     0
1000
MTEXTEND
  0
POINT
  5
236C
330
210B
100
AcDbEntity
  8
DEFPOINTS
 62
     0
100
AcDbPoint
 10
-0.0000000000000015
 20
-8.000000000000014
 30
0.0
  0
POINT
  5
236D
330
210B
100
AcDbEntity
  8
DEFPOINTS
 62
     0
100
AcDbPoint
 10
-115.0
 20
-6.77270445993749
 30
0.0
  0
POINT
  5
236E
330
210B
100
AcDbEntity
  8
DEFPOINTS
 62
     0
100
AcDbPoint
 10
-115.0
 20
-34.00000100000015
 30
0.0
  0
ENDBLK
  5
2116
330
210B
100
AcDbEntity
  8
0
100
AcDbBlockEnd
  0
BLOCK
  5
22C1
330
22B5
100
AcDbEntity
  8
0
100
AcDbBlockBegin
  2
*D6
 70
     1
 10
0.0
 20
0.0
 30
0.0
  3
*D6
  1

  0
LINE
  5
2476
330
22B5
100
AcDbEntity
  8
AM_5
100
AcDbLine
 10
0.9999999999999982
 20
-8.00000000224016
 30
0.0
 11
19.36363736363634
 21
-8.000000002240165
 31
0.0
  0
LINE
  5
2477
330
22B5
100
AcDbEntity
  8
AM_5
100
AcDbLine
 10
1.000000000008148
 20
7.999999999999902
 30
0.0
 11
19.36363736363634
 21
7.999999999999896
 31
0.0
  0
LINE
  5
2478
330
22B5
100
AcDbEntity
  8
AM_5
100
AcDbLine
 10
18.36363736363633
 20
-10.50000000224016
 30
0.0
 11
18.36363736363633
 21
-13.00000000224016
 31
0.0
  0
LINE
  5
2479
330
22B5
100
AcDbEntity
  8
AM_5
100
AcDbLine
 10
18.36363736363634
 20
10.49999999999989
 30
0.0
 11
18.36363736363634
 21
12.99999999999989
 31
0.0
  0
LINE
  5
247A
330
22B5
100
AcDbEntity
  8
AM_5
100
AcDbLine
 10
18.36363736363633
 20
-8.000000002240165
 30
0.0
 11
18.36363736363634
 21
7.999999999999896
 31
0.0
  0
INSERT
  5
247B
330
22B5
100
AcDbEntity
  8
AM_5
100
AcDbBlockReference
  2
_OPEN30
 10
18.36363736363633
 20
-8.000000002240165
 30
0.0
 41
2.5
 42
2.5
 43
2.5
 50
90.0
  0
INSERT
  5
247C
330
22B5
100
AcDbEntity
  8
AM_5
100
AcDbBlockReference
  2
_OPEN30
 10
18.36363736363634
 20
7.999999999999896
 30
0.0
 41
2.5
 42
2.5
 43
2.5
 50
270.0
  0
MTEXT
  5
247D
330
22B5
100
AcDbEntity
  8
AM_5
 62
     2
100
AcDbMText
 10
15.26363736363634
 20
-0.6104961116642153
 30
0.0
 40
3.2
 41
0.0
 71
     5
 72
     1
  1
%%c16
  7
ASAMI
 11
0.0000000000000001
 21
1.0
 31
0.0
1001
ACAD
1000
MTEXTBEGIN
1070
    73
1070
     1
1070
    44
1040
1.0
1070
    74
1070
     0
1000
MTEXTEND
  0
POINT
  5
247E
330
22B5
100
AcDbEntity
  8
DEFPOINTS
 62
     0
100
AcDbPoint
 10
-0.0000000000000018
 20
-8.00000000224016
 30
0.0
  0
POINT
  5
247F
330
22B5
100
AcDbEntity
  8
DEFPOINTS
 62
     0
100
AcDbPoint
 10
0.0000000000081481
 20
7.999999999999902
 30
0.0
  0
POINT
  5
2480
330
22B5
100
AcDbEntity
  8
DEFPOINTS
 62
     0
100
AcDbPoint
 10
18.36363736363634
 20
7.999999999999896
 30
0.0
  0
ENDBLK
  5
22C2
330
22B5
100
AcDbEntity
  8
0
100
AcDbBlockEnd
  0
BLOCK
  5
22F9
330
22EF
100
AcDbEntity
  8
0
100
AcDbBlockBegin
  2
*D7
 70
     1
 10
0.0
 20
0.0
 30
0.0
  3
*D7
  1

  0
LINE
  5
246D
330
22EF
100
AcDbEntity
  8
AM_5
100
AcDbLine
 10
-0.0000000000000016
 20
-9.000000000000014
 30
0.0
 11
-0.0000000000000024
 21
-23.00000100000025
 31
0.0
  0
LINE
  5
246E
330
22EF
100
AcDbEntity
  8
AM_5
100
AcDbLine
 10
-32.00000450210835
 20
-9.000000000000014
 30
0.0
 11
-32.00000450210835
 21
-23.00000100000025
 31
0.0
  0
LINE
  5
246F
330
22EF
100
AcDbEntity
  8
AM_5
100
AcDbLine
 10
-2.500000000000002
 20
-22.00000100000025
 30
0.0
 11
-29.50000450210835
 21
-22.00000100000025
 31
0.0
  0
INSERT
  5
2470
330
22EF
100
AcDbEntity
  8
AM_5
100
AcDbBlockReference
  2
_OPEN30
 10
-0.0000000000000024
 20
-22.00000100000025
 30
0.0
 41
2.5
 42
2.5
 43
2.5
  0
INSERT
  5
2471
330
22EF
100
AcDbEntity
  8
AM_5
100
AcDbBlockReference
  2
_OPEN30
 10
-32.00000450210835
 20
-22.00000100000025
 30
0.0
 41
2.5
 42
2.5
 43
2.5
 50
180.0
  0
MTEXT
  5
2472
330
22EF
100
AcDbEntity
  8
AM_5
 62
     2
100
AcDbMText
 10
-16.00000225105417
 20
-18.90000100000025
 30
0.0
 40
3.2
 41
0.0
 71
     5
 72
     1
  1
32
  7
ASAMI
1001
ACAD
1000
MTEXTBEGIN
1070
    73
1070
     1
1070
    44
1040
1.0
1070
    74
1070
     0
1000
MTEXTEND
  0
POINT
  5
2473
330
22EF
100
AcDbEntity
  8
DEFPOINTS
 62
     0
100
AcDbPoint
 10
-0.0000000000000015
 20
-8.000000000000014
 30
0.0
  0
POINT
  5
2474
330
22EF
100
AcDbEntity
  8
DEFPOINTS
 62
     0
100
AcDbPoint
 10
-32.00000450210835
 20
-8.000000000000014
 30
0.0
  0
POINT
  5
2475
330
22EF
100
AcDbEntity
  8
DEFPOINTS
 62
     0
100
AcDbPoint
 10
-32.00000450210835
 20
-22.00000100000025
 30
0.0
  0
ENDBLK
  5
22FA
330
22EF
100
AcDbEntity
  8
0
100
AcDbBlockEnd
  0
BLOCK
  5
23E8
330
23DE
100
AcDbEntity
  8
0
100
AcDbBlockBegin
  2
*D8
 70
     1
 10
0.0
 20
0.0
 30
0.0
  3
*D8
  1

  0
LINE
  5
2464
330
23DE
100
AcDbEntity
  8
AM_5
100
AcDbLine
 10
-115.5
 20
-8.00000000000001
 30
0.0
 11
-132.9535519184122
 21
-8.000000000000003
 31
0.0
  0
LINE
  5
2465
330
23DE
100
AcDbEntity
  8
AM_5
100
AcDbLine
 10
-115.5
 20
7.999999999999968
 30
0.0
 11
-132.9535519184122
 21
7.999999999999972
 31
0.0
  0
LINE
  5
2466
330
23DE
100
AcDbEntity
  8
AM_5
100
AcDbLine
 10
-131.9535519184123
 20
-5.500000000000004
 30
0.0
 11
-131.9535519184123
 21
5.499999999999972
 31
0.0
  0
INSERT
  5
2467
330
23DE
100
AcDbEntity
  8
AM_5
100
AcDbBlockReference
  2
_OPEN30
 10
-131.9535519184123
 20
-8.000000000000005
 30
0.0
 41
2.5
 42
2.5
 43
2.5
 50
270.0
  0
INSERT
  5
2468
330
23DE
100
AcDbEntity
  8
AM_5
100
AcDbBlockReference
  2
_OPEN30
 10
-131.9535519184123
 20
7.999999999999972
 30
0.0
 41
2.5
 42
2.5
 43
2.5
 50
90.0
  0
MTEXT
  5
2469
330
23DE
100
AcDbEntity
  8
AM_5
 62
     2
100
AcDbMText
 10
-135.0535519184123
 20
-0.0000000000000368
 30
0.0
 40
3.2
 41
0.0
 71
     5
 72
     1
  1
%%c16
  7
ASAMI
 11
0.0000000000000001
 21
1.0
 31
0.0
1001
ACAD
1000
MTEXTBEGIN
1070
    73
1070
     1
1070
    44
1040
1.0
1070
    74
1070
     0
1000
MTEXTEND
  0
POINT
  5
246A
330
23DE
100
AcDbEntity
  8
DEFPOINTS
 62
     0
100
AcDbPoint
 10
-114.5
 20
-8.00000000000001
 30
0.0
  0
POINT
  5
246B
330
23DE
100
AcDbEntity
  8
DEFPOINTS
 62
     0
100
AcDbPoint
 10
-114.5
 20
7.999999999999968
 30
0.0
  0
POINT
  5
246C
330
23DE
100
AcDbEntity
  8
DEFPOINTS
 62
     0
100
AcDbPoint
 10
-131.9535519184123
 20
7.999999999999972
 30
0.0
  0
ENDBLK
  5
23E9
330
23DE
100
AcDbEntity
  8
0
100
AcDbBlockEnd
  0
ENDSEC
  0
SECTION
  2
ENTITIES
  0
TEXT
  5
F07
330
1F
100
AcDbEntity
  8
AM_6
100
AcDbText
 10
-81.07564441284999
 20
-56.48201757871928
 30
0.0
 40
5.0
  1
SSUP3160ZX
 72
     4
 11
-58.09945393665952
 21
-53.98201757871928
 31
0.0
100
AcDbText
  0
LINE
  5
20AE
330
1F
100
AcDbEntity
  8
AM_0
100
AcDbLine
 10
-114.5
 20
-8.00000000000001
 30
0.0
 11
-30.3660254037778
 21
-8.00000000000001
 31
0.0
  0
LINE
  5
20AF
330
1F
100
AcDbEntity
  8
AM_0
100
AcDbLine
 10
-31.84451876916893
 20
7.999999999999968
 30
0.0
 11
-114.5
 21
7.999999999999968
 31
0.0
  0
DIMENSION
  5
20B1
330
1F
100
AcDbEntity
  8
AM_5
100
AcDbDimension
  2
*D5
 10
-115.0
 20
-34.00000100000015
 30
0.0
 11
-57.5
 21
-30.90000100000015
 31
0.0
 70
    32
  1
<>
  3
AM_JIS
100
AcDbAlignedDimension
 13
-0.0000000000000015
 23
-8.000000000000014
 33
0.0
 14
-115.0
 24
-6.77270445993749
 34
0.0
 50
0.0000000000001341
100
AcDbRotatedDimension
1001
GENIUS_GENDTOL_13
1000

1000
h7
1000

1040
0.0
  0
LINE
  5
20B2
330
1F
100
AcDbEntity
  8
AM_0
100
AcDbLine
 10
-114.5
 20
7.999999999999968
 30
0.0
 11
-114.5
 21
-8.00000000000001
 31
0.0
  0
LINE
  5
20B3
330
1F
100
AcDbEntity
  8
AM_0
100
AcDbLine
 10
-115.0
 20
7.499999999999968
 30
0.0
 11
-115.0
 21
-7.500000000000011
 31
0.0
  0
LINE
  5
20B4
330
1F
100
AcDbEntity
  8
AM_0
100
AcDbLine
 10
-114.5
 20
-8.00000000000001
 30
0.0
 11
-115.0
 21
-7.500000000000011
 31
0.0
1001
GENIUS_GENFIL_13
1070
     0
1040
0.5
1040
0.5
1040
20.0
1040
0.0
1002
{
1002
}
1001
GENIUS_GENODEF_13
1002
{
1000
HIER
1070
     0
1002
}
1002
{
1000
MANEDIT
1070
     0
1002
}
1002
{
1000
NOSEL
1070
     0
1002
}
1002
{
1000
BEHIND
1070
     0
1002
}
1002
{
1000
REACTOR
1002
}
1001
GENIUS_GENOBJ-N-CHA_13
1002
{
1000
OWNER
1000
GEN
1002
}
  0
LINE
  5
20B5
330
1F
100
AcDbEntity
  8
AM_0
100
AcDbLine
 10
-114.5
 20
7.999999999999968
 30
0.0
 11
-114.5
 21
7.999999999999968
 31
0.0
  0
LINE
  5
20B6
330
1F
100
AcDbEntity
  8
AM_0
100
AcDbLine
 10
-114.5
 20
7.999999999999968
 30
0.0
 11
-115.0
 21
7.499999999999968
 31
0.0
1001
GENIUS_GENFIL_13
1070
     0
1040
0.5
1040
0.5
1040
20.0
1040
0.0
1002
{
1002
}
1001
GENIUS_GENODEF_13
1002
{
1000
HIER
1070
     0
1002
}
1002
{
1000
MANEDIT
1070
     0
1002
}
1002
{
1000
NOSEL
1070
     0
1002
}
1002
{
1000
BEHIND
1070
     0
1002
}
1002
{
1000
REACTOR
1002
}
1001
GENIUS_GENOBJ-N-CHA_13
1002
{
1000
OWNER
1000
GEN
1002
}
  0
LINE
  5
2291
330
1F
100
AcDbEntity
  8
AM_0
100
AcDbLine
 10
-4.438366172111628
 20
4.452936851802003
 30
0.0
 11
-3.615066779543745
 21
3.226646475796732
 31
0.0
  0
LINE
  5
2292
330
1F
100
AcDbEntity
  8
AM_0
100
AcDbLine
 10
-28.16395283549164
 20
4.339258066359532
 30
0.0
 11
-28.16395283548748
 21
5.590352011843296
 31
0.0
  0
LINE
  5
2293
330
1F
100
AcDbEntity
  8
AM_0
100
AcDbLine
 10
-0.000000000000001
 20
-0.1692837293816551
 30
0.0
 11
-0.1571496326814469
 21
-0.4033554217570922
 31
0.0
  0
LINE
  5
2294
330
1F
100
AcDbEntity
  8
AM_0
100
AcDbLine
 10
-0.1920269511506203
 20
-0.162651427889446
 30
0.0
 11
-0.000000000000001
 21
-1.487915413224087
 31
0.0
  0
LINE
  5
2295
330
1F
100
AcDbEntity
  8
AM_0
100
AcDbLine
 10
-0.000000000000001
 20
-4.084343343292689
 30
0.0
 11
-0.1920269511506203
 21
-2.438529442186532
 31
0.0
  0
LINE
  5
2296
330
1F
100
AcDbEntity
  8
AM_0
100
AcDbLine
 10
-0.3840539023018184
 20
-3.761599649057294
 30
0.0
 11
-0.000000000000001
 21
-4.084343343292689
 31
0.0
  0
LINE
  5
2297
330
1F
100
AcDbEntity
  8
AM_0
100
AcDbLine
 10
-0.000000000000001
 20
-1.487915413224087
 30
0.0
 11
-0.000000000000001
 21
-4.084343343292689
 31
0.0
  0
LINE
  5
2298
330
1F
100
AcDbEntity
  8
AM_0
100
AcDbLine
 10
-0.1920269511506203
 20
-2.438529442186532
 30
0.0
 11
-0.1920269511506203
 21
-0.162651427889446
 31
0.0
  0
LINE
  5
2299
330
1F
100
AcDbEntity
  8
AM_0
100
AcDbLine
 10
-0.6074031678400162
 20
-3.445882044390068
 30
0.0
 11
-3.414222432639532
 21
-2.993393950200712
 31
0.0
  0
LINE
  5
229A
330
1F
100
AcDbEntity
  8
AM_0
100
AcDbLine
 10
-0.1920269511506203
 20
-5.051512953473697
 30
0.0
 11
-0.960134755755417
 21
-6.721007263404148
 31
0.0
  0
LINE
  5
229B
330
1F
100
AcDbEntity
  8
AM_0
100
AcDbLine
 10
-0.000000000000001
 20
-4.084343343292689
 30
0.0
 11
-0.1920269511506203
 21
-5.051512953473697
 31
0.0
  0
LINE
  5
229C
330
1F
100
AcDbEntity
  8
AM_0
100
AcDbLine
 10
-0.000000000000001
 20
-4.084343343292689
 30
0.0
 11
-1.429294493681948
 21
-5.828715018906418
 31
0.0
  0
LINE
  5
229D
330
1F
100
AcDbEntity
  8
AM_11
100
AcDbLine
 10
0.0000000000081484
 20
-8.000000000000014
 30
0.0
 11
-0.000000000000001
 21
-4.084343343292689
 31
0.0
  0
LINE
  5
229E
330
1F
100
AcDbEntity
  8
AM_11
100
AcDbLine
 10
-32.00000450210835
 20
-8.000000000000014
 30
0.0
 11
0.0000000000081484
 21
-8.000000000000014
 31
0.0
  0
LINE
  5
229F
330
1F
100
AcDbEntity
  8
AM_0
100
AcDbLine
 10
-0.1920269511506203
 20
-0.162651427889446
 30
0.0
 11
-0.960134755755417
 21
3.469232779994998
 31
0.0
  0
LINE
  5
22A0
330
1F
100
AcDbEntity
  8
AM_0
100
AcDbLine
 10
-0.000000000000001
 20
-0.1692837293816551
 30
0.0
 11
-0.000000000000001
 21
7.999999999999961
 31
0.0
  0
LINE
  5
22A1
330
1F
100
AcDbEntity
  8
AM_0
100
AcDbLine
 10
-31.84451876916892
 20
7.999999999999961
 30
0.0
 11
-35.07692307691488
 21
7.999999999999961
 31
0.0
  0
LINE
  5
22A2
330
1F
100
AcDbEntity
  8
AM_11
100
AcDbLine
 10
-32.00000450210835
 20
-8.000000000000014
 30
0.0
 11
-32.00000450210835
 21
7.999999999999961
 31
0.0
  0
POLYLINE
  5
22A3
330
1F
100
AcDbEntity
  8
AM_0
100
AcDb2dPolyline
 66
     1
 10
0.0
 20
0.0
 30
0.0
 70
     2
  0
VERTEX
  5
22A4
330
22A3
100
AcDbEntity
  8
AM_0
100
AcDbVertex
100
AcDb2dVertex
 10
-28.16395283548407
 20
4.339258066355532
 30
0.0
 42
0.0163510200184555
  0
VERTEX
  5
22A5
330
22A3
100
AcDbEntity
  8
AM_0
100
AcDbVertex
100
AcDb2dVertex
 10
-29.67914971500711
 20
5.060271102158421
 30
0.0
 42
0.0236329905934865
 70
     1
  0
VERTEX
  5
22A6
330
22A3
100
AcDbEntity
  8
AM_0
100
AcDbVertex
100
AcDb2dVertex
 10
-30.75631667602706
 20
5.452992077843335
 30
0.0
 42
0.0136924015569504
  0
VERTEX
  5
22A7
330
22A3
100
AcDbEntity
  8
AM_0
100
AcDbVertex
100
AcDb2dVertex
 10
-33.37667003346216
 20
6.148271356856011
 30
0.0
 42
0.0437471596433213
 70
     1
  0
VERTEX
  5
22A8
330
22A3
100
AcDbEntity
  8
AM_0
100
AcDbVertex
100
AcDb2dVertex
 10
-34.21280179674319
 20
6.247186190142299
 30
0.0
 42
0.0737828887826182
  0
VERTEX
  5
22A9
330
22A3
100
AcDbEntity
  8
AM_0
100
AcDbVertex
100
AcDb2dVertex
 10
-34.95038864648309
 20
6.116933677636195
 30
0.0
 42
0.3022986902902931
 70
     1
  0
VERTEX
  5
22AA
330
22A3
100
AcDbEntity
  8
AM_0
100
AcDbVertex
100
AcDb2dVertex
 10
-35.07692307692307
 20
5.927646290956325
 30
0.0
 42
0.1640404297379002
  0
VERTEX
  5
22AB
330
22A3
100
AcDbEntity
  8
AM_0
100
AcDbVertex
100
AcDb2dVertex
 10
-35.0155879342037
 20
5.578799784238396
 30
0.0
 42
0.0324399100382136
 70
     1
  0
VERTEX
  5
22AC
330
22A3
100
AcDbEntity
  8
AM_0
100
AcDbVertex
100
AcDb2dVertex
 10
-34.21280179674319
 20
4.132023136308506
 30
0.0
 42
0.0076492520245086
  0
VERTEX
  5
22AD
330
22A3
100
AcDbEntity
  8
AM_0
100
AcDbVertex
100
AcDb2dVertex
 10
-33.17562914845872
 20
2.550185716236554
 30
0.0
 42
0.0033664759505265
 70
     1
  0
VERTEX
  5
22AE
330
22A3
100
AcDbEntity
  8
AM_0
100
AcDbVertex
100
AcDb2dVertex
 10
-30.7563166760237
 20
-0.978115773239247
 30
0.0
 42
0.0145714002245221
  0
VERTEX
  5
22AF
330
22A3
100
AcDbEntity
  8
AM_0
100
AcDbVertex
100
AcDb2dVertex
 10
-29.91805156035834
 20
-2.115405448530546
 30
0.0
 42
0.007325916991168
 70
     1
  0
VERTEX
  5
22B0
330
22A3
100
AcDbEntity
  8
AM_0
100
AcDbVertex
100
AcDb2dVertex
 10
-28.17336463379212
 20
-4.283757233869155
 30
0.0
  0
SEQEND
  5
22B1
330
22A3
100
AcDbEntity
  8
AM_0
  0
LINE
  5
22B2
330
1F
100
AcDbEntity
  8
AM_11
100
AcDbLine
 10
0.0000000000081484
 20
7.999999999999961
 30
0.0
 11
-32.00000450210835
 21
7.999999999999961
 31
0.0
  0
LINE
  5
22B3
330
1F
100
AcDbEntity
  8
AM_0
100
AcDbLine
 10
-28.12170690751489
 20
-8.000000000000014
 30
0.0
 11
-35.07692307691493
 21
-8.000000000000014
 31
0.0
  0
DIMENSION
  5
22B4
330
1F
100
AcDbEntity
  8
AM_5
100
AcDbDimension
  2
*D6
 10
18.36363736363634
 20
7.999999999999896
 30
0.0
 11
18.36363736363634
 21
-0.6104961116642157
 31
0.0
 70
   160
  1
%%c<>
  3
AM_JIS
100
AcDbAlignedDimension
 13
-0.0000000000000018
 23
-8.00000000224016
 33
0.0
 14
0.0000000000081481
 24
7.999999999999902
 34
0.0
 50
89.99999999574248
100
AcDbRotatedDimension
1001
GENIUS_GENDTOL_13
1000

1000
h7
1000

1040
0.0
  0
SPLINE
  5
22C3
330
1F
100
AcDbEntity
  8
AM_0
100
AcDbSpline
210
0.0
220
0.0
230
1.0
 70
     8
 71
     3
 72
     8
 73
     4
 74
     0
 42
0.0000000001
 43
0.0000000001
 40
0.0
 40
0.0
 40
0.0
 40
0.0
 40
8.272127900364923
 40
8.272127900364923
 40
8.272127900364923
 40
8.272127900364923
 10
-22.49702414459398
 20
7.999999999999961
 30
0.0
 10
-18.96708747739644
 20
7.999999999999961
 30
0.0
 10
-16.51386378404328
 20
4.000000000000007
 30
0.0
 10
-14.06064009069012
 20
-0.0000000000000141
 30
0.0
  0
SPLINE
  5
22C4
330
1F
100
AcDbEntity
  8
AM_0
100
AcDbSpline
210
0.0
220
0.0
230
1.0
 70
     8
 71
     3
 72
     8
 73
     4
 74
     0
 42
0.0000000001
 43
0.0000000001
 40
0.5179125576517913
 40
0.5179125576517913
 40
0.5179125576517913
 40
0.5179125576517913
 40
8.138271981564475
 40
8.138271981564475
 40
8.138271981564475
 40
8.138271981564475
 10
-20.59600669686785
 20
7.595029532978294
 30
0.0
 10
-17.45854847876383
 20
7.154227786000373
 30
0.0
 10
-15.13470340154313
 20
3.577113893000167
 30
0.0
 10
-12.81085832432242
 20
0.0000000000001678
 30
0.0
  0
SPLINE
  5
22C5
330
1F
100
AcDbEntity
  8
AM_0
100
AcDbSpline
210
0.0
220
0.0
230
1.0
 70
     8
 71
     3
 72
     8
 73
     4
 74
     0
 42
0.0000000001
 43
0.0000000001
 40
0.2299567350972117
 40
0.2299567350972117
 40
0.2299567350972117
 40
0.2299567350972117
 40
7.769701155129346
 40
7.769701155129346
 40
7.769701155129346
 40
7.769701155129346
 10
-17.48994021517891
 20
6.576779955730815
 30
0.0
 10
-14.31526391470397
 20
6.390443441422539
 30
0.0
 10
-11.83062062145824
 20
3.195221720711159
 30
0.0
 10
-9.3459773282131
 20
-0.0000000000000141
 30
0.0
  0
SPLINE
  5
22C6
330
1F
100
AcDbEntity
  8
AM_0
100
AcDbSpline
210
0.0
220
0.0
230
1.0
 70
     8
 71
     3
 72
     8
 73
     4
 74
     0
 42
0.0000000001
 43
0.0000000001
 40
0.6397612841816997
 40
0.6397612841816997
 40
0.6397612841816997
 40
0.6397612841816997
 40
7.939880490758838
 40
7.939880490758838
 40
7.939880490758838
 40
7.939880490758838
 10
-18.87740457923832
 20
7.018805166442651
 30
0.0
 10
-15.88511456366362
 20
6.515003456940901
 30
0.0
 10
-13.56438360678832
 20
3.257501728470523
 30
0.0
 10
-11.24365264991301
 20
0.0000000000001678
 30
0.0
  0
SPLINE
  5
22C7
330
1F
100
AcDbEntity
  8
AM_0
100
AcDbSpline
210
0.0
220
0.0
230
1.0
 70
     8
 71
     3
 72
     8
 73
     4
 74
     0
 42
0.0000000001
 43
0.0000000001
 40
0.0
 40
0.0
 40
0.0
 40
0.0
 40
3.655156164497277
 40
3.655156164497277
 40
3.655156164497277
 40
3.655156164497277
 10
-11.24851207229291
 20
7.999999999999961
 30
0.0
 10
-12.80826428173668
 20
8.000000000001236
 30
0.0
 10
-14.15779489074425
 20
7.219024547703665
 30
0.0
 10
-15.38999327288465
 20
6.00215864096659
 30
0.0
  0
SPLINE
  5
22C8
330
1F
100
AcDbEntity
  8
AM_0
100
AcDbSpline
210
0.0
220
0.0
230
1.0
 70
     8
 71
     3
 72
     8
 73
     4
 74
     0
 42
0.0000000001
 43
0.0000000001
 40
0.0
 40
0.0
 40
0.0
 40
0.0
 40
8.272127900365292
 40
8.272127900365292
 40
8.272127900365292
 40
8.272127900365292
 10
-5.62425603678567
 20
-8.000000000000195
 30
0.0
 10
-9.154192703983357
 20
-8.000000000000195
 30
0.0
 10
-11.60741639733673
 20
-4.000000000000196
 30
0.0
 10
-14.06064009069012
 20
-0.000000000000196
 30
0.0
  0
SPLINE
  5
22C9
330
1F
100
AcDbEntity
  8
AM_0
100
AcDbSpline
210
0.0
220
0.0
230
1.0
 70
     8
 71
     3
 72
     8
 73
     4
 74
     0
 42
0.0000000001
 43
0.0000000001
 40
0.0
 40
0.0
 40
0.0
 40
0.0
 40
1.981387939834528
 40
1.981387939834528
 40
1.981387939834528
 40
1.981387939834528
 10
-15.62298634271962
 20
-7.640460023163009
 30
0.0
 10
-14.77747548686648
 20
-7.640460023162827
 30
0.0
 10
-13.99070853659123
 20
-7.414014289545243
 30
0.0
 10
-13.24838338128373
 20
-7.016254531674726
 30
0.0
  0
SPLINE
  5
22CA
330
1F
100
AcDbEntity
  8
AM_0
100
AcDbSpline
210
0.0
220
0.0
230
1.0
 70
     8
 71
     3
 72
     8
 73
     4
 74
     0
 42
0.0000000001
 43
0.0000000001
 40
0.0
 40
0.0
 40
0.0
 40
0.0
 40
1.797818050668038
 40
1.797818050668038
 40
1.797818050668038
 40
1.797818050668038
 10
-14.05578066831021
 20
-7.085959472879053
 30
0.0
 10
-13.28860508661895
 20
-7.084315823363263
 30
0.0
 10
-12.56597818134743
 20
-6.901118686087115
 30
0.0
 10
-11.87781284668816
 20
-6.577477009458939
 30
0.0
  0
SPLINE
  5
22CB
330
1F
100
AcDbEntity
  8
AM_0
100
AcDbSpline
210
0.0
220
0.0
230
1.0
 70
     8
 71
     3
 72
     8
 73
     4
 74
     0
 42
0.0000000001
 43
0.0000000001
 40
0.0
 40
0.0
 40
0.0
 40
0.0
 40
7.769701155129467
 40
7.769701155129467
 40
7.769701155129467
 40
7.769701155129467
 10
-12.1581053466103
 20
-6.585347330433628
 30
0.0
 10
-15.47364317810932
 20
-6.585347330433628
 30
0.0
 10
-18.03406628931203
 20
-3.292673665216912
 30
0.0
 10
-20.59448940051475
 20
-0.000000000000196
 30
0.0
  0
SPLINE
  5
22CC
330
1F
100
AcDbEntity
  8
AM_0
100
AcDbSpline
210
0.0
220
0.0
230
1.0
 70
     8
 71
     3
 72
     8
 73
     4
 74
     0
 42
0.0000000001
 43
0.0000000001
 40
0.0
 40
0.0
 40
0.0
 40
0.0
 40
7.939880490758586
 40
7.939880490758586
 40
7.939880490758586
 40
7.939880490758586
 10
-14.05578066831021
 20
-7.085959472879235
 30
0.0
 10
-17.44393854196431
 20
-7.085959472879235
 30
0.0
 10
-19.9680516320892
 20
-3.542979736439715
 30
0.0
 10
-22.49216472221408
 20
-0.000000000000196
 30
0.0
  0
SPLINE
  5
22CD
330
1F
100
AcDbEntity
  8
AM_0
100
AcDbSpline
210
0.0
220
0.0
230
1.0
 70
     8
 71
     3
 72
     8
 73
     4
 74
     0
 42
0.0000000001
 43
0.0000000001
 40
0.0
 40
0.0
 40
0.0
 40
0.0
 40
8.138271981564608
 40
8.138271981564608
 40
8.138271981564608
 40
8.138271981564608
 10
-15.62298634271962
 20
-7.640460023163009
 30
0.0
 10
-19.09580313440436
 20
-7.640460023163009
 30
0.0
 10
-21.57758676551421
 20
-3.820230011581602
 30
0.0
 10
-24.05937039662407
 20
-0.000000000000196
 30
0.0
  0
SPLINE
  5
22CE
330
1F
100
AcDbEntity
  8
AM_0
100
AcDbSpline
210
0.0
220
0.0
230
1.0
 70
     8
 71
     3
 72
     8
 73
     4
 74
     0
 42
0.0000000001
 43
0.0000000001
 40
0.0
 40
0.0
 40
0.0
 40
0.0
 40
1.570112951298052
 40
1.570112951298052
 40
1.570112951298052
 40
1.570112951298052
 10
-16.87276810908732
 20
-8.000000000000195
 30
0.0
 10
-16.20275921353021
 20
-8.000000000000195
 30
0.0
 10
-15.5715409858075
 20
-7.855892261814565
 30
0.0
 10
-14.97175066138098
 20
-7.595029532987077
 30
0.0
  0
SPLINE
  5
22CF
330
1F
100
AcDbEntity
  8
AM_0
100
AcDbSpline
210
0.0
220
0.0
230
1.0
 70
     8
 71
     3
 72
     8
 73
     4
 74
     0
 42
0.0000000001
 43
0.0000000001
 40
0.1383879590723462
 40
0.1383879590723462
 40
0.1383879590723462
 40
0.1383879590723462
 40
7.769701155129346
 40
7.769701155129346
 40
7.769701155129346
 40
7.769701155129346
 10
-1.086040335570401
 20
-6.582232231821958
 30
0.0
 10
-4.316339691993454
 20
-6.46805417350953
 30
0.0
 10
-6.831158510102984
 20
-3.234027086754772
 30
0.0
 10
-9.3459773282131
 20
-0.000000000000196
 30
0.0
  0
SPLINE
  5
22D0
330
1F
100
AcDbEntity
  8
AM_0
100
AcDbSpline
210
0.0
220
0.0
230
1.0
 70
     8
 71
     3
 72
     8
 73
     4
 74
     0
 42
0.0000000001
 43
0.0000000001
 40
0.0
 40
0.0
 40
0.0
 40
0.0
 40
7.939880490758586
 40
7.939880490758586
 40
7.939880490758586
 40
7.939880490758586
 10
-2.807268596008573
 20
-7.085959472879235
 30
0.0
 10
-6.195426469662659
 20
-7.085959472879235
 30
0.0
 10
-8.71953955978755
 20
-3.542979736439715
 30
0.0
 10
-11.24365264991243
 20
-0.000000000000196
 30
0.0
  0
SPLINE
  5
22D1
330
1F
100
AcDbEntity
  8
AM_0
100
AcDbSpline
210
0.0
220
0.0
230
1.0
 70
     8
 71
     3
 72
     8
 73
     4
 74
     0
 42
0.0000000001
 43
0.0000000001
 40
0.0
 40
0.0
 40
0.0
 40
0.0
 40
8.138271981564608
 40
8.138271981564608
 40
8.138271981564608
 40
8.138271981564608
 10
-4.374474270417971
 20
-7.640460023163009
 30
0.0
 10
-7.847291062102723
 20
-7.640460023163009
 30
0.0
 10
-10.32907469321257
 20
-3.820230011581602
 30
0.0
 10
-12.81085832432242
 20
-0.000000000000196
 30
0.0
  0
SPLINE
  5
22D2
330
1F
100
AcDbEntity
  8
AM_0
100
AcDbSpline
210
0.0
220
0.0
230
1.0
 70
     8
 71
     3
 72
    10
 73
     6
 74
     0
 42
0.0000000001
 43
0.0000000001
 40
0.0
 40
0.0
 40
0.0
 40
0.0
 40
1.624816058741878
 40
2.635428435777873
 40
3.678161543961334
 40
3.678161543961334
 40
3.678161543961334
 40
3.678161543961334
 10
-1.429294493681948
 20
-5.828715018906055
 30
0.0
 10
-2.100079814021022
 20
-5.609427688906944
 30
0.0
 10
-3.000563275377762
 20
-5.298263129423653
 30
0.0
 10
-5.005619416682033
 20
-4.224248874942113
 30
0.0
 10
-3.85552837929903
 20
-2.922250898967368
 30
0.0
 10
-3.414222432639532
 20
-2.993393950200712
 30
0.0
  0
SPLINE
  5
22D3
330
1F
100
AcDbEntity
  8
AM_0
100
AcDbSpline
210
0.0
220
0.0
230
1.0
 70
     8
 71
     3
 72
     8
 73
     4
 74
     0
 42
0.0000000001
 43
0.0000000001
 40
0.0
 40
0.0
 40
0.0
 40
0.0
 40
1.973247866266529
 40
1.973247866266529
 40
1.973247866266529
 40
1.973247866266529
 10
-12.1581053466103
 20
-6.585347330433628
 30
0.0
 10
-11.31606807633362
 20
-6.585347330433628
 30
0.0
 10
-10.52273513797105
 20
-6.372972353804666
 30
0.0
 10
-9.765737237374498
 20
-6.002158640965185
 30
0.0
  0
SPLINE
  5
22D4
330
1F
100
AcDbEntity
  8
AM_0
100
AcDbSpline
210
0.0
220
0.0
230
1.0
 70
     8
 71
     3
 72
     8
 73
     4
 74
     0
 42
0.0000000001
 43
0.0000000001
 40
0.0
 40
0.0
 40
0.0
 40
0.0
 40
1.570112951298052
 40
1.570112951298052
 40
1.570112951298052
 40
1.570112951298052
 10
-5.62425603678567
 20
-8.000000000000195
 30
0.0
 10
-4.954247141228557
 20
-8.000000000000195
 30
0.0
 10
-4.323028913505858
 20
-7.855892261814565
 30
0.0
 10
-3.723238589079331
 20
-7.595029532987077
 30
0.0
  0
SPLINE
  5
22D5
330
1F
100
AcDbEntity
  8
AM_0
100
AcDbSpline
210
0.0
220
0.0
230
1.0
 70
     8
 71
     3
 72
     8
 73
     4
 74
     0
 42
0.0000000001
 43
0.0000000001
 40
0.0
 40
0.0
 40
0.0
 40
0.0
 40
1.981387939834528
 40
1.981387939834528
 40
1.981387939834528
 40
1.981387939834528
 10
-4.374474270417971
 20
-7.640460023163009
 30
0.0
 10
-3.528963414564823
 20
-7.640460023162827
 30
0.0
 10
-2.742196464289591
 20
-7.414014289545243
 30
0.0
 10
-1.999871308982084
 20
-7.016254531674726
 30
0.0
  0
SPLINE
  5
22D6
330
1F
100
AcDbEntity
  8
AM_0
100
AcDbSpline
210
0.0
220
0.0
230
1.0
 70
     8
 71
     3
 72
     8
 73
     4
 74
     0
 42
0.0000000001
 43
0.0000000001
 40
0.0
 40
0.0
 40
0.0
 40
0.0
 40
1.512029330426235
 40
1.512029330426235
 40
1.512029330426235
 40
1.512029330426235
 10
-2.807268596008573
 20
-7.085959472879053
 30
0.0
 10
-2.162046472072
 20
-7.084577104804534
 30
0.0
 10
-1.548335462621069
 20
-6.954774473819465
 30
0.0
 10
-0.960134755755417
 20
-6.721007263402329
 30
0.0
  0
SPLINE
  5
22D7
330
1F
100
AcDbEntity
  8
AM_0
100
AcDbSpline
210
0.0
220
0.0
230
1.0
 70
     8
 71
     3
 72
     8
 73
     4
 74
     0
 42
0.0000000001
 43
0.0000000001
 40
0.0
 40
0.0
 40
0.0
 40
0.0
 40
0.0092824582075338
 40
0.0092824582075338
 40
0.0092824582075338
 40
0.0092824582075338
 10
-0.9095932743092319
 20
-6.585347330433628
 30
0.0
 10
-0.9056322028671228
 20
-6.585347330433628
 30
0.0
 10
-0.9016722092061392
 20
-6.585342630777462
 30
0.0
 10
-0.897713292037379
 20
-6.585333237080171
 30
0.0
  0
SPLINE
  5
22D8
330
1F
100
AcDbEntity
  8
AM_0
100
AcDbSpline
210
0.0
220
0.0
230
1.0
 70
     8
 71
     3
 72
     8
 73
     4
 74
     0
 42
0.0000000001
 43
0.0000000001
 40
0.6397612841816997
 40
0.6397612841816997
 40
0.6397612841816997
 40
0.6397612841816997
 40
6.972227720174165
 40
6.972227720174165
 40
6.972227720174165
 40
6.972227720174165
 10
-7.628892506937265
 20
7.018805166442651
 30
0.0
 10
-5.033239538241623
 20
6.581783889729703
 30
0.0
 10
-2.942910774012321
 20
4.072701707280574
 30
0.0
 10
-0.9195642538614114
 20
1.288961615896718
 30
0.0
  0
SPLINE
  5
22D9
330
1F
100
AcDbEntity
  8
AM_0
100
AcDbSpline
210
0.0
220
0.0
230
1.0
 70
     8
 71
     3
 72
     8
 73
     4
 74
     0
 42
0.0000000001
 43
0.0000000001
 40
0.5179125576517913
 40
0.5179125576517913
 40
0.5179125576517913
 40
0.5179125576517913
 40
8.138271981564475
 40
8.138271981564475
 40
8.138271981564475
 40
8.138271981564475
 10
-9.347494624566788
 20
7.595029532978294
 30
0.0
 10
-6.210036406462181
 20
7.154227786000373
 30
0.0
 10
-3.886191329241475
 20
3.577113893000167
 30
0.0
 10
-1.562346252021352
 20
0.0000000000001678
 30
0.0
  0
SPLINE
  5
22DA
330
1F
100
AcDbEntity
  8
AM_0
100
AcDbSpline
210
0.0
220
0.0
230
1.0
 70
     8
 71
     3
 72
     8
 73
     4
 74
     0
 42
0.0000000001
 43
0.0000000001
 40
0.0
 40
0.0
 40
0.0
 40
0.0
 40
8.272127900365285
 40
8.272127900365285
 40
8.272127900365285
 40
8.272127900365285
 10
-11.24851207229291
 20
7.999999999999961
 30
0.0
 10
-7.718575405095228
 20
7.999999999999961
 30
0.0
 10
-5.265351711741851
 20
3.999999999999962
 30
0.0
 10
-2.812128018388467
 20
-0.0000000000000141
 30
0.0
  0
SPLINE
  5
22DB
330
1F
100
AcDbEntity
  8
AM_0
100
AcDbSpline
210
0.0
220
0.0
230
1.0
 70
     8
 71
     3
 72
     8
 73
     4
 74
     0
 42
0.0000000001
 43
0.0000000001
 40
0.0
 40
0.0
 40
0.0
 40
0.0
 40
3.655156164497277
 40
3.655156164497277
 40
3.655156164497277
 40
3.655156164497277
 10
0.0000000000081484
 20
7.999999999999961
 30
0.0
 10
-1.559752209435037
 20
8.000000000001236
 30
0.0
 10
-2.909282818443184
 20
7.219024547703665
 30
0.0
 10
-4.14148120058359
 20
6.00215864096659
 30
0.0
  0
SPLINE
  5
22DC
330
1F
100
AcDbEntity
  8
AM_0
100
AcDbSpline
210
0.0
220
0.0
230
1.0
 70
     8
 71
     3
 72
     8
 73
     4
 74
     0
 42
0.0000000001
 43
0.0000000001
 40
0.2299567350972117
 40
0.2299567350972117
 40
0.2299567350972117
 40
0.2299567350972117
 40
4.912075065647881
 40
4.912075065647881
 40
4.912075065647881
 40
4.912075065647881
 10
-6.241428142877267
 20
6.576779955730815
 30
0.0
 10
-4.269980667744809
 20
6.461066536191501
 30
0.0
 10
-2.564631055768963
 20
5.185034819528807
 30
0.0
 10
-0.960134755755417
 20
3.469232779994998
 30
0.0
  0
SPLINE
  5
22DD
330
1F
100
AcDbEntity
  8
AM_0
100
AcDbSpline
210
0.0
220
0.0
230
1.0
 70
     8
 71
     3
 72
     8
 73
     4
 74
     0
 42
0.0000000001
 43
0.0000000001
 40
0.0
 40
0.0
 40
0.0
 40
0.0
 40
3.860109074512531
 40
3.860109074512531
 40
3.860109074512531
 40
3.860109074512531
 10
-0.3840539023012355
 20
7.984059636754098
 30
0.0
 10
-0.0643596224604448
 20
5.964480877893001
 30
0.0
 10
-2.791155112804463
 20
4.452936851802003
 30
0.0
 10
-4.438366172113956
 20
4.452936851802003
 30
0.0
  0
SPLINE
  5
22DE
330
1F
100
AcDbEntity
  8
AM_0
100
AcDbSpline
210
0.0
220
0.0
230
1.0
 70
     8
 71
     3
 72
     8
 73
     4
 74
     0
 42
0.0000000001
 43
0.0000000001
 40
6.850968446318445
 40
6.850968446318445
 40
6.850968446318445
 40
6.850968446318445
 40
8.138271981564475
 40
8.138271981564475
 40
8.138271981564475
 40
8.138271981564475
 10
-0.3807260227566875
 20
-1.797720780303839
 30
0.0
 10
-0.77721426103358
 20
-1.208560149010204
 30
0.0
 10
-1.169780256527466
 20
-0.6042800745052004
 30
0.0
 10
-1.562346252021352
 20
-0.000000000000196
 30
0.0
  0
SPLINE
  5
22DF
330
1F
100
AcDbEntity
  8
AM_0
100
AcDbSpline
210
0.0
220
0.0
230
1.0
 70
     8
 71
     3
 72
     8
 73
     4
 74
     0
 42
0.0000000001
 43
0.0000000001
 40
5.58452476840911
 40
5.58452476840911
 40
5.58452476840911
 40
5.58452476840911
 40
8.27212790036518
 40
8.27212790036518
 40
8.27212790036518
 40
8.27212790036518
 10
-0.3840539023012355
 20
-3.761599649056565
 30
0.0
 10
-1.218029919070708
 20
-2.59918914632582
 30
0.0
 10
-2.015078968729589
 20
-1.299594573163099
 30
0.0
 10
-2.812128018388467
 20
-0.000000000000196
 30
0.0
  0
SPLINE
  5
22E0
330
1F
100
AcDbEntity
  8
AM_0
100
AcDbSpline
210
0.0
220
0.0
230
1.0
 70
     8
 71
     3
 72
     8
 73
     4
 74
     0
 42
0.0000000001
 43
0.0000000001
 40
0.0
 40
0.0
 40
0.0
 40
0.0
 40
3.655156164497277
 40
3.655156164497277
 40
3.655156164497277
 40
3.655156164497277
 10
-22.49702414459398
 20
7.999999999999961
 30
0.0
 10
-24.05677635403776
 20
8.000000000001236
 30
0.0
 10
-25.40630696304532
 20
7.219024547703665
 30
0.0
 10
-26.63850534518572
 20
6.00215864096659
 30
0.0
  0
SPLINE
  5
22E1
330
1F
100
AcDbEntity
  8
AM_0
100
AcDbSpline
210
0.0
220
0.0
230
1.0
 70
     8
 71
     3
 72
     8
 73
     4
 74
     0
 42
0.0000000001
 43
0.0000000001
 40
0.0
 40
0.0
 40
0.0
 40
0.0
 40
8.27212790036493
 40
8.27212790036493
 40
8.27212790036493
 40
8.27212790036493
 10
-16.87276810908732
 20
-8.000000000000195
 30
0.0
 10
-20.40270477628485
 20
-8.000000000000195
 30
0.0
 10
-22.85592846963802
 20
-4.000000000000173
 30
0.0
 10
-25.30915216299119
 20
-0.000000000000196
 30
0.0
  0
SPLINE
  5
22E2
330
1F
100
AcDbEntity
  8
AM_0
100
AcDbSpline
210
0.0
220
0.0
230
1.0
 70
     8
 71
     3
 72
     8
 73
     4
 74
     0
 42
0.0000000001
 43
0.0000000001
 40
0.0
 40
0.0
 40
0.0
 40
0.0
 40
1.570112951298052
 40
1.570112951298052
 40
1.570112951298052
 40
1.570112951298052
 10
-28.12213363364659
 20
-8.000000000000195
 30
0.0
 10
-27.45212473808949
 20
-8.000000000000195
 30
0.0
 10
-26.82090651036677
 20
-7.855892261814565
 30
0.0
 10
-26.22111618594026
 20
-7.595029532987077
 30
0.0
  0
SPLINE
  5
22E3
330
1F
100
AcDbEntity
  8
AM_0
100
AcDbSpline
210
0.0
220
0.0
230
1.0
 70
     8
 71
     3
 72
     8
 73
     4
 74
     0
 42
0.0000000001
 43
0.0000000001
 40
0.1383879590723462
 40
0.1383879590723462
 40
0.1383879590723462
 40
0.1383879590723462
 40
4.12619780763684
 40
4.12619780763684
 40
4.12619780763684
 40
4.12619780763684
 10
-23.58391793243132
 20
-6.582232231821958
 30
0.0
 10
-25.27193928031825
 20
-6.522567482947069
 30
0.0
 10
-26.76458600532503
 20
-5.610972744737059
 30
0.0
 10
-28.16395283548406
 20
-4.292631528139136
 30
0.0
  0
SPLINE
  5
22E4
330
1F
100
AcDbEntity
  8
AM_0
100
AcDbSpline
210
0.0
220
0.0
230
1.0
 70
     8
 71
     3
 72
     8
 73
     4
 74
     0
 42
0.0000000001
 43
0.0000000001
 40
0.0
 40
0.0
 40
0.0
 40
0.0
 40
1.973247866266529
 40
1.973247866266529
 40
1.973247866266529
 40
1.973247866266529
 10
-23.40704414504077
 20
-6.585347330433628
 30
0.0
 10
-22.56500687476409
 20
-6.585347330433628
 30
0.0
 10
-21.77167393640151
 20
-6.372972353804666
 30
0.0
 10
-21.01467603580495
 20
-6.002158640965185
 30
0.0
  0
SPLINE
  5
22E5
330
1F
100
AcDbEntity
  8
AM_0
100
AcDbSpline
210
0.0
220
0.0
230
1.0
 70
     8
 71
     3
 72
     8
 73
     4
 74
     0
 42
0.0000000001
 43
0.0000000001
 40
0.0
 40
0.0
 40
0.0
 40
0.0
 40
1.570112951298052
 40
1.570112951298052
 40
1.570112951298052
 40
1.570112951298052
 10
-28.12170690751779
 20
-8.000000000000195
 30
0.0
 10
-27.45169801196068
 20
-8.000000000000195
 30
0.0
 10
-26.82047978423796
 20
-7.855892261814565
 30
0.0
 10
-26.22068945981144
 20
-7.595029532987077
 30
0.0
  0
SPLINE
  5
22E6
330
1F
100
AcDbEntity
  8
AM_0
100
AcDbSpline
210
0.0
220
0.0
230
1.0
 70
     8
 71
     3
 72
     8
 73
     4
 74
     0
 42
0.0000000001
 43
0.0000000001
 40
0.6432030004477055
 40
0.6432030004477055
 40
0.6432030004477055
 40
0.6432030004477055
 40
1.797818050668038
 40
1.797818050668038
 40
1.797818050668038
 40
1.797818050668038
 10
-24.49794982390523
 20
-7.016362184745812
 30
0.0
 10
-24.02488835629473
 20
-6.935254744596331
 30
0.0
 10
-23.56871297270806
 20
-6.785329828922263
 30
0.0
 10
-23.12675164511862
 20
-6.577477009458939
 30
0.0
  0
SPLINE
  5
22E7
330
1F
100
AcDbEntity
  8
AM_0
100
AcDbSpline
210
0.0
220
0.0
230
1.0
 70
     8
 71
     3
 72
     8
 73
     4
 74
     0
 42
0.0000000001
 43
0.0000000001
 40
0.5179125576349786
 40
0.5179125576349786
 40
0.5179125576349786
 40
0.5179125576349786
 40
1.981387939834528
 40
1.981387939834528
 40
1.981387939834528
 40
1.981387939834528
 10
-26.22068945981196
 20
-7.595029532981279
 30
0.0
 10
-25.61814663873824
 20
-7.510374404630161
 30
0.0
 10
-25.04561187530542
 20
-7.310044355449362
 30
0.0
 10
-24.49732217971419
 20
-7.016254531674726
 30
0.0
  0
SPLINE
  5
22E8
330
1F
100
AcDbEntity
  8
AM_0
100
AcDbSpline
210
0.0
220
0.0
230
1.0
 70
     8
 71
     3
 72
     8
 73
     4
 74
     0
 42
0.0000000001
 43
0.0000000001
 40
5.129729518825886
 40
5.129729518825886
 40
5.129729518825886
 40
5.129729518825886
 40
8.272127900365292
 40
8.272127900365292
 40
8.272127900365292
 40
8.272127900365292
 10
-28.16395283549164
 20
4.339258066359532
 30
0.0
 10
-27.17300297777546
 20
3.039023012592096
 30
0.0
 10
-26.24107757038332
 20
1.519511506296029
 30
0.0
 10
-25.30915216299119
 20
-0.0000000000000141
 30
0.0
  0
SPLINE
  5
22E9
330
1F
100
AcDbEntity
  8
AM_0
100
AcDbSpline
210
0.0
220
0.0
230
1.0
 70
     8
 71
     3
 72
     8
 73
     4
 74
     0
 42
0.0000000001
 43
0.0000000001
 40
0.5179125576517913
 40
0.5179125576517913
 40
0.5179125576517913
 40
0.5179125576517913
 40
8.138271981564475
 40
8.138271981564475
 40
8.138271981564475
 40
8.138271981564475
 10
-31.84451876916892
 20
7.999999999999961
 30
0.0
 10
-28.70706055106489
 20
7.154227786000373
 30
0.0
 10
-26.38321547384477
 20
3.577113893000167
 30
0.0
 10
-24.05937039662407
 20
0.0000000000001678
 30
0.0
  0
SPLINE
  5
22EA
330
1F
100
AcDbEntity
  8
AM_0
100
AcDbSpline
210
0.0
220
0.0
230
1.0
 70
     8
 71
     3
 72
     8
 73
     4
 74
     0
 42
0.0000000001
 43
0.0000000001
 40
0.6397612841816997
 40
0.6397612841816997
 40
0.6397612841816997
 40
0.6397612841816997
 40
7.939880490758838
 40
7.939880490758838
 40
7.939880490758838
 40
7.939880490758838
 10
-30.12591665153939
 20
7.232836155137381
 30
0.0
 10
-27.13362663596527
 20
6.515003456940901
 30
0.0
 10
-24.81289567908939
 20
3.257501728470523
 30
0.0
 10
-22.49216472221466
 20
0.0000000000001678
 30
0.0
  0
SPLINE
  5
22EB
330
1F
100
AcDbEntity
  8
AM_0
100
AcDbSpline
210
0.0
220
0.0
230
1.0
 70
     8
 71
     3
 72
     8
 73
     4
 74
     0
 42
0.0000000001
 43
0.0000000001
 40
0.2299567350972117
 40
0.2299567350972117
 40
0.2299567350972117
 40
0.2299567350972117
 40
7.769701155129346
 40
7.769701155129346
 40
7.769701155129346
 40
7.769701155129346
 10
-28.73845228748057
 20
6.703637509186917
 30
0.0
 10
-25.56377598700504
 20
6.390443441422539
 30
0.0
 10
-23.07913269375931
 20
3.195221720711159
 30
0.0
 10
-20.59448940051475
 20
-0.0000000000000141
 30
0.0
  0
ELLIPSE
  5
22EC
330
1F
100
AcDbEntity
  8
AM_0
100
AcDbEllipse
 10
-0.1542610858781711
 20
-5.420317161897437
 30
0.0
 11
0.0000000000000199
 21
1.64506778046445
 31
0.0
210
0.0
220
0.0
230
1.0
 40
0.8001122964628535
 41
1.821675747739263
 42
2.482683360922197
  0
ELLIPSE
  5
22ED
330
1F
100
AcDbEntity
  8
AM_0
100
AcDbEllipse
 10
10.19418229865405
 20
2.702728438224366
 30
0.0
 11
0.0000000000000604
 21
13.96199558894982
 31
0.0
210
0.0
220
0.0
230
1.0
 40
0.8001122964628516
 41
1.51586937221067
 42
1.947903343241004
  0
DIMENSION
  5
22EE
330
1F
100
AcDbEntity
  8
AM_5
100
AcDbDimension
  2
*D7
 10
-32.00000450210835
 20
-22.00000100000025
 30
0.0
 11
-16.00000225105417
 21
-18.90000100000025
 31
0.0
 70
    32
  1
<>
  3
AM_JIS
100
AcDbAlignedDimension
 13
-0.0000000000000015
 23
-8.000000000000014
 33
0.0
 14
-32.00000450210835
 24
-8.000000000000014
 34
0.0
 50
0.0000000000001245
100
AcDbRotatedDimension
1001
GENIUS_GENDTOL_13
1000

1000
h7
1000

1040
0.0
  0
LINE
  5
22FB
330
1F
100
AcDbEntity
  8
AM_7
100
AcDbLine
 10
-117.9535509184123
 20
-0.0000000000000131
 30
0.0
 11
4.363636363636364
 21
-0.0000000000000225
 31
0.0
1001
GENIUS_GENODEF_13
1002
{
1000
HIER
1070
     0
1002
}
1002
{
1000
MANEDIT
1070
     0
1002
}
1002
{
1000
NOSEL
1070
     0
1002
}
1002
{
1000
BEHIND
1070
     0
1002
}
1002
{
1000
REACTOR
1002
}
1001
GENIUS_GENOBJ-N-CEN_13
1002
{
1000
OWNER
1000
GEN
1002
}
  0
LINE
  5
234F
330
1F
100
AcDbEntity
  8
AM_11
100
AcDbLine
 10
0.0000000000081499
 20
-8.000000000000014
 30
0.0
 11
0.0000000000081484
 21
7.999999999999961
 31
0.0
  0
DIMENSION
  5
23DD
330
1F
100
AcDbEntity
  8
AM_5
100
AcDbDimension
  2
*D8
 10
-131.9535519184123
 20
7.999999999999972
 30
0.0
 11
-135.0535519184123
 21
-0.0000000000000368
 31
0.0
 70
    32
  1
%%c<>
  3
AM_JIS
100
AcDbAlignedDimension
 13
-114.5
 23
-8.00000000000001
 33
0.0
 14
-114.5
 24
7.999999999999968
 34
0.0
 50
270.0
100
AcDbRotatedDimension
1001
GENIUS_GENDTOL_13
1000

1000
h7
1000

1040
0.0
  0
VIEWPORT
  5
110
330
101
100
AcDbEntity
 67
     1
  8
0
100
AcDbViewport
 10
420.5
 20
297.0
 30
0.0
 40
948.9782706766916
 41
628.452
 68
     1
 69
     1
1001
ACAD
1000
MVIEW
1002
{
1070
    16
1010
0.0
1020
0.0
1030
0.0
1010
0.0
1020
0.0
1030
1.0
1040
0.0
1040
628.452
1040
420.5
1040
297.0
1040
50.0
1040
0.0
1040
0.0
1070
     0
1070
   100
1070
     1
1070
     1
1070
     0
1070
     0
1070
     0
1070
     0
1040
0.0
1040
0.0
1040
0.0
1040
10.0
1040
10.0
1040
10.0
1040
10.0
1070
     0
1002
{
1002
}
1002
}
  0
ENDSEC
  0
SECTION
  2
OBJECTS
  0
DICTIONARY
  5
C
330
0
100
AcDbDictionary
  3
ACAD_GROUP
350
D
  3
ACAD_LAYOUT
350
1A
  3
ACAD_MLINESTYLE
350
17
  3
ACAD_PLOTSETTINGS
350
19
  3
ACAD_PLOTSTYLENAME
350
E
  3
ACDBVARIABLEDICTIONARY
350
34
  3
ACMDICTIONARY
350
43
  3
AMG
350
2B
  3
AMGSNAPSETTINGS
350
6E
  3
DWGPROPS
350
2490
  3
ACDBHEADERROUNDTRIPXREC
350
249C
  0
DICTIONARY
  5
74
330
1F
100
AcDbDictionary
280
     1
  3
ACAD_INDEX
360
2492
  3
ACAD_LAYOUTSELFREF
360
24BF
  0
DICTIONARY
  5
24C4
330
101
100
AcDbDictionary
280
     1
  3
ACAD_LAYOUTSELFREF
360
24C5
  0
DICTIONARY
  5
D
102
{ACAD_REACTORS
330
C
102
}
330
C
100
AcDbDictionary
  0
DICTIONARY
  5
1A
102
{ACAD_REACTORS
330
C
102
}
330
C
100
AcDbDictionary
  0
DICTIONARY
  5
17
102
{ACAD_REACTORS
330
C
102
}
330
C
100
AcDbDictionary
  3
STANDARD
350
18
  0
DICTIONARY
  5
19
102
{ACAD_REACTORS
330
C
102
}
330
C
100
AcDbDictionary
  0
ACDBDICTIONARYWDFLT
  5
E
102
{ACAD_REACTORS
330
C
102
}
330
C
100
AcDbDictionary
281
     1
  3
Normal
350
F
100
AcDbDictionaryWithDefault
340
F
  0
DICTIONARY
  5
34
102
{ACAD_REACTORS
330
C
102
}
330
C
100
AcDbDictionary
  3
INDEXCTL
350
35
  3
SORTENTS
350
B5E
  0
DICTIONARY
  5
43
102
{ACAD_REACTORS
330
C
102
}
330
C
100
AcDbDictionary
  3
ACMSTDDICTIONARY
350
260
  0
DICTIONARY
  5
2B
102
{ACAD_REACTORS
330
C
102
}
330
C
100
AcDbDictionary
  3
ACMGSETTINGS
350
2C
  0
DICTIONARY
  5
6E
102
{ACAD_REACTORS
330
C
102
}
330
C
100
AcDbDictionary
  0
XRECORD
  5
2490
102
{ACAD_REACTORS
330
C
102
}
330
C
100
AcDbXrecord
  1
DWGPROPS COOKIE
  2

  3

  4

  6

  7

  8

  9

300
AmdtFileType=82
301
=
302
=
303
=
304
=
305
=
306
=
307
=
308
=
309
=
 40
0.1442939930555556
 41
2452808.461142939
 42
2452844.41757052
  1

 90
        1
  0
DICTIONARY
  5
249C
102
{ACAD_REACTORS
330
C
102
}
330
C
100
AcDbDictionary
  3
TSTACKALIGN
350
249D
  3
TSTACKSIZE
350
249E
  3
HYPERLINKBASE
350
249F
  3
STYLESHEET
350
24A0
  3
LAYOUTDICT
350
24A1
  3
PLOTSETDICT
350
24A2
  3
PLOTSTYLNAMDICT
350
24A3
  3
LWETCUNION
350
24A4
  3
INSUNITS
350
24A5
  3
CEPSNTYPE
350
24A6
  3
FINGERPRINTGUID
350
24A7
  3
VERSIONGUID
350
24A8
  3
PSVPSCALE
350
24A9
  3
DIMSTYLEDATA
350
24AA
  3
PUCSORTHOREF
350
24AB
  3
PUCSORTHOVIEW
350
24AC
  3
PUCSBASE
350
24AD
  3
PUCSORGTOP
350
24AE
  3
PUCSORGBOTTOM
350
24AF
  3
PUCSORGLEFT
350
24B0
  3
PUCSORGRIGHT
350
24B1
  3
PUCSORGFRONT
350
24B2
  3
PUCSORGBACK
350
24B3
  3
UCSORTHOREF
350
24B4
  3
UCSORTHOVIEW
350
24B5
  3
UCSBASE
350
24B6
  3
UCSORGTOP
350
24B7
  3
UCSORGBOTTOM
350
24B8
  3
UCSORGLEFT
350
24B9
  3
UCSORGRIGHT
350
24BA
  3
UCSORGFRONT
350
24BB
  3
UCSORGBACK
350
24BC
  0
DICTIONARY
  5
2492
102
{ACAD_REACTORS
330
74
102
}
330
74
100
AcDbDictionary
  3
*A1
350
2493
  0
XRECORD
  5
24BF
102
{ACAD_REACTORS
330
74
102
}
330
74
100
AcDbXrecord
340
1F
  0
XRECORD
  5
24C5
102
{ACAD_REACTORS
330
24C4
102
}
330
24C4
100
AcDbXrecord
340
101
  0
MLINESTYLE
  5
18
102
{ACAD_REACTORS
330
17
102
}
330
17
100
AcDbMlineStyle
  2
STANDARD
 70
     0
  3

 62
   256
 51
90.0
 52
90.0
 71
     2
 49
0.5
 62
   256
  6
BYLAYER
 49
-0.5
 62
   256
  6
BYLAYER
  0
ACDBPLACEHOLDER
  5
F
102
{ACAD_REACTORS
330
E
102
}
330
E
100
AcDbPlaceHolder
280
     0
  0
DICTIONARYVAR
  5
35
102
{ACAD_REACTORS
330
34
102
}
330
34
100
DictionaryVariables
280
     0
  1
1
  0
DICTIONARYVAR
  5
B5E
102
{ACAD_REACTORS
330
34
102
}
330
34
100
DictionaryVariables
280
     0
  1
96
  0
DICTIONARY
  5
260
102
{ACAD_REACTORS
330
43
102
}
330
43
100
AcDbDictionary
  0
DICTIONARY
  5
2C
102
{ACAD_REACTORS
330
2B
102
}
330
2B
100
AcDbDictionary
  3
DWGSETTINGS
350
2D
  0
XRECORD
  5
249D
102
{ACAD_REACTORS
330
249C
102
}
330
249C
100
AcDbXrecord
 90
        1
  0
XRECORD
  5
249E
102
{ACAD_REACTORS
330
249C
102
}
330
249C
100
AcDbXrecord
 90
       70
  0
XRECORD
  5
249F
102
{ACAD_REACTORS
330
249C
102
}
330
249C
100
AcDbXrecord
  1

  0
XRECORD
  5
24A0
102
{ACAD_REACTORS
330
249C
102
}
330
249C
100
AcDbXrecord
  1
ASAMI.ctb
  0
XRECORD
  5
24A1
102
{ACAD_REACTORS
330
249C
102
}
330
249C
100
AcDbXrecord
340
1A
  0
XRECORD
  5
24A2
102
{ACAD_REACTORS
330
249C
102
}
330
249C
100
AcDbXrecord
340
19
  0
XRECORD
  5
24A3
102
{ACAD_REACTORS
330
249C
102
}
330
249C
100
AcDbXrecord
340
E
  0
XRECORD
  5
24A4
102
{ACAD_REACTORS
330
249C
102
}
330
249C
100
AcDbXrecord
 90
    10781
  0
XRECORD
  5
24A5
102
{ACAD_REACTORS
330
249C
102
}
330
249C
100
AcDbXrecord
 90
        4
  0
XRECORD
  5
24A6
102
{ACAD_REACTORS
330
249C
102
}
330
249C
100
AcDbXrecord
 90
        0
  0
XRECORD
  5
24A7
102
{ACAD_REACTORS
330
249C
102
}
330
249C
100
AcDbXrecord
  1
{AFB28963-8C59-40AE-9337-C84526B81ACE}
  0
XRECORD
  5
24A8
102
{ACAD_REACTORS
330
249C
102
}
330
249C
100
AcDbXrecord
  1
{023DE5C6-9235-4750-86BA-D133AC1B7B63}
  0
XRECORD
  5
24A9
102
{ACAD_REACTORS
330
249C
102
}
330
249C
100
AcDbXrecord
 40
0.0
  0
XRECORD
  5
24AA
102
{ACAD_REACTORS
330
249C
102
}
330
249C
100
AcDbXrecord
1000
DSTYLE
1002
{
1070
    79
 70
     2
1070
   341
340
59
1070
   342
340
59
1070
   371
 70
    -1
1070
   372
 70
    -1
1002
}
  0
XRECORD
  5
24AB
102
{ACAD_REACTORS
330
249C
102
}
330
249C
100
AcDbXrecord
340
0
  0
XRECORD
  5
24AC
102
{ACAD_REACTORS
330
249C
102
}
330
249C
100
AcDbXrecord
 70
     0
  0
XRECORD
  5
24AD
102
{ACAD_REACTORS
330
249C
102
}
330
249C
100
AcDbXrecord
340
0
  0
XRECORD
  5
24AE
102
{ACAD_REACTORS
330
249C
102
}
330
249C
100
AcDbXrecord
 10
0.0
 20
0.0
 30
0.0
  0
XRECORD
  5
24AF
102
{ACAD_REACTORS
330
249C
102
}
330
249C
100
AcDbXrecord
 10
0.0
 20
0.0
 30
0.0
  0
XRECORD
  5
24B0
102
{ACAD_REACTORS
330
249C
102
}
330
249C
100
AcDbXrecord
 10
0.0
 20
0.0
 30
0.0
  0
XRECORD
  5
24B1
102
{ACAD_REACTORS
330
249C
102
}
330
249C
100
AcDbXrecord
 10
0.0
 20
0.0
 30
0.0
  0
XRECORD
  5
24B2
102
{ACAD_REACTORS
330
249C
102
}
330
249C
100
AcDbXrecord
 10
0.0
 20
0.0
 30
0.0
  0
XRECORD
  5
24B3
102
{ACAD_REACTORS
330
249C
102
}
330
249C
100
AcDbXrecord
 10
0.0
 20
0.0
 30
0.0
  0
XRECORD
  5
24B4
102
{ACAD_REACTORS
330
249C
102
}
330
249C
100
AcDbXrecord
340
0
  0
XRECORD
  5
24B5
102
{ACAD_REACTORS
330
249C
102
}
330
249C
100
AcDbXrecord
 70
     0
  0
XRECORD
  5
24B6
102
{ACAD_REACTORS
330
249C
102
}
330
249C
100
AcDbXrecord
340
0
  0
XRECORD
  5
24B7
102
{ACAD_REACTORS
330
249C
102
}
330
249C
100
AcDbXrecord
 10
0.0
 20
0.0
 30
0.0
  0
XRECORD
  5
24B8
102
{ACAD_REACTORS
330
249C
102
}
330
249C
100
AcDbXrecord
 10
0.0
 20
0.0
 30
0.0
  0
XRECORD
  5
24B9
102
{ACAD_REACTORS
330
249C
102
}
330
249C
100
AcDbXrecord
 10
0.0
 20
0.0
 30
0.0
  0
XRECORD
  5
24BA
102
{ACAD_REACTORS
330
249C
102
}
330
249C
100
AcDbXrecord
 10
0.0
 20
0.0
 30
0.0
  0
XRECORD
  5
24BB
102
{ACAD_REACTORS
330
249C
102
}
330
249C
100
AcDbXrecord
 10
0.0
 20
0.0
 30
0.0
  0
XRECORD
  5
24BC
102
{ACAD_REACTORS
330
249C
102
}
330
249C
100
AcDbXrecord
 10
0.0
 20
0.0
 30
0.0
  0
LAYER_INDEX
  5
2493
102
{ACAD_REACTORS
330
2492
102
}
330
2492
100
AcDbIndex
 40
2452844.459304641
100
AcDbLayerIndex
  8
0
360
2494
 90
        0
  8
AM_0
360
2495
 90
       67
  8
AM_11
360
2496
 90
        5
  8
AM_6
360
2497
 90
        1
  8
AM_7
360
2498
 90
        1
  8
AM_5
360
2499
 90
        4
  8
Defpoints
360
249A
 90
        0
  0
XRECORD
  5
2D
102
{ACAD_REACTORS
330
2C
102
}
330
2C
100
AcDbXrecord
  1
VERSION
140
15.0
  1
PRODUCT
  2
AutoCAD Mechanical 2000
  0
IDBUFFER
  5
2494
330
0
100
AcDbIdBuffer
  0
IDBUFFER
  5
2495
330
0
100
AcDbIdBuffer
330
22DB
330
22DC
330
22DD
330
22DE
330
22DF
330
22E0
330
22E1
330
22E2
330
22E3
330
22E4
330
22E5
330
22E6
330
22E7
330
22E8
330
22E9
330
22EA
330
22EB
330
22EC
330
22ED
330
20AE
330
20AF
330
20B2
330
20B3
330
20B4
330
20B5
330
20B6
330
2291
330
2292
330
2293
330
2294
330
2295
330
2296
330
2297
330
2298
330
2299
330
229A
330
229B
330
229C
330
229F
330
22A0
330
22A1
330
22A3
330
22B3
330
22C3
330
22C4
330
22C5
330
22C6
330
22C7
330
22C8
330
22C9
330
22CA
330
22CB
330
22CC
330
22CD
330
22CE
330
22CF
330
22D0
330
22D1
330
22D2
330
22D3
330
22D4
330
22D5
330
22D6
330
22D7
330
22D8
330
22D9
330
22DA
  0
IDBUFFER
  5
2496
330
0
100
AcDbIdBuffer
330
229D
330
229E
330
22A2
330
22B2
330
234F
  0
IDBUFFER
  5
2497
330
0
100
AcDbIdBuffer
330
F07
  0
IDBUFFER
  5
2498
330
0
100
AcDbIdBuffer
330
22FB
  0
IDBUFFER
  5
2499
330
0
100
AcDbIdBuffer
330
20B1
330
22B4
330
22EE
330
23DD
  0
IDBUFFER
  5
249A
330
0
100
AcDbIdBuffer
  0
ENDSEC
  0
EOF
