  0
SECTION
  2
HEADER
  9
$ACADVER
  1
AC1014
  9
$ACADMAINTVER
 70
     9
  9
$DWGCODEPAGE
  3
ANSI_932
  9
$INSBASE
 10
0.0
 20
0.0
 30
0.0
  9
$EXTMIN
 10
-61.94314255754918
 20
-28.4166666666672
 30
-0.00000001
  9
$EXTMAX
 10
7.500000000000072
 20
5.499999999999988
 30
0.00000001
  9
$LIMMIN
 10
-71.39870340003324
 20
-35.38921634354216
  9
$LIMMAX
 10
19.9640645301755
 20
11.12992143192423
  9
$ORTHOMODE
 70
     0
  9
$REGENMODE
 70
     1
  9
$FILLMODE
 70
     1
  9
$QTEXTMODE
 70
     0
  9
$MIRRTEXT
 70
     0
  9
$DRAGMODE
 70
     2
  9
$LTSCALE
 40
1.0
  9
$OSMODE
 70
  2103
  9
$ATTMODE
 70
     1
  9
$TEXTSIZE
 40
2.5
  9
$TRACEWID
 40
1.0
  9
$TEXTSTYLE
  7
STANDARD
  9
$CLAYER
  8
AM_11
  9
$CELTYPE
  6
BYLAYER
  9
$CECOLOR
 62
   256
  9
$CELTSCALE
 40
1.0
  9
$DELOBJ
 70
     1
  9
$DISPSILH
 70
     0
  9
$DIMSCALE
 40
0.5
  9
$DIMASZ
 40
2.5
  9
$DIMEXO
 40
1.0
  9
$DIMDLI
 40
12.0
  9
$DIMRND
 40
0.0
  9
$DIMDLE
 40
0.0
  9
$DIMEXE
 40
1.0
  9
$DIMTP
 40
0.1
  9
$DIMTM
 40
0.1
  9
$DIMTXT
 40
3.2
  9
$DIMCEN
 40
0.0
  9
$DIMTSZ
 40
0.0
  9
$DIMTOL
 70
     0
  9
$DIMLIM
 70
     0
  9
$DIMTIH
 70
     0
  9
$DIMTOH
 70
     0
  9
$DIMSE1
 70
     0
  9
$DIMSE2
 70
     0
  9
$DIMTAD
 70
     3
  9
$DIMZIN
 70
     8
  9
$DIMBLK
  1
OPEN30
  9
$DIMASO
 70
     1
  9
$DIMSHO
 70
     1
  9
$DIMPOST
  1

  9
$DIMAPOST
  1
"
  9
$DIMALT
 70
     0
  9
$DIMALTD
 70
     2
  9
$DIMALTF
 40
0.0393701
  9
$DIMLFAC
 40
1.0
  9
$DIMTOFL
 70
     1
  9
$DIMTVP
 40
0.0
  9
$DIMTIX
 70
     0
  9
$DIMSOXD
 70
     0
  9
$DIMSAH
 70
     0
  9
$DIMBLK1
  1

  9
$DIMBLK2
  1

  9
$DIMSTYLE
  2
AM_JIS
  9
$DIMCLRD
 70
   256
  9
$DIMCLRE
 70
   256
  9
$DIMCLRT
 70
     2
  9
$DIMTFAC
 40
0.71
  9
$DIMGAP
 40
1.5
  9
$DIMJUST
 70
     0
  9
$DIMSD1
 70
     0
  9
$DIMSD2
 70
     0
  9
$DIMTOLJ
 70
     0
  9
$DIMTZIN
 70
     0
  9
$DIMALTZ
 70
     0
  9
$DIMALTTZ
 70
     0
  9
$DIMFIT
 70
     3
  9
$DIMUPT
 70
     0
  9
$DIMUNIT
 70
     2
  9
$DIMDEC
 70
     3
  9
$DIMTDEC
 70
     3
  9
$DIMALTU
 70
     2
  9
$DIMALTTD
 70
     2
  9
$DIMTXSTY
  7
ASAMI
  9
$DIMAUNIT
 70
     0
  9
$LUNITS
 70
     2
  9
$LUPREC
 70
     2
  9
$SKETCHINC
 40
1.0
  9
$FILLETRAD
 40
1.0
  9
$AUNITS
 70
     0
  9
$AUPREC
 70
     0
  9
$MENU
  1
.
  9
$ELEVATION
 40
0.0
  9
$PELEVATION
 40
0.0
  9
$THICKNESS
 40
0.0
  9
$LIMCHECK
 70
     0
  9
$BLIPMODE
 70
     0
  9
$CHAMFERA
 40
0.5
  9
$CHAMFERB
 40
0.5
  9
$CHAMFERC
 40
20.0
  9
$CHAMFERD
 40
0.0
  9
$SKPOLY
 70
     0
  9
$TDCREATE
 40
2452809.403188831
  9
$TDUPDATE
 40
2452844.461175301
  9
$TDINDWG
 40
0.0647041435
  9
$TDUSRTIMER
 40
0.0647041435
  9
$USRTIMER
 70
     1
  9
$ANGBASE
 50
0.0
  9
$ANGDIR
 70
     0
  9
$PDMODE
 70
     0
  9
$PDSIZE
 40
0.0
  9
$PLINEWID
 40
0.0
  9
$COORDS
 70
     2
  9
$SPLFRAME
 70
     0
  9
$SPLINETYPE
 70
     6
  9
$SPLINESEGS
 70
     8
  9
$ATTDIA
 70
     1
  9
$ATTREQ
 70
     1
  9
$HANDLING
 70
 12289
  9
$HANDSEED
  5
2329
  9
$SURFTAB1
 70
     6
  9
$SURFTAB2
 70
     6
  9
$SURFTYPE
 70
     6
  9
$SURFU
 70
     6
  9
$SURFV
 70
     6
  9
$UCSNAME
  2

  9
$UCSORG
 10
0.0
 20
-0.0000000000000004
 30
0.0
  9
$UCSXDIR
 10
1.0
 20
0.0
 30
0.0
  9
$UCSYDIR
 10
0.0
 20
1.0
 30
0.0
  9
$PUCSNAME
  2

  9
$PUCSORG
 10
0.0
 20
0.0
 30
0.0
  9
$PUCSXDIR
 10
1.0
 20
0.0
 30
0.0
  9
$PUCSYDIR
 10
0.0
 20
1.0
 30
0.0
  9
$USERI1
 70
     0
  9
$USERI2
 70
     0
  9
$USERI3
 70
     0
  9
$USERI4
 70
     0
  9
$USERI5
 70
     0
  9
$USERR1
 40
0.0
  9
$USERR2
 40
0.0
  9
$USERR3
 40
0.0
  9
$USERR4
 40
0.0
  9
$USERR5
 40
0.0
  9
$WORLDVIEW
 70
     1
  9
$SHADEDGE
 70
     3
  9
$SHADEDIF
 70
    70
  9
$TILEMODE
 70
     1
  9
$MAXACTVP
 70
    64
  9
$PINSBASE
 10
0.0
 20
0.0
 30
0.0
  9
$PLIMCHECK
 70
     0
  9
$PEXTMIN
 10
1.000000000000000E+20
 20
1.000000000000000E+20
 30
1.000000000000000E+20
  9
$PEXTMAX
 10
-1.000000000000000E+20
 20
-1.000000000000000E+20
 30
-1.000000000000000E+20
  9
$PLIMMIN
 10
0.0
 20
0.0
  9
$PLIMMAX
 10
841.0
 20
594.0
  9
$UNITMODE
 70
     0
  9
$VISRETAIN
 70
     1
  9
$PLINEGEN
 70
     0
  9
$PSLTSCALE
 70
     0
  9
$TREEDEPTH
 70
  3020
  9
$PICKSTYLE
 70
     0
  9
$CMLSTYLE
  2
STANDARD
  9
$CMLJUST
 70
     0
  9
$CMLSCALE
 40
20.0
  9
$PROXYGRAPHICS
 70
     1
  9
$MEASUREMENT
 70
     1
  0
ENDSEC
  0
SECTION
  2
CLASSES
  0
CLASS
  1
ACDBDICTIONARYWDFLT
  2
AcDbDictionaryWithDefault
  3
AutoCAD 2000
 90
        0
280
     0
281
     0
  0
CLASS
  1
ACDBPLACEHOLDER
  2
AcDbPlaceHolder
  3
AutoCAD 2000
 90
        0
280
     0
281
     0
  0
CLASS
  1
LAYOUT
  2
AcDbLayout
  3
AutoCAD 2000
 90
        0
280
     0
281
     0
  0
CLASS
  1
AMGSETTINGSOBJ
  2
AmgSettingsObj
  3
"AcadM|Product Description: AutoCAD Mechanical 2000|Company: Autodesk"
 90
        0
280
     0
281
     0
  0
CLASS
  1
ACME_DOCUMENT
  2
AcMeDbDoc
  3
AcMeServices
 90
        0
280
     0
281
     0
  0
CLASS
  1
ACMESCOPE
  2
AcMeScope
  3
AcMeServices
 90
        0
280
     0
281
     0
  0
CLASS
  1
ACMECOMMANDHISTORY
  2
AcMeCommandHistory
  3
AcMeServices
 90
        0
280
     0
281
     0
  0
CLASS
  1
DICTIONARYVAR
  2
AcDbDictionaryVar
  3
AutoCAD 2000
 90
        0
280
     0
281
     0
  0
CLASS
  1
ACIMSYSVARMAN
  2
AcImSysVarManager
  3
AcMeServices
 90
        0
280
     0
281
     0
  0
CLASS
  1
ACIMREALSYSVAR
  2
AcImRealSysVar
  3
AcMeServices
 90
        0
280
     0
281
     0
  0
CLASS
  1
ACIMINTSYSVAR
  2
AcImIntSysVar
  3
AcMeServices
 90
        0
280
     0
281
     0
  0
CLASS
  1
ACMEDRAWINGMAN
  2
AcMeDrawingMan
  3
AcMeServices
 90
        0
280
     0
281
     0
  0
CLASS
  1
ACMEVIEW
  2
AcMeView
  3
AcMeServices
 90
        0
280
     0
281
     0
  0
CLASS
  1
ACDBENTITYCACHE
  2
AcMeEntityCache
  3
AcMeServices
 90
        0
280
     0
281
     0
  0
CLASS
  1
GSMANAGER
  2
AcMeGSManager
  3
AcMeServices
 90
        0
280
     0
281
     0
  0
CLASS
  1
AmdtInternalReactor
  2
AmdtInternalReactor
  3
AcMeServices
 90
        0
280
     0
281
     0
  0
CLASS
  1
ACMESTATEMGR
  2
AcMeStateMgr
  3
AcMeServices
 90
        0
280
     0
281
     0
  0
CLASS
  1
ACME_DATABASE
  2
AcMeDbDatabase
  3
AcMeServices
 90
        0
280
     0
281
     0
  0
CLASS
  1
ACRFINSADJUSTERMGR
  2
AcRfInsAdjusterMgr
  3
AcMeServices
 90
        0
280
     0
281
     0
  0
CLASS
  1
ACMDATADICTIONARY
  2
AcmDataDictionary
  3
"AcmSymBB|Product Description: AutoCAD Mechanical 2000|Company: Autodesk"
 90
        0
280
     0
281
     0
  0
CLASS
  1
ACMDATAENTRYBLOCK
  2
AcmDataEntryBlock
  3
"AcmSymBB|Product Description: AutoCAD Mechanical 2000|Company: Autodesk"
 90
        0
280
     0
281
     0
  0
CLASS
  1
AMGOBJPROPCFG
  2
AmgObjPropCfg
  3
"AmgLay|Product Description: AutoCAD Mechanical 2000|Company: Autodesk"
 90
        1
280
     0
281
     0
  0
CLASS
  1
ACAMGFILTERDAT
  2
AcAmgFilterDat
  3
"AcadM|Product Description: AutoCAD Mechanical 2000|Company: Autodesk"
 90
        0
280
     0
281
     0
  0
CLASS
  1
LAYER_INDEX
  2
AcDbLayerIndex
  3
AutoCAD 2000
 90
        0
280
     0
281
     0
  0
CLASS
  1
IDBUFFER
  2
AcDbIdBuffer
  3
AutoCAD 2000
 90
        0
280
     0
281
     0
  0
CLASS
  1
ACIMSTRSYSVAR
  2
AcImStrSysVar
  3
AcMeServices
 90
        0
280
     0
281
     0
  0
CLASS
  1
ACMSTANDARDJIS
  2
AcmStandardJIS
  3
"AcmSymBB|Product Description: AutoCAD Mechanical 2000|Company: Autodesk"
 90
        0
280
     0
281
     0
  0
CLASS
  1
ACMSURFSTANDARDJIS
  2
AcmSurfTextStdJIS
  3
"AcmSymBB|Product Description: AutoCAD Mechanical 2000|Company: Autodesk"
 90
        0
280
     0
281
     0
  0
CLASS
  1
ACMFCFSTANDARDJIS
  2
AcmFCFStdJIS
  3
"AcmSymBB|Product Description: AutoCAD Mechanical 2000|Company: Autodesk"
 90
        0
280
     0
281
     0
  0
CLASS
  1
ACMWELDSTANDARDJIS
  2
AcmWeldingStdJIS
  3
"AcmSymBB|Product Description: AutoCAD Mechanical 2000|Company: Autodesk"
 90
        0
280
     0
281
     0
  0
CLASS
  1
ACMIDSTANDARDJIS
  2
AcmIdStdJIS
  3
"AcmSymBB|Product Description: AutoCAD Mechanical 2000|Company: Autodesk"
 90
        0
280
     0
281
     0
  0
CLASS
  1
ACMDATUMSTANDARDJIS
  2
AcmDatumStdJIS
  3
"AcmSymBB|Product Description: AutoCAD Mechanical 2000|Company: Autodesk"
 90
        0
280
     0
281
     0
  0
CLASS
  1
ACMBOMSTANDARDJIS
  2
AcmBOMStdJIS
  3
"AcmSymBB|Product Description: AutoCAD Mechanical 2000|Company: Autodesk"
 90
        0
280
     0
281
     0
  0
CLASS
  1
ACMSTANDARDANSI
  2
AcmStandardANSI
  3
"AcmSymBB|Product Description: AutoCAD Mechanical 2000|Company: Autodesk"
 90
        0
280
     0
281
     0
  0
CLASS
  1
ACMSURFSTANDARDANSI
  2
AcmSurfTextStdANSI
  3
"AcmSymBB|Product Description: AutoCAD Mechanical 2000|Company: Autodesk"
 90
        0
280
     0
281
     0
  0
CLASS
  1
ACMFCFSTANDARDANSI
  2
AcmFCFStdANSI
  3
"AcmSymBB|Product Description: AutoCAD Mechanical 2000|Company: Autodesk"
 90
        0
280
     0
281
     0
  0
CLASS
  1
ACMWELDSTANDARDANSI
  2
AcmWeldingStdANSI
  3
"AcmSymBB|Product Description: AutoCAD Mechanical 2000|Company: Autodesk"
 90
        0
280
     0
281
     0
  0
CLASS
  1
ACMIDSTANDARDANSI
  2
AcmIdStdANSI
  3
"AcmSymBB|Product Description: AutoCAD Mechanical 2000|Company: Autodesk"
 90
        0
280
     0
281
     0
  0
CLASS
  1
ACMDATUMSTANDARDANSI
  2
AcmDatumStdANSI
  3
"AcmSymBB|Product Description: AutoCAD Mechanical 2000|Company: Autodesk"
 90
        0
280
     0
281
     0
  0
CLASS
  1
ACMBOMSTANDARDANSI
  2
AcmBOMStdANSI
  3
"AcmSymBB|Product Description: AutoCAD Mechanical 2000|Company: Autodesk"
 90
        0
280
     0
281
     0
  0
CLASS
  1
ACMSTANDARDBSI
  2
AcmStandardBSI
  3
"AcmSymBB|Product Description: AutoCAD Mechanical 2000|Company: Autodesk"
 90
        0
280
     0
281
     0
  0
CLASS
  1
ACMSURFSTANDARDBSI
  2
AcmSurfTextStdBSI
  3
"AcmSymBB|Product Description: AutoCAD Mechanical 2000|Company: Autodesk"
 90
        0
280
     0
281
     0
  0
CLASS
  1
ACMFCFSTANDARDBSI
  2
AcmFCFStdBSI
  3
"AcmSymBB|Product Description: AutoCAD Mechanical 2000|Company: Autodesk"
 90
        0
280
     0
281
     0
  0
CLASS
  1
ACMWELDSTANDARDBSI
  2
AcmWeldingStdBSI
  3
"AcmSymBB|Product Description: AutoCAD Mechanical 2000|Company: Autodesk"
 90
        0
280
     0
281
     0
  0
CLASS
  1
ACMIDSTANDARDBSI
  2
AcmIdStdBSI
  3
"AcmSymBB|Product Description: AutoCAD Mechanical 2000|Company: Autodesk"
 90
        0
280
     0
281
     0
  0
CLASS
  1
ACMDATUMSTANDARDBSI
  2
AcmDatumStdBSI
  3
"AcmSymBB|Product Description: AutoCAD Mechanical 2000|Company: Autodesk"
 90
        0
280
     0
281
     0
  0
CLASS
  1
ACMBOMSTANDARDBSI
  2
AcmBOMStdBSI
  3
"AcmSymBB|Product Description: AutoCAD Mechanical 2000|Company: Autodesk"
 90
        0
280
     0
281
     0
  0
CLASS
  1
LONG_TRANSACTION
  2
AcDbLongTransaction
  3
AutoCAD 2000
 90
        0
280
     0
281
     0
  0
CLASS
  1
LWPOLYLINE
  2
AcDbPolyline
  3
AutoCAD 2000
 90
        0
280
     0
281
     1
  0
CLASS
  1
HATCH
  2
AcDbHatch
  3
AutoCAD 2000
 90
        0
280
     0
281
     1
  0
CLASS
  1
XRECORD
  2
AcDbXrecord
  3
AutoCAD 2000
 90
        0
280
     0
281
     0
  0
ENDSEC
  0
SECTION
  2
TABLES
  0
TABLE
  2
VPORT
  5
8
330
0
100
AcDbSymbolTable
 70
     3
  0
VPORT
  5
22F8
330
8
100
AcDbSymbolTableRecord
100
AcDbViewportTableRecord
  2
*ACTIVE
 70
     0
 10
0.0
 20
0.0
 11
1.0
 21
1.0
 12
-27.22296431090262
 22
-11.45911438352433
 13
0.0
 23
0.0
 14
2.5
 24
2.5
 15
10.0
 25
10.0
 16
0.0
 26
0.0
 36
1.0
 17
0.0
 27
0.0
 37
0.0
 40
44.52915597861085
 41
1.56570841889117
 42
50.0
 43
0.0
 44
0.0
 50
0.0
 51
0.0
 71
     0
 72
   100
 73
     1
 74
     3
 75
     0
 76
     0
 77
     0
 78
     0
  0
ENDTAB
  0
TABLE
  2
LTYPE
  5
5
330
0
100
AcDbSymbolTable
 70
    10
  0
LTYPE
  5
14
330
5
100
AcDbSymbolTableRecord
100
AcDbLinetypeTableRecord
  2
BYBLOCK
 70
     0
  3

 72
    65
 73
     0
 40
0.0
  0
LTYPE
  5
15
330
5
100
AcDbSymbolTableRecord
100
AcDbLinetypeTableRecord
  2
BYLAYER
 70
     0
  3

 72
    65
 73
     0
 40
0.0
  0
LTYPE
  5
16
330
5
100
AcDbSymbolTableRecord
100
AcDbLinetypeTableRecord
  2
CONTINUOUS
 70
     0
  3
Solid line
 72
    65
 73
     0
 40
0.0
  0
LTYPE
  5
4B
330
5
100
AcDbSymbolTableRecord
100
AcDbLinetypeTableRecord
  2
AM_ISO02W050
 70
     0
  3
__ __ __ __ __ __ __ __ __ __ __ __ __ __ __
 72
    65
 73
     2
 40
7.5
 49
6.0
 74
     0
 49
-1.5
 74
     0
  0
LTYPE
  5
4C
330
5
100
AcDbSymbolTableRecord
100
AcDbLinetypeTableRecord
  2
AM_ISO08W050
 70
     0
  3
____ . ____ . ____ . ____ . ____ . ____ . ____
 72
    65
 73
     4
 40
18.0
 49
12.0
 74
     0
 49
-1.5
 74
     0
 49
3.0
 74
     0
 49
-1.5
 74
     0
  0
LTYPE
  5
4D
330
5
100
AcDbSymbolTableRecord
100
AcDbLinetypeTableRecord
  2
AM_ISO09W050
 70
     0
  3
_____ . . _____ . . _____ . . ____ .. ____
 72
    65
 73
     6
 40
22.5
 49
12.0
 74
     0
 49
-1.5
 74
     0
 49
3.0
 74
     0
 49
-1.5
 74
     0
 49
3.0
 74
     0
 49
-1.5
 74
     0
  0
LTYPE
  5
4E
330
5
100
AcDbSymbolTableRecord
100
AcDbLinetypeTableRecord
  2
AMCONSTR
 70
     0
  3
_______________________
 72
    65
 73
     2
 40
9999.0
 49
9999.0
 74
     0
 49
0.0
 74
     0
  0
LTYPE
  5
4F
330
5
100
AcDbSymbolTableRecord
100
AcDbLinetypeTableRecord
  2
AM_ISO02W050X2
 70
     0
  3
 _ _ _ _ _ _ _ _ _ _ _ _
 72
    65
 73
     2
 40
3.75
 49
3.0
 74
     0
 49
-0.75
 74
     0
  0
LTYPE
  5
50
330
5
100
AcDbSymbolTableRecord
100
AcDbLinetypeTableRecord
  2
AM_ISO08W050X2
 70
     0
  3
__ . __ . __ . __ . __ . __
 72
    65
 73
     4
 40
9.0
 49
6.0
 74
     0
 49
-0.75
 74
     0
 49
1.5
 74
     0
 49
-0.75
 74
     0
  0
LTYPE
  5
53
330
5
100
AcDbSymbolTableRecord
100
AcDbLinetypeTableRecord
  2
AMZIGZAG
 70
     0
  3
/\/-/\/-/\/-/\/-/\/-/\/
 72
    65
 73
     2
 40
11.00009999999999
 49
0.0001
 74
     4
 75
   135
340
52
 46
0.04
 50
0.0
 44
0.0
 45
0.0
 49
-11.0
 74
     0
  0
LTYPE
  5
166
330
5
100
AcDbSymbolTableRecord
100
AcDbLinetypeTableRecord
  2
ACJISTGL
 70
     0
  3
_ _ _ _ _
 72
    65
 73
     2
 40
3.0
 49
2.0
 74
     0
 49
-1.0
 74
     0
  0
LTYPE
  5
26A
330
5
100
AcDbSymbolTableRecord
100
AcDbLinetypeTableRecord
  2
ACJISTGB
 70
     0
  3
__ . . __ . .
 72
    65
 73
     6
 40
9.0
 49
4.0
 74
     0
 49
-1.0
 74
     0
 49
1.0
 74
     0
 49
-1.0
 74
     0
 49
1.0
 74
     0
 49
-1.0
 74
     0
  0
ENDTAB
  0
TABLE
  2
LAYER
  5
2
330
0
100
AcDbSymbolTable
 70
     7
  0
LAYER
  5
10
330
2
100
AcDbSymbolTableRecord
100
AcDbLayerTableRecord
  2
0
 70
     0
 62
     7
  6
CONTINUOUS
  0
LAYER
  5
3F9
330
2
100
AcDbSymbolTableRecord
100
AcDbLayerTableRecord
  2
AM_0
 70
     0
 62
     7
  6
CONTINUOUS
  0
LAYER
  5
BA4
330
2
100
AcDbSymbolTableRecord
100
AcDbLayerTableRecord
  2
AM_11
 70
     0
 62
     3
  6
AM_ISO09W050
  0
LAYER
  5
BA5
330
2
100
AcDbSymbolTableRecord
100
AcDbLayerTableRecord
  2
AM_7
 70
     0
 62
     4
  6
AM_ISO08W050
  0
LAYER
  5
D38
330
2
100
AcDbSymbolTableRecord
100
AcDbLayerTableRecord
  2
AM_5
 70
     0
 62
     3
  6
CONTINUOUS
  0
LAYER
  5
D3A
330
2
100
AcDbSymbolTableRecord
100
AcDbLayerTableRecord
  2
DEFPOINTS
 70
     0
 62
     7
  6
CONTINUOUS
  0
LAYER
  5
F16
330
2
100
AcDbSymbolTableRecord
100
AcDbLayerTableRecord
  2
AM_6
 70
     0
 62
     2
  6
CONTINUOUS
  0
ENDTAB
  0
TABLE
  2
STYLE
  5
3
330
0
100
AcDbSymbolTable
 70
     5
  0
STYLE
  5
11
330
3
100
AcDbSymbolTableRecord
100
AcDbTextStyleTableRecord
  2
STANDARD
 70
     0
 40
0.0
 41
1.0
 50
0.0
 71
     0
 42
2.5
  3
simplex.shx
  4
EXTFONT.SHX
  0
STYLE
  5
52
330
3
100
AcDbSymbolTableRecord
100
AcDbTextStyleTableRecord
  2

 70
     1
 40
0.0
 41
1.0
 50
0.0
 71
     0
 42
2.5
  3
ltypeshp.shx
  4

  0
STYLE
  5
6B
330
3
100
AcDbSymbolTableRecord
100
AcDbTextStyleTableRecord
  2
ASAMI
 70
     0
 40
0.0
 41
1.0
 50
0.0
 71
     0
 42
2.5
  3
simplex.shx
  4
EXTFONT.SHX
  0
STYLE
  5
262
330
3
100
AcDbSymbolTableRecord
100
AcDbTextStyleTableRecord
  2
ACJISTS
 70
     0
 40
1.0
 41
1.0
 50
0.0
 71
     0
 42
2.5
  3
simplex.shx
  4
bigfont.shx
  0
STYLE
  5
269
330
3
100
AcDbSymbolTableRecord
100
AcDbTextStyleTableRecord
  2
ACJISGDT
 70
     0
 40
0.0
 41
1.0
 50
0.0
 71
     0
 42
2.5
  3
amgdtans.shx
  4

  0
ENDTAB
  0
TABLE
  2
VIEW
  5
6
330
0
100
AcDbSymbolTable
 70
     0
  0
ENDTAB
  0
TABLE
  2
UCS
  5
7
330
0
100
AcDbSymbolTable
 70
     0
  0
ENDTAB
  0
TABLE
  2
APPID
  5
9
330
0
100
AcDbSymbolTable
 70
    13
  0
APPID
  5
12
330
9
100
AcDbSymbolTableRecord
100
AcDbRegAppTableRecord
  2
ACAD
 70
     0
  0
APPID
  5
30
330
9
100
AcDbSymbolTableRecord
100
AcDbRegAppTableRecord
  2
MCAD_NO_VIS
 70
     0
  0
APPID
  5
31
330
9
100
AcDbSymbolTableRecord
100
AcDbRegAppTableRecord
  2
ACAD_TEMP_GRAPHIC
 70
     0
  0
APPID
  5
2C2
330
9
100
AcDbSymbolTableRecord
100
AcDbRegAppTableRecord
  2
GENIUS_GENDTOL_13
 70
     0
  0
APPID
  5
339
330
9
100
AcDbSymbolTableRecord
100
AcDbRegAppTableRecord
  2
GENIUS_GENODEF_13
 70
     0
  0
APPID
  5
33A
330
9
100
AcDbSymbolTableRecord
100
AcDbRegAppTableRecord
  2
GENIUS_GENOBJ-N-RSBK_13
 70
     0
  0
APPID
  5
33B
330
9
100
AcDbSymbolTableRecord
100
AcDbRegAppTableRecord
  2
GENIUS_GENOBJ-N-LIB_13
 70
     0
  0
APPID
  5
33C
330
9
100
AcDbSymbolTableRecord
100
AcDbRegAppTableRecord
  2
GENIUS_GENSCALE_13
 70
     0
  0
APPID
  5
378
330
9
100
AcDbSymbolTableRecord
100
AcDbRegAppTableRecord
  2
GENIUS_GENDIMSH_14
 70
     0
  0
APPID
  5
BA6
330
9
100
AcDbSymbolTableRecord
100
AcDbRegAppTableRecord
  2
GENIUS_GENOBJ-N-CEN_13
 70
     0
  0
APPID
  5
D2B
330
9
100
AcDbSymbolTableRecord
100
AcDbRegAppTableRecord
  2
GENIUS_GENFIL_13
 70
     0
  0
APPID
  5
D2C
330
9
100
AcDbSymbolTableRecord
100
AcDbRegAppTableRecord
  2
GENIUS_GENOBJ-N-CHA_13
 70
     0
  0
APPID
  5
1FBD
330
9
100
AcDbSymbolTableRecord
100
AcDbRegAppTableRecord
  2
GENIUS_GENOBJ-N-FIL_13
 70
     0
  0
ENDTAB
  0
TABLE
  2
DIMSTYLE
  5
A
330
0
100
AcDbSymbolTable
 70
     8
  0
DIMSTYLE
105
58
102
{ACAD_REACTORS
330
1BA8
330
1BD9
330
1D10
330
21E5
102
}
330
A
100
AcDbSymbolTableRecord
100
AcDbDimStyleTableRecord
  2
AM_JIS
 70
     0
  3

  4
"
  5
OPEN30
  6

  7

 40
0.5
 41
2.5
 42
1.0
 43
12.0
 44
1.0
 45
0.0
 46
0.0
 47
0.1
 48
0.1
140
3.2
141
0.0
142
0.0
143
0.0393701
144
1.0
145
0.0
146
0.71
147
1.5
 71
     0
 72
     0
 73
     0
 74
     0
 75
     0
 76
     0
 77
     3
 78
     8
170
     0
171
     2
172
     1
173
     0
174
     0
175
     0
176
   256
177
   256
178
     2
270
     2
271
     3
272
     3
273
     2
274
     2
340
6B
275
     0
280
     0
281
     0
282
     0
283
     0
284
     0
285
     0
286
     0
287
     3
288
     0
  0
DIMSTYLE
105
5F
330
A
100
AcDbSymbolTableRecord
100
AcDbDimStyleTableRecord
  2
AM_JIS$3
 70
     0
  3

  4
"
  5
OPEN30
  6

  7

 40
0.5
 41
2.5
 42
1.0
 43
10.0
 44
1.0
 45
0.0
 46
0.0
 47
0.1
 48
0.1
140
3.2
141
0.0
142
0.0
143
0.0393701
144
1.0
145
0.0
146
0.71
147
1.5
 71
     0
 72
     0
 73
     0
 74
     1
 75
     0
 76
     0
 77
     3
 78
     8
170
     0
171
     2
172
     0
173
     0
174
     0
175
     0
176
   256
177
   256
178
     2
270
     2
271
     2
272
     3
273
     2
274
     2
340
6B
275
     0
280
     0
281
     0
282
     0
283
     0
284
     0
285
     0
286
     0
287
     0
288
     1
  0
DIMSTYLE
105
60
102
{ACAD_REACTORS
330
1FDC
102
}
330
A
100
AcDbSymbolTableRecord
100
AcDbDimStyleTableRecord
  2
AM_JIS$4
 70
     0
  3

  4
"
  5
OPEN30
  6

  7

 40
0.5
 41
2.5
 42
1.0
 43
10.0
 44
1.0
 45
0.0
 46
0.0
 47
0.1
 48
0.1
140
3.2
141
0.0
142
0.0
143
0.0393701
144
1.0
145
0.0
146
0.71
147
1.5
 71
     0
 72
     0
 73
     0
 74
     1
 75
     0
 76
     0
 77
     3
 78
     8
170
     0
171
     2
172
     0
173
     0
174
     0
175
     0
176
   256
177
   256
178
     2
270
     2
271
     2
272
     3
273
     2
274
     2
340
6B
275
     0
280
     0
281
     0
282
     0
283
     0
284
     0
285
     0
286
     0
287
     0
288
     1
  0
DIMSTYLE
105
61
330
A
100
AcDbSymbolTableRecord
100
AcDbDimStyleTableRecord
  2
AM_JIS$6
 70
     0
  3

  4
"
  5
OPEN30
  6

  7

 40
0.5
 41
2.5
 42
1.0
 43
10.0
 44
1.0
 45
0.0
 46
0.0
 47
0.1
 48
0.1
140
3.2
141
0.0
142
0.0
143
0.0393701
144
1.0
145
0.0
146
0.71
147
1.5
 71
     0
 72
     0
 73
     0
 74
     0
 75
     0
 76
     0
 77
     0
 78
     8
170
     0
171
     2
172
     1
173
     0
174
     0
175
     0
176
   256
177
   256
178
     2
270
     2
271
     2
272
     2
273
     2
274
     2
340
6B
275
     0
280
     0
281
     0
282
     0
283
     0
284
     0
285
     0
286
     0
287
     3
288
     0
  0
DIMSTYLE
105
62
330
A
100
AcDbSymbolTableRecord
100
AcDbDimStyleTableRecord
  2
AM_JIS$7
 70
     0
  3

  4
"
  5
OPEN30
  6

  7

 40
0.5
 41
2.5
 42
1.0
 43
10.0
 44
1.0
 45
0.0
 46
0.0
 47
0.1
 48
0.1
140
3.2
141
0.0
142
0.0
143
0.0393701
144
1.0
145
0.0
146
0.71
147
1.5
 71
     0
 72
     0
 73
     0
 74
     0
 75
     0
 76
     0
 77
     3
 78
     8
170
     0
171
     2
172
     1
173
     0
174
     0
175
     0
176
   256
177
   256
178
     2
270
     2
271
     2
272
     3
273
     2
274
     2
340
6B
275
     0
280
     0
281
     0
282
     0
283
     0
284
     0
285
     0
286
     0
287
     3
288
     0
  0
DIMSTYLE
105
63
330
A
100
AcDbSymbolTableRecord
100
AcDbDimStyleTableRecord
  2
AM_JIS$SF
 70
     0
  3

  4
"
  5
OPEN30
  6

  7

 40
0.5
 41
2.5
 42
1.0
 43
10.0
 44
1.0
 45
0.0
 46
0.0
 47
0.1
 48
0.1
140
3.2
141
0.0
142
0.0
143
0.0393701
144
1.0
145
0.0
146
0.71
147
1.5
 71
     0
 72
     0
 73
     0
 74
     0
 75
     1
 76
     1
 77
     3
 78
     8
170
     0
171
     2
172
     1
173
     0
174
     0
175
     0
176
   256
177
   256
178
     2
270
     2
271
     2
272
     2
273
     2
274
     2
340
6B
275
     0
280
     0
281
     0
282
     0
283
     0
284
     0
285
     0
286
     0
287
     3
288
     0
  0
DIMSTYLE
105
68
330
A
100
AcDbSymbolTableRecord
100
AcDbDimStyleTableRecord
  2
AM_JIS$SH
 70
     0
  3

  4
"
  5

  6
GENAXEH
  7
OPEN30
 40
0.5
 41
2.5
 42
1.0
 43
10.0
 44
1.0
 45
0.0
 46
0.0
 47
0.1
 48
0.1
140
3.2
141
0.0
142
0.0
143
0.0393701
144
2.0
145
0.0
146
0.71
147
1.5
 71
     0
 72
     0
 73
     0
 74
     0
 75
     1
 76
     1
 77
     3
 78
     8
170
     0
171
     2
172
     1
173
     1
174
     0
175
     0
176
   256
177
   256
178
     2
270
     2
271
     2
272
     2
273
     2
274
     2
340
6B
275
     0
280
     0
281
     0
282
     0
283
     0
284
     0
285
     0
286
     0
287
     3
288
     0
  0
DIMSTYLE
105
B34
330
A
100
AcDbSymbolTableRecord
100
AcDbDimStyleTableRecord
  2
AM_JIS$2
 70
     0
  3

  4
"
  5
OPEN30
  6

  7

 40
0.5
 41
2.5
 42
1.0
 43
12.0
 44
1.0
 45
0.0
 46
0.0
 47
0.1
 48
0.1
140
3.2
141
0.0
142
0.0
143
0.0393701
144
1.0
145
0.0
146
0.71
147
1.5
 71
     0
 72
     0
 73
     0
 74
     0
 75
     0
 76
     0
 77
     3
 78
     8
170
     0
171
     2
172
     1
173
     0
174
     0
175
     0
176
   256
177
   256
178
     2
270
     2
271
     3
272
     3
273
     2
274
     2
340
6B
275
     0
280
     0
281
     0
282
     0
283
     0
284
     0
285
     0
286
     0
287
     3
288
     0
  0
ENDTAB
  0
TABLE
  2
BLOCK_RECORD
  5
1
330
0
100
AcDbSymbolTable
 70
    10
  0
BLOCK_RECORD
  5
1F
102
{ACAD_XDICTIONARY
360
74
102
}
330
1
100
AcDbSymbolTableRecord
100
AcDbBlockTableRecord
  2
*MODEL_SPACE
  0
BLOCK_RECORD
  5
101
102
{ACAD_XDICTIONARY
360
2321
102
}
330
1
100
AcDbSymbolTableRecord
100
AcDbBlockTableRecord
  2
*PAPER_SPACE
  0
BLOCK_RECORD
  5
59
330
1
100
AcDbSymbolTableRecord
100
AcDbBlockTableRecord
  2
_OPEN30
  0
BLOCK_RECORD
  5
64
330
1
100
AcDbSymbolTableRecord
100
AcDbBlockTableRecord
  2
GENAXEH
  0
BLOCK_RECORD
  5
1BA9
330
1
100
AcDbSymbolTableRecord
100
AcDbBlockTableRecord
  2
*D5
  0
BLOCK_RECORD
  5
1BDA
330
1
100
AcDbSymbolTableRecord
100
AcDbBlockTableRecord
  2
*D6
  0
BLOCK_RECORD
  5
1D11
330
1
100
AcDbSymbolTableRecord
100
AcDbBlockTableRecord
  2
*D7
  0
BLOCK_RECORD
  5
1FDD
330
1
100
AcDbSymbolTableRecord
100
AcDbBlockTableRecord
  2
*D8
  0
BLOCK_RECORD
  5
21E6
330
1
100
AcDbSymbolTableRecord
100
AcDbBlockTableRecord
  2
*D9
  0
ENDTAB
  0
ENDSEC
  0
SECTION
  2
BLOCKS
  0
BLOCK
  5
20
330
1F
100
AcDbEntity
  8
0
100
AcDbBlockBegin
  2
*MODEL_SPACE
 70
     0
 10
0.0
 20
0.0
 30
0.0
  3
*MODEL_SPACE
  1

  0
ENDBLK
  5
21
330
1F
100
AcDbEntity
  8
0
100
AcDbBlockEnd
  0
BLOCK
  5
103
330
101
100
AcDbEntity
 67
     1
  8
0
100
AcDbBlockBegin
  2
*PAPER_SPACE
 70
     0
 10
0.0
 20
0.0
 30
0.0
  3
*PAPER_SPACE
  1

  0
ENDBLK
  5
104
330
101
100
AcDbEntity
 67
     1
  8
0
100
AcDbBlockEnd
  0
BLOCK
  5
5D
330
59
100
AcDbEntity
  8
0
100
AcDbBlockBegin
  2
_OPEN30
 70
     0
 10
0.0
 20
0.0
 30
0.0
  3
_OPEN30
  1

  0
LINE
  5
5A
330
59
100
AcDbEntity
  8
0
 62
     0
100
AcDbLine
 10
-1.0
 20
0.26794919
 30
0.0
 11
0.0
 21
0.0
 31
0.0
  0
LINE
  5
5B
330
59
100
AcDbEntity
  8
0
 62
     0
100
AcDbLine
 10
0.0
 20
0.0
 30
0.0
 11
-1.0
 21
-0.26794919
 31
0.0
  0
LINE
  5
5C
330
59
100
AcDbEntity
  8
0
 62
     0
100
AcDbLine
 10
0.0
 20
0.0
 30
0.0
 11
-1.0
 21
0.0
 31
0.0
  0
ENDBLK
  5
5E
330
59
100
AcDbEntity
  8
0
100
AcDbBlockEnd
  0
BLOCK
  5
66
330
64
100
AcDbEntity
  8
0
100
AcDbBlockBegin
  2
GENAXEH
 70
     0
 10
0.0
 20
0.0
 30
0.0
  3
GENAXEH
  1

  0
LINE
  5
65
330
64
100
AcDbEntity
  8
0
100
AcDbLine
 10
-1.0
 20
0.0
 30
0.0
 11
1.0
 21
0.0
 31
0.0
  0
ENDBLK
  5
67
330
64
100
AcDbEntity
  8
0
100
AcDbBlockEnd
  0
BLOCK
  5
1BB3
330
1BA9
100
AcDbEntity
  8
0
100
AcDbBlockBegin
  2
*D5
 70
     1
 10
0.0
 20
0.0
 30
0.0
  3
*D5
  1

  0
LINE
  5
2279
330
1BA9
100
AcDbEntity
  8
AM_5
100
AcDbLine
 10
-50.0
 20
-3.200000000000014
 30
0.0
 11
-50.0
 21
-17.66666666666719
 31
0.0
  0
LINE
  5
227A
330
1BA9
100
AcDbEntity
  8
AM_5
100
AcDbLine
 10
0.0
 20
-4.666666666667188
 30
0.0
 11
-0.0000000000000008
 21
-17.66666666666719
 31
0.0
  0
LINE
  5
227B
330
1BA9
100
AcDbEntity
  8
AM_5
100
AcDbLine
 10
-48.75
 20
-17.16666666666719
 30
0.0
 11
-1.25
 21
-17.16666666666719
 31
0.0
  0
INSERT
  5
227C
330
1BA9
100
AcDbEntity
  8
AM_5
100
AcDbBlockReference
  2
_OPEN30
 10
-50.0
 20
-17.16666666666719
 30
0.0
 41
1.25
 42
1.25
 43
1.25
 50
180.0
  0
INSERT
  5
227D
330
1BA9
100
AcDbEntity
  8
AM_5
100
AcDbBlockReference
  2
_OPEN30
 10
-0.0000000000000008
 20
-17.16666666666719
 30
0.0
 41
1.25
 42
1.25
 43
1.25
  0
MTEXT
  5
227E
330
1BA9
100
AcDbEntity
  8
AM_5
 62
     2
100
AcDbMText
 10
-25.0
 20
-15.61666666666718
 30
0.0
 40
1.6
 41
0.0
 71
     5
 72
     1
  1
50
  7
ASAMI
1001
ACAD
1000
MTEXTBEGIN
1070
    73
1070
     1
1070
    44
1040
1.0
1070
    74
1070
     0
1000
MTEXTEND
  0
POINT
  5
227F
330
1BA9
100
AcDbEntity
  8
DEFPOINTS
 62
     0
100
AcDbPoint
 10
-50.0
 20
-2.700000000000014
 30
0.0
  0
POINT
  5
2280
330
1BA9
100
AcDbEntity
  8
DEFPOINTS
 62
     0
100
AcDbPoint
 10
0.0
 20
-4.166666666667188
 30
0.0
  0
POINT
  5
2281
330
1BA9
100
AcDbEntity
  8
DEFPOINTS
 62
     0
100
AcDbPoint
 10
-0.0000000000000008
 20
-17.16666666666719
 30
0.0
  0
ENDBLK
  5
1BB4
330
1BA9
100
AcDbEntity
  8
0
100
AcDbBlockEnd
  0
BLOCK
  5
1BE6
330
1BDA
100
AcDbEntity
  8
0
100
AcDbBlockBegin
  2
*D6
 70
     1
 10
0.0
 20
0.0
 30
0.0
  3
*D6
  1

  0
LINE
  5
21BE
330
1BDA
100
AcDbEntity
  8
AM_5
100
AcDbLine
 10
-49.99999999999999
 20
-3.000000000000023
 30
0.0
 11
-60.09314255754917
 21
-3.00000000000002
 31
0.0
  0
LINE
  5
21BF
330
1BDA
100
AcDbEntity
  8
AM_5
100
AcDbLine
 10
-49.99999999999999
 20
2.999999999999985
 30
0.0
 11
-60.09314255754917
 21
2.999999999999987
 31
0.0
  0
LINE
  5
21C0
330
1BDA
100
AcDbEntity
  8
AM_5
100
AcDbLine
 10
-59.59314255754917
 20
-4.25000000000002
 30
0.0
 11
-59.59314255754917
 21
-5.50000000000002
 31
0.0
  0
LINE
  5
21C1
330
1BDA
100
AcDbEntity
  8
AM_5
100
AcDbLine
 10
-59.59314255754917
 20
4.249999999999988
 30
0.0
 11
-59.59314255754917
 21
5.499999999999988
 31
0.0
  0
LINE
  5
21C2
330
1BDA
100
AcDbEntity
  8
AM_5
100
AcDbLine
 10
-59.59314255754917
 20
-3.00000000000002
 30
0.0
 11
-59.59314255754917
 21
2.999999999999987
 31
0.0
  0
INSERT
  5
21C3
330
1BDA
100
AcDbEntity
  8
AM_5
100
AcDbBlockReference
  2
_OPEN30
 10
-59.59314255754917
 20
-3.00000000000002
 30
0.0
 41
1.25
 42
1.25
 43
1.25
 50
90.0
  0
INSERT
  5
21C4
330
1BDA
100
AcDbEntity
  8
AM_5
100
AcDbBlockReference
  2
_OPEN30
 10
-59.59314255754917
 20
2.999999999999987
 30
0.0
 41
1.25
 42
1.25
 43
1.25
 50
270.0
  0
MTEXT
  5
21C5
330
1BDA
100
AcDbEntity
  8
AM_5
 62
     2
100
AcDbMText
 10
-61.14314255754917
 20
-0.0000000000000185
 30
0.0
 40
1.6
 41
0.0
 71
     5
 72
     1
  1
%%c6
  7
ASAMI
 11
0.0000000000000001
 21
1.0
 31
0.0
1001
ACAD
1000
MTEXTBEGIN
1070
    73
1070
     1
1070
    44
1040
1.0
1070
    74
1070
     0
1000
MTEXTEND
  0
POINT
  5
21C6
330
1BDA
100
AcDbEntity
  8
DEFPOINTS
 62
     0
100
AcDbPoint
 10
-49.49999999999999
 20
-3.000000000000023
 30
0.0
  0
POINT
  5
21C7
330
1BDA
100
AcDbEntity
  8
DEFPOINTS
 62
     0
100
AcDbPoint
 10
-49.49999999999999
 20
2.999999999999985
 30
0.0
  0
POINT
  5
21C8
330
1BDA
100
AcDbEntity
  8
DEFPOINTS
 62
     0
100
AcDbPoint
 10
-59.59314255754917
 20
2.999999999999987
 30
0.0
  0
ENDBLK
  5
1BE7
330
1BDA
100
AcDbEntity
  8
0
100
AcDbBlockEnd
  0
BLOCK
  5
1D1B
330
1D11
100
AcDbEntity
  8
0
100
AcDbBlockBegin
  2
*D7
 70
     1
 10
0.0
 20
0.0
 30
0.0
  3
*D7
  1

  0
LINE
  5
21C9
330
1D11
100
AcDbEntity
  8
AM_5
100
AcDbLine
 10
0.0
 20
-2.50000000000025
 30
0.0
 11
-0.0000000000000006
 21
-11.66666666666718
 31
0.0
  0
LINE
  5
21CA
330
1D11
100
AcDbEntity
  8
AM_5
100
AcDbLine
 10
-11.0
 20
-2.499999999999976
 30
0.0
 11
-11.0
 21
-11.66666666666718
 31
0.0
  0
LINE
  5
21CB
330
1D11
100
AcDbEntity
  8
AM_5
100
AcDbLine
 10
-1.25
 20
-11.16666666666718
 30
0.0
 11
-9.750000000000001
 21
-11.16666666666718
 31
0.0
  0
INSERT
  5
21CC
330
1D11
100
AcDbEntity
  8
AM_5
100
AcDbBlockReference
  2
_OPEN30
 10
-0.0000000000000006
 20
-11.16666666666718
 30
0.0
 41
1.25
 42
1.25
 43
1.25
  0
INSERT
  5
21CD
330
1D11
100
AcDbEntity
  8
AM_5
100
AcDbBlockReference
  2
_OPEN30
 10
-11.0
 20
-11.16666666666718
 30
0.0
 41
1.25
 42
1.25
 43
1.25
 50
180.0
  0
MTEXT
  5
21CE
330
1D11
100
AcDbEntity
  8
AM_5
 62
     2
100
AcDbMText
 10
-5.5
 20
-9.616666666667187
 30
0.0
 40
1.6
 41
0.0
 71
     5
 72
     1
  1
11
  7
ASAMI
1001
ACAD
1000
MTEXTBEGIN
1070
    73
1070
     1
1070
    44
1040
1.0
1070
    74
1070
     0
1000
MTEXTEND
  0
POINT
  5
21CF
330
1D11
100
AcDbEntity
  8
DEFPOINTS
 62
     0
100
AcDbPoint
 10
0.0
 20
-2.00000000000025
 30
0.0
  0
POINT
  5
21D0
330
1D11
100
AcDbEntity
  8
DEFPOINTS
 62
     0
100
AcDbPoint
 10
-11.0
 20
-1.999999999999976
 30
0.0
  0
POINT
  5
21D1
330
1D11
100
AcDbEntity
  8
DEFPOINTS
 62
     0
100
AcDbPoint
 10
-11.0
 20
-11.16666666666718
 30
0.0
  0
ENDBLK
  5
1D1C
330
1D11
100
AcDbEntity
  8
0
100
AcDbBlockEnd
  0
BLOCK
  5
1FE4
330
1FDD
100
AcDbEntity
  8
0
100
AcDbBlockBegin
  2
*D8
 70
     1
 10
0.0
 20
0.0
 30
0.0
  3
*D8
  1

  0
LINE
  5
2323
330
1FDD
100
AcDbEntity
  8
AM_5
100
AcDbLine
 10
5.038493762213446
 20
-5.889875833188325
 30
0.0
 11
0.748578413278184
 21
-2.41597087986236
 31
0.0
  0
MTEXT
  5
2324
330
1FDD
100
AcDbEntity
  8
AM_5
 62
     2
100
AcDbMText
 10
4.661336325900109
 20
-3.589982436126613
 30
0.0
 40
1.6
 41
0.0
 71
     5
 72
     1
  1
R1
  7
ASAMI
 11
0.7771459614569709
 21
-0.6293203910498378
 31
0.0
  0
LINE
  5
2325
330
1FDD
100
AcDbEntity
  8
AM_5
100
AcDbLine
 10
-0.9999999999999998
 20
-1.000000000000225
 30
0.0
 11
-0.2228540385430296
 21
-1.629320391050063
 31
0.0
  0
INSERT
  5
2326
330
1FDD
100
AcDbEntity
  8
AM_5
100
AcDbBlockReference
  2
_OPEN30
 10
-0.2228540385430296
 20
-1.629320391050063
 30
0.0
 41
1.25
 42
1.25
 43
1.25
 50
140.9999999999999
  0
POINT
  5
2327
330
1FDD
100
AcDbEntity
  8
DEFPOINTS
 62
     0
100
AcDbPoint
 10
-0.2228540385430296
 20
-1.629320391050063
 30
0.0
  0
POINT
  5
2328
330
1FDD
100
AcDbEntity
  8
DEFPOINTS
 62
     0
100
AcDbPoint
 10
-0.9999999999999998
 20
-1.000000000000225
 30
0.0
  0
ENDBLK
  5
1FE5
330
1FDD
100
AcDbEntity
  8
0
100
AcDbBlockEnd
  0
BLOCK
  5
21F0
330
21E6
100
AcDbEntity
  8
0
100
AcDbBlockBegin
  2
*D9
 70
     1
 10
0.0
 20
0.0
 30
0.0
  3
*D9
  1

  0
LINE
  5
2270
330
21E6
100
AcDbEntity
  8
AM_5
100
AcDbLine
 10
0.5
 20
-2.00000000000025
 30
0.0
 11
7.500000000000071
 21
-2.000000000000252
 31
0.0
  0
LINE
  5
2271
330
21E6
100
AcDbEntity
  8
AM_5
100
AcDbLine
 10
0.5
 20
2.000000000000249
 30
0.0
 11
7.500000000000072
 21
2.000000000000247
 31
0.0
  0
LINE
  5
2272
330
21E6
100
AcDbEntity
  8
AM_5
100
AcDbLine
 10
7.000000000000071
 20
-0.7500000000002525
 30
0.0
 11
7.000000000000071
 21
0.7500000000002477
 31
0.0
  0
INSERT
  5
2273
330
21E6
100
AcDbEntity
  8
AM_5
100
AcDbBlockReference
  2
_OPEN30
 10
7.000000000000071
 20
-2.000000000000252
 30
0.0
 41
1.25
 42
1.25
 43
1.25
 50
270.0
  0
INSERT
  5
2274
330
21E6
100
AcDbEntity
  8
AM_5
100
AcDbBlockReference
  2
_OPEN30
 10
7.000000000000072
 20
2.000000000000247
 30
0.0
 41
1.25
 42
1.25
 43
1.25
 50
90.0
  0
MTEXT
  5
2275
330
21E6
100
AcDbEntity
  8
AM_5
 62
     2
100
AcDbMText
 10
5.450000000000072
 20
-0.0000000000000011
 30
0.0
 40
1.6
 41
0.0
 71
     5
 72
     1
  1
%%c4
  7
ASAMI
 11
0.0000000000000001
 21
1.0
 31
0.0
1001
ACAD
1000
MTEXTBEGIN
1070
    73
1070
     1
1070
    44
1040
1.0
1070
    74
1070
     0
1000
MTEXTEND
  0
POINT
  5
2276
330
21E6
100
AcDbEntity
  8
DEFPOINTS
 62
     0
100
AcDbPoint
 10
0.0
 20
-2.00000000000025
 30
0.0
  0
POINT
  5
2277
330
21E6
100
AcDbEntity
  8
DEFPOINTS
 62
     0
100
AcDbPoint
 10
0.0
 20
2.000000000000249
 30
0.0
  0
POINT
  5
2278
330
21E6
100
AcDbEntity
  8
DEFPOINTS
 62
     0
100
AcDbPoint
 10
7.000000000000072
 20
2.000000000000247
 30
0.0
  0
ENDBLK
  5
21F1
330
21E6
100
AcDbEntity
  8
0
100
AcDbBlockEnd
  0
ENDSEC
  0
SECTION
  2
ENTITIES
  0
TEXT
  5
F17
330
1F
100
AcDbEntity
  8
AM_6
100
AcDbText
 10
-41.66666666666666
 20
-28.41666666666719
 30
0.0
 40
2.5
  1
SSUP4040ZX-R10
 72
     1
 11
-25.0
 21
-27.16666666666719
 31
0.0
100
AcDbText
 73
     2
  0
LINE
  5
1AB8
330
1F
100
AcDbEntity
  8
AM_0
100
AcDbLine
 10
-50.0
 20
2.699999999999975
 30
0.0
 11
-49.5
 21
2.999999999999976
 31
0.0
1001
GENIUS_GENFIL_13
1070
     0
1040
0.5
1040
0.5
1040
20.0
1040
0.0
1002
{
1002
}
1001
GENIUS_GENODEF_13
1002
{
1000
HIER
1070
     0
1002
}
1002
{
1000
MANEDIT
1070
     0
1002
}
1002
{
1000
NOSEL
1070
     0
1002
}
1002
{
1000
BEHIND
1070
     0
1002
}
1002
{
1000
REACTOR
1002
}
1001
GENIUS_GENOBJ-N-CHA_13
1002
{
1000
OWNER
1000
GEN
1002
}
  0
LINE
  5
1AB9
330
1F
100
AcDbEntity
  8
AM_0
100
AcDbLine
 10
-49.99999999999999
 20
-2.700000000000023
 30
0.0
 11
-49.49999999999999
 21
-3.000000000000023
 31
0.0
1001
GENIUS_GENFIL_13
1070
     0
1040
0.5
1040
0.5
1040
20.0
1040
0.0
1002
{
1002
}
1001
GENIUS_GENODEF_13
1002
{
1000
HIER
1070
     0
1002
}
1002
{
1000
MANEDIT
1070
     0
1002
}
1002
{
1000
NOSEL
1070
     0
1002
}
1002
{
1000
BEHIND
1070
     0
1002
}
1002
{
1000
REACTOR
1002
}
1001
GENIUS_GENOBJ-N-CHA_13
1002
{
1000
OWNER
1000
GEN
1002
}
  0
LINE
  5
1ABA
330
1F
100
AcDbEntity
  8
AM_0
100
AcDbLine
 10
-49.5
 20
-2.997055929544407
 30
0.0
 11
-49.49999999999999
 21
2.999999999999939
 31
0.0
  0
LINE
  5
1ABB
330
1F
100
AcDbEntity
  8
AM_0
100
AcDbLine
 10
-50.0
 20
2.699999999999975
 30
0.0
 11
-49.99999999999999
 21
-2.700000000000023
 31
0.0
  0
LINE
  5
1ACB
330
1F
100
AcDbEntity
  8
AM_0
100
AcDbLine
 10
-16.23205080756898
 20
-3.000000000000005
 30
0.0
 11
-49.49999999999999
 21
-3.000000000000023
 31
0.0
1001
GENIUS_GENODEF_13
1002
{
1000
HIER
1070
     0
1002
}
1002
{
1000
MANEDIT
1070
     0
1002
}
1002
{
1000
NOSEL
1070
     0
1002
}
1002
{
1000
BEHIND
1070
     0
1002
}
1002
{
1000
REACTOR
1002
}
1001
GENIUS_GENOBJ-N-CEN_13
1002
{
1000
OWNER
1000
GEN
1002
}
  0
LINE
  5
1ACC
330
1F
100
AcDbEntity
  8
AM_0
100
AcDbLine
 10
-16.23205080756792
 20
2.999999999999995
 30
0.0
 11
-49.5
 21
2.999999999999976
 31
0.0
1001
GENIUS_GENODEF_13
1002
{
1000
HIER
1070
     0
1002
}
1002
{
1000
MANEDIT
1070
     0
1002
}
1002
{
1000
NOSEL
1070
     0
1002
}
1002
{
1000
BEHIND
1070
     0
1002
}
1002
{
1000
REACTOR
1002
}
1001
GENIUS_GENOBJ-N-CEN_13
1002
{
1000
OWNER
1000
GEN
1002
}
  0
LINE
  5
1ACD
330
1F
100
AcDbEntity
  8
AM_7
  6
AM_ISO08W050X2
100
AcDbLine
 10
2.309971685862478
 20
0.0000000000000014
 30
0.0
 11
-52.59314155754916
 21
-0.0000000000000245
 31
0.0
1001
GENIUS_GENODEF_13
1002
{
1000
HIER
1070
     0
1002
}
1002
{
1000
MANEDIT
1070
     0
1002
}
1002
{
1000
NOSEL
1070
     0
1002
}
1002
{
1000
BEHIND
1070
     0
1002
}
1002
{
1000
REACTOR
1002
}
1001
GENIUS_GENOBJ-N-CEN_13
1002
{
1000
OWNER
1000
GEN
1002
}
  0
DIMENSION
  5
1BA8
330
1F
100
AcDbEntity
  8
AM_5
100
AcDbDimension
  2
*D5
 10
-0.0000000000000008
 20
-17.16666666666719
 30
0.0
 11
-25.0
 21
-15.61666666666718
 31
0.0
 70
    32
  1
<>
  3
AM_JIS
100
AcDbAlignedDimension
 13
-50.0
 23
-2.700000000000014
 33
0.0
 14
0.0
 24
-4.166666666667188
 34
0.0
100
AcDbRotatedDimension
1001
GENIUS_GENDTOL_13
1000

1000
h7
1000

1040
0.0
  0
DIMENSION
  5
1BD9
330
1F
100
AcDbEntity
  8
AM_5
100
AcDbDimension
  2
*D6
 10
-59.59314255754917
 20
2.999999999999987
 30
0.0
 11
-59.59314255754917
 21
-0.0000000000000187
 31
0.0
 70
   160
  1
%%c<>
  3
AM_JIS
100
AcDbAlignedDimension
 13
-49.49999999999999
 23
-3.000000000000023
 33
0.0
 14
-49.49999999999999
 24
2.999999999999985
 34
0.0
 50
270.0000000000001
100
AcDbRotatedDimension
1001
GENIUS_GENDTOL_13
1000

1000
h7
1000

1040
0.0
  0
LINE
  5
1D0A
330
1F
100
AcDbEntity
  8
AM_11
100
AcDbLine
 10
-10.99999999999999
 20
2.000000000000249
 30
0.0
 11
0.0
 21
2.000000000000249
 31
0.0
  0
LINE
  5
1D0F
330
1F
100
AcDbEntity
  8
AM_11
100
AcDbLine
 10
0.0
 20
-2.00000000000025
 30
0.0
 11
-11.0
 21
-1.999999999999976
 31
0.0
  0
DIMENSION
  5
1D10
330
1F
100
AcDbEntity
  8
AM_5
100
AcDbDimension
  2
*D7
 10
-11.0
 20
-11.16666666666718
 30
0.0
 11
-5.5
 21
-9.616666666667187
 31
0.0
 70
    32
  1
<>
  3
AM_JIS
100
AcDbAlignedDimension
 13
0.0
 23
-2.00000000000025
 33
0.0
 14
-11.0
 24
-1.999999999999976
 34
0.0
100
AcDbRotatedDimension
1001
GENIUS_GENDTOL_13
1000

1000
h7
1000

1040
0.0
  0
LINE
  5
1D1F
330
1F
100
AcDbEntity
  8
AM_11
100
AcDbLine
 10
-10.99999999999999
 20
2.000000000000249
 30
0.0
 11
-11.0
 21
-1.999999999999976
 31
0.0
  0
SPLINE
  5
1E19
330
1F
100
AcDbEntity
  8
AM_0
100
AcDbSpline
210
0.0
220
0.0
230
1.0
 70
     8
 71
     3
 72
     8
 73
     4
 74
     0
 42
0.0000000001
 43
0.0000000001
 40
0.2725981709865456
 40
0.2725981709865456
 40
0.2725981709865456
 40
0.2725981709865456
 40
2.093133798227362
 40
2.093133798227362
 40
2.093133798227362
 40
2.093133798227362
 10
-9.197970784228822
 20
-2.000000000000003
 30
0.0
 10
-8.919545098546524
 20
-1.989336421468238
 30
0.0
 10
-8.649428640180625
 20
-1.951959404805495
 30
0.0
 10
-8.386158308515206
 20
-1.890955574144283
 30
0.0
  0
SPLINE
  5
1E1A
330
1F
100
AcDbEntity
  8
AM_0
100
AcDbSpline
210
0.0
220
0.0
230
1.0
 70
     8
 71
     3
 72
     8
 73
     4
 74
     0
 42
0.0000000001
 43
0.0000000001
 40
0.0
 40
0.0
 40
0.0
 40
0.0
 40
0.6152373134461622
 40
0.6152373134461622
 40
0.6152373134461622
 40
0.6152373134461622
 10
-8.103985476420632
 20
-1.900557646564243
 30
0.0
 10
-8.198929506273437
 20
-1.900557646564243
 30
0.0
 10
-8.292969453850489
 20
-1.897293177589932
 30
0.0
 10
-8.386158308515206
 20
-1.890955574144254
 30
0.0
  0
SPLINE
  5
1E1B
330
1F
100
AcDbEntity
  8
AM_0
100
AcDbSpline
210
0.0
220
0.0
230
1.0
 70
     8
 71
     3
 72
     8
 73
     4
 74
     0
 42
0.0000000001
 43
0.0000000001
 40
0.0
 40
0.0
 40
0.0
 40
0.0
 40
3.977355368879245
 40
3.977355368879245
 40
3.977355368879245
 40
3.977355368879245
 10
-8.103985476420632
 20
-1.900557646564243
 30
0.0
 10
-7.490196067643047
 20
-1.900557646564334
 30
0.0
 10
-6.914190961680543
 20
-1.764125722651511
 30
0.0
 10
-6.361653426733306
 20
-1.542956867669295
 30
0.0
  0
LINE
  5
1E1C
330
1F
100
AcDbEntity
  8
AM_0
100
AcDbLine
 10
-1.704194180152796
 20
1.999999999999886
 30
0.0
 11
-1.000000000000213
 21
2.000000000000036
 31
0.0
  0
LINE
  5
1E1D
330
1F
100
AcDbEntity
  8
AM_0
100
AcDbLine
 10
-0.0582952227283066
 20
0.3766843095934516
 30
0.0
 11
-0.2202941727878843
 21
0.8990486115022347
 31
0.0
  0
LINE
  5
1E1E
330
1F
100
AcDbEntity
  8
AM_0
100
AcDbLine
 10
-0.0582952227283066
 20
-0.6128058689865842
 30
0.0
 11
-0.0052879695961868
 21
-0.4706487524279741
 31
0.0
  0
LINE
  5
1E1F
330
1F
100
AcDbEntity
  8
AM_0
100
AcDbLine
 10
-0.0052879695961868
 20
-0.0590570912492015
 30
0.0
 11
-0.0582952227283066
 21
0.3766843095934516
 31
0.0
  0
LINE
  5
1E20
330
1F
100
AcDbEntity
  8
AM_0
100
AcDbLine
 10
-0.0052879695961868
 20
-0.0506487524279013
 30
0.0
 11
-0.658497687519415
 21
0.0002609219509165
 31
0.0
  0
LINE
  5
1E21
330
1F
100
AcDbEntity
  8
AM_0
100
AcDbLine
 10
-10.18518518518518
 20
1.006016020254639
 30
0.0
 11
-10.18518518518518
 21
1.502090012987383
 31
0.0
  0
LINE
  5
1E24
330
1F
100
AcDbEntity
  8
AM_0
100
AcDbLine
 10
-1.104234628578012
 20
-2.000000000000068
 30
0.0
 11
-1.000000000000164
 21
-2.000000000000086
 31
0.0
  0
LINE
  5
1E25
330
1F
100
AcDbEntity
  8
AM_0
100
AcDbLine
 10
-0.1754691132205584
 20
-1.565816946323599
 30
0.0
 11
-0.2028951093898791
 21
-1.483751871785466
 31
0.0
  0
LINE
  5
1E26
330
1F
100
AcDbEntity
  8
AM_0
100
AcDbLine
 10
-0.0582952227283066
 20
-0.6128058689865842
 30
0.0
 11
-0.2024306898177925
 21
-0.863016648570397
 31
0.0
  0
LINE
  5
1E27
330
1F
100
AcDbEntity
  8
AM_0
100
AcDbLine
 10
-0.0530072531319091
 20
-1.321254941408491
 30
0.0
 11
-0.0530072531319092
 21
-0.5986243661570601
 31
0.0
  0
LINE
  5
1E28
330
1F
100
AcDbEntity
  8
AM_0
100
AcDbLine
 10
0.0
 20
1.000000000000249
 30
0.0
 11
0.0
 21
-1.000000000000225
 31
0.0
  0
POLYLINE
  5
1E29
330
1F
100
AcDbEntity
  8
AM_0
100
AcDb2dPolyline
 66
     1
 10
0.0
 20
0.0
 30
0.0
 70
     2
  0
VERTEX
  5
1E2A
330
1E29
100
AcDbEntity
  8
AM_0
100
AcDbVertex
100
AcDb2dVertex
 10
-10.18518518518518
 20
-0.9221620307354672
 30
0.0
 42
-0.0129986936669445
  0
VERTEX
  5
1E2B
330
1E29
100
AcDbEntity
  8
AM_0
100
AcDbVertex
100
AcDb2dVertex
 10
-10.7590248251518
 20
-0.5353685558098622
 30
0.0
 42
-0.0238378164251699
 70
     1
  0
VERTEX
  5
1E2C
330
1E29
100
AcDbEntity
  8
AM_0
100
AcDbVertex
100
AcDb2dVertex
 10
-11.05324074074074
 20
-0.3050340640984134
 30
0.0
 42
-0.0087697151677761
  0
VERTEX
  5
1E2D
330
1E29
100
AcDbEntity
  8
AM_0
100
AcDbVertex
100
AcDb2dVertex
 10
-11.82459357238736
 20
0.3830703211524562
 30
0.0
 42
-0.016586017082525
 70
     1
  0
VERTEX
  5
1E2E
330
1E29
100
AcDbEntity
  8
AM_0
100
AcDbVertex
100
AcDb2dVertex
 10
-12.21064814814814
 20
0.7643683172435997
 30
0.0
 42
-0.0451742545712589
  0
VERTEX
  5
1E2F
330
1E29
100
AcDbEntity
  8
AM_0
100
AcDbVertex
100
AcDb2dVertex
 10
-12.46924567183177
 20
1.09430584424773
 30
0.0
 42
-0.1465772931919247
 70
     1
  0
VERTEX
  5
1E30
330
1E29
100
AcDbEntity
  8
AM_0
100
AcDbVertex
100
AcDb2dVertex
 10
-12.5
 20
1.216642731948558
 30
0.0
 42
-0.2363269648915856
  0
VERTEX
  5
1E31
330
1E29
100
AcDbEntity
  8
AM_0
100
AcDbVertex
100
AcDb2dVertex
 10
-12.44555979115732
 20
1.294873197079414
 30
0.0
 42
-0.0944295254831177
 70
     1
  0
VERTEX
  5
1E32
330
1E29
100
AcDbEntity
  8
AM_0
100
AcDbVertex
100
AcDb2dVertex
 10
-12.21064814814814
 20
1.375238212356276
 30
0.0
 42
-0.0735428200704349
  0
VERTEX
  5
1E33
330
1E29
100
AcDbEntity
  8
AM_0
100
AcDbVertex
100
AcDb2dVertex
 10
-11.90764537496719
 20
1.386212441248454
 30
0.0
 42
-0.025664050315163
 70
     1
  0
VERTEX
  5
1E34
330
1E29
100
AcDbEntity
  8
AM_0
100
AcDbVertex
100
AcDb2dVertex
 10
-11.05324074074074
 20
1.269924856509316
 30
0.0
 42
-0.0327084143688329
  0
VERTEX
  5
1E35
330
1E29
100
AcDbEntity
  8
AM_0
100
AcDbVertex
100
AcDb2dVertex
 10
-10.6620888179734
 20
1.175317402111056
 30
0.0
 42
-0.0257576852941419
 70
     1
  0
VERTEX
  5
1E36
330
1E29
100
AcDbEntity
  8
AM_0
100
AcDbVertex
100
AcDb2dVertex
 10
-10.18518518518518
 20
1.006016020254639
 30
0.0
  0
SEQEND
  5
1E37
330
1E29
100
AcDbEntity
  8
AM_0
  0
SPLINE
  5
1E38
330
1F
100
AcDbEntity
  8
AM_0
100
AcDbSpline
210
0.0
220
0.0
230
1.0
 70
     8
 71
     3
 72
     8
 73
     4
 74
     0
 42
0.0000000001
 43
0.0000000001
 40
0.0
 40
0.0
 40
0.0
 40
0.0
 40
3.983447643433449
 40
3.983447643433449
 40
3.983447643433449
 40
3.983447643433449
 10
-8.75925925925908
 20
1.999999999999885
 30
0.0
 10
-9.37398883386292
 20
1.999999999999885
 30
0.0
 10
-9.947888107528084
 20
1.859089676830478
 30
0.0
 10
-10.49628396834288
 20
1.630163981156317
 30
0.0
  0
SPLINE
  5
1E39
330
1F
100
AcDbEntity
  8
AM_0
100
AcDbSpline
210
0.0
220
0.0
230
1.0
 70
     8
 71
     3
 72
     8
 73
     4
 74
     0
 42
0.0000000001
 43
0.0000000001
 40
5.215942287204468
 40
5.215942287204468
 40
5.215942287204468
 40
5.215942287204468
 40
10.4969207889486
 40
10.4969207889486
 40
10.4969207889486
 40
10.4969207889486
 10
-10.18518518518517
 20
1.313243317176073
 30
0.0
 10
-9.469110432836689
 20
0.9561665058383251
 30
0.0
 10
-8.786547954596603
 20
0.4780832529191512
 30
0.0
 10
-8.103985476356632
 20
-0.000000000000023
 30
0.0
  0
SPLINE
  5
1E3A
330
1F
100
AcDbEntity
  8
AM_0
100
AcDbSpline
210
0.0
220
0.0
230
1.0
 70
     8
 71
     3
 72
     8
 73
     4
 74
     0
 42
0.0000000001
 43
0.0000000001
 40
0.6393216442353146
 40
0.6393216442353146
 40
0.6393216442353146
 40
0.6393216442353146
 40
10.49653484266006
 40
10.49653484266006
 40
10.49653484266006
 40
10.49653484266006
 10
-11.96560918446549
 20
2.000000000000249
 30
0.0
 10
-10.10025026074782
 20
1.702720188444777
 30
0.0
 10
-8.793391289694445
 20
0.8771751488455944
 30
0.0
 10
-7.486532318640642
 20
0.0516301092464116
 30
0.0
  0
SPLINE
  5
1E3B
330
1F
100
AcDbEntity
  8
AM_0
100
AcDbSpline
210
0.0
220
0.0
230
1.0
 70
     8
 71
     3
 72
     8
 73
     4
 74
     0
 42
0.0000000001
 43
0.0000000001
 40
6.902118198828401
 40
6.902118198828401
 40
6.902118198828401
 40
6.902118198828401
 40
10.61176705360581
 40
10.61176705360581
 40
10.61176705360581
 40
10.61176705360581
 10
-10.18518518518525
 20
1.00601602025456
 30
0.0
 10
-9.701624076245575
 20
0.6991576117413441
 30
0.0
 10
-9.230441667752431
 20
0.3495788058706577
 30
0.0
 10
-8.759259259259293
 20
-0.000000000000023
 30
0.0
  0
SPLINE
  5
1E3C
330
1F
100
AcDbEntity
  8
AM_0
100
AcDbSpline
210
0.0
220
0.0
230
1.0
 70
     8
 71
     3
 72
     8
 73
     4
 74
     0
 42
0.0000000001
 43
0.0000000001
 40
0.0
 40
0.0
 40
0.0
 40
0.0
 40
3.693181591597908
 40
3.693181591597908
 40
3.693181591597908
 40
3.693181591597908
 10
-3.77065214302324
 20
-1.900557646564243
 30
0.0
 10
-3.200716712221163
 20
-1.900557646564328
 30
0.0
 10
-2.663359245892546
 20
-1.782924819195389
 30
0.0
 10
-2.147117683772456
 20
-1.589046481875885
 30
0.0
  0
SPLINE
  5
1E3D
330
1F
100
AcDbEntity
  8
AM_0
100
AcDbSpline
210
0.0
220
0.0
230
1.0
 70
     8
 71
     3
 72
     8
 73
     4
 74
     0
 42
0.0000000001
 43
0.0000000001
 40
0.6152373134470183
 40
0.6152373134470183
 40
0.6152373134470183
 40
0.6152373134470183
 40
8.843083020165714
 40
8.843083020165714
 40
8.843083020165714
 40
8.843083020165714
 10
-3.488479310928167
 20
1.890955574144186
 30
0.0
 10
-2.242222783552783
 20
1.806199948693824
 30
0.0
 10
-1.148183522319725
 20
1.171816755041777
 30
0.0
 10
-0.0796199469279886
 20
0.4454457099967609
 30
0.0
  0
SPLINE
  5
1E3E
330
1F
100
AcDbEntity
  8
AM_0
100
AcDbSpline
210
0.0
220
0.0
230
1.0
 70
     8
 71
     3
 72
     8
 73
     4
 74
     0
 42
0.0000000001
 43
0.0000000001
 40
0.0
 40
0.0
 40
0.0
 40
0.0
 40
10.7633540680078
 40
10.7633540680078
 40
10.7633540680078
 40
10.7633540680078
 10
-4.42592592592569
 20
1.999999999999977
 30
0.0
 10
-2.764914495677571
 20
1.999999999999976
 30
0.0
 10
-1.388753023823384
 20
1.000490678409254
 30
0.0
 10
-0.0125915519691988
 20
0.0009813568185325
 30
0.0
  0
SPLINE
  5
1E3F
330
1F
100
AcDbEntity
  8
AM_0
100
AcDbSpline
210
0.0
220
0.0
230
1.0
 70
     8
 71
     3
 72
     8
 73
     4
 74
     0
 42
0.0000000001
 43
0.0000000001
 40
2.121503326645895
 40
2.121503326645895
 40
2.121503326645895
 40
2.121503326645895
 40
10.4969207889486
 40
10.4969207889486
 40
10.4969207889486
 40
10.4969207889486
 10
-0.3894188180055591
 20
-1.791953673010378
 30
0.0
 10
-1.605619394839526
 20
-1.516441251791331
 30
0.0
 10
-2.688135768931293
 20
-0.7582206258956772
 30
0.0
 10
-3.77065214302324
 20
-0.000000000000023
 30
0.0
  0
SPLINE
  5
1E40
330
1F
100
AcDbEntity
  8
AM_0
100
AcDbSpline
210
0.0
220
0.0
230
1.0
 70
     8
 71
     3
 72
     8
 73
     4
 74
     0
 42
0.0000000001
 43
0.0000000001
 40
0.0
 40
0.0
 40
0.0
 40
0.0
 40
10.61176705360627
 40
10.61176705360627
 40
10.61176705360627
 40
10.61176705360627
 10
-1.104234628578012
 20
-2.000000000000068
 30
0.0
 10
-1.730210965062611
 20
-2.000000000000068
 30
0.0
 10
-3.078068445494256
 20
-1.000000000000045
 30
0.0
 10
-4.4259259259259
 20
-0.000000000000023
 30
0.0
  0
SPLINE
  5
1E41
330
1F
100
AcDbEntity
  8
AM_0
100
AcDbSpline
210
0.0
220
0.0
230
1.0
 70
     8
 71
     3
 72
     8
 73
     4
 74
     0
 42
0.0000000001
 43
0.0000000001
 40
3.266224444355238
 40
3.266224444355238
 40
3.266224444355238
 40
3.266224444355238
 40
10.49653484266006
 40
10.49653484266006
 40
10.49653484266006
 40
10.49653484266006
 10
-0.2028951093898791
 20
-1.483751871785375
 30
0.0
 10
-1.236025070668726
 20
-1.159451920517699
 30
0.0
 10
-2.194612027988198
 20
-0.5539109056356441
 30
0.0
 10
-3.153198985307459
 20
0.0516301092464116
 30
0.0
  0
SPLINE
  5
1E42
330
1F
100
AcDbEntity
  8
AM_0
100
AcDbSpline
210
0.0
220
0.0
230
1.0
 70
     8
 71
     3
 72
     8
 73
     4
 74
     0
 42
0.0000000001
 43
0.0000000001
 40
0.6393216439718838
 40
0.6393216439718838
 40
0.6393216439718838
 40
0.6393216439718838
 40
6.996796499348805
 40
6.996796499348805
 40
6.996796499348805
 40
6.996796499348805
 10
-2.929328018954627
 20
1.815624965680103
 30
0.0
 10
-1.964637758220112
 20
1.742806282795094
 30
0.0
 10
-1.078517997373014
 20
1.373551317720261
 30
0.0
 10
-0.2202941727876737
 20
0.8990486115022347
 30
0.0
  0
SPLINE
  5
1E43
330
1F
100
AcDbEntity
  8
AM_0
100
AcDbSpline
210
0.0
220
0.0
230
1.0
 70
     8
 71
     3
 72
     8
 73
     4
 74
     0
 42
0.0000000001
 43
0.0000000001
 40
0.0
 40
0.0
 40
0.0
 40
0.0
 40
2.4079390838223
 40
2.4079390838223
 40
2.4079390838223
 40
2.4079390838223
 10
-3.222797364273648
 20
-1.725145373244481
 30
0.0
 10
-2.85123463995218
 20
-1.720878798212629
 30
0.0
 10
-2.491674451364276
 20
-1.67132821614407
 30
0.0
 10
-2.141363377945203
 20
-1.586881924896102
 30
0.0
  0
SPLINE
  5
1E44
330
1F
100
AcDbEntity
  8
AM_0
100
AcDbSpline
210
0.0
220
0.0
230
1.0
 70
     8
 71
     3
 72
     9
 73
     5
 74
     0
 42
0.0000000001
 43
0.0000000001
 40
0.0
 40
0.0
 40
0.0
 40
0.0
 40
0.6574415203969619
 40
3.123721247380082
 40
3.123721247380082
 40
3.123721247380082
 40
3.123721247380082
 10
-0.658497687519415
 20
0.0002609219509165
 30
0.0
 10
-0.7595444331406894
 20
0.0081362746523033
 30
0.0
 10
-1.335332346496237
 20
-0.2581051513463887
 30
0.0
 10
-0.4293304109219458
 20
-0.5990057522023723
 30
0.0
 10
-0.2024306898177925
 20
-0.863016648570397
 30
0.0
  0
SPLINE
  5
1E45
330
1F
100
AcDbEntity
  8
AM_0
100
AcDbSpline
210
0.0
220
0.0
230
1.0
 70
     8
 71
     3
 72
     8
 73
     4
 74
     0
 42
0.0000000001
 43
0.0000000001
 40
1.116216629508244
 40
1.116216629508244
 40
1.116216629508244
 40
1.116216629508244
 40
2.847661750814433
 40
2.847661750814433
 40
2.847661750814433
 40
2.847661750814433
 10
-0.2339644724425278
 20
1.642798234692199
 30
0.0
 10
-0.4305064969518967
 20
1.494069760568302
 30
0.0
 10
-0.7831576110234011
 20
1.398989784182957
 30
0.0
 10
-1.127300239497335
 20
1.347599207107918
 30
0.0
  0
SPLINE
  5
1E46
330
1F
100
AcDbEntity
  8
AM_0
100
AcDbSpline
210
0.0
220
0.0
230
1.0
 70
     8
 71
     3
 72
     8
 73
     4
 74
     0
 42
0.0000000001
 43
0.0000000001
 40
2.846822686222081
 40
2.846822686222081
 40
2.846822686222081
 40
2.846822686222081
 40
4.066976460604845
 40
4.066976460604845
 40
4.066976460604845
 40
4.066976460604845
 10
-1.0
 20
1.999999999999886
 30
0.0
 10
-1.192247920727606
 20
1.929980852635129
 30
0.0
 10
-1.0
 20
1.999999999999886
 30
0.0
 10
-1.864081700171869
 20
1.615647356206568
 30
0.0
  0
SPLINE
  5
1E47
330
1F
100
AcDbEntity
  8
AM_0
100
AcDbSpline
210
0.0
220
0.0
230
1.0
 70
     8
 71
     3
 72
     8
 73
     4
 74
     0
 42
0.0000000001
 43
0.0000000001
 40
0.0
 40
0.0
 40
0.0
 40
0.0
 40
1.551838382253894
 40
1.551838382253894
 40
1.551838382253894
 40
1.551838382253894
 10
-0.2024306898133714
 20
-0.8630166485755811
 30
0.0
 10
-0.1234747352482864
 20
-1.058359420382723
 30
0.0
 10
-0.1586198226908948
 20
-1.280407017860013
 30
0.0
 10
-0.2028951093898791
 20
-1.483751871785466
 30
0.0
  0
SPLINE
  5
1E48
330
1F
100
AcDbEntity
  8
AM_0
100
AcDbSpline
210
0.0
220
0.0
230
1.0
 70
     8
 71
     3
 72
     8
 73
     4
 74
     0
 42
0.0000000001
 43
0.0000000001
 40
0.0
 40
0.0
 40
0.0
 40
0.0
 40
10.49692078894909
 40
10.49692078894909
 40
10.49692078894909
 40
10.49692078894909
 10
-3.77065214302303
 20
-1.900557646564243
 30
0.0
 10
-5.390547326502828
 20
-1.900557646564243
 30
0.0
 10
-6.74726640142973
 20
-0.9502788232821334
 30
0.0
 10
-8.103985476356632
 20
-0.000000000000023
 30
0.0
  0
SPLINE
  5
1E49
330
1F
100
AcDbEntity
  8
AM_0
100
AcDbSpline
210
0.0
220
0.0
230
1.0
 70
     8
 71
     3
 72
     8
 73
     4
 74
     0
 42
0.0000000001
 43
0.0000000001
 40
0.0
 40
0.0
 40
0.0
 40
0.0
 40
10.49653484265986
 40
10.49653484265986
 40
10.49653484265986
 40
10.49653484265986
 10
-3.083600606341271
 20
-1.725145373244481
 30
0.0
 10
-4.703293192535754
 20
-1.706546790837796
 30
0.0
 10
-6.094912755588198
 20
-0.8274583407956926
 30
0.0
 10
-7.486532318640642
 20
0.0516301092464116
 30
0.0
  0
SPLINE
  5
1E4A
330
1F
100
AcDbEntity
  8
AM_0
100
AcDbSpline
210
0.0
220
0.0
230
1.0
 70
     8
 71
     3
 72
     8
 73
     4
 74
     0
 42
0.0000000001
 43
0.0000000001
 40
0.0
 40
0.0
 40
0.0
 40
0.0
 40
10.61065478016067
 40
10.61065478016067
 40
10.61065478016067
 40
10.61065478016067
 10
-4.42592592592569
 20
-1.999055571563184
 30
0.0
 10
-6.063372651259127
 20
-1.999055571563184
 30
0.0
 10
-7.41131595525921
 20
-0.9995277857816034
 30
0.0
 10
-8.759259259259293
 20
-0.000000000000023
 30
0.0
  0
SPLINE
  5
1E4B
330
1F
100
AcDbEntity
  8
AM_0
100
AcDbSpline
210
0.0
220
0.0
230
1.0
 70
     8
 71
     3
 72
     8
 73
     4
 74
     0
 42
0.0000000001
 43
0.0000000001
 40
0.0
 40
0.0
 40
0.0
 40
0.0
 40
4.066976460604825
 40
4.066976460604825
 40
4.066976460604825
 40
4.066976460604825
 10
-4.42592592592569
 20
1.999999999999885
 30
0.0
 10
-5.0535457500932
 20
1.999999999999885
 30
0.0
 10
-5.638604981138921
 20
1.853118228542439
 30
0.0
 10
-6.19741503350505
 20
1.615647356206568
 30
0.0
  0
SPLINE
  5
1E4C
330
1F
100
AcDbEntity
  8
AM_0
100
AcDbSpline
210
0.0
220
0.0
230
1.0
 70
     8
 71
     3
 72
     8
 73
     4
 74
     0
 42
0.0000000001
 43
0.0000000001
 40
0.0
 40
0.0
 40
0.0
 40
0.0
 40
10.61176705360661
 40
10.61176705360661
 40
10.61176705360661
 40
10.61176705360661
 10
-8.759259259259293
 20
1.999999999999977
 30
0.0
 10
-7.121640886789135
 20
1.999999999999976
 30
0.0
 10
-5.773783406357413
 20
0.9999999999999767
 30
0.0
 10
-4.42592592592569
 20
-0.000000000000023
 30
0.0
  0
SPLINE
  5
1E4D
330
1F
100
AcDbEntity
  8
AM_0
100
AcDbSpline
210
0.0
220
0.0
230
1.0
 70
     8
 71
     3
 72
     8
 73
     4
 74
     0
 42
0.0000000001
 43
0.0000000001
 40
0.6152373134470183
 40
0.6152373134470183
 40
0.6152373134470183
 40
0.6152373134470183
 40
10.4969207889486
 40
10.4969207889486
 40
10.4969207889486
 40
10.4969207889486
 10
-7.821812644261559
 20
1.890955574144186
 30
0.0
 10
-6.32505237775031
 20
1.789163647882719
 30
0.0
 10
-5.047852260386881
 20
0.8945818239413481
 30
0.0
 10
-3.77065214302303
 20
-0.000000000000023
 30
0.0
  0
SPLINE
  5
1E4E
330
1F
100
AcDbEntity
  8
AM_0
100
AcDbSpline
210
0.0
220
0.0
230
1.0
 70
     8
 71
     3
 72
     8
 73
     4
 74
     0
 42
0.0000000001
 43
0.0000000001
 40
0.6393216442358057
 40
0.6393216442358057
 40
0.6393216442358057
 40
0.6393216442358057
 40
10.49653484266006
 40
10.49653484266006
 40
10.49653484266006
 40
10.49653484266006
 10
-7.262661352167596
 20
1.815624965671099
 30
0.0
 10
-5.766916927414648
 20
1.702720188444686
 30
0.0
 10
-4.460057956361055
 20
0.8771751488455944
 30
0.0
 10
-3.153198985307459
 20
0.0516301092464116
 30
0.0
  0
SPLINE
  5
1E4F
330
1F
100
AcDbEntity
  8
AM_0
100
AcDbSpline
210
0.0
220
0.0
230
1.0
 70
     8
 71
     3
 72
     8
 73
     4
 74
     0
 42
0.0000000001
 43
0.0000000001
 40
0.0
 40
0.0
 40
0.0
 40
0.0
 40
2.093133798227362
 40
2.093133798227362
 40
2.093133798227362
 40
2.093133798227362
 10
-4.4259259259259
 20
-1.999055571563093
 30
0.0
 10
-4.102911450890872
 20
-1.999999999999977
 30
0.0
 10
-3.791170464583298
 20
-1.961093822398084
 30
0.0
 10
-3.488479310928377
 20
-1.890955574144277
 30
0.0
  0
SPLINE
  5
1E50
330
1F
100
AcDbEntity
  8
AM_0
100
AcDbSpline
210
0.0
220
0.0
230
1.0
 70
     8
 71
     3
 72
     8
 73
     4
 74
     0
 42
0.0000000001
 43
0.0000000001
 40
0.150648776844293
 40
0.150648776844293
 40
0.150648776844293
 40
0.150648776844293
 40
6.420166228128741
 40
6.420166228128741
 40
6.420166228128741
 40
6.420166228128741
 10
-7.486532319296991
 20
-1.723815374700681
 30
0.0
 10
-8.450082754899517
 20
-1.698059312871043
 30
0.0
 10
-9.333433630312034
 20
-1.369720736101337
 30
0.0
 10
-10.18518518518518
 20
-0.9221620307354672
 30
0.0
  0
SPLINE
  5
1E51
330
1F
100
AcDbEntity
  8
AM_0
100
AcDbSpline
210
0.0
220
0.0
230
1.0
 70
     8
 71
     3
 72
     8
 73
     4
 74
     0
 42
0.0000000001
 43
0.0000000001
 40
0.0
 40
0.0
 40
0.0
 40
0.0
 40
2.4079390838223
 40
2.4079390838223
 40
2.4079390838223
 40
2.4079390838223
 10
-7.486532319296991
 20
-1.723815374700681
 30
0.0
 10
-7.184567973349572
 20
-1.720878798212629
 30
0.0
 10
-6.825007784761879
 20
-1.67132821614407
 30
0.0
 10
-6.474696711342806
 20
-1.586881924896102
 30
0.0
  0
LINE
  5
1ED2
330
1F
100
AcDbEntity
  8
AM_0
100
AcDbLine
 10
-16.23205080756792
 20
2.999999999999995
 30
0.0
 11
-16.23205080756898
 21
-3.000000000000005
 31
0.0
  0
LINE
  5
1ED3
330
1F
100
AcDbEntity
  8
AM_0
100
AcDbLine
 10
-16.23205080756898
 20
-3.000000000000005
 30
0.0
 11
-12.5
 21
-1.999999999999976
 31
0.0
  0
LINE
  5
1ED4
330
1F
100
AcDbEntity
  8
AM_0
100
AcDbLine
 10
-12.5
 20
-1.999999999999976
 30
0.0
 11
-9.197970782447651
 21
-1.999999999999976
 31
0.0
  0
LINE
  5
1ED5
330
1F
100
AcDbEntity
  8
AM_0
100
AcDbLine
 10
-12.5
 20
-1.999999999999976
 30
0.0
 11
-12.5
 21
2.000000000000249
 31
0.0
  0
LINE
  5
1ED6
330
1F
100
AcDbEntity
  8
AM_0
100
AcDbLine
 10
-12.5
 20
2.000000000000249
 30
0.0
 11
-16.23205080756792
 21
2.999999999999995
 31
0.0
  0
LINE
  5
1ED7
330
1F
100
AcDbEntity
  8
AM_0
100
AcDbLine
 10
-12.5
 20
2.000000000000249
 30
0.0
 11
-11.9656091844619
 21
2.000000000000249
 31
0.0
  0
LINE
  5
1ED9
330
1F
100
AcDbEntity
  8
AM_11
100
AcDbLine
 10
0.0
 20
2.000000000000249
 30
0.0
 11
0.0
 21
-2.00000000000025
 31
0.0
  0
ARC
  5
1FBC
330
1F
100
AcDbEntity
  8
AM_0
100
AcDbCircle
 10
-1.0
 20
1.000000000000249
 30
0.0
 40
1.0
100
AcDbArc
 50
0.0
 51
90.0
1001
GENIUS_GENODEF_13
1002
{
1000
HIER
1070
     0
1002
}
1002
{
1000
MANEDIT
1070
     0
1002
}
1002
{
1000
NOSEL
1070
     0
1002
}
1002
{
1000
BEHIND
1070
     0
1002
}
1002
{
1000
REACTOR
1002
}
1001
GENIUS_GENOBJ-N-FIL_13
1002
{
1000
OWNER
1000
GEN
1002
}
  0
ARC
  5
1FD3
330
1F
100
AcDbEntity
  8
AM_0
100
AcDbCircle
 10
-1.0
 20
-1.000000000000225
 30
0.0
 40
1.0
100
AcDbArc
 50
269.9999999999985
 51
0.0
1001
GENIUS_GENODEF_13
1002
{
1000
HIER
1070
     0
1002
}
1002
{
1000
MANEDIT
1070
     0
1002
}
1002
{
1000
NOSEL
1070
     0
1002
}
1002
{
1000
BEHIND
1070
     0
1002
}
1002
{
1000
REACTOR
1002
}
1001
GENIUS_GENOBJ-N-FIL_13
1002
{
1000
OWNER
1000
GEN
1002
}
  0
DIMENSION
  5
1FDC
330
1F
100
AcDbEntity
  8
AM_5
100
AcDbDimension
  2
*D8
 10
-0.9999999999999998
 20
-1.000000000000225
 30
0.0
 11
3.685889719772861
 21
-4.794558676384917
 31
0.0
 70
   164
  1
<>
  3
AM_JIS$4
100
AcDbRadialDimension
 15
-0.2228540385430296
 25
-1.629320391050063
 35
0.0
 40
0.0
1001
GENIUS_GENDTOL_13
1000

1000
h7
1000

1040
0.0
1001
ACAD
1000
DSTYLE
1002
{
1070
   287
1070
     3
1070
   271
1070
     3
1070
   288
1070
     1
1070
   289
1070
     3
1070
   172
1070
     1
1070
    74
1070
     0
1002
}
  0
DIMENSION
  5
21E5
330
1F
100
AcDbEntity
  8
AM_5
100
AcDbDimension
  2
*D9
 10
7.000000000000072
 20
2.000000000000247
 30
0.0
 11
7.000000000000071
 21
-0.0000000000000013
 31
0.0
 70
   160
  1
%%c<>
  3
AM_JIS
100
AcDbAlignedDimension
 13
0.0
 23
-2.00000000000025
 33
0.0
 14
0.0
 24
2.000000000000249
 34
0.0
 50
89.99999999999856
100
AcDbRotatedDimension
1001
GENIUS_GENDTOL_13
1000

1000
h7
1000

1040
0.0
  0
VIEWPORT
  5
110
330
101
100
AcDbEntity
 67
     1
  8
0
100
AcDbViewport
 10
420.5
 20
297.0
 30
0.0
 40
948.9782706766916
 41
628.452
 68
     1
 69
     1
1001
ACAD
1000
MVIEW
1002
{
1070
    16
1010
0.0
1020
0.0
1030
0.0
1010
0.0
1020
0.0
1030
1.0
1040
0.0
1040
628.452
1040
420.5
1040
297.0
1040
50.0
1040
0.0
1040
0.0
1070
     0
1070
   100
1070
     1
1070
     1
1070
     0
1070
     0
1070
     0
1070
     0
1040
0.0
1040
0.0
1040
0.0
1040
10.0
1040
10.0
1040
10.0
1040
10.0
1070
     0
1002
{
1002
}
1002
}
  0
ENDSEC
  0
SECTION
  2
OBJECTS
  0
DICTIONARY
  5
C
330
0
100
AcDbDictionary
  3
ACAD_GROUP
350
D
  3
ACAD_LAYOUT
350
1A
  3
ACAD_MLINESTYLE
350
17
  3
ACAD_PLOTSETTINGS
350
19
  3
ACAD_PLOTSTYLENAME
350
E
  3
ACDBVARIABLEDICTIONARY
350
34
  3
ACMDICTIONARY
350
43
  3
AMG
350
2B
  3
AMGSNAPSETTINGS
350
6E
  3
DWGPROPS
350
22ED
  3
ACDBHEADERROUNDTRIPXREC
350
22F9
  0
DICTIONARY
  5
74
330
1F
100
AcDbDictionary
280
     1
  3
ACAD_INDEX
360
22EF
  3
ACAD_LAYOUTSELFREF
360
231C
  0
DICTIONARY
  5
2321
330
101
100
AcDbDictionary
280
     1
  3
ACAD_LAYOUTSELFREF
360
2322
  0
DICTIONARY
  5
D
102
{ACAD_REACTORS
330
C
102
}
330
C
100
AcDbDictionary
  0
DICTIONARY
  5
1A
102
{ACAD_REACTORS
330
C
102
}
330
C
100
AcDbDictionary
  0
DICTIONARY
  5
17
102
{ACAD_REACTORS
330
C
102
}
330
C
100
AcDbDictionary
  3
STANDARD
350
18
  0
DICTIONARY
  5
19
102
{ACAD_REACTORS
330
C
102
}
330
C
100
AcDbDictionary
  0
ACDBDICTIONARYWDFLT
  5
E
102
{ACAD_REACTORS
330
C
102
}
330
C
100
AcDbDictionary
281
     1
  3
Normal
350
F
100
AcDbDictionaryWithDefault
340
F
  0
DICTIONARY
  5
34
102
{ACAD_REACTORS
330
C
102
}
330
C
100
AcDbDictionary
  3
INDEXCTL
350
35
  3
SORTENTS
350
B5E
  0
DICTIONARY
  5
43
102
{ACAD_REACTORS
330
C
102
}
330
C
100
AcDbDictionary
  3
ACMSTDDICTIONARY
350
260
  0
DICTIONARY
  5
2B
102
{ACAD_REACTORS
330
C
102
}
330
C
100
AcDbDictionary
  3
ACMGSETTINGS
350
2C
  0
DICTIONARY
  5
6E
102
{ACAD_REACTORS
330
C
102
}
330
C
100
AcDbDictionary
  0
XRECORD
  5
22ED
102
{ACAD_REACTORS
330
C
102
}
330
C
100
AcDbXrecord
  1
DWGPROPS COOKIE
  2

  3

  4

  6

  7

  8

  9

300
AmdtFileType=82
301
=
302
=
303
=
304
=
305
=
306
=
307
=
308
=
309
=
 40
0.0646533217592593
 41
2452809.403188831
 42
2452844.454471748
  1

 90
        1
  0
DICTIONARY
  5
22F9
102
{ACAD_REACTORS
330
C
102
}
330
C
100
AcDbDictionary
  3
TSTACKALIGN
350
22FA
  3
TSTACKSIZE
350
22FB
  3
HYPERLINKBASE
350
22FC
  3
STYLESHEET
350
22FD
  3
LAYOUTDICT
350
22FE
  3
PLOTSETDICT
350
22FF
  3
PLOTSTYLNAMDICT
350
2300
  3
LWETCUNION
350
2301
  3
INSUNITS
350
2302
  3
CEPSNTYPE
350
2303
  3
FINGERPRINTGUID
350
2304
  3
VERSIONGUID
350
2305
  3
PSVPSCALE
350
2306
  3
DIMSTYLEDATA
350
2307
  3
PUCSORTHOREF
350
2308
  3
PUCSORTHOVIEW
350
2309
  3
PUCSBASE
350
230A
  3
PUCSORGTOP
350
230B
  3
PUCSORGBOTTOM
350
230C
  3
PUCSORGLEFT
350
230D
  3
PUCSORGRIGHT
350
230E
  3
PUCSORGFRONT
350
230F
  3
PUCSORGBACK
350
2310
  3
UCSORTHOREF
350
2311
  3
UCSORTHOVIEW
350
2312
  3
UCSBASE
350
2313
  3
UCSORGTOP
350
2314
  3
UCSORGBOTTOM
350
2315
  3
UCSORGLEFT
350
2316
  3
UCSORGRIGHT
350
2317
  3
UCSORGFRONT
350
2318
  3
UCSORGBACK
350
2319
  0
DICTIONARY
  5
22EF
102
{ACAD_REACTORS
330
74
102
}
330
74
100
AcDbDictionary
  3
*A1
350
22F0
  0
XRECORD
  5
231C
102
{ACAD_REACTORS
330
74
102
}
330
74
100
AcDbXrecord
340
1F
  0
XRECORD
  5
2322
102
{ACAD_REACTORS
330
2321
102
}
330
2321
100
AcDbXrecord
340
101
  0
MLINESTYLE
  5
18
102
{ACAD_REACTORS
330
17
102
}
330
17
100
AcDbMlineStyle
  2
STANDARD
 70
     0
  3

 62
   256
 51
90.0
 52
90.0
 71
     2
 49
0.5
 62
   256
  6
BYLAYER
 49
-0.5
 62
   256
  6
BYLAYER
  0
ACDBPLACEHOLDER
  5
F
102
{ACAD_REACTORS
330
E
102
}
330
E
100
AcDbPlaceHolder
280
     0
  0
DICTIONARYVAR
  5
35
102
{ACAD_REACTORS
330
34
102
}
330
34
100
DictionaryVariables
280
     0
  1
1
  0
DICTIONARYVAR
  5
B5E
102
{ACAD_REACTORS
330
34
102
}
330
34
100
DictionaryVariables
280
     0
  1
96
  0
DICTIONARY
  5
260
102
{ACAD_REACTORS
330
43
102
}
330
43
100
AcDbDictionary
  0
DICTIONARY
  5
2C
102
{ACAD_REACTORS
330
2B
102
}
330
2B
100
AcDbDictionary
  3
DWGSETTINGS
350
2D
  0
XRECORD
  5
22FA
102
{ACAD_REACTORS
330
22F9
102
}
330
22F9
100
AcDbXrecord
 90
        1
  0
XRECORD
  5
22FB
102
{ACAD_REACTORS
330
22F9
102
}
330
22F9
100
AcDbXrecord
 90
       70
  0
XRECORD
  5
22FC
102
{ACAD_REACTORS
330
22F9
102
}
330
22F9
100
AcDbXrecord
  1

  0
XRECORD
  5
22FD
102
{ACAD_REACTORS
330
22F9
102
}
330
22F9
100
AcDbXrecord
  1
ASAMI.ctb
  0
XRECORD
  5
22FE
102
{ACAD_REACTORS
330
22F9
102
}
330
22F9
100
AcDbXrecord
340
1A
  0
XRECORD
  5
22FF
102
{ACAD_REACTORS
330
22F9
102
}
330
22F9
100
AcDbXrecord
340
19
  0
XRECORD
  5
2300
102
{ACAD_REACTORS
330
22F9
102
}
330
22F9
100
AcDbXrecord
340
E
  0
XRECORD
  5
2301
102
{ACAD_REACTORS
330
22F9
102
}
330
22F9
100
AcDbXrecord
 90
    10781
  0
XRECORD
  5
2302
102
{ACAD_REACTORS
330
22F9
102
}
330
22F9
100
AcDbXrecord
 90
        4
  0
XRECORD
  5
2303
102
{ACAD_REACTORS
330
22F9
102
}
330
22F9
100
AcDbXrecord
 90
        0
  0
XRECORD
  5
2304
102
{ACAD_REACTORS
330
22F9
102
}
330
22F9
100
AcDbXrecord
  1
{AFB28963-8C59-40AE-9337-C84526B81ACE}
  0
XRECORD
  5
2305
102
{ACAD_REACTORS
330
22F9
102
}
330
22F9
100
AcDbXrecord
  1
{64C2E4BF-3D0F-4CDA-850E-F4C5C5859E94}
  0
XRECORD
  5
2306
102
{ACAD_REACTORS
330
22F9
102
}
330
22F9
100
AcDbXrecord
 40
0.0
  0
XRECORD
  5
2307
102
{ACAD_REACTORS
330
22F9
102
}
330
22F9
100
AcDbXrecord
1000
DSTYLE
1002
{
1070
    79
 70
     2
1070
   341
340
59
1070
   342
340
59
1070
   371
 70
    -1
1070
   372
 70
    -1
1002
}
  0
XRECORD
  5
2308
102
{ACAD_REACTORS
330
22F9
102
}
330
22F9
100
AcDbXrecord
340
0
  0
XRECORD
  5
2309
102
{ACAD_REACTORS
330
22F9
102
}
330
22F9
100
AcDbXrecord
 70
     0
  0
XRECORD
  5
230A
102
{ACAD_REACTORS
330
22F9
102
}
330
22F9
100
AcDbXrecord
340
0
  0
XRECORD
  5
230B
102
{ACAD_REACTORS
330
22F9
102
}
330
22F9
100
AcDbXrecord
 10
0.0
 20
0.0
 30
0.0
  0
XRECORD
  5
230C
102
{ACAD_REACTORS
330
22F9
102
}
330
22F9
100
AcDbXrecord
 10
0.0
 20
0.0
 30
0.0
  0
XRECORD
  5
230D
102
{ACAD_REACTORS
330
22F9
102
}
330
22F9
100
AcDbXrecord
 10
0.0
 20
0.0
 30
0.0
  0
XRECORD
  5
230E
102
{ACAD_REACTORS
330
22F9
102
}
330
22F9
100
AcDbXrecord
 10
0.0
 20
0.0
 30
0.0
  0
XRECORD
  5
230F
102
{ACAD_REACTORS
330
22F9
102
}
330
22F9
100
AcDbXrecord
 10
0.0
 20
0.0
 30
0.0
  0
XRECORD
  5
2310
102
{ACAD_REACTORS
330
22F9
102
}
330
22F9
100
AcDbXrecord
 10
0.0
 20
0.0
 30
0.0
  0
XRECORD
  5
2311
102
{ACAD_REACTORS
330
22F9
102
}
330
22F9
100
AcDbXrecord
340
0
  0
XRECORD
  5
2312
102
{ACAD_REACTORS
330
22F9
102
}
330
22F9
100
AcDbXrecord
 70
     0
  0
XRECORD
  5
2313
102
{ACAD_REACTORS
330
22F9
102
}
330
22F9
100
AcDbXrecord
340
0
  0
XRECORD
  5
2314
102
{ACAD_REACTORS
330
22F9
102
}
330
22F9
100
AcDbXrecord
 10
0.0
 20
0.0
 30
0.0
  0
XRECORD
  5
2315
102
{ACAD_REACTORS
330
22F9
102
}
330
22F9
100
AcDbXrecord
 10
0.0
 20
0.0
 30
0.0
  0
XRECORD
  5
2316
102
{ACAD_REACTORS
330
22F9
102
}
330
22F9
100
AcDbXrecord
 10
0.0
 20
0.0
 30
0.0
  0
XRECORD
  5
2317
102
{ACAD_REACTORS
330
22F9
102
}
330
22F9
100
AcDbXrecord
 10
0.0
 20
0.0
 30
0.0
  0
XRECORD
  5
2318
102
{ACAD_REACTORS
330
22F9
102
}
330
22F9
100
AcDbXrecord
 10
0.0
 20
0.0
 30
0.0
  0
XRECORD
  5
2319
102
{ACAD_REACTORS
330
22F9
102
}
330
22F9
100
AcDbXrecord
 10
0.0
 20
0.0
 30
0.0
  0
LAYER_INDEX
  5
22F0
102
{ACAD_REACTORS
330
22EF
102
}
330
22EF
100
AcDbIndex
 40
2452844.461175301
100
AcDbLayerIndex
  8
0
360
22F1
 90
        0
  8
AM_0
360
22F2
 90
       55
  8
AM_11
360
22F3
 90
        4
  8
AM_7
360
22F4
 90
        1
  8
AM_5
360
22F5
 90
        5
  8
Defpoints
360
22F6
 90
        0
  8
AM_6
360
22F7
 90
        1
  0
XRECORD
  5
2D
102
{ACAD_REACTORS
330
2C
102
}
330
2C
100
AcDbXrecord
  1
VERSION
140
15.0
  1
PRODUCT
  2
AutoCAD Mechanical 2000
  0
IDBUFFER
  5
22F1
330
0
100
AcDbIdBuffer
  0
IDBUFFER
  5
22F2
330
0
100
AcDbIdBuffer
330
1ED3
330
1ED4
330
1ED5
330
1ED6
330
1ED7
330
1FBC
330
1FD3
330
1AB8
330
1AB9
330
1ABA
330
1ABB
330
1ACB
330
1ACC
330
1E19
330
1E1A
330
1E1B
330
1E1C
330
1E1D
330
1E1E
330
1E1F
330
1E20
330
1E21
330
1E24
330
1E25
330
1E26
330
1E27
330
1E28
330
1E29
330
1E38
330
1E39
330
1E3A
330
1E3B
330
1E3C
330
1E3D
330
1E3E
330
1E3F
330
1E40
330
1E41
330
1E42
330
1E43
330
1E44
330
1E45
330
1E46
330
1E47
330
1E48
330
1E49
330
1E4A
330
1E4B
330
1E4C
330
1E4D
330
1E4E
330
1E4F
330
1E50
330
1E51
330
1ED2
  0
IDBUFFER
  5
22F3
330
0
100
AcDbIdBuffer
330
1D0A
330
1D0F
330
1D1F
330
1ED9
  0
IDBUFFER
  5
22F4
330
0
100
AcDbIdBuffer
330
1ACD
  0
IDBUFFER
  5
22F5
330
0
100
AcDbIdBuffer
330
1BA8
330
1BD9
330
1D10
330
1FDC
330
21E5
  0
IDBUFFER
  5
22F6
330
0
100
AcDbIdBuffer
  0
IDBUFFER
  5
22F7
330
0
100
AcDbIdBuffer
330
F17
  0
ENDSEC
  0
EOF
