  0
SECTION
  2
HEADER
  9
$ACADVER
  1
AC1014
  9
$ACADMAINTVER
 70
     9
  9
$DWGCODEPAGE
  3
ANSI_932
  9
$INSBASE
 10
0.0
 20
0.0
 30
0.0
  9
$EXTMIN
 10
-68.84999999999999
 20
-27.25000101000023
 30
-0.00000001
  9
$EXTMAX
 10
12.03057127861245
 20
5.499999999999825
 30
0.00000001
  9
$LIMMIN
 10
-76.67638313300205
 20
-34.2866853486613
  9
$LIMMAX
 10
19.15603910722995
 20
13.05130144741127
  9
$ORTHOMODE
 70
     0
  9
$REGENMODE
 70
     1
  9
$FILLMODE
 70
     1
  9
$QTEXTMODE
 70
     0
  9
$MIRRTEXT
 70
     0
  9
$DRAGMODE
 70
     2
  9
$LTSCALE
 40
1.0
  9
$OSMODE
 70
  2103
  9
$ATTMODE
 70
     1
  9
$TEXTSIZE
 40
2.5
  9
$TRACEWID
 40
1.0
  9
$TEXTSTYLE
  7
STANDARD
  9
$CLAYER
  8
AM_0
  9
$CELTYPE
  6
BYLAYER
  9
$CECOLOR
 62
   256
  9
$CELTSCALE
 40
1.0
  9
$DELOBJ
 70
     1
  9
$DISPSILH
 70
     0
  9
$DIMSCALE
 40
0.5
  9
$DIMASZ
 40
2.5
  9
$DIMEXO
 40
1.0
  9
$DIMDLI
 40
12.0
  9
$DIMRND
 40
0.0
  9
$DIMDLE
 40
0.0
  9
$DIMEXE
 40
1.0
  9
$DIMTP
 40
0.1
  9
$DIMTM
 40
0.1
  9
$DIMTXT
 40
3.2
  9
$DIMCEN
 40
0.0
  9
$DIMTSZ
 40
0.0
  9
$DIMTOL
 70
     0
  9
$DIMLIM
 70
     0
  9
$DIMTIH
 70
     0
  9
$DIMTOH
 70
     0
  9
$DIMSE1
 70
     0
  9
$DIMSE2
 70
     0
  9
$DIMTAD
 70
     3
  9
$DIMZIN
 70
     8
  9
$DIMBLK
  1
OPEN30
  9
$DIMASO
 70
     1
  9
$DIMSHO
 70
     1
  9
$DIMPOST
  1

  9
$DIMAPOST
  1
"
  9
$DIMALT
 70
     0
  9
$DIMALTD
 70
     2
  9
$DIMALTF
 40
0.0393701
  9
$DIMLFAC
 40
1.0
  9
$DIMTOFL
 70
     1
  9
$DIMTVP
 40
0.0
  9
$DIMTIX
 70
     0
  9
$DIMSOXD
 70
     0
  9
$DIMSAH
 70
     0
  9
$DIMBLK1
  1

  9
$DIMBLK2
  1

  9
$DIMSTYLE
  2
AM_JIS
  9
$DIMCLRD
 70
   256
  9
$DIMCLRE
 70
   256
  9
$DIMCLRT
 70
     2
  9
$DIMTFAC
 40
0.71
  9
$DIMGAP
 40
1.5
  9
$DIMJUST
 70
     0
  9
$DIMSD1
 70
     0
  9
$DIMSD2
 70
     0
  9
$DIMTOLJ
 70
     0
  9
$DIMTZIN
 70
     0
  9
$DIMALTZ
 70
     0
  9
$DIMALTTZ
 70
     0
  9
$DIMFIT
 70
     3
  9
$DIMUPT
 70
     0
  9
$DIMUNIT
 70
     2
  9
$DIMDEC
 70
     3
  9
$DIMTDEC
 70
     3
  9
$DIMALTU
 70
     2
  9
$DIMALTTD
 70
     2
  9
$DIMTXSTY
  7
ASAMI
  9
$DIMAUNIT
 70
     0
  9
$LUNITS
 70
     2
  9
$LUPREC
 70
     2
  9
$SKETCHINC
 40
1.0
  9
$FILLETRAD
 40
0.3
  9
$AUNITS
 70
     0
  9
$AUPREC
 70
     0
  9
$MENU
  1
.
  9
$ELEVATION
 40
0.0
  9
$PELEVATION
 40
0.0
  9
$THICKNESS
 40
0.0
  9
$LIMCHECK
 70
     0
  9
$BLIPMODE
 70
     0
  9
$CHAMFERA
 40
0.5
  9
$CHAMFERB
 40
0.5
  9
$CHAMFERC
 40
20.0
  9
$CHAMFERD
 40
0.0
  9
$SKPOLY
 70
     0
  9
$TDCREATE
 40
2452809.403188831
  9
$TDUPDATE
 40
2452844.461520359
  9
$TDINDWG
 40
0.1077157755
  9
$TDUSRTIMER
 40
0.1077157755
  9
$USRTIMER
 70
     1
  9
$ANGBASE
 50
0.0
  9
$ANGDIR
 70
     0
  9
$PDMODE
 70
     0
  9
$PDSIZE
 40
0.0
  9
$PLINEWID
 40
0.0
  9
$COORDS
 70
     2
  9
$SPLFRAME
 70
     0
  9
$SPLINETYPE
 70
     6
  9
$SPLINESEGS
 70
     8
  9
$ATTDIA
 70
     1
  9
$ATTREQ
 70
     1
  9
$HANDLING
 70
 12289
  9
$HANDSEED
  5
20E9
  9
$SURFTAB1
 70
     6
  9
$SURFTAB2
 70
     6
  9
$SURFTYPE
 70
     6
  9
$SURFU
 70
     6
  9
$SURFV
 70
     6
  9
$UCSNAME
  2

  9
$UCSORG
 10
0.0
 20
-0.0000000000000004
 30
0.0
  9
$UCSXDIR
 10
1.0
 20
0.0
 30
0.0
  9
$UCSYDIR
 10
0.0
 20
1.0
 30
0.0
  9
$PUCSNAME
  2

  9
$PUCSORG
 10
0.0
 20
0.0
 30
0.0
  9
$PUCSXDIR
 10
1.0
 20
0.0
 30
0.0
  9
$PUCSYDIR
 10
0.0
 20
1.0
 30
0.0
  9
$USERI1
 70
     0
  9
$USERI2
 70
     0
  9
$USERI3
 70
     0
  9
$USERI4
 70
     0
  9
$USERI5
 70
     0
  9
$USERR1
 40
0.0
  9
$USERR2
 40
0.0
  9
$USERR3
 40
0.0
  9
$USERR4
 40
0.0
  9
$USERR5
 40
0.0
  9
$WORLDVIEW
 70
     1
  9
$SHADEDGE
 70
     3
  9
$SHADEDIF
 70
    70
  9
$TILEMODE
 70
     1
  9
$MAXACTVP
 70
    64
  9
$PINSBASE
 10
0.0
 20
0.0
 30
0.0
  9
$PLIMCHECK
 70
     0
  9
$PEXTMIN
 10
1.000000000000000E+20
 20
1.000000000000000E+20
 30
1.000000000000000E+20
  9
$PEXTMAX
 10
-1.000000000000000E+20
 20
-1.000000000000000E+20
 30
-1.000000000000000E+20
  9
$PLIMMIN
 10
0.0
 20
0.0
  9
$PLIMMAX
 10
841.0
 20
594.0
  9
$UNITMODE
 70
     0
  9
$VISRETAIN
 70
     1
  9
$PLINEGEN
 70
     0
  9
$PSLTSCALE
 70
     0
  9
$TREEDEPTH
 70
  3020
  9
$PICKSTYLE
 70
     0
  9
$CMLSTYLE
  2
STANDARD
  9
$CMLJUST
 70
     0
  9
$CMLSCALE
 40
20.0
  9
$PROXYGRAPHICS
 70
     1
  9
$MEASUREMENT
 70
     1
  0
ENDSEC
  0
SECTION
  2
CLASSES
  0
CLASS
  1
ACDBDICTIONARYWDFLT
  2
AcDbDictionaryWithDefault
  3
AutoCAD 2000
 90
        0
280
     0
281
     0
  0
CLASS
  1
ACDBPLACEHOLDER
  2
AcDbPlaceHolder
  3
AutoCAD 2000
 90
        0
280
     0
281
     0
  0
CLASS
  1
LAYOUT
  2
AcDbLayout
  3
AutoCAD 2000
 90
        0
280
     0
281
     0
  0
CLASS
  1
AMGSETTINGSOBJ
  2
AmgSettingsObj
  3
"AcadM|Product Description: AutoCAD Mechanical 2000|Company: Autodesk"
 90
        0
280
     0
281
     0
  0
CLASS
  1
ACME_DOCUMENT
  2
AcMeDbDoc
  3
AcMeServices
 90
        0
280
     0
281
     0
  0
CLASS
  1
ACMESCOPE
  2
AcMeScope
  3
AcMeServices
 90
        0
280
     0
281
     0
  0
CLASS
  1
ACMECOMMANDHISTORY
  2
AcMeCommandHistory
  3
AcMeServices
 90
        0
280
     0
281
     0
  0
CLASS
  1
DICTIONARYVAR
  2
AcDbDictionaryVar
  3
AutoCAD 2000
 90
        0
280
     0
281
     0
  0
CLASS
  1
ACIMSYSVARMAN
  2
AcImSysVarManager
  3
AcMeServices
 90
        0
280
     0
281
     0
  0
CLASS
  1
ACIMREALSYSVAR
  2
AcImRealSysVar
  3
AcMeServices
 90
        0
280
     0
281
     0
  0
CLASS
  1
ACIMINTSYSVAR
  2
AcImIntSysVar
  3
AcMeServices
 90
        0
280
     0
281
     0
  0
CLASS
  1
ACMEDRAWINGMAN
  2
AcMeDrawingMan
  3
AcMeServices
 90
        0
280
     0
281
     0
  0
CLASS
  1
ACMEVIEW
  2
AcMeView
  3
AcMeServices
 90
        0
280
     0
281
     0
  0
CLASS
  1
ACDBENTITYCACHE
  2
AcMeEntityCache
  3
AcMeServices
 90
        0
280
     0
281
     0
  0
CLASS
  1
GSMANAGER
  2
AcMeGSManager
  3
AcMeServices
 90
        0
280
     0
281
     0
  0
CLASS
  1
AmdtInternalReactor
  2
AmdtInternalReactor
  3
AcMeServices
 90
        0
280
     0
281
     0
  0
CLASS
  1
ACMESTATEMGR
  2
AcMeStateMgr
  3
AcMeServices
 90
        0
280
     0
281
     0
  0
CLASS
  1
ACME_DATABASE
  2
AcMeDbDatabase
  3
AcMeServices
 90
        0
280
     0
281
     0
  0
CLASS
  1
ACRFINSADJUSTERMGR
  2
AcRfInsAdjusterMgr
  3
AcMeServices
 90
        0
280
     0
281
     0
  0
CLASS
  1
ACMDATADICTIONARY
  2
AcmDataDictionary
  3
"AcmSymBB|Product Description: AutoCAD Mechanical 2000|Company: Autodesk"
 90
        0
280
     0
281
     0
  0
CLASS
  1
ACMDATAENTRYBLOCK
  2
AcmDataEntryBlock
  3
"AcmSymBB|Product Description: AutoCAD Mechanical 2000|Company: Autodesk"
 90
        0
280
     0
281
     0
  0
CLASS
  1
AMGOBJPROPCFG
  2
AmgObjPropCfg
  3
"AmgLay|Product Description: AutoCAD Mechanical 2000|Company: Autodesk"
 90
        1
280
     0
281
     0
  0
CLASS
  1
ACAMGFILTERDAT
  2
AcAmgFilterDat
  3
"AcadM|Product Description: AutoCAD Mechanical 2000|Company: Autodesk"
 90
        0
280
     0
281
     0
  0
CLASS
  1
LAYER_INDEX
  2
AcDbLayerIndex
  3
AutoCAD 2000
 90
        0
280
     0
281
     0
  0
CLASS
  1
IDBUFFER
  2
AcDbIdBuffer
  3
AutoCAD 2000
 90
        0
280
     0
281
     0
  0
CLASS
  1
ACIMSTRSYSVAR
  2
AcImStrSysVar
  3
AcMeServices
 90
        0
280
     0
281
     0
  0
CLASS
  1
ACMSTANDARDJIS
  2
AcmStandardJIS
  3
"AcmSymBB|Product Description: AutoCAD Mechanical 2000|Company: Autodesk"
 90
        0
280
     0
281
     0
  0
CLASS
  1
ACMSURFSTANDARDJIS
  2
AcmSurfTextStdJIS
  3
"AcmSymBB|Product Description: AutoCAD Mechanical 2000|Company: Autodesk"
 90
        0
280
     0
281
     0
  0
CLASS
  1
ACMFCFSTANDARDJIS
  2
AcmFCFStdJIS
  3
"AcmSymBB|Product Description: AutoCAD Mechanical 2000|Company: Autodesk"
 90
        0
280
     0
281
     0
  0
CLASS
  1
ACMWELDSTANDARDJIS
  2
AcmWeldingStdJIS
  3
"AcmSymBB|Product Description: AutoCAD Mechanical 2000|Company: Autodesk"
 90
        0
280
     0
281
     0
  0
CLASS
  1
ACMIDSTANDARDJIS
  2
AcmIdStdJIS
  3
"AcmSymBB|Product Description: AutoCAD Mechanical 2000|Company: Autodesk"
 90
        0
280
     0
281
     0
  0
CLASS
  1
ACMDATUMSTANDARDJIS
  2
AcmDatumStdJIS
  3
"AcmSymBB|Product Description: AutoCAD Mechanical 2000|Company: Autodesk"
 90
        0
280
     0
281
     0
  0
CLASS
  1
ACMBOMSTANDARDJIS
  2
AcmBOMStdJIS
  3
"AcmSymBB|Product Description: AutoCAD Mechanical 2000|Company: Autodesk"
 90
        0
280
     0
281
     0
  0
CLASS
  1
ACMSTANDARDANSI
  2
AcmStandardANSI
  3
"AcmSymBB|Product Description: AutoCAD Mechanical 2000|Company: Autodesk"
 90
        0
280
     0
281
     0
  0
CLASS
  1
ACMSURFSTANDARDANSI
  2
AcmSurfTextStdANSI
  3
"AcmSymBB|Product Description: AutoCAD Mechanical 2000|Company: Autodesk"
 90
        0
280
     0
281
     0
  0
CLASS
  1
ACMFCFSTANDARDANSI
  2
AcmFCFStdANSI
  3
"AcmSymBB|Product Description: AutoCAD Mechanical 2000|Company: Autodesk"
 90
        0
280
     0
281
     0
  0
CLASS
  1
ACMWELDSTANDARDANSI
  2
AcmWeldingStdANSI
  3
"AcmSymBB|Product Description: AutoCAD Mechanical 2000|Company: Autodesk"
 90
        0
280
     0
281
     0
  0
CLASS
  1
ACMIDSTANDARDANSI
  2
AcmIdStdANSI
  3
"AcmSymBB|Product Description: AutoCAD Mechanical 2000|Company: Autodesk"
 90
        0
280
     0
281
     0
  0
CLASS
  1
ACMDATUMSTANDARDANSI
  2
AcmDatumStdANSI
  3
"AcmSymBB|Product Description: AutoCAD Mechanical 2000|Company: Autodesk"
 90
        0
280
     0
281
     0
  0
CLASS
  1
ACMBOMSTANDARDANSI
  2
AcmBOMStdANSI
  3
"AcmSymBB|Product Description: AutoCAD Mechanical 2000|Company: Autodesk"
 90
        0
280
     0
281
     0
  0
CLASS
  1
ACMSTANDARDBSI
  2
AcmStandardBSI
  3
"AcmSymBB|Product Description: AutoCAD Mechanical 2000|Company: Autodesk"
 90
        0
280
     0
281
     0
  0
CLASS
  1
ACMSURFSTANDARDBSI
  2
AcmSurfTextStdBSI
  3
"AcmSymBB|Product Description: AutoCAD Mechanical 2000|Company: Autodesk"
 90
        0
280
     0
281
     0
  0
CLASS
  1
ACMFCFSTANDARDBSI
  2
AcmFCFStdBSI
  3
"AcmSymBB|Product Description: AutoCAD Mechanical 2000|Company: Autodesk"
 90
        0
280
     0
281
     0
  0
CLASS
  1
ACMWELDSTANDARDBSI
  2
AcmWeldingStdBSI
  3
"AcmSymBB|Product Description: AutoCAD Mechanical 2000|Company: Autodesk"
 90
        0
280
     0
281
     0
  0
CLASS
  1
ACMIDSTANDARDBSI
  2
AcmIdStdBSI
  3
"AcmSymBB|Product Description: AutoCAD Mechanical 2000|Company: Autodesk"
 90
        0
280
     0
281
     0
  0
CLASS
  1
ACMDATUMSTANDARDBSI
  2
AcmDatumStdBSI
  3
"AcmSymBB|Product Description: AutoCAD Mechanical 2000|Company: Autodesk"
 90
        0
280
     0
281
     0
  0
CLASS
  1
ACMBOMSTANDARDBSI
  2
AcmBOMStdBSI
  3
"AcmSymBB|Product Description: AutoCAD Mechanical 2000|Company: Autodesk"
 90
        0
280
     0
281
     0
  0
CLASS
  1
SORTENTSTABLE
  2
AcDbSortentsTable
  3
AutoCAD 2000
 90
        0
280
     0
281
     0
  0
CLASS
  1
LONG_TRANSACTION
  2
AcDbLongTransaction
  3
AutoCAD 2000
 90
        0
280
     0
281
     0
  0
CLASS
  1
LWPOLYLINE
  2
AcDbPolyline
  3
AutoCAD 2000
 90
        0
280
     0
281
     1
  0
CLASS
  1
HATCH
  2
AcDbHatch
  3
AutoCAD 2000
 90
        0
280
     0
281
     1
  0
CLASS
  1
XRECORD
  2
AcDbXrecord
  3
AutoCAD 2000
 90
        0
280
     0
281
     0
  0
ENDSEC
  0
SECTION
  2
TABLES
  0
TABLE
  2
VPORT
  5
8
330
0
100
AcDbSymbolTable
 70
     3
  0
VPORT
  5
20B8
330
8
100
AcDbSymbolTableRecord
100
AcDbViewportTableRecord
  2
*ACTIVE
 70
     0
 10
0.0
 20
0.0
 11
1.0
 21
1.0
 12
-28.41141874080247
 22
-10.87481134956411
 13
0.0
 23
0.0
 14
2.5
 24
2.5
 15
10.0
 25
10.0
 16
0.0
 26
0.0
 36
1.0
 17
0.0
 27
0.0
 37
0.0
 40
51.86486666671847
 41
1.56570841889117
 42
50.0
 43
0.0
 44
0.0
 50
0.0
 51
0.0
 71
     0
 72
   100
 73
     1
 74
     3
 75
     0
 76
     0
 77
     0
 78
     0
  0
ENDTAB
  0
TABLE
  2
LTYPE
  5
5
330
0
100
AcDbSymbolTable
 70
    10
  0
LTYPE
  5
14
330
5
100
AcDbSymbolTableRecord
100
AcDbLinetypeTableRecord
  2
BYBLOCK
 70
     0
  3

 72
    65
 73
     0
 40
0.0
  0
LTYPE
  5
15
330
5
100
AcDbSymbolTableRecord
100
AcDbLinetypeTableRecord
  2
BYLAYER
 70
     0
  3

 72
    65
 73
     0
 40
0.0
  0
LTYPE
  5
16
330
5
100
AcDbSymbolTableRecord
100
AcDbLinetypeTableRecord
  2
CONTINUOUS
 70
     0
  3
Solid line
 72
    65
 73
     0
 40
0.0
  0
LTYPE
  5
4B
330
5
100
AcDbSymbolTableRecord
100
AcDbLinetypeTableRecord
  2
AM_ISO02W050
 70
     0
  3
__ __ __ __ __ __ __ __ __ __ __ __ __ __ __
 72
    65
 73
     2
 40
7.5
 49
6.0
 74
     0
 49
-1.5
 74
     0
  0
LTYPE
  5
4C
330
5
100
AcDbSymbolTableRecord
100
AcDbLinetypeTableRecord
  2
AM_ISO08W050
 70
     0
  3
____ . ____ . ____ . ____ . ____ . ____ . ____
 72
    65
 73
     4
 40
18.0
 49
12.0
 74
     0
 49
-1.5
 74
     0
 49
3.0
 74
     0
 49
-1.5
 74
     0
  0
LTYPE
  5
4D
330
5
100
AcDbSymbolTableRecord
100
AcDbLinetypeTableRecord
  2
AM_ISO09W050
 70
     0
  3
_____ . . _____ . . _____ . . ____ .. ____
 72
    65
 73
     6
 40
22.5
 49
12.0
 74
     0
 49
-1.5
 74
     0
 49
3.0
 74
     0
 49
-1.5
 74
     0
 49
3.0
 74
     0
 49
-1.5
 74
     0
  0
LTYPE
  5
4E
330
5
100
AcDbSymbolTableRecord
100
AcDbLinetypeTableRecord
  2
AMCONSTR
 70
     0
  3
_______________________
 72
    65
 73
     2
 40
9999.0
 49
9999.0
 74
     0
 49
0.0
 74
     0
  0
LTYPE
  5
4F
330
5
100
AcDbSymbolTableRecord
100
AcDbLinetypeTableRecord
  2
AM_ISO02W050X2
 70
     0
  3
 _ _ _ _ _ _ _ _ _ _ _ _
 72
    65
 73
     2
 40
3.75
 49
3.0
 74
     0
 49
-0.75
 74
     0
  0
LTYPE
  5
50
330
5
100
AcDbSymbolTableRecord
100
AcDbLinetypeTableRecord
  2
AM_ISO08W050X2
 70
     0
  3
__ . __ . __ . __ . __ . __
 72
    65
 73
     4
 40
9.0
 49
6.0
 74
     0
 49
-0.75
 74
     0
 49
1.5
 74
     0
 49
-0.75
 74
     0
  0
LTYPE
  5
53
330
5
100
AcDbSymbolTableRecord
100
AcDbLinetypeTableRecord
  2
AMZIGZAG
 70
     0
  3
/\/-/\/-/\/-/\/-/\/-/\/
 72
    65
 73
     2
 40
11.00009999999999
 49
0.0001
 74
     4
 75
   135
340
52
 46
0.04
 50
0.0
 44
0.0
 45
0.0
 49
-11.0
 74
     0
  0
LTYPE
  5
166
330
5
100
AcDbSymbolTableRecord
100
AcDbLinetypeTableRecord
  2
ACJISTGL
 70
     0
  3
_ _ _ _ _
 72
    65
 73
     2
 40
3.0
 49
2.0
 74
     0
 49
-1.0
 74
     0
  0
LTYPE
  5
26A
330
5
100
AcDbSymbolTableRecord
100
AcDbLinetypeTableRecord
  2
ACJISTGB
 70
     0
  3
__ . . __ . .
 72
    65
 73
     6
 40
9.0
 49
4.0
 74
     0
 49
-1.0
 74
     0
 49
1.0
 74
     0
 49
-1.0
 74
     0
 49
1.0
 74
     0
 49
-1.0
 74
     0
  0
ENDTAB
  0
TABLE
  2
LAYER
  5
2
330
0
100
AcDbSymbolTable
 70
     7
  0
LAYER
  5
10
330
2
100
AcDbSymbolTableRecord
100
AcDbLayerTableRecord
  2
0
 70
     0
 62
     7
  6
CONTINUOUS
  0
LAYER
  5
3F9
330
2
100
AcDbSymbolTableRecord
100
AcDbLayerTableRecord
  2
AM_0
 70
     0
 62
     7
  6
CONTINUOUS
  0
LAYER
  5
BA4
330
2
100
AcDbSymbolTableRecord
100
AcDbLayerTableRecord
  2
AM_11
 70
     0
 62
     3
  6
AM_ISO09W050
  0
LAYER
  5
BA5
330
2
100
AcDbSymbolTableRecord
100
AcDbLayerTableRecord
  2
AM_7
 70
     0
 62
     4
  6
AM_ISO08W050
  0
LAYER
  5
D38
330
2
100
AcDbSymbolTableRecord
100
AcDbLayerTableRecord
  2
AM_5
 70
     0
 62
     3
  6
CONTINUOUS
  0
LAYER
  5
D3A
330
2
100
AcDbSymbolTableRecord
100
AcDbLayerTableRecord
  2
DEFPOINTS
 70
     0
 62
     7
  6
CONTINUOUS
  0
LAYER
  5
F16
330
2
100
AcDbSymbolTableRecord
100
AcDbLayerTableRecord
  2
AM_6
 70
     0
 62
     2
  6
CONTINUOUS
  0
ENDTAB
  0
TABLE
  2
STYLE
  5
3
330
0
100
AcDbSymbolTable
 70
     5
  0
STYLE
  5
11
330
3
100
AcDbSymbolTableRecord
100
AcDbTextStyleTableRecord
  2
STANDARD
 70
     0
 40
0.0
 41
1.0
 50
0.0
 71
     0
 42
2.5
  3
simplex.shx
  4
EXTFONT.SHX
  0
STYLE
  5
52
330
3
100
AcDbSymbolTableRecord
100
AcDbTextStyleTableRecord
  2

 70
     1
 40
0.0
 41
1.0
 50
0.0
 71
     0
 42
2.5
  3
ltypeshp.shx
  4

  0
STYLE
  5
6B
330
3
100
AcDbSymbolTableRecord
100
AcDbTextStyleTableRecord
  2
ASAMI
 70
     0
 40
0.0
 41
1.0
 50
0.0
 71
     0
 42
2.5
  3
simplex.shx
  4
EXTFONT.SHX
  0
STYLE
  5
262
330
3
100
AcDbSymbolTableRecord
100
AcDbTextStyleTableRecord
  2
ACJISTS
 70
     0
 40
1.0
 41
1.0
 50
0.0
 71
     0
 42
2.5
  3
simplex.shx
  4
bigfont.shx
  0
STYLE
  5
269
330
3
100
AcDbSymbolTableRecord
100
AcDbTextStyleTableRecord
  2
ACJISGDT
 70
     0
 40
0.0
 41
1.0
 50
0.0
 71
     0
 42
2.5
  3
amgdtans.shx
  4

  0
ENDTAB
  0
TABLE
  2
VIEW
  5
6
330
0
100
AcDbSymbolTable
 70
     0
  0
ENDTAB
  0
TABLE
  2
UCS
  5
7
330
0
100
AcDbSymbolTable
 70
     0
  0
ENDTAB
  0
TABLE
  2
APPID
  5
9
330
0
100
AcDbSymbolTable
 70
    13
  0
APPID
  5
12
330
9
100
AcDbSymbolTableRecord
100
AcDbRegAppTableRecord
  2
ACAD
 70
     0
  0
APPID
  5
30
330
9
100
AcDbSymbolTableRecord
100
AcDbRegAppTableRecord
  2
MCAD_NO_VIS
 70
     0
  0
APPID
  5
31
330
9
100
AcDbSymbolTableRecord
100
AcDbRegAppTableRecord
  2
ACAD_TEMP_GRAPHIC
 70
     0
  0
APPID
  5
2C2
330
9
100
AcDbSymbolTableRecord
100
AcDbRegAppTableRecord
  2
GENIUS_GENDTOL_13
 70
     0
  0
APPID
  5
339
330
9
100
AcDbSymbolTableRecord
100
AcDbRegAppTableRecord
  2
GENIUS_GENODEF_13
 70
     0
  0
APPID
  5
33A
330
9
100
AcDbSymbolTableRecord
100
AcDbRegAppTableRecord
  2
GENIUS_GENOBJ-N-RSBK_13
 70
     0
  0
APPID
  5
33B
330
9
100
AcDbSymbolTableRecord
100
AcDbRegAppTableRecord
  2
GENIUS_GENOBJ-N-LIB_13
 70
     0
  0
APPID
  5
33C
330
9
100
AcDbSymbolTableRecord
100
AcDbRegAppTableRecord
  2
GENIUS_GENSCALE_13
 70
     0
  0
APPID
  5
378
330
9
100
AcDbSymbolTableRecord
100
AcDbRegAppTableRecord
  2
GENIUS_GENDIMSH_14
 70
     0
  0
APPID
  5
BA6
330
9
100
AcDbSymbolTableRecord
100
AcDbRegAppTableRecord
  2
GENIUS_GENOBJ-N-CEN_13
 70
     0
  0
APPID
  5
D2B
330
9
100
AcDbSymbolTableRecord
100
AcDbRegAppTableRecord
  2
GENIUS_GENFIL_13
 70
     0
  0
APPID
  5
D2C
330
9
100
AcDbSymbolTableRecord
100
AcDbRegAppTableRecord
  2
GENIUS_GENOBJ-N-CHA_13
 70
     0
  0
APPID
  5
1B92
330
9
100
AcDbSymbolTableRecord
100
AcDbRegAppTableRecord
  2
GENIUS_GENOBJ-N-FIL_13
 70
     0
  0
ENDTAB
  0
TABLE
  2
DIMSTYLE
  5
A
330
0
100
AcDbSymbolTable
 70
     8
  0
DIMSTYLE
105
58
102
{ACAD_REACTORS
330
1BBC
330
1C74
330
1CFC
330
2018
102
}
330
A
100
AcDbSymbolTableRecord
100
AcDbDimStyleTableRecord
  2
AM_JIS
 70
     0
  3

  4
"
  5
OPEN30
  6

  7

 40
0.5
 41
2.5
 42
1.0
 43
12.0
 44
1.0
 45
0.0
 46
0.0
 47
0.1
 48
0.1
140
3.2
141
0.0
142
0.0
143
0.0393701
144
1.0
145
0.0
146
0.71
147
1.5
 71
     0
 72
     0
 73
     0
 74
     0
 75
     0
 76
     0
 77
     3
 78
     8
170
     0
171
     2
172
     1
173
     0
174
     0
175
     0
176
   256
177
   256
178
     2
270
     2
271
     3
272
     3
273
     2
274
     2
340
6B
275
     0
280
     0
281
     0
282
     0
283
     0
284
     0
285
     0
286
     0
287
     3
288
     0
  0
DIMSTYLE
105
5F
330
A
100
AcDbSymbolTableRecord
100
AcDbDimStyleTableRecord
  2
AM_JIS$3
 70
     0
  3

  4
"
  5
OPEN30
  6

  7

 40
0.5
 41
2.5
 42
1.0
 43
10.0
 44
1.0
 45
0.0
 46
0.0
 47
0.1
 48
0.1
140
3.2
141
0.0
142
0.0
143
0.0393701
144
1.0
145
0.0
146
0.71
147
1.5
 71
     0
 72
     0
 73
     0
 74
     1
 75
     0
 76
     0
 77
     3
 78
     8
170
     0
171
     2
172
     0
173
     0
174
     0
175
     0
176
   256
177
   256
178
     2
270
     2
271
     2
272
     3
273
     2
274
     2
340
6B
275
     0
280
     0
281
     0
282
     0
283
     0
284
     0
285
     0
286
     0
287
     0
288
     1
  0
DIMSTYLE
105
60
102
{ACAD_REACTORS
330
1E25
102
}
330
A
100
AcDbSymbolTableRecord
100
AcDbDimStyleTableRecord
  2
AM_JIS$4
 70
     0
  3

  4
"
  5
OPEN30
  6

  7

 40
0.5
 41
2.5
 42
1.0
 43
10.0
 44
1.0
 45
0.0
 46
0.0
 47
0.1
 48
0.1
140
3.2
141
0.0
142
0.0
143
0.0393701
144
1.0
145
0.0
146
0.71
147
1.5
 71
     0
 72
     0
 73
     0
 74
     1
 75
     0
 76
     0
 77
     3
 78
     8
170
     0
171
     2
172
     0
173
     0
174
     0
175
     0
176
   256
177
   256
178
     2
270
     2
271
     2
272
     3
273
     2
274
     2
340
6B
275
     0
280
     0
281
     0
282
     0
283
     0
284
     0
285
     0
286
     0
287
     0
288
     1
  0
DIMSTYLE
105
61
330
A
100
AcDbSymbolTableRecord
100
AcDbDimStyleTableRecord
  2
AM_JIS$6
 70
     0
  3

  4
"
  5
OPEN30
  6

  7

 40
0.5
 41
2.5
 42
1.0
 43
10.0
 44
1.0
 45
0.0
 46
0.0
 47
0.1
 48
0.1
140
3.2
141
0.0
142
0.0
143
0.0393701
144
1.0
145
0.0
146
0.71
147
1.5
 71
     0
 72
     0
 73
     0
 74
     0
 75
     0
 76
     0
 77
     0
 78
     8
170
     0
171
     2
172
     1
173
     0
174
     0
175
     0
176
   256
177
   256
178
     2
270
     2
271
     2
272
     2
273
     2
274
     2
340
6B
275
     0
280
     0
281
     0
282
     0
283
     0
284
     0
285
     0
286
     0
287
     3
288
     0
  0
DIMSTYLE
105
62
330
A
100
AcDbSymbolTableRecord
100
AcDbDimStyleTableRecord
  2
AM_JIS$7
 70
     0
  3

  4
"
  5
OPEN30
  6

  7

 40
0.5
 41
2.5
 42
1.0
 43
10.0
 44
1.0
 45
0.0
 46
0.0
 47
0.1
 48
0.1
140
3.2
141
0.0
142
0.0
143
0.0393701
144
1.0
145
0.0
146
0.71
147
1.5
 71
     0
 72
     0
 73
     0
 74
     0
 75
     0
 76
     0
 77
     3
 78
     8
170
     0
171
     2
172
     1
173
     0
174
     0
175
     0
176
   256
177
   256
178
     2
270
     2
271
     2
272
     3
273
     2
274
     2
340
6B
275
     0
280
     0
281
     0
282
     0
283
     0
284
     0
285
     0
286
     0
287
     3
288
     0
  0
DIMSTYLE
105
63
330
A
100
AcDbSymbolTableRecord
100
AcDbDimStyleTableRecord
  2
AM_JIS$SF
 70
     0
  3

  4
"
  5
OPEN30
  6

  7

 40
0.5
 41
2.5
 42
1.0
 43
10.0
 44
1.0
 45
0.0
 46
0.0
 47
0.1
 48
0.1
140
3.2
141
0.0
142
0.0
143
0.0393701
144
1.0
145
0.0
146
0.71
147
1.5
 71
     0
 72
     0
 73
     0
 74
     0
 75
     1
 76
     1
 77
     3
 78
     8
170
     0
171
     2
172
     1
173
     0
174
     0
175
     0
176
   256
177
   256
178
     2
270
     2
271
     2
272
     2
273
     2
274
     2
340
6B
275
     0
280
     0
281
     0
282
     0
283
     0
284
     0
285
     0
286
     0
287
     3
288
     0
  0
DIMSTYLE
105
68
330
A
100
AcDbSymbolTableRecord
100
AcDbDimStyleTableRecord
  2
AM_JIS$SH
 70
     0
  3

  4
"
  5

  6
GENAXEH
  7
OPEN30
 40
0.5
 41
2.5
 42
1.0
 43
10.0
 44
1.0
 45
0.0
 46
0.0
 47
0.1
 48
0.1
140
3.2
141
0.0
142
0.0
143
0.0393701
144
2.0
145
0.0
146
0.71
147
1.5
 71
     0
 72
     0
 73
     0
 74
     0
 75
     1
 76
     1
 77
     3
 78
     8
170
     0
171
     2
172
     1
173
     1
174
     0
175
     0
176
   256
177
   256
178
     2
270
     2
271
     2
272
     2
273
     2
274
     2
340
6B
275
     0
280
     0
281
     0
282
     0
283
     0
284
     0
285
     0
286
     0
287
     3
288
     0
  0
DIMSTYLE
105
B34
330
A
100
AcDbSymbolTableRecord
100
AcDbDimStyleTableRecord
  2
AM_JIS$2
 70
     0
  3

  4
"
  5
OPEN30
  6

  7

 40
0.5
 41
2.5
 42
1.0
 43
12.0
 44
1.0
 45
0.0
 46
0.0
 47
0.1
 48
0.1
140
3.2
141
0.0
142
0.0
143
0.0393701
144
1.0
145
0.0
146
0.71
147
1.5
 71
     0
 72
     0
 73
     0
 74
     0
 75
     0
 76
     0
 77
     3
 78
     8
170
     0
171
     2
172
     1
173
     0
174
     0
175
     0
176
   256
177
   256
178
     2
270
     2
271
     3
272
     3
273
     2
274
     2
340
6B
275
     0
280
     0
281
     0
282
     0
283
     0
284
     0
285
     0
286
     0
287
     3
288
     0
  0
ENDTAB
  0
TABLE
  2
BLOCK_RECORD
  5
1
330
0
100
AcDbSymbolTable
 70
    10
  0
BLOCK_RECORD
  5
1F
102
{ACAD_XDICTIONARY
360
74
102
}
330
1
100
AcDbSymbolTableRecord
100
AcDbBlockTableRecord
  2
*MODEL_SPACE
  0
BLOCK_RECORD
  5
101
102
{ACAD_XDICTIONARY
360
20E1
102
}
330
1
100
AcDbSymbolTableRecord
100
AcDbBlockTableRecord
  2
*PAPER_SPACE
  0
BLOCK_RECORD
  5
59
330
1
100
AcDbSymbolTableRecord
100
AcDbBlockTableRecord
  2
_OPEN30
  0
BLOCK_RECORD
  5
64
330
1
100
AcDbSymbolTableRecord
100
AcDbBlockTableRecord
  2
GENAXEH
  0
BLOCK_RECORD
  5
1BBD
330
1
100
AcDbSymbolTableRecord
100
AcDbBlockTableRecord
  2
*D5
  0
BLOCK_RECORD
  5
1C75
330
1
100
AcDbSymbolTableRecord
100
AcDbBlockTableRecord
  2
*D6
  0
BLOCK_RECORD
  5
1CFD
330
1
100
AcDbSymbolTableRecord
100
AcDbBlockTableRecord
  2
*D7
  0
BLOCK_RECORD
  5
1E26
330
1
100
AcDbSymbolTableRecord
100
AcDbBlockTableRecord
  2
*D8
  0
BLOCK_RECORD
  5
2019
330
1
100
AcDbSymbolTableRecord
100
AcDbBlockTableRecord
  2
*D9
  0
ENDTAB
  0
ENDSEC
  0
SECTION
  2
BLOCKS
  0
BLOCK
  5
20
330
1F
100
AcDbEntity
  8
0
100
AcDbBlockBegin
  2
*MODEL_SPACE
 70
     0
 10
0.0
 20
0.0
 30
0.0
  3
*MODEL_SPACE
  1

  0
ENDBLK
  5
21
330
1F
100
AcDbEntity
  8
0
100
AcDbBlockEnd
  0
BLOCK
  5
103
330
101
100
AcDbEntity
 67
     1
  8
0
100
AcDbBlockBegin
  2
*PAPER_SPACE
 70
     0
 10
0.0
 20
0.0
 30
0.0
  3
*PAPER_SPACE
  1

  0
ENDBLK
  5
104
330
101
100
AcDbEntity
 67
     1
  8
0
100
AcDbBlockEnd
  0
BLOCK
  5
5D
330
59
100
AcDbEntity
  8
0
100
AcDbBlockBegin
  2
_OPEN30
 70
     0
 10
0.0
 20
0.0
 30
0.0
  3
_OPEN30
  1

  0
LINE
  5
5A
330
59
100
AcDbEntity
  8
0
 62
     0
100
AcDbLine
 10
-1.0
 20
0.26794919
 30
0.0
 11
0.0
 21
0.0
 31
0.0
  0
LINE
  5
5B
330
59
100
AcDbEntity
  8
0
 62
     0
100
AcDbLine
 10
0.0
 20
0.0
 30
0.0
 11
-1.0
 21
-0.26794919
 31
0.0
  0
LINE
  5
5C
330
59
100
AcDbEntity
  8
0
 62
     0
100
AcDbLine
 10
0.0
 20
0.0
 30
0.0
 11
-1.0
 21
0.0
 31
0.0
  0
ENDBLK
  5
5E
330
59
100
AcDbEntity
  8
0
100
AcDbBlockEnd
  0
BLOCK
  5
66
330
64
100
AcDbEntity
  8
0
100
AcDbBlockBegin
  2
GENAXEH
 70
     0
 10
0.0
 20
0.0
 30
0.0
  3
GENAXEH
  1

  0
LINE
  5
65
330
64
100
AcDbEntity
  8
0
100
AcDbLine
 10
-1.0
 20
0.0
 30
0.0
 11
1.0
 21
0.0
 31
0.0
  0
ENDBLK
  5
67
330
64
100
AcDbEntity
  8
0
100
AcDbBlockEnd
  0
BLOCK
  5
1BC9
330
1BBD
100
AcDbEntity
  8
0
100
AcDbBlockBegin
  2
*D5
 70
     1
 10
0.0
 20
0.0
 30
0.0
  3
*D5
  1

  0
LINE
  5
2006
330
1BBD
100
AcDbEntity
  8
AM_5
100
AcDbLine
 10
-0.2580687400020452
 20
2.999999999999829
 30
0.0
 11
12.03057127861245
 21
2.999999999999825
 31
0.0
  0
LINE
  5
2007
330
1BBD
100
AcDbEntity
  8
AM_5
100
AcDbLine
 10
0.2999999999985954
 20
-3.000000000000368
 30
0.0
 11
12.03057127861245
 21
-3.000000000000372
 31
0.0
  0
LINE
  5
2008
330
1BBD
100
AcDbEntity
  8
AM_5
100
AcDbLine
 10
11.53057127861245
 20
4.249999999999825
 30
0.0
 11
11.53057127861245
 21
5.499999999999825
 31
0.0
  0
LINE
  5
2009
330
1BBD
100
AcDbEntity
  8
AM_5
100
AcDbLine
 10
11.53057127861245
 20
-4.250000000000372
 30
0.0
 11
11.53057127861245
 21
-5.500000000000372
 31
0.0
  0
LINE
  5
200A
330
1BBD
100
AcDbEntity
  8
AM_5
100
AcDbLine
 10
11.53057127861245
 20
2.999999999999825
 30
0.0
 11
11.53057127861245
 21
-3.000000000000372
 31
0.0
  0
INSERT
  5
200B
330
1BBD
100
AcDbEntity
  8
AM_5
100
AcDbBlockReference
  2
_OPEN30
 10
11.53057127861245
 20
2.999999999999825
 30
0.0
 41
1.25
 42
1.25
 43
1.25
 50
270.0
  0
INSERT
  5
200C
330
1BBD
100
AcDbEntity
  8
AM_5
100
AcDbBlockReference
  2
_OPEN30
 10
11.53057127861245
 20
-3.000000000000372
 30
0.0
 41
1.25
 42
1.25
 43
1.25
 50
90.0
  0
MTEXT
  5
200D
330
1BBD
100
AcDbEntity
  8
AM_5
 62
     2
100
AcDbMText
 10
9.980571278612455
 20
-0.0000000000053187
 30
0.0
 40
1.6
 41
0.0
 71
     5
 72
     1
  1
%%c6
  7
ASAMI
 11
0.0000000000000001
 21
1.0
 31
0.0
1001
ACAD
1000
MTEXTBEGIN
1070
    73
1070
     1
1070
    44
1040
1.0
1070
    74
1070
     0
1000
MTEXTEND
  0
POINT
  5
200E
330
1BBD
100
AcDbEntity
  8
DEFPOINTS
 62
     0
100
AcDbPoint
 10
-0.7580687400020452
 20
2.999999999999829
 30
0.0
  0
POINT
  5
200F
330
1BBD
100
AcDbEntity
  8
DEFPOINTS
 62
     0
100
AcDbPoint
 10
-0.2000000000014046
 20
-3.000000000000368
 30
0.0
  0
POINT
  5
2010
330
1BBD
100
AcDbEntity
  8
DEFPOINTS
 62
     0
100
AcDbPoint
 10
11.53057127861245
 20
-3.000000000000372
 30
0.0
  0
ENDBLK
  5
1BCA
330
1BBD
100
AcDbEntity
  8
0
100
AcDbBlockEnd
  0
BLOCK
  5
1C7F
330
1C75
100
AcDbEntity
  8
0
100
AcDbBlockBegin
  2
*D6
 70
     1
 10
0.0
 20
0.0
 30
0.0
  3
*D6
  1

  0
LINE
  5
1FFD
330
1C75
100
AcDbEntity
  8
AM_5
100
AcDbLine
 10
-12.99999999999999
 20
-3.500000000000003
 30
0.0
 11
-12.99999999999999
 21
-10.50000101000052
 31
0.0
  0
LINE
  5
1FFE
330
1C75
100
AcDbEntity
  8
AM_5
100
AcDbLine
 10
0.0
 20
-3.300000000000368
 30
0.0
 11
-0.0000000000000005
 21
-10.50000101000052
 31
0.0
  0
LINE
  5
1FFF
330
1C75
100
AcDbEntity
  8
AM_5
100
AcDbLine
 10
-11.74999999999999
 20
-10.00000101000052
 30
0.0
 11
-1.25
 21
-10.00000101000052
 31
0.0
  0
INSERT
  5
2000
330
1C75
100
AcDbEntity
  8
AM_5
100
AcDbBlockReference
  2
_OPEN30
 10
-12.99999999999999
 20
-10.00000101000052
 30
0.0
 41
1.25
 42
1.25
 43
1.25
 50
180.0
  0
INSERT
  5
2001
330
1C75
100
AcDbEntity
  8
AM_5
100
AcDbBlockReference
  2
_OPEN30
 10
-0.0000000000000004
 20
-10.00000101000052
 30
0.0
 41
1.25
 42
1.25
 43
1.25
  0
MTEXT
  5
2002
330
1C75
100
AcDbEntity
  8
AM_5
 62
     2
100
AcDbMText
 10
-6.499999999999999
 20
-8.450001010000525
 30
0.0
 40
1.6
 41
0.0
 71
     5
 72
     1
  1
13
  7
ASAMI
1001
ACAD
1000
MTEXTBEGIN
1070
    73
1070
     1
1070
    44
1040
1.0
1070
    74
1070
     0
1000
MTEXTEND
  0
POINT
  5
2003
330
1C75
100
AcDbEntity
  8
DEFPOINTS
 62
     0
100
AcDbPoint
 10
-12.99999999999999
 20
-3.000000000000003
 30
0.0
  0
POINT
  5
2004
330
1C75
100
AcDbEntity
  8
DEFPOINTS
 62
     0
100
AcDbPoint
 10
0.0
 20
-2.800000000000368
 30
0.0
  0
POINT
  5
2005
330
1C75
100
AcDbEntity
  8
DEFPOINTS
 62
     0
100
AcDbPoint
 10
-0.0000000000000004
 20
-10.00000101000052
 30
0.0
  0
ENDBLK
  5
1C80
330
1C75
100
AcDbEntity
  8
0
100
AcDbBlockEnd
  0
BLOCK
  5
1D07
330
1CFD
100
AcDbEntity
  8
0
100
AcDbBlockBegin
  2
*D7
 70
     1
 10
0.0
 20
0.0
 30
0.0
  3
*D7
  1

  0
LINE
  5
1FF4
330
1CFD
100
AcDbEntity
  8
AM_5
100
AcDbLine
 10
0.0
 20
-3.300000000000368
 30
0.0
 11
-0.0000000000000008
 21
-16.50000101000022
 31
0.0
  0
LINE
  5
1FF5
330
1CFD
100
AcDbEntity
  8
AM_5
100
AcDbLine
 10
-59.99999999999999
 20
-3.200000000000023
 30
0.0
 11
-59.99999999999999
 21
-16.50000101000022
 31
0.0
  0
LINE
  5
1FF6
330
1CFD
100
AcDbEntity
  8
AM_5
100
AcDbLine
 10
-1.25
 20
-16.00000101000022
 30
0.0
 11
-58.74999999999999
 21
-16.00000101000022
 31
0.0
  0
INSERT
  5
1FF7
330
1CFD
100
AcDbEntity
  8
AM_5
100
AcDbBlockReference
  2
_OPEN30
 10
-0.0000000000000008
 20
-16.00000101000022
 30
0.0
 41
1.25
 42
1.25
 43
1.25
  0
INSERT
  5
1FF8
330
1CFD
100
AcDbEntity
  8
AM_5
100
AcDbBlockReference
  2
_OPEN30
 10
-59.99999999999999
 20
-16.00000101000022
 30
0.0
 41
1.25
 42
1.25
 43
1.25
 50
180.0
  0
MTEXT
  5
1FF9
330
1CFD
100
AcDbEntity
  8
AM_5
 62
     2
100
AcDbMText
 10
-29.99999999999999
 20
-14.45000101000022
 30
0.0
 40
1.6
 41
0.0
 71
     5
 72
     1
  1
60
  7
ASAMI
1001
ACAD
1000
MTEXTBEGIN
1070
    73
1070
     1
1070
    44
1040
1.0
1070
    74
1070
     0
1000
MTEXTEND
  0
POINT
  5
1FFA
330
1CFD
100
AcDbEntity
  8
DEFPOINTS
 62
     0
100
AcDbPoint
 10
0.0
 20
-2.800000000000368
 30
0.0
  0
POINT
  5
1FFB
330
1CFD
100
AcDbEntity
  8
DEFPOINTS
 62
     0
100
AcDbPoint
 10
-59.99999999999999
 20
-2.700000000000023
 30
0.0
  0
POINT
  5
1FFC
330
1CFD
100
AcDbEntity
  8
DEFPOINTS
 62
     0
100
AcDbPoint
 10
-59.99999999999999
 20
-16.00000101000022
 30
0.0
  0
ENDBLK
  5
1D08
330
1CFD
100
AcDbEntity
  8
0
100
AcDbBlockEnd
  0
BLOCK
  5
1E2D
330
1E26
100
AcDbEntity
  8
0
100
AcDbBlockBegin
  2
*D8
 70
     1
 10
0.0
 20
0.0
 30
0.0
  3
*D8
  1

  0
LINE
  5
20E3
330
1E26
100
AcDbEntity
  8
AM_5
100
AcDbLine
 10
6.890450491004275
 20
-8.522711999094537
 30
0.0
 11
0.9045762402583076
 21
-3.67544660612735
 31
0.0
  0
MTEXT
  5
20E4
330
1E26
100
AcDbEntity
  8
AM_5
 62
     2
100
AcDbMText
 10
5.358676197669143
 20
-5.287828306758785
 30
0.0
 40
1.6
 41
0.0
 71
     5
 72
     1
  1
R0.3
  7
ASAMI
 11
0.7771459614569724
 21
-0.6293203910498356
 31
0.0
  0
LINE
  5
20E5
330
1E26
100
AcDbEntity
  8
AM_5
100
AcDbLine
 10
-0.2999999999999996
 20
-2.700000000000106
 30
0.0
 11
-0.0668562115629079
 21
-2.888796117315056
 31
0.0
  0
INSERT
  5
20E6
330
1E26
100
AcDbEntity
  8
AM_5
100
AcDbBlockReference
  2
_OPEN30
 10
-0.0668562115629079
 20
-2.888796117315056
 30
0.0
 41
1.25
 42
1.25
 43
1.25
 50
141.0000000000001
  0
POINT
  5
20E7
330
1E26
100
AcDbEntity
  8
DEFPOINTS
 62
     0
100
AcDbPoint
 10
-0.0668562115629079
 20
-2.888796117315056
 30
0.0
  0
POINT
  5
20E8
330
1E26
100
AcDbEntity
  8
DEFPOINTS
 62
     0
100
AcDbPoint
 10
-0.2999999999999996
 20
-2.700000000000106
 30
0.0
  0
ENDBLK
  5
1E2E
330
1E26
100
AcDbEntity
  8
0
100
AcDbBlockEnd
  0
BLOCK
  5
2023
330
2019
100
AcDbEntity
  8
0
100
AcDbBlockBegin
  2
*D9
 70
     1
 10
0.0
 20
0.0
 30
0.0
  3
*D9
  1

  0
LINE
  5
2092
330
2019
100
AcDbEntity
  8
AM_5
100
AcDbLine
 10
-59.99999999999999
 20
-3.000000000000023
 30
0.0
 11
-67.0
 21
-3.000000000000021
 31
0.0
  0
LINE
  5
2093
330
2019
100
AcDbEntity
  8
AM_5
100
AcDbLine
 10
-59.99999999999999
 20
2.999999999999985
 30
0.0
 11
-67.0
 21
2.999999999999987
 31
0.0
  0
LINE
  5
2094
330
2019
100
AcDbEntity
  8
AM_5
100
AcDbLine
 10
-66.5
 20
-1.750000000000021
 30
0.0
 11
-66.5
 21
1.749999999999987
 31
0.0
  0
INSERT
  5
2095
330
2019
100
AcDbEntity
  8
AM_5
100
AcDbBlockReference
  2
_OPEN30
 10
-66.5
 20
-3.000000000000021
 30
0.0
 41
1.25
 42
1.25
 43
1.25
 50
270.0
  0
INSERT
  5
2096
330
2019
100
AcDbEntity
  8
AM_5
100
AcDbBlockReference
  2
_OPEN30
 10
-66.5
 20
2.999999999999987
 30
0.0
 41
1.25
 42
1.25
 43
1.25
 50
90.0
  0
MTEXT
  5
2097
330
2019
100
AcDbEntity
  8
AM_5
 62
     2
100
AcDbMText
 10
-68.04999999999999
 20
-0.0000000000000277
 30
0.0
 40
1.6
 41
0.0
 71
     5
 72
     1
  1
%%c6
  7
ASAMI
 11
0.0000000000000001
 21
1.0
 31
0.0
1001
ACAD
1000
MTEXTBEGIN
1070
    73
1070
     1
1070
    44
1040
1.0
1070
    74
1070
     0
1000
MTEXTEND
  0
POINT
  5
2098
330
2019
100
AcDbEntity
  8
DEFPOINTS
 62
     0
100
AcDbPoint
 10
-59.49999999999999
 20
-3.000000000000023
 30
0.0
  0
POINT
  5
2099
330
2019
100
AcDbEntity
  8
DEFPOINTS
 62
     0
100
AcDbPoint
 10
-59.49999999999999
 20
2.999999999999985
 30
0.0
  0
POINT
  5
209A
330
2019
100
AcDbEntity
  8
DEFPOINTS
 62
     0
100
AcDbPoint
 10
-66.5
 20
2.999999999999987
 30
0.0
  0
ENDBLK
  5
2024
330
2019
100
AcDbEntity
  8
0
100
AcDbBlockEnd
  0
ENDSEC
  0
SECTION
  2
ENTITIES
  0
TEXT
  5
F17
330
1F
100
AcDbEntity
  8
AM_6
100
AcDbText
 10
-46.90476190476189
 20
-27.25000101000022
 30
0.0
 40
2.5
  1
SSUP4060ZX-R03
 72
     1
 11
-29.99999999999999
 21
-26.00000101000022
 31
0.0
100
AcDbText
 73
     2
  0
LINE
  5
1A2C
330
1F
100
AcDbEntity
  8
AM_0
100
AcDbLine
 10
-0.7580687400020452
 20
2.999999999999829
 30
0.0
 11
-0.300000000000216
 21
3.000000000000158
 31
0.0
  0
LINE
  5
1A2D
330
1F
100
AcDbEntity
  8
AM_0
100
AcDbLine
 10
-0.0744059024641295
 20
0.5650264643901777
 30
0.0
 11
-0.2811754714492632
 21
1.348572917253352
 31
0.0
  0
LINE
  5
1A2E
330
1F
100
AcDbEntity
  8
AM_0
100
AcDbLine
 10
-0.0744059024641295
 20
-0.9192088034798757
 30
0.0
 11
-0.0067493721027693
 21
-0.7059731286419605
 31
0.0
  0
LINE
  5
1A2F
330
1F
100
AcDbEntity
  8
AM_0
100
AcDbLine
 10
-0.0067493721027693
 20
-0.0759731286418515
 30
0.0
 11
-0.8404825029793258
 21
0.0003913829263751
 31
0.0
  0
LINE
  5
1A30
330
1F
100
AcDbEntity
  8
AM_0
100
AcDbLine
 10
-0.0067493721027693
 20
-0.0885856368738019
 30
0.0
 11
-0.0744059024641295
 21
0.5650264643901777
 31
0.0
  0
LINE
  5
1A31
330
1F
100
AcDbEntity
  8
AM_0
100
AcDbLine
 10
-13.0
 20
1.50902403038196
 30
0.0
 11
-13.0
 21
2.253135019481075
 31
0.0
  0
LINE
  5
1A32
330
1F
100
AcDbEntity
  8
AM_11
100
AcDbLine
 10
-12.99999999999999
 20
3.000000000000374
 30
0.0
 11
0.0
 21
3.000000000000374
 31
0.0
  0
LINE
  5
1A33
330
1F
100
AcDbEntity
  8
AM_0
100
AcDbLine
 10
-0.0676565303610914
 20
-2.820769663675548
 30
0.0
 11
-0.1023790188870531
 21
-2.776275501279371
 31
0.0
  0
LINE
  5
1A34
330
1F
100
AcDbEntity
  8
AM_0
100
AcDbLine
 10
-0.0504124404579132
 20
-2.866451344608149
 30
0.0
 11
-0.0676565303610914
 21
-2.820769663675548
 31
0.0
  0
LINE
  5
1A36
330
1F
100
AcDbEntity
  8
AM_0
100
AcDbLine
 10
-0.1023790188870531
 20
-2.776275501279371
 30
0.0
 11
-0.2589679396212638
 21
-2.225627807678199
 31
0.0
  0
LINE
  5
1A37
330
1F
100
AcDbEntity
  8
AM_11
100
AcDbLine
 10
0.0
 20
-3.000000000000374
 30
0.0
 11
-12.99999999999999
 21
-2.999999999999964
 31
0.0
  0
LINE
  5
1A45
330
1F
100
AcDbEntity
  8
AM_0
100
AcDbLine
 10
-0.0744059024641295
 20
-0.9192088034798757
 30
0.0
 11
-0.258375171367437
 21
-1.294524972855594
 31
0.0
  0
LINE
  5
1A46
330
1F
100
AcDbEntity
  8
AM_0
100
AcDbLine
 10
-0.0676565303610914
 20
-2.820769663675548
 30
0.0
 11
-0.0676565303610914
 21
-0.8979365492355896
 31
0.0
  0
LINE
  5
1A47
330
1F
100
AcDbEntity
  8
AM_0
100
AcDbLine
 10
0.0
 20
2.700000000000158
 30
0.0
 11
0.0
 21
-2.700000000000106
 31
0.0
  0
LINE
  5
1A48
330
1F
100
AcDbEntity
  8
AM_11
100
AcDbLine
 10
-12.99999999999999
 20
3.000000000000374
 30
0.0
 11
-12.99999999999999
 21
-2.999999999999964
 31
0.0
  0
POLYLINE
  5
1A49
330
1F
100
AcDbEntity
  8
AM_0
100
AcDb2dPolyline
 66
     1
 10
0.0
 20
0.0
 30
0.0
 70
     2
  0
VERTEX
  5
1A4A
330
1A49
100
AcDbEntity
  8
AM_0
100
AcDbVertex
100
AcDb2dVertex
 10
-13.0
 20
-1.3832430461032
 30
0.0
 42
-0.0129986936669445
  0
VERTEX
  5
1A4B
330
1A49
100
AcDbEntity
  8
AM_0
100
AcDbVertex
100
AcDb2dVertex
 10
-13.73242804955739
 20
-0.8030528337147927
 30
0.0
 42
-0.0238378164251699
 70
     1
  0
VERTEX
  5
1A4C
330
1A49
100
AcDbEntity
  8
AM_0
100
AcDbVertex
100
AcDb2dVertex
 10
-14.10795454545454
 20
-0.4575510961476197
 30
0.0
 42
-0.0087697151677761
  0
VERTEX
  5
1A4D
330
1A49
100
AcDbEntity
  8
AM_0
100
AcDbVertex
100
AcDb2dVertex
 10
-15.09248125057442
 20
0.5746054817286847
 30
0.0
 42
-0.016586017082525
 70
     1
  0
VERTEX
  5
1A4E
330
1A49
100
AcDbEntity
  8
AM_0
100
AcDbVertex
100
AcDb2dVertex
 10
-15.58522727272727
 20
1.146552475865399
 30
0.0
 42
-0.0451742545712589
  0
VERTEX
  5
1A4F
330
1A49
100
AcDbEntity
  8
AM_0
100
AcDbVertex
100
AcDb2dVertex
 10
-15.91529174841074
 20
1.641458766371596
 30
0.0
 42
-0.1465772931919247
 70
     1
  0
VERTEX
  5
1A50
330
1A49
100
AcDbEntity
  8
AM_0
100
AcDbVertex
100
AcDb2dVertex
 10
-15.95454545454545
 20
1.824964097922838
 30
0.0
 42
-0.2363269648915856
  0
VERTEX
  5
1A51
330
1A49
100
AcDbEntity
  8
AM_0
100
AcDbVertex
100
AcDb2dVertex
 10
-15.88505995162262
 20
1.942309795619121
 30
0.0
 42
-0.0944295254831177
 70
     1
  0
VERTEX
  5
1A52
330
1A49
100
AcDbEntity
  8
AM_0
100
AcDbVertex
100
AcDb2dVertex
 10
-15.58522727272727
 20
2.062857318534415
 30
0.0
 42
-0.0735428200704349
  0
VERTEX
  5
1A53
330
1A49
100
AcDbEntity
  8
AM_0
100
AcDbVertex
100
AcDb2dVertex
 10
-15.19848555132176
 20
2.079318661872681
 30
0.0
 42
-0.025664050315163
 70
     1
  0
VERTEX
  5
1A54
330
1A49
100
AcDbEntity
  8
AM_0
100
AcDbVertex
100
AcDb2dVertex
 10
-14.10795454545454
 20
1.904887284763975
 30
0.0
 42
-0.0327084143688329
  0
VERTEX
  5
1A55
330
1A49
100
AcDbEntity
  8
AM_0
100
AcDbVertex
100
AcDb2dVertex
 10
-13.6087024549406
 20
1.762976103166584
 30
0.0
 42
-0.0257576852941419
 70
     1
  0
VERTEX
  5
1A56
330
1A49
100
AcDbEntity
  8
AM_0
100
AcDbVertex
100
AcDb2dVertex
 10
-13.0
 20
1.50902403038196
 30
0.0
  0
SEQEND
  5
1A57
330
1A49
100
AcDbEntity
  8
AM_0
  0
SPLINE
  5
1A67
330
1F
100
AcDbEntity
  8
AM_0
100
AcDbSpline
210
0.0
220
0.0
230
1.0
 70
     8
 71
     3
 72
     8
 73
     4
 74
     0
 42
0.0000000001
 43
0.0000000001
 40
0.2725981709865456
 40
0.2725981709865456
 40
0.2725981709865456
 40
0.2725981709865456
 40
2.093133798227362
 40
2.093133798227362
 40
2.093133798227362
 40
2.093133798227362
 10
-11.73995543732478
 20
-3.000000000000004
 30
0.0
 10
-11.38458301669029
 20
-2.984004632202356
 30
0.0
 10
-11.03981619164872
 20
-2.927939107208242
 30
0.0
 10
-10.70378751377759
 20
-2.836433361216424
 30
0.0
  0
SPLINE
  5
1A68
330
1F
100
AcDbEntity
  8
AM_0
100
AcDbSpline
210
0.0
220
0.0
230
1.0
 70
     8
 71
     3
 72
     8
 73
     4
 74
     0
 42
0.0000000001
 43
0.0000000001
 40
0.0
 40
0.0
 40
0.0
 40
0.0
 40
0.6152373134461622
 40
0.6152373134461622
 40
0.6152373134461622
 40
0.6152373134461622
 10
-10.34363237172233
 20
-2.850836469846365
 30
0.0
 10
-10.46481547891627
 20
-2.850836469846365
 30
0.0
 10
-10.58484464836917
 20
-2.845939766384898
 30
0.0
 10
-10.70378751377759
 20
-2.836433361216381
 30
0.0
  0
SPLINE
  5
1A69
330
1F
100
AcDbEntity
  8
AM_0
100
AcDbSpline
210
0.0
220
0.0
230
1.0
 70
     8
 71
     3
 72
     8
 73
     4
 74
     0
 42
0.0000000001
 43
0.0000000001
 40
0.0
 40
0.0
 40
0.0
 40
0.0
 40
3.983447643433449
 40
3.983447643433449
 40
3.983447643433449
 40
3.983447643433449
 10
-11.17999999999977
 20
2.999999999999829
 30
0.0
 10
-11.9646184752214
 20
2.999999999999829
 30
0.0
 10
-12.69712263906312
 20
2.788634515245718
 30
0.0
 10
-13.39707517413946
 20
2.445245971734476
 30
0.0
  0
SPLINE
  5
1A6A
330
1F
100
AcDbEntity
  8
AM_0
100
AcDbSpline
210
0.0
220
0.0
230
1.0
 70
     8
 71
     3
 72
     8
 73
     4
 74
     0
 42
0.0000000001
 43
0.0000000001
 40
5.215942287204468
 40
5.215942287204468
 40
5.215942287204468
 40
5.215942287204468
 40
10.4969207889486
 40
10.4969207889486
 40
10.4969207889486
 40
10.4969207889486
 10
-12.99999999999998
 20
1.96986497576411
 30
0.0
 10
-12.08602822518428
 20
1.434249758757488
 30
0.0
 10
-11.21483029841239
 20
0.7171248793787271
 30
0.0
 10
-10.34363237164064
 20
-0.0000000000000342
 30
0.0
  0
SPLINE
  5
1A6B
330
1F
100
AcDbEntity
  8
AM_0
100
AcDbSpline
210
0.0
220
0.0
230
1.0
 70
     8
 71
     3
 72
     8
 73
     4
 74
     0
 42
0.0000000001
 43
0.0000000001
 40
0.6393216442353146
 40
0.6393216442353146
 40
0.6393216442353146
 40
0.6393216442353146
 40
10.49653484266006
 40
10.49653484266006
 40
10.49653484266006
 40
10.49653484266006
 10
-15.2724684499905
 20
3.000000000000374
 30
0.0
 10
-12.89159215099086
 20
2.554080282667166
 30
0.0
 10
-11.22356488248273
 20
1.315762723268391
 30
0.0
 10
-9.555537613974054
 20
0.0774451638696177
 30
0.0
  0
SPLINE
  5
1A6C
330
1F
100
AcDbEntity
  8
AM_0
100
AcDbSpline
210
0.0
220
0.0
230
1.0
 70
     8
 71
     3
 72
     8
 73
     4
 74
     0
 42
0.0000000001
 43
0.0000000001
 40
6.902118198828401
 40
6.902118198828401
 40
6.902118198828401
 40
6.902118198828401
 40
10.61176705360581
 40
10.61176705360581
 40
10.61176705360581
 40
10.61176705360581
 10
-13.00000000000009
 20
1.50902403038184
 30
0.0
 10
-12.3828001845898
 20
1.048736417612016
 30
0.0
 10
-11.78140009229492
 20
0.5243682088059869
 30
0.0
 10
-11.18000000000004
 20
-0.0000000000000342
 30
0.0
  0
SPLINE
  5
1A6D
330
1F
100
AcDbEntity
  8
AM_0
100
AcDbSpline
210
0.0
220
0.0
230
1.0
 70
     8
 71
     3
 72
     8
 73
     4
 74
     0
 42
0.0000000001
 43
0.0000000001
 40
0.0
 40
0.0
 40
0.0
 40
0.0
 40
3.941025250697356
 40
3.941025250697356
 40
3.941025250697356
 40
3.941025250697356
 10
-4.812723280731481
 20
-2.850836469846365
 30
0.0
 10
-4.036460731351793
 20
-2.8508364698465
 30
0.0
 10
-3.307547690829247
 20
-2.649910115093033
 30
0.0
 10
-2.608206983003634
 20
-2.323494369771822
 30
0.0
  0
SPLINE
  5
1A6E
330
1F
100
AcDbEntity
  8
AM_0
100
AcDbSpline
210
0.0
220
0.0
230
1.0
 70
     8
 71
     3
 72
     8
 73
     4
 74
     0
 42
0.0000000001
 43
0.0000000001
 40
0.6152373134470183
 40
0.6152373134470183
 40
0.6152373134470183
 40
0.6152373134470183
 40
8.843083020165714
 40
8.843083020165714
 40
8.843083020165714
 40
8.843083020165714
 10
-4.452568138675587
 20
2.836433361216279
 30
0.0
 10
-2.861891625552825
 20
2.709299923040737
 30
0.0
 10
-1.465499695760813
 20
1.757725132562665
 30
0.0
 10
-0.1016240049880873
 20
0.6681685649951418
 30
0.0
  0
SPLINE
  5
1A6F
330
1F
100
AcDbEntity
  8
AM_0
100
AcDbSpline
210
0.0
220
0.0
230
1.0
 70
     8
 71
     3
 72
     8
 73
     4
 74
     0
 42
0.0000000001
 43
0.0000000001
 40
0.0
 40
0.0
 40
0.0
 40
0.0
 40
10.7633540680078
 40
10.7633540680078
 40
10.7633540680078
 40
10.7633540680078
 10
-5.649090909090608
 20
2.999999999999965
 30
0.0
 10
-3.529036319937555
 20
2.999999999999964
 30
0.0
 10
-1.772553859498211
 20
1.500736017613882
 30
0.0
 10
-0.0160713990588683
 20
0.0014720352277992
 30
0.0
  0
SPLINE
  5
1A70
330
1F
100
AcDbEntity
  8
AM_0
100
AcDbSpline
210
0.0
220
0.0
230
1.0
 70
     8
 71
     3
 72
     8
 73
     4
 74
     0
 42
0.0000000001
 43
0.0000000001
 40
1.418383274962104
 40
1.418383274962104
 40
1.418383274962104
 40
1.418383274962104
 40
10.4969207889486
 40
10.4969207889486
 40
10.4969207889486
 40
10.4969207889486
 10
-0.1023790188870531
 20
-2.776275501279371
 30
0.0
 10
-1.817368136720068
 20
-2.465620762327796
 30
0.0
 10
-3.31504570872564
 20
-1.232810381163915
 30
0.0
 10
-4.812723280731481
 20
-0.0000000000000342
 30
0.0
  0
SPLINE
  5
1A71
330
1F
100
AcDbEntity
  8
AM_0
100
AcDbSpline
210
0.0
220
0.0
230
1.0
 70
     8
 71
     3
 72
     8
 73
     4
 74
     0
 42
0.0000000001
 43
0.0000000001
 40
0.0
 40
0.0
 40
0.0
 40
0.0
 40
10.61176705360627
 40
10.61176705360627
 40
10.61176705360627
 40
10.61176705360627
 10
-0.3014442158707247
 20
-3.000000000000102
 30
0.0
 10
-2.208378359043551
 20
-3.000000000000102
 30
0.0
 10
-3.928734634067215
 20
-1.500000000000068
 30
0.0
 10
-5.649090909090876
 20
-0.0000000000000342
 30
0.0
  0
SPLINE
  5
1A72
330
1F
100
AcDbEntity
  8
AM_0
100
AcDbSpline
210
0.0
220
0.0
230
1.0
 70
     8
 71
     3
 72
     8
 73
     4
 74
     0
 42
0.0000000001
 43
0.0000000001
 40
3.266224444355238
 40
3.266224444355238
 40
3.266224444355238
 40
3.266224444355238
 40
10.49653484266006
 40
10.49653484266006
 40
10.49653484266006
 40
10.49653484266006
 10
-0.2589679396212638
 20
-2.225627807678062
 30
0.0
 10
-1.577617453835356
 20
-1.739177880776549
 30
0.0
 10
-2.801122988450391
 20
-0.8308663584534656
 30
0.0
 10
-4.024628523065157
 20
0.0774451638696177
 30
0.0
  0
SPLINE
  5
1A73
330
1F
100
AcDbEntity
  8
AM_0
100
AcDbSpline
210
0.0
220
0.0
230
1.0
 70
     8
 71
     3
 72
     8
 73
     4
 74
     0
 42
0.0000000001
 43
0.0000000001
 40
0.6393216439718838
 40
0.6393216439718838
 40
0.6393216439718838
 40
0.6393216439718838
 40
6.996796499348805
 40
6.996796499348805
 40
6.996796499348805
 40
6.996796499348805
 10
-3.738887762374815
 20
2.723437448520154
 30
0.0
 10
-2.507592193219124
 20
2.614209424192642
 30
0.0
 10
-1.376581153010647
 20
2.060326976580392
 30
0.0
 10
-0.2811754714489945
 20
1.348572917253352
 30
0.0
  0
SPLINE
  5
1A74
330
1F
100
AcDbEntity
  8
AM_0
100
AcDbSpline
210
0.0
220
0.0
230
1.0
 70
     8
 71
     3
 72
     8
 73
     4
 74
     0
 42
0.0000000001
 43
0.0000000001
 40
0.0
 40
0.0
 40
0.0
 40
0.0
 40
2.4079390838223
 40
2.4079390838223
 40
2.4079390838223
 40
2.4079390838223
 10
-4.113461363127457
 20
-2.587718059866721
 30
0.0
 10
-3.639212213175328
 20
-2.581318197318944
 30
0.0
 10
-3.180282663377676
 20
-2.506992324216104
 30
0.0
 10
-2.733158347850059
 20
-2.380322887344152
 30
0.0
  0
SPLINE
  5
1A75
330
1F
100
AcDbEntity
  8
AM_0
100
AcDbSpline
210
0.0
220
0.0
230
1.0
 70
     8
 71
     3
 72
     9
 73
     5
 74
     0
 42
0.0000000001
 43
0.0000000001
 40
0.0
 40
0.0
 40
0.0
 40
0.0
 40
0.6574415203969619
 40
3.123721247380082
 40
3.123721247380082
 40
3.123721247380082
 40
3.123721247380082
 10
-0.8404825029793258
 20
0.0003913829263751
 30
0.0
 10
-0.9694548946632071
 20
0.0122044119784554
 30
0.0
 10
-1.704369649527925
 20
-0.3871577270195826
 30
0.0
 10
-0.5479817244858289
 20
-0.8985086283035577
 30
0.0
 10
-0.258375171367437
 20
-1.294524972855594
 30
0.0
  0
SPLINE
  5
1A76
330
1F
100
AcDbEntity
  8
AM_0
100
AcDbSpline
210
0.0
220
0.0
230
1.0
 70
     8
 71
     3
 72
     8
 73
     4
 74
     0
 42
0.0000000001
 43
0.0000000001
 40
0.1309966081366776
 40
0.1309966081366776
 40
0.1309966081366776
 40
0.1309966081366776
 40
2.847661750814433
 40
2.847661750814433
 40
2.847661750814433
 40
2.847661750814433
 10
-0.1026462446888878
 20
2.925945779479196
 30
0.0
 10
-0.0337258098680529
 20
2.424629312248812
 30
0.0
 10
-0.7496529602275512
 20
2.142347769150839
 30
0.0
 10
-1.438845032958417
 20
2.021398810661878
 30
0.0
  0
SPLINE
  5
1A77
330
1F
100
AcDbEntity
  8
AM_0
100
AcDbSpline
210
0.0
220
0.0
230
1.0
 70
     8
 71
     3
 72
     8
 73
     4
 74
     0
 42
0.0000000001
 43
0.0000000001
 40
0.0
 40
0.0
 40
0.0
 40
0.0
 40
4.066976460604845
 40
4.066976460604845
 40
4.066976460604845
 40
4.066976460604845
 10
-0.7580687400020452
 20
2.999999999999829
 30
0.0
 10
-0.9192529392100615
 20
2.999999999999829
 30
0.0
 10
-1.66600126683542
 20
2.779677342813658
 30
0.0
 10
-2.379246097310277
 20
2.423471034309852
 30
0.0
  0
SPLINE
  5
1A78
330
1F
100
AcDbEntity
  8
AM_0
100
AcDbSpline
210
0.0
220
0.0
230
1.0
 70
     8
 71
     3
 72
     8
 73
     4
 74
     0
 42
0.0000000001
 43
0.0000000001
 40
0.0
 40
0.0
 40
0.0
 40
0.0
 40
1.551838382253894
 40
1.551838382253894
 40
1.551838382253894
 40
1.551838382253894
 10
-0.258375171361794
 20
-1.294524972863371
 30
0.0
 10
-0.1575986620805402
 20
-1.587539130574084
 30
0.0
 10
-0.2024565736891057
 20
-1.92061052679002
 30
0.0
 10
-0.2589679396212638
 20
-2.225627807678199
 30
0.0
  0
SPLINE
  5
1A79
330
1F
100
AcDbEntity
  8
AM_0
100
AcDbSpline
210
0.0
220
0.0
230
1.0
 70
     8
 71
     3
 72
     8
 73
     4
 74
     0
 42
0.0000000001
 43
0.0000000001
 40
0.0
 40
0.0
 40
0.0
 40
0.0
 40
10.49692078894909
 40
10.49692078894909
 40
10.49692078894909
 40
10.49692078894909
 10
-4.812723280731213
 20
-2.850836469846365
 30
0.0
 10
-6.880298587645428
 20
-2.850836469846365
 30
0.0
 10
-8.611965479643037
 20
-1.425418234923199
 30
0.0
 10
-10.34363237164064
 20
-0.0000000000000342
 30
0.0
  0
SPLINE
  5
1A7A
330
1F
100
AcDbEntity
  8
AM_0
100
AcDbSpline
210
0.0
220
0.0
230
1.0
 70
     8
 71
     3
 72
     8
 73
     4
 74
     0
 42
0.0000000001
 43
0.0000000001
 40
0.0
 40
0.0
 40
0.0
 40
0.0
 40
10.49653484265986
 40
10.49653484265986
 40
10.49653484265986
 40
10.49653484265986
 10
-3.935795683002859
 20
-2.587718059866721
 30
0.0
 10
-6.003112402109271
 20
-2.559820186256694
 30
0.0
 10
-7.779325008041664
 20
-1.241187511193538
 30
0.0
 10
-9.555537613974054
 20
0.0774451638696177
 30
0.0
  0
SPLINE
  5
1A7B
330
1F
100
AcDbEntity
  8
AM_0
100
AcDbSpline
210
0.0
220
0.0
230
1.0
 70
     8
 71
     3
 72
     8
 73
     4
 74
     0
 42
0.0000000001
 43
0.0000000001
 40
0.0
 40
0.0
 40
0.0
 40
0.0
 40
10.61065478016067
 40
10.61065478016067
 40
10.61065478016067
 40
10.61065478016067
 10
-5.649090909090608
 20
-2.998583357344776
 30
0.0
 10
-7.739068365788923
 20
-2.998583357344776
 30
0.0
 10
-9.459534182894483
 20
-1.499291678672404
 30
0.0
 10
-11.18000000000004
 20
-0.0000000000000342
 30
0.0
  0
SPLINE
  5
1A7C
330
1F
100
AcDbEntity
  8
AM_0
100
AcDbSpline
210
0.0
220
0.0
230
1.0
 70
     8
 71
     3
 72
     8
 73
     4
 74
     0
 42
0.0000000001
 43
0.0000000001
 40
0.0
 40
0.0
 40
0.0
 40
0.0
 40
4.066976460604825
 40
4.066976460604825
 40
4.066976460604825
 40
4.066976460604825
 10
-5.649090909090608
 20
2.999999999999829
 30
0.0
 10
-6.450162030118958
 20
2.999999999999829
 30
0.0
 10
-7.196910357744586
 20
2.779677342813658
 30
0.0
 10
-7.910155188219174
 20
2.423471034309852
 30
0.0
  0
SPLINE
  5
1A7D
330
1F
100
AcDbEntity
  8
AM_0
100
AcDbSpline
210
0.0
220
0.0
230
1.0
 70
     8
 71
     3
 72
     8
 73
     4
 74
     0
 42
0.0000000001
 43
0.0000000001
 40
0.0
 40
0.0
 40
0.0
 40
0.0
 40
10.61176705360661
 40
10.61176705360661
 40
10.61176705360661
 40
10.61176705360661
 10
-11.18000000000004
 20
2.999999999999965
 30
0.0
 10
-9.089803459138133
 20
2.999999999999964
 30
0.0
 10
-7.36944718411437
 20
1.499999999999965
 30
0.0
 10
-5.649090909090608
 20
-0.0000000000000342
 30
0.0
  0
SPLINE
  5
1A7E
330
1F
100
AcDbEntity
  8
AM_0
100
AcDbSpline
210
0.0
220
0.0
230
1.0
 70
     8
 71
     3
 72
     8
 73
     4
 74
     0
 42
0.0000000001
 43
0.0000000001
 40
0.6152373134470183
 40
0.6152373134470183
 40
0.6152373134470183
 40
0.6152373134470183
 40
10.4969207889486
 40
10.4969207889486
 40
10.4969207889486
 40
10.4969207889486
 10
-9.983477229584753
 20
2.836433361216279
 30
0.0
 10
-8.07306685305585
 20
2.683745471824078
 30
0.0
 10
-6.4428950668938
 20
1.341872735912022
 30
0.0
 10
-4.812723280731213
 20
-0.0000000000000342
 30
0.0
  0
SPLINE
  5
1A7F
330
1F
100
AcDbEntity
  8
AM_0
100
AcDbSpline
210
0.0
220
0.0
230
1.0
 70
     8
 71
     3
 72
     8
 73
     4
 74
     0
 42
0.0000000001
 43
0.0000000001
 40
0.6393216442358057
 40
0.6393216442358057
 40
0.6393216442358057
 40
0.6393216442358057
 40
10.49653484266006
 40
10.49653484266006
 40
10.49653484266006
 40
10.49653484266006
 10
-9.269796853130277
 20
2.723437448506649
 30
0.0
 10
-7.360683060081969
 20
2.55408028266703
 30
0.0
 10
-5.692655791573564
 20
1.315762723268391
 30
0.0
 10
-4.024628523065157
 20
0.0774451638696177
 30
0.0
  0
SPLINE
  5
1A80
330
1F
100
AcDbEntity
  8
AM_0
100
AcDbSpline
210
0.0
220
0.0
230
1.0
 70
     8
 71
     3
 72
     8
 73
     4
 74
     0
 42
0.0000000001
 43
0.0000000001
 40
0.0
 40
0.0
 40
0.0
 40
0.0
 40
2.093133798227362
 40
2.093133798227362
 40
2.093133798227362
 40
2.093133798227362
 10
-5.649090909090876
 20
-2.998583357344639
 30
0.0
 10
-5.236806979137078
 20
-2.999999999999965
 30
0.0
 10
-4.838912120249956
 20
-2.941640733597125
 30
0.0
 10
-4.452568138675855
 20
-2.836433361216416
 30
0.0
  0
SPLINE
  5
1A81
330
1F
100
AcDbEntity
  8
AM_0
100
AcDbSpline
210
0.0
220
0.0
230
1.0
 70
     8
 71
     3
 72
     8
 73
     4
 74
     0
 42
0.0000000001
 43
0.0000000001
 40
0.0
 40
0.0
 40
0.0
 40
0.0
 40
3.977355368879245
 40
3.977355368879245
 40
3.977355368879245
 40
3.977355368879245
 10
-10.34363237172233
 20
-2.850836469846365
 30
0.0
 10
-9.560213889973489
 20
-2.850836469846501
 30
0.0
 10
-8.825021918363166
 20
-2.646188583977266
 30
0.0
 10
-8.11978310103051
 20
-2.314435301503942
 30
0.0
  0
SPLINE
  5
1A82
330
1F
100
AcDbEntity
  8
AM_0
100
AcDbSpline
210
0.0
220
0.0
230
1.0
 70
     8
 71
     3
 72
     8
 73
     4
 74
     0
 42
0.0000000001
 43
0.0000000001
 40
0.150648776844293
 40
0.150648776844293
 40
0.150648776844293
 40
0.150648776844293
 40
6.420166228128741
 40
6.420166228128741
 40
6.420166228128741
 40
6.420166228128741
 10
-9.555537614811795
 20
-2.585723062051022
 30
0.0
 10
-10.7853783526172
 20
-2.547088969306565
 30
0.0
 10
-11.91285528814372
 20
-2.054581104152004
 30
0.0
 10
-13.0
 20
-1.3832430461032
 30
0.0
  0
SPLINE
  5
1A83
330
1F
100
AcDbEntity
  8
AM_0
100
AcDbSpline
210
0.0
220
0.0
230
1.0
 70
     8
 71
     3
 72
     8
 73
     4
 74
     0
 42
0.0000000001
 43
0.0000000001
 40
0.0
 40
0.0
 40
0.0
 40
0.0
 40
2.4079390838223
 40
2.4079390838223
 40
2.4079390838223
 40
2.4079390838223
 10
-9.555537614811795
 20
-2.585723062051022
 30
0.0
 10
-9.170121304166181
 20
-2.581318197318944
 30
0.0
 10
-8.711191754368799
 20
-2.506992324216104
 30
0.0
 10
-8.264067438841182
 20
-2.380322887344152
 30
0.0
  0
LINE
  5
1AB8
330
1F
100
AcDbEntity
  8
AM_0
100
AcDbLine
 10
-60.0
 20
2.699999999999975
 30
0.0
 11
-59.5
 21
2.999999999999976
 31
0.0
1001
GENIUS_GENFIL_13
1070
     0
1040
0.5
1040
0.5
1040
20.0
1040
0.0
1002
{
1002
}
1001
GENIUS_GENODEF_13
1002
{
1000
HIER
1070
     0
1002
}
1002
{
1000
MANEDIT
1070
     0
1002
}
1002
{
1000
NOSEL
1070
     0
1002
}
1002
{
1000
BEHIND
1070
     0
1002
}
1002
{
1000
REACTOR
1002
}
1001
GENIUS_GENOBJ-N-CHA_13
1002
{
1000
OWNER
1000
GEN
1002
}
  0
LINE
  5
1AB9
330
1F
100
AcDbEntity
  8
AM_0
100
AcDbLine
 10
-59.99999999999999
 20
-2.700000000000023
 30
0.0
 11
-59.49999999999999
 21
-3.000000000000023
 31
0.0
1001
GENIUS_GENFIL_13
1070
     0
1040
0.5
1040
0.5
1040
20.0
1040
0.0
1002
{
1002
}
1001
GENIUS_GENODEF_13
1002
{
1000
HIER
1070
     0
1002
}
1002
{
1000
MANEDIT
1070
     0
1002
}
1002
{
1000
NOSEL
1070
     0
1002
}
1002
{
1000
BEHIND
1070
     0
1002
}
1002
{
1000
REACTOR
1002
}
1001
GENIUS_GENOBJ-N-CHA_13
1002
{
1000
OWNER
1000
GEN
1002
}
  0
LINE
  5
1ABA
330
1F
100
AcDbEntity
  8
AM_0
100
AcDbLine
 10
-59.5
 20
-2.997055929544407
 30
0.0
 11
-59.49999999999999
 21
2.999999999999939
 31
0.0
  0
LINE
  5
1ABB
330
1F
100
AcDbEntity
  8
AM_0
100
AcDbLine
 10
-60.0
 20
2.699999999999975
 30
0.0
 11
-59.99999999999999
 21
-2.700000000000023
 31
0.0
  0
LINE
  5
1ACB
330
1F
100
AcDbEntity
  8
AM_0
100
AcDbLine
 10
-11.73995543732474
 20
-3.000000000000002
 30
0.0
 11
-59.49999999999999
 21
-3.000000000000023
 31
0.0
1001
GENIUS_GENODEF_13
1002
{
1000
HIER
1070
     0
1002
}
1002
{
1000
MANEDIT
1070
     0
1002
}
1002
{
1000
NOSEL
1070
     0
1002
}
1002
{
1000
BEHIND
1070
     0
1002
}
1002
{
1000
REACTOR
1002
}
1001
GENIUS_GENOBJ-N-CEN_13
1002
{
1000
OWNER
1000
GEN
1002
}
  0
LINE
  5
1ACC
330
1F
100
AcDbEntity
  8
AM_0
100
AcDbLine
 10
-15.2724684499839
 20
2.999999999999996
 30
0.0
 11
-59.5
 21
2.999999999999976
 31
0.0
1001
GENIUS_GENODEF_13
1002
{
1000
HIER
1070
     0
1002
}
1002
{
1000
MANEDIT
1070
     0
1002
}
1002
{
1000
NOSEL
1070
     0
1002
}
1002
{
1000
BEHIND
1070
     0
1002
}
1002
{
1000
REACTOR
1002
}
1001
GENIUS_GENOBJ-N-CEN_13
1002
{
1000
OWNER
1000
GEN
1002
}
  0
LINE
  5
1ACD
330
1F
100
AcDbEntity
  8
AM_7
  6
AM_ISO08W050X2
100
AcDbLine
 10
4.530570278608138
 20
0.0000000000000011
 30
0.0
 11
-62.59314155754916
 21
-0.0000000000000245
 31
0.0
1001
GENIUS_GENODEF_13
1002
{
1000
HIER
1070
     0
1002
}
1002
{
1000
MANEDIT
1070
     0
1002
}
1002
{
1000
NOSEL
1070
     0
1002
}
1002
{
1000
BEHIND
1070
     0
1002
}
1002
{
1000
REACTOR
1002
}
1001
GENIUS_GENOBJ-N-CEN_13
1002
{
1000
OWNER
1000
GEN
1002
}
  0
LINE
  5
1B0B
330
1F
100
AcDbEntity
  8
AM_11
100
AcDbLine
 10
0.0
 20
3.000000000000374
 30
0.0
 11
0.0
 21
-3.000000000000374
 31
0.0
  0
DIMENSION
  5
1BBC
330
1F
100
AcDbEntity
  8
AM_5
100
AcDbDimension
  2
*D5
 10
11.53057127861245
 20
-3.000000000000372
 30
0.0
 11
11.53057127861245
 21
-0.0000000000053189
 31
0.0
 70
   160
  1
%%c<>
  3
AM_JIS
100
AcDbAlignedDimension
 13
-0.7580687400020452
 23
2.999999999999829
 33
0.0
 14
-0.2000000000014046
 24
-3.000000000000368
 34
0.0
 50
90.00000000004128
100
AcDbRotatedDimension
1001
GENIUS_GENDTOL_13
1000

1000
h7
1000

1040
0.0
  0
DIMENSION
  5
1C74
330
1F
100
AcDbEntity
  8
AM_5
100
AcDbDimension
  2
*D6
 10
-0.0000000000000004
 20
-10.00000101000052
 30
0.0
 11
-6.499999999999999
 21
-8.450001010000525
 31
0.0
 70
    32
  1
<>
  3
AM_JIS
100
AcDbAlignedDimension
 13
-12.99999999999999
 23
-3.000000000000003
 33
0.0
 14
0.0
 24
-2.800000000000368
 34
0.0
 50
359.9999999999983
100
AcDbRotatedDimension
1001
GENIUS_GENDTOL_13
1000

1000
h7
1000

1040
0.0
  0
DIMENSION
  5
1CFC
330
1F
100
AcDbEntity
  8
AM_5
100
AcDbDimension
  2
*D7
 10
-59.99999999999999
 20
-16.00000101000022
 30
0.0
 11
-29.99999999999999
 21
-14.45000101000022
 31
0.0
 70
    32
  1
<>
  3
AM_JIS
100
AcDbAlignedDimension
 13
0.0
 23
-2.800000000000368
 33
0.0
 14
-59.99999999999999
 24
-2.700000000000023
 34
0.0
 50
0.0000000000001132
100
AcDbRotatedDimension
1001
GENIUS_GENDTOL_13
1000

1000
h7
1000

1040
0.0
  0
LINE
  5
1E13
330
1F
100
AcDbEntity
  8
AM_11
100
AcDbLine
 10
-0.3014442158707247
 20
-3.000000000000102
 30
0.0
 11
-0.3000000000007867
 21
-3.000000000000105
 31
0.0
  0
LINE
  5
1E14
330
1F
100
AcDbEntity
  8
AM_0
100
AcDbLine
 10
-0.3000000000007867
 20
-3.000000000000106
 30
0.0
 11
-0.3014442158707247
 21
-3.000000000000102
 31
0.0
  0
ARC
  5
1E17
330
1F
100
AcDbEntity
  8
AM_0
100
AcDbCircle
 10
-0.3
 20
-2.700000000000106
 30
0.0
 40
0.3
100
AcDbArc
 50
269.9999999998497
 51
0.0
1001
GENIUS_GENODEF_13
1002
{
1000
HIER
1070
     0
1002
}
1002
{
1000
MANEDIT
1070
     0
1002
}
1002
{
1000
NOSEL
1070
     0
1002
}
1002
{
1000
BEHIND
1070
     0
1002
}
1002
{
1000
REACTOR
1002
}
1001
GENIUS_GENOBJ-N-FIL_13
1002
{
1000
OWNER
1000
GEN
1002
}
  0
ARC
  5
1E1B
330
1F
100
AcDbEntity
  8
AM_0
100
AcDbCircle
 10
-0.3
 20
2.700000000000158
 30
0.0
 40
0.3
100
AcDbArc
 50
0.0
 51
90.00000000004126
1001
GENIUS_GENODEF_13
1002
{
1000
HIER
1070
     0
1002
}
1002
{
1000
MANEDIT
1070
     0
1002
}
1002
{
1000
NOSEL
1070
     0
1002
}
1002
{
1000
BEHIND
1070
     0
1002
}
1002
{
1000
REACTOR
1002
}
1001
GENIUS_GENOBJ-N-FIL_13
1002
{
1000
OWNER
1000
GEN
1002
}
  0
DIMENSION
  5
1E25
330
1F
100
AcDbEntity
  8
AM_5
100
AcDbDimension
  2
*D8
 10
-0.2999999999999996
 20
-2.700000000000106
 30
0.0
 11
5.358676197669143
 21
-5.287828306758785
 31
0.0
 70
    36
  1
<>
  3
AM_JIS$4
100
AcDbRadialDimension
 15
-0.0668562115629079
 25
-2.888796117315056
 35
0.0
 40
0.0
1001
GENIUS_GENDTOL_13
1000

1000
h7
1000

1040
0.0
1001
ACAD
1000
DSTYLE
1002
{
1070
   287
1070
     3
1070
   271
1070
     3
1070
   288
1070
     1
1070
   289
1070
     3
1070
   172
1070
     1
1070
    74
1070
     0
1002
}
  0
DIMENSION
  5
2018
330
1F
100
AcDbEntity
  8
AM_5
100
AcDbDimension
  2
*D9
 10
-66.5
 20
2.999999999999987
 30
0.0
 11
-68.04999999999999
 21
-0.0000000000000277
 31
0.0
 70
    32
  1
%%c<>
  3
AM_JIS
100
AcDbAlignedDimension
 13
-59.49999999999999
 23
-3.000000000000023
 33
0.0
 14
-59.49999999999999
 24
2.999999999999985
 34
0.0
 50
270.0000000000001
100
AcDbRotatedDimension
1001
GENIUS_GENDTOL_13
1000

1000
h7
1000

1040
0.0
  0
VIEWPORT
  5
110
330
101
100
AcDbEntity
 67
     1
  8
0
100
AcDbViewport
 10
420.5
 20
297.0
 30
0.0
 40
948.9782706766916
 41
628.452
 68
     1
 69
     1
1001
ACAD
1000
MVIEW
1002
{
1070
    16
1010
0.0
1020
0.0
1030
0.0
1010
0.0
1020
0.0
1030
1.0
1040
0.0
1040
628.452
1040
420.5
1040
297.0
1040
50.0
1040
0.0
1040
0.0
1070
     0
1070
   100
1070
     1
1070
     1
1070
     0
1070
     0
1070
     0
1070
     0
1040
0.0
1040
0.0
1040
0.0
1040
10.0
1040
10.0
1040
10.0
1040
10.0
1070
     0
1002
{
1002
}
1002
}
  0
ENDSEC
  0
SECTION
  2
OBJECTS
  0
DICTIONARY
  5
C
330
0
100
AcDbDictionary
  3
ACAD_GROUP
350
D
  3
ACAD_LAYOUT
350
1A
  3
ACAD_MLINESTYLE
350
17
  3
ACAD_PLOTSETTINGS
350
19
  3
ACAD_PLOTSTYLENAME
350
E
  3
ACDBVARIABLEDICTIONARY
350
34
  3
ACMDICTIONARY
350
43
  3
AMG
350
2B
  3
AMGSNAPSETTINGS
350
6E
  3
DWGPROPS
350
20AD
  3
ACDBHEADERROUNDTRIPXREC
350
20B9
  0
DICTIONARY
  5
74
330
1F
100
AcDbDictionary
280
     1
  3
ACAD_SORTENTS
360
1B90
  3
ACAD_INDEX
360
20AF
  3
ACAD_LAYOUTSELFREF
360
20DC
  0
DICTIONARY
  5
20E1
330
101
100
AcDbDictionary
280
     1
  3
ACAD_LAYOUTSELFREF
360
20E2
  0
DICTIONARY
  5
D
102
{ACAD_REACTORS
330
C
102
}
330
C
100
AcDbDictionary
  0
DICTIONARY
  5
1A
102
{ACAD_REACTORS
330
C
102
}
330
C
100
AcDbDictionary
  0
DICTIONARY
  5
17
102
{ACAD_REACTORS
330
C
102
}
330
C
100
AcDbDictionary
  3
STANDARD
350
18
  0
DICTIONARY
  5
19
102
{ACAD_REACTORS
330
C
102
}
330
C
100
AcDbDictionary
  0
ACDBDICTIONARYWDFLT
  5
E
102
{ACAD_REACTORS
330
C
102
}
330
C
100
AcDbDictionary
281
     1
  3
Normal
350
F
100
AcDbDictionaryWithDefault
340
F
  0
DICTIONARY
  5
34
102
{ACAD_REACTORS
330
C
102
}
330
C
100
AcDbDictionary
  3
INDEXCTL
350
35
  3
SORTENTS
350
B5E
  0
DICTIONARY
  5
43
102
{ACAD_REACTORS
330
C
102
}
330
C
100
AcDbDictionary
  3
ACMSTDDICTIONARY
350
260
  0
DICTIONARY
  5
2B
102
{ACAD_REACTORS
330
C
102
}
330
C
100
AcDbDictionary
  3
ACMGSETTINGS
350
2C
  0
DICTIONARY
  5
6E
102
{ACAD_REACTORS
330
C
102
}
330
C
100
AcDbDictionary
  0
XRECORD
  5
20AD
102
{ACAD_REACTORS
330
C
102
}
330
C
100
AcDbXrecord
  1
DWGPROPS COOKIE
  2

  3

  4

  6

  7

  8

  9

300
AmdtFileType=82
301
=
302
=
303
=
304
=
305
=
306
=
307
=
308
=
309
=
 40
0.1076676736111111
 41
2452809.403188831
 42
2452844.452444479
  1

 90
        1
  0
DICTIONARY
  5
20B9
102
{ACAD_REACTORS
330
C
102
}
330
C
100
AcDbDictionary
  3
TSTACKALIGN
350
20BA
  3
TSTACKSIZE
350
20BB
  3
HYPERLINKBASE
350
20BC
  3
STYLESHEET
350
20BD
  3
LAYOUTDICT
350
20BE
  3
PLOTSETDICT
350
20BF
  3
PLOTSTYLNAMDICT
350
20C0
  3
LWETCUNION
350
20C1
  3
INSUNITS
350
20C2
  3
CEPSNTYPE
350
20C3
  3
FINGERPRINTGUID
350
20C4
  3
VERSIONGUID
350
20C5
  3
PSVPSCALE
350
20C6
  3
DIMSTYLEDATA
350
20C7
  3
PUCSORTHOREF
350
20C8
  3
PUCSORTHOVIEW
350
20C9
  3
PUCSBASE
350
20CA
  3
PUCSORGTOP
350
20CB
  3
PUCSORGBOTTOM
350
20CC
  3
PUCSORGLEFT
350
20CD
  3
PUCSORGRIGHT
350
20CE
  3
PUCSORGFRONT
350
20CF
  3
PUCSORGBACK
350
20D0
  3
UCSORTHOREF
350
20D1
  3
UCSORTHOVIEW
350
20D2
  3
UCSBASE
350
20D3
  3
UCSORGTOP
350
20D4
  3
UCSORGBOTTOM
350
20D5
  3
UCSORGLEFT
350
20D6
  3
UCSORGRIGHT
350
20D7
  3
UCSORGFRONT
350
20D8
  3
UCSORGBACK
350
20D9
  0
SORTENTSTABLE
  5
1B90
102
{ACAD_REACTORS
330
74
102
}
330
74
100
AcDbSortentsTable
330
1F
331
1A79
  5
1A77
331
1A46
  5
1A38
331
1A77
  5
1A75
331
1A75
  5
1A73
331
1A6F
  5
1A6D
331
1A73
  5
1A71
331
1A71
  5
1A6F
331
1A6D
  5
1A6B
331
1A36
  5
1A35
331
1ABA
  5
1AB8
331
1A6B
  5
1A69
331
1A34
  5
1A33
331
1ACC
  5
1ABB
331
1AB8
  5
1A82
331
1A69
  5
1A67
331
1A32
  5
1A31
331
1A67
  5
1A49
331
1A30
  5
1A2F
331
1A2E
  5
1A2D
331
1A82
  5
1A80
331
1A2C
  5
1ACD
331
1A80
  5
1A7E
331
1A7E
  5
1A7C
331
1A49
  5
1A47
331
1A7C
  5
1A7A
331
1A7A
  5
1A78
331
1A47
  5
1A45
331
1A78
  5
1A76
331
1A45
  5
1A37
331
1A76
  5
1A74
331
1B0B
  5
1ACC
331
1A74
  5
1A72
331
1A72
  5
1A70
331
1A6E
  5
1A6C
331
1A37
  5
1B91
331
1A6C
  5
1A6A
331
1A70
  5
1A6E
331
1ABB
  5
1AB9
331
1ACD
  5
1ACB
331
1A6A
  5
1A68
331
1A33
  5
1A32
331
1AB9
  5
1A83
331
F17
  5
F17
331
1ACB
  5
1ABA
331
1A68
  5
1A58
331
1A31
  5
1A30
331
1A2F
  5
1A2E
331
1A2D
  5
1A2C
331
1A83
  5
1A81
331
1A81
  5
1A7F
331
1A7F
  5
1A7D
331
1A7D
  5
1A7B
331
1A48
  5
1A46
331
1A7B
  5
1A79
  0
DICTIONARY
  5
20AF
102
{ACAD_REACTORS
330
74
102
}
330
74
100
AcDbDictionary
  3
*A1
350
20B0
  0
XRECORD
  5
20DC
102
{ACAD_REACTORS
330
74
102
}
330
74
100
AcDbXrecord
340
1F
  0
XRECORD
  5
20E2
102
{ACAD_REACTORS
330
20E1
102
}
330
20E1
100
AcDbXrecord
340
101
  0
MLINESTYLE
  5
18
102
{ACAD_REACTORS
330
17
102
}
330
17
100
AcDbMlineStyle
  2
STANDARD
 70
     0
  3

 62
   256
 51
90.0
 52
90.0
 71
     2
 49
0.5
 62
   256
  6
BYLAYER
 49
-0.5
 62
   256
  6
BYLAYER
  0
ACDBPLACEHOLDER
  5
F
102
{ACAD_REACTORS
330
E
102
}
330
E
100
AcDbPlaceHolder
280
     0
  0
DICTIONARYVAR
  5
35
102
{ACAD_REACTORS
330
34
102
}
330
34
100
DictionaryVariables
280
     0
  1
1
  0
DICTIONARYVAR
  5
B5E
102
{ACAD_REACTORS
330
34
102
}
330
34
100
DictionaryVariables
280
     0
  1
127
  0
DICTIONARY
  5
260
102
{ACAD_REACTORS
330
43
102
}
330
43
100
AcDbDictionary
  0
DICTIONARY
  5
2C
102
{ACAD_REACTORS
330
2B
102
}
330
2B
100
AcDbDictionary
  3
DWGSETTINGS
350
2D
  0
XRECORD
  5
20BA
102
{ACAD_REACTORS
330
20B9
102
}
330
20B9
100
AcDbXrecord
 90
        1
  0
XRECORD
  5
20BB
102
{ACAD_REACTORS
330
20B9
102
}
330
20B9
100
AcDbXrecord
 90
       70
  0
XRECORD
  5
20BC
102
{ACAD_REACTORS
330
20B9
102
}
330
20B9
100
AcDbXrecord
  1

  0
XRECORD
  5
20BD
102
{ACAD_REACTORS
330
20B9
102
}
330
20B9
100
AcDbXrecord
  1
ASAMI.ctb
  0
XRECORD
  5
20BE
102
{ACAD_REACTORS
330
20B9
102
}
330
20B9
100
AcDbXrecord
340
1A
  0
XRECORD
  5
20BF
102
{ACAD_REACTORS
330
20B9
102
}
330
20B9
100
AcDbXrecord
340
19
  0
XRECORD
  5
20C0
102
{ACAD_REACTORS
330
20B9
102
}
330
20B9
100
AcDbXrecord
340
E
  0
XRECORD
  5
20C1
102
{ACAD_REACTORS
330
20B9
102
}
330
20B9
100
AcDbXrecord
 90
    10781
  0
XRECORD
  5
20C2
102
{ACAD_REACTORS
330
20B9
102
}
330
20B9
100
AcDbXrecord
 90
        4
  0
XRECORD
  5
20C3
102
{ACAD_REACTORS
330
20B9
102
}
330
20B9
100
AcDbXrecord
 90
        0
  0
XRECORD
  5
20C4
102
{ACAD_REACTORS
330
20B9
102
}
330
20B9
100
AcDbXrecord
  1
{AFB28963-8C59-40AE-9337-C84526B81ACE}
  0
XRECORD
  5
20C5
102
{ACAD_REACTORS
330
20B9
102
}
330
20B9
100
AcDbXrecord
  1
{0F4394B8-ABC5-4C3E-A355-F5C2FBFBE7B6}
  0
XRECORD
  5
20C6
102
{ACAD_REACTORS
330
20B9
102
}
330
20B9
100
AcDbXrecord
 40
0.0
  0
XRECORD
  5
20C7
102
{ACAD_REACTORS
330
20B9
102
}
330
20B9
100
AcDbXrecord
1000
DSTYLE
1002
{
1070
    79
 70
     2
1070
   341
340
59
1070
   342
340
59
1070
   371
 70
    -1
1070
   372
 70
    -1
1002
}
  0
XRECORD
  5
20C8
102
{ACAD_REACTORS
330
20B9
102
}
330
20B9
100
AcDbXrecord
340
0
  0
XRECORD
  5
20C9
102
{ACAD_REACTORS
330
20B9
102
}
330
20B9
100
AcDbXrecord
 70
     0
  0
XRECORD
  5
20CA
102
{ACAD_REACTORS
330
20B9
102
}
330
20B9
100
AcDbXrecord
340
0
  0
XRECORD
  5
20CB
102
{ACAD_REACTORS
330
20B9
102
}
330
20B9
100
AcDbXrecord
 10
0.0
 20
0.0
 30
0.0
  0
XRECORD
  5
20CC
102
{ACAD_REACTORS
330
20B9
102
}
330
20B9
100
AcDbXrecord
 10
0.0
 20
0.0
 30
0.0
  0
XRECORD
  5
20CD
102
{ACAD_REACTORS
330
20B9
102
}
330
20B9
100
AcDbXrecord
 10
0.0
 20
0.0
 30
0.0
  0
XRECORD
  5
20CE
102
{ACAD_REACTORS
330
20B9
102
}
330
20B9
100
AcDbXrecord
 10
0.0
 20
0.0
 30
0.0
  0
XRECORD
  5
20CF
102
{ACAD_REACTORS
330
20B9
102
}
330
20B9
100
AcDbXrecord
 10
0.0
 20
0.0
 30
0.0
  0
XRECORD
  5
20D0
102
{ACAD_REACTORS
330
20B9
102
}
330
20B9
100
AcDbXrecord
 10
0.0
 20
0.0
 30
0.0
  0
XRECORD
  5
20D1
102
{ACAD_REACTORS
330
20B9
102
}
330
20B9
100
AcDbXrecord
340
0
  0
XRECORD
  5
20D2
102
{ACAD_REACTORS
330
20B9
102
}
330
20B9
100
AcDbXrecord
 70
     0
  0
XRECORD
  5
20D3
102
{ACAD_REACTORS
330
20B9
102
}
330
20B9
100
AcDbXrecord
340
0
  0
XRECORD
  5
20D4
102
{ACAD_REACTORS
330
20B9
102
}
330
20B9
100
AcDbXrecord
 10
0.0
 20
0.0
 30
0.0
  0
XRECORD
  5
20D5
102
{ACAD_REACTORS
330
20B9
102
}
330
20B9
100
AcDbXrecord
 10
0.0
 20
0.0
 30
0.0
  0
XRECORD
  5
20D6
102
{ACAD_REACTORS
330
20B9
102
}
330
20B9
100
AcDbXrecord
 10
0.0
 20
0.0
 30
0.0
  0
XRECORD
  5
20D7
102
{ACAD_REACTORS
330
20B9
102
}
330
20B9
100
AcDbXrecord
 10
0.0
 20
0.0
 30
0.0
  0
XRECORD
  5
20D8
102
{ACAD_REACTORS
330
20B9
102
}
330
20B9
100
AcDbXrecord
 10
0.0
 20
0.0
 30
0.0
  0
XRECORD
  5
20D9
102
{ACAD_REACTORS
330
20B9
102
}
330
20B9
100
AcDbXrecord
 10
0.0
 20
0.0
 30
0.0
  0
LAYER_INDEX
  5
20B0
102
{ACAD_REACTORS
330
20AF
102
}
330
20AF
100
AcDbIndex
 40
2452844.461520359
100
AcDbLayerIndex
  8
0
360
20B1
 90
        0
  8
AM_0
360
20B2
 90
       51
  8
AM_11
360
20B3
 90
        5
  8
AM_7
360
20B4
 90
        1
  8
AM_5
360
20B5
 90
        5
  8
Defpoints
360
20B6
 90
        0
  8
AM_6
360
20B7
 90
        1
  0
XRECORD
  5
2D
102
{ACAD_REACTORS
330
2C
102
}
330
2C
100
AcDbXrecord
  1
VERSION
140
15.0
  1
PRODUCT
  2
AutoCAD Mechanical 2000
  0
IDBUFFER
  5
20B1
330
0
100
AcDbIdBuffer
  0
IDBUFFER
  5
20B2
330
0
100
AcDbIdBuffer
330
1E14
330
1E17
330
1E1B
330
1A2C
330
1A2D
330
1A2E
330
1A2F
330
1A30
330
1A31
330
1A33
330
1A34
330
1A36
330
1A45
330
1A46
330
1A47
330
1A49
330
1A67
330
1A68
330
1A69
330
1A6A
330
1A6B
330
1A6C
330
1A6D
330
1A6E
330
1A6F
330
1A70
330
1A71
330
1A72
330
1A73
330
1A74
330
1A75
330
1A76
330
1A77
330
1A78
330
1A79
330
1A7A
330
1A7B
330
1A7C
330
1A7D
330
1A7E
330
1A7F
330
1A80
330
1A81
330
1A82
330
1A83
330
1AB8
330
1AB9
330
1ABA
330
1ABB
330
1ACB
330
1ACC
  0
IDBUFFER
  5
20B3
330
0
100
AcDbIdBuffer
330
1A32
330
1A37
330
1A48
330
1B0B
330
1E13
  0
IDBUFFER
  5
20B4
330
0
100
AcDbIdBuffer
330
1ACD
  0
IDBUFFER
  5
20B5
330
0
100
AcDbIdBuffer
330
1BBC
330
1C74
330
1CFC
330
1E25
330
2018
  0
IDBUFFER
  5
20B6
330
0
100
AcDbIdBuffer
  0
IDBUFFER
  5
20B7
330
0
100
AcDbIdBuffer
330
F17
  0
ENDSEC
  0
EOF
