  0
SECTION
  2
HEADER
  9
$ACADVER
  1
AC1014
  9
$ACADMAINTVER
 70
     9
  9
$DWGCODEPAGE
  3
ANSI_932
  9
$INSBASE
 10
0.0
 20
0.0
 30
0.0
  9
$EXTMIN
 10
-98.700001
 20
-53.50000000000073
 30
-0.00000001
  9
$EXTMAX
 10
16.35938886606846
 20
4.821775105482005
 30
0.00000001
  9
$LIMMIN
 10
-116.2483748593151
 20
-64.29396736622954
  9
$LIMMAX
 10
32.33999600662133
 20
13.73112001564186
  9
$ORTHOMODE
 70
     0
  9
$REGENMODE
 70
     1
  9
$FILLMODE
 70
     1
  9
$QTEXTMODE
 70
     0
  9
$MIRRTEXT
 70
     0
  9
$DRAGMODE
 70
     2
  9
$LTSCALE
 40
1.0
  9
$OSMODE
 70
  2103
  9
$ATTMODE
 70
     1
  9
$TEXTSIZE
 40
2.5
  9
$TRACEWID
 40
1.0
  9
$TEXTSTYLE
  7
STANDARD
  9
$CLAYER
  8
AM_11
  9
$CELTYPE
  6
BYLAYER
  9
$CECOLOR
 62
   256
  9
$CELTSCALE
 40
1.0
  9
$DELOBJ
 70
     1
  9
$DISPSILH
 70
     0
  9
$DIMSCALE
 40
1.0
  9
$DIMASZ
 40
2.5
  9
$DIMEXO
 40
1.0
  9
$DIMDLI
 40
12.0
  9
$DIMRND
 40
0.0
  9
$DIMDLE
 40
0.0
  9
$DIMEXE
 40
1.0
  9
$DIMTP
 40
0.1
  9
$DIMTM
 40
0.1
  9
$DIMTXT
 40
3.2
  9
$DIMCEN
 40
0.0
  9
$DIMTSZ
 40
0.0
  9
$DIMTOL
 70
     0
  9
$DIMLIM
 70
     0
  9
$DIMTIH
 70
     0
  9
$DIMTOH
 70
     0
  9
$DIMSE1
 70
     0
  9
$DIMSE2
 70
     0
  9
$DIMTAD
 70
     3
  9
$DIMZIN
 70
     8
  9
$DIMBLK
  1
OPEN30
  9
$DIMASO
 70
     1
  9
$DIMSHO
 70
     1
  9
$DIMPOST
  1

  9
$DIMAPOST
  1
"
  9
$DIMALT
 70
     0
  9
$DIMALTD
 70
     2
  9
$DIMALTF
 40
0.0393701
  9
$DIMLFAC
 40
1.0
  9
$DIMTOFL
 70
     1
  9
$DIMTVP
 40
0.0
  9
$DIMTIX
 70
     0
  9
$DIMSOXD
 70
     0
  9
$DIMSAH
 70
     0
  9
$DIMBLK1
  1

  9
$DIMBLK2
  1

  9
$DIMSTYLE
  2
AM_JIS
  9
$DIMCLRD
 70
   256
  9
$DIMCLRE
 70
   256
  9
$DIMCLRT
 70
     2
  9
$DIMTFAC
 40
0.71
  9
$DIMGAP
 40
1.5
  9
$DIMJUST
 70
     0
  9
$DIMSD1
 70
     0
  9
$DIMSD2
 70
     0
  9
$DIMTOLJ
 70
     0
  9
$DIMTZIN
 70
     0
  9
$DIMALTZ
 70
     0
  9
$DIMALTTZ
 70
     0
  9
$DIMFIT
 70
     3
  9
$DIMUPT
 70
     0
  9
$DIMUNIT
 70
     2
  9
$DIMDEC
 70
     3
  9
$DIMTDEC
 70
     3
  9
$DIMALTU
 70
     2
  9
$DIMALTTD
 70
     2
  9
$DIMTXSTY
  7
ASAMI
  9
$DIMAUNIT
 70
     0
  9
$LUNITS
 70
     2
  9
$LUPREC
 70
     2
  9
$SKETCHINC
 40
1.0
  9
$FILLETRAD
 40
0.3
  9
$AUNITS
 70
     0
  9
$AUPREC
 70
     0
  9
$MENU
  1
.
  9
$ELEVATION
 40
0.0
  9
$PELEVATION
 40
0.0
  9
$THICKNESS
 40
0.0
  9
$LIMCHECK
 70
     0
  9
$BLIPMODE
 70
     0
  9
$CHAMFERA
 40
0.5
  9
$CHAMFERB
 40
0.5
  9
$CHAMFERC
 40
20.0
  9
$CHAMFERD
 40
0.0
  9
$SKPOLY
 70
     0
  9
$TDCREATE
 40
2452809.403188831
  9
$TDUPDATE
 40
2452844.461867037
  9
$TDINDWG
 40
0.0447422917
  9
$TDUSRTIMER
 40
0.0447422917
  9
$USRTIMER
 70
     1
  9
$ANGBASE
 50
0.0
  9
$ANGDIR
 70
     0
  9
$PDMODE
 70
     0
  9
$PDSIZE
 40
0.0
  9
$PLINEWID
 40
0.0
  9
$COORDS
 70
     2
  9
$SPLFRAME
 70
     0
  9
$SPLINETYPE
 70
     6
  9
$SPLINESEGS
 70
     8
  9
$ATTDIA
 70
     1
  9
$ATTREQ
 70
     1
  9
$HANDLING
 70
 12289
  9
$HANDSEED
  5
1BE1
  9
$SURFTAB1
 70
     6
  9
$SURFTAB2
 70
     6
  9
$SURFTYPE
 70
     6
  9
$SURFU
 70
     6
  9
$SURFV
 70
     6
  9
$UCSNAME
  2

  9
$UCSORG
 10
0.0
 20
0.0
 30
0.0
  9
$UCSXDIR
 10
1.0
 20
0.0
 30
0.0
  9
$UCSYDIR
 10
0.0
 20
1.0
 30
0.0
  9
$PUCSNAME
  2

  9
$PUCSORG
 10
0.0
 20
0.0
 30
0.0
  9
$PUCSXDIR
 10
1.0
 20
0.0
 30
0.0
  9
$PUCSYDIR
 10
0.0
 20
1.0
 30
0.0
  9
$USERI1
 70
     0
  9
$USERI2
 70
     0
  9
$USERI3
 70
     0
  9
$USERI4
 70
     0
  9
$USERI5
 70
     0
  9
$USERR1
 40
0.0
  9
$USERR2
 40
0.0
  9
$USERR3
 40
0.0
  9
$USERR4
 40
0.0
  9
$USERR5
 40
0.0
  9
$WORLDVIEW
 70
     1
  9
$SHADEDGE
 70
     3
  9
$SHADEDIF
 70
    70
  9
$TILEMODE
 70
     1
  9
$MAXACTVP
 70
    64
  9
$PINSBASE
 10
0.0
 20
0.0
 30
0.0
  9
$PLIMCHECK
 70
     0
  9
$PEXTMIN
 10
1.000000000000000E+20
 20
1.000000000000000E+20
 30
1.000000000000000E+20
  9
$PEXTMAX
 10
-1.000000000000000E+20
 20
-1.000000000000000E+20
 30
-1.000000000000000E+20
  9
$PLIMMIN
 10
0.0
 20
0.0
  9
$PLIMMAX
 10
841.0
 20
594.0
  9
$UNITMODE
 70
     0
  9
$VISRETAIN
 70
     1
  9
$PLINEGEN
 70
     0
  9
$PSLTSCALE
 70
     0
  9
$TREEDEPTH
 70
  3020
  9
$PICKSTYLE
 70
     0
  9
$CMLSTYLE
  2
STANDARD
  9
$CMLJUST
 70
     0
  9
$CMLSCALE
 40
20.0
  9
$PROXYGRAPHICS
 70
     1
  9
$MEASUREMENT
 70
     1
  0
ENDSEC
  0
SECTION
  2
CLASSES
  0
CLASS
  1
ACDBDICTIONARYWDFLT
  2
AcDbDictionaryWithDefault
  3
AutoCAD 2000
 90
        0
280
     0
281
     0
  0
CLASS
  1
ACDBPLACEHOLDER
  2
AcDbPlaceHolder
  3
AutoCAD 2000
 90
        0
280
     0
281
     0
  0
CLASS
  1
LAYOUT
  2
AcDbLayout
  3
AutoCAD 2000
 90
        0
280
     0
281
     0
  0
CLASS
  1
AMGSETTINGSOBJ
  2
AmgSettingsObj
  3
"AcadM|Product Description: AutoCAD Mechanical 2000|Company: Autodesk"
 90
        0
280
     0
281
     0
  0
CLASS
  1
ACME_DOCUMENT
  2
AcMeDbDoc
  3
AcMeServices
 90
        0
280
     0
281
     0
  0
CLASS
  1
ACMESCOPE
  2
AcMeScope
  3
AcMeServices
 90
        0
280
     0
281
     0
  0
CLASS
  1
ACMECOMMANDHISTORY
  2
AcMeCommandHistory
  3
AcMeServices
 90
        0
280
     0
281
     0
  0
CLASS
  1
DICTIONARYVAR
  2
AcDbDictionaryVar
  3
AutoCAD 2000
 90
        0
280
     0
281
     0
  0
CLASS
  1
ACIMSYSVARMAN
  2
AcImSysVarManager
  3
AcMeServices
 90
        0
280
     0
281
     0
  0
CLASS
  1
ACIMREALSYSVAR
  2
AcImRealSysVar
  3
AcMeServices
 90
        0
280
     0
281
     0
  0
CLASS
  1
ACIMINTSYSVAR
  2
AcImIntSysVar
  3
AcMeServices
 90
        0
280
     0
281
     0
  0
CLASS
  1
ACMEDRAWINGMAN
  2
AcMeDrawingMan
  3
AcMeServices
 90
        0
280
     0
281
     0
  0
CLASS
  1
ACMEVIEW
  2
AcMeView
  3
AcMeServices
 90
        0
280
     0
281
     0
  0
CLASS
  1
ACDBENTITYCACHE
  2
AcMeEntityCache
  3
AcMeServices
 90
        0
280
     0
281
     0
  0
CLASS
  1
GSMANAGER
  2
AcMeGSManager
  3
AcMeServices
 90
        0
280
     0
281
     0
  0
CLASS
  1
AmdtInternalReactor
  2
AmdtInternalReactor
  3
AcMeServices
 90
        0
280
     0
281
     0
  0
CLASS
  1
ACMESTATEMGR
  2
AcMeStateMgr
  3
AcMeServices
 90
        0
280
     0
281
     0
  0
CLASS
  1
ACME_DATABASE
  2
AcMeDbDatabase
  3
AcMeServices
 90
        0
280
     0
281
     0
  0
CLASS
  1
ACRFINSADJUSTERMGR
  2
AcRfInsAdjusterMgr
  3
AcMeServices
 90
        0
280
     0
281
     0
  0
CLASS
  1
ACMDATADICTIONARY
  2
AcmDataDictionary
  3
"AcmSymBB|Product Description: AutoCAD Mechanical 2000|Company: Autodesk"
 90
        0
280
     0
281
     0
  0
CLASS
  1
ACMDATAENTRYBLOCK
  2
AcmDataEntryBlock
  3
"AcmSymBB|Product Description: AutoCAD Mechanical 2000|Company: Autodesk"
 90
        0
280
     0
281
     0
  0
CLASS
  1
AMGOBJPROPCFG
  2
AmgObjPropCfg
  3
"AmgLay|Product Description: AutoCAD Mechanical 2000|Company: Autodesk"
 90
        1
280
     0
281
     0
  0
CLASS
  1
ACAMGFILTERDAT
  2
AcAmgFilterDat
  3
"AcadM|Product Description: AutoCAD Mechanical 2000|Company: Autodesk"
 90
        0
280
     0
281
     0
  0
CLASS
  1
LAYER_INDEX
  2
AcDbLayerIndex
  3
AutoCAD 2000
 90
        0
280
     0
281
     0
  0
CLASS
  1
IDBUFFER
  2
AcDbIdBuffer
  3
AutoCAD 2000
 90
        0
280
     0
281
     0
  0
CLASS
  1
ACIMSTRSYSVAR
  2
AcImStrSysVar
  3
AcMeServices
 90
        0
280
     0
281
     0
  0
CLASS
  1
ACMSTANDARDJIS
  2
AcmStandardJIS
  3
"AcmSymBB|Product Description: AutoCAD Mechanical 2000|Company: Autodesk"
 90
        0
280
     0
281
     0
  0
CLASS
  1
ACMSURFSTANDARDJIS
  2
AcmSurfTextStdJIS
  3
"AcmSymBB|Product Description: AutoCAD Mechanical 2000|Company: Autodesk"
 90
        0
280
     0
281
     0
  0
CLASS
  1
ACMFCFSTANDARDJIS
  2
AcmFCFStdJIS
  3
"AcmSymBB|Product Description: AutoCAD Mechanical 2000|Company: Autodesk"
 90
        0
280
     0
281
     0
  0
CLASS
  1
ACMWELDSTANDARDJIS
  2
AcmWeldingStdJIS
  3
"AcmSymBB|Product Description: AutoCAD Mechanical 2000|Company: Autodesk"
 90
        0
280
     0
281
     0
  0
CLASS
  1
ACMIDSTANDARDJIS
  2
AcmIdStdJIS
  3
"AcmSymBB|Product Description: AutoCAD Mechanical 2000|Company: Autodesk"
 90
        0
280
     0
281
     0
  0
CLASS
  1
ACMDATUMSTANDARDJIS
  2
AcmDatumStdJIS
  3
"AcmSymBB|Product Description: AutoCAD Mechanical 2000|Company: Autodesk"
 90
        0
280
     0
281
     0
  0
CLASS
  1
ACMBOMSTANDARDJIS
  2
AcmBOMStdJIS
  3
"AcmSymBB|Product Description: AutoCAD Mechanical 2000|Company: Autodesk"
 90
        0
280
     0
281
     0
  0
CLASS
  1
ACMSTANDARDANSI
  2
AcmStandardANSI
  3
"AcmSymBB|Product Description: AutoCAD Mechanical 2000|Company: Autodesk"
 90
        0
280
     0
281
     0
  0
CLASS
  1
ACMSURFSTANDARDANSI
  2
AcmSurfTextStdANSI
  3
"AcmSymBB|Product Description: AutoCAD Mechanical 2000|Company: Autodesk"
 90
        0
280
     0
281
     0
  0
CLASS
  1
ACMFCFSTANDARDANSI
  2
AcmFCFStdANSI
  3
"AcmSymBB|Product Description: AutoCAD Mechanical 2000|Company: Autodesk"
 90
        0
280
     0
281
     0
  0
CLASS
  1
ACMWELDSTANDARDANSI
  2
AcmWeldingStdANSI
  3
"AcmSymBB|Product Description: AutoCAD Mechanical 2000|Company: Autodesk"
 90
        0
280
     0
281
     0
  0
CLASS
  1
ACMIDSTANDARDANSI
  2
AcmIdStdANSI
  3
"AcmSymBB|Product Description: AutoCAD Mechanical 2000|Company: Autodesk"
 90
        0
280
     0
281
     0
  0
CLASS
  1
ACMDATUMSTANDARDANSI
  2
AcmDatumStdANSI
  3
"AcmSymBB|Product Description: AutoCAD Mechanical 2000|Company: Autodesk"
 90
        0
280
     0
281
     0
  0
CLASS
  1
ACMBOMSTANDARDANSI
  2
AcmBOMStdANSI
  3
"AcmSymBB|Product Description: AutoCAD Mechanical 2000|Company: Autodesk"
 90
        0
280
     0
281
     0
  0
CLASS
  1
ACMSTANDARDBSI
  2
AcmStandardBSI
  3
"AcmSymBB|Product Description: AutoCAD Mechanical 2000|Company: Autodesk"
 90
        0
280
     0
281
     0
  0
CLASS
  1
ACMSURFSTANDARDBSI
  2
AcmSurfTextStdBSI
  3
"AcmSymBB|Product Description: AutoCAD Mechanical 2000|Company: Autodesk"
 90
        0
280
     0
281
     0
  0
CLASS
  1
ACMFCFSTANDARDBSI
  2
AcmFCFStdBSI
  3
"AcmSymBB|Product Description: AutoCAD Mechanical 2000|Company: Autodesk"
 90
        0
280
     0
281
     0
  0
CLASS
  1
ACMWELDSTANDARDBSI
  2
AcmWeldingStdBSI
  3
"AcmSymBB|Product Description: AutoCAD Mechanical 2000|Company: Autodesk"
 90
        0
280
     0
281
     0
  0
CLASS
  1
ACMIDSTANDARDBSI
  2
AcmIdStdBSI
  3
"AcmSymBB|Product Description: AutoCAD Mechanical 2000|Company: Autodesk"
 90
        0
280
     0
281
     0
  0
CLASS
  1
ACMDATUMSTANDARDBSI
  2
AcmDatumStdBSI
  3
"AcmSymBB|Product Description: AutoCAD Mechanical 2000|Company: Autodesk"
 90
        0
280
     0
281
     0
  0
CLASS
  1
ACMBOMSTANDARDBSI
  2
AcmBOMStdBSI
  3
"AcmSymBB|Product Description: AutoCAD Mechanical 2000|Company: Autodesk"
 90
        0
280
     0
281
     0
  0
CLASS
  1
SORTENTSTABLE
  2
AcDbSortentsTable
  3
AutoCAD 2000
 90
        0
280
     0
281
     0
  0
CLASS
  1
LONG_TRANSACTION
  2
AcDbLongTransaction
  3
AutoCAD 2000
 90
        0
280
     0
281
     0
  0
CLASS
  1
LWPOLYLINE
  2
AcDbPolyline
  3
AutoCAD 2000
 90
        0
280
     0
281
     1
  0
CLASS
  1
HATCH
  2
AcDbHatch
  3
AutoCAD 2000
 90
        0
280
     0
281
     1
  0
CLASS
  1
XRECORD
  2
AcDbXrecord
  3
AutoCAD 2000
 90
        0
280
     0
281
     0
  0
ENDSEC
  0
SECTION
  2
TABLES
  0
TABLE
  2
VPORT
  5
8
330
0
100
AcDbSymbolTable
 70
     3
  0
VPORT
  5
1BB0
330
8
100
AcDbSymbolTableRecord
100
AcDbViewportTableRecord
  2
*ACTIVE
 70
     0
 10
0.0
 20
0.0
 11
1.0
 21
1.0
 12
-41.16978251776493
 22
-24.34094194277641
 13
0.0
 23
0.0
 14
2.5
 24
2.5
 15
10.0
 25
10.0
 16
0.0
 26
0.0
 36
1.0
 17
0.0
 27
0.0
 37
0.0
 40
73.7774842132808
 41
1.56570841889117
 42
50.0
 43
0.0
 44
0.0
 50
0.0
 51
0.0
 71
     0
 72
   100
 73
     1
 74
     3
 75
     0
 76
     0
 77
     0
 78
     0
  0
ENDTAB
  0
TABLE
  2
LTYPE
  5
5
330
0
100
AcDbSymbolTable
 70
    10
  0
LTYPE
  5
14
330
5
100
AcDbSymbolTableRecord
100
AcDbLinetypeTableRecord
  2
BYBLOCK
 70
     0
  3

 72
    65
 73
     0
 40
0.0
  0
LTYPE
  5
15
330
5
100
AcDbSymbolTableRecord
100
AcDbLinetypeTableRecord
  2
BYLAYER
 70
     0
  3

 72
    65
 73
     0
 40
0.0
  0
LTYPE
  5
16
330
5
100
AcDbSymbolTableRecord
100
AcDbLinetypeTableRecord
  2
CONTINUOUS
 70
     0
  3
Solid line
 72
    65
 73
     0
 40
0.0
  0
LTYPE
  5
4B
330
5
100
AcDbSymbolTableRecord
100
AcDbLinetypeTableRecord
  2
AM_ISO02W050
 70
     0
  3
__ __ __ __ __ __ __ __ __ __ __ __ __ __ __
 72
    65
 73
     2
 40
7.5
 49
6.0
 74
     0
 49
-1.5
 74
     0
  0
LTYPE
  5
4C
330
5
100
AcDbSymbolTableRecord
100
AcDbLinetypeTableRecord
  2
AM_ISO08W050
 70
     0
  3
____ . ____ . ____ . ____ . ____ . ____ . ____
 72
    65
 73
     4
 40
18.0
 49
12.0
 74
     0
 49
-1.5
 74
     0
 49
3.0
 74
     0
 49
-1.5
 74
     0
  0
LTYPE
  5
4D
330
5
100
AcDbSymbolTableRecord
100
AcDbLinetypeTableRecord
  2
AM_ISO09W050
 70
     0
  3
_____ . . _____ . . _____ . . ____ .. ____
 72
    65
 73
     6
 40
22.5
 49
12.0
 74
     0
 49
-1.5
 74
     0
 49
3.0
 74
     0
 49
-1.5
 74
     0
 49
3.0
 74
     0
 49
-1.5
 74
     0
  0
LTYPE
  5
4E
330
5
100
AcDbSymbolTableRecord
100
AcDbLinetypeTableRecord
  2
AMCONSTR
 70
     0
  3
_______________________
 72
    65
 73
     2
 40
9999.0
 49
9999.0
 74
     0
 49
0.0
 74
     0
  0
LTYPE
  5
4F
330
5
100
AcDbSymbolTableRecord
100
AcDbLinetypeTableRecord
  2
AM_ISO02W050X2
 70
     0
  3
 _ _ _ _ _ _ _ _ _ _ _ _
 72
    65
 73
     2
 40
3.75
 49
3.0
 74
     0
 49
-0.75
 74
     0
  0
LTYPE
  5
50
330
5
100
AcDbSymbolTableRecord
100
AcDbLinetypeTableRecord
  2
AM_ISO08W050X2
 70
     0
  3
__ . __ . __ . __ . __ . __
 72
    65
 73
     4
 40
9.0
 49
6.0
 74
     0
 49
-0.75
 74
     0
 49
1.5
 74
     0
 49
-0.75
 74
     0
  0
LTYPE
  5
53
330
5
100
AcDbSymbolTableRecord
100
AcDbLinetypeTableRecord
  2
AMZIGZAG
 70
     0
  3
/\/-/\/-/\/-/\/-/\/-/\/
 72
    65
 73
     2
 40
11.00009999999999
 49
0.0001
 74
     4
 75
   135
340
52
 46
0.04
 50
0.0
 44
0.0
 45
0.0
 49
-11.0
 74
     0
  0
LTYPE
  5
166
330
5
100
AcDbSymbolTableRecord
100
AcDbLinetypeTableRecord
  2
ACJISTGL
 70
     0
  3
_ _ _ _ _
 72
    65
 73
     2
 40
3.0
 49
2.0
 74
     0
 49
-1.0
 74
     0
  0
LTYPE
  5
26A
330
5
100
AcDbSymbolTableRecord
100
AcDbLinetypeTableRecord
  2
ACJISTGB
 70
     0
  3
__ . . __ . .
 72
    65
 73
     6
 40
9.0
 49
4.0
 74
     0
 49
-1.0
 74
     0
 49
1.0
 74
     0
 49
-1.0
 74
     0
 49
1.0
 74
     0
 49
-1.0
 74
     0
  0
ENDTAB
  0
TABLE
  2
LAYER
  5
2
330
0
100
AcDbSymbolTable
 70
     7
  0
LAYER
  5
10
330
2
100
AcDbSymbolTableRecord
100
AcDbLayerTableRecord
  2
0
 70
     0
 62
     7
  6
CONTINUOUS
  0
LAYER
  5
3F9
330
2
100
AcDbSymbolTableRecord
100
AcDbLayerTableRecord
  2
AM_0
 70
     0
 62
     7
  6
CONTINUOUS
  0
LAYER
  5
BA4
330
2
100
AcDbSymbolTableRecord
100
AcDbLayerTableRecord
  2
AM_11
 70
     0
 62
     3
  6
AM_ISO09W050
  0
LAYER
  5
BA5
330
2
100
AcDbSymbolTableRecord
100
AcDbLayerTableRecord
  2
AM_7
 70
     0
 62
     4
  6
AM_ISO08W050
  0
LAYER
  5
D38
330
2
100
AcDbSymbolTableRecord
100
AcDbLayerTableRecord
  2
AM_5
 70
     0
 62
     3
  6
CONTINUOUS
  0
LAYER
  5
D3A
330
2
100
AcDbSymbolTableRecord
100
AcDbLayerTableRecord
  2
DEFPOINTS
 70
     0
 62
     7
  6
CONTINUOUS
  0
LAYER
  5
F16
330
2
100
AcDbSymbolTableRecord
100
AcDbLayerTableRecord
  2
AM_6
 70
     0
 62
     2
  6
CONTINUOUS
  0
ENDTAB
  0
TABLE
  2
STYLE
  5
3
330
0
100
AcDbSymbolTable
 70
     5
  0
STYLE
  5
11
330
3
100
AcDbSymbolTableRecord
100
AcDbTextStyleTableRecord
  2
STANDARD
 70
     0
 40
0.0
 41
1.0
 50
0.0
 71
     0
 42
2.5
  3
simplex.shx
  4
EXTFONT.SHX
  0
STYLE
  5
52
330
3
100
AcDbSymbolTableRecord
100
AcDbTextStyleTableRecord
  2

 70
     1
 40
0.0
 41
1.0
 50
0.0
 71
     0
 42
2.5
  3
ltypeshp.shx
  4

  0
STYLE
  5
6B
330
3
100
AcDbSymbolTableRecord
100
AcDbTextStyleTableRecord
  2
ASAMI
 70
     0
 40
0.0
 41
1.0
 50
0.0
 71
     0
 42
2.5
  3
simplex.shx
  4
EXTFONT.SHX
  0
STYLE
  5
262
330
3
100
AcDbSymbolTableRecord
100
AcDbTextStyleTableRecord
  2
ACJISTS
 70
     0
 40
1.0
 41
1.0
 50
0.0
 71
     0
 42
2.5
  3
simplex.shx
  4
bigfont.shx
  0
STYLE
  5
269
330
3
100
AcDbSymbolTableRecord
100
AcDbTextStyleTableRecord
  2
ACJISGDT
 70
     0
 40
0.0
 41
1.0
 50
0.0
 71
     0
 42
2.5
  3
amgdtans.shx
  4

  0
ENDTAB
  0
TABLE
  2
VIEW
  5
6
330
0
100
AcDbSymbolTable
 70
     0
  0
ENDTAB
  0
TABLE
  2
UCS
  5
7
330
0
100
AcDbSymbolTable
 70
     0
  0
ENDTAB
  0
TABLE
  2
APPID
  5
9
330
0
100
AcDbSymbolTable
 70
    13
  0
APPID
  5
12
330
9
100
AcDbSymbolTableRecord
100
AcDbRegAppTableRecord
  2
ACAD
 70
     0
  0
APPID
  5
30
330
9
100
AcDbSymbolTableRecord
100
AcDbRegAppTableRecord
  2
MCAD_NO_VIS
 70
     0
  0
APPID
  5
31
330
9
100
AcDbSymbolTableRecord
100
AcDbRegAppTableRecord
  2
ACAD_TEMP_GRAPHIC
 70
     0
  0
APPID
  5
2C2
330
9
100
AcDbSymbolTableRecord
100
AcDbRegAppTableRecord
  2
GENIUS_GENDTOL_13
 70
     0
  0
APPID
  5
339
330
9
100
AcDbSymbolTableRecord
100
AcDbRegAppTableRecord
  2
GENIUS_GENODEF_13
 70
     0
  0
APPID
  5
33A
330
9
100
AcDbSymbolTableRecord
100
AcDbRegAppTableRecord
  2
GENIUS_GENOBJ-N-RSBK_13
 70
     0
  0
APPID
  5
33B
330
9
100
AcDbSymbolTableRecord
100
AcDbRegAppTableRecord
  2
GENIUS_GENOBJ-N-LIB_13
 70
     0
  0
APPID
  5
33C
330
9
100
AcDbSymbolTableRecord
100
AcDbRegAppTableRecord
  2
GENIUS_GENSCALE_13
 70
     0
  0
APPID
  5
378
330
9
100
AcDbSymbolTableRecord
100
AcDbRegAppTableRecord
  2
GENIUS_GENDIMSH_14
 70
     0
  0
APPID
  5
BA6
330
9
100
AcDbSymbolTableRecord
100
AcDbRegAppTableRecord
  2
GENIUS_GENOBJ-N-CEN_13
 70
     0
  0
APPID
  5
D2B
330
9
100
AcDbSymbolTableRecord
100
AcDbRegAppTableRecord
  2
GENIUS_GENFIL_13
 70
     0
  0
APPID
  5
D2C
330
9
100
AcDbSymbolTableRecord
100
AcDbRegAppTableRecord
  2
GENIUS_GENOBJ-N-CHA_13
 70
     0
  0
APPID
  5
19F9
330
9
100
AcDbSymbolTableRecord
100
AcDbRegAppTableRecord
  2
GENIUS_GENOBJ-N-FIL_13
 70
     0
  0
ENDTAB
  0
TABLE
  2
DIMSTYLE
  5
A
330
0
100
AcDbSymbolTable
 70
     8
  0
DIMSTYLE
105
58
102
{ACAD_REACTORS
330
D39
330
1798
330
1878
330
1AF8
102
}
330
A
100
AcDbSymbolTableRecord
100
AcDbDimStyleTableRecord
  2
AM_JIS
 70
     0
  3

  4
"
  5
OPEN30
  6

  7

 40
1.0
 41
2.5
 42
1.0
 43
12.0
 44
1.0
 45
0.0
 46
0.0
 47
0.1
 48
0.1
140
3.2
141
0.0
142
0.0
143
0.0393701
144
1.0
145
0.0
146
0.71
147
1.5
 71
     0
 72
     0
 73
     0
 74
     0
 75
     0
 76
     0
 77
     3
 78
     8
170
     0
171
     2
172
     1
173
     0
174
     0
175
     0
176
   256
177
   256
178
     2
270
     2
271
     3
272
     3
273
     2
274
     2
340
6B
275
     0
280
     0
281
     0
282
     0
283
     0
284
     0
285
     0
286
     0
287
     3
288
     0
  0
DIMSTYLE
105
5F
330
A
100
AcDbSymbolTableRecord
100
AcDbDimStyleTableRecord
  2
AM_JIS$3
 70
     0
  3

  4
"
  5
OPEN30
  6

  7

 40
1.0
 41
2.5
 42
1.0
 43
10.0
 44
1.0
 45
0.0
 46
0.0
 47
0.1
 48
0.1
140
3.2
141
0.0
142
0.0
143
0.0393701
144
1.0
145
0.0
146
0.71
147
1.5
 71
     0
 72
     0
 73
     0
 74
     1
 75
     0
 76
     0
 77
     3
 78
     8
170
     0
171
     2
172
     0
173
     0
174
     0
175
     0
176
   256
177
   256
178
     2
270
     2
271
     2
272
     3
273
     2
274
     2
340
6B
275
     0
280
     0
281
     0
282
     0
283
     0
284
     0
285
     0
286
     0
287
     0
288
     1
  0
DIMSTYLE
105
60
102
{ACAD_REACTORS
330
1A19
102
}
330
A
100
AcDbSymbolTableRecord
100
AcDbDimStyleTableRecord
  2
AM_JIS$4
 70
     0
  3

  4
"
  5
OPEN30
  6

  7

 40
1.0
 41
2.5
 42
1.0
 43
10.0
 44
1.0
 45
0.0
 46
0.0
 47
0.1
 48
0.1
140
3.2
141
0.0
142
0.0
143
0.0393701
144
1.0
145
0.0
146
0.71
147
1.5
 71
     0
 72
     0
 73
     0
 74
     1
 75
     0
 76
     0
 77
     3
 78
     8
170
     0
171
     2
172
     0
173
     0
174
     0
175
     0
176
   256
177
   256
178
     2
270
     2
271
     2
272
     3
273
     2
274
     2
340
6B
275
     0
280
     0
281
     0
282
     0
283
     0
284
     0
285
     0
286
     0
287
     0
288
     1
  0
DIMSTYLE
105
61
330
A
100
AcDbSymbolTableRecord
100
AcDbDimStyleTableRecord
  2
AM_JIS$6
 70
     0
  3

  4
"
  5
OPEN30
  6

  7

 40
1.0
 41
2.5
 42
1.0
 43
10.0
 44
1.0
 45
0.0
 46
0.0
 47
0.1
 48
0.1
140
3.2
141
0.0
142
0.0
143
0.0393701
144
1.0
145
0.0
146
0.71
147
1.5
 71
     0
 72
     0
 73
     0
 74
     0
 75
     0
 76
     0
 77
     0
 78
     8
170
     0
171
     2
172
     1
173
     0
174
     0
175
     0
176
   256
177
   256
178
     2
270
     2
271
     2
272
     2
273
     2
274
     2
340
6B
275
     0
280
     0
281
     0
282
     0
283
     0
284
     0
285
     0
286
     0
287
     3
288
     0
  0
DIMSTYLE
105
62
330
A
100
AcDbSymbolTableRecord
100
AcDbDimStyleTableRecord
  2
AM_JIS$7
 70
     0
  3

  4
"
  5
OPEN30
  6

  7

 40
1.0
 41
2.5
 42
1.0
 43
10.0
 44
1.0
 45
0.0
 46
0.0
 47
0.1
 48
0.1
140
3.2
141
0.0
142
0.0
143
0.0393701
144
1.0
145
0.0
146
0.71
147
1.5
 71
     0
 72
     0
 73
     0
 74
     0
 75
     0
 76
     0
 77
     3
 78
     8
170
     0
171
     2
172
     1
173
     0
174
     0
175
     0
176
   256
177
   256
178
     2
270
     2
271
     2
272
     3
273
     2
274
     2
340
6B
275
     0
280
     0
281
     0
282
     0
283
     0
284
     0
285
     0
286
     0
287
     3
288
     0
  0
DIMSTYLE
105
63
330
A
100
AcDbSymbolTableRecord
100
AcDbDimStyleTableRecord
  2
AM_JIS$SF
 70
     0
  3

  4
"
  5
OPEN30
  6

  7

 40
1.0
 41
2.5
 42
1.0
 43
10.0
 44
1.0
 45
0.0
 46
0.0
 47
0.1
 48
0.1
140
3.2
141
0.0
142
0.0
143
0.0393701
144
1.0
145
0.0
146
0.71
147
1.5
 71
     0
 72
     0
 73
     0
 74
     0
 75
     1
 76
     1
 77
     3
 78
     8
170
     0
171
     2
172
     1
173
     0
174
     0
175
     0
176
   256
177
   256
178
     2
270
     2
271
     2
272
     2
273
     2
274
     2
340
6B
275
     0
280
     0
281
     0
282
     0
283
     0
284
     0
285
     0
286
     0
287
     3
288
     0
  0
DIMSTYLE
105
68
330
A
100
AcDbSymbolTableRecord
100
AcDbDimStyleTableRecord
  2
AM_JIS$SH
 70
     0
  3

  4
"
  5

  6
GENAXEH
  7
OPEN30
 40
1.0
 41
2.5
 42
1.0
 43
10.0
 44
1.0
 45
0.0
 46
0.0
 47
0.1
 48
0.1
140
3.2
141
0.0
142
0.0
143
0.0393701
144
2.0
145
0.0
146
0.71
147
1.5
 71
     0
 72
     0
 73
     0
 74
     0
 75
     1
 76
     1
 77
     3
 78
     8
170
     0
171
     2
172
     1
173
     1
174
     0
175
     0
176
   256
177
   256
178
     2
270
     2
271
     2
272
     2
273
     2
274
     2
340
6B
275
     0
280
     0
281
     0
282
     0
283
     0
284
     0
285
     0
286
     0
287
     3
288
     0
  0
DIMSTYLE
105
B34
330
A
100
AcDbSymbolTableRecord
100
AcDbDimStyleTableRecord
  2
AM_JIS$2
 70
     0
  3

  4
"
  5
OPEN30
  6

  7

 40
1.0
 41
2.5
 42
1.0
 43
12.0
 44
1.0
 45
0.0
 46
0.0
 47
0.1
 48
0.1
140
3.2
141
0.0
142
0.0
143
0.0393701
144
1.0
145
0.0
146
0.71
147
1.5
 71
     0
 72
     0
 73
     0
 74
     0
 75
     0
 76
     0
 77
     3
 78
     8
170
     0
171
     2
172
     1
173
     0
174
     0
175
     0
176
   256
177
   256
178
     2
270
     2
271
     3
272
     3
273
     2
274
     2
340
6B
275
     0
280
     0
281
     0
282
     0
283
     0
284
     0
285
     0
286
     0
287
     3
288
     0
  0
ENDTAB
  0
TABLE
  2
BLOCK_RECORD
  5
1
330
0
100
AcDbSymbolTable
 70
    10
  0
BLOCK_RECORD
  5
1F
102
{ACAD_XDICTIONARY
360
74
102
}
330
1
100
AcDbSymbolTableRecord
100
AcDbBlockTableRecord
  2
*MODEL_SPACE
  0
BLOCK_RECORD
  5
101
102
{ACAD_XDICTIONARY
360
1BD9
102
}
330
1
100
AcDbSymbolTableRecord
100
AcDbBlockTableRecord
  2
*PAPER_SPACE
  0
BLOCK_RECORD
  5
59
330
1
100
AcDbSymbolTableRecord
100
AcDbBlockTableRecord
  2
_OPEN30
  0
BLOCK_RECORD
  5
64
330
1
100
AcDbSymbolTableRecord
100
AcDbBlockTableRecord
  2
GENAXEH
  0
BLOCK_RECORD
  5
D3B
330
1
100
AcDbSymbolTableRecord
100
AcDbBlockTableRecord
  2
*D5
  0
BLOCK_RECORD
  5
1799
330
1
100
AcDbSymbolTableRecord
100
AcDbBlockTableRecord
  2
*D6
  0
BLOCK_RECORD
  5
1879
330
1
100
AcDbSymbolTableRecord
100
AcDbBlockTableRecord
  2
*D7
  0
BLOCK_RECORD
  5
1A1A
330
1
100
AcDbSymbolTableRecord
100
AcDbBlockTableRecord
  2
*D8
  0
BLOCK_RECORD
  5
1AF9
330
1
100
AcDbSymbolTableRecord
100
AcDbBlockTableRecord
  2
*D9
  0
ENDTAB
  0
ENDSEC
  0
SECTION
  2
BLOCKS
  0
BLOCK
  5
20
330
1F
100
AcDbEntity
  8
0
100
AcDbBlockBegin
  2
*MODEL_SPACE
 70
     0
 10
0.0
 20
0.0
 30
0.0
  3
*MODEL_SPACE
  1

  0
ENDBLK
  5
21
330
1F
100
AcDbEntity
  8
0
100
AcDbBlockEnd
  0
BLOCK
  5
103
330
101
100
AcDbEntity
 67
     1
  8
0
100
AcDbBlockBegin
  2
*PAPER_SPACE
 70
     0
 10
0.0
 20
0.0
 30
0.0
  3
*PAPER_SPACE
  1

  0
ENDBLK
  5
104
330
101
100
AcDbEntity
 67
     1
  8
0
100
AcDbBlockEnd
  0
BLOCK
  5
5D
330
59
100
AcDbEntity
  8
0
100
AcDbBlockBegin
  2
_OPEN30
 70
     0
 10
0.0
 20
0.0
 30
0.0
  3
_OPEN30
  1

  0
LINE
  5
5A
330
59
100
AcDbEntity
  8
0
 62
     0
100
AcDbLine
 10
-1.0
 20
0.26794919
 30
0.0
 11
0.0
 21
0.0
 31
0.0
  0
LINE
  5
5B
330
59
100
AcDbEntity
  8
0
 62
     0
100
AcDbLine
 10
0.0
 20
0.0
 30
0.0
 11
-1.0
 21
-0.26794919
 31
0.0
  0
LINE
  5
5C
330
59
100
AcDbEntity
  8
0
 62
     0
100
AcDbLine
 10
0.0
 20
0.0
 30
0.0
 11
-1.0
 21
0.0
 31
0.0
  0
ENDBLK
  5
5E
330
59
100
AcDbEntity
  8
0
100
AcDbBlockEnd
  0
BLOCK
  5
66
330
64
100
AcDbEntity
  8
0
100
AcDbBlockBegin
  2
GENAXEH
 70
     0
 10
0.0
 20
0.0
 30
0.0
  3
GENAXEH
  1

  0
LINE
  5
65
330
64
100
AcDbEntity
  8
0
100
AcDbLine
 10
-1.0
 20
0.0
 30
0.0
 11
1.0
 21
0.0
 31
0.0
  0
ENDBLK
  5
67
330
64
100
AcDbEntity
  8
0
100
AcDbBlockEnd
  0
BLOCK
  5
D45
330
D3B
100
AcDbEntity
  8
0
100
AcDbBlockBegin
  2
*D5
 70
     1
 10
0.0
 20
0.0
 30
0.0
  3
*D5
  1

  0
LINE
  5
1AE8
330
D3B
100
AcDbEntity
  8
AM_5
100
AcDbLine
 10
-79.99999999999999
 20
-4.60000000000003
 30
0.0
 11
-79.99999999999999
 21
-32.00000000000069
 31
0.0
  0
LINE
  5
1AE9
330
D3B
100
AcDbEntity
  8
AM_5
100
AcDbLine
 10
-0.0000000000000001
 20
-6.000000000000625
 30
0.0
 11
-0.0000000000000017
 21
-32.00000000000069
 31
0.0
  0
LINE
  5
1AEA
330
D3B
100
AcDbEntity
  8
AM_5
100
AcDbLine
 10
-77.49999999999999
 20
-31.00000000000069
 30
0.0
 11
-2.500000000000001
 21
-31.00000000000069
 31
0.0
  0
INSERT
  5
1AEB
330
D3B
100
AcDbEntity
  8
AM_5
100
AcDbBlockReference
  2
_OPEN30
 10
-79.99999999999999
 20
-31.00000000000069
 30
0.0
 41
2.5
 42
2.5
 43
2.5
 50
180.0
  0
INSERT
  5
1AEC
330
D3B
100
AcDbEntity
  8
AM_5
100
AcDbBlockReference
  2
_OPEN30
 10
-0.0000000000000016
 20
-31.00000000000069
 30
0.0
 41
2.5
 42
2.5
 43
2.5
  0
MTEXT
  5
1AED
330
D3B
100
AcDbEntity
  8
AM_5
 62
     2
100
AcDbMText
 10
-39.99999999999999
 20
-27.90000000000069
 30
0.0
 40
3.2
 41
0.0
 71
     5
 72
     1
  1
80
  7
ASAMI
1001
ACAD
1000
MTEXTBEGIN
1070
    73
1070
     1
1070
    44
1040
1.0
1070
    74
1070
     0
1000
MTEXTEND
  0
POINT
  5
1AEE
330
D3B
100
AcDbEntity
  8
DEFPOINTS
 62
     0
100
AcDbPoint
 10
-79.99999999999999
 20
-3.60000000000003
 30
0.0
  0
POINT
  5
1AEF
330
D3B
100
AcDbEntity
  8
DEFPOINTS
 62
     0
100
AcDbPoint
 10
0.0
 20
-5.000000000000625
 30
0.0
  0
POINT
  5
1AF0
330
D3B
100
AcDbEntity
  8
DEFPOINTS
 62
     0
100
AcDbPoint
 10
-0.0000000000000016
 20
-31.00000000000069
 30
0.0
  0
ENDBLK
  5
D46
330
D3B
100
AcDbEntity
  8
0
100
AcDbBlockEnd
  0
BLOCK
  5
17A3
330
1799
100
AcDbEntity
  8
0
100
AcDbBlockBegin
  2
*D6
 70
     1
 10
0.0
 20
0.0
 30
0.0
  3
*D6
  1

  0
LINE
  5
1ADF
330
1799
100
AcDbEntity
  8
AM_5
100
AcDbLine
 10
-0.0000000000000001
 20
-5.0000000000005
 30
0.0
 11
-0.000000000000001
 21
-20.00000000000062
 31
0.0
  0
LINE
  5
1AE0
330
1799
100
AcDbEntity
  8
AM_5
100
AcDbLine
 10
-18.99999999999999
 20
-5.000000000000006
 30
0.0
 11
-18.99999999999999
 21
-20.00000000000062
 31
0.0
  0
LINE
  5
1AE1
330
1799
100
AcDbEntity
  8
AM_5
100
AcDbLine
 10
-2.5
 20
-19.00000000000062
 30
0.0
 11
-16.49999999999999
 21
-19.00000000000062
 31
0.0
  0
INSERT
  5
1AE2
330
1799
100
AcDbEntity
  8
AM_5
100
AcDbBlockReference
  2
_OPEN30
 10
-0.0000000000000009
 20
-19.00000000000062
 30
0.0
 41
2.5
 42
2.5
 43
2.5
  0
INSERT
  5
1AE3
330
1799
100
AcDbEntity
  8
AM_5
100
AcDbBlockReference
  2
_OPEN30
 10
-18.99999999999999
 20
-19.00000000000062
 30
0.0
 41
2.5
 42
2.5
 43
2.5
 50
180.0
  0
MTEXT
  5
1AE4
330
1799
100
AcDbEntity
  8
AM_5
 62
     2
100
AcDbMText
 10
-9.499999999999998
 20
-15.90000000000062
 30
0.0
 40
3.2
 41
0.0
 71
     5
 72
     1
  1
19
  7
ASAMI
1001
ACAD
1000
MTEXTBEGIN
1070
    73
1070
     1
1070
    44
1040
1.0
1070
    74
1070
     0
1000
MTEXTEND
  0
POINT
  5
1AE5
330
1799
100
AcDbEntity
  8
DEFPOINTS
 62
     0
100
AcDbPoint
 10
0.0
 20
-4.0000000000005
 30
0.0
  0
POINT
  5
1AE6
330
1799
100
AcDbEntity
  8
DEFPOINTS
 62
     0
100
AcDbPoint
 10
-18.99999999999999
 20
-4.000000000000006
 30
0.0
  0
POINT
  5
1AE7
330
1799
100
AcDbEntity
  8
DEFPOINTS
 62
     0
100
AcDbPoint
 10
-18.99999999999999
 20
-19.00000000000062
 30
0.0
  0
ENDBLK
  5
17A4
330
1799
100
AcDbEntity
  8
0
100
AcDbBlockEnd
  0
BLOCK
  5
1883
330
1879
100
AcDbEntity
  8
0
100
AcDbBlockBegin
  2
*D7
 70
     1
 10
0.0
 20
0.0
 30
0.0
  3
*D7
  1

  0
LINE
  5
1B8C
330
1879
100
AcDbEntity
  8
AM_5
100
AcDbLine
 10
0.7
 20
4.0000000000005
 30
0.0
 11
16.35938886606846
 21
4.000000000000496
 31
0.0
  0
LINE
  5
1B8D
330
1879
100
AcDbEntity
  8
AM_5
100
AcDbLine
 10
0.7
 20
-4.0000000000005
 30
0.0
 11
16.35938886606845
 21
-4.000000000000504
 31
0.0
  0
LINE
  5
1B8E
330
1879
100
AcDbEntity
  8
AM_5
100
AcDbLine
 10
15.35938886606845
 20
1.500000000000496
 30
0.0
 11
15.35938886606845
 21
-1.500000000000504
 31
0.0
  0
INSERT
  5
1B8F
330
1879
100
AcDbEntity
  8
AM_5
100
AcDbBlockReference
  2
_OPEN30
 10
15.35938886606846
 20
4.000000000000496
 30
0.0
 41
2.5
 42
2.5
 43
2.5
 50
90.0
  0
INSERT
  5
1B90
330
1879
100
AcDbEntity
  8
AM_5
100
AcDbBlockReference
  2
_OPEN30
 10
15.35938886606845
 20
-4.000000000000504
 30
0.0
 41
2.5
 42
2.5
 43
2.5
 50
270.0
  0
MTEXT
  5
1B91
330
1879
100
AcDbEntity
  8
AM_5
 62
     2
100
AcDbMText
 10
12.25938886606845
 20
-0.000000000000001
 30
0.0
 40
3.2
 41
0.0
 71
     5
 72
     1
  1
%%c8
  7
ASAMI
 11
0.0000000000000001
 21
1.0
 31
0.0
1001
ACAD
1000
MTEXTBEGIN
1070
    73
1070
     1
1070
    44
1040
1.0
1070
    74
1070
     0
1000
MTEXTEND
  0
POINT
  5
1B92
330
1879
100
AcDbEntity
  8
DEFPOINTS
 62
     0
100
AcDbPoint
 10
-0.3000000000000001
 20
4.0000000000005
 30
0.0
  0
POINT
  5
1B93
330
1879
100
AcDbEntity
  8
DEFPOINTS
 62
     0
100
AcDbPoint
 10
-0.3
 20
-4.0000000000005
 30
0.0
  0
POINT
  5
1B94
330
1879
100
AcDbEntity
  8
DEFPOINTS
 62
     0
100
AcDbPoint
 10
15.35938886606845
 20
-4.000000000000504
 30
0.0
  0
ENDBLK
  5
1884
330
1879
100
AcDbEntity
  8
0
100
AcDbBlockEnd
  0
BLOCK
  5
1A20
330
1A1A
100
AcDbEntity
  8
0
100
AcDbBlockBegin
  2
*D8
 70
     1
 10
0.0
 20
0.0
 30
0.0
  3
*D8
  1

  0
LINE
  5
1BDB
330
1A1A
100
AcDbEntity
  8
AM_5
100
AcDbLine
 10
13.84775719357144
 20
-15.15662788087441
 30
0.0
 11
1.876008692079521
 21
-5.46209709494003
 31
0.0
  0
MTEXT
  5
1BDC
330
1A1A
100
AcDbEntity
  8
AM_5
 62
     2
100
AcDbMText
 10
10.78420860690119
 20
-8.686860496202907
 30
0.0
 40
3.2
 41
0.0
 71
     5
 72
     1
  1
R0.3
  7
ASAMI
 11
0.777145961456972
 21
-0.6293203910498364
 31
0.0
  0
LINE
  5
1BDD
330
1A1A
100
AcDbEntity
  8
AM_5
100
AcDbLine
 10
-0.3000000000000014
 20
-3.700000000000487
 30
0.0
 11
-0.0668562115629081
 21
-3.888796117315439
 31
0.0
  0
INSERT
  5
1BDE
330
1A1A
100
AcDbEntity
  8
AM_5
100
AcDbBlockReference
  2
_OPEN30
 10
-0.0668562115629081
 20
-3.888796117315439
 30
0.0
 41
2.5
 42
2.5
 43
2.5
 50
141.0
  0
POINT
  5
1BDF
330
1A1A
100
AcDbEntity
  8
DEFPOINTS
 62
     0
100
AcDbPoint
 10
-0.0668562115629081
 20
-3.888796117315439
 30
0.0
  0
POINT
  5
1BE0
330
1A1A
100
AcDbEntity
  8
DEFPOINTS
 62
     0
100
AcDbPoint
 10
-0.3000000000000014
 20
-3.700000000000487
 30
0.0
  0
ENDBLK
  5
1A21
330
1A1A
100
AcDbEntity
  8
0
100
AcDbBlockEnd
  0
BLOCK
  5
1B03
330
1AF9
100
AcDbEntity
  8
0
100
AcDbBlockBegin
  2
*D9
 70
     1
 10
0.0
 20
0.0
 30
0.0
  3
*D9
  1

  0
LINE
  5
1B83
330
1AF9
100
AcDbEntity
  8
AM_5
100
AcDbLine
 10
-80.49999999999998
 20
-4.000000000000031
 30
0.0
 11
-95.00000099999999
 21
-4.000000000000026
 31
0.0
  0
LINE
  5
1B84
330
1AF9
100
AcDbEntity
  8
AM_5
100
AcDbLine
 10
-80.49999999999998
 20
3.99999999999998
 30
0.0
 11
-95.00000099999999
 21
3.999999999999985
 31
0.0
  0
LINE
  5
1B85
330
1AF9
100
AcDbEntity
  8
AM_5
100
AcDbLine
 10
-94.00000099999999
 20
-1.500000000000027
 30
0.0
 11
-94.00000099999999
 21
1.499999999999984
 31
0.0
  0
INSERT
  5
1B86
330
1AF9
100
AcDbEntity
  8
AM_5
100
AcDbBlockReference
  2
_OPEN30
 10
-94.00000099999999
 20
-4.000000000000026
 30
0.0
 41
2.5
 42
2.5
 43
2.5
 50
270.0
  0
INSERT
  5
1B87
330
1AF9
100
AcDbEntity
  8
AM_5
100
AcDbBlockReference
  2
_OPEN30
 10
-94.00000099999999
 20
3.999999999999984
 30
0.0
 41
2.5
 42
2.5
 43
2.5
 50
90.0
  0
MTEXT
  5
1B88
330
1AF9
100
AcDbEntity
  8
AM_5
 62
     2
100
AcDbMText
 10
-97.100001
 20
-0.0000000000000358
 30
0.0
 40
3.2
 41
0.0
 71
     5
 72
     1
  1
%%c8
  7
ASAMI
 11
0.0000000000000001
 21
1.0
 31
0.0
1001
ACAD
1000
MTEXTBEGIN
1070
    73
1070
     1
1070
    44
1040
1.0
1070
    74
1070
     0
1000
MTEXTEND
  0
POINT
  5
1B89
330
1AF9
100
AcDbEntity
  8
DEFPOINTS
 62
     0
100
AcDbPoint
 10
-79.49999999999999
 20
-4.000000000000031
 30
0.0
  0
POINT
  5
1B8A
330
1AF9
100
AcDbEntity
  8
DEFPOINTS
 62
     0
100
AcDbPoint
 10
-79.49999999999999
 20
3.99999999999998
 30
0.0
  0
POINT
  5
1B8B
330
1AF9
100
AcDbEntity
  8
DEFPOINTS
 62
     0
100
AcDbPoint
 10
-94.00000099999999
 20
3.999999999999984
 30
0.0
  0
ENDBLK
  5
1B04
330
1AF9
100
AcDbEntity
  8
0
100
AcDbBlockEnd
  0
ENDSEC
  0
SECTION
  2
ENTITIES
  0
DIMENSION
  5
D39
330
1F
100
AcDbEntity
  8
AM_5
100
AcDbDimension
  2
*D5
 10
-0.0000000000000016
 20
-31.00000000000069
 30
0.0
 11
-39.99999999999999
 21
-27.90000000000069
 31
0.0
 70
    32
  1
<>
  3
AM_JIS
100
AcDbAlignedDimension
 13
-79.99999999999999
 23
-3.60000000000003
 33
0.0
 14
0.0
 24
-5.000000000000625
 34
0.0
100
AcDbRotatedDimension
1001
GENIUS_GENDTOL_13
1000

1000
h7
1000

1040
0.0
  0
TEXT
  5
F17
330
1F
100
AcDbEntity
  8
AM_6
100
AcDbText
 10
-73.80952380952381
 20
-53.50000000000069
 30
0.0
 40
5.0
  1
SSUP4080ZX-R03
 72
     1
 11
-40.0
 21
-51.00000000000069
 31
0.0
100
AcDbText
 73
     2
  0
LINE
  5
178B
330
1F
100
AcDbEntity
  8
AM_0
100
AcDbLine
 10
-2.677795803157096
 20
4.0000000000005
 30
0.0
 11
-0.3
 21
4.0000000000005
 31
0.0
  0
LINE
  5
178C
330
1F
100
AcDbEntity
  8
AM_0
100
AcDbLine
 10
-0.0098644669194321
 20
-0.1012975048558019
 30
0.0
 11
-1.228397504354399
 21
0.0005218439018336
 31
0.0
  0
LINE
  5
178D
330
1F
100
AcDbEntity
  8
AM_0
100
AcDbLine
 10
-0.0098644669194321
 20
-0.1181141824984024
 30
0.0
 11
-0.1087470882168046
 21
0.7533686191869037
 31
0.0
  0
LINE
  5
178E
330
1F
100
AcDbEntity
  8
AM_0
100
AcDbLine
 10
-0.1087470882168046
 20
0.7533686191869037
 30
0.0
 11
-0.4109487659643078
 21
1.79809722300447
 31
0.0
  0
LINE
  5
178F
330
1F
100
AcDbEntity
  8
AM_0
100
AcDbLine
 10
-19.0
 20
2.012032040509279
 30
0.0
 11
-19.0
 21
3.004180025974767
 31
0.0
  0
LINE
  5
1790
330
1F
100
AcDbEntity
  8
AM_11
100
AcDbLine
 10
-19.0
 20
4.0000000000005
 30
0.0
 11
0.0
 21
4.0000000000005
 31
0.0
  0
LINE
  5
1791
330
1F
100
AcDbEntity
  8
AM_0
100
AcDbLine
 10
-0.1087470882168046
 20
-1.225611737973167
 30
0.0
 11
-0.3776252504601003
 21
-1.726033297140793
 31
0.0
  0
LINE
  5
1792
330
1F
100
AcDbEntity
  8
AM_0
100
AcDbLine
 10
-0.0988826212969798
 20
-3.761026218234064
 30
0.0
 11
-0.1496308737580007
 21
-3.701700668372495
 31
0.0
  0
LINE
  5
1793
330
1F
100
AcDbEntity
  8
AM_0
100
AcDbLine
 10
-0.0534258378218167
 20
-3.870883535035693
 30
0.0
 11
-0.0988826212969798
 21
-3.761026218234064
 31
0.0
  0
LINE
  5
1794
330
1F
100
AcDbEntity
  8
AM_0
100
AcDbLine
 10
-2.677783960442204
 20
-4.000000000000135
 30
0.0
 11
-0.3000000000000408
 21
-4.000000000000459
 31
0.0
  0
LINE
  5
1795
330
1F
100
AcDbEntity
  8
AM_0
100
AcDbLine
 10
-0.1496308737580007
 20
-3.701700668372495
 30
0.0
 11
-0.3784916040618472
 21
-2.967503743570932
 31
0.0
  0
LINE
  5
1796
330
1F
100
AcDbEntity
  8
AM_0
100
AcDbLine
 10
-0.0988826212969798
 20
-3.761026218234064
 30
0.0
 11
-0.0988826212969798
 21
-1.197248732314119
 31
0.0
  0
LINE
  5
1797
330
1F
100
AcDbEntity
  8
AM_11
100
AcDbLine
 10
0.0
 20
-4.000000000000499
 30
0.0
 11
-18.99999999999999
 21
-3.999999999999954
 31
0.0
  0
DIMENSION
  5
1798
330
1F
100
AcDbEntity
  8
AM_5
100
AcDbDimension
  2
*D6
 10
-18.99999999999999
 20
-19.00000000000062
 30
0.0
 11
-9.499999999999998
 21
-15.90000000000062
 31
0.0
 70
    32
  1
<>
  3
AM_JIS
100
AcDbAlignedDimension
 13
0.0
 23
-4.0000000000005
 33
0.0
 14
-18.99999999999999
 24
-4.000000000000006
 34
0.0
100
AcDbRotatedDimension
1001
GENIUS_GENDTOL_13
1000

1000
h7
1000

1040
0.0
  0
LINE
  5
17A5
330
1F
100
AcDbEntity
  8
AM_0
100
AcDbLine
 10
-0.1087470882168046
 20
-1.225611737973167
 30
0.0
 11
-0.0098644669194321
 21
-0.9412975048559474
 31
0.0
  0
LINE
  5
17A6
330
1F
100
AcDbEntity
  8
AM_0
100
AcDbLine
 10
0.0
 20
3.7000000000005
 30
0.0
 11
0.0
 21
-3.700000000000491
 31
0.0
  0
LINE
  5
17A7
330
1F
100
AcDbEntity
  8
AM_11
100
AcDbLine
 10
-19.0
 20
4.0000000000005
 30
0.0
 11
-18.99999999999999
 21
-3.999999999999954
 31
0.0
  0
POLYLINE
  5
17A8
330
1F
100
AcDbEntity
  8
AM_0
100
AcDb2dPolyline
 66
     1
 10
0.0
 20
0.0
 30
0.0
 70
     2
  0
VERTEX
  5
17A9
330
17A8
100
AcDbEntity
  8
AM_0
100
AcDbVertex
100
AcDb2dVertex
 10
-19.0
 20
-1.844324061470933
 30
0.0
 42
-0.0129986936669445
  0
VERTEX
  5
17AA
330
17A8
100
AcDbEntity
  8
AM_0
100
AcDbVertex
100
AcDb2dVertex
 10
-20.07047176473773
 20
-1.070737111619723
 30
0.0
 42
-0.0238378164251699
 70
     1
  0
VERTEX
  5
17AB
330
17A8
100
AcDbEntity
  8
AM_0
100
AcDbVertex
100
AcDb2dVertex
 10
-20.61931818181818
 20
-0.6100681281968264
 30
0.0
 42
-0.0087697151677761
  0
VERTEX
  5
17AC
330
17A8
100
AcDbEntity
  8
AM_0
100
AcDbVertex
100
AcDb2dVertex
 10
-22.05824182776262
 20
0.766140642304913
 30
0.0
 42
-0.016586017082525
 70
     1
  0
VERTEX
  5
17AD
330
17A8
100
AcDbEntity
  8
AM_0
100
AcDbVertex
100
AcDb2dVertex
 10
-22.77840909090909
 20
1.528736634487199
 30
0.0
 42
-0.0451742545712589
  0
VERTEX
  5
17AE
330
17A8
100
AcDbEntity
  8
AM_0
100
AcDbVertex
100
AcDb2dVertex
 10
-23.26081101690801
 20
2.188611688495461
 30
0.0
 42
-0.1465772931919247
 70
     1
  0
VERTEX
  5
17AF
330
17A8
100
AcDbEntity
  8
AM_0
100
AcDbVertex
100
AcDb2dVertex
 10
-23.31818181818182
 20
2.433285463897118
 30
0.0
 42
-0.2363269648915856
  0
VERTEX
  5
17B0
330
17A8
100
AcDbEntity
  8
AM_0
100
AcDbVertex
100
AcDb2dVertex
 10
-23.21662608314075
 20
2.589746394158828
 30
0.0
 42
-0.0944295254831177
 70
     1
  0
VERTEX
  5
17B1
330
17A8
100
AcDbEntity
  8
AM_0
100
AcDbVertex
100
AcDb2dVertex
 10
-22.77840909090909
 20
2.750476424712553
 30
0.0
 42
-0.0735428200704349
  0
VERTEX
  5
17B2
330
17A8
100
AcDbEntity
  8
AM_0
100
AcDbVertex
100
AcDb2dVertex
 10
-22.21317119039334
 20
2.772424882496909
 30
0.0
 42
-0.025664050315163
 70
     1
  0
VERTEX
  5
17B3
330
17A8
100
AcDbEntity
  8
AM_0
100
AcDbVertex
100
AcDb2dVertex
 10
-20.61931818181818
 20
2.539849713018634
 30
0.0
 42
-0.0327084143688329
  0
VERTEX
  5
17B4
330
17A8
100
AcDbEntity
  8
AM_0
100
AcDbVertex
100
AcDb2dVertex
 10
-19.88964204952857
 20
2.350634804222113
 30
0.0
 42
-0.0257576852941419
 70
     1
  0
VERTEX
  5
17B5
330
17A8
100
AcDbEntity
  8
AM_0
100
AcDbVertex
100
AcDb2dVertex
 10
-19.0
 20
2.012032040509279
 30
0.0
  0
SEQEND
  5
17B6
330
17A8
100
AcDbEntity
  8
AM_0
  0
SPLINE
  5
17C6
330
1F
100
AcDbEntity
  8
AM_0
100
AcDbSpline
210
0.0
220
0.0
230
1.0
 70
     8
 71
     3
 72
     8
 73
     4
 74
     0
 42
0.0000000001
 43
0.0000000001
 40
0.2725981709865456
 40
0.2725981709865456
 40
0.2725981709865456
 40
0.2725981709865456
 40
2.093133798227362
 40
2.093133798227362
 40
2.093133798227362
 40
2.093133798227362
 10
-17.15839640839776
 20
-4.000000000000006
 30
0.0
 10
-16.63900594747043
 20
-3.978672842936475
 30
0.0
 10
-16.13511597240967
 20
-3.90391880961099
 30
0.0
 10
-15.64399713552109
 20
-3.781911148288565
 30
0.0
  0
SPLINE
  5
17C7
330
1F
100
AcDbEntity
  8
AM_0
100
AcDbSpline
210
0.0
220
0.0
230
1.0
 70
     8
 71
     3
 72
     8
 73
     4
 74
     0
 42
0.0000000001
 43
0.0000000001
 40
0.0
 40
0.0
 40
0.0
 40
0.0
 40
0.6152373134461622
 40
0.6152373134461622
 40
0.6152373134461622
 40
0.6152373134461622
 10
-15.11761654328649
 20
-3.801115293128487
 30
0.0
 10
-15.29473031533917
 20
-3.801115293128487
 30
0.0
 10
-15.47015756300109
 20
-3.794586355179864
 30
0.0
 10
-15.64399713552109
 20
-3.781911148288509
 30
0.0
  0
SPLINE
  5
17C8
330
1F
100
AcDbEntity
  8
AM_0
100
AcDbSpline
210
0.0
220
0.0
230
1.0
 70
     8
 71
     3
 72
     8
 73
     4
 74
     0
 42
0.0000000001
 43
0.0000000001
 40
0.0
 40
0.0
 40
0.0
 40
0.0
 40
3.983447643433449
 40
3.983447643433449
 40
3.983447643433449
 40
3.983447643433449
 10
-16.33999999999967
 20
3.999999999999772
 30
0.0
 10
-17.48675007916973
 20
3.999999999999772
 30
0.0
 10
-18.55733308786148
 20
3.718179353660957
 30
0.0
 10
-19.5803406391269
 20
3.260327962312635
 30
0.0
  0
SPLINE
  5
17C9
330
1F
100
AcDbEntity
  8
AM_0
100
AcDbSpline
210
0.0
220
0.0
230
1.0
 70
     8
 71
     3
 72
     8
 73
     4
 74
     0
 42
0.0000000001
 43
0.0000000001
 40
5.215942287204468
 40
5.215942287204468
 40
5.215942287204468
 40
5.215942287204468
 40
10.4969207889486
 40
10.4969207889486
 40
10.4969207889486
 40
10.4969207889486
 10
-18.99999999999997
 20
2.626486634352147
 30
0.0
 10
-17.66419509834626
 20
1.912333011676651
 30
0.0
 10
-16.39090582075657
 20
0.9561665058383027
 30
0.0
 10
-15.1176165431671
 20
-0.0000000000000455
 30
0.0
  0
SPLINE
  5
17CA
330
1F
100
AcDbEntity
  8
AM_0
100
AcDbSpline
210
0.0
220
0.0
230
1.0
 70
     8
 71
     3
 72
     8
 73
     4
 74
     0
 42
0.0000000001
 43
0.0000000001
 40
0.6393216442353146
 40
0.6393216442353146
 40
0.6393216442353146
 40
0.6393216442353146
 40
10.49653484266006
 40
10.49653484266006
 40
10.49653484266006
 40
10.49653484266006
 10
-22.32130004229381
 20
4.0000000000005
 30
0.0
 10
-18.84155775914049
 20
3.405440376889555
 30
0.0
 10
-16.40367175132091
 20
1.754350297691189
 30
0.0
 10
-13.96578574350054
 20
0.1032602184928237
 30
0.0
  0
SPLINE
  5
17CB
330
1F
100
AcDbEntity
  8
AM_0
100
AcDbSpline
210
0.0
220
0.0
230
1.0
 70
     8
 71
     3
 72
     8
 73
     4
 74
     0
 42
0.0000000001
 43
0.0000000001
 40
6.902118198828401
 40
6.902118198828401
 40
6.902118198828401
 40
6.902118198828401
 40
10.61176705360581
 40
10.61176705360581
 40
10.61176705360581
 40
10.61176705360581
 10
-19.00000000000013
 20
2.01203204050912
 30
0.0
 10
-18.09793873132356
 20
1.398315223482688
 30
0.0
 10
-17.21896936566181
 20
0.699157611741316
 30
0.0
 10
-16.34000000000006
 20
-0.0000000000000455
 30
0.0
  0
SPLINE
  5
17CC
330
1F
100
AcDbEntity
  8
AM_0
100
AcDbSpline
210
0.0
220
0.0
230
1.0
 70
     8
 71
     3
 72
     8
 73
     4
 74
     0
 42
0.0000000001
 43
0.0000000001
 40
0.0
 40
0.0
 40
0.0
 40
0.0
 40
3.582746003059011
 40
3.582746003059011
 40
3.582746003059011
 40
3.582746003059011
 10
-7.033980179530627
 20
-3.801115293128487
 30
0.0
 10
-6.002583602892553
 20
-3.80111529312865
 30
0.0
 10
-5.028379559410226
 20
-3.579709363782842
 30
0.0
 10
-4.091847436927161
 20
-3.212466448057282
 30
0.0
  0
SPLINE
  5
17CD
330
1F
100
AcDbEntity
  8
AM_0
100
AcDbSpline
210
0.0
220
0.0
230
1.0
 70
     8
 71
     3
 72
     8
 73
     4
 74
     0
 42
0.0000000001
 43
0.0000000001
 40
0.6152373134470183
 40
0.6152373134470183
 40
0.6152373134470183
 40
0.6152373134470183
 40
8.843083020165714
 40
8.843083020165714
 40
8.843083020165714
 40
8.843083020165714
 10
-6.507599587295089
 20
3.781911148288372
 30
0.0
 10
-4.182764683500284
 20
3.612399897387649
 30
0.0
 10
-2.141884170727342
 20
2.343633510083555
 30
0.0
 10
-0.148527391905666
 20
0.8908914199935225
 30
0.0
  0
SPLINE
  5
17CE
330
1F
100
AcDbEntity
  8
AM_0
100
AcDbSpline
210
0.0
220
0.0
230
1.0
 70
     8
 71
     3
 72
     8
 73
     4
 74
     0
 42
0.0000000001
 43
0.0000000001
 40
0.0
 40
0.0
 40
0.0
 40
0.0
 40
10.7633540680078
 40
10.7633540680078
 40
10.7633540680078
 40
10.7633540680078
 10
-8.256363636363197
 20
3.999999999999954
 30
0.0
 10
-5.157822313754888
 20
3.999999999999953
 30
0.0
 10
-2.590655640805078
 20
2.000981356818509
 30
0.0
 10
-0.0234889678552691
 20
0.0019627136370657
 30
0.0
  0
SPLINE
  5
17CF
330
1F
100
AcDbEntity
  8
AM_0
100
AcDbSpline
210
0.0
220
0.0
230
1.0
 70
     8
 71
     3
 72
     8
 73
     4
 74
     0
 42
0.0000000001
 43
0.0000000001
 40
1.418383274962104
 40
1.418383274962104
 40
1.418383274962104
 40
1.418383274962104
 40
10.4969207889486
 40
10.4969207889486
 40
10.4969207889486
 40
10.4969207889486
 10
-0.1496308737580007
 20
-3.701700668372495
 30
0.0
 10
-2.656153430590868
 20
-3.287494349770395
 30
0.0
 10
-4.845066805060551
 20
-1.64374717488522
 30
0.0
 10
-7.033980179530627
 20
-0.0000000000000455
 30
0.0
  0
SPLINE
  5
17D0
330
1F
100
AcDbEntity
  8
AM_0
100
AcDbSpline
210
0.0
220
0.0
230
1.0
 70
     8
 71
     3
 72
     8
 73
     4
 74
     0
 42
0.0000000001
 43
0.0000000001
 40
0.0
 40
0.0
 40
0.0
 40
0.0
 40
10.61176705360627
 40
10.61176705360627
 40
10.61176705360627
 40
10.61176705360627
 10
-2.677783960442204
 20
-4.000000000000135
 30
0.0
 10
-3.227629909371345
 20
-4.000000000000136
 30
0.0
 10
-5.741996772867468
 20
-2.000000000000091
 30
0.0
 10
-8.256363636363589
 20
-0.0000000000000455
 30
0.0
  0
SPLINE
  5
17D1
330
1F
100
AcDbEntity
  8
AM_0
100
AcDbSpline
210
0.0
220
0.0
230
1.0
 70
     8
 71
     3
 72
     8
 73
     4
 74
     0
 42
0.0000000001
 43
0.0000000001
 40
3.266224444355238
 40
3.266224444355238
 40
3.266224444355238
 40
3.266224444355238
 40
10.49653484266006
 40
10.49653484266006
 40
10.49653484266006
 40
10.49653484266006
 10
-0.3784916040618472
 20
-2.96750374357075
 30
0.0
 10
-2.305748586374751
 20
-2.318903841035398
 30
0.0
 10
-4.093948983119803
 20
-1.107821811271287
 30
0.0
 10
-5.882149379864461
 20
0.1032602184928237
 30
0.0
  0
SPLINE
  5
17D2
330
1F
100
AcDbEntity
  8
AM_0
100
AcDbSpline
210
0.0
220
0.0
230
1.0
 70
     8
 71
     3
 72
     8
 73
     4
 74
     0
 42
0.0000000001
 43
0.0000000001
 40
0.6393216439718838
 40
0.6393216439718838
 40
0.6393216439718838
 40
0.6393216439718838
 40
6.996796499348805
 40
6.996796499348805
 40
6.996796499348805
 40
6.996796499348805
 10
-5.464528268086269
 20
3.631249931360207
 30
0.0
 10
-3.664942436243336
 20
3.48561256559019
 30
0.0
 10
-2.011926300554023
 20
2.747102635440523
 30
0.0
 10
-0.410948765963915
 20
1.79809722300447
 30
0.0
  0
SPLINE
  5
17D3
330
1F
100
AcDbEntity
  8
AM_0
100
AcDbSpline
210
0.0
220
0.0
230
1.0
 70
     8
 71
     3
 72
     8
 73
     4
 74
     0
 42
0.0000000001
 43
0.0000000001
 40
0.0
 40
0.0
 40
0.0
 40
0.0
 40
2.270470288469259
 40
2.270470288469259
 40
2.270470288469259
 40
2.270470288469259
 10
-6.011981992263207
 20
-3.450290746488962
 30
0.0
 10
-5.358419474867348
 20
-3.44224475237854
 30
0.0
 10
-4.724763614459948
 20
-3.353676582900857
 30
0.0
 10
-4.106708468755581
 20
-3.202003720060552
 30
0.0
  0
SPLINE
  5
17D4
330
1F
100
AcDbEntity
  8
AM_0
100
AcDbSpline
210
0.0
220
0.0
230
1.0
 70
     8
 71
     3
 72
     9
 73
     5
 74
     0
 42
0.0000000001
 43
0.0000000001
 40
0.0
 40
0.0
 40
0.0
 40
0.0
 40
0.6574415203969619
 40
3.123721247380082
 40
3.123721247380082
 40
3.123721247380082
 40
3.123721247380082
 10
-1.228397504354399
 20
0.0005218439018336
 30
0.0
 10
-1.416895615276995
 20
0.0162725493046072
 30
0.0
 10
-2.49100179546389
 20
-0.5162103026927768
 30
0.0
 10
-0.8008963665562117
 20
-1.198011504404743
 30
0.0
 10
-0.3776252504601003
 20
-1.726033297140793
 30
0.0
  0
SPLINE
  5
17D5
330
1F
100
AcDbEntity
  8
AM_0
100
AcDbSpline
210
0.0
220
0.0
230
1.0
 70
     8
 71
     3
 72
     8
 73
     4
 74
     0
 42
0.0000000001
 43
0.0000000001
 40
0.0430135773738179
 40
0.0430135773738179
 40
0.0430135773738179
 40
0.0430135773738179
 40
2.847661750814433
 40
2.847661750814433
 40
2.847661750814433
 40
2.847661750814433
 10
-0.1634580256785545
 20
3.967125980108018
 30
0.0
 10
0.0185247840587323
 20
3.257443602930451
 30
0.0
 10
-1.06302442788231
 20
2.86168649559012
 30
0.0
 10
-2.102927355862303
 20
2.695198414215838
 30
0.0
  0
SPLINE
  5
17D6
330
1F
100
AcDbEntity
  8
AM_0
100
AcDbSpline
210
0.0
220
0.0
230
1.0
 70
    24
 71
     3
 72
     8
 73
     4
 74
     0
 42
0.0000000001
 43
0.0000000001
 40
0.0
 40
0.0
 40
0.0
 40
0.0
 40
0.0000120325715472
 40
0.0000120325715472
 40
0.0000120325715472
 40
0.0000120325715472
 10
-2.677795803153168
 20
3.999999999999772
 30
0.0
 10
-2.677791855570292
 20
3.999999999999772
 30
0.0
 10
-2.677787907999971
 20
4.000000000002652
 30
0.0
 10
-2.677783960442204
 20
4.000000000008411
 30
0.0
  0
SPLINE
  5
17D7
330
1F
100
AcDbEntity
  8
AM_0
100
AcDbSpline
210
0.0
220
0.0
230
1.0
 70
     8
 71
     3
 72
     8
 73
     4
 74
     0
 42
0.0000000001
 43
0.0000000001
 40
0.0
 40
0.0
 40
0.0
 40
0.0
 40
1.551838382253894
 40
1.551838382253894
 40
1.551838382253894
 40
1.551838382253894
 10
-0.3776252504518528
 20
-1.726033297151161
 30
0.0
 10
-0.2303365061177125
 20
-2.116718840765446
 30
0.0
 10
-0.2958980692379236
 20
-2.560814035720027
 30
0.0
 10
-0.3784916040618472
 20
-2.967503743570932
 30
0.0
  0
SPLINE
  5
17D8
330
1F
100
AcDbEntity
  8
AM_0
100
AcDbSpline
210
0.0
220
0.0
230
1.0
 70
     8
 71
     3
 72
     8
 73
     4
 74
     0
 42
0.0000000001
 43
0.0000000001
 40
0.0
 40
0.0
 40
0.0
 40
0.0
 40
10.49692078894909
 40
10.49692078894909
 40
10.49692078894909
 40
10.49692078894909
 10
-7.033980179530234
 20
-3.801115293128487
 30
0.0
 10
-10.05582101271254
 20
-3.801115293128487
 30
0.0
 10
-12.58671877793982
 20
-1.900557646564266
 30
0.0
 10
-15.1176165431671
 20
-0.0000000000000455
 30
0.0
  0
SPLINE
  5
17D9
330
1F
100
AcDbEntity
  8
AM_0
100
AcDbSpline
210
0.0
220
0.0
230
1.0
 70
     8
 71
     3
 72
     8
 73
     4
 74
     0
 42
0.0000000001
 43
0.0000000001
 40
0.0
 40
0.0
 40
0.0
 40
0.0
 40
10.49653484265986
 40
10.49653484265986
 40
10.49653484265986
 40
10.49653484265986
 10
-5.752316767465717
 20
-3.450290746488962
 30
0.0
 10
-8.773779664621244
 20
-3.413093581675592
 30
0.0
 10
-11.36978270406089
 20
-1.654916681591384
 30
0.0
 10
-13.96578574350054
 20
0.1032602184928237
 30
0.0
  0
SPLINE
  5
17DA
330
1F
100
AcDbEntity
  8
AM_0
100
AcDbSpline
210
0.0
220
0.0
230
1.0
 70
     8
 71
     3
 72
     8
 73
     4
 74
     0
 42
0.0000000001
 43
0.0000000001
 40
0.0
 40
0.0
 40
0.0
 40
0.0
 40
10.61065478016067
 40
10.61065478016067
 40
10.61065478016067
 40
10.61065478016067
 10
-8.256363636363197
 20
-3.998111143126368
 30
0.0
 10
-11.31094607307612
 20
-3.998111143126368
 30
0.0
 10
-13.82547303653809
 20
-1.999055571563206
 30
0.0
 10
-16.34000000000006
 20
-0.0000000000000455
 30
0.0
  0
SPLINE
  5
17DB
330
1F
100
AcDbEntity
  8
AM_0
100
AcDbSpline
210
0.0
220
0.0
230
1.0
 70
     8
 71
     3
 72
     8
 73
     4
 74
     0
 42
0.0000000001
 43
0.0000000001
 40
0.0
 40
0.0
 40
0.0
 40
0.0
 40
4.066976460604825
 40
4.066976460604825
 40
4.066976460604825
 40
4.066976460604825
 10
-8.256363636363197
 20
3.999999999999772
 30
0.0
 10
-9.427159890173863
 20
3.999999999999772
 30
0.0
 10
-10.51856129208824
 20
3.706236457084878
 30
0.0
 10
-11.56099604432033
 20
3.231294712413137
 30
0.0
  0
SPLINE
  5
17DC
330
1F
100
AcDbEntity
  8
AM_0
100
AcDbSpline
210
0.0
220
0.0
230
1.0
 70
     8
 71
     3
 72
     8
 73
     4
 74
     0
 42
0.0000000001
 43
0.0000000001
 40
0.0
 40
0.0
 40
0.0
 40
0.0
 40
10.61176705360661
 40
10.61176705360661
 40
10.61176705360661
 40
10.61176705360661
 10
-16.34000000000006
 20
3.999999999999954
 30
0.0
 10
-13.28509736335573
 20
3.999999999999953
 30
0.0
 10
-10.77073049985946
 20
1.999999999999953
 30
0.0
 10
-8.256363636363197
 20
-0.0000000000000455
 30
0.0
  0
SPLINE
  5
17DD
330
1F
100
AcDbEntity
  8
AM_0
100
AcDbSpline
210
0.0
220
0.0
230
1.0
 70
     8
 71
     3
 72
     8
 73
     4
 74
     0
 42
0.0000000001
 43
0.0000000001
 40
0.6152373134470183
 40
0.6152373134470183
 40
0.6152373134470183
 40
0.6152373134470183
 40
10.4969207889486
 40
10.4969207889486
 40
10.4969207889486
 40
10.4969207889486
 10
-14.59123595093156
 20
3.781911148288372
 30
0.0
 10
-11.79909770831239
 20
3.578327295765438
 30
0.0
 10
-9.416538943921709
 20
1.789163647882696
 30
0.0
 10
-7.033980179530234
 20
-0.0000000000000455
 30
0.0
  0
SPLINE
  5
17DE
330
1F
100
AcDbEntity
  8
AM_0
100
AcDbSpline
210
0.0
220
0.0
230
1.0
 70
     8
 71
     3
 72
     8
 73
     4
 74
     0
 42
0.0000000001
 43
0.0000000001
 40
0.6393216442358057
 40
0.6393216442358057
 40
0.6393216442358057
 40
0.6393216442358057
 40
10.49653484266006
 40
10.49653484266006
 40
10.49653484266006
 40
10.49653484266006
 10
-13.54816463149809
 20
3.631249931342199
 30
0.0
 10
-10.75792139550441
 20
3.405440376889373
 30
0.0
 10
-8.320035387684439
 20
1.754350297691189
 30
0.0
 10
-5.882149379864461
 20
0.1032602184928237
 30
0.0
  0
SPLINE
  5
17DF
330
1F
100
AcDbEntity
  8
AM_0
100
AcDbSpline
210
0.0
220
0.0
230
1.0
 70
     8
 71
     3
 72
     8
 73
     4
 74
     0
 42
0.0000000001
 43
0.0000000001
 40
0.0
 40
0.0
 40
0.0
 40
0.0
 40
2.093133798227362
 40
2.093133798227362
 40
2.093133798227362
 40
2.093133798227362
 10
-8.256363636363589
 20
-3.998111143126186
 30
0.0
 10
-7.653794815661885
 20
-3.999999999999954
 30
0.0
 10
-7.072256175749936
 20
-3.922187644796167
 30
0.0
 10
-6.507599587295482
 20
-3.781911148288554
 30
0.0
  0
SPLINE
  5
17E0
330
1F
100
AcDbEntity
  8
AM_0
100
AcDbSpline
210
0.0
220
0.0
230
1.0
 70
     8
 71
     3
 72
     8
 73
     4
 74
     0
 42
0.0000000001
 43
0.0000000001
 40
0.0
 40
0.0
 40
0.0
 40
0.0
 40
3.977355368879245
 40
3.977355368879245
 40
3.977355368879245
 40
3.977355368879245
 10
-15.11761654328649
 20
-3.801115293128487
 30
0.0
 10
-13.97262030073048
 20
-3.801115293128668
 30
0.0
 10
-12.8981089576077
 20
-3.528251445303021
 30
0.0
 10
-11.86737530150613
 20
-3.08591373533859
 30
0.0
  0
SPLINE
  5
17E1
330
1F
100
AcDbEntity
  8
AM_0
100
AcDbSpline
210
0.0
220
0.0
230
1.0
 70
     8
 71
     3
 72
     8
 73
     4
 74
     0
 42
0.0000000001
 43
0.0000000001
 40
0.150648776844293
 40
0.150648776844293
 40
0.150648776844293
 40
0.150648776844293
 40
6.420166228128741
 40
6.420166228128741
 40
6.420166228128741
 40
6.420166228128741
 10
-13.96578574472493
 20
-3.447630749401362
 30
0.0
 10
-15.76324528459437
 20
-3.396118625742087
 30
0.0
 10
-17.4110961903639
 20
-2.739441472202673
 30
0.0
 10
-19.0
 20
-1.844324061470933
 30
0.0
  0
SPLINE
  5
17E2
330
1F
100
AcDbEntity
  8
AM_0
100
AcDbSpline
210
0.0
220
0.0
230
1.0
 70
     8
 71
     3
 72
     8
 73
     4
 74
     0
 42
0.0000000001
 43
0.0000000001
 40
0.0
 40
0.0
 40
0.0
 40
0.0
 40
2.4079390838223
 40
2.4079390838223
 40
2.4079390838223
 40
2.4079390838223
 10
-13.96578574472493
 20
-3.447630749401362
 30
0.0
 10
-13.40248498301211
 20
-3.441757596425258
 30
0.0
 10
-12.7317417948467
 20
-3.34265643228814
 30
0.0
 10
-12.07825241061403
 20
-3.173763849792203
 30
0.0
  0
LINE
  5
1818
330
1F
100
AcDbEntity
  8
AM_0
100
AcDbLine
 10
-80.0
 20
3.599999999999968
 30
0.0
 11
-79.5
 21
3.999999999999968
 31
0.0
1001
GENIUS_GENFIL_13
1070
     0
1040
0.5
1040
0.5
1040
20.0
1040
0.0
1002
{
1002
}
1001
GENIUS_GENODEF_13
1002
{
1000
HIER
1070
     0
1002
}
1002
{
1000
MANEDIT
1070
     0
1002
}
1002
{
1000
NOSEL
1070
     0
1002
}
1002
{
1000
BEHIND
1070
     0
1002
}
1002
{
1000
REACTOR
1002
}
1001
GENIUS_GENOBJ-N-CHA_13
1002
{
1000
OWNER
1000
GEN
1002
}
  0
LINE
  5
1819
330
1F
100
AcDbEntity
  8
AM_0
100
AcDbLine
 10
-79.99999999999999
 20
-3.60000000000003
 30
0.0
 11
-79.49999999999999
 21
-4.000000000000031
 31
0.0
1001
GENIUS_GENFIL_13
1070
     0
1040
0.5
1040
0.5
1040
20.0
1040
0.0
1002
{
1002
}
1001
GENIUS_GENODEF_13
1002
{
1000
HIER
1070
     0
1002
}
1002
{
1000
MANEDIT
1070
     0
1002
}
1002
{
1000
NOSEL
1070
     0
1002
}
1002
{
1000
BEHIND
1070
     0
1002
}
1002
{
1000
REACTOR
1002
}
1001
GENIUS_GENOBJ-N-CHA_13
1002
{
1000
OWNER
1000
GEN
1002
}
  0
LINE
  5
181A
330
1F
100
AcDbEntity
  8
AM_0
100
AcDbLine
 10
-80.0
 20
3.599999999999968
 30
0.0
 11
-79.99999999999999
 21
-3.60000000000003
 31
0.0
  0
LINE
  5
181B
330
1F
100
AcDbEntity
  8
AM_0
100
AcDbLine
 10
-79.5
 20
-3.996074572725877
 30
0.0
 11
-79.49999999999999
 21
3.99999999999992
 31
0.0
  0
LINE
  5
182B
330
1F
100
AcDbEntity
  8
AM_0
100
AcDbLine
 10
-17.15839640839774
 20
-4.000000000000005
 30
0.0
 11
-79.49999999999999
 21
-4.000000000000031
 31
0.0
1001
GENIUS_GENODEF_13
1002
{
1000
HIER
1070
     0
1002
}
1002
{
1000
MANEDIT
1070
     0
1002
}
1002
{
1000
NOSEL
1070
     0
1002
}
1002
{
1000
BEHIND
1070
     0
1002
}
1002
{
1000
REACTOR
1002
}
1001
GENIUS_GENOBJ-N-CEN_13
1002
{
1000
OWNER
1000
GEN
1002
}
  0
LINE
  5
182C
330
1F
100
AcDbEntity
  8
AM_0
100
AcDbLine
 10
-22.32130004228414
 20
3.999999999999991
 30
0.0
 11
-79.5
 21
3.999999999999968
 31
0.0
1001
GENIUS_GENODEF_13
1002
{
1000
HIER
1070
     0
1002
}
1002
{
1000
MANEDIT
1070
     0
1002
}
1002
{
1000
NOSEL
1070
     0
1002
}
1002
{
1000
BEHIND
1070
     0
1002
}
1002
{
1000
REACTOR
1002
}
1001
GENIUS_GENOBJ-N-CEN_13
1002
{
1000
OWNER
1000
GEN
1002
}
  0
LINE
  5
182D
330
1F
100
AcDbEntity
  8
AM_7
  6
AM_ISO08W050X2
100
AcDbLine
 10
1.359387866068459
 20
0.000000000000002
 30
0.0
 11
-82.59314155754916
 21
-0.0000000000000325
 31
0.0
1001
GENIUS_GENODEF_13
1002
{
1000
HIER
1070
     0
1002
}
1002
{
1000
MANEDIT
1070
     0
1002
}
1002
{
1000
NOSEL
1070
     0
1002
}
1002
{
1000
BEHIND
1070
     0
1002
}
1002
{
1000
REACTOR
1002
}
1001
GENIUS_GENOBJ-N-CEN_13
1002
{
1000
OWNER
1000
GEN
1002
}
  0
LINE
  5
1870
330
1F
100
AcDbEntity
  8
AM_11
100
AcDbLine
 10
0.0
 20
4.0000000000005
 30
0.0
 11
0.0
 21
-4.000000000000499
 31
0.0
  0
DIMENSION
  5
1878
330
1F
100
AcDbEntity
  8
AM_5
100
AcDbDimension
  2
*D7
 10
15.35938886606845
 20
-4.000000000000504
 30
0.0
 11
15.35938886606845
 21
-0.0000000000000014
 31
0.0
 70
   160
  1
%%c<>
  3
AM_JIS
100
AcDbAlignedDimension
 13
-0.3000000000000001
 23
4.0000000000005
 33
0.0
 14
-0.3
 24
-4.0000000000005
 34
0.0
 50
90.0
100
AcDbRotatedDimension
1001
GENIUS_GENDTOL_13
1000

1000
h7
1000

1040
0.0
  0
SPLINE
  5
1977
330
1F
100
AcDbEntity
  8
AM_0
100
AcDbSpline
210
0.0
220
0.0
230
1.0
 70
     8
 71
     3
 72
     8
 73
     4
 74
     0
 42
0.0000000001
 43
0.0000000001
 40
3.448550203704661
 40
3.448550203704661
 40
3.448550203704661
 40
3.448550203704661
 40
4.066976460604845
 40
4.066976460604845
 40
4.066976460604845
 40
4.066976460604845
 10
-2.677795803157096
 20
4.0000000000005
 30
0.0
 10
-2.944741748745586
 20
3.662762866929178
 30
0.0
 10
-3.199656497520773
 20
3.498276187557456
 30
0.0
 10
-3.477359680684251
 20
3.231294712413137
 30
0.0
  0
ARC
  5
19F8
330
1F
100
AcDbEntity
  8
AM_0
100
AcDbCircle
 10
-0.3
 20
3.7000000000005
 30
0.0
 40
0.3
100
AcDbArc
 50
0.0
 51
90.0
1001
GENIUS_GENODEF_13
1002
{
1000
HIER
1070
     0
1002
}
1002
{
1000
MANEDIT
1070
     0
1002
}
1002
{
1000
NOSEL
1070
     0
1002
}
1002
{
1000
BEHIND
1070
     0
1002
}
1002
{
1000
REACTOR
1002
}
1001
GENIUS_GENOBJ-N-FIL_13
1002
{
1000
OWNER
1000
GEN
1002
}
  0
ARC
  5
19FB
330
1F
100
AcDbEntity
  8
AM_0
100
AcDbCircle
 10
-0.3
 20
-3.700000000000491
 30
0.0
 40
0.3
100
AcDbArc
 50
269.9999999999983
 51
0.0
1001
GENIUS_GENODEF_13
1002
{
1000
HIER
1070
     0
1002
}
1002
{
1000
MANEDIT
1070
     0
1002
}
1002
{
1000
NOSEL
1070
     0
1002
}
1002
{
1000
BEHIND
1070
     0
1002
}
1002
{
1000
REACTOR
1002
}
1001
GENIUS_GENOBJ-N-FIL_13
1002
{
1000
OWNER
1000
GEN
1002
}
  0
DIMENSION
  5
1A19
330
1F
100
AcDbEntity
  8
AM_5
100
AcDbDimension
  2
*D8
 10
-0.3000000000000014
 20
-3.700000000000487
 30
0.0
 11
10.78420860690119
 21
-8.686860496202907
 31
0.0
 70
    36
  1
<>
  3
AM_JIS$4
100
AcDbRadialDimension
 15
-0.0668562115629081
 25
-3.888796117315439
 35
0.0
 40
0.0
1001
GENIUS_GENDTOL_13
1000

1000
h7
1000

1040
0.0
1001
ACAD
1000
DSTYLE
1002
{
1070
   287
1070
     3
1070
   271
1070
     3
1070
   288
1070
     1
1070
   289
1070
     3
1070
   172
1070
     1
1070
    74
1070
     0
1002
}
  0
DIMENSION
  5
1AF8
330
1F
100
AcDbEntity
  8
AM_5
100
AcDbDimension
  2
*D9
 10
-94.00000099999999
 20
3.999999999999984
 30
0.0
 11
-94.00000099999999
 21
-0.0000000000000362
 31
0.0
 70
   160
  1
%%c<>
  3
AM_JIS
100
AcDbAlignedDimension
 13
-79.49999999999999
 23
-4.000000000000031
 33
0.0
 14
-79.49999999999999
 24
3.99999999999998
 34
0.0
 50
270.0000000000001
100
AcDbRotatedDimension
1001
GENIUS_GENDTOL_13
1000

1000
h7
1000

1040
0.0
  0
VIEWPORT
  5
110
330
101
100
AcDbEntity
 67
     1
  8
0
100
AcDbViewport
 10
420.5
 20
297.0
 30
0.0
 40
948.9782706766916
 41
628.452
 68
     1
 69
     1
1001
ACAD
1000
MVIEW
1002
{
1070
    16
1010
0.0
1020
0.0
1030
0.0
1010
0.0
1020
0.0
1030
1.0
1040
0.0
1040
628.452
1040
420.5
1040
297.0
1040
50.0
1040
0.0
1040
0.0
1070
     0
1070
   100
1070
     1
1070
     1
1070
     0
1070
     0
1070
     0
1070
     0
1040
0.0
1040
0.0
1040
0.0
1040
10.0
1040
10.0
1040
10.0
1040
10.0
1070
     0
1002
{
1002
}
1002
}
  0
ENDSEC
  0
SECTION
  2
OBJECTS
  0
DICTIONARY
  5
C
330
0
100
AcDbDictionary
  3
ACAD_GROUP
350
D
  3
ACAD_LAYOUT
350
1A
  3
ACAD_MLINESTYLE
350
17
  3
ACAD_PLOTSETTINGS
350
19
  3
ACAD_PLOTSTYLENAME
350
E
  3
ACDBVARIABLEDICTIONARY
350
34
  3
ACMDICTIONARY
350
43
  3
AMG
350
2B
  3
AMGSNAPSETTINGS
350
6E
  3
DWGPROPS
350
1BA5
  3
ACDBHEADERROUNDTRIPXREC
350
1BB1
  0
DICTIONARY
  5
74
330
1F
100
AcDbDictionary
280
     1
  3
ACAD_SORTENTS
360
19F7
  3
ACAD_INDEX
360
1BA7
  3
ACAD_LAYOUTSELFREF
360
1BD4
  0
DICTIONARY
  5
1BD9
330
101
100
AcDbDictionary
280
     1
  3
ACAD_LAYOUTSELFREF
360
1BDA
  0
DICTIONARY
  5
D
102
{ACAD_REACTORS
330
C
102
}
330
C
100
AcDbDictionary
  0
DICTIONARY
  5
1A
102
{ACAD_REACTORS
330
C
102
}
330
C
100
AcDbDictionary
  0
DICTIONARY
  5
17
102
{ACAD_REACTORS
330
C
102
}
330
C
100
AcDbDictionary
  3
STANDARD
350
18
  0
DICTIONARY
  5
19
102
{ACAD_REACTORS
330
C
102
}
330
C
100
AcDbDictionary
  0
ACDBDICTIONARYWDFLT
  5
E
102
{ACAD_REACTORS
330
C
102
}
330
C
100
AcDbDictionary
281
     1
  3
Normal
350
F
100
AcDbDictionaryWithDefault
340
F
  0
DICTIONARY
  5
34
102
{ACAD_REACTORS
330
C
102
}
330
C
100
AcDbDictionary
  3
INDEXCTL
350
35
  3
SORTENTS
350
B5E
  0
DICTIONARY
  5
43
102
{ACAD_REACTORS
330
C
102
}
330
C
100
AcDbDictionary
  3
ACMSTDDICTIONARY
350
260
  0
DICTIONARY
  5
2B
102
{ACAD_REACTORS
330
C
102
}
330
C
100
AcDbDictionary
  3
ACMGSETTINGS
350
2C
  0
DICTIONARY
  5
6E
102
{ACAD_REACTORS
330
C
102
}
330
C
100
AcDbDictionary
  0
XRECORD
  5
1BA5
102
{ACAD_REACTORS
330
C
102
}
330
C
100
AcDbXrecord
  1
DWGPROPS COOKIE
  2

  3

  4

  6

  7

  8

  9

300
AmdtFileType=82
301
=
302
=
303
=
304
=
305
=
306
=
307
=
308
=
309
=
 40
0.0446923726851852
 41
2452809.403188831
 42
2452844.450454455
  1

 90
        1
  0
DICTIONARY
  5
1BB1
102
{ACAD_REACTORS
330
C
102
}
330
C
100
AcDbDictionary
  3
TSTACKALIGN
350
1BB2
  3
TSTACKSIZE
350
1BB3
  3
HYPERLINKBASE
350
1BB4
  3
STYLESHEET
350
1BB5
  3
LAYOUTDICT
350
1BB6
  3
PLOTSETDICT
350
1BB7
  3
PLOTSTYLNAMDICT
350
1BB8
  3
LWETCUNION
350
1BB9
  3
INSUNITS
350
1BBA
  3
CEPSNTYPE
350
1BBB
  3
FINGERPRINTGUID
350
1BBC
  3
VERSIONGUID
350
1BBD
  3
PSVPSCALE
350
1BBE
  3
DIMSTYLEDATA
350
1BBF
  3
PUCSORTHOREF
350
1BC0
  3
PUCSORTHOVIEW
350
1BC1
  3
PUCSBASE
350
1BC2
  3
PUCSORGTOP
350
1BC3
  3
PUCSORGBOTTOM
350
1BC4
  3
PUCSORGLEFT
350
1BC5
  3
PUCSORGRIGHT
350
1BC6
  3
PUCSORGFRONT
350
1BC7
  3
PUCSORGBACK
350
1BC8
  3
UCSORTHOREF
350
1BC9
  3
UCSORTHOVIEW
350
1BCA
  3
UCSBASE
350
1BCB
  3
UCSORGTOP
350
1BCC
  3
UCSORGBOTTOM
350
1BCD
  3
UCSORGLEFT
350
1BCE
  3
UCSORGRIGHT
350
1BCF
  3
UCSORGFRONT
350
1BD0
  3
UCSORGBACK
350
1BD1
  0
SORTENTSTABLE
  5
19F7
102
{ACAD_REACTORS
330
74
102
}
330
74
100
AcDbSortentsTable
330
1F
331
1796
  5
1796
331
1792
  5
1792
331
178E
  5
178E
331
17DC
  5
17DB
331
17D8
  5
17D7
331
17D4
  5
17D3
331
17D0
  5
17CF
331
17CC
  5
17CB
331
182B
  5
181B
331
17A5
  5
17A5
331
17C8
  5
17C7
331
181B
  5
181A
331
1795
  5
1795
331
17DF
  5
17DE
331
1791
  5
1791
331
17DB
  5
17DA
331
178D
  5
178D
331
17D7
  5
17D6
331
17D3
  5
17D2
331
17A8
  5
17A7
331
17CF
  5
17CE
331
17CB
  5
17CA
331
17C7
  5
17C6
331
181A
  5
1819
331
17E2
  5
17E1
331
1798
  5
1798
331
D39
  5
D39
331
1794
  5
1794
331
1790
  5
1790
331
17DE
  5
17DD
331
178C
  5
178C
331
17DA
  5
17D9
331
17D6
  5
17D5
331
17D2
  5
17D1
331
17CE
  5
17CD
331
182D
  5
182C
331
17A7
  5
17A6
331
17CA
  5
17C9
331
17C6
  5
17A8
331
1819
  5
1818
331
17E1
  5
17E0
331
1878
  5
1870
331
1797
  5
1797
331
1793
  5
1793
331
17DD
  5
17DC
331
178F
  5
178F
331
178B
  5
178B
331
17D9
  5
17D8
331
F17
  5
F17
331
17D5
  5
17D4
331
17D1
  5
17D0
331
1870
  5
182D
331
182C
  5
182B
331
17CD
  5
17CC
331
17A6
  5
1977
331
1977
  5
1878
331
17C9
  5
17C8
331
1818
  5
17E2
331
17E0
  5
17DF
  0
DICTIONARY
  5
1BA7
102
{ACAD_REACTORS
330
74
102
}
330
74
100
AcDbDictionary
  3
*A1
350
1BA8
  0
XRECORD
  5
1BD4
102
{ACAD_REACTORS
330
74
102
}
330
74
100
AcDbXrecord
340
1F
  0
XRECORD
  5
1BDA
102
{ACAD_REACTORS
330
1BD9
102
}
330
1BD9
100
AcDbXrecord
340
101
  0
MLINESTYLE
  5
18
102
{ACAD_REACTORS
330
17
102
}
330
17
100
AcDbMlineStyle
  2
STANDARD
 70
     0
  3

 62
   256
 51
90.0
 52
90.0
 71
     2
 49
0.5
 62
   256
  6
BYLAYER
 49
-0.5
 62
   256
  6
BYLAYER
  0
ACDBPLACEHOLDER
  5
F
102
{ACAD_REACTORS
330
E
102
}
330
E
100
AcDbPlaceHolder
280
     0
  0
DICTIONARYVAR
  5
35
102
{ACAD_REACTORS
330
34
102
}
330
34
100
DictionaryVariables
280
     0
  1
1
  0
DICTIONARYVAR
  5
B5E
102
{ACAD_REACTORS
330
34
102
}
330
34
100
DictionaryVariables
280
     0
  1
127
  0
DICTIONARY
  5
260
102
{ACAD_REACTORS
330
43
102
}
330
43
100
AcDbDictionary
  0
DICTIONARY
  5
2C
102
{ACAD_REACTORS
330
2B
102
}
330
2B
100
AcDbDictionary
  3
DWGSETTINGS
350
2D
  0
XRECORD
  5
1BB2
102
{ACAD_REACTORS
330
1BB1
102
}
330
1BB1
100
AcDbXrecord
 90
        1
  0
XRECORD
  5
1BB3
102
{ACAD_REACTORS
330
1BB1
102
}
330
1BB1
100
AcDbXrecord
 90
       70
  0
XRECORD
  5
1BB4
102
{ACAD_REACTORS
330
1BB1
102
}
330
1BB1
100
AcDbXrecord
  1

  0
XRECORD
  5
1BB5
102
{ACAD_REACTORS
330
1BB1
102
}
330
1BB1
100
AcDbXrecord
  1
ASAMI.ctb
  0
XRECORD
  5
1BB6
102
{ACAD_REACTORS
330
1BB1
102
}
330
1BB1
100
AcDbXrecord
340
1A
  0
XRECORD
  5
1BB7
102
{ACAD_REACTORS
330
1BB1
102
}
330
1BB1
100
AcDbXrecord
340
19
  0
XRECORD
  5
1BB8
102
{ACAD_REACTORS
330
1BB1
102
}
330
1BB1
100
AcDbXrecord
340
E
  0
XRECORD
  5
1BB9
102
{ACAD_REACTORS
330
1BB1
102
}
330
1BB1
100
AcDbXrecord
 90
    10781
  0
XRECORD
  5
1BBA
102
{ACAD_REACTORS
330
1BB1
102
}
330
1BB1
100
AcDbXrecord
 90
        4
  0
XRECORD
  5
1BBB
102
{ACAD_REACTORS
330
1BB1
102
}
330
1BB1
100
AcDbXrecord
 90
        0
  0
XRECORD
  5
1BBC
102
{ACAD_REACTORS
330
1BB1
102
}
330
1BB1
100
AcDbXrecord
  1
{AFB28963-8C59-40AE-9337-C84526B81ACE}
  0
XRECORD
  5
1BBD
102
{ACAD_REACTORS
330
1BB1
102
}
330
1BB1
100
AcDbXrecord
  1
{5C3C40A6-7912-4062-8C7E-0B7445D246F4}
  0
XRECORD
  5
1BBE
102
{ACAD_REACTORS
330
1BB1
102
}
330
1BB1
100
AcDbXrecord
 40
0.0
  0
XRECORD
  5
1BBF
102
{ACAD_REACTORS
330
1BB1
102
}
330
1BB1
100
AcDbXrecord
1000
DSTYLE
1002
{
1070
    79
 70
     2
1070
   341
340
59
1070
   342
340
59
1070
   371
 70
    -1
1070
   372
 70
    -1
1002
}
  0
XRECORD
  5
1BC0
102
{ACAD_REACTORS
330
1BB1
102
}
330
1BB1
100
AcDbXrecord
340
0
  0
XRECORD
  5
1BC1
102
{ACAD_REACTORS
330
1BB1
102
}
330
1BB1
100
AcDbXrecord
 70
     0
  0
XRECORD
  5
1BC2
102
{ACAD_REACTORS
330
1BB1
102
}
330
1BB1
100
AcDbXrecord
340
0
  0
XRECORD
  5
1BC3
102
{ACAD_REACTORS
330
1BB1
102
}
330
1BB1
100
AcDbXrecord
 10
0.0
 20
0.0
 30
0.0
  0
XRECORD
  5
1BC4
102
{ACAD_REACTORS
330
1BB1
102
}
330
1BB1
100
AcDbXrecord
 10
0.0
 20
0.0
 30
0.0
  0
XRECORD
  5
1BC5
102
{ACAD_REACTORS
330
1BB1
102
}
330
1BB1
100
AcDbXrecord
 10
0.0
 20
0.0
 30
0.0
  0
XRECORD
  5
1BC6
102
{ACAD_REACTORS
330
1BB1
102
}
330
1BB1
100
AcDbXrecord
 10
0.0
 20
0.0
 30
0.0
  0
XRECORD
  5
1BC7
102
{ACAD_REACTORS
330
1BB1
102
}
330
1BB1
100
AcDbXrecord
 10
0.0
 20
0.0
 30
0.0
  0
XRECORD
  5
1BC8
102
{ACAD_REACTORS
330
1BB1
102
}
330
1BB1
100
AcDbXrecord
 10
0.0
 20
0.0
 30
0.0
  0
XRECORD
  5
1BC9
102
{ACAD_REACTORS
330
1BB1
102
}
330
1BB1
100
AcDbXrecord
340
0
  0
XRECORD
  5
1BCA
102
{ACAD_REACTORS
330
1BB1
102
}
330
1BB1
100
AcDbXrecord
 70
     0
  0
XRECORD
  5
1BCB
102
{ACAD_REACTORS
330
1BB1
102
}
330
1BB1
100
AcDbXrecord
340
0
  0
XRECORD
  5
1BCC
102
{ACAD_REACTORS
330
1BB1
102
}
330
1BB1
100
AcDbXrecord
 10
0.0
 20
0.0
 30
0.0
  0
XRECORD
  5
1BCD
102
{ACAD_REACTORS
330
1BB1
102
}
330
1BB1
100
AcDbXrecord
 10
0.0
 20
0.0
 30
0.0
  0
XRECORD
  5
1BCE
102
{ACAD_REACTORS
330
1BB1
102
}
330
1BB1
100
AcDbXrecord
 10
0.0
 20
0.0
 30
0.0
  0
XRECORD
  5
1BCF
102
{ACAD_REACTORS
330
1BB1
102
}
330
1BB1
100
AcDbXrecord
 10
0.0
 20
0.0
 30
0.0
  0
XRECORD
  5
1BD0
102
{ACAD_REACTORS
330
1BB1
102
}
330
1BB1
100
AcDbXrecord
 10
0.0
 20
0.0
 30
0.0
  0
XRECORD
  5
1BD1
102
{ACAD_REACTORS
330
1BB1
102
}
330
1BB1
100
AcDbXrecord
 10
0.0
 20
0.0
 30
0.0
  0
LAYER_INDEX
  5
1BA8
102
{ACAD_REACTORS
330
1BA7
102
}
330
1BA7
100
AcDbIndex
 40
2452844.461867037
100
AcDbLayerIndex
  8
0
360
1BA9
 90
        0
  8
AM_0
360
1BAA
 90
       52
  8
AM_11
360
1BAB
 90
        4
  8
AM_7
360
1BAC
 90
        1
  8
AM_5
360
1BAD
 90
        5
  8
Defpoints
360
1BAE
 90
        0
  8
AM_6
360
1BAF
 90
        1
  0
XRECORD
  5
2D
102
{ACAD_REACTORS
330
2C
102
}
330
2C
100
AcDbXrecord
  1
VERSION
140
15.0
  1
PRODUCT
  2
AutoCAD Mechanical 2000
  0
IDBUFFER
  5
1BA9
330
0
100
AcDbIdBuffer
  0
IDBUFFER
  5
1BAA
330
0
100
AcDbIdBuffer
330
182C
330
1977
330
19F8
330
19FB
330
178B
330
178C
330
178D
330
178E
330
178F
330
1791
330
1792
330
1793
330
1794
330
1795
330
1796
330
17A5
330
17A6
330
17A8
330
17C6
330
17C7
330
17C8
330
17C9
330
17CA
330
17CB
330
17CC
330
17CD
330
17CE
330
17CF
330
17D0
330
17D1
330
17D2
330
17D3
330
17D4
330
17D5
330
17D6
330
17D7
330
17D8
330
17D9
330
17DA
330
17DB
330
17DC
330
17DD
330
17DE
330
17DF
330
17E0
330
17E1
330
17E2
330
1818
330
1819
330
181A
330
181B
330
182B
  0
IDBUFFER
  5
1BAB
330
0
100
AcDbIdBuffer
330
1790
330
1797
330
17A7
330
1870
  0
IDBUFFER
  5
1BAC
330
0
100
AcDbIdBuffer
330
182D
  0
IDBUFFER
  5
1BAD
330
0
100
AcDbIdBuffer
330
D39
330
1798
330
1878
330
1A19
330
1AF8
  0
IDBUFFER
  5
1BAE
330
0
100
AcDbIdBuffer
  0
IDBUFFER
  5
1BAF
330
0
100
AcDbIdBuffer
330
F17
  0
ENDSEC
  0
EOF
