  0
SECTION
  2
HEADER
  9
$ACADVER
  1
AC1014
  9
$ACADMAINTVER
 70
     9
  9
$DWGCODEPAGE
  3
ANSI_932
  9
$INSBASE
 10
0.0
 20
0.0
 30
0.0
  9
$EXTMIN
 10
-108.7
 20
-53.45737454659733
 30
-0.00000001
  9
$EXTMAX
 10
15.0024880283955
 20
9.99999999999998
 30
0.00000001
  9
$LIMMIN
 10
-114.4753133135285
 20
-57.57747175695076
  9
$LIMMAX
 10
27.66774971894131
 20
27.99944277463623
  9
$ORTHOMODE
 70
     0
  9
$REGENMODE
 70
     1
  9
$FILLMODE
 70
     1
  9
$QTEXTMODE
 70
     0
  9
$MIRRTEXT
 70
     0
  9
$DRAGMODE
 70
     2
  9
$LTSCALE
 40
1.0
  9
$OSMODE
 70
  2103
  9
$ATTMODE
 70
     1
  9
$TEXTSIZE
 40
2.5
  9
$TRACEWID
 40
1.0
  9
$TEXTSTYLE
  7
STANDARD
  9
$CLAYER
  8
AM_0
  9
$CELTYPE
  6
BYLAYER
  9
$CECOLOR
 62
   256
  9
$CELTSCALE
 40
1.0
  9
$DELOBJ
 70
     1
  9
$DISPSILH
 70
     0
  9
$DIMSCALE
 40
1.0
  9
$DIMASZ
 40
2.5
  9
$DIMEXO
 40
1.0
  9
$DIMDLI
 40
12.0
  9
$DIMRND
 40
0.0
  9
$DIMDLE
 40
0.0
  9
$DIMEXE
 40
1.0
  9
$DIMTP
 40
0.1
  9
$DIMTM
 40
0.1
  9
$DIMTXT
 40
3.2
  9
$DIMCEN
 40
0.0
  9
$DIMTSZ
 40
0.0
  9
$DIMTOL
 70
     0
  9
$DIMLIM
 70
     0
  9
$DIMTIH
 70
     0
  9
$DIMTOH
 70
     0
  9
$DIMSE1
 70
     0
  9
$DIMSE2
 70
     0
  9
$DIMTAD
 70
     3
  9
$DIMZIN
 70
     8
  9
$DIMBLK
  1
OPEN30
  9
$DIMASO
 70
     1
  9
$DIMSHO
 70
     1
  9
$DIMPOST
  1

  9
$DIMAPOST
  1
"
  9
$DIMALT
 70
     0
  9
$DIMALTD
 70
     2
  9
$DIMALTF
 40
0.0393701
  9
$DIMLFAC
 40
1.0
  9
$DIMTOFL
 70
     1
  9
$DIMTVP
 40
0.0
  9
$DIMTIX
 70
     0
  9
$DIMSOXD
 70
     0
  9
$DIMSAH
 70
     0
  9
$DIMBLK1
  1

  9
$DIMBLK2
  1

  9
$DIMSTYLE
  2
AM_JIS
  9
$DIMCLRD
 70
   256
  9
$DIMCLRE
 70
   256
  9
$DIMCLRT
 70
     2
  9
$DIMTFAC
 40
0.71
  9
$DIMGAP
 40
1.5
  9
$DIMJUST
 70
     0
  9
$DIMSD1
 70
     0
  9
$DIMSD2
 70
     0
  9
$DIMTOLJ
 70
     0
  9
$DIMTZIN
 70
     0
  9
$DIMALTZ
 70
     0
  9
$DIMALTTZ
 70
     0
  9
$DIMFIT
 70
     3
  9
$DIMUPT
 70
     0
  9
$DIMUNIT
 70
     2
  9
$DIMDEC
 70
     3
  9
$DIMTDEC
 70
     3
  9
$DIMALTU
 70
     2
  9
$DIMALTTD
 70
     2
  9
$DIMTXSTY
  7
ASAMI
  9
$DIMAUNIT
 70
     0
  9
$LUNITS
 70
     2
  9
$LUPREC
 70
     2
  9
$SKETCHINC
 40
1.0
  9
$FILLETRAD
 40
2.5
  9
$AUNITS
 70
     0
  9
$AUPREC
 70
     0
  9
$MENU
  1
.
  9
$ELEVATION
 40
0.0
  9
$PELEVATION
 40
0.0
  9
$THICKNESS
 40
0.0
  9
$LIMCHECK
 70
     0
  9
$BLIPMODE
 70
     0
  9
$CHAMFERA
 40
0.5
  9
$CHAMFERB
 40
0.5
  9
$CHAMFERC
 40
20.0
  9
$CHAMFERD
 40
0.0
  9
$SKPOLY
 70
     0
  9
$TDCREATE
 40
2452809.403188831
  9
$TDUPDATE
 40
2452844.460019167
  9
$TDINDWG
 40
0.0517062847
  9
$TDUSRTIMER
 40
0.0517062847
  9
$USRTIMER
 70
     1
  9
$ANGBASE
 50
0.0
  9
$ANGDIR
 70
     0
  9
$PDMODE
 70
     0
  9
$PDSIZE
 40
0.0
  9
$PLINEWID
 40
0.0
  9
$COORDS
 70
     2
  9
$SPLFRAME
 70
     0
  9
$SPLINETYPE
 70
     6
  9
$SPLINESEGS
 70
     8
  9
$ATTDIA
 70
     1
  9
$ATTREQ
 70
     1
  9
$HANDLING
 70
 12289
  9
$HANDSEED
  5
1945
  9
$SURFTAB1
 70
     6
  9
$SURFTAB2
 70
     6
  9
$SURFTYPE
 70
     6
  9
$SURFU
 70
     6
  9
$SURFV
 70
     6
  9
$UCSNAME
  2

  9
$UCSORG
 10
0.0000000000000003
 20
0.0
 30
0.0
  9
$UCSXDIR
 10
1.0
 20
0.0
 30
0.0
  9
$UCSYDIR
 10
0.0
 20
1.0
 30
0.0
  9
$PUCSNAME
  2

  9
$PUCSORG
 10
0.0
 20
0.0
 30
0.0
  9
$PUCSXDIR
 10
1.0
 20
0.0
 30
0.0
  9
$PUCSYDIR
 10
0.0
 20
1.0
 30
0.0
  9
$USERI1
 70
     0
  9
$USERI2
 70
     0
  9
$USERI3
 70
     0
  9
$USERI4
 70
     0
  9
$USERI5
 70
     0
  9
$USERR1
 40
0.0
  9
$USERR2
 40
0.0
  9
$USERR3
 40
0.0
  9
$USERR4
 40
0.0
  9
$USERR5
 40
0.0
  9
$WORLDVIEW
 70
     1
  9
$SHADEDGE
 70
     3
  9
$SHADEDIF
 70
    70
  9
$TILEMODE
 70
     1
  9
$MAXACTVP
 70
    64
  9
$PINSBASE
 10
0.0
 20
0.0
 30
0.0
  9
$PLIMCHECK
 70
     0
  9
$PEXTMIN
 10
1.000000000000000E+20
 20
1.000000000000000E+20
 30
1.000000000000000E+20
  9
$PEXTMAX
 10
-1.000000000000000E+20
 20
-1.000000000000000E+20
 30
-1.000000000000000E+20
  9
$PLIMMIN
 10
0.0
 20
0.0
  9
$PLIMMAX
 10
841.0
 20
594.0
  9
$UNITMODE
 70
     0
  9
$VISRETAIN
 70
     1
  9
$PLINEGEN
 70
     0
  9
$PSLTSCALE
 70
     0
  9
$TREEDEPTH
 70
  3020
  9
$PICKSTYLE
 70
     0
  9
$CMLSTYLE
  2
STANDARD
  9
$CMLJUST
 70
     0
  9
$CMLSCALE
 40
20.0
  9
$PROXYGRAPHICS
 70
     1
  9
$MEASUREMENT
 70
     1
  0
ENDSEC
  0
SECTION
  2
CLASSES
  0
CLASS
  1
ACDBDICTIONARYWDFLT
  2
AcDbDictionaryWithDefault
  3
AutoCAD 2000
 90
        0
280
     0
281
     0
  0
CLASS
  1
ACDBPLACEHOLDER
  2
AcDbPlaceHolder
  3
AutoCAD 2000
 90
        0
280
     0
281
     0
  0
CLASS
  1
LAYOUT
  2
AcDbLayout
  3
AutoCAD 2000
 90
        0
280
     0
281
     0
  0
CLASS
  1
AMGSETTINGSOBJ
  2
AmgSettingsObj
  3
"AcadM|Product Description: AutoCAD Mechanical 2000|Company: Autodesk"
 90
        0
280
     0
281
     0
  0
CLASS
  1
ACME_DOCUMENT
  2
AcMeDbDoc
  3
AcMeServices
 90
        0
280
     0
281
     0
  0
CLASS
  1
ACMESCOPE
  2
AcMeScope
  3
AcMeServices
 90
        0
280
     0
281
     0
  0
CLASS
  1
ACMECOMMANDHISTORY
  2
AcMeCommandHistory
  3
AcMeServices
 90
        0
280
     0
281
     0
  0
CLASS
  1
DICTIONARYVAR
  2
AcDbDictionaryVar
  3
AutoCAD 2000
 90
        0
280
     0
281
     0
  0
CLASS
  1
ACIMSYSVARMAN
  2
AcImSysVarManager
  3
AcMeServices
 90
        0
280
     0
281
     0
  0
CLASS
  1
ACIMREALSYSVAR
  2
AcImRealSysVar
  3
AcMeServices
 90
        0
280
     0
281
     0
  0
CLASS
  1
ACIMINTSYSVAR
  2
AcImIntSysVar
  3
AcMeServices
 90
        0
280
     0
281
     0
  0
CLASS
  1
ACMEDRAWINGMAN
  2
AcMeDrawingMan
  3
AcMeServices
 90
        0
280
     0
281
     0
  0
CLASS
  1
ACMEVIEW
  2
AcMeView
  3
AcMeServices
 90
        0
280
     0
281
     0
  0
CLASS
  1
ACDBENTITYCACHE
  2
AcMeEntityCache
  3
AcMeServices
 90
        0
280
     0
281
     0
  0
CLASS
  1
GSMANAGER
  2
AcMeGSManager
  3
AcMeServices
 90
        0
280
     0
281
     0
  0
CLASS
  1
AmdtInternalReactor
  2
AmdtInternalReactor
  3
AcMeServices
 90
        0
280
     0
281
     0
  0
CLASS
  1
ACMESTATEMGR
  2
AcMeStateMgr
  3
AcMeServices
 90
        0
280
     0
281
     0
  0
CLASS
  1
ACME_DATABASE
  2
AcMeDbDatabase
  3
AcMeServices
 90
        0
280
     0
281
     0
  0
CLASS
  1
ACRFINSADJUSTERMGR
  2
AcRfInsAdjusterMgr
  3
AcMeServices
 90
        0
280
     0
281
     0
  0
CLASS
  1
ACMDATADICTIONARY
  2
AcmDataDictionary
  3
"AcmSymBB|Product Description: AutoCAD Mechanical 2000|Company: Autodesk"
 90
        0
280
     0
281
     0
  0
CLASS
  1
ACMDATAENTRYBLOCK
  2
AcmDataEntryBlock
  3
"AcmSymBB|Product Description: AutoCAD Mechanical 2000|Company: Autodesk"
 90
        0
280
     0
281
     0
  0
CLASS
  1
AMGOBJPROPCFG
  2
AmgObjPropCfg
  3
"AmgLay|Product Description: AutoCAD Mechanical 2000|Company: Autodesk"
 90
        1
280
     0
281
     0
  0
CLASS
  1
ACAMGFILTERDAT
  2
AcAmgFilterDat
  3
"AcadM|Product Description: AutoCAD Mechanical 2000|Company: Autodesk"
 90
        0
280
     0
281
     0
  0
CLASS
  1
LAYER_INDEX
  2
AcDbLayerIndex
  3
AutoCAD 2000
 90
        0
280
     0
281
     0
  0
CLASS
  1
IDBUFFER
  2
AcDbIdBuffer
  3
AutoCAD 2000
 90
        0
280
     0
281
     0
  0
CLASS
  1
ACIMSTRSYSVAR
  2
AcImStrSysVar
  3
AcMeServices
 90
        0
280
     0
281
     0
  0
CLASS
  1
ACMSTANDARDJIS
  2
AcmStandardJIS
  3
"AcmSymBB|Product Description: AutoCAD Mechanical 2000|Company: Autodesk"
 90
        0
280
     0
281
     0
  0
CLASS
  1
ACMSURFSTANDARDJIS
  2
AcmSurfTextStdJIS
  3
"AcmSymBB|Product Description: AutoCAD Mechanical 2000|Company: Autodesk"
 90
        0
280
     0
281
     0
  0
CLASS
  1
ACMFCFSTANDARDJIS
  2
AcmFCFStdJIS
  3
"AcmSymBB|Product Description: AutoCAD Mechanical 2000|Company: Autodesk"
 90
        0
280
     0
281
     0
  0
CLASS
  1
ACMWELDSTANDARDJIS
  2
AcmWeldingStdJIS
  3
"AcmSymBB|Product Description: AutoCAD Mechanical 2000|Company: Autodesk"
 90
        0
280
     0
281
     0
  0
CLASS
  1
ACMIDSTANDARDJIS
  2
AcmIdStdJIS
  3
"AcmSymBB|Product Description: AutoCAD Mechanical 2000|Company: Autodesk"
 90
        0
280
     0
281
     0
  0
CLASS
  1
ACMDATUMSTANDARDJIS
  2
AcmDatumStdJIS
  3
"AcmSymBB|Product Description: AutoCAD Mechanical 2000|Company: Autodesk"
 90
        0
280
     0
281
     0
  0
CLASS
  1
ACMBOMSTANDARDJIS
  2
AcmBOMStdJIS
  3
"AcmSymBB|Product Description: AutoCAD Mechanical 2000|Company: Autodesk"
 90
        0
280
     0
281
     0
  0
CLASS
  1
ACMSTANDARDANSI
  2
AcmStandardANSI
  3
"AcmSymBB|Product Description: AutoCAD Mechanical 2000|Company: Autodesk"
 90
        0
280
     0
281
     0
  0
CLASS
  1
ACMSURFSTANDARDANSI
  2
AcmSurfTextStdANSI
  3
"AcmSymBB|Product Description: AutoCAD Mechanical 2000|Company: Autodesk"
 90
        0
280
     0
281
     0
  0
CLASS
  1
ACMFCFSTANDARDANSI
  2
AcmFCFStdANSI
  3
"AcmSymBB|Product Description: AutoCAD Mechanical 2000|Company: Autodesk"
 90
        0
280
     0
281
     0
  0
CLASS
  1
ACMWELDSTANDARDANSI
  2
AcmWeldingStdANSI
  3
"AcmSymBB|Product Description: AutoCAD Mechanical 2000|Company: Autodesk"
 90
        0
280
     0
281
     0
  0
CLASS
  1
ACMIDSTANDARDANSI
  2
AcmIdStdANSI
  3
"AcmSymBB|Product Description: AutoCAD Mechanical 2000|Company: Autodesk"
 90
        0
280
     0
281
     0
  0
CLASS
  1
ACMDATUMSTANDARDANSI
  2
AcmDatumStdANSI
  3
"AcmSymBB|Product Description: AutoCAD Mechanical 2000|Company: Autodesk"
 90
        0
280
     0
281
     0
  0
CLASS
  1
ACMBOMSTANDARDANSI
  2
AcmBOMStdANSI
  3
"AcmSymBB|Product Description: AutoCAD Mechanical 2000|Company: Autodesk"
 90
        0
280
     0
281
     0
  0
CLASS
  1
ACMSTANDARDBSI
  2
AcmStandardBSI
  3
"AcmSymBB|Product Description: AutoCAD Mechanical 2000|Company: Autodesk"
 90
        0
280
     0
281
     0
  0
CLASS
  1
ACMSURFSTANDARDBSI
  2
AcmSurfTextStdBSI
  3
"AcmSymBB|Product Description: AutoCAD Mechanical 2000|Company: Autodesk"
 90
        0
280
     0
281
     0
  0
CLASS
  1
ACMFCFSTANDARDBSI
  2
AcmFCFStdBSI
  3
"AcmSymBB|Product Description: AutoCAD Mechanical 2000|Company: Autodesk"
 90
        0
280
     0
281
     0
  0
CLASS
  1
ACMWELDSTANDARDBSI
  2
AcmWeldingStdBSI
  3
"AcmSymBB|Product Description: AutoCAD Mechanical 2000|Company: Autodesk"
 90
        0
280
     0
281
     0
  0
CLASS
  1
ACMIDSTANDARDBSI
  2
AcmIdStdBSI
  3
"AcmSymBB|Product Description: AutoCAD Mechanical 2000|Company: Autodesk"
 90
        0
280
     0
281
     0
  0
CLASS
  1
ACMDATUMSTANDARDBSI
  2
AcmDatumStdBSI
  3
"AcmSymBB|Product Description: AutoCAD Mechanical 2000|Company: Autodesk"
 90
        0
280
     0
281
     0
  0
CLASS
  1
ACMBOMSTANDARDBSI
  2
AcmBOMStdBSI
  3
"AcmSymBB|Product Description: AutoCAD Mechanical 2000|Company: Autodesk"
 90
        0
280
     0
281
     0
  0
CLASS
  1
LONG_TRANSACTION
  2
AcDbLongTransaction
  3
AutoCAD 2000
 90
        0
280
     0
281
     0
  0
CLASS
  1
LWPOLYLINE
  2
AcDbPolyline
  3
AutoCAD 2000
 90
        0
280
     0
281
     1
  0
CLASS
  1
HATCH
  2
AcDbHatch
  3
AutoCAD 2000
 90
        0
280
     0
281
     1
  0
CLASS
  1
XRECORD
  2
AcDbXrecord
  3
AutoCAD 2000
 90
        0
280
     0
281
     0
  0
ENDSEC
  0
SECTION
  2
TABLES
  0
TABLE
  2
VPORT
  5
8
330
0
100
AcDbSymbolTable
 70
     3
  0
VPORT
  5
191A
330
8
100
AcDbSymbolTableRecord
100
AcDbViewportTableRecord
  2
*ACTIVE
 70
     0
 10
0.0
 20
0.0
 11
1.0
 21
1.0
 12
-46.8523817850168
 22
-21.72934176482195
 13
0.0
 23
0.0
 14
2.5
 24
2.5
 15
10.0
 25
10.0
 16
0.0
 26
0.0
 36
1.0
 17
0.0
 27
0.0
 37
0.0
 40
79.32644109234473
 41
1.56570841889117
 42
50.0
 43
0.0
 44
0.0
 50
0.0
 51
0.0
 71
     0
 72
   100
 73
     1
 74
     3
 75
     0
 76
     0
 77
     0
 78
     0
  0
ENDTAB
  0
TABLE
  2
LTYPE
  5
5
330
0
100
AcDbSymbolTable
 70
    10
  0
LTYPE
  5
14
330
5
100
AcDbSymbolTableRecord
100
AcDbLinetypeTableRecord
  2
BYBLOCK
 70
     0
  3

 72
    65
 73
     0
 40
0.0
  0
LTYPE
  5
15
330
5
100
AcDbSymbolTableRecord
100
AcDbLinetypeTableRecord
  2
BYLAYER
 70
     0
  3

 72
    65
 73
     0
 40
0.0
  0
LTYPE
  5
16
330
5
100
AcDbSymbolTableRecord
100
AcDbLinetypeTableRecord
  2
CONTINUOUS
 70
     0
  3
Solid line
 72
    65
 73
     0
 40
0.0
  0
LTYPE
  5
4B
330
5
100
AcDbSymbolTableRecord
100
AcDbLinetypeTableRecord
  2
AM_ISO02W050
 70
     0
  3
__ __ __ __ __ __ __ __ __ __ __ __ __ __ __
 72
    65
 73
     2
 40
7.5
 49
6.0
 74
     0
 49
-1.5
 74
     0
  0
LTYPE
  5
4C
330
5
100
AcDbSymbolTableRecord
100
AcDbLinetypeTableRecord
  2
AM_ISO08W050
 70
     0
  3
____ . ____ . ____ . ____ . ____ . ____ . ____
 72
    65
 73
     4
 40
18.0
 49
12.0
 74
     0
 49
-1.5
 74
     0
 49
3.0
 74
     0
 49
-1.5
 74
     0
  0
LTYPE
  5
4D
330
5
100
AcDbSymbolTableRecord
100
AcDbLinetypeTableRecord
  2
AM_ISO09W050
 70
     0
  3
_____ . . _____ . . _____ . . ____ .. ____
 72
    65
 73
     6
 40
22.5
 49
12.0
 74
     0
 49
-1.5
 74
     0
 49
3.0
 74
     0
 49
-1.5
 74
     0
 49
3.0
 74
     0
 49
-1.5
 74
     0
  0
LTYPE
  5
4E
330
5
100
AcDbSymbolTableRecord
100
AcDbLinetypeTableRecord
  2
AMCONSTR
 70
     0
  3
_______________________
 72
    65
 73
     2
 40
9999.0
 49
9999.0
 74
     0
 49
0.0
 74
     0
  0
LTYPE
  5
4F
330
5
100
AcDbSymbolTableRecord
100
AcDbLinetypeTableRecord
  2
AM_ISO02W050X2
 70
     0
  3
 _ _ _ _ _ _ _ _ _ _ _ _
 72
    65
 73
     2
 40
3.75
 49
3.0
 74
     0
 49
-0.75
 74
     0
  0
LTYPE
  5
50
330
5
100
AcDbSymbolTableRecord
100
AcDbLinetypeTableRecord
  2
AM_ISO08W050X2
 70
     0
  3
__ . __ . __ . __ . __ . __
 72
    65
 73
     4
 40
9.0
 49
6.0
 74
     0
 49
-0.75
 74
     0
 49
1.5
 74
     0
 49
-0.75
 74
     0
  0
LTYPE
  5
53
330
5
100
AcDbSymbolTableRecord
100
AcDbLinetypeTableRecord
  2
AMZIGZAG
 70
     0
  3
/\/-/\/-/\/-/\/-/\/-/\/
 72
    65
 73
     2
 40
11.00009999999999
 49
0.0001
 74
     4
 75
   135
340
52
 46
0.04
 50
0.0
 44
0.0
 45
0.0
 49
-11.0
 74
     0
  0
LTYPE
  5
166
330
5
100
AcDbSymbolTableRecord
100
AcDbLinetypeTableRecord
  2
ACJISTGL
 70
     0
  3
_ _ _ _ _
 72
    65
 73
     2
 40
3.0
 49
2.0
 74
     0
 49
-1.0
 74
     0
  0
LTYPE
  5
26A
330
5
100
AcDbSymbolTableRecord
100
AcDbLinetypeTableRecord
  2
ACJISTGB
 70
     0
  3
__ . . __ . .
 72
    65
 73
     6
 40
9.0
 49
4.0
 74
     0
 49
-1.0
 74
     0
 49
1.0
 74
     0
 49
-1.0
 74
     0
 49
1.0
 74
     0
 49
-1.0
 74
     0
  0
ENDTAB
  0
TABLE
  2
LAYER
  5
2
330
0
100
AcDbSymbolTable
 70
     7
  0
LAYER
  5
10
330
2
100
AcDbSymbolTableRecord
100
AcDbLayerTableRecord
  2
0
 70
     0
 62
     7
  6
CONTINUOUS
  0
LAYER
  5
3F9
330
2
100
AcDbSymbolTableRecord
100
AcDbLayerTableRecord
  2
AM_0
 70
     0
 62
     7
  6
CONTINUOUS
  0
LAYER
  5
BA4
330
2
100
AcDbSymbolTableRecord
100
AcDbLayerTableRecord
  2
AM_11
 70
     0
 62
     3
  6
AM_ISO09W050
  0
LAYER
  5
BA5
330
2
100
AcDbSymbolTableRecord
100
AcDbLayerTableRecord
  2
AM_7
 70
     0
 62
     4
  6
AM_ISO08W050
  0
LAYER
  5
D38
330
2
100
AcDbSymbolTableRecord
100
AcDbLayerTableRecord
  2
AM_5
 70
     0
 62
     3
  6
CONTINUOUS
  0
LAYER
  5
D3A
330
2
100
AcDbSymbolTableRecord
100
AcDbLayerTableRecord
  2
DEFPOINTS
 70
     0
 62
     7
  6
CONTINUOUS
  0
LAYER
  5
F16
330
2
100
AcDbSymbolTableRecord
100
AcDbLayerTableRecord
  2
AM_6
 70
     0
 62
     2
  6
CONTINUOUS
  0
ENDTAB
  0
TABLE
  2
STYLE
  5
3
330
0
100
AcDbSymbolTable
 70
     5
  0
STYLE
  5
11
330
3
100
AcDbSymbolTableRecord
100
AcDbTextStyleTableRecord
  2
STANDARD
 70
     0
 40
0.0
 41
1.0
 50
0.0
 71
     0
 42
2.5
  3
simplex.shx
  4
EXTFONT.SHX
  0
STYLE
  5
52
330
3
100
AcDbSymbolTableRecord
100
AcDbTextStyleTableRecord
  2

 70
     1
 40
0.0
 41
1.0
 50
0.0
 71
     0
 42
2.5
  3
ltypeshp.shx
  4

  0
STYLE
  5
6B
330
3
100
AcDbSymbolTableRecord
100
AcDbTextStyleTableRecord
  2
ASAMI
 70
     0
 40
0.0
 41
1.0
 50
0.0
 71
     0
 42
2.5
  3
simplex.shx
  4
EXTFONT.SHX
  0
STYLE
  5
262
330
3
100
AcDbSymbolTableRecord
100
AcDbTextStyleTableRecord
  2
ACJISTS
 70
     0
 40
1.0
 41
1.0
 50
0.0
 71
     0
 42
2.5
  3
simplex.shx
  4
bigfont.shx
  0
STYLE
  5
269
330
3
100
AcDbSymbolTableRecord
100
AcDbTextStyleTableRecord
  2
ACJISGDT
 70
     0
 40
0.0
 41
1.0
 50
0.0
 71
     0
 42
2.5
  3
amgdtans.shx
  4

  0
ENDTAB
  0
TABLE
  2
VIEW
  5
6
330
0
100
AcDbSymbolTable
 70
     0
  0
ENDTAB
  0
TABLE
  2
UCS
  5
7
330
0
100
AcDbSymbolTable
 70
     0
  0
ENDTAB
  0
TABLE
  2
APPID
  5
9
330
0
100
AcDbSymbolTable
 70
    12
  0
APPID
  5
12
330
9
100
AcDbSymbolTableRecord
100
AcDbRegAppTableRecord
  2
ACAD
 70
     0
  0
APPID
  5
30
330
9
100
AcDbSymbolTableRecord
100
AcDbRegAppTableRecord
  2
MCAD_NO_VIS
 70
     0
  0
APPID
  5
31
330
9
100
AcDbSymbolTableRecord
100
AcDbRegAppTableRecord
  2
ACAD_TEMP_GRAPHIC
 70
     0
  0
APPID
  5
2C2
330
9
100
AcDbSymbolTableRecord
100
AcDbRegAppTableRecord
  2
GENIUS_GENDTOL_13
 70
     0
  0
APPID
  5
339
330
9
100
AcDbSymbolTableRecord
100
AcDbRegAppTableRecord
  2
GENIUS_GENODEF_13
 70
     0
  0
APPID
  5
33A
330
9
100
AcDbSymbolTableRecord
100
AcDbRegAppTableRecord
  2
GENIUS_GENOBJ-N-RSBK_13
 70
     0
  0
APPID
  5
33B
330
9
100
AcDbSymbolTableRecord
100
AcDbRegAppTableRecord
  2
GENIUS_GENOBJ-N-LIB_13
 70
     0
  0
APPID
  5
33C
330
9
100
AcDbSymbolTableRecord
100
AcDbRegAppTableRecord
  2
GENIUS_GENSCALE_13
 70
     0
  0
APPID
  5
378
330
9
100
AcDbSymbolTableRecord
100
AcDbRegAppTableRecord
  2
GENIUS_GENDIMSH_14
 70
     0
  0
APPID
  5
BA6
330
9
100
AcDbSymbolTableRecord
100
AcDbRegAppTableRecord
  2
GENIUS_GENOBJ-N-CEN_13
 70
     0
  0
APPID
  5
D2B
330
9
100
AcDbSymbolTableRecord
100
AcDbRegAppTableRecord
  2
GENIUS_GENFIL_13
 70
     0
  0
APPID
  5
D2C
330
9
100
AcDbSymbolTableRecord
100
AcDbRegAppTableRecord
  2
GENIUS_GENOBJ-N-CHA_13
 70
     0
  0
ENDTAB
  0
TABLE
  2
DIMSTYLE
  5
A
330
0
100
AcDbSymbolTable
 70
     8
  0
DIMSTYLE
105
58
102
{ACAD_REACTORS
330
D39
330
161B
330
1639
330
1680
102
}
330
A
100
AcDbSymbolTableRecord
100
AcDbDimStyleTableRecord
  2
AM_JIS
 70
     0
  3

  4
"
  5
OPEN30
  6

  7

 40
1.0
 41
2.5
 42
1.0
 43
12.0
 44
1.0
 45
0.0
 46
0.0
 47
0.1
 48
0.1
140
3.2
141
0.0
142
0.0
143
0.0393701
144
1.0
145
0.0
146
0.71
147
1.5
 71
     0
 72
     0
 73
     0
 74
     0
 75
     0
 76
     0
 77
     3
 78
     8
170
     0
171
     2
172
     1
173
     0
174
     0
175
     0
176
   256
177
   256
178
     2
270
     2
271
     3
272
     3
273
     2
274
     2
340
6B
275
     0
280
     0
281
     0
282
     0
283
     0
284
     0
285
     0
286
     0
287
     3
288
     0
  0
DIMSTYLE
105
5F
330
A
100
AcDbSymbolTableRecord
100
AcDbDimStyleTableRecord
  2
AM_JIS$3
 70
     0
  3

  4
"
  5
OPEN30
  6

  7

 40
1.0
 41
2.5
 42
1.0
 43
10.0
 44
1.0
 45
0.0
 46
0.0
 47
0.1
 48
0.1
140
3.2
141
0.0
142
0.0
143
0.0393701
144
1.0
145
0.0
146
0.71
147
1.5
 71
     0
 72
     0
 73
     0
 74
     1
 75
     0
 76
     0
 77
     3
 78
     8
170
     0
171
     2
172
     0
173
     0
174
     0
175
     0
176
   256
177
   256
178
     2
270
     2
271
     2
272
     3
273
     2
274
     2
340
6B
275
     0
280
     0
281
     0
282
     0
283
     0
284
     0
285
     0
286
     0
287
     0
288
     1
  0
DIMSTYLE
105
60
330
A
100
AcDbSymbolTableRecord
100
AcDbDimStyleTableRecord
  2
AM_JIS$4
 70
     0
  3

  4
"
  5
OPEN30
  6

  7

 40
1.0
 41
2.5
 42
1.0
 43
10.0
 44
1.0
 45
0.0
 46
0.0
 47
0.1
 48
0.1
140
3.2
141
0.0
142
0.0
143
0.0393701
144
1.0
145
0.0
146
0.71
147
1.5
 71
     0
 72
     0
 73
     0
 74
     1
 75
     0
 76
     0
 77
     3
 78
     8
170
     0
171
     2
172
     0
173
     0
174
     0
175
     0
176
   256
177
   256
178
     2
270
     2
271
     2
272
     3
273
     2
274
     2
340
6B
275
     0
280
     0
281
     0
282
     0
283
     0
284
     0
285
     0
286
     0
287
     0
288
     1
  0
DIMSTYLE
105
61
330
A
100
AcDbSymbolTableRecord
100
AcDbDimStyleTableRecord
  2
AM_JIS$6
 70
     0
  3

  4
"
  5
OPEN30
  6

  7

 40
1.0
 41
2.5
 42
1.0
 43
10.0
 44
1.0
 45
0.0
 46
0.0
 47
0.1
 48
0.1
140
3.2
141
0.0
142
0.0
143
0.0393701
144
1.0
145
0.0
146
0.71
147
1.5
 71
     0
 72
     0
 73
     0
 74
     0
 75
     0
 76
     0
 77
     0
 78
     8
170
     0
171
     2
172
     1
173
     0
174
     0
175
     0
176
   256
177
   256
178
     2
270
     2
271
     2
272
     2
273
     2
274
     2
340
6B
275
     0
280
     0
281
     0
282
     0
283
     0
284
     0
285
     0
286
     0
287
     3
288
     0
  0
DIMSTYLE
105
62
330
A
100
AcDbSymbolTableRecord
100
AcDbDimStyleTableRecord
  2
AM_JIS$7
 70
     0
  3

  4
"
  5
OPEN30
  6

  7

 40
1.0
 41
2.5
 42
1.0
 43
10.0
 44
1.0
 45
0.0
 46
0.0
 47
0.1
 48
0.1
140
3.2
141
0.0
142
0.0
143
0.0393701
144
1.0
145
0.0
146
0.71
147
1.5
 71
     0
 72
     0
 73
     0
 74
     0
 75
     0
 76
     0
 77
     3
 78
     8
170
     0
171
     2
172
     1
173
     0
174
     0
175
     0
176
   256
177
   256
178
     2
270
     2
271
     2
272
     3
273
     2
274
     2
340
6B
275
     0
280
     0
281
     0
282
     0
283
     0
284
     0
285
     0
286
     0
287
     3
288
     0
  0
DIMSTYLE
105
63
330
A
100
AcDbSymbolTableRecord
100
AcDbDimStyleTableRecord
  2
AM_JIS$SF
 70
     0
  3

  4
"
  5
OPEN30
  6

  7

 40
1.0
 41
2.5
 42
1.0
 43
10.0
 44
1.0
 45
0.0
 46
0.0
 47
0.1
 48
0.1
140
3.2
141
0.0
142
0.0
143
0.0393701
144
1.0
145
0.0
146
0.71
147
1.5
 71
     0
 72
     0
 73
     0
 74
     0
 75
     1
 76
     1
 77
     3
 78
     8
170
     0
171
     2
172
     1
173
     0
174
     0
175
     0
176
   256
177
   256
178
     2
270
     2
271
     2
272
     2
273
     2
274
     2
340
6B
275
     0
280
     0
281
     0
282
     0
283
     0
284
     0
285
     0
286
     0
287
     3
288
     0
  0
DIMSTYLE
105
68
330
A
100
AcDbSymbolTableRecord
100
AcDbDimStyleTableRecord
  2
AM_JIS$SH
 70
     0
  3

  4
"
  5

  6
GENAXEH
  7
OPEN30
 40
1.0
 41
2.5
 42
1.0
 43
10.0
 44
1.0
 45
0.0
 46
0.0
 47
0.1
 48
0.1
140
3.2
141
0.0
142
0.0
143
0.0393701
144
2.0
145
0.0
146
0.71
147
1.5
 71
     0
 72
     0
 73
     0
 74
     0
 75
     1
 76
     1
 77
     3
 78
     8
170
     0
171
     2
172
     1
173
     1
174
     0
175
     0
176
   256
177
   256
178
     2
270
     2
271
     2
272
     2
273
     2
274
     2
340
6B
275
     0
280
     0
281
     0
282
     0
283
     0
284
     0
285
     0
286
     0
287
     3
288
     0
  0
DIMSTYLE
105
B34
330
A
100
AcDbSymbolTableRecord
100
AcDbDimStyleTableRecord
  2
AM_JIS$2
 70
     0
  3

  4
"
  5
OPEN30
  6

  7

 40
1.0
 41
2.5
 42
1.0
 43
12.0
 44
1.0
 45
0.0
 46
0.0
 47
0.1
 48
0.1
140
3.2
141
0.0
142
0.0
143
0.0393701
144
1.0
145
0.0
146
0.71
147
1.5
 71
     0
 72
     0
 73
     0
 74
     0
 75
     0
 76
     0
 77
     3
 78
     8
170
     0
171
     2
172
     1
173
     0
174
     0
175
     0
176
   256
177
   256
178
     2
270
     2
271
     3
272
     3
273
     2
274
     2
340
6B
275
     0
280
     0
281
     0
282
     0
283
     0
284
     0
285
     0
286
     0
287
     3
288
     0
  0
ENDTAB
  0
TABLE
  2
BLOCK_RECORD
  5
1
330
0
100
AcDbSymbolTable
 70
     9
  0
BLOCK_RECORD
  5
1F
102
{ACAD_XDICTIONARY
360
74
102
}
330
1
100
AcDbSymbolTableRecord
100
AcDbBlockTableRecord
  2
*MODEL_SPACE
  0
BLOCK_RECORD
  5
101
102
{ACAD_XDICTIONARY
360
1943
102
}
330
1
100
AcDbSymbolTableRecord
100
AcDbBlockTableRecord
  2
*PAPER_SPACE
  0
BLOCK_RECORD
  5
59
330
1
100
AcDbSymbolTableRecord
100
AcDbBlockTableRecord
  2
_OPEN30
  0
BLOCK_RECORD
  5
64
330
1
100
AcDbSymbolTableRecord
100
AcDbBlockTableRecord
  2
GENAXEH
  0
BLOCK_RECORD
  5
D3B
330
1
100
AcDbSymbolTableRecord
100
AcDbBlockTableRecord
  2
*D5
  0
BLOCK_RECORD
  5
161C
330
1
100
AcDbSymbolTableRecord
100
AcDbBlockTableRecord
  2
*D6
  0
BLOCK_RECORD
  5
163A
330
1
100
AcDbSymbolTableRecord
100
AcDbBlockTableRecord
  2
*D7
  0
BLOCK_RECORD
  5
1681
330
1
100
AcDbSymbolTableRecord
100
AcDbBlockTableRecord
  2
*D8
  0
ENDTAB
  0
ENDSEC
  0
SECTION
  2
BLOCKS
  0
BLOCK
  5
20
330
1F
100
AcDbEntity
  8
0
100
AcDbBlockBegin
  2
*MODEL_SPACE
 70
     0
 10
0.0
 20
0.0
 30
0.0
  3
*MODEL_SPACE
  1

  0
ENDBLK
  5
21
330
1F
100
AcDbEntity
  8
0
100
AcDbBlockEnd
  0
BLOCK
  5
103
330
101
100
AcDbEntity
 67
     1
  8
0
100
AcDbBlockBegin
  2
*PAPER_SPACE
 70
     0
 10
0.0
 20
0.0
 30
0.0
  3
*PAPER_SPACE
  1

  0
ENDBLK
  5
104
330
101
100
AcDbEntity
 67
     1
  8
0
100
AcDbBlockEnd
  0
BLOCK
  5
5D
330
59
100
AcDbEntity
  8
0
100
AcDbBlockBegin
  2
_OPEN30
 70
     0
 10
0.0
 20
0.0
 30
0.0
  3
_OPEN30
  1

  0
LINE
  5
5A
330
59
100
AcDbEntity
  8
0
 62
     0
100
AcDbLine
 10
-1.0
 20
0.26794919
 30
0.0
 11
0.0
 21
0.0
 31
0.0
  0
LINE
  5
5B
330
59
100
AcDbEntity
  8
0
 62
     0
100
AcDbLine
 10
0.0
 20
0.0
 30
0.0
 11
-1.0
 21
-0.26794919
 31
0.0
  0
LINE
  5
5C
330
59
100
AcDbEntity
  8
0
 62
     0
100
AcDbLine
 10
0.0
 20
0.0
 30
0.0
 11
-1.0
 21
0.0
 31
0.0
  0
ENDBLK
  5
5E
330
59
100
AcDbEntity
  8
0
100
AcDbBlockEnd
  0
BLOCK
  5
66
330
64
100
AcDbEntity
  8
0
100
AcDbBlockBegin
  2
GENAXEH
 70
     0
 10
0.0
 20
0.0
 30
0.0
  3
GENAXEH
  1

  0
LINE
  5
65
330
64
100
AcDbEntity
  8
0
100
AcDbLine
 10
-1.0
 20
0.0
 30
0.0
 11
1.0
 21
0.0
 31
0.0
  0
ENDBLK
  5
67
330
64
100
AcDbEntity
  8
0
100
AcDbBlockEnd
  0
BLOCK
  5
D45
330
D3B
100
AcDbEntity
  8
0
100
AcDbBlockBegin
  2
*D5
 70
     1
 10
0.0
 20
0.0
 30
0.0
  3
*D5
  1

  0
LINE
  5
12F7
330
D3B
100
AcDbEntity
  8
AM_5
100
AcDbLine
 10
-90.0
 20
-5.495093215907346
 30
0.0
 11
-90.0
 21
-32.00000000000069
 31
0.0
  0
LINE
  5
12F8
330
D3B
100
AcDbEntity
  8
AM_5
100
AcDbLine
 10
-0.0000000000000001
 20
-6.000000000000625
 30
0.0
 11
-0.0000000000000017
 21
-32.00000000000069
 31
0.0
  0
LINE
  5
12F9
330
D3B
100
AcDbEntity
  8
AM_5
100
AcDbLine
 10
-87.5
 20
-31.00000000000069
 30
0.0
 11
-2.500000000000001
 21
-31.00000000000069
 31
0.0
  0
INSERT
  5
12FA
330
D3B
100
AcDbEntity
  8
AM_5
100
AcDbBlockReference
  2
_OPEN30
 10
-90.0
 20
-31.00000000000069
 30
0.0
 41
2.5
 42
2.5
 43
2.5
 50
180.0
  0
INSERT
  5
12FB
330
D3B
100
AcDbEntity
  8
AM_5
100
AcDbBlockReference
  2
_OPEN30
 10
-0.0000000000000016
 20
-31.00000000000069
 30
0.0
 41
2.5
 42
2.5
 43
2.5
  0
MTEXT
  5
12FC
330
D3B
100
AcDbEntity
  8
AM_5
 62
     2
100
AcDbMText
 10
-45.0
 20
-27.90000000000069
 30
0.0
 40
3.2
 41
0.0
 71
     5
 72
     1
  1
90
  7
ASAMI
1001
ACAD
1000
MTEXTBEGIN
1070
    73
1070
     1
1070
    44
1040
1.0
1070
    74
1070
     0
1000
MTEXTEND
  0
POINT
  5
12FD
330
D3B
100
AcDbEntity
  8
DEFPOINTS
 62
     0
100
AcDbPoint
 10
-90.0
 20
-4.495093215907346
 30
0.0
  0
POINT
  5
12FE
330
D3B
100
AcDbEntity
  8
DEFPOINTS
 62
     0
100
AcDbPoint
 10
0.0
 20
-5.000000000000625
 30
0.0
  0
POINT
  5
12FF
330
D3B
100
AcDbEntity
  8
DEFPOINTS
 62
     0
100
AcDbPoint
 10
-0.0000000000000016
 20
-31.00000000000069
 30
0.0
  0
ENDBLK
  5
D46
330
D3B
100
AcDbEntity
  8
0
100
AcDbBlockEnd
  0
BLOCK
  5
1626
330
161C
100
AcDbEntity
  8
0
100
AcDbBlockBegin
  2
*D6
 70
     1
 10
0.0
 20
0.0
 30
0.0
  3
*D6
  1

  0
LINE
  5
1872
330
161C
100
AcDbEntity
  8
AM_5
100
AcDbLine
 10
-0.0000000000000001
 20
-5.500000000000563
 30
0.0
 11
-0.0000000000000009
 21
-20.00000000000002
 31
0.0
  0
LINE
  5
1873
330
161C
100
AcDbEntity
  8
AM_5
100
AcDbLine
 10
-19.0
 20
-5.500000000000291
 30
0.0
 11
-19.0
 21
-20.00000000000002
 31
0.0
  0
LINE
  5
1874
330
161C
100
AcDbEntity
  8
AM_5
100
AcDbLine
 10
-2.5
 20
-19.00000000000002
 30
0.0
 11
-16.5
 21
-19.00000000000002
 31
0.0
  0
INSERT
  5
1875
330
161C
100
AcDbEntity
  8
AM_5
100
AcDbBlockReference
  2
_OPEN30
 10
-0.0000000000000009
 20
-19.00000000000002
 30
0.0
 41
2.5
 42
2.5
 43
2.5
  0
INSERT
  5
1876
330
161C
100
AcDbEntity
  8
AM_5
100
AcDbBlockReference
  2
_OPEN30
 10
-19.0
 20
-19.00000000000002
 30
0.0
 41
2.5
 42
2.5
 43
2.5
 50
180.0
  0
MTEXT
  5
1877
330
161C
100
AcDbEntity
  8
AM_5
 62
     2
100
AcDbMText
 10
-9.5
 20
-15.90000000000002
 30
0.0
 40
3.2
 41
0.0
 71
     5
 72
     1
  1
19
  7
ASAMI
1001
ACAD
1000
MTEXTBEGIN
1070
    73
1070
     1
1070
    44
1040
1.0
1070
    74
1070
     0
1000
MTEXTEND
  0
POINT
  5
1878
330
161C
100
AcDbEntity
  8
DEFPOINTS
 62
     0
100
AcDbPoint
 10
0.0
 20
-4.500000000000563
 30
0.0
  0
POINT
  5
1879
330
161C
100
AcDbEntity
  8
DEFPOINTS
 62
     0
100
AcDbPoint
 10
-19.0
 20
-4.500000000000291
 30
0.0
  0
POINT
  5
187A
330
161C
100
AcDbEntity
  8
DEFPOINTS
 62
     0
100
AcDbPoint
 10
-19.0
 20
-19.00000000000002
 30
0.0
  0
ENDBLK
  5
1627
330
161C
100
AcDbEntity
  8
0
100
AcDbBlockEnd
  0
BLOCK
  5
1646
330
163A
100
AcDbEntity
  8
0
100
AcDbBlockBegin
  2
*D7
 70
     1
 10
0.0
 20
0.0
 30
0.0
  3
*D7
  1

  0
LINE
  5
185A
330
163A
100
AcDbEntity
  8
AM_5
100
AcDbLine
 10
0.9999999719166101
 20
-4.500236995211598
 30
0.0
 11
15.00035507155609
 21
-4.503555012416183
 31
0.0
  0
LINE
  5
185B
330
163A
100
AcDbEntity
  8
AM_5
100
AcDbLine
 10
0.9999999719166345
 20
4.499763004789528
 30
0.0
 11
15.0024880283955
 21
4.496444482084373
 31
0.0
  0
LINE
  5
185C
330
163A
100
AcDbEntity
  8
AM_5
100
AcDbLine
 10
13.99976261161186
 20
-7.003317946996734
 30
0.0
 11
13.99917012358428
 21
-9.503317876788321
 31
0.0
  0
LINE
  5
185D
330
163A
100
AcDbEntity
  8
AM_5
100
AcDbLine
 10
14.00308054450645
 20
6.996681407086994
 30
0.0
 11
14.00367303253404
 21
9.49668133687858
 31
0.0
  0
LINE
  5
185E
330
163A
100
AcDbEntity
  8
AM_5
100
AcDbLine
 10
14.00035509963945
 20
-4.503318017205148
 30
0.0
 11
14.00248805647887
 21
4.496681477295408
 31
0.0
  0
INSERT
  5
185F
330
163A
100
AcDbEntity
  8
AM_5
100
AcDbBlockReference
  2
_OPEN30
 10
14.00035509963945
 20
-4.503318017205148
 30
0.0
 41
2.5
 42
2.5
 43
2.5
 50
89.98642117451581
  0
INSERT
  5
1860
330
163A
100
AcDbEntity
  8
AM_5
100
AcDbBlockReference
  2
_OPEN30
 10
14.00248805647887
 20
4.496681477295408
 30
0.0
 41
2.5
 42
2.5
 43
2.5
 50
269.9864211745157
  0
MTEXT
  5
1861
330
163A
100
AcDbEntity
  8
AM_5
 62
     2
100
AcDbMText
 10
10.90142160672054
 20
-0.0028299908221537
 30
0.0
 40
3.2
 41
0.0
 71
     5
 72
     1
  1
%%c9
  7
ASAMI
 11
0.0002369952110348
 21
0.9999999719166346
 31
0.0
1001
ACAD
1000
MTEXTBEGIN
1070
    73
1070
     1
1070
    44
1040
1.0
1070
    74
1070
     0
1000
MTEXTEND
  0
POINT
  5
1862
330
163A
100
AcDbEntity
  8
DEFPOINTS
 62
     0
100
AcDbPoint
 10
-0.0000000000000245
 20
-4.500000000000563
 30
0.0
  0
POINT
  5
1863
330
163A
100
AcDbEntity
  8
DEFPOINTS
 62
     0
100
AcDbPoint
 10
0.0
 20
4.500000000000563
 30
0.0
  0
POINT
  5
1864
330
163A
100
AcDbEntity
  8
DEFPOINTS
 62
     0
100
AcDbPoint
 10
14.00248805647887
 20
4.496681477295408
 30
0.0
  0
ENDBLK
  5
1647
330
163A
100
AcDbEntity
  8
0
100
AcDbBlockEnd
  0
BLOCK
  5
168B
330
1681
100
AcDbEntity
  8
0
100
AcDbBlockBegin
  2
*D8
 70
     1
 10
0.0
 20
0.0
 30
0.0
  3
*D8
  1

  0
LINE
  5
1866
330
1681
100
AcDbEntity
  8
AM_5
100
AcDbLine
 10
-90.49999999999998
 20
-5.000000000000037
 30
0.0
 11
-105.0
 21
-5.000000000000033
 31
0.0
  0
LINE
  5
1867
330
1681
100
AcDbEntity
  8
AM_5
100
AcDbLine
 10
-90.49999999999998
 20
4.999999999999976
 30
0.0
 11
-105.0
 21
4.999999999999979
 31
0.0
  0
LINE
  5
1868
330
1681
100
AcDbEntity
  8
AM_5
100
AcDbLine
 10
-104.0
 20
-7.500000000000033
 30
0.0
 11
-104.0
 21
-10.00000000000003
 31
0.0
  0
LINE
  5
1869
330
1681
100
AcDbEntity
  8
AM_5
100
AcDbLine
 10
-104.0
 20
7.499999999999979
 30
0.0
 11
-104.0
 21
9.99999999999998
 31
0.0
  0
LINE
  5
186A
330
1681
100
AcDbEntity
  8
AM_5
100
AcDbLine
 10
-104.0
 20
-5.000000000000033
 30
0.0
 11
-104.0
 21
4.999999999999979
 31
0.0
  0
INSERT
  5
186B
330
1681
100
AcDbEntity
  8
AM_5
100
AcDbBlockReference
  2
_OPEN30
 10
-104.0
 20
-5.000000000000033
 30
0.0
 41
2.5
 42
2.5
 43
2.5
 50
90.0
  0
INSERT
  5
186C
330
1681
100
AcDbEntity
  8
AM_5
100
AcDbBlockReference
  2
_OPEN30
 10
-104.0
 20
4.999999999999979
 30
0.0
 41
2.5
 42
2.5
 43
2.5
 50
270.0
  0
MTEXT
  5
186D
330
1681
100
AcDbEntity
  8
AM_5
 62
     2
100
AcDbMText
 10
-107.1
 20
-0.3478566713930547
 30
0.0
 40
3.2
 41
0.0
 71
     5
 72
     1
  1
%%c10
  7
ASAMI
 11
0.0000000000000001
 21
1.0
 31
0.0
1001
ACAD
1000
MTEXTBEGIN
1070
    73
1070
     1
1070
    44
1040
1.0
1070
    74
1070
     0
1000
MTEXTEND
  0
POINT
  5
186E
330
1681
100
AcDbEntity
  8
DEFPOINTS
 62
     0
100
AcDbPoint
 10
-89.49999999999999
 20
-5.000000000000038
 30
0.0
  0
POINT
  5
186F
330
1681
100
AcDbEntity
  8
DEFPOINTS
 62
     0
100
AcDbPoint
 10
-89.49999999999999
 20
4.999999999999975
 30
0.0
  0
POINT
  5
1870
330
1681
100
AcDbEntity
  8
DEFPOINTS
 62
     0
100
AcDbPoint
 10
-104.0
 20
4.999999999999979
 30
0.0
  0
ENDBLK
  5
168C
330
1681
100
AcDbEntity
  8
0
100
AcDbBlockEnd
  0
ENDSEC
  0
SECTION
  2
ENTITIES
  0
LINE
  5
C2F
330
1F
100
AcDbEntity
  8
AM_7
  6
AM_ISO08W050X2
100
AcDbLine
 10
4.530570278608138
 20
0.000000000000002
 30
0.0
 11
-92.59314155754916
 21
-0.0000000000000406
 31
0.0
1001
GENIUS_GENODEF_13
1002
{
1000
HIER
1070
     0
1002
}
1002
{
1000
MANEDIT
1070
     0
1002
}
1002
{
1000
NOSEL
1070
     0
1002
}
1002
{
1000
BEHIND
1070
     0
1002
}
1002
{
1000
REACTOR
1002
}
1001
GENIUS_GENOBJ-N-CEN_13
1002
{
1000
OWNER
1000
GEN
1002
}
  0
LINE
  5
C5D
330
1F
100
AcDbEntity
  8
AM_0
100
AcDbLine
 10
-90.0
 20
4.49999999999996
 30
0.0
 11
-89.99999999999998
 21
-4.500000000000038
 31
0.0
  0
LINE
  5
D2F
330
1F
100
AcDbEntity
  8
AM_0
100
AcDbLine
 10
-89.50000000000001
 20
-4.995093215907346
 30
0.0
 11
-89.49999999999999
 21
4.9999999999999
 31
0.0
  0
DIMENSION
  5
D39
330
1F
100
AcDbEntity
  8
AM_5
100
AcDbDimension
  2
*D5
 10
-0.0000000000000016
 20
-31.00000000000069
 30
0.0
 11
-45.0
 21
-27.90000000000069
 31
0.0
 70
    32
  1
<>
  3
AM_JIS
100
AcDbAlignedDimension
 13
-90.0
 23
-4.495093215907346
 33
0.0
 14
0.0
 24
-5.000000000000625
 34
0.0
100
AcDbRotatedDimension
1001
GENIUS_GENDTOL_13
1000

1000
h7
1000

1040
0.0
  0
TEXT
  5
F17
330
1F
100
AcDbEntity
  8
AM_6
100
AcDbText
 10
-69.37471068668962
 20
-53.4573745465973
 30
0.0
 40
5.0
  1
SSUP4090ZX
 72
     1
 11
-45.92232973430866
 21
-50.9573745465973
 31
0.0
100
AcDbText
 73
     2
  0
LINE
  5
146C
330
1F
100
AcDbEntity
  8
AM_0
100
AcDbLine
 10
-23.36602540378228
 20
4.999999999999988
 30
0.0
 11
-89.50000000000001
 21
4.99999999999996
 31
0.0
1001
GENIUS_GENODEF_13
1002
{
1000
HIER
1070
     0
1002
}
1002
{
1000
MANEDIT
1070
     0
1002
}
1002
{
1000
NOSEL
1070
     0
1002
}
1002
{
1000
BEHIND
1070
     0
1002
}
1002
{
1000
REACTOR
1002
}
1001
GENIUS_GENOBJ-N-CEN_13
1002
{
1000
OWNER
1000
GEN
1002
}
  0
LINE
  5
1470
330
1F
100
AcDbEntity
  8
AM_0
100
AcDbLine
 10
-23.36602540378466
 20
-5.000000000000009
 30
0.0
 11
-89.49999999999999
 21
-5.000000000000038
 31
0.0
1001
GENIUS_GENODEF_13
1002
{
1000
HIER
1070
     0
1002
}
1002
{
1000
MANEDIT
1070
     0
1002
}
1002
{
1000
NOSEL
1070
     0
1002
}
1002
{
1000
BEHIND
1070
     0
1002
}
1002
{
1000
REACTOR
1002
}
1001
GENIUS_GENOBJ-N-CEN_13
1002
{
1000
OWNER
1000
GEN
1002
}
  0
LINE
  5
1474
330
1F
100
AcDbEntity
  8
AM_0
100
AcDbLine
 10
-90.0
 20
4.49999999999996
 30
0.0
 11
-89.50000000000001
 21
4.99999999999996
 31
0.0
1001
GENIUS_GENFIL_13
1070
     0
1040
0.5
1040
0.5
1040
20.0
1040
0.0
1002
{
1002
}
1001
GENIUS_GENODEF_13
1002
{
1000
HIER
1070
     0
1002
}
1002
{
1000
MANEDIT
1070
     0
1002
}
1002
{
1000
NOSEL
1070
     0
1002
}
1002
{
1000
BEHIND
1070
     0
1002
}
1002
{
1000
REACTOR
1002
}
1001
GENIUS_GENOBJ-N-CHA_13
1002
{
1000
OWNER
1000
GEN
1002
}
  0
LINE
  5
1476
330
1F
100
AcDbEntity
  8
AM_0
100
AcDbLine
 10
-89.99999999999998
 20
-4.500000000000038
 30
0.0
 11
-89.49999999999999
 21
-5.000000000000038
 31
0.0
1001
GENIUS_GENFIL_13
1070
     0
1040
0.5
1040
0.5
1040
20.0
1040
0.0
1002
{
1002
}
1001
GENIUS_GENODEF_13
1002
{
1000
HIER
1070
     0
1002
}
1002
{
1000
MANEDIT
1070
     0
1002
}
1002
{
1000
NOSEL
1070
     0
1002
}
1002
{
1000
BEHIND
1070
     0
1002
}
1002
{
1000
REACTOR
1002
}
1001
GENIUS_GENOBJ-N-CHA_13
1002
{
1000
OWNER
1000
GEN
1002
}
  0
LINE
  5
1612
330
1F
100
AcDbEntity
  8
AM_11
100
AcDbLine
 10
-19.0
 20
4.500000000000563
 30
0.0
 11
0.0
 21
4.500000000000563
 31
0.0
  0
LINE
  5
161A
330
1F
100
AcDbEntity
  8
AM_11
100
AcDbLine
 10
0.0
 20
-4.500000000000563
 30
0.0
 11
-19.0
 21
-4.499999999999947
 31
0.0
  0
DIMENSION
  5
161B
330
1F
100
AcDbEntity
  8
AM_5
100
AcDbDimension
  2
*D6
 10
-19.0
 20
-19.00000000000002
 30
0.0
 11
-9.5
 21
-15.90000000000002
 31
0.0
 70
    32
  1
<>
  3
AM_JIS
100
AcDbAlignedDimension
 13
0.0
 23
-4.500000000000563
 33
0.0
 14
-19.0
 24
-4.500000000000291
 34
0.0
100
AcDbRotatedDimension
1001
GENIUS_GENDTOL_13
1000

1000
h7
1000

1040
0.0
  0
LINE
  5
1629
330
1F
100
AcDbEntity
  8
AM_11
100
AcDbLine
 10
-19.0
 20
4.500000000000563
 30
0.0
 11
-19.0
 21
-4.499999999999947
 31
0.0
  0
DIMENSION
  5
1639
330
1F
100
AcDbEntity
  8
AM_5
100
AcDbDimension
  2
*D7
 10
14.00248805647887
 20
4.496681477295408
 30
0.0
 11
14.00142151966211
 21
-0.0035646759763617
 31
0.0
 70
   160
  1
%%c<>
  3
AM_JIS
100
AcDbAlignedDimension
 13
-0.0000000000000245
 23
-4.500000000000563
 33
0.0
 14
0.0
 24
4.500000000000563
 34
0.0
 50
89.98642117451579
100
AcDbRotatedDimension
1001
GENIUS_GENDTOL_13
1000

1000
h7
1000

1040
0.0
  0
DIMENSION
  5
1680
330
1F
100
AcDbEntity
  8
AM_5
100
AcDbDimension
  2
*D8
 10
-104.0
 20
4.999999999999979
 30
0.0
 11
-104.0
 21
-0.3478566713930551
 31
0.0
 70
   160
  1
%%c<>
  3
AM_JIS
100
AcDbAlignedDimension
 13
-89.49999999999999
 23
-5.000000000000038
 33
0.0
 14
-89.49999999999999
 24
4.999999999999975
 34
0.0
 50
270.0000000000001
100
AcDbRotatedDimension
1001
GENIUS_GENDTOL_13
1000

1000
h7
1000

1040
0.0
  0
LINE
  5
17CD
330
1F
100
AcDbEntity
  8
AM_0
100
AcDbLine
 10
-0.1593174168031436
 20
4.500000000000563
 30
0.0
 11
0.0
 21
4.500000000000563
 31
0.0
  0
LINE
  5
17CE
330
1F
100
AcDbEntity
  8
AM_0
100
AcDbLine
 10
-0.1003043984058178
 20
-1.378813205219813
 30
0.0
 11
-0.0090986290867402
 21
-1.05895969296294
 31
0.0
  0
LINE
  5
17CF
330
1F
100
AcDbEntity
  8
AM_0
100
AcDbLine
 10
-0.0090986290867402
 20
-0.1139596929627771
 30
0.0
 11
-1.133029625876786
 21
0.0005870743895628
 31
0.0
  0
LINE
  5
17D0
330
1F
100
AcDbEntity
  8
AM_0
100
AcDbLine
 10
-0.0090986290867402
 20
-0.1328784553107027
 30
0.0
 11
-0.1003043984058178
 21
0.8475396965852667
 31
0.0
  0
LINE
  5
17D1
330
1F
100
AcDbEntity
  8
AM_0
100
AcDbLine
 10
-0.1003043984058178
 20
0.8475396965852667
 30
0.0
 11
-0.3790443442815182
 21
2.022859375880028
 31
0.0
  0
LINE
  5
17D2
330
1F
100
AcDbEntity
  8
AM_0
100
AcDbLine
 10
-17.52491584796327
 20
2.263536045572939
 30
0.0
 11
-17.52491584796327
 21
3.379702529221613
 31
0.0
  0
LINE
  5
17D3
330
1F
100
AcDbEntity
  8
AM_0
100
AcDbLine
 10
-0.0912057693187153
 20
-4.231154495513322
 30
0.0
 11
-0.1380141300455883
 21
-4.164413251919057
 31
0.0
  0
LINE
  5
17D4
330
1F
100
AcDbEntity
  8
AM_0
100
AcDbLine
 10
0.0
 20
-4.500000000000563
 30
0.0
 11
-0.0912057693187153
 21
-4.231154495513322
 31
0.0
  0
LINE
  5
17D5
330
1F
100
AcDbEntity
  8
AM_0
100
AcDbLine
 10
-0.1593174167995212
 20
-4.500000000000153
 30
0.0
 11
0.0
 21
-4.500000000000563
 31
0.0
  0
LINE
  5
17D6
330
1F
100
AcDbEntity
  8
AM_0
100
AcDbLine
 10
-0.1380141300455883
 20
-4.164413251919057
 30
0.0
 11
-0.3491070268602372
 21
-3.338441711517299
 31
0.0
  0
LINE
  5
17D7
330
1F
100
AcDbEntity
  8
AM_0
100
AcDbLine
 10
-0.1003043984058178
 20
-1.378813205219813
 30
0.0
 11
-0.3483079334936479
 21
-1.941787459283392
 31
0.0
  0
LINE
  5
17D8
330
1F
100
AcDbEntity
  8
AM_0
100
AcDbLine
 10
-0.0912057693187153
 20
-4.231154495513322
 30
0.0
 11
-0.0912057693187153
 21
-1.346904823853384
 31
0.0
  0
LINE
  5
17D9
330
1F
100
AcDbEntity
  8
AM_0
100
AcDbLine
 10
0.0
 20
4.500000000000563
 30
0.0
 11
0.0
 21
-4.500000000000563
 31
0.0
  0
POLYLINE
  5
17DA
330
1F
100
AcDbEntity
  8
AM_0
100
AcDb2dPolyline
 66
     1
 10
0.0
 20
0.0
 30
0.0
 70
     2
  0
VERTEX
  5
17DB
330
17DA
100
AcDbEntity
  8
AM_0
100
AcDbVertex
100
AcDb2dVertex
 10
-17.52491584796327
 20
-2.0748645691548
 30
0.0
 42
-0.0129986936669445
  0
VERTEX
  5
17DC
330
17DA
100
AcDbEntity
  8
AM_0
100
AcDbVertex
100
AcDb2dVertex
 10
-18.51228045820797
 20
-1.204579250572189
 30
0.0
 42
-0.0238378164251699
 70
     1
  0
VERTEX
  5
17DD
330
17DA
100
AcDbEntity
  8
AM_0
100
AcDbVertex
100
AcDb2dVertex
 10
-19.01851663046014
 20
-0.6863266442214297
 30
0.0
 42
-0.0087697151677761
  0
VERTEX
  5
17DE
330
17DA
100
AcDbEntity
  8
AM_0
100
AcDbVertex
100
AcDb2dVertex
 10
-20.34572798871386
 20
0.861908222593027
 30
0.0
 42
-0.016586017082525
 70
     1
  0
VERTEX
  5
17DF
330
17DA
100
AcDbEntity
  8
AM_0
100
AcDbVertex
100
AcDb2dVertex
 10
-21.00998434045596
 20
1.719828713798099
 30
0.0
 42
-0.0451742545712589
  0
VERTEX
  5
17E0
330
17DA
100
AcDbEntity
  8
AM_0
100
AcDbVertex
100
AcDb2dVertex
 10
-21.45493450666788
 20
2.462188149557394
 30
0.0
 42
-0.1465772931919247
 70
     1
  0
VERTEX
  5
17E1
330
17DA
100
AcDbEntity
  8
AM_0
100
AcDbVertex
100
AcDb2dVertex
 10
-21.50785126795492
 20
2.737446146884258
 30
0.0
 42
-0.2363269648915856
  0
VERTEX
  5
17E2
330
17DA
100
AcDbEntity
  8
AM_0
100
AcDbVertex
100
AcDb2dVertex
 10
-21.41417991477215
 20
2.913464693428682
 30
0.0
 42
-0.0944295254831177
 70
     1
  0
VERTEX
  5
17E3
330
17DA
100
AcDbEntity
  8
AM_0
100
AcDbVertex
100
AcDb2dVertex
 10
-21.00998434045596
 20
3.094285977801622
 30
0.0
 42
-0.0735428200704349
  0
VERTEX
  5
17E4
330
17DA
100
AcDbEntity
  8
AM_0
100
AcDbVertex
100
AcDb2dVertex
 10
-20.48862925410765
 20
3.118977992809023
 30
0.0
 42
-0.025664050315163
 70
     1
  0
VERTEX
  5
17E5
330
17DA
100
AcDbEntity
  8
AM_0
100
AcDbVertex
100
AcDb2dVertex
 10
-19.01851663046014
 20
2.857330927145963
 30
0.0
 42
-0.0327084143688329
  0
VERTEX
  5
17E6
330
17DA
100
AcDbEntity
  8
AM_0
100
AcDbVertex
100
AcDb2dVertex
 10
-18.34548964021579
 20
2.644464154749877
 30
0.0
 42
-0.0257576852941419
 70
     1
  0
VERTEX
  5
17E7
330
17DA
100
AcDbEntity
  8
AM_0
100
AcDbVertex
100
AcDb2dVertex
 10
-17.52491584796327
 20
2.263536045572939
 30
0.0
  0
SEQEND
  5
17E8
330
17DA
100
AcDbEntity
  8
AM_0
  0
SPLINE
  5
17E9
330
1F
100
AcDbEntity
  8
AM_0
100
AcDbSpline
210
0.0
220
0.0
230
1.0
 70
     8
 71
     3
 72
     8
 73
     4
 74
     0
 42
0.0000000001
 43
0.0000000001
 40
0.2725981709865456
 40
0.2725981709865456
 40
0.2725981709865456
 40
0.2725981709865456
 40
2.093133798227362
 40
2.093133798227362
 40
2.093133798227362
 40
2.093133798227362
 10
-15.82628700753505
 20
-4.500000000000007
 30
0.0
 10
-15.3472199485884
 20
-4.476006948303535
 30
0.0
 10
-14.88244997966355
 20
-4.391908660812364
 30
0.0
 10
-14.42945964872556
 20
-4.254650041824636
 30
0.0
  0
SPLINE
  5
17EA
330
1F
100
AcDbEntity
  8
AM_0
100
AcDbSpline
210
0.0
220
0.0
230
1.0
 70
     8
 71
     3
 72
     8
 73
     4
 74
     0
 42
0.0000000001
 43
0.0000000001
 40
0.0
 40
0.0
 40
0.0
 40
0.0
 40
0.6152373134461622
 40
0.6152373134461622
 40
0.6152373134461622
 40
0.6152373134461622
 10
-13.94394514436174
 20
-4.276254704769548
 30
0.0
 10
-14.10730851019009
 20
-4.276254704769548
 30
0.0
 10
-14.26911628664877
 20
-4.268909649577348
 30
0.0
 10
-14.42945964872556
 20
-4.254650041824572
 30
0.0
  0
SPLINE
  5
17EB
330
1F
100
AcDbEntity
  8
AM_0
100
AcDbSpline
210
0.0
220
0.0
230
1.0
 70
     8
 71
     3
 72
     8
 73
     4
 74
     0
 42
0.0000000001
 43
0.0000000001
 40
0.0
 40
0.0
 40
0.0
 40
0.0
 40
3.983447643433449
 40
3.983447643433449
 40
3.983447643433449
 40
3.983447643433449
 10
-15.0714276292481
 20
4.499999999999744
 30
0.0
 10
-16.12914861009551
 20
4.499999999999744
 30
0.0
 10
-17.11661582775773
 20
4.182951772868577
 30
0.0
 10
-18.06020115658706
 20
3.667868957601715
 30
0.0
  0
SPLINE
  5
17EC
330
1F
100
AcDbEntity
  8
AM_0
100
AcDbSpline
210
0.0
220
0.0
230
1.0
 70
     8
 71
     3
 72
     8
 73
     4
 74
     0
 42
0.0000000001
 43
0.0000000001
 40
5.215942287204468
 40
5.215942287204468
 40
5.215942287204468
 40
5.215942287204468
 40
10.4969207889486
 40
10.4969207889486
 40
10.4969207889486
 40
10.4969207889486
 10
-17.52491584796324
 20
2.954797463646166
 30
0.0
 10
-16.29281750634334
 20
2.151374638136232
 30
0.0
 10
-15.11838132529738
 20
1.07568731906809
 30
0.0
 10
-13.94394514425162
 20
-0.0000000000000512
 30
0.0
  0
SPLINE
  5
17ED
330
1F
100
AcDbEntity
  8
AM_0
100
AcDbSpline
210
0.0
220
0.0
230
1.0
 70
     8
 71
     3
 72
     8
 73
     4
 74
     0
 42
0.0000000001
 43
0.0000000001
 40
0.6393216442353146
 40
0.6393216442353146
 40
0.6393216442353146
 40
0.6393216442353146
 40
10.49653484266006
 40
10.49653484266006
 40
10.49653484266006
 40
10.49653484266006
 10
-20.58836341359674
 20
4.500000000000563
 30
0.0
 10
-17.37877443018297
 20
3.831120424000749
 30
0.0
 10
-15.13015615997427
 20
1.973644084902588
 30
0.0
 10
-12.88153788976485
 20
0.1161677458044267
 30
0.0
  0
SPLINE
  5
17EE
330
1F
100
AcDbEntity
  8
AM_0
100
AcDbSpline
210
0.0
220
0.0
230
1.0
 70
     8
 71
     3
 72
     8
 73
     4
 74
     0
 42
0.0000000001
 43
0.0000000001
 40
6.902118198828401
 40
6.902118198828401
 40
6.902118198828401
 40
6.902118198828401
 40
10.61176705360581
 40
10.61176705360581
 40
10.61176705360581
 40
10.61176705360581
 10
-17.52491584796339
 20
2.26353604557276
 30
0.0
 10
-16.69288701516003
 20
1.573104626418025
 30
0.0
 10
-15.88215732220425
 20
0.7865523132089806
 30
0.0
 10
-15.07142762924847
 20
-0.0000000000000512
 30
0.0
  0
SPLINE
  5
17EF
330
1F
100
AcDbEntity
  8
AM_0
100
AcDbSpline
210
0.0
220
0.0
230
1.0
 70
     8
 71
     3
 72
     8
 73
     4
 74
     0
 42
0.0000000001
 43
0.0000000001
 40
0.0
 40
0.0
 40
0.0
 40
0.0
 40
3.977355368879245
 40
3.977355368879245
 40
3.977355368879245
 40
3.977355368879245
 10
-6.487890038027148
 20
-4.276254704769548
 30
0.0
 10
-5.431786732920402
 20
-4.276254704769752
 30
0.0
 10
-4.440696161030108
 20
-3.969282875965899
 30
0.0
 10
-3.489984551301859
 20
-3.471652952255914
 30
0.0
  0
SPLINE
  5
17F0
330
1F
100
AcDbEntity
  8
AM_0
100
AcDbSpline
210
0.0
220
0.0
230
1.0
 70
     8
 71
     3
 72
     8
 73
     4
 74
     0
 42
0.0000000001
 43
0.0000000001
 40
0.6152373134470183
 40
0.6152373134470183
 40
0.6152373134470183
 40
0.6152373134470183
 40
8.843083020165714
 40
8.843083020165714
 40
8.843083020165714
 40
8.843083020165714
 10
-6.002375533662471
 20
4.254650041824419
 30
0.0
 10
-3.858031531061852
 20
4.063949884561106
 30
0.0
 10
-1.97559683410954
 20
2.636587698843999
 30
0.0
 10
-0.1369963181191715
 20
1.002252847492712
 30
0.0
  0
SPLINE
  5
17F1
330
1F
100
AcDbEntity
  8
AM_0
100
AcDbSpline
210
0.0
220
0.0
230
1.0
 70
     8
 71
     3
 72
     8
 73
     4
 74
     0
 42
0.0000000001
 43
0.0000000001
 40
0.0
 40
0.0
 40
0.0
 40
0.0
 40
10.7633540680078
 40
10.7633540680078
 40
10.7633540680078
 40
10.7633540680078
 10
-7.615372523023633
 20
4.499999999999949
 30
0.0
 10
-4.757389579331664
 20
4.499999999999948
 30
0.0
 10
-2.389527478745282
 20
2.251104026420823
 30
0.0
 10
-0.0216653781589002
 20
0.0022080528416989
 30
0.0
  0
SPLINE
  5
17F2
330
1F
100
AcDbEntity
  8
AM_0
100
AcDbSpline
210
0.0
220
0.0
230
1.0
 70
     8
 71
     3
 72
     8
 73
     4
 74
     0
 42
0.0000000001
 43
0.0000000001
 40
1.418383274962104
 40
1.418383274962104
 40
1.418383274962104
 40
1.418383274962104
 40
10.4969207889486
 40
10.4969207889486
 40
10.4969207889486
 40
10.4969207889486
 10
-0.1380141300455883
 20
-4.164413251919057
 30
0.0
 10
-2.449940281599154
 20
-3.698431143491694
 30
0.0
 10
-4.468915159812969
 20
-1.849215571745872
 30
0.0
 10
-6.487890038027148
 20
-0.0000000000000512
 30
0.0
  0
SPLINE
  5
17F3
330
1F
100
AcDbEntity
  8
AM_0
100
AcDbSpline
210
0.0
220
0.0
230
1.0
 70
     8
 71
     3
 72
     8
 73
     4
 74
     0
 42
0.0000000001
 43
0.0000000001
 40
0.0
 40
0.0
 40
0.0
 40
0.0
 40
10.61176705360627
 40
10.61176705360627
 40
10.61176705360627
 40
10.61176705360627
 10
-0.1593174167995212
 20
-4.500000000000153
 30
0.0
 10
-2.977049607900113
 20
-4.500000000000153
 30
0.0
 10
-5.296211065462054
 20
-2.250000000000102
 30
0.0
 10
-7.615372523023996
 20
-0.0000000000000512
 30
0.0
  0
SPLINE
  5
17F4
330
1F
100
AcDbEntity
  8
AM_0
100
AcDbSpline
210
0.0
220
0.0
230
1.0
 70
     8
 71
     3
 72
     8
 73
     4
 74
     0
 42
0.0000000001
 43
0.0000000001
 40
3.266224444355238
 40
3.266224444355238
 40
3.266224444355238
 40
3.266224444355238
 40
10.49653484266006
 40
10.49653484266006
 40
10.49653484266006
 40
10.49653484266006
 10
-0.3491070268602372
 20
-3.338441711517095
 30
0.0
 10
-2.126739470672514
 20
-2.608766821164823
 30
0.0
 10
-3.776111127106807
 20
-1.246299537680198
 30
0.0
 10
-5.425482783540738
 20
0.1161677458044267
 30
0.0
  0
SPLINE
  5
17F5
330
1F
100
AcDbEntity
  8
AM_0
100
AcDbSpline
210
0.0
220
0.0
230
1.0
 70
     8
 71
     3
 72
     8
 73
     4
 74
     0
 42
0.0000000001
 43
0.0000000001
 40
0.6393216439718838
 40
0.6393216439718838
 40
0.6393216439718838
 40
0.6393216439718838
 40
6.996796499348805
 40
6.996796499348805
 40
6.996796499348805
 40
6.996796499348805
 10
-5.040284107738333
 20
4.085156172780233
 30
0.0
 10
-3.380410935936524
 20
3.921314136288964
 30
0.0
 10
-1.855728374184911
 20
3.090490464870589
 30
0.0
 10
-0.379044344281156
 20
2.022859375880028
 30
0.0
  0
SPLINE
  5
17F6
330
1F
100
AcDbEntity
  8
AM_0
100
AcDbSpline
210
0.0
220
0.0
230
1.0
 70
     8
 71
     3
 72
     8
 73
     4
 74
     0
 42
0.0000000001
 43
0.0000000001
 40
0.0
 40
0.0
 40
0.0
 40
0.0
 40
2.4079390838223
 40
2.4079390838223
 40
2.4079390838223
 40
2.4079390838223
 10
-5.545235710204383
 20
-3.881577089800083
 30
0.0
 10
-4.9059144452906
 20
-3.871977295978416
 30
0.0
 10
-4.287245080648483
 20
-3.760488486324157
 30
0.0
 10
-3.684490003479278
 20
-3.570484331016229
 30
0.0
  0
SPLINE
  5
17F7
330
1F
100
AcDbEntity
  8
AM_0
100
AcDbSpline
210
0.0
220
0.0
230
1.0
 70
     8
 71
     3
 72
     9
 73
     5
 74
     0
 42
0.0000000001
 43
0.0000000001
 40
0.0
 40
0.0
 40
0.0
 40
0.0
 40
0.6574415203969619
 40
3.123721247380082
 40
3.123721247380082
 40
3.123721247380082
 40
3.123721247380082
 10
-1.133029625876786
 20
0.0005870743895628
 30
0.0
 10
-1.306893495951446
 20
0.0183066179676831
 30
0.0
 10
-2.297610360138425
 20
-0.5807365905293739
 30
0.0
 10
-0.7387179698335345
 20
-1.347762942455336
 30
0.0
 10
-0.3483079334936479
 20
-1.941787459283392
 30
0.0
  0
SPLINE
  5
17F8
330
1F
100
AcDbEntity
  8
AM_0
100
AcDbSpline
210
0.0
220
0.0
230
1.0
 70
     8
 71
     3
 72
     8
 73
     4
 74
     0
 42
0.0000000001
 43
0.0000000001
 40
0.0
 40
0.0
 40
0.0
 40
0.0
 40
2.847661750814433
 40
2.847661750814433
 40
2.847661750814433
 40
2.847661750814433
 10
-0.1593174168031436
 20
4.500000000000563
 30
0.0
 10
0.0476945275485409
 20
3.67834118901714
 30
0.0
 10
-0.9657851282743099
 20
3.222269826110931
 30
0.0
 10
-1.939664470835093
 20
3.032098215992817
 30
0.0
  0
SPLINE
  5
17F9
330
1F
100
AcDbEntity
  8
AM_0
100
AcDbSpline
210
0.0
220
0.0
230
1.0
 70
     8
 71
     3
 72
     8
 73
     4
 74
     0
 42
0.0000000001
 43
0.0000000001
 40
0.0
 40
0.0
 40
0.0
 40
0.0
 40
4.066976460604845
 40
4.066976460604845
 40
4.066976460604845
 40
4.066976460604845
 10
-0.1593174167995212
 20
4.499999999999744
 30
0.0
 10
-1.239217723280709
 20
4.499999999999744
 30
0.0
 10
-2.245887077222379
 20
4.169516014220488
 30
0.0
 10
-3.207391356689049
 20
3.635206551464779
 30
0.0
  0
SPLINE
  5
17FA
330
1F
100
AcDbEntity
  8
AM_0
100
AcDbSpline
210
0.0
220
0.0
230
1.0
 70
     8
 71
     3
 72
     8
 73
     4
 74
     0
 42
0.0000000001
 43
0.0000000001
 40
0.0
 40
0.0
 40
0.0
 40
0.0
 40
1.551838382253894
 40
1.551838382253894
 40
1.551838382253894
 40
1.551838382253894
 10
-0.3483079334860407
 20
-1.941787459295056
 30
0.0
 10
-0.2124540992856204
 20
-2.381308695861127
 30
0.0
 10
-0.2729257243668116
 20
-2.88091579018503
 30
0.0
 10
-0.3491070268602372
 20
-3.338441711517299
 30
0.0
  0
SPLINE
  5
17FB
330
1F
100
AcDbEntity
  8
AM_0
100
AcDbSpline
210
0.0
220
0.0
230
1.0
 70
     8
 71
     3
 72
     8
 73
     4
 74
     0
 42
0.0000000001
 43
0.0000000001
 40
0.0
 40
0.0
 40
0.0
 40
0.0
 40
10.49692078894909
 40
10.49692078894909
 40
10.49692078894909
 40
10.49692078894909
 10
-6.487890038026786
 20
-4.276254704769548
 30
0.0
 10
-9.275127212103589
 20
-4.276254704769548
 30
0.0
 10
-11.6095361781776
 20
-2.138127352384799
 30
0.0
 10
-13.94394514425162
 20
-0.0000000000000512
 30
0.0
  0
SPLINE
  5
17FC
330
1F
100
AcDbEntity
  8
AM_0
100
AcDbSpline
210
0.0
220
0.0
230
1.0
 70
     8
 71
     3
 72
     8
 73
     4
 74
     0
 42
0.0000000001
 43
0.0000000001
 40
0.0
 40
0.0
 40
0.0
 40
0.0
 40
10.49653484265986
 40
10.49653484265986
 40
10.49653484265986
 40
10.49653484265986
 10
-5.305729856877094
 20
-3.881577089800083
 30
0.0
 10
-8.092618436371511
 20
-3.839730279385042
 30
0.0
 10
-10.48707816306818
 20
-1.861781266790307
 30
0.0
 10
-12.88153788976485
 20
0.1161677458044267
 30
0.0
  0
SPLINE
  5
17FD
330
1F
100
AcDbEntity
  8
AM_0
100
AcDbSpline
210
0.0
220
0.0
230
1.0
 70
     8
 71
     3
 72
     8
 73
     4
 74
     0
 42
0.0000000001
 43
0.0000000001
 40
0.0
 40
0.0
 40
0.0
 40
0.0
 40
10.61065478016067
 40
10.61065478016067
 40
10.61065478016067
 40
10.61065478016067
 10
-7.615372523023633
 20
-4.497875036017164
 30
0.0
 10
-10.43280937323734
 20
-4.497875036017164
 30
0.0
 10
-12.7521185012429
 20
-2.248937518008607
 30
0.0
 10
-15.07142762924847
 20
-0.0000000000000512
 30
0.0
  0
SPLINE
  5
17FE
330
1F
100
AcDbEntity
  8
AM_0
100
AcDbSpline
210
0.0
220
0.0
230
1.0
 70
     8
 71
     3
 72
     8
 73
     4
 74
     0
 42
0.0000000001
 43
0.0000000001
 40
0.0
 40
0.0
 40
0.0
 40
0.0
 40
4.066976460604825
 40
4.066976460604825
 40
4.066976460604825
 40
4.066976460604825
 10
-7.615372523023633
 20
4.499999999999744
 30
0.0
 10
-8.695272829504821
 20
4.499999999999744
 30
0.0
 10
-9.701942183446854
 20
4.169516014220488
 30
0.0
 10
-10.66344646291316
 20
3.635206551464779
 30
0.0
  0
SPLINE
  5
17FF
330
1F
100
AcDbEntity
  8
AM_0
100
AcDbSpline
210
0.0
220
0.0
230
1.0
 70
     8
 71
     3
 72
     8
 73
     4
 74
     0
 42
0.0000000001
 43
0.0000000001
 40
0.0
 40
0.0
 40
0.0
 40
0.0
 40
10.61176705360661
 40
10.61176705360661
 40
10.61176705360661
 40
10.61176705360661
 10
-15.07142762924847
 20
4.499999999999949
 30
0.0
 10
-12.25369543814778
 20
4.499999999999948
 30
0.0
 10
-9.934533980585708
 20
2.249999999999948
 30
0.0
 10
-7.615372523023633
 20
-0.0000000000000512
 30
0.0
  0
SPLINE
  5
1800
330
1F
100
AcDbEntity
  8
AM_0
100
AcDbSpline
210
0.0
220
0.0
230
1.0
 70
     8
 71
     3
 72
     8
 73
     4
 74
     0
 42
0.0000000001
 43
0.0000000001
 40
0.6152373134470183
 40
0.6152373134470183
 40
0.6152373134470183
 40
0.6152373134470183
 40
10.4969207889486
 40
10.4969207889486
 40
10.4969207889486
 40
10.4969207889486
 10
-13.45843063988694
 20
4.254650041824419
 30
0.0
 10
-10.88306286421426
 20
4.025618207736118
 30
0.0
 10
-8.685476451120889
 20
2.012809103868034
 30
0.0
 10
-6.487890038026786
 20
-0.0000000000000512
 30
0.0
  0
SPLINE
  5
1801
330
1F
100
AcDbEntity
  8
AM_0
100
AcDbSpline
210
0.0
220
0.0
230
1.0
 70
     8
 71
     3
 72
     8
 73
     4
 74
     0
 42
0.0000000001
 43
0.0000000001
 40
0.6393216442358057
 40
0.6393216442358057
 40
0.6393216442358057
 40
0.6393216442358057
 40
10.49653484266006
 40
10.49653484266006
 40
10.49653484266006
 40
10.49653484266006
 10
-12.4963392137556
 20
4.085156172759974
 30
0.0
 10
-9.922719323958867
 20
3.831120424000545
 30
0.0
 10
-7.674101053749804
 20
1.973644084902588
 30
0.0
 10
-5.425482783540738
 20
0.1161677458044267
 30
0.0
  0
SPLINE
  5
1802
330
1F
100
AcDbEntity
  8
AM_0
100
AcDbSpline
210
0.0
220
0.0
230
1.0
 70
     8
 71
     3
 72
     8
 73
     4
 74
     0
 42
0.0000000001
 43
0.0000000001
 40
0.0
 40
0.0
 40
0.0
 40
0.0
 40
2.093133798227362
 40
2.093133798227362
 40
2.093133798227362
 40
2.093133798227362
 10
-7.615372523023996
 20
-4.497875036016959
 30
0.0
 10
-7.059584740108004
 20
-4.499999999999949
 30
0.0
 10
-6.523194438697693
 20
-4.412461100395688
 30
0.0
 10
-6.002375533662833
 20
-4.254650041824624
 30
0.0
  0
SPLINE
  5
1803
330
1F
100
AcDbEntity
  8
AM_0
100
AcDbSpline
210
0.0
220
0.0
230
1.0
 70
     8
 71
     3
 72
     8
 73
     4
 74
     0
 42
0.0000000001
 43
0.0000000001
 40
0.0
 40
0.0
 40
0.0
 40
0.0
 40
3.977355368879245
 40
3.977355368879245
 40
3.977355368879245
 40
3.977355368879245
 10
-13.94394514436174
 20
-4.276254704769548
 30
0.0
 10
-12.887841839255
 20
-4.276254704769752
 30
0.0
 10
-11.89675126736506
 20
-3.969282875965899
 30
0.0
 10
-10.94603965763645
 20
-3.471652952255914
 30
0.0
  0
SPLINE
  5
1804
330
1F
100
AcDbEntity
  8
AM_0
100
AcDbSpline
210
0.0
220
0.0
230
1.0
 70
     8
 71
     3
 72
     8
 73
     4
 74
     0
 42
0.0000000001
 43
0.0000000001
 40
0.150648776844293
 40
0.150648776844293
 40
0.150648776844293
 40
0.150648776844293
 40
6.420166228128741
 40
6.420166228128741
 40
6.420166228128741
 40
6.420166228128741
 10
-12.88153789089418
 20
-3.878584593076533
 30
0.0
 10
-14.53944984754317
 20
-3.820633453959847
 30
0.0
 10
-16.05936818720638
 20
-3.081871656228007
 30
0.0
 10
-17.52491584796327
 20
-2.0748645691548
 30
0.0
  0
SPLINE
  5
1805
330
1F
100
AcDbEntity
  8
AM_0
100
AcDbSpline
210
0.0
220
0.0
230
1.0
 70
     8
 71
     3
 72
     8
 73
     4
 74
     0
 42
0.0000000001
 43
0.0000000001
 40
0.0
 40
0.0
 40
0.0
 40
0.0
 40
2.4079390838223
 40
2.4079390838223
 40
2.4079390838223
 40
2.4079390838223
 10
-12.88153789089418
 20
-3.878584593076533
 30
0.0
 10
-12.36196955162519
 20
-3.871977295978416
 30
0.0
 10
-11.74330018698344
 20
-3.760488486324157
 30
0.0
 10
-11.14054510981423
 20
-3.570484331016229
 30
0.0
  0
LINE
  5
1828
330
1F
100
AcDbEntity
  8
AM_0
100
AcDbLine
 10
-23.36602540378228
 20
4.999999999999988
 30
0.0
 11
-23.36602540378466
 21
-5.000000000000009
 31
0.0
  0
LINE
  5
1829
330
1F
100
AcDbEntity
  8
AM_0
100
AcDbLine
 10
-23.36602540378466
 20
-5.000000000000009
 30
0.0
 11
-21.49999999999999
 21
-4.499999999999947
 31
0.0
  0
LINE
  5
182A
330
1F
100
AcDbEntity
  8
AM_0
100
AcDbLine
 10
-21.49999999999999
 20
-4.499999999999947
 30
0.0
 11
-21.49999999999999
 21
4.500000000000563
 31
0.0
  0
LINE
  5
182B
330
1F
100
AcDbEntity
  8
AM_0
100
AcDbLine
 10
-21.49999999999999
 20
4.500000000000563
 30
0.0
 11
-23.36602540378228
 21
4.999999999999989
 31
0.0
  0
LINE
  5
182C
330
1F
100
AcDbEntity
  8
AM_0
100
AcDbLine
 10
-21.49999999999999
 20
-4.500000000000562
 30
0.0
 11
-15.82628700753387
 21
-4.499999999999947
 31
0.0
  0
LINE
  5
182D
330
1F
100
AcDbEntity
  8
AM_0
100
AcDbLine
 10
-21.49999999999999
 20
4.500000000000563
 30
0.0
 11
-20.58836341359057
 21
4.500000000000563
 31
0.0
  0
LINE
  5
1838
330
1F
100
AcDbEntity
  8
AM_11
100
AcDbLine
 10
0.0
 20
4.500000000000563
 30
0.0
 11
0.0
 21
-4.500000000000563
 31
0.0
  0
VIEWPORT
  5
110
330
101
100
AcDbEntity
 67
     1
  8
0
100
AcDbViewport
 10
420.5
 20
297.0
 30
0.0
 40
948.9782706766916
 41
628.452
 68
     1
 69
     1
1001
ACAD
1000
MVIEW
1002
{
1070
    16
1010
0.0
1020
0.0
1030
0.0
1010
0.0
1020
0.0
1030
1.0
1040
0.0
1040
628.452
1040
420.5
1040
297.0
1040
50.0
1040
0.0
1040
0.0
1070
     0
1070
   100
1070
     1
1070
     1
1070
     0
1070
     0
1070
     0
1070
     0
1040
0.0
1040
0.0
1040
0.0
1040
10.0
1040
10.0
1040
10.0
1040
10.0
1070
     0
1002
{
1002
}
1002
}
  0
ENDSEC
  0
SECTION
  2
OBJECTS
  0
DICTIONARY
  5
C
330
0
100
AcDbDictionary
  3
ACAD_GROUP
350
D
  3
ACAD_LAYOUT
350
1A
  3
ACAD_MLINESTYLE
350
17
  3
ACAD_PLOTSETTINGS
350
19
  3
ACAD_PLOTSTYLENAME
350
E
  3
ACDBVARIABLEDICTIONARY
350
34
  3
ACMDICTIONARY
350
43
  3
AMG
350
2B
  3
AMGSNAPSETTINGS
350
6E
  3
DWGPROPS
350
190F
  3
ACDBHEADERROUNDTRIPXREC
350
191B
  0
DICTIONARY
  5
74
330
1F
100
AcDbDictionary
280
     1
  3
ACAD_INDEX
360
1911
  3
ACAD_LAYOUTSELFREF
360
193E
  0
DICTIONARY
  5
1943
330
101
100
AcDbDictionary
280
     1
  3
ACAD_LAYOUTSELFREF
360
1944
  0
DICTIONARY
  5
D
102
{ACAD_REACTORS
330
C
102
}
330
C
100
AcDbDictionary
  0
DICTIONARY
  5
1A
102
{ACAD_REACTORS
330
C
102
}
330
C
100
AcDbDictionary
  0
DICTIONARY
  5
17
102
{ACAD_REACTORS
330
C
102
}
330
C
100
AcDbDictionary
  3
STANDARD
350
18
  0
DICTIONARY
  5
19
102
{ACAD_REACTORS
330
C
102
}
330
C
100
AcDbDictionary
  0
ACDBDICTIONARYWDFLT
  5
E
102
{ACAD_REACTORS
330
C
102
}
330
C
100
AcDbDictionary
281
     1
  3
Normal
350
F
100
AcDbDictionaryWithDefault
340
F
  0
DICTIONARY
  5
34
102
{ACAD_REACTORS
330
C
102
}
330
C
100
AcDbDictionary
  3
INDEXCTL
350
35
  3
SORTENTS
350
B5E
  0
DICTIONARY
  5
43
102
{ACAD_REACTORS
330
C
102
}
330
C
100
AcDbDictionary
  3
ACMSTDDICTIONARY
350
260
  0
DICTIONARY
  5
2B
102
{ACAD_REACTORS
330
C
102
}
330
C
100
AcDbDictionary
  3
ACMGSETTINGS
350
2C
  0
DICTIONARY
  5
6E
102
{ACAD_REACTORS
330
C
102
}
330
C
100
AcDbDictionary
  0
XRECORD
  5
190F
102
{ACAD_REACTORS
330
C
102
}
330
C
100
AcDbXrecord
  1
DWGPROPS COOKIE
  2

  3

  4

  6

  7

  8

  9

300
AmdtFileType=82
301
=
302
=
303
=
304
=
305
=
306
=
307
=
308
=
309
=
 40
0.0516592592592593
 41
2452809.403188831
 42
2452844.435264757
  1

 90
        1
  0
DICTIONARY
  5
191B
102
{ACAD_REACTORS
330
C
102
}
330
C
100
AcDbDictionary
  3
TSTACKALIGN
350
191C
  3
TSTACKSIZE
350
191D
  3
HYPERLINKBASE
350
191E
  3
STYLESHEET
350
191F
  3
LAYOUTDICT
350
1920
  3
PLOTSETDICT
350
1921
  3
PLOTSTYLNAMDICT
350
1922
  3
LWETCUNION
350
1923
  3
INSUNITS
350
1924
  3
CEPSNTYPE
350
1925
  3
FINGERPRINTGUID
350
1926
  3
VERSIONGUID
350
1927
  3
PSVPSCALE
350
1928
  3
DIMSTYLEDATA
350
1929
  3
PUCSORTHOREF
350
192A
  3
PUCSORTHOVIEW
350
192B
  3
PUCSBASE
350
192C
  3
PUCSORGTOP
350
192D
  3
PUCSORGBOTTOM
350
192E
  3
PUCSORGLEFT
350
192F
  3
PUCSORGRIGHT
350
1930
  3
PUCSORGFRONT
350
1931
  3
PUCSORGBACK
350
1932
  3
UCSORTHOREF
350
1933
  3
UCSORTHOVIEW
350
1934
  3
UCSBASE
350
1935
  3
UCSORGTOP
350
1936
  3
UCSORGBOTTOM
350
1937
  3
UCSORGLEFT
350
1938
  3
UCSORGRIGHT
350
1939
  3
UCSORGFRONT
350
193A
  3
UCSORGBACK
350
193B
  0
DICTIONARY
  5
1911
102
{ACAD_REACTORS
330
74
102
}
330
74
100
AcDbDictionary
  3
*A1
350
1912
  0
XRECORD
  5
193E
102
{ACAD_REACTORS
330
74
102
}
330
74
100
AcDbXrecord
340
1F
  0
XRECORD
  5
1944
102
{ACAD_REACTORS
330
1943
102
}
330
1943
100
AcDbXrecord
340
101
  0
MLINESTYLE
  5
18
102
{ACAD_REACTORS
330
17
102
}
330
17
100
AcDbMlineStyle
  2
STANDARD
 70
     0
  3

 62
   256
 51
90.0
 52
90.0
 71
     2
 49
0.5
 62
   256
  6
BYLAYER
 49
-0.5
 62
   256
  6
BYLAYER
  0
ACDBPLACEHOLDER
  5
F
102
{ACAD_REACTORS
330
E
102
}
330
E
100
AcDbPlaceHolder
280
     0
  0
DICTIONARYVAR
  5
35
102
{ACAD_REACTORS
330
34
102
}
330
34
100
DictionaryVariables
280
     0
  1
1
  0
DICTIONARYVAR
  5
B5E
102
{ACAD_REACTORS
330
34
102
}
330
34
100
DictionaryVariables
280
     0
  1
96
  0
DICTIONARY
  5
260
102
{ACAD_REACTORS
330
43
102
}
330
43
100
AcDbDictionary
  0
DICTIONARY
  5
2C
102
{ACAD_REACTORS
330
2B
102
}
330
2B
100
AcDbDictionary
  3
DWGSETTINGS
350
2D
  0
XRECORD
  5
191C
102
{ACAD_REACTORS
330
191B
102
}
330
191B
100
AcDbXrecord
 90
        1
  0
XRECORD
  5
191D
102
{ACAD_REACTORS
330
191B
102
}
330
191B
100
AcDbXrecord
 90
       70
  0
XRECORD
  5
191E
102
{ACAD_REACTORS
330
191B
102
}
330
191B
100
AcDbXrecord
  1

  0
XRECORD
  5
191F
102
{ACAD_REACTORS
330
191B
102
}
330
191B
100
AcDbXrecord
  1
ASAMI.ctb
  0
XRECORD
  5
1920
102
{ACAD_REACTORS
330
191B
102
}
330
191B
100
AcDbXrecord
340
1A
  0
XRECORD
  5
1921
102
{ACAD_REACTORS
330
191B
102
}
330
191B
100
AcDbXrecord
340
19
  0
XRECORD
  5
1922
102
{ACAD_REACTORS
330
191B
102
}
330
191B
100
AcDbXrecord
340
E
  0
XRECORD
  5
1923
102
{ACAD_REACTORS
330
191B
102
}
330
191B
100
AcDbXrecord
 90
    10781
  0
XRECORD
  5
1924
102
{ACAD_REACTORS
330
191B
102
}
330
191B
100
AcDbXrecord
 90
        4
  0
XRECORD
  5
1925
102
{ACAD_REACTORS
330
191B
102
}
330
191B
100
AcDbXrecord
 90
        0
  0
XRECORD
  5
1926
102
{ACAD_REACTORS
330
191B
102
}
330
191B
100
AcDbXrecord
  1
{AFB28963-8C59-40AE-9337-C84526B81ACE}
  0
XRECORD
  5
1927
102
{ACAD_REACTORS
330
191B
102
}
330
191B
100
AcDbXrecord
  1
{114602A1-F2B2-4803-9EC0-CAE9B5985F43}
  0
XRECORD
  5
1928
102
{ACAD_REACTORS
330
191B
102
}
330
191B
100
AcDbXrecord
 40
0.0
  0
XRECORD
  5
1929
102
{ACAD_REACTORS
330
191B
102
}
330
191B
100
AcDbXrecord
1000
DSTYLE
1002
{
1070
    79
 70
     2
1070
   341
340
59
1070
   342
340
59
1070
   371
 70
    -1
1070
   372
 70
    -1
1002
}
  0
XRECORD
  5
192A
102
{ACAD_REACTORS
330
191B
102
}
330
191B
100
AcDbXrecord
340
0
  0
XRECORD
  5
192B
102
{ACAD_REACTORS
330
191B
102
}
330
191B
100
AcDbXrecord
 70
     0
  0
XRECORD
  5
192C
102
{ACAD_REACTORS
330
191B
102
}
330
191B
100
AcDbXrecord
340
0
  0
XRECORD
  5
192D
102
{ACAD_REACTORS
330
191B
102
}
330
191B
100
AcDbXrecord
 10
0.0
 20
0.0
 30
0.0
  0
XRECORD
  5
192E
102
{ACAD_REACTORS
330
191B
102
}
330
191B
100
AcDbXrecord
 10
0.0
 20
0.0
 30
0.0
  0
XRECORD
  5
192F
102
{ACAD_REACTORS
330
191B
102
}
330
191B
100
AcDbXrecord
 10
0.0
 20
0.0
 30
0.0
  0
XRECORD
  5
1930
102
{ACAD_REACTORS
330
191B
102
}
330
191B
100
AcDbXrecord
 10
0.0
 20
0.0
 30
0.0
  0
XRECORD
  5
1931
102
{ACAD_REACTORS
330
191B
102
}
330
191B
100
AcDbXrecord
 10
0.0
 20
0.0
 30
0.0
  0
XRECORD
  5
1932
102
{ACAD_REACTORS
330
191B
102
}
330
191B
100
AcDbXrecord
 10
0.0
 20
0.0
 30
0.0
  0
XRECORD
  5
1933
102
{ACAD_REACTORS
330
191B
102
}
330
191B
100
AcDbXrecord
340
0
  0
XRECORD
  5
1934
102
{ACAD_REACTORS
330
191B
102
}
330
191B
100
AcDbXrecord
 70
     0
  0
XRECORD
  5
1935
102
{ACAD_REACTORS
330
191B
102
}
330
191B
100
AcDbXrecord
340
0
  0
XRECORD
  5
1936
102
{ACAD_REACTORS
330
191B
102
}
330
191B
100
AcDbXrecord
 10
0.0
 20
0.0
 30
0.0
  0
XRECORD
  5
1937
102
{ACAD_REACTORS
330
191B
102
}
330
191B
100
AcDbXrecord
 10
0.0
 20
0.0
 30
0.0
  0
XRECORD
  5
1938
102
{ACAD_REACTORS
330
191B
102
}
330
191B
100
AcDbXrecord
 10
0.0
 20
0.0
 30
0.0
  0
XRECORD
  5
1939
102
{ACAD_REACTORS
330
191B
102
}
330
191B
100
AcDbXrecord
 10
0.0
 20
0.0
 30
0.0
  0
XRECORD
  5
193A
102
{ACAD_REACTORS
330
191B
102
}
330
191B
100
AcDbXrecord
 10
0.0
 20
0.0
 30
0.0
  0
XRECORD
  5
193B
102
{ACAD_REACTORS
330
191B
102
}
330
191B
100
AcDbXrecord
 10
0.0
 20
0.0
 30
0.0
  0
LAYER_INDEX
  5
1912
102
{ACAD_REACTORS
330
1911
102
}
330
1911
100
AcDbIndex
 40
2452844.460019167
100
AcDbLayerIndex
  8
0
360
1913
 90
        0
  8
AM_0
360
1914
 90
       55
  8
AM_11
360
1915
 90
        4
  8
AM_7
360
1916
 90
        1
  8
AM_5
360
1917
 90
        4
  8
Defpoints
360
1918
 90
        0
  8
AM_6
360
1919
 90
        1
  0
XRECORD
  5
2D
102
{ACAD_REACTORS
330
2C
102
}
330
2C
100
AcDbXrecord
  1
VERSION
140
15.0
  1
PRODUCT
  2
AutoCAD Mechanical 2000
  0
IDBUFFER
  5
1913
330
0
100
AcDbIdBuffer
  0
IDBUFFER
  5
1914
330
0
100
AcDbIdBuffer
330
1805
330
1828
330
1829
330
182A
330
182B
330
182C
330
182D
330
C5D
330
D2F
330
146C
330
1470
330
1474
330
1476
330
17CD
330
17CE
330
17CF
330
17D0
330
17D1
330
17D2
330
17D3
330
17D4
330
17D5
330
17D6
330
17D7
330
17D8
330
17D9
330
17DA
330
17E9
330
17EA
330
17EB
330
17EC
330
17ED
330
17EE
330
17EF
330
17F0
330
17F1
330
17F2
330
17F3
330
17F4
330
17F5
330
17F6
330
17F7
330
17F8
330
17F9
330
17FA
330
17FB
330
17FC
330
17FD
330
17FE
330
17FF
330
1800
330
1801
330
1802
330
1803
330
1804
  0
IDBUFFER
  5
1915
330
0
100
AcDbIdBuffer
330
1612
330
161A
330
1629
330
1838
  0
IDBUFFER
  5
1916
330
0
100
AcDbIdBuffer
330
C2F
  0
IDBUFFER
  5
1917
330
0
100
AcDbIdBuffer
330
D39
330
161B
330
1639
330
1680
  0
IDBUFFER
  5
1918
330
0
100
AcDbIdBuffer
  0
IDBUFFER
  5
1919
330
0
100
AcDbIdBuffer
330
F17
  0
ENDSEC
  0
EOF
