  0
SECTION
  2
HEADER
  9
$ACADVER
  1
AC1014
  9
$ACADMAINTVER
 70
     9
  9
$DWGCODEPAGE
  3
ANSI_932
  9
$INSBASE
 10
0.0
 20
0.0
 30
0.0
  9
$EXTMIN
 10
-108.700001
 20
-53.50000000000072
 30
-0.00000001
  9
$EXTMAX
 10
19.53057127860814
 20
5.997582660672425
 30
0.00000001
  9
$LIMMIN
 10
-123.2651145424364
 20
-67.54112074043894
  9
$LIMMAX
 10
37.33253856373483
 20
20.00918693714891
  9
$ORTHOMODE
 70
     0
  9
$REGENMODE
 70
     1
  9
$FILLMODE
 70
     1
  9
$QTEXTMODE
 70
     0
  9
$MIRRTEXT
 70
     0
  9
$DRAGMODE
 70
     2
  9
$LTSCALE
 40
1.0
  9
$OSMODE
 70
  2103
  9
$ATTMODE
 70
     1
  9
$TEXTSIZE
 40
2.5
  9
$TRACEWID
 40
1.0
  9
$TEXTSTYLE
  7
STANDARD
  9
$CLAYER
  8
AM_11
  9
$CELTYPE
  6
BYLAYER
  9
$CECOLOR
 62
   256
  9
$CELTSCALE
 40
1.0
  9
$DELOBJ
 70
     1
  9
$DISPSILH
 70
     0
  9
$DIMSCALE
 40
1.0
  9
$DIMASZ
 40
2.5
  9
$DIMEXO
 40
1.0
  9
$DIMDLI
 40
12.0
  9
$DIMRND
 40
0.0
  9
$DIMDLE
 40
0.0
  9
$DIMEXE
 40
1.0
  9
$DIMTP
 40
0.1
  9
$DIMTM
 40
0.1
  9
$DIMTXT
 40
3.2
  9
$DIMCEN
 40
0.0
  9
$DIMTSZ
 40
0.0
  9
$DIMTOL
 70
     0
  9
$DIMLIM
 70
     0
  9
$DIMTIH
 70
     0
  9
$DIMTOH
 70
     0
  9
$DIMSE1
 70
     0
  9
$DIMSE2
 70
     0
  9
$DIMTAD
 70
     3
  9
$DIMZIN
 70
     8
  9
$DIMBLK
  1
OPEN30
  9
$DIMASO
 70
     1
  9
$DIMSHO
 70
     1
  9
$DIMPOST
  1

  9
$DIMAPOST
  1
"
  9
$DIMALT
 70
     0
  9
$DIMALTD
 70
     2
  9
$DIMALTF
 40
0.0393701
  9
$DIMLFAC
 40
1.0
  9
$DIMTOFL
 70
     1
  9
$DIMTVP
 40
0.0
  9
$DIMTIX
 70
     0
  9
$DIMSOXD
 70
     0
  9
$DIMSAH
 70
     0
  9
$DIMBLK1
  1

  9
$DIMBLK2
  1

  9
$DIMSTYLE
  2
AM_JIS
  9
$DIMCLRD
 70
   256
  9
$DIMCLRE
 70
   256
  9
$DIMCLRT
 70
     2
  9
$DIMTFAC
 40
0.71
  9
$DIMGAP
 40
1.5
  9
$DIMJUST
 70
     0
  9
$DIMSD1
 70
     0
  9
$DIMSD2
 70
     0
  9
$DIMTOLJ
 70
     0
  9
$DIMTZIN
 70
     0
  9
$DIMALTZ
 70
     0
  9
$DIMALTTZ
 70
     0
  9
$DIMFIT
 70
     3
  9
$DIMUPT
 70
     0
  9
$DIMUNIT
 70
     2
  9
$DIMDEC
 70
     3
  9
$DIMTDEC
 70
     3
  9
$DIMALTU
 70
     2
  9
$DIMALTTD
 70
     2
  9
$DIMTXSTY
  7
ASAMI
  9
$DIMAUNIT
 70
     0
  9
$LUNITS
 70
     2
  9
$LUPREC
 70
     2
  9
$SKETCHINC
 40
1.0
  9
$FILLETRAD
 40
2.0
  9
$AUNITS
 70
     0
  9
$AUPREC
 70
     0
  9
$MENU
  1
.
  9
$ELEVATION
 40
0.0
  9
$PELEVATION
 40
0.0
  9
$THICKNESS
 40
0.0
  9
$LIMCHECK
 70
     0
  9
$BLIPMODE
 70
     0
  9
$CHAMFERA
 40
0.5
  9
$CHAMFERB
 40
0.5
  9
$CHAMFERC
 40
20.0
  9
$CHAMFERD
 40
0.0
  9
$SKPOLY
 70
     0
  9
$TDCREATE
 40
2452809.403188831
  9
$TDUPDATE
 40
2452844.462659676
  9
$TDINDWG
 40
0.0423226042
  9
$TDUSRTIMER
 40
0.0423226042
  9
$USRTIMER
 70
     1
  9
$ANGBASE
 50
0.0
  9
$ANGDIR
 70
     0
  9
$PDMODE
 70
     0
  9
$PDSIZE
 40
0.0
  9
$PLINEWID
 40
0.0
  9
$COORDS
 70
     2
  9
$SPLFRAME
 70
     0
  9
$SPLINETYPE
 70
     6
  9
$SPLINESEGS
 70
     8
  9
$ATTDIA
 70
     1
  9
$ATTREQ
 70
     1
  9
$HANDLING
 70
 12289
  9
$HANDSEED
  5
1AD4
  9
$SURFTAB1
 70
     6
  9
$SURFTAB2
 70
     6
  9
$SURFTYPE
 70
     6
  9
$SURFU
 70
     6
  9
$SURFV
 70
     6
  9
$UCSNAME
  2

  9
$UCSORG
 10
0.0
 20
0.0
 30
0.0
  9
$UCSXDIR
 10
1.0
 20
0.0
 30
0.0
  9
$UCSYDIR
 10
0.0
 20
1.0
 30
0.0
  9
$PUCSNAME
  2

  9
$PUCSORG
 10
0.0
 20
0.0
 30
0.0
  9
$PUCSXDIR
 10
1.0
 20
0.0
 30
0.0
  9
$PUCSYDIR
 10
0.0
 20
1.0
 30
0.0
  9
$USERI1
 70
     0
  9
$USERI2
 70
     0
  9
$USERI3
 70
     0
  9
$USERI4
 70
     0
  9
$USERI5
 70
     0
  9
$USERR1
 40
0.0
  9
$USERR2
 40
0.0
  9
$USERR3
 40
0.0
  9
$USERR4
 40
0.0
  9
$USERR5
 40
0.0
  9
$WORLDVIEW
 70
     1
  9
$SHADEDGE
 70
     3
  9
$SHADEDIF
 70
    70
  9
$TILEMODE
 70
     1
  9
$MAXACTVP
 70
    64
  9
$PINSBASE
 10
0.0
 20
0.0
 30
0.0
  9
$PLIMCHECK
 70
     0
  9
$PEXTMIN
 10
1.000000000000000E+20
 20
1.000000000000000E+20
 30
1.000000000000000E+20
  9
$PEXTMAX
 10
-1.000000000000000E+20
 20
-1.000000000000000E+20
 30
-1.000000000000000E+20
  9
$PLIMMIN
 10
0.0
 20
0.0
  9
$PLIMMAX
 10
841.0
 20
594.0
  9
$UNITMODE
 70
     0
  9
$VISRETAIN
 70
     1
  9
$PLINEGEN
 70
     0
  9
$PSLTSCALE
 70
     0
  9
$TREEDEPTH
 70
  3020
  9
$PICKSTYLE
 70
     0
  9
$CMLSTYLE
  2
STANDARD
  9
$CMLJUST
 70
     0
  9
$CMLSCALE
 40
20.0
  9
$PROXYGRAPHICS
 70
     1
  9
$MEASUREMENT
 70
     1
  0
ENDSEC
  0
SECTION
  2
CLASSES
  0
CLASS
  1
ACDBDICTIONARYWDFLT
  2
AcDbDictionaryWithDefault
  3
AutoCAD 2000
 90
        0
280
     0
281
     0
  0
CLASS
  1
ACDBPLACEHOLDER
  2
AcDbPlaceHolder
  3
AutoCAD 2000
 90
        0
280
     0
281
     0
  0
CLASS
  1
LAYOUT
  2
AcDbLayout
  3
AutoCAD 2000
 90
        0
280
     0
281
     0
  0
CLASS
  1
AMGSETTINGSOBJ
  2
AmgSettingsObj
  3
"AcadM|Product Description: AutoCAD Mechanical 2000|Company: Autodesk"
 90
        0
280
     0
281
     0
  0
CLASS
  1
ACME_DOCUMENT
  2
AcMeDbDoc
  3
AcMeServices
 90
        0
280
     0
281
     0
  0
CLASS
  1
ACMESCOPE
  2
AcMeScope
  3
AcMeServices
 90
        0
280
     0
281
     0
  0
CLASS
  1
ACMECOMMANDHISTORY
  2
AcMeCommandHistory
  3
AcMeServices
 90
        0
280
     0
281
     0
  0
CLASS
  1
DICTIONARYVAR
  2
AcDbDictionaryVar
  3
AutoCAD 2000
 90
        0
280
     0
281
     0
  0
CLASS
  1
ACIMSYSVARMAN
  2
AcImSysVarManager
  3
AcMeServices
 90
        0
280
     0
281
     0
  0
CLASS
  1
ACIMREALSYSVAR
  2
AcImRealSysVar
  3
AcMeServices
 90
        0
280
     0
281
     0
  0
CLASS
  1
ACIMINTSYSVAR
  2
AcImIntSysVar
  3
AcMeServices
 90
        0
280
     0
281
     0
  0
CLASS
  1
ACMEDRAWINGMAN
  2
AcMeDrawingMan
  3
AcMeServices
 90
        0
280
     0
281
     0
  0
CLASS
  1
ACMEVIEW
  2
AcMeView
  3
AcMeServices
 90
        0
280
     0
281
     0
  0
CLASS
  1
ACDBENTITYCACHE
  2
AcMeEntityCache
  3
AcMeServices
 90
        0
280
     0
281
     0
  0
CLASS
  1
GSMANAGER
  2
AcMeGSManager
  3
AcMeServices
 90
        0
280
     0
281
     0
  0
CLASS
  1
AmdtInternalReactor
  2
AmdtInternalReactor
  3
AcMeServices
 90
        0
280
     0
281
     0
  0
CLASS
  1
ACMESTATEMGR
  2
AcMeStateMgr
  3
AcMeServices
 90
        0
280
     0
281
     0
  0
CLASS
  1
ACME_DATABASE
  2
AcMeDbDatabase
  3
AcMeServices
 90
        0
280
     0
281
     0
  0
CLASS
  1
ACRFINSADJUSTERMGR
  2
AcRfInsAdjusterMgr
  3
AcMeServices
 90
        0
280
     0
281
     0
  0
CLASS
  1
ACMDATADICTIONARY
  2
AcmDataDictionary
  3
"AcmSymBB|Product Description: AutoCAD Mechanical 2000|Company: Autodesk"
 90
        0
280
     0
281
     0
  0
CLASS
  1
ACMDATAENTRYBLOCK
  2
AcmDataEntryBlock
  3
"AcmSymBB|Product Description: AutoCAD Mechanical 2000|Company: Autodesk"
 90
        0
280
     0
281
     0
  0
CLASS
  1
AMGOBJPROPCFG
  2
AmgObjPropCfg
  3
"AmgLay|Product Description: AutoCAD Mechanical 2000|Company: Autodesk"
 90
        1
280
     0
281
     0
  0
CLASS
  1
ACAMGFILTERDAT
  2
AcAmgFilterDat
  3
"AcadM|Product Description: AutoCAD Mechanical 2000|Company: Autodesk"
 90
        0
280
     0
281
     0
  0
CLASS
  1
LAYER_INDEX
  2
AcDbLayerIndex
  3
AutoCAD 2000
 90
        0
280
     0
281
     0
  0
CLASS
  1
IDBUFFER
  2
AcDbIdBuffer
  3
AutoCAD 2000
 90
        0
280
     0
281
     0
  0
CLASS
  1
ACIMSTRSYSVAR
  2
AcImStrSysVar
  3
AcMeServices
 90
        0
280
     0
281
     0
  0
CLASS
  1
ACMSTANDARDJIS
  2
AcmStandardJIS
  3
"AcmSymBB|Product Description: AutoCAD Mechanical 2000|Company: Autodesk"
 90
        0
280
     0
281
     0
  0
CLASS
  1
ACMSURFSTANDARDJIS
  2
AcmSurfTextStdJIS
  3
"AcmSymBB|Product Description: AutoCAD Mechanical 2000|Company: Autodesk"
 90
        0
280
     0
281
     0
  0
CLASS
  1
ACMFCFSTANDARDJIS
  2
AcmFCFStdJIS
  3
"AcmSymBB|Product Description: AutoCAD Mechanical 2000|Company: Autodesk"
 90
        0
280
     0
281
     0
  0
CLASS
  1
ACMWELDSTANDARDJIS
  2
AcmWeldingStdJIS
  3
"AcmSymBB|Product Description: AutoCAD Mechanical 2000|Company: Autodesk"
 90
        0
280
     0
281
     0
  0
CLASS
  1
ACMIDSTANDARDJIS
  2
AcmIdStdJIS
  3
"AcmSymBB|Product Description: AutoCAD Mechanical 2000|Company: Autodesk"
 90
        0
280
     0
281
     0
  0
CLASS
  1
ACMDATUMSTANDARDJIS
  2
AcmDatumStdJIS
  3
"AcmSymBB|Product Description: AutoCAD Mechanical 2000|Company: Autodesk"
 90
        0
280
     0
281
     0
  0
CLASS
  1
ACMBOMSTANDARDJIS
  2
AcmBOMStdJIS
  3
"AcmSymBB|Product Description: AutoCAD Mechanical 2000|Company: Autodesk"
 90
        0
280
     0
281
     0
  0
CLASS
  1
ACMSTANDARDANSI
  2
AcmStandardANSI
  3
"AcmSymBB|Product Description: AutoCAD Mechanical 2000|Company: Autodesk"
 90
        0
280
     0
281
     0
  0
CLASS
  1
ACMSURFSTANDARDANSI
  2
AcmSurfTextStdANSI
  3
"AcmSymBB|Product Description: AutoCAD Mechanical 2000|Company: Autodesk"
 90
        0
280
     0
281
     0
  0
CLASS
  1
ACMFCFSTANDARDANSI
  2
AcmFCFStdANSI
  3
"AcmSymBB|Product Description: AutoCAD Mechanical 2000|Company: Autodesk"
 90
        0
280
     0
281
     0
  0
CLASS
  1
ACMWELDSTANDARDANSI
  2
AcmWeldingStdANSI
  3
"AcmSymBB|Product Description: AutoCAD Mechanical 2000|Company: Autodesk"
 90
        0
280
     0
281
     0
  0
CLASS
  1
ACMIDSTANDARDANSI
  2
AcmIdStdANSI
  3
"AcmSymBB|Product Description: AutoCAD Mechanical 2000|Company: Autodesk"
 90
        0
280
     0
281
     0
  0
CLASS
  1
ACMDATUMSTANDARDANSI
  2
AcmDatumStdANSI
  3
"AcmSymBB|Product Description: AutoCAD Mechanical 2000|Company: Autodesk"
 90
        0
280
     0
281
     0
  0
CLASS
  1
ACMBOMSTANDARDANSI
  2
AcmBOMStdANSI
  3
"AcmSymBB|Product Description: AutoCAD Mechanical 2000|Company: Autodesk"
 90
        0
280
     0
281
     0
  0
CLASS
  1
ACMSTANDARDBSI
  2
AcmStandardBSI
  3
"AcmSymBB|Product Description: AutoCAD Mechanical 2000|Company: Autodesk"
 90
        0
280
     0
281
     0
  0
CLASS
  1
ACMSURFSTANDARDBSI
  2
AcmSurfTextStdBSI
  3
"AcmSymBB|Product Description: AutoCAD Mechanical 2000|Company: Autodesk"
 90
        0
280
     0
281
     0
  0
CLASS
  1
ACMFCFSTANDARDBSI
  2
AcmFCFStdBSI
  3
"AcmSymBB|Product Description: AutoCAD Mechanical 2000|Company: Autodesk"
 90
        0
280
     0
281
     0
  0
CLASS
  1
ACMWELDSTANDARDBSI
  2
AcmWeldingStdBSI
  3
"AcmSymBB|Product Description: AutoCAD Mechanical 2000|Company: Autodesk"
 90
        0
280
     0
281
     0
  0
CLASS
  1
ACMIDSTANDARDBSI
  2
AcmIdStdBSI
  3
"AcmSymBB|Product Description: AutoCAD Mechanical 2000|Company: Autodesk"
 90
        0
280
     0
281
     0
  0
CLASS
  1
ACMDATUMSTANDARDBSI
  2
AcmDatumStdBSI
  3
"AcmSymBB|Product Description: AutoCAD Mechanical 2000|Company: Autodesk"
 90
        0
280
     0
281
     0
  0
CLASS
  1
ACMBOMSTANDARDBSI
  2
AcmBOMStdBSI
  3
"AcmSymBB|Product Description: AutoCAD Mechanical 2000|Company: Autodesk"
 90
        0
280
     0
281
     0
  0
CLASS
  1
SORTENTSTABLE
  2
AcDbSortentsTable
  3
AutoCAD 2000
 90
        0
280
     0
281
     0
  0
CLASS
  1
LONG_TRANSACTION
  2
AcDbLongTransaction
  3
AutoCAD 2000
 90
        0
280
     0
281
     0
  0
CLASS
  1
LWPOLYLINE
  2
AcDbPolyline
  3
AutoCAD 2000
 90
        0
280
     0
281
     1
  0
CLASS
  1
HATCH
  2
AcDbHatch
  3
AutoCAD 2000
 90
        0
280
     0
281
     1
  0
CLASS
  1
XRECORD
  2
AcDbXrecord
  3
AutoCAD 2000
 90
        0
280
     0
281
     0
  0
ENDSEC
  0
SECTION
  2
TABLES
  0
TABLE
  2
VPORT
  5
8
330
0
100
AcDbSymbolTable
 70
     3
  0
VPORT
  5
1AA3
330
8
100
AcDbSymbolTableRecord
100
AcDbViewportTableRecord
  2
*ACTIVE
 70
     0
 10
0.0
 20
0.0
 11
1.0
 21
1.0
 12
-44.58424011185428
 22
-23.74962089882397
 13
0.0
 23
0.0
 14
2.5
 24
2.5
 15
10.0
 25
10.0
 16
0.0
 26
0.0
 36
1.0
 17
0.0
 27
0.0
 37
0.0
 40
82.22474562544494
 41
1.56570841889117
 42
50.0
 43
0.0
 44
0.0
 50
0.0
 51
0.0
 71
     0
 72
   100
 73
     1
 74
     3
 75
     0
 76
     0
 77
     0
 78
     0
  0
ENDTAB
  0
TABLE
  2
LTYPE
  5
5
330
0
100
AcDbSymbolTable
 70
    10
  0
LTYPE
  5
14
330
5
100
AcDbSymbolTableRecord
100
AcDbLinetypeTableRecord
  2
BYBLOCK
 70
     0
  3

 72
    65
 73
     0
 40
0.0
  0
LTYPE
  5
15
330
5
100
AcDbSymbolTableRecord
100
AcDbLinetypeTableRecord
  2
BYLAYER
 70
     0
  3

 72
    65
 73
     0
 40
0.0
  0
LTYPE
  5
16
330
5
100
AcDbSymbolTableRecord
100
AcDbLinetypeTableRecord
  2
CONTINUOUS
 70
     0
  3
Solid line
 72
    65
 73
     0
 40
0.0
  0
LTYPE
  5
4B
330
5
100
AcDbSymbolTableRecord
100
AcDbLinetypeTableRecord
  2
AM_ISO02W050
 70
     0
  3
__ __ __ __ __ __ __ __ __ __ __ __ __ __ __
 72
    65
 73
     2
 40
7.5
 49
6.0
 74
     0
 49
-1.5
 74
     0
  0
LTYPE
  5
4C
330
5
100
AcDbSymbolTableRecord
100
AcDbLinetypeTableRecord
  2
AM_ISO08W050
 70
     0
  3
____ . ____ . ____ . ____ . ____ . ____ . ____
 72
    65
 73
     4
 40
18.0
 49
12.0
 74
     0
 49
-1.5
 74
     0
 49
3.0
 74
     0
 49
-1.5
 74
     0
  0
LTYPE
  5
4D
330
5
100
AcDbSymbolTableRecord
100
AcDbLinetypeTableRecord
  2
AM_ISO09W050
 70
     0
  3
_____ . . _____ . . _____ . . ____ .. ____
 72
    65
 73
     6
 40
22.5
 49
12.0
 74
     0
 49
-1.5
 74
     0
 49
3.0
 74
     0
 49
-1.5
 74
     0
 49
3.0
 74
     0
 49
-1.5
 74
     0
  0
LTYPE
  5
4E
330
5
100
AcDbSymbolTableRecord
100
AcDbLinetypeTableRecord
  2
AMCONSTR
 70
     0
  3
_______________________
 72
    65
 73
     2
 40
9999.0
 49
9999.0
 74
     0
 49
0.0
 74
     0
  0
LTYPE
  5
4F
330
5
100
AcDbSymbolTableRecord
100
AcDbLinetypeTableRecord
  2
AM_ISO02W050X2
 70
     0
  3
 _ _ _ _ _ _ _ _ _ _ _ _
 72
    65
 73
     2
 40
3.75
 49
3.0
 74
     0
 49
-0.75
 74
     0
  0
LTYPE
  5
50
330
5
100
AcDbSymbolTableRecord
100
AcDbLinetypeTableRecord
  2
AM_ISO08W050X2
 70
     0
  3
__ . __ . __ . __ . __ . __
 72
    65
 73
     4
 40
9.0
 49
6.0
 74
     0
 49
-0.75
 74
     0
 49
1.5
 74
     0
 49
-0.75
 74
     0
  0
LTYPE
  5
53
330
5
100
AcDbSymbolTableRecord
100
AcDbLinetypeTableRecord
  2
AMZIGZAG
 70
     0
  3
/\/-/\/-/\/-/\/-/\/-/\/
 72
    65
 73
     2
 40
11.00009999999999
 49
0.0001
 74
     4
 75
   135
340
52
 46
0.04
 50
0.0
 44
0.0
 45
0.0
 49
-11.0
 74
     0
  0
LTYPE
  5
166
330
5
100
AcDbSymbolTableRecord
100
AcDbLinetypeTableRecord
  2
ACJISTGL
 70
     0
  3
_ _ _ _ _
 72
    65
 73
     2
 40
3.0
 49
2.0
 74
     0
 49
-1.0
 74
     0
  0
LTYPE
  5
26A
330
5
100
AcDbSymbolTableRecord
100
AcDbLinetypeTableRecord
  2
ACJISTGB
 70
     0
  3
__ . . __ . .
 72
    65
 73
     6
 40
9.0
 49
4.0
 74
     0
 49
-1.0
 74
     0
 49
1.0
 74
     0
 49
-1.0
 74
     0
 49
1.0
 74
     0
 49
-1.0
 74
     0
  0
ENDTAB
  0
TABLE
  2
LAYER
  5
2
330
0
100
AcDbSymbolTable
 70
     7
  0
LAYER
  5
10
330
2
100
AcDbSymbolTableRecord
100
AcDbLayerTableRecord
  2
0
 70
     0
 62
     7
  6
CONTINUOUS
  0
LAYER
  5
3F9
330
2
100
AcDbSymbolTableRecord
100
AcDbLayerTableRecord
  2
AM_0
 70
     0
 62
     7
  6
CONTINUOUS
  0
LAYER
  5
BA4
330
2
100
AcDbSymbolTableRecord
100
AcDbLayerTableRecord
  2
AM_11
 70
     0
 62
     3
  6
AM_ISO09W050
  0
LAYER
  5
BA5
330
2
100
AcDbSymbolTableRecord
100
AcDbLayerTableRecord
  2
AM_7
 70
     0
 62
     4
  6
AM_ISO08W050
  0
LAYER
  5
D38
330
2
100
AcDbSymbolTableRecord
100
AcDbLayerTableRecord
  2
AM_5
 70
     0
 62
     3
  6
CONTINUOUS
  0
LAYER
  5
D3A
330
2
100
AcDbSymbolTableRecord
100
AcDbLayerTableRecord
  2
DEFPOINTS
 70
     0
 62
     7
  6
CONTINUOUS
  0
LAYER
  5
F16
330
2
100
AcDbSymbolTableRecord
100
AcDbLayerTableRecord
  2
AM_6
 70
     0
 62
     2
  6
CONTINUOUS
  0
ENDTAB
  0
TABLE
  2
STYLE
  5
3
330
0
100
AcDbSymbolTable
 70
     5
  0
STYLE
  5
11
330
3
100
AcDbSymbolTableRecord
100
AcDbTextStyleTableRecord
  2
STANDARD
 70
     0
 40
0.0
 41
1.0
 50
0.0
 71
     0
 42
2.5
  3
simplex.shx
  4
EXTFONT.SHX
  0
STYLE
  5
52
330
3
100
AcDbSymbolTableRecord
100
AcDbTextStyleTableRecord
  2

 70
     1
 40
0.0
 41
1.0
 50
0.0
 71
     0
 42
2.5
  3
ltypeshp.shx
  4

  0
STYLE
  5
6B
330
3
100
AcDbSymbolTableRecord
100
AcDbTextStyleTableRecord
  2
ASAMI
 70
     0
 40
0.0
 41
1.0
 50
0.0
 71
     0
 42
2.5
  3
simplex.shx
  4
EXTFONT.SHX
  0
STYLE
  5
262
330
3
100
AcDbSymbolTableRecord
100
AcDbTextStyleTableRecord
  2
ACJISTS
 70
     0
 40
1.0
 41
1.0
 50
0.0
 71
     0
 42
2.5
  3
simplex.shx
  4
bigfont.shx
  0
STYLE
  5
269
330
3
100
AcDbSymbolTableRecord
100
AcDbTextStyleTableRecord
  2
ACJISGDT
 70
     0
 40
0.0
 41
1.0
 50
0.0
 71
     0
 42
2.5
  3
amgdtans.shx
  4

  0
ENDTAB
  0
TABLE
  2
VIEW
  5
6
330
0
100
AcDbSymbolTable
 70
     0
  0
ENDTAB
  0
TABLE
  2
UCS
  5
7
330
0
100
AcDbSymbolTable
 70
     0
  0
ENDTAB
  0
TABLE
  2
APPID
  5
9
330
0
100
AcDbSymbolTable
 70
    13
  0
APPID
  5
12
330
9
100
AcDbSymbolTableRecord
100
AcDbRegAppTableRecord
  2
ACAD
 70
     0
  0
APPID
  5
30
330
9
100
AcDbSymbolTableRecord
100
AcDbRegAppTableRecord
  2
MCAD_NO_VIS
 70
     0
  0
APPID
  5
31
330
9
100
AcDbSymbolTableRecord
100
AcDbRegAppTableRecord
  2
ACAD_TEMP_GRAPHIC
 70
     0
  0
APPID
  5
2C2
330
9
100
AcDbSymbolTableRecord
100
AcDbRegAppTableRecord
  2
GENIUS_GENDTOL_13
 70
     0
  0
APPID
  5
339
330
9
100
AcDbSymbolTableRecord
100
AcDbRegAppTableRecord
  2
GENIUS_GENODEF_13
 70
     0
  0
APPID
  5
33A
330
9
100
AcDbSymbolTableRecord
100
AcDbRegAppTableRecord
  2
GENIUS_GENOBJ-N-RSBK_13
 70
     0
  0
APPID
  5
33B
330
9
100
AcDbSymbolTableRecord
100
AcDbRegAppTableRecord
  2
GENIUS_GENOBJ-N-LIB_13
 70
     0
  0
APPID
  5
33C
330
9
100
AcDbSymbolTableRecord
100
AcDbRegAppTableRecord
  2
GENIUS_GENSCALE_13
 70
     0
  0
APPID
  5
378
330
9
100
AcDbSymbolTableRecord
100
AcDbRegAppTableRecord
  2
GENIUS_GENDIMSH_14
 70
     0
  0
APPID
  5
BA6
330
9
100
AcDbSymbolTableRecord
100
AcDbRegAppTableRecord
  2
GENIUS_GENOBJ-N-CEN_13
 70
     0
  0
APPID
  5
D2B
330
9
100
AcDbSymbolTableRecord
100
AcDbRegAppTableRecord
  2
GENIUS_GENFIL_13
 70
     0
  0
APPID
  5
D2C
330
9
100
AcDbSymbolTableRecord
100
AcDbRegAppTableRecord
  2
GENIUS_GENOBJ-N-CHA_13
 70
     0
  0
APPID
  5
16E4
330
9
100
AcDbSymbolTableRecord
100
AcDbRegAppTableRecord
  2
GENIUS_GENOBJ-N-FIL_13
 70
     0
  0
ENDTAB
  0
TABLE
  2
DIMSTYLE
  5
A
330
0
100
AcDbSymbolTable
 70
     8
  0
DIMSTYLE
105
58
102
{ACAD_REACTORS
330
D39
330
DC2
330
1525
330
19EC
102
}
330
A
100
AcDbSymbolTableRecord
100
AcDbDimStyleTableRecord
  2
AM_JIS
 70
     0
  3

  4
"
  5
OPEN30
  6

  7

 40
1.0
 41
2.5
 42
1.0
 43
12.0
 44
1.0
 45
0.0
 46
0.0
 47
0.1
 48
0.1
140
3.2
141
0.0
142
0.0
143
0.0393701
144
1.0
145
0.0
146
0.71
147
1.5
 71
     0
 72
     0
 73
     0
 74
     0
 75
     0
 76
     0
 77
     3
 78
     8
170
     0
171
     2
172
     1
173
     0
174
     0
175
     0
176
   256
177
   256
178
     2
270
     2
271
     3
272
     3
273
     2
274
     2
340
6B
275
     0
280
     0
281
     0
282
     0
283
     0
284
     0
285
     0
286
     0
287
     3
288
     0
  0
DIMSTYLE
105
5F
330
A
100
AcDbSymbolTableRecord
100
AcDbDimStyleTableRecord
  2
AM_JIS$3
 70
     0
  3

  4
"
  5
OPEN30
  6

  7

 40
1.0
 41
2.5
 42
1.0
 43
10.0
 44
1.0
 45
0.0
 46
0.0
 47
0.1
 48
0.1
140
3.2
141
0.0
142
0.0
143
0.0393701
144
1.0
145
0.0
146
0.71
147
1.5
 71
     0
 72
     0
 73
     0
 74
     1
 75
     0
 76
     0
 77
     3
 78
     8
170
     0
171
     2
172
     0
173
     0
174
     0
175
     0
176
   256
177
   256
178
     2
270
     2
271
     2
272
     3
273
     2
274
     2
340
6B
275
     0
280
     0
281
     0
282
     0
283
     0
284
     0
285
     0
286
     0
287
     0
288
     1
  0
DIMSTYLE
105
60
102
{ACAD_REACTORS
330
1967
102
}
330
A
100
AcDbSymbolTableRecord
100
AcDbDimStyleTableRecord
  2
AM_JIS$4
 70
     0
  3

  4
"
  5
OPEN30
  6

  7

 40
1.0
 41
2.5
 42
1.0
 43
10.0
 44
1.0
 45
0.0
 46
0.0
 47
0.1
 48
0.1
140
3.2
141
0.0
142
0.0
143
0.0393701
144
1.0
145
0.0
146
0.71
147
1.5
 71
     0
 72
     0
 73
     0
 74
     1
 75
     0
 76
     0
 77
     3
 78
     8
170
     0
171
     2
172
     0
173
     0
174
     0
175
     0
176
   256
177
   256
178
     2
270
     2
271
     2
272
     3
273
     2
274
     2
340
6B
275
     0
280
     0
281
     0
282
     0
283
     0
284
     0
285
     0
286
     0
287
     0
288
     1
  0
DIMSTYLE
105
61
330
A
100
AcDbSymbolTableRecord
100
AcDbDimStyleTableRecord
  2
AM_JIS$6
 70
     0
  3

  4
"
  5
OPEN30
  6

  7

 40
1.0
 41
2.5
 42
1.0
 43
10.0
 44
1.0
 45
0.0
 46
0.0
 47
0.1
 48
0.1
140
3.2
141
0.0
142
0.0
143
0.0393701
144
1.0
145
0.0
146
0.71
147
1.5
 71
     0
 72
     0
 73
     0
 74
     0
 75
     0
 76
     0
 77
     0
 78
     8
170
     0
171
     2
172
     1
173
     0
174
     0
175
     0
176
   256
177
   256
178
     2
270
     2
271
     2
272
     2
273
     2
274
     2
340
6B
275
     0
280
     0
281
     0
282
     0
283
     0
284
     0
285
     0
286
     0
287
     3
288
     0
  0
DIMSTYLE
105
62
330
A
100
AcDbSymbolTableRecord
100
AcDbDimStyleTableRecord
  2
AM_JIS$7
 70
     0
  3

  4
"
  5
OPEN30
  6

  7

 40
1.0
 41
2.5
 42
1.0
 43
10.0
 44
1.0
 45
0.0
 46
0.0
 47
0.1
 48
0.1
140
3.2
141
0.0
142
0.0
143
0.0393701
144
1.0
145
0.0
146
0.71
147
1.5
 71
     0
 72
     0
 73
     0
 74
     0
 75
     0
 76
     0
 77
     3
 78
     8
170
     0
171
     2
172
     1
173
     0
174
     0
175
     0
176
   256
177
   256
178
     2
270
     2
271
     2
272
     3
273
     2
274
     2
340
6B
275
     0
280
     0
281
     0
282
     0
283
     0
284
     0
285
     0
286
     0
287
     3
288
     0
  0
DIMSTYLE
105
63
330
A
100
AcDbSymbolTableRecord
100
AcDbDimStyleTableRecord
  2
AM_JIS$SF
 70
     0
  3

  4
"
  5
OPEN30
  6

  7

 40
1.0
 41
2.5
 42
1.0
 43
10.0
 44
1.0
 45
0.0
 46
0.0
 47
0.1
 48
0.1
140
3.2
141
0.0
142
0.0
143
0.0393701
144
1.0
145
0.0
146
0.71
147
1.5
 71
     0
 72
     0
 73
     0
 74
     0
 75
     1
 76
     1
 77
     3
 78
     8
170
     0
171
     2
172
     1
173
     0
174
     0
175
     0
176
   256
177
   256
178
     2
270
     2
271
     2
272
     2
273
     2
274
     2
340
6B
275
     0
280
     0
281
     0
282
     0
283
     0
284
     0
285
     0
286
     0
287
     3
288
     0
  0
DIMSTYLE
105
68
330
A
100
AcDbSymbolTableRecord
100
AcDbDimStyleTableRecord
  2
AM_JIS$SH
 70
     0
  3

  4
"
  5

  6
GENAXEH
  7
OPEN30
 40
1.0
 41
2.5
 42
1.0
 43
10.0
 44
1.0
 45
0.0
 46
0.0
 47
0.1
 48
0.1
140
3.2
141
0.0
142
0.0
143
0.0393701
144
2.0
145
0.0
146
0.71
147
1.5
 71
     0
 72
     0
 73
     0
 74
     0
 75
     1
 76
     1
 77
     3
 78
     8
170
     0
171
     2
172
     1
173
     1
174
     0
175
     0
176
   256
177
   256
178
     2
270
     2
271
     2
272
     2
273
     2
274
     2
340
6B
275
     0
280
     0
281
     0
282
     0
283
     0
284
     0
285
     0
286
     0
287
     3
288
     0
  0
DIMSTYLE
105
B34
330
A
100
AcDbSymbolTableRecord
100
AcDbDimStyleTableRecord
  2
AM_JIS$2
 70
     0
  3

  4
"
  5
OPEN30
  6

  7

 40
1.0
 41
2.5
 42
1.0
 43
12.0
 44
1.0
 45
0.0
 46
0.0
 47
0.1
 48
0.1
140
3.2
141
0.0
142
0.0
143
0.0393701
144
1.0
145
0.0
146
0.71
147
1.5
 71
     0
 72
     0
 73
     0
 74
     0
 75
     0
 76
     0
 77
     3
 78
     8
170
     0
171
     2
172
     1
173
     0
174
     0
175
     0
176
   256
177
   256
178
     2
270
     2
271
     3
272
     3
273
     2
274
     2
340
6B
275
     0
280
     0
281
     0
282
     0
283
     0
284
     0
285
     0
286
     0
287
     3
288
     0
  0
ENDTAB
  0
TABLE
  2
BLOCK_RECORD
  5
1
330
0
100
AcDbSymbolTable
 70
    10
  0
BLOCK_RECORD
  5
1F
102
{ACAD_XDICTIONARY
360
74
102
}
330
1
100
AcDbSymbolTableRecord
100
AcDbBlockTableRecord
  2
*MODEL_SPACE
  0
BLOCK_RECORD
  5
101
102
{ACAD_XDICTIONARY
360
1ACC
102
}
330
1
100
AcDbSymbolTableRecord
100
AcDbBlockTableRecord
  2
*PAPER_SPACE
  0
BLOCK_RECORD
  5
59
330
1
100
AcDbSymbolTableRecord
100
AcDbBlockTableRecord
  2
_OPEN30
  0
BLOCK_RECORD
  5
64
330
1
100
AcDbSymbolTableRecord
100
AcDbBlockTableRecord
  2
GENAXEH
  0
BLOCK_RECORD
  5
D3B
330
1
100
AcDbSymbolTableRecord
100
AcDbBlockTableRecord
  2
*D5
  0
BLOCK_RECORD
  5
DC3
330
1
100
AcDbSymbolTableRecord
100
AcDbBlockTableRecord
  2
*D6
  0
BLOCK_RECORD
  5
1526
330
1
100
AcDbSymbolTableRecord
100
AcDbBlockTableRecord
  2
*D7
  0
BLOCK_RECORD
  5
1968
330
1
100
AcDbSymbolTableRecord
100
AcDbBlockTableRecord
  2
*D8
  0
BLOCK_RECORD
  5
19ED
330
1
100
AcDbSymbolTableRecord
100
AcDbBlockTableRecord
  2
*D9
  0
ENDTAB
  0
ENDSEC
  0
SECTION
  2
BLOCKS
  0
BLOCK
  5
20
330
1F
100
AcDbEntity
  8
0
100
AcDbBlockBegin
  2
*MODEL_SPACE
 70
     0
 10
0.0
 20
0.0
 30
0.0
  3
*MODEL_SPACE
  1

  0
ENDBLK
  5
21
330
1F
100
AcDbEntity
  8
0
100
AcDbBlockEnd
  0
BLOCK
  5
103
330
101
100
AcDbEntity
 67
     1
  8
0
100
AcDbBlockBegin
  2
*PAPER_SPACE
 70
     0
 10
0.0
 20
0.0
 30
0.0
  3
*PAPER_SPACE
  1

  0
ENDBLK
  5
104
330
101
100
AcDbEntity
 67
     1
  8
0
100
AcDbBlockEnd
  0
BLOCK
  5
5D
330
59
100
AcDbEntity
  8
0
100
AcDbBlockBegin
  2
_OPEN30
 70
     0
 10
0.0
 20
0.0
 30
0.0
  3
_OPEN30
  1

  0
LINE
  5
5A
330
59
100
AcDbEntity
  8
0
 62
     0
100
AcDbLine
 10
-1.0
 20
0.26794919
 30
0.0
 11
0.0
 21
0.0
 31
0.0
  0
LINE
  5
5B
330
59
100
AcDbEntity
  8
0
 62
     0
100
AcDbLine
 10
0.0
 20
0.0
 30
0.0
 11
-1.0
 21
-0.26794919
 31
0.0
  0
LINE
  5
5C
330
59
100
AcDbEntity
  8
0
 62
     0
100
AcDbLine
 10
0.0
 20
0.0
 30
0.0
 11
-1.0
 21
0.0
 31
0.0
  0
ENDBLK
  5
5E
330
59
100
AcDbEntity
  8
0
100
AcDbBlockEnd
  0
BLOCK
  5
66
330
64
100
AcDbEntity
  8
0
100
AcDbBlockBegin
  2
GENAXEH
 70
     0
 10
0.0
 20
0.0
 30
0.0
  3
GENAXEH
  1

  0
LINE
  5
65
330
64
100
AcDbEntity
  8
0
100
AcDbLine
 10
-1.0
 20
0.0
 30
0.0
 11
1.0
 21
0.0
 31
0.0
  0
ENDBLK
  5
67
330
64
100
AcDbEntity
  8
0
100
AcDbBlockEnd
  0
BLOCK
  5
D45
330
D3B
100
AcDbEntity
  8
0
100
AcDbBlockBegin
  2
*D5
 70
     1
 10
0.0
 20
0.0
 30
0.0
  3
*D5
  1

  0
LINE
  5
1796
330
D3B
100
AcDbEntity
  8
AM_5
100
AcDbLine
 10
-90.0
 20
-5.495093215907346
 30
0.0
 11
-90.0
 21
-32.99999999999994
 31
0.0
  0
LINE
  5
1797
330
D3B
100
AcDbEntity
  8
AM_5
100
AcDbLine
 10
-0.0000000000000001
 20
-6.000000000000625
 30
0.0
 11
-0.0000000000000017
 21
-32.99999999999994
 31
0.0
  0
LINE
  5
1798
330
D3B
100
AcDbEntity
  8
AM_5
100
AcDbLine
 10
-87.5
 20
-31.99999999999994
 30
0.0
 11
-2.500000000000001
 21
-31.99999999999994
 31
0.0
  0
INSERT
  5
1799
330
D3B
100
AcDbEntity
  8
AM_5
100
AcDbBlockReference
  2
_OPEN30
 10
-90.0
 20
-31.99999999999994
 30
0.0
 41
2.5
 42
2.5
 43
2.5
 50
180.0
  0
INSERT
  5
179A
330
D3B
100
AcDbEntity
  8
AM_5
100
AcDbBlockReference
  2
_OPEN30
 10
-0.0000000000000017
 20
-31.99999999999994
 30
0.0
 41
2.5
 42
2.5
 43
2.5
  0
MTEXT
  5
179B
330
D3B
100
AcDbEntity
  8
AM_5
 62
     2
100
AcDbMText
 10
-45.0
 20
-28.89999999999994
 30
0.0
 40
3.2
 41
0.0
 71
     5
 72
     1
  1
90
  7
ASAMI
1001
ACAD
1000
MTEXTBEGIN
1070
    73
1070
     1
1070
    44
1040
1.0
1070
    74
1070
     0
1000
MTEXTEND
  0
POINT
  5
179C
330
D3B
100
AcDbEntity
  8
DEFPOINTS
 62
     0
100
AcDbPoint
 10
-90.0
 20
-4.495093215907346
 30
0.0
  0
POINT
  5
179D
330
D3B
100
AcDbEntity
  8
DEFPOINTS
 62
     0
100
AcDbPoint
 10
0.0
 20
-5.000000000000625
 30
0.0
  0
POINT
  5
179E
330
D3B
100
AcDbEntity
  8
DEFPOINTS
 62
     0
100
AcDbPoint
 10
-0.0000000000000017
 20
-31.99999999999994
 30
0.0
  0
ENDBLK
  5
D46
330
D3B
100
AcDbEntity
  8
0
100
AcDbBlockEnd
  0
BLOCK
  5
DCD
330
DC3
100
AcDbEntity
  8
0
100
AcDbBlockBegin
  2
*D6
 70
     1
 10
0.0
 20
0.0
 30
0.0
  3
*D6
  1

  0
LINE
  5
178D
330
DC3
100
AcDbEntity
  8
AM_5
100
AcDbLine
 10
-0.0000000000000001
 20
-6.000000000000625
 30
0.0
 11
-0.000000000000001
 21
-20.99999999999994
 31
0.0
  0
LINE
  5
178E
330
DC3
100
AcDbEntity
  8
AM_5
100
AcDbLine
 10
-22.0
 20
-6.999999999999943
 30
0.0
 11
-22.0
 21
-20.99999999999994
 31
0.0
  0
LINE
  5
178F
330
DC3
100
AcDbEntity
  8
AM_5
100
AcDbLine
 10
-2.5
 20
-19.99999999999994
 30
0.0
 11
-19.5
 21
-19.99999999999994
 31
0.0
  0
INSERT
  5
1790
330
DC3
100
AcDbEntity
  8
AM_5
100
AcDbBlockReference
  2
_OPEN30
 10
-0.0000000000000009
 20
-19.99999999999994
 30
0.0
 41
2.5
 42
2.5
 43
2.5
  0
INSERT
  5
1791
330
DC3
100
AcDbEntity
  8
AM_5
100
AcDbBlockReference
  2
_OPEN30
 10
-22.0
 20
-19.99999999999994
 30
0.0
 41
2.5
 42
2.5
 43
2.5
 50
180.0
  0
MTEXT
  5
1792
330
DC3
100
AcDbEntity
  8
AM_5
 62
     2
100
AcDbMText
 10
-11.0
 20
-16.89999999999994
 30
0.0
 40
3.2
 41
0.0
 71
     5
 72
     1
  1
22
  7
ASAMI
1001
ACAD
1000
MTEXTBEGIN
1070
    73
1070
     1
1070
    44
1040
1.0
1070
    74
1070
     0
1000
MTEXTEND
  0
POINT
  5
1793
330
DC3
100
AcDbEntity
  8
DEFPOINTS
 62
     0
100
AcDbPoint
 10
0.0
 20
-5.000000000000625
 30
0.0
  0
POINT
  5
1794
330
DC3
100
AcDbEntity
  8
DEFPOINTS
 62
     0
100
AcDbPoint
 10
-22.0
 20
-5.999999999999943
 30
0.0
  0
POINT
  5
1795
330
DC3
100
AcDbEntity
  8
DEFPOINTS
 62
     0
100
AcDbPoint
 10
-22.0
 20
-19.99999999999994
 30
0.0
  0
ENDBLK
  5
DCE
330
DC3
100
AcDbEntity
  8
0
100
AcDbBlockEnd
  0
BLOCK
  5
1530
330
1526
100
AcDbEntity
  8
0
100
AcDbBlockBegin
  2
*D7
 70
     1
 10
0.0
 20
0.0
 30
0.0
  3
*D7
  1

  0
LINE
  5
1784
330
1526
100
AcDbEntity
  8
AM_5
100
AcDbLine
 10
0.7
 20
5.000000000000625
 30
0.0
 11
19.53057127860814
 21
5.000000000000619
 31
0.0
  0
LINE
  5
1785
330
1526
100
AcDbEntity
  8
AM_5
100
AcDbLine
 10
0.7
 20
-5.000000000000625
 30
0.0
 11
19.53057127860814
 21
-5.00000000000063
 31
0.0
  0
LINE
  5
1786
330
1526
100
AcDbEntity
  8
AM_5
100
AcDbLine
 10
18.53057127860814
 20
2.50000000000062
 30
0.0
 11
18.53057127860814
 21
-2.50000000000063
 31
0.0
  0
INSERT
  5
1787
330
1526
100
AcDbEntity
  8
AM_5
100
AcDbBlockReference
  2
_OPEN30
 10
18.53057127860814
 20
5.000000000000619
 30
0.0
 41
2.5
 42
2.5
 43
2.5
 50
90.0
  0
INSERT
  5
1788
330
1526
100
AcDbEntity
  8
AM_5
100
AcDbBlockReference
  2
_OPEN30
 10
18.53057127860814
 20
-5.00000000000063
 30
0.0
 41
2.5
 42
2.5
 43
2.5
 50
270.0
  0
MTEXT
  5
1789
330
1526
100
AcDbEntity
  8
AM_5
 62
     2
100
AcDbMText
 10
15.43057127860814
 20
-0.0000000000000016
 30
0.0
 40
3.2
 41
0.0
 71
     5
 72
     1
  1
%%c10
  7
ASAMI
 11
0.0000000000000001
 21
1.0
 31
0.0
1001
ACAD
1000
MTEXTBEGIN
1070
    73
1070
     1
1070
    44
1040
1.0
1070
    74
1070
     0
1000
MTEXTEND
  0
POINT
  5
178A
330
1526
100
AcDbEntity
  8
DEFPOINTS
 62
     0
100
AcDbPoint
 10
-0.3
 20
5.000000000000625
 30
0.0
  0
POINT
  5
178B
330
1526
100
AcDbEntity
  8
DEFPOINTS
 62
     0
100
AcDbPoint
 10
-0.3
 20
-5.000000000000625
 30
0.0
  0
POINT
  5
178C
330
1526
100
AcDbEntity
  8
DEFPOINTS
 62
     0
100
AcDbPoint
 10
18.53057127860814
 20
-5.00000000000063
 30
0.0
  0
ENDBLK
  5
1531
330
1526
100
AcDbEntity
  8
0
100
AcDbBlockEnd
  0
BLOCK
  5
196F
330
1968
100
AcDbEntity
  8
0
100
AcDbBlockBegin
  2
*D8
 70
     1
 10
0.0
 20
0.0
 30
0.0
  3
*D8
  1

  0
LINE
  5
1ACE
330
1968
100
AcDbEntity
  8
AM_5
100
AcDbLine
 10
10.33845987437385
 20
-16.18406667625616
 30
0.0
 11
1.074868626718724
 21
-6.285602369189333
 31
0.0
  0
MTEXT
  5
1ACF
330
1968
100
AcDbEntity
  8
AM_5
 62
     2
100
AcDbMText
 10
9.754774259520099
 20
-11.02359942860078
 30
0.0
 40
3.2
 41
0.0
 71
     5
 72
     1
  1
R2
  7
ASAMI
 11
0.6833041392708278
 21
-0.7301338598197958
 31
0.0
  0
LINE
  5
1AD0
330
1968
100
AcDbEntity
  8
AM_5
100
AcDbLine
 10
-2.0
 20
-3.000000000000251
 30
0.0
 11
-0.6333917214583453
 21
-4.460267719639843
 31
0.0
  0
INSERT
  5
1AD1
330
1968
100
AcDbEntity
  8
AM_5
100
AcDbBlockReference
  2
_OPEN30
 10
-0.6333917214583453
 20
-4.460267719639843
 30
0.0
 41
2.5
 42
2.5
 43
2.5
 50
133.1023828319576
  0
POINT
  5
1AD2
330
1968
100
AcDbEntity
  8
DEFPOINTS
 62
     0
100
AcDbPoint
 10
-0.6333917214583453
 20
-4.460267719639843
 30
0.0
  0
POINT
  5
1AD3
330
1968
100
AcDbEntity
  8
DEFPOINTS
 62
     0
100
AcDbPoint
 10
-2.0
 20
-3.000000000000251
 30
0.0
  0
ENDBLK
  5
1970
330
1968
100
AcDbEntity
  8
0
100
AcDbBlockEnd
  0
BLOCK
  5
19F7
330
19ED
100
AcDbEntity
  8
0
100
AcDbBlockBegin
  2
*D9
 70
     1
 10
0.0
 20
0.0
 30
0.0
  3
*D9
  1

  0
LINE
  5
1A77
330
19ED
100
AcDbEntity
  8
AM_5
100
AcDbLine
 10
-90.49999999999997
 20
-5.000000000000037
 30
0.0
 11
-105.0000009999999
 21
-5.000000000000033
 31
0.0
  0
LINE
  5
1A78
330
19ED
100
AcDbEntity
  8
AM_5
100
AcDbLine
 10
-90.5
 20
4.99999999999996
 30
0.0
 11
-105.0000009999999
 21
4.999999999999963
 31
0.0
  0
LINE
  5
1A79
330
19ED
100
AcDbEntity
  8
AM_5
100
AcDbLine
 10
-104.0000009999999
 20
-2.500000000000033
 30
0.0
 11
-104.0000009999999
 21
2.499999999999963
 31
0.0
  0
INSERT
  5
1A7A
330
19ED
100
AcDbEntity
  8
AM_5
100
AcDbBlockReference
  2
_OPEN30
 10
-104.0000009999999
 20
-5.000000000000033
 30
0.0
 41
2.5
 42
2.5
 43
2.5
 50
270.0
  0
INSERT
  5
1A7B
330
19ED
100
AcDbEntity
  8
AM_5
100
AcDbBlockReference
  2
_OPEN30
 10
-104.0000009999999
 20
4.999999999999963
 30
0.0
 41
2.5
 42
2.5
 43
2.5
 50
90.0
  0
MTEXT
  5
1A7C
330
19ED
100
AcDbEntity
  8
AM_5
 62
     2
100
AcDbMText
 10
-107.1000009999999
 20
-0.0000000000000514
 30
0.0
 40
3.2
 41
0.0
 71
     5
 72
     1
  1
%%c10
  7
ASAMI
 11
0.0000000000000001
 21
1.0
 31
0.0
1001
ACAD
1000
MTEXTBEGIN
1070
    73
1070
     1
1070
    44
1040
1.0
1070
    74
1070
     0
1000
MTEXTEND
  0
POINT
  5
1A7D
330
19ED
100
AcDbEntity
  8
DEFPOINTS
 62
     0
100
AcDbPoint
 10
-89.49999999999997
 20
-5.000000000000038
 30
0.0
  0
POINT
  5
1A7E
330
19ED
100
AcDbEntity
  8
DEFPOINTS
 62
     0
100
AcDbPoint
 10
-89.50000000000001
 20
4.999999999999959
 30
0.0
  0
POINT
  5
1A7F
330
19ED
100
AcDbEntity
  8
DEFPOINTS
 62
     0
100
AcDbPoint
 10
-104.0000009999999
 20
4.999999999999963
 30
0.0
  0
ENDBLK
  5
19F8
330
19ED
100
AcDbEntity
  8
0
100
AcDbBlockEnd
  0
ENDSEC
  0
SECTION
  2
ENTITIES
  0
SPLINE
  5
C2B
330
1F
100
AcDbEntity
  8
AM_0
100
AcDbSpline
210
0.0
220
0.0
230
1.0
 70
     8
 71
     3
 72
     8
 73
     4
 74
     0
 42
0.0000000001
 43
0.0000000001
 40
0.0
 40
0.0
 40
0.0
 40
0.0
 40
0.6152373134461622
 40
0.6152373134461622
 40
0.6152373134461622
 40
0.6152373134461622
 10
-17.50460862906857
 20
-4.751394116410608
 30
0.0
 10
-17.70968773355062
 20
-4.751394116410608
 30
0.0
 10
-17.91281402031705
 20
-4.743232943974831
 30
0.0
 10
-18.11410194639285
 20
-4.727388935360636
 30
0.0
  0
SPLINE
  5
C2C
330
1F
100
AcDbEntity
  8
AM_0
100
AcDbSpline
210
0.0
220
0.0
230
1.0
 70
     8
 71
     3
 72
     8
 73
     4
 74
     0
 42
0.0000000001
 43
0.0000000001
 40
0.150648776844293
 40
0.150648776844293
 40
0.150648776844293
 40
0.150648776844293
 40
6.420166228128741
 40
6.420166228128741
 40
6.420166228128741
 40
6.420166228128741
 10
-16.1709098096815
 20
-4.309538436751704
 30
0.0
 10
-18.25217875058295
 20
-4.245148282177608
 30
0.0
 10
-20.160216641474
 20
-3.424301840253341
 30
0.0
 10
-22.0
 20
-2.305405076838667
 30
0.0
  0
LINE
  5
C2E
330
1F
100
AcDbEntity
  8
AM_11
100
AcDbLine
 10
0.0
 20
-5.000000000000625
 30
0.0
 11
-22.0
 21
-4.999999999999941
 31
0.0
  0
LINE
  5
C2F
330
1F
100
AcDbEntity
  8
AM_7
  6
AM_ISO08W050X2
100
AcDbLine
 10
4.530570278608138
 20
0.000000000000002
 30
0.0
 11
-92.59314155754916
 21
-0.0000000000000406
 31
0.0
1001
GENIUS_GENODEF_13
1002
{
1000
HIER
1070
     0
1002
}
1002
{
1000
MANEDIT
1070
     0
1002
}
1002
{
1000
NOSEL
1070
     0
1002
}
1002
{
1000
BEHIND
1070
     0
1002
}
1002
{
1000
REACTOR
1002
}
1001
GENIUS_GENOBJ-N-CEN_13
1002
{
1000
OWNER
1000
GEN
1002
}
  0
LINE
  5
C30
330
1F
100
AcDbEntity
  8
AM_11
100
AcDbLine
 10
-22.0
 20
5.000000000000626
 30
0.0
 11
0.0
 21
5.000000000000626
 31
0.0
  0
SPLINE
  5
C31
330
1F
100
AcDbEntity
  8
AM_0
100
AcDbSpline
210
0.0
220
0.0
230
1.0
 70
     8
 71
     3
 72
     8
 73
     4
 74
     0
 42
0.0000000001
 43
0.0000000001
 40
0.0
 40
0.0
 40
0.0
 40
0.0
 40
3.983447643433449
 40
3.983447643433449
 40
3.983447643433449
 40
3.983447643433449
 10
-18.91999999999961
 20
4.999999999999715
 30
0.0
 10
-20.2478158811439
 20
4.999999999999715
 30
0.0
 10
-21.48743831226066
 20
4.647724192076196
 30
0.0
 10
-22.67197337162062
 20
4.075409952890794
 30
0.0
  0
SPLINE
  5
C32
330
1F
100
AcDbEntity
  8
AM_0
100
AcDbSpline
210
0.0
220
0.0
230
1.0
 70
     8
 71
     3
 72
     8
 73
     4
 74
     0
 42
0.0000000001
 43
0.0000000001
 40
5.215942287204468
 40
5.215942287204468
 40
5.215942287204468
 40
5.215942287204468
 40
10.4969207889486
 40
10.4969207889486
 40
10.4969207889486
 40
10.4969207889486
 10
-21.99999999999997
 20
3.283108292940184
 30
0.0
 10
-20.45327853492725
 20
2.390416264595813
 30
0.0
 10
-18.97894358192866
 20
1.195208132297878
 30
0.0
 10
-17.50460862893032
 20
-0.0000000000000568
 30
0.0
  0
SPLINE
  5
C33
330
1F
100
AcDbEntity
  8
AM_0
100
AcDbSpline
210
0.0
220
0.0
230
1.0
 70
     8
 71
     3
 72
     8
 73
     4
 74
     0
 42
0.0000000001
 43
0.0000000001
 40
0.6393216442353146
 40
0.6393216442353146
 40
0.6393216442353146
 40
0.6393216442353146
 40
10.49653484266006
 40
10.49653484266006
 40
10.49653484266006
 40
10.49653484266006
 10
-25.84571583844547
 20
5.000000000000625
 30
0.0
 10
-21.81654056321531
 20
4.256800471111944
 30
0.0
 10
-18.99372518574
 20
2.192937872113986
 30
0.0
 10
-16.17090980826378
 20
0.1290752731160296
 30
0.0
  0
SPLINE
  5
C34
330
1F
100
AcDbEntity
  8
AM_0
100
AcDbSpline
210
0.0
220
0.0
230
1.0
 70
     8
 71
     3
 72
     8
 73
     4
 74
     0
 42
0.0000000001
 43
0.0000000001
 40
6.902118198828401
 40
6.902118198828401
 40
6.902118198828401
 40
6.902118198828401
 40
10.61176705360581
 40
10.61176705360581
 40
10.61176705360581
 40
10.61176705360581
 10
-22.00000000000015
 20
2.5150400506364
 30
0.0
 10
-20.95550800469044
 20
1.747894029353361
 30
0.0
 10
-19.93775400234525
 20
0.873947014676645
 30
0.0
 10
-18.92000000000007
 20
-0.0000000000000568
 30
0.0
  0
SPLINE
  5
C35
330
1F
100
AcDbEntity
  8
AM_0
100
AcDbSpline
210
0.0
220
0.0
230
1.0
 70
     8
 71
     3
 72
     8
 73
     4
 74
     0
 42
0.0000000001
 43
0.0000000001
 40
0.0
 40
0.0
 40
0.0
 40
0.0
 40
3.070434565646647
 40
3.070434565646647
 40
3.070434565646647
 40
3.070434565646647
 10
-8.1446086289302
 20
-4.751394116410608
 30
0.0
 10
-7.121130440381442
 20
-4.751394116410784
 30
0.0
 10
-6.146290291791347
 20
-4.548127099797412
 30
0.0
 10
-5.20586116153237
 20
-4.20105031945609
 30
0.0
  0
SPLINE
  5
C36
330
1F
100
AcDbEntity
  8
AM_0
100
AcDbSpline
210
0.0
220
0.0
230
1.0
 70
     8
 71
     3
 72
     8
 73
     4
 74
     0
 42
0.0000000001
 43
0.0000000001
 40
0.6152373134470183
 40
0.6152373134470183
 40
0.6152373134470183
 40
0.6152373134470183
 40
8.843083020165714
 40
8.843083020165714
 40
8.843083020165714
 40
8.843083020165714
 10
-7.53511531160484
 20
4.727388935360465
 30
0.0
 10
-4.843201212474014
 20
4.515499871734562
 30
0.0
 10
-2.480076408210607
 20
2.929541887604443
 30
0.0
 10
-0.1719790853644554
 20
1.113614274991903
 30
0.0
  0
SPLINE
  5
C37
330
1F
100
AcDbEntity
  8
AM_0
100
AcDbSpline
210
0.0
220
0.0
230
1.0
 70
     8
 71
     3
 72
     8
 73
     4
 74
     2
 42
0.0000000001
 43
0.0000000001
 44
0.0000000001
 12
1.0
 22
-0.0000000000000002
 32
0.0
 40
0.0
 40
0.0
 40
0.0
 40
0.0
 40
10.7633540680078
 40
10.7633540680078
 40
10.7633540680078
 40
10.7633540680078
 10
-9.55999999999949
 20
4.999999999999943
 30
0.0
 10
-5.972215310663554
 20
4.999999999999942
 30
0.0
 10
-2.999706531458512
 20
2.501226696023137
 30
0.0
 10
-0.0271977522534694
 20
0.0024533920463321
 30
0.0
 11
-9.55999999999949
 21
4.999999999999943
 31
0.0
 11
-0.0271977522534694
 21
0.0024533920463321
 31
0.0
  0
SPLINE
  5
C38
330
1F
100
AcDbEntity
  8
AM_0
100
AcDbSpline
210
0.0
220
0.0
230
1.0
 70
     8
 71
     3
 72
     8
 73
     4
 74
     0
 42
0.0000000001
 43
0.0000000001
 40
1.967752033808696
 40
1.967752033808696
 40
1.967752033808696
 40
1.967752033808696
 40
10.4969207889486
 40
10.4969207889486
 40
10.4969207889486
 40
10.4969207889486
 10
-0.6961762519691048
 20
-4.516589474469427
 30
0.0
 10
-3.382289823211079
 20
-3.860698109079042
 30
0.0
 10
-5.763449226070439
 20
-1.93034905453955
 30
0.0
 10
-8.1446086289302
 20
-0.0000000000000568
 30
0.0
  0
SPLINE
  5
C39
330
1F
100
AcDbEntity
  8
AM_0
100
AcDbSpline
210
0.0
220
0.0
230
1.0
 70
     8
 71
     3
 72
     8
 73
     4
 74
     2
 42
0.0000000001
 43
0.0000000001
 44
0.0000000001
 12
-1.0
 22
0.0000000000000001
 32
0.0
 40
0.0
 40
0.0
 40
0.0
 40
0.0
 40
8.701801131332068
 40
8.701801131332068
 40
8.701801131332068
 40
8.701801131332068
 10
-2.438108191691499
 20
-5.00000000000017
 30
0.0
 10
-5.338708568802188
 20
-5.00000000000017
 30
0.0
 10
-7.449354284401067
 20
-2.500000000000113
 30
0.0
 10
-9.559999999999945
 20
-0.0000000000000568
 30
0.0
 11
-2.438108191691499
 21
-5.00000000000017
 31
0.0
 11
-9.559999999999945
 21
-0.0000000000000568
 31
0.0
  0
SPLINE
  5
C3A
330
1F
100
AcDbEntity
  8
AM_0
100
AcDbSpline
210
0.0
220
0.0
230
1.0
 70
     8
 71
     3
 72
     8
 73
     4
 74
     0
 42
0.0000000001
 43
0.0000000001
 40
3.266224444355238
 40
3.266224444355238
 40
3.266224444355238
 40
3.266224444355238
 40
10.49653484266006
 40
10.49653484266006
 40
10.49653484266006
 40
10.49653484266006
 10
-0.4382534362821389
 20
-3.709379679463438
 30
0.0
 10
-2.669814152644448
 20
-2.898629801294248
 30
0.0
 10
-4.740361980454508
 20
-1.384777264089109
 30
0.0
 10
-6.810909808264113
 20
0.1290752731160296
 30
0.0
  0
SPLINE
  5
C3B
330
1F
100
AcDbEntity
  8
AM_0
100
AcDbSpline
210
0.0
220
0.0
230
1.0
 70
     8
 71
     3
 72
     8
 73
     4
 74
     0
 42
0.0000000001
 43
0.0000000001
 40
0.6393216439718838
 40
0.6393216439718838
 40
0.6393216439718838
 40
0.6393216439718838
 40
6.996796499348805
 40
6.996796499348805
 40
6.996796499348805
 40
6.996796499348805
 10
-6.327348520941995
 20
4.539062414200259
 30
0.0
 10
-4.243617557755442
 20
4.357015706987738
 30
0.0
 10
-2.329598874325711
 20
3.433878294300654
 30
0.0
 10
-0.4758354132213754
 20
2.247621528755587
 30
0.0
  0
SPLINE
  5
C3C
330
1F
100
AcDbEntity
  8
AM_0
100
AcDbSpline
210
0.0
220
0.0
230
1.0
 70
     8
 71
     3
 72
     8
 73
     4
 74
     0
 42
0.0000000001
 43
0.0000000001
 40
0.0
 40
0.0
 40
0.0
 40
0.0
 40
1.679464110338861
 40
1.679464110338861
 40
1.679464110338861
 40
1.679464110338861
 10
-6.961242306831081
 20
-4.312863433111203
 30
0.0
 10
-6.401470371083568
 20
-4.305423918041859
 30
0.0
 10
-5.85431023960393
 20
-4.24291183582673
 30
0.0
 10
-5.317744001438752
 20
-4.134138894460063
 30
0.0
  0
LINE
  5
C3D
330
1F
100
AcDbEntity
  8
AM_0
100
AcDbLine
 10
-0.1259176810931422
 20
-1.532014672466459
 30
0.0
 11
-0.0114220143277635
 21
-1.176621881069934
 31
0.0
  0
LINE
  5
C3E
330
1F
100
AcDbEntity
  8
AM_0
100
AcDbLine
 10
0.0
 20
3.000000000000624
 30
0.0
 11
0.0
 21
-3.000000000000251
 31
0.0
  0
SPLINE
  5
C3F
330
1F
100
AcDbEntity
  8
AM_0
100
AcDbSpline
210
0.0
220
0.0
230
1.0
 70
     8
 71
     3
 72
     9
 73
     5
 74
     3
 42
0.0000000001
 43
0.0000000001
 44
0.0000000001
 12
-0.9959561288896111
 22
0.0898409112109892
 32
0.0
 13
0.5961652186767444
 23
-0.8028617764223863
 33
0.0
 40
0.0
 40
0.0
 40
0.0
 40
0.0
 40
0.6574415203969619
 40
3.123721247380082
 40
3.123721247380082
 40
3.123721247380082
 40
3.123721247380082
 10
-1.422355005041936
 20
0.000652304877292
 30
0.0
 10
-1.640615975583889
 20
0.020340686630759
 30
0.0
 10
-2.884317868431873
 20
-0.645262878365971
 30
0.0
 10
-0.9273536875914029
 20
-1.497514380505929
 30
0.0
 10
-0.4372502900064319
 20
-2.157541621425991
 30
0.0
 11
-1.422355005041936
 21
0.000652304877292
 31
0.0
 11
-2.0223550050423
 21
-0.2681028862194239
 31
0.0
 11
-0.4372502900064319
 21
-2.157541621425991
 31
0.0
  0
LINE
  5
C40
330
1F
100
AcDbEntity
  8
AM_0
100
AcDbLine
 10
-2.438108191709375
 20
5.000000000000625
 30
0.0
 11
-2.0
 21
5.000000000000624
 31
0.0
  0
LINE
  5
C41
330
1F
100
AcDbEntity
  8
AM_0
100
AcDbLine
 10
-0.0114220143277635
 20
-0.1266218810697524
 30
0.0
 11
-1.422355005041936
 21
0.000652304877292
 31
0.0
  0
LINE
  5
C42
330
1F
100
AcDbEntity
  8
AM_0
100
AcDbLine
 10
-0.1259176810931422
 20
0.9417107739836296
 30
0.0
 11
-0.4758354132218301
 21
2.247621528755587
 31
0.0
  0
LINE
  5
C43
330
1F
100
AcDbEntity
  8
AM_0
100
AcDbLine
 10
-0.0114220143277635
 20
-0.147642728123003
 30
0.0
 11
-0.1259176810931422
 21
0.9417107739836296
 31
0.0
  0
SPLINE
  5
C44
330
1F
100
AcDbEntity
  8
AM_0
100
AcDbSpline
210
0.0
220
0.0
230
1.0
 70
     8
 71
     3
 72
     8
 73
     4
 74
     0
 42
0.0000000001
 43
0.0000000001
 40
0.968107564314414
 40
0.968107564314414
 40
0.968107564314414
 40
0.968107564314414
 40
2.847661750814433
 40
2.847661750814433
 40
2.847661750814433
 40
2.847661750814433
 10
-0.4040438141292729
 20
4.205372910253402
 30
0.0
 10
-0.7994423022078986
 20
3.776639662225313
 30
0.0
 10
-1.628033908815184
 20
3.508464428081393
 30
0.0
 10
-2.434968517314246
 20
3.368998017769797
 30
0.0
  0
SPLINE
  5
C45
330
1F
100
AcDbEntity
  8
AM_0
100
AcDbSpline
210
0.0
220
0.0
230
1.0
 70
     8
 71
     3
 72
     8
 73
     4
 74
     0
 42
0.0000000001
 43
0.0000000001
 40
0.0
 40
0.0
 40
0.0
 40
0.0
 40
4.066976460604845
 40
4.066976460604845
 40
4.066976460604845
 40
4.066976460604845
 10
-2.438108191704827
 20
4.999999999999715
 30
0.0
 10
-2.438108191709375
 20
4.999999999999715
 30
0.0
 10
-2.819386759259941
 20
4.632795571356098
 30
0.0
 10
-4.026416472371238
 20
4.039118390516421
 30
0.0
  0
LINE
  5
C46
330
1F
100
AcDbEntity
  8
AM_0
100
AcDbLine
 10
-0.3267480747895866
 20
-4.095549174971255
 30
0.0
 11
-0.4382534362821389
 21
-3.709379679463665
 31
0.0
  0
LINE
  5
C49
330
1F
100
AcDbEntity
  8
AM_0
100
AcDbLine
 10
-2.438108191691499
 20
-5.00000000000017
 30
0.0
 11
-2.000000000000373
 21
-5.000000000000252
 31
0.0
  0
LINE
  5
C4A
330
1F
100
AcDbEntity
  8
AM_0
100
AcDbLine
 10
-0.1259176810931422
 20
-1.532014672466459
 30
0.0
 11
-0.4372502900064319
 21
-2.157541621425991
 31
0.0
  0
LINE
  5
C4B
330
1F
100
AcDbEntity
  8
AM_0
100
AcDbLine
 10
-0.1144956667649239
 20
-3.666988312755244
 30
0.0
 11
-0.1144956667649239
 21
-1.496560915392649
 31
0.0
  0
SPLINE
  5
C4C
330
1F
100
AcDbEntity
  8
AM_0
100
AcDbSpline
210
0.0
220
0.0
230
1.0
 70
     8
 71
     3
 72
     8
 73
     4
 74
     2
 42
0.0000000001
 43
0.0000000001
 44
0.0000000001
 12
0.3296957927014608
 22
-0.9440872228109833
 32
0.0
 13
-0.1848799856288633
 23
-0.9827611057189184
 33
0.0
 40
0.0
 40
0.0
 40
0.0
 40
0.0
 40
1.551838382253894
 40
1.551838382253894
 40
1.551838382253894
 40
1.551838382253894
 10
-0.4372502899968822
 20
-2.157541621438952
 30
0.0
 10
-0.2667054281362987
 20
-2.645898550956808
 30
0.0
 10
-0.3426188170123327
 20
-3.201017544650034
 30
0.0
 10
-0.4382534362821389
 20
-3.709379679463665
 30
0.0
 11
-0.4372502899968822
 21
-2.157541621438952
 31
0.0
 11
-0.4382534362821389
 21
-3.709379679463665
 31
0.0
  0
SPLINE
  5
C4D
330
1F
100
AcDbEntity
  8
AM_0
100
AcDbSpline
210
0.0
220
0.0
230
1.0
 70
     8
 71
     3
 72
     8
 73
     4
 74
     2
 42
0.0000000001
 43
0.0000000001
 44
0.0000000001
 12
-1.0
 22
0.0000000000000001
 32
0.0
 40
0.0
 40
0.0
 40
0.0
 40
0.0
 40
10.49692078894909
 40
10.49692078894909
 40
10.49692078894909
 40
10.49692078894909
 10
-8.144608628929745
 20
-4.751394116410608
 30
0.0
 10
-11.6435822252461
 20
-4.751394116410608
 30
0.0
 10
-14.57409542708822
 20
-2.375697058205332
 30
0.0
 10
-17.50460862893032
 20
-0.0000000000000568
 30
0.0
 11
-8.144608628929745
 21
-4.751394116410608
 31
0.0
 11
-17.50460862893032
 21
-0.0000000000000568
 31
0.0
  0
SPLINE
  5
C4E
330
1F
100
AcDbEntity
  8
AM_0
100
AcDbSpline
210
0.0
220
0.0
230
1.0
 70
     8
 71
     3
 72
     8
 73
     4
 74
     2
 42
0.0000000001
 43
0.0000000001
 44
0.0000000001
 12
-0.9999116961803583
 22
0.0132890873170094
 32
0.0
 40
0.0
 40
0.0
 40
0.0
 40
0.0
 40
10.49653484265986
 40
10.49653484265986
 40
10.49653484265986
 40
10.49653484265986
 10
-6.660577309697146
 20
-4.312863433111203
 30
0.0
 10
-10.15911329587723
 20
-4.266366977094491
 30
0.0
 10
-13.16501155207051
 20
-2.06864585198923
 30
0.0
 10
-16.17090980826378
 20
0.1290752731160296
 30
0.0
 11
-6.660577309697146
 21
-4.312863433111203
 31
0.0
 11
-16.17090980826378
 21
0.1290752731160296
 31
0.0
  0
SPLINE
  5
C4F
330
1F
100
AcDbEntity
  8
AM_0
100
AcDbSpline
210
0.0
220
0.0
230
1.0
 70
     8
 71
     3
 72
     8
 73
     4
 74
     2
 42
0.0000000001
 43
0.0000000001
 44
0.0000000001
 12
-1.0
 22
0.0000000000000001
 32
0.0
 40
0.0
 40
0.0
 40
0.0
 40
0.0
 40
10.61065478016067
 40
10.61065478016067
 40
10.61065478016067
 40
10.61065478016067
 10
-9.55999999999949
 20
-4.99763892890796
 30
0.0
 10
-13.09688492671971
 20
-4.99763892890796
 30
0.0
 10
-16.00844246335989
 20
-2.498819464454008
 30
0.0
 10
-18.92000000000007
 20
-0.0000000000000568
 30
0.0
 11
-9.55999999999949
 21
-4.99763892890796
 31
0.0
 11
-18.92000000000007
 21
-0.0000000000000568
 31
0.0
  0
SPLINE
  5
C50
330
1F
100
AcDbEntity
  8
AM_0
100
AcDbSpline
210
0.0
220
0.0
230
1.0
 70
     8
 71
     3
 72
     8
 73
     4
 74
     0
 42
0.0000000001
 43
0.0000000001
 40
0.0
 40
0.0
 40
0.0
 40
0.0
 40
4.066976460604825
 40
4.066976460604825
 40
4.066976460604825
 40
4.066976460604825
 10
-9.55999999999949
 20
4.999999999999715
 30
0.0
 10
-10.91565882020131
 20
4.999999999999715
 30
0.0
 10
-12.17938675926006
 20
4.632795571356098
 30
0.0
 10
-13.38641647237091
 20
4.039118390516421
 30
0.0
  0
SPLINE
  5
C51
330
1F
100
AcDbEntity
  8
AM_0
100
AcDbSpline
210
0.0
220
0.0
230
1.0
 70
     8
 71
     3
 72
     8
 73
     4
 74
     2
 42
0.0000000001
 43
0.0000000001
 44
0.0000000001
 12
1.0
 22
-0.0000000000000002
 32
0.0
 40
0.0
 40
0.0
 40
0.0
 40
0.0
 40
10.61176705360661
 40
10.61176705360661
 40
10.61176705360661
 40
10.61176705360661
 10
-18.92000000000007
 20
4.999999999999943
 30
0.0
 10
-15.38274431546453
 20
4.999999999999942
 30
0.0
 10
-12.47137215773201
 20
2.499999999999942
 30
0.0
 10
-9.55999999999949
 20
-0.0000000000000568
 30
0.0
 11
-18.92000000000007
 21
4.999999999999943
 31
0.0
 11
-9.55999999999949
 21
-0.0000000000000568
 31
0.0
  0
SPLINE
  5
C52
330
1F
100
AcDbEntity
  8
AM_0
100
AcDbSpline
210
0.0
220
0.0
230
1.0
 70
     8
 71
     3
 72
     8
 73
     4
 74
     0
 42
0.0000000001
 43
0.0000000001
 40
0.6152373134470183
 40
0.6152373134470183
 40
0.6152373134470183
 40
0.6152373134470183
 40
10.4969207889486
 40
10.4969207889486
 40
10.4969207889486
 40
10.4969207889486
 10
-16.89511531160496
 20
4.727388935360465
 30
0.0
 10
-13.66211313594067
 20
4.472909119706798
 30
0.0
 10
-10.90336088243566
 20
2.23645455985337
 30
0.0
 10
-8.144608628929745
 20
-0.0000000000000568
 30
0.0
  0
SPLINE
  5
C53
330
1F
100
AcDbEntity
  8
AM_0
100
AcDbSpline
210
0.0
220
0.0
230
1.0
 70
     8
 71
     3
 72
     8
 73
     4
 74
     0
 42
0.0000000001
 43
0.0000000001
 40
0.6393216442358057
 40
0.6393216442358057
 40
0.6393216442358057
 40
0.6393216442358057
 40
10.49653484266006
 40
10.49653484266006
 40
10.49653484266006
 40
10.49653484266006
 10
-15.687348520682
 20
4.539062414177749
 30
0.0
 10
-12.45654056321564
 20
4.256800471111716
 30
0.0
 10
-9.633725185739876
 20
2.192937872113986
 30
0.0
 10
-6.810909808264113
 20
0.1290752731160296
 30
0.0
  0
SPLINE
  5
C54
330
1F
100
AcDbEntity
  8
AM_0
100
AcDbSpline
210
0.0
220
0.0
230
1.0
 70
     8
 71
     3
 72
     8
 73
     4
 74
     0
 42
0.0000000001
 43
0.0000000001
 40
0.0
 40
0.0
 40
0.0
 40
0.0
 40
2.093133798227362
 40
2.093133798227362
 40
2.093133798227362
 40
2.093133798227362
 10
-9.559999999999945
 20
-4.997638928907733
 30
0.0
 10
-8.862288733924287
 20
-4.999999999999943
 30
0.0
 10
-8.188928203499926
 20
-4.902734555995209
 30
0.0
 10
-7.535115311605295
 20
-4.727388935360693
 30
0.0
  0
SPLINE
  5
C55
330
1F
100
AcDbEntity
  8
AM_0
100
AcDbSpline
210
0.0
220
0.0
230
1.0
 70
     8
 71
     3
 72
     8
 73
     4
 74
     0
 42
0.0000000001
 43
0.0000000001
 40
0.0
 40
0.0
 40
0.0
 40
0.0
 40
3.977355368879245
 40
3.977355368879245
 40
3.977355368879245
 40
3.977355368879245
 10
-17.50460862906857
 20
-4.751394116410608
 30
0.0
 10
-16.17882350610898
 20
-4.751394116410835
 30
0.0
 10
-14.93465247722997
 20
-4.410314306628777
 30
0.0
 10
-13.74117140174394
 20
-3.857392169173238
 30
0.0
  0
SPLINE
  5
C56
330
1F
100
AcDbEntity
  8
AM_0
100
AcDbSpline
210
0.0
220
0.0
230
1.0
 70
     8
 71
     3
 72
     8
 73
     4
 74
     0
 42
0.0000000001
 43
0.0000000001
 40
0.0
 40
0.0
 40
0.0
 40
0.0
 40
2.4079390838223
 40
2.4079390838223
 40
2.4079390838223
 40
2.4079390838223
 10
-16.1709098096815
 20
-4.309538436751704
 30
0.0
 10
-15.51866682243508
 20
-4.302196995531573
 30
0.0
 10
-14.74201681508566
 20
-4.178320540360175
 30
0.0
 10
-13.98534489650046
 20
-3.967204812240254
 30
0.0
  0
LINE
  5
C5D
330
1F
100
AcDbEntity
  8
AM_0
100
AcDbLine
 10
-90.0
 20
4.499999999999959
 30
0.0
 11
-89.99999999999998
 21
-4.500000000000038
 31
0.0
  0
LINE
  5
C60
330
1F
100
AcDbEntity
  8
AM_11
100
AcDbLine
 10
-22.0
 20
5.000000000000626
 30
0.0
 11
-22.0
 21
-4.999999999999941
 31
0.0
  0
POLYLINE
  5
D09
330
1F
100
AcDbEntity
  8
AM_0
100
AcDb2dPolyline
 66
     1
 10
0.0
 20
0.0
 30
0.0
 70
     2
  0
VERTEX
  5
D0C
330
D09
100
AcDbEntity
  8
AM_0
100
AcDbVertex
100
AcDb2dVertex
 10
-22.0
 20
-2.305405076838667
 30
0.0
 42
-0.0129986936669445
  0
VERTEX
  5
D14
330
D09
100
AcDbEntity
  8
AM_0
100
AcDbVertex
100
AcDb2dVertex
 10
-23.23949362232789
 20
-1.338421389524654
 30
0.0
 42
-0.0238378164251699
 70
     1
  0
VERTEX
  5
D0D
330
D09
100
AcDbEntity
  8
AM_0
100
AcDbVertex
100
AcDb2dVertex
 10
-23.875
 20
-0.762585160246033
 30
0.0
 42
-0.0087697151677761
  0
VERTEX
  5
D15
330
D09
100
AcDbEntity
  8
AM_0
100
AcDbVertex
100
AcDb2dVertex
 10
-25.54112211635672
 20
0.9576758028811411
 30
0.0
 42
-0.016586017082525
 70
     1
  0
VERTEX
  5
D0E
330
D09
100
AcDbEntity
  8
AM_0
100
AcDbVertex
100
AcDb2dVertex
 10
-26.375
 20
1.910920793108999
 30
0.0
 42
-0.0451742545712589
  0
VERTEX
  5
D16
330
D09
100
AcDbEntity
  8
AM_0
100
AcDbVertex
100
AcDb2dVertex
 10
-26.93357065115664
 20
2.735764610619327
 30
0.0
 42
-0.1465772931919247
 70
     1
  0
VERTEX
  5
D0F
330
D09
100
AcDbEntity
  8
AM_0
100
AcDbVertex
100
AcDb2dVertex
 10
-27.0
 20
3.041606829871398
 30
0.0
 42
-0.2363269648915856
  0
VERTEX
  5
D17
330
D09
100
AcDbEntity
  8
AM_0
100
AcDbVertex
100
AcDb2dVertex
 10
-26.88240914889982
 20
3.237182992698535
 30
0.0
 42
-0.0944295254831177
 70
     1
  0
VERTEX
  5
D10
330
D09
100
AcDbEntity
  8
AM_0
100
AcDbVertex
100
AcDb2dVertex
 10
-26.375
 20
3.438095530890691
 30
0.0
 42
-0.0735428200704349
  0
VERTEX
  5
D19
330
D09
100
AcDbEntity
  8
AM_0
100
AcDbVertex
100
AcDb2dVertex
 10
-25.72051400992913
 20
3.465531103121136
 30
0.0
 42
-0.025664050315163
 70
     1
  0
VERTEX
  5
D11
330
D09
100
AcDbEntity
  8
AM_0
100
AcDbVertex
100
AcDb2dVertex
 10
-23.875
 20
3.174812141273292
 30
0.0
 42
-0.0327084143688329
  0
VERTEX
  5
D18
330
D09
100
AcDbEntity
  8
AM_0
100
AcDbVertex
100
AcDb2dVertex
 10
-23.03011184682256
 20
2.938293505277641
 30
0.0
 42
-0.0257576852941419
 70
     1
  0
VERTEX
  5
D12
330
D09
100
AcDbEntity
  8
AM_0
100
AcDbVertex
100
AcDb2dVertex
 10
-22.0
 20
2.515040050636599
 30
0.0
  0
SEQEND
  5
D13
330
D09
100
AcDbEntity
  8
AM_0
  0
SPLINE
  5
D1C
330
1F
100
AcDbEntity
  8
AM_0
100
AcDbSpline
210
0.0
220
0.0
230
1.0
 70
     8
 71
     3
 72
     8
 73
     4
 74
     0
 42
0.0000000001
 43
0.0000000001
 40
0.2725981709865456
 40
0.2725981709865456
 40
0.2725981709865456
 40
0.2725981709865456
 40
2.093133798227362
 40
2.093133798227362
 40
2.093133798227362
 40
2.093133798227362
 10
-19.86761689393425
 20
-5.000000000000007
 30
0.0
 10
-19.2662174128605
 20
-4.973341053670594
 30
0.0
 10
-18.68276586279014
 20
-4.879898512013738
 30
0.0
 10
-18.11410194639285
 20
-4.727388935360707
 30
0.0
  0
LINE
  5
D20
330
1F
100
AcDbEntity
  8
AM_0
100
AcDbLine
 10
-22.0
 20
2.515040050636599
 30
0.0
 11
-22.0
 21
3.755225032468459
 31
0.0
  0
LINE
  5
D2F
330
1F
100
AcDbEntity
  8
AM_0
100
AcDbLine
 10
-89.50000000000001
 20
-4.995093215907346
 30
0.0
 11
-89.49999999999999
 21
4.9999999999999
 31
0.0
  0
DIMENSION
  5
D39
330
1F
100
AcDbEntity
  8
AM_5
100
AcDbDimension
  2
*D5
 10
-0.0000000000000017
 20
-31.99999999999994
 30
0.0
 11
-45.0
 21
-28.89999999999994
 31
0.0
 70
    32
  1
<>
  3
AM_JIS
100
AcDbAlignedDimension
 13
-90.0
 23
-4.495093215907346
 33
0.0
 14
0.0
 24
-5.000000000000625
 34
0.0
100
AcDbRotatedDimension
1001
GENIUS_GENDTOL_13
1000

1000
h7
1000

1040
0.0
  0
DIMENSION
  5
DC2
330
1F
100
AcDbEntity
  8
AM_5
100
AcDbDimension
  2
*D6
 10
-22.0
 20
-19.99999999999994
 30
0.0
 11
-11.0
 21
-16.89999999999994
 31
0.0
 70
    32
  1
<>
  3
AM_JIS
100
AcDbAlignedDimension
 13
0.0
 23
-5.000000000000625
 33
0.0
 14
-22.0
 24
-5.999999999999943
 34
0.0
100
AcDbRotatedDimension
1001
GENIUS_GENDTOL_13
1000

1000
h7
1000

1040
0.0
  0
TEXT
  5
F17
330
1F
100
AcDbEntity
  8
AM_6
100
AcDbText
 10
-78.33333333333334
 20
-53.50000000000069
 30
0.0
 40
5.0
  1
SSUP4100ZX-R20
 72
     1
 11
-45.0
 21
-51.00000000000069
 31
0.0
100
AcDbText
 73
     2
  0
LINE
  5
14F5
330
1F
100
AcDbEntity
  8
AM_0
100
AcDbLine
 10
-19.86761689393424
 20
-5.000000000000007
 30
0.0
 11
-89.49999999999997
 21
-5.000000000000038
 31
0.0
1001
GENIUS_GENODEF_13
1002
{
1000
HIER
1070
     0
1002
}
1002
{
1000
MANEDIT
1070
     0
1002
}
1002
{
1000
NOSEL
1070
     0
1002
}
1002
{
1000
BEHIND
1070
     0
1002
}
1002
{
1000
REACTOR
1002
}
1001
GENIUS_GENOBJ-N-CEN_13
1002
{
1000
OWNER
1000
GEN
1002
}
  0
LINE
  5
14F9
330
1F
100
AcDbEntity
  8
AM_0
100
AcDbLine
 10
-25.84571583843426
 20
4.999999999999987
 30
0.0
 11
-89.50000000000001
 21
4.999999999999959
 31
0.0
1001
GENIUS_GENODEF_13
1002
{
1000
HIER
1070
     0
1002
}
1002
{
1000
MANEDIT
1070
     0
1002
}
1002
{
1000
NOSEL
1070
     0
1002
}
1002
{
1000
BEHIND
1070
     0
1002
}
1002
{
1000
REACTOR
1002
}
1001
GENIUS_GENOBJ-N-CEN_13
1002
{
1000
OWNER
1000
GEN
1002
}
  0
LINE
  5
14FD
330
1F
100
AcDbEntity
  8
AM_0
100
AcDbLine
 10
-90.0
 20
4.499999999999959
 30
0.0
 11
-89.50000000000001
 21
4.999999999999959
 31
0.0
1001
GENIUS_GENFIL_13
1070
     0
1040
0.5
1040
0.5
1040
20.0
1040
0.0
1002
{
1002
}
1001
GENIUS_GENODEF_13
1002
{
1000
HIER
1070
     0
1002
}
1002
{
1000
MANEDIT
1070
     0
1002
}
1002
{
1000
NOSEL
1070
     0
1002
}
1002
{
1000
BEHIND
1070
     0
1002
}
1002
{
1000
REACTOR
1002
}
1001
GENIUS_GENOBJ-N-CHA_13
1002
{
1000
OWNER
1000
GEN
1002
}
  0
LINE
  5
14FF
330
1F
100
AcDbEntity
  8
AM_0
100
AcDbLine
 10
-89.99999999999998
 20
-4.500000000000038
 30
0.0
 11
-89.49999999999997
 21
-5.000000000000038
 31
0.0
1001
GENIUS_GENFIL_13
1070
     0
1040
0.5
1040
0.5
1040
20.0
1040
0.0
1002
{
1002
}
1001
GENIUS_GENODEF_13
1002
{
1000
HIER
1070
     0
1002
}
1002
{
1000
MANEDIT
1070
     0
1002
}
1002
{
1000
NOSEL
1070
     0
1002
}
1002
{
1000
BEHIND
1070
     0
1002
}
1002
{
1000
REACTOR
1002
}
1001
GENIUS_GENOBJ-N-CHA_13
1002
{
1000
OWNER
1000
GEN
1002
}
  0
LINE
  5
151C
330
1F
100
AcDbEntity
  8
AM_11
100
AcDbLine
 10
0.0
 20
5.000000000000626
 30
0.0
 11
0.0
 21
-5.000000000000625
 31
0.0
  0
DIMENSION
  5
1525
330
1F
100
AcDbEntity
  8
AM_5
100
AcDbDimension
  2
*D7
 10
18.53057127860814
 20
-5.00000000000063
 30
0.0
 11
18.53057127860814
 21
-0.000000000000002
 31
0.0
 70
   160
  1
%%c<>
  3
AM_JIS
100
AcDbAlignedDimension
 13
-0.3
 23
5.000000000000625
 33
0.0
 14
-0.3
 24
-5.000000000000625
 34
0.0
 50
90.0
100
AcDbRotatedDimension
1001
GENIUS_GENDTOL_13
1000

1000
h7
1000

1040
0.0
  0
ARC
  5
195A
330
1F
100
AcDbEntity
  8
AM_0
100
AcDbCircle
 10
-2.0
 20
3.000000000000624
 30
0.0
 40
2.0
100
AcDbArc
 50
0.0
 51
90.0
1001
GENIUS_GENODEF_13
1002
{
1000
HIER
1070
     0
1002
}
1002
{
1000
MANEDIT
1070
     0
1002
}
1002
{
1000
NOSEL
1070
     0
1002
}
1002
{
1000
BEHIND
1070
     0
1002
}
1002
{
1000
REACTOR
1002
}
1001
GENIUS_GENOBJ-N-FIL_13
1002
{
1000
OWNER
1000
GEN
1002
}
  0
ARC
  5
195C
330
1F
100
AcDbEntity
  8
AM_0
100
AcDbCircle
 10
-2.0
 20
-3.000000000000251
 30
0.0
 40
2.0
100
AcDbArc
 50
269.9999999999893
 51
0.0
1001
GENIUS_GENODEF_13
1002
{
1000
HIER
1070
     0
1002
}
1002
{
1000
MANEDIT
1070
     0
1002
}
1002
{
1000
NOSEL
1070
     0
1002
}
1002
{
1000
BEHIND
1070
     0
1002
}
1002
{
1000
REACTOR
1002
}
1001
GENIUS_GENOBJ-N-FIL_13
1002
{
1000
OWNER
1000
GEN
1002
}
  0
DIMENSION
  5
1967
330
1F
100
AcDbEntity
  8
AM_5
100
AcDbDimension
  2
*D8
 10
-2.0
 20
-3.000000000000251
 30
0.0
 11
7.491359294078732
 21
-13.14184226034035
 31
0.0
 70
   164
  1
<>
  3
AM_JIS$4
100
AcDbRadialDimension
 15
-0.6333917214583453
 25
-4.460267719639843
 35
0.0
 40
0.0
1001
GENIUS_GENDTOL_13
1000

1000
h7
1000

1040
0.0
1001
ACAD
1000
DSTYLE
1002
{
1070
   287
1070
     3
1070
   271
1070
     3
1070
   288
1070
     1
1070
   289
1070
     3
1070
   172
1070
     1
1070
    74
1070
     0
1002
}
  0
DIMENSION
  5
19EC
330
1F
100
AcDbEntity
  8
AM_5
100
AcDbDimension
  2
*D9
 10
-104.0000009999999
 20
4.999999999999963
 30
0.0
 11
-104.0000009999999
 21
-0.0000000000000518
 31
0.0
 70
   160
  1
%%c<>
  3
AM_JIS
100
AcDbAlignedDimension
 13
-89.49999999999997
 23
-5.000000000000038
 33
0.0
 14
-89.50000000000001
 24
4.999999999999959
 34
0.0
 50
270.0000000000001
100
AcDbRotatedDimension
1001
GENIUS_GENDTOL_13
1000

1000
h7
1000

1040
0.0
  0
VIEWPORT
  5
110
330
101
100
AcDbEntity
 67
     1
  8
0
100
AcDbViewport
 10
420.5
 20
297.0
 30
0.0
 40
948.9782706766916
 41
628.452
 68
     1
 69
     1
1001
ACAD
1000
MVIEW
1002
{
1070
    16
1010
0.0
1020
0.0
1030
0.0
1010
0.0
1020
0.0
1030
1.0
1040
0.0
1040
628.452
1040
420.5
1040
297.0
1040
50.0
1040
0.0
1040
0.0
1070
     0
1070
   100
1070
     1
1070
     1
1070
     0
1070
     0
1070
     0
1070
     0
1040
0.0
1040
0.0
1040
0.0
1040
10.0
1040
10.0
1040
10.0
1040
10.0
1070
     0
1002
{
1002
}
1002
}
  0
ENDSEC
  0
SECTION
  2
OBJECTS
  0
DICTIONARY
  5
C
330
0
100
AcDbDictionary
  3
ACAD_GROUP
350
D
  3
ACAD_LAYOUT
350
1A
  3
ACAD_MLINESTYLE
350
17
  3
ACAD_PLOTSETTINGS
350
19
  3
ACAD_PLOTSTYLENAME
350
E
  3
ACDBVARIABLEDICTIONARY
350
34
  3
ACMDICTIONARY
350
43
  3
AMG
350
2B
  3
AMGSNAPSETTINGS
350
6E
  3
DWGPROPS
350
1A98
  3
ACDBHEADERROUNDTRIPXREC
350
1AA4
  0
DICTIONARY
  5
74
330
1F
100
AcDbDictionary
280
     1
  3
ACAD_SORTENTS
360
16E2
  3
ACAD_INDEX
360
1A9A
  3
ACAD_LAYOUTSELFREF
360
1AC7
  0
DICTIONARY
  5
1ACC
330
101
100
AcDbDictionary
280
     1
  3
ACAD_LAYOUTSELFREF
360
1ACD
  0
DICTIONARY
  5
D
102
{ACAD_REACTORS
330
C
102
}
330
C
100
AcDbDictionary
  0
DICTIONARY
  5
1A
102
{ACAD_REACTORS
330
C
102
}
330
C
100
AcDbDictionary
  0
DICTIONARY
  5
17
102
{ACAD_REACTORS
330
C
102
}
330
C
100
AcDbDictionary
  3
STANDARD
350
18
  0
DICTIONARY
  5
19
102
{ACAD_REACTORS
330
C
102
}
330
C
100
AcDbDictionary
  0
ACDBDICTIONARYWDFLT
  5
E
102
{ACAD_REACTORS
330
C
102
}
330
C
100
AcDbDictionary
281
     1
  3
Normal
350
F
100
AcDbDictionaryWithDefault
340
F
  0
DICTIONARY
  5
34
102
{ACAD_REACTORS
330
C
102
}
330
C
100
AcDbDictionary
  3
INDEXCTL
350
35
  3
SORTENTS
350
B5E
  0
DICTIONARY
  5
43
102
{ACAD_REACTORS
330
C
102
}
330
C
100
AcDbDictionary
  3
ACMSTDDICTIONARY
350
260
  0
DICTIONARY
  5
2B
102
{ACAD_REACTORS
330
C
102
}
330
C
100
AcDbDictionary
  3
ACMGSETTINGS
350
2C
  0
DICTIONARY
  5
6E
102
{ACAD_REACTORS
330
C
102
}
330
C
100
AcDbDictionary
  0
XRECORD
  5
1A98
102
{ACAD_REACTORS
330
C
102
}
330
C
100
AcDbXrecord
  1
DWGPROPS COOKIE
  2

  3

  4

  6

  7

  8

  9

300
AmdtFileType=82
301
=
302
=
303
=
304
=
305
=
306
=
307
=
308
=
309
=
 40
0.0422699768518519
 41
2452809.403188831
 42
2452844.446950404
  1

 90
        1
  0
DICTIONARY
  5
1AA4
102
{ACAD_REACTORS
330
C
102
}
330
C
100
AcDbDictionary
  3
TSTACKALIGN
350
1AA5
  3
TSTACKSIZE
350
1AA6
  3
HYPERLINKBASE
350
1AA7
  3
STYLESHEET
350
1AA8
  3
LAYOUTDICT
350
1AA9
  3
PLOTSETDICT
350
1AAA
  3
PLOTSTYLNAMDICT
350
1AAB
  3
LWETCUNION
350
1AAC
  3
INSUNITS
350
1AAD
  3
CEPSNTYPE
350
1AAE
  3
FINGERPRINTGUID
350
1AAF
  3
VERSIONGUID
350
1AB0
  3
PSVPSCALE
350
1AB1
  3
DIMSTYLEDATA
350
1AB2
  3
PUCSORTHOREF
350
1AB3
  3
PUCSORTHOVIEW
350
1AB4
  3
PUCSBASE
350
1AB5
  3
PUCSORGTOP
350
1AB6
  3
PUCSORGBOTTOM
350
1AB7
  3
PUCSORGLEFT
350
1AB8
  3
PUCSORGRIGHT
350
1AB9
  3
PUCSORGFRONT
350
1ABA
  3
PUCSORGBACK
350
1ABB
  3
UCSORTHOREF
350
1ABC
  3
UCSORTHOVIEW
350
1ABD
  3
UCSBASE
350
1ABE
  3
UCSORGTOP
350
1ABF
  3
UCSORGBOTTOM
350
1AC0
  3
UCSORGLEFT
350
1AC1
  3
UCSORGRIGHT
350
1AC2
  3
UCSORGFRONT
350
1AC3
  3
UCSORGBACK
350
1AC4
  0
SORTENTSTABLE
  5
16E2
102
{ACAD_REACTORS
330
74
102
}
330
74
100
AcDbSortentsTable
330
1F
331
C45
  5
C42
331
D20
  5
C60
331
C4C
  5
C49
331
C53
  5
C50
331
C3C
  5
C3B
331
C35
  5
C34
331
C2E
  5
C2E
331
C4D
  5
C4A
331
C2F
  5
C2F
331
C46
  5
C43
331
14F5
  5
D39
331
C54
  5
C51
331
D2F
  5
D09
331
C3D
  5
C3C
331
C36
  5
C35
331
C40
  5
16E9
331
C4E
  5
C4B
331
C55
  5
C52
331
C37
  5
C36
331
151C
  5
14F9
331
C30
  5
151C
331
14FD
  5
F17
331
C3E
  5
14FF
331
C41
  5
C3E
331
C4F
  5
C4C
331
C56
  5
C53
331
C38
  5
C37
331
C5D
  5
C54
331
C3F
  5
C3D
331
D39
  5
D1C
331
C31
  5
C30
331
D1C
  5
C5D
331
C60
  5
C55
331
C49
  5
C46
331
C50
  5
C4D
331
C32
  5
C31
331
14FF
  5
14F5
331
C2B
  5
C2B
331
DC2
  5
D20
331
C42
  5
C3F
331
1525
  5
14FD
331
F17
  5
D2F
331
C39
  5
C38
331
14F9
  5
DC2
331
C43
  5
C40
331
C2C
  5
C2C
331
C51
  5
C4E
331
C3A
  5
C39
331
C33
  5
C32
331
C4A
  5
C47
331
D09
  5
C56
331
C4B
  5
C48
331
C44
  5
C41
331
C34
  5
C33
331
C3B
  5
C3A
331
C52
  5
C4F
  0
DICTIONARY
  5
1A9A
102
{ACAD_REACTORS
330
74
102
}
330
74
100
AcDbDictionary
  3
*A1
350
1A9B
  0
XRECORD
  5
1AC7
102
{ACAD_REACTORS
330
74
102
}
330
74
100
AcDbXrecord
340
1F
  0
XRECORD
  5
1ACD
102
{ACAD_REACTORS
330
1ACC
102
}
330
1ACC
100
AcDbXrecord
340
101
  0
MLINESTYLE
  5
18
102
{ACAD_REACTORS
330
17
102
}
330
17
100
AcDbMlineStyle
  2
STANDARD
 70
     0
  3

 62
   256
 51
90.0
 52
90.0
 71
     2
 49
0.5
 62
   256
  6
BYLAYER
 49
-0.5
 62
   256
  6
BYLAYER
  0
ACDBPLACEHOLDER
  5
F
102
{ACAD_REACTORS
330
E
102
}
330
E
100
AcDbPlaceHolder
280
     0
  0
DICTIONARYVAR
  5
35
102
{ACAD_REACTORS
330
34
102
}
330
34
100
DictionaryVariables
280
     0
  1
1
  0
DICTIONARYVAR
  5
B5E
102
{ACAD_REACTORS
330
34
102
}
330
34
100
DictionaryVariables
280
     0
  1
127
  0
DICTIONARY
  5
260
102
{ACAD_REACTORS
330
43
102
}
330
43
100
AcDbDictionary
  0
DICTIONARY
  5
2C
102
{ACAD_REACTORS
330
2B
102
}
330
2B
100
AcDbDictionary
  3
DWGSETTINGS
350
2D
  0
XRECORD
  5
1AA5
102
{ACAD_REACTORS
330
1AA4
102
}
330
1AA4
100
AcDbXrecord
 90
        1
  0
XRECORD
  5
1AA6
102
{ACAD_REACTORS
330
1AA4
102
}
330
1AA4
100
AcDbXrecord
 90
       70
  0
XRECORD
  5
1AA7
102
{ACAD_REACTORS
330
1AA4
102
}
330
1AA4
100
AcDbXrecord
  1

  0
XRECORD
  5
1AA8
102
{ACAD_REACTORS
330
1AA4
102
}
330
1AA4
100
AcDbXrecord
  1
ASAMI.ctb
  0
XRECORD
  5
1AA9
102
{ACAD_REACTORS
330
1AA4
102
}
330
1AA4
100
AcDbXrecord
340
1A
  0
XRECORD
  5
1AAA
102
{ACAD_REACTORS
330
1AA4
102
}
330
1AA4
100
AcDbXrecord
340
19
  0
XRECORD
  5
1AAB
102
{ACAD_REACTORS
330
1AA4
102
}
330
1AA4
100
AcDbXrecord
340
E
  0
XRECORD
  5
1AAC
102
{ACAD_REACTORS
330
1AA4
102
}
330
1AA4
100
AcDbXrecord
 90
    10781
  0
XRECORD
  5
1AAD
102
{ACAD_REACTORS
330
1AA4
102
}
330
1AA4
100
AcDbXrecord
 90
        4
  0
XRECORD
  5
1AAE
102
{ACAD_REACTORS
330
1AA4
102
}
330
1AA4
100
AcDbXrecord
 90
        0
  0
XRECORD
  5
1AAF
102
{ACAD_REACTORS
330
1AA4
102
}
330
1AA4
100
AcDbXrecord
  1
{AFB28963-8C59-40AE-9337-C84526B81ACE}
  0
XRECORD
  5
1AB0
102
{ACAD_REACTORS
330
1AA4
102
}
330
1AA4
100
AcDbXrecord
  1
{26D5BDBB-2F0D-4265-B9C1-0B08A19118B5}
  0
XRECORD
  5
1AB1
102
{ACAD_REACTORS
330
1AA4
102
}
330
1AA4
100
AcDbXrecord
 40
0.0
  0
XRECORD
  5
1AB2
102
{ACAD_REACTORS
330
1AA4
102
}
330
1AA4
100
AcDbXrecord
1000
DSTYLE
1002
{
1070
    79
 70
     2
1070
   341
340
59
1070
   342
340
59
1070
   371
 70
    -1
1070
   372
 70
    -1
1002
}
  0
XRECORD
  5
1AB3
102
{ACAD_REACTORS
330
1AA4
102
}
330
1AA4
100
AcDbXrecord
340
0
  0
XRECORD
  5
1AB4
102
{ACAD_REACTORS
330
1AA4
102
}
330
1AA4
100
AcDbXrecord
 70
     0
  0
XRECORD
  5
1AB5
102
{ACAD_REACTORS
330
1AA4
102
}
330
1AA4
100
AcDbXrecord
340
0
  0
XRECORD
  5
1AB6
102
{ACAD_REACTORS
330
1AA4
102
}
330
1AA4
100
AcDbXrecord
 10
0.0
 20
0.0
 30
0.0
  0
XRECORD
  5
1AB7
102
{ACAD_REACTORS
330
1AA4
102
}
330
1AA4
100
AcDbXrecord
 10
0.0
 20
0.0
 30
0.0
  0
XRECORD
  5
1AB8
102
{ACAD_REACTORS
330
1AA4
102
}
330
1AA4
100
AcDbXrecord
 10
0.0
 20
0.0
 30
0.0
  0
XRECORD
  5
1AB9
102
{ACAD_REACTORS
330
1AA4
102
}
330
1AA4
100
AcDbXrecord
 10
0.0
 20
0.0
 30
0.0
  0
XRECORD
  5
1ABA
102
{ACAD_REACTORS
330
1AA4
102
}
330
1AA4
100
AcDbXrecord
 10
0.0
 20
0.0
 30
0.0
  0
XRECORD
  5
1ABB
102
{ACAD_REACTORS
330
1AA4
102
}
330
1AA4
100
AcDbXrecord
 10
0.0
 20
0.0
 30
0.0
  0
XRECORD
  5
1ABC
102
{ACAD_REACTORS
330
1AA4
102
}
330
1AA4
100
AcDbXrecord
340
0
  0
XRECORD
  5
1ABD
102
{ACAD_REACTORS
330
1AA4
102
}
330
1AA4
100
AcDbXrecord
 70
     0
  0
XRECORD
  5
1ABE
102
{ACAD_REACTORS
330
1AA4
102
}
330
1AA4
100
AcDbXrecord
340
0
  0
XRECORD
  5
1ABF
102
{ACAD_REACTORS
330
1AA4
102
}
330
1AA4
100
AcDbXrecord
 10
0.0
 20
0.0
 30
0.0
  0
XRECORD
  5
1AC0
102
{ACAD_REACTORS
330
1AA4
102
}
330
1AA4
100
AcDbXrecord
 10
0.0
 20
0.0
 30
0.0
  0
XRECORD
  5
1AC1
102
{ACAD_REACTORS
330
1AA4
102
}
330
1AA4
100
AcDbXrecord
 10
0.0
 20
0.0
 30
0.0
  0
XRECORD
  5
1AC2
102
{ACAD_REACTORS
330
1AA4
102
}
330
1AA4
100
AcDbXrecord
 10
0.0
 20
0.0
 30
0.0
  0
XRECORD
  5
1AC3
102
{ACAD_REACTORS
330
1AA4
102
}
330
1AA4
100
AcDbXrecord
 10
0.0
 20
0.0
 30
0.0
  0
XRECORD
  5
1AC4
102
{ACAD_REACTORS
330
1AA4
102
}
330
1AA4
100
AcDbXrecord
 10
0.0
 20
0.0
 30
0.0
  0
LAYER_INDEX
  5
1A9B
102
{ACAD_REACTORS
330
1A9A
102
}
330
1A9A
100
AcDbIndex
 40
2452844.462659676
100
AcDbLayerIndex
  8
0
360
1A9C
 90
        0
  8
AM_0
360
1A9D
 90
       49
  8
AM_11
360
1A9E
 90
        4
  8
AM_7
360
1A9F
 90
        1
  8
AM_5
360
1AA0
 90
        5
  8
Defpoints
360
1AA1
 90
        0
  8
AM_6
360
1AA2
 90
        1
  0
XRECORD
  5
2D
102
{ACAD_REACTORS
330
2C
102
}
330
2C
100
AcDbXrecord
  1
VERSION
140
15.0
  1
PRODUCT
  2
AutoCAD Mechanical 2000
  0
IDBUFFER
  5
1A9C
330
0
100
AcDbIdBuffer
  0
IDBUFFER
  5
1A9D
330
0
100
AcDbIdBuffer
330
195C
330
C2B
330
C2C
330
C31
330
C32
330
C33
330
C34
330
C35
330
C36
330
C37
330
C38
330
C39
330
C3A
330
C3B
330
C3C
330
C3D
330
C3E
330
C3F
330
C40
330
C41
330
C42
330
C43
330
C44
330
C45
330
C46
330
C49
330
C4A
330
C4B
330
C4C
330
C4D
330
C4E
330
C4F
330
C50
330
C51
330
C52
330
C53
330
C54
330
C55
330
C56
330
C5D
330
D09
330
D1C
330
D20
330
D2F
330
14F5
330
14F9
330
14FD
330
14FF
330
195A
  0
IDBUFFER
  5
1A9E
330
0
100
AcDbIdBuffer
330
C2E
330
C30
330
C60
330
151C
  0
IDBUFFER
  5
1A9F
330
0
100
AcDbIdBuffer
330
C2F
  0
IDBUFFER
  5
1AA0
330
0
100
AcDbIdBuffer
330
D39
330
DC2
330
1525
330
1967
330
19EC
  0
IDBUFFER
  5
1AA1
330
0
100
AcDbIdBuffer
  0
IDBUFFER
  5
1AA2
330
0
100
AcDbIdBuffer
330
F17
  0
ENDSEC
  0
EOF
