  0
SECTION
  2
HEADER
  9
$ACADVER
  1
AC1014
  9
$ACADMAINTVER
 70
     9
  9
$DWGCODEPAGE
  3
ANSI_932
  9
$INSBASE
 10
0.0
 20
0.0
 30
0.0
  9
$EXTMIN
 10
-108.2
 20
-53.50245339204705
 30
-0.00000001
  9
$EXTMAX
 10
19.53057127860813
 20
7.188457241205792
 30
0.00000001
  9
$LIMMIN
 10
-121.282856596236
 20
-64.26019952104545
  9
$LIMMAX
 10
35.13647086530886
 20
16.59790219070367
  9
$ORTHOMODE
 70
     0
  9
$REGENMODE
 70
     1
  9
$FILLMODE
 70
     1
  9
$QTEXTMODE
 70
     0
  9
$MIRRTEXT
 70
     0
  9
$DRAGMODE
 70
     2
  9
$LTSCALE
 40
1.0
  9
$OSMODE
 70
  2103
  9
$ATTMODE
 70
     1
  9
$TEXTSIZE
 40
2.5
  9
$TRACEWID
 40
1.0
  9
$TEXTSTYLE
  7
STANDARD
  9
$CLAYER
  8
AM_11
  9
$CELTYPE
  6
BYLAYER
  9
$CECOLOR
 62
   256
  9
$CELTSCALE
 40
1.0
  9
$DELOBJ
 70
     1
  9
$DISPSILH
 70
     0
  9
$DIMSCALE
 40
1.0
  9
$DIMASZ
 40
2.5
  9
$DIMEXO
 40
1.0
  9
$DIMDLI
 40
12.0
  9
$DIMRND
 40
0.0
  9
$DIMDLE
 40
0.0
  9
$DIMEXE
 40
1.0
  9
$DIMTP
 40
0.1
  9
$DIMTM
 40
0.1
  9
$DIMTXT
 40
3.2
  9
$DIMCEN
 40
0.0
  9
$DIMTSZ
 40
0.0
  9
$DIMTOL
 70
     0
  9
$DIMLIM
 70
     0
  9
$DIMTIH
 70
     0
  9
$DIMTOH
 70
     0
  9
$DIMSE1
 70
     0
  9
$DIMSE2
 70
     0
  9
$DIMTAD
 70
     3
  9
$DIMZIN
 70
     8
  9
$DIMBLK
  1
OPEN30
  9
$DIMASO
 70
     1
  9
$DIMSHO
 70
     1
  9
$DIMPOST
  1

  9
$DIMAPOST
  1
"
  9
$DIMALT
 70
     0
  9
$DIMALTD
 70
     2
  9
$DIMALTF
 40
0.0393701
  9
$DIMLFAC
 40
1.0
  9
$DIMTOFL
 70
     1
  9
$DIMTVP
 40
0.0
  9
$DIMTIX
 70
     0
  9
$DIMSOXD
 70
     0
  9
$DIMSAH
 70
     0
  9
$DIMBLK1
  1

  9
$DIMBLK2
  1

  9
$DIMSTYLE
  2
AM_JIS
  9
$DIMCLRD
 70
   256
  9
$DIMCLRE
 70
   256
  9
$DIMCLRT
 70
     2
  9
$DIMTFAC
 40
0.71
  9
$DIMGAP
 40
1.5
  9
$DIMJUST
 70
     0
  9
$DIMSD1
 70
     0
  9
$DIMSD2
 70
     0
  9
$DIMTOLJ
 70
     0
  9
$DIMTZIN
 70
     0
  9
$DIMALTZ
 70
     0
  9
$DIMALTTZ
 70
     0
  9
$DIMFIT
 70
     3
  9
$DIMUPT
 70
     0
  9
$DIMUNIT
 70
     2
  9
$DIMDEC
 70
     3
  9
$DIMTDEC
 70
     3
  9
$DIMALTU
 70
     2
  9
$DIMALTTD
 70
     2
  9
$DIMTXSTY
  7
ASAMI
  9
$DIMAUNIT
 70
     0
  9
$LUNITS
 70
     2
  9
$LUPREC
 70
     2
  9
$SKETCHINC
 40
1.0
  9
$FILLETRAD
 40
1.5
  9
$AUNITS
 70
     0
  9
$AUPREC
 70
     0
  9
$MENU
  1
.
  9
$ELEVATION
 40
0.0
  9
$PELEVATION
 40
0.0
  9
$THICKNESS
 40
0.0
  9
$LIMCHECK
 70
     0
  9
$BLIPMODE
 70
     0
  9
$CHAMFERA
 40
0.5
  9
$CHAMFERB
 40
0.5
  9
$CHAMFERC
 40
20.0
  9
$CHAMFERD
 40
0.0
  9
$SKPOLY
 70
     0
  9
$TDCREATE
 40
2452809.403188831
  9
$TDUPDATE
 40
2452844.462924073
  9
$TDINDWG
 40
0.0566297801
  9
$TDUSRTIMER
 40
0.0566297801
  9
$USRTIMER
 70
     1
  9
$ANGBASE
 50
0.0
  9
$ANGDIR
 70
     0
  9
$PDMODE
 70
     0
  9
$PDSIZE
 40
0.0
  9
$PLINEWID
 40
0.0
  9
$COORDS
 70
     2
  9
$SPLFRAME
 70
     0
  9
$SPLINETYPE
 70
     6
  9
$SPLINESEGS
 70
     8
  9
$ATTDIA
 70
     1
  9
$ATTREQ
 70
     1
  9
$HANDLING
 70
 12289
  9
$HANDSEED
  5
1BB9
  9
$SURFTAB1
 70
     6
  9
$SURFTAB2
 70
     6
  9
$SURFTYPE
 70
     6
  9
$SURFU
 70
     6
  9
$SURFV
 70
     6
  9
$UCSNAME
  2

  9
$UCSORG
 10
0.0
 20
-0.000000000000002
 30
0.0
  9
$UCSXDIR
 10
1.0
 20
0.0
 30
0.0
  9
$UCSYDIR
 10
0.0
 20
1.0
 30
0.0
  9
$PUCSNAME
  2

  9
$PUCSORG
 10
0.0
 20
0.0
 30
0.0
  9
$PUCSXDIR
 10
1.0
 20
0.0
 30
0.0
  9
$PUCSYDIR
 10
0.0
 20
1.0
 30
0.0
  9
$USERI1
 70
     0
  9
$USERI2
 70
     0
  9
$USERI3
 70
     0
  9
$USERI4
 70
     0
  9
$USERI5
 70
     0
  9
$USERR1
 40
0.0
  9
$USERR2
 40
0.0
  9
$USERR3
 40
0.0
  9
$USERR4
 40
0.0
  9
$USERR5
 40
0.0
  9
$WORLDVIEW
 70
     1
  9
$SHADEDGE
 70
     3
  9
$SHADEDIF
 70
    70
  9
$TILEMODE
 70
     1
  9
$MAXACTVP
 70
    64
  9
$PINSBASE
 10
0.0
 20
0.0
 30
0.0
  9
$PLIMCHECK
 70
     0
  9
$PEXTMIN
 10
1.000000000000000E+20
 20
1.000000000000000E+20
 30
1.000000000000000E+20
  9
$PEXTMAX
 10
-1.000000000000000E+20
 20
-1.000000000000000E+20
 30
-1.000000000000000E+20
  9
$PLIMMIN
 10
0.0
 20
0.0
  9
$PLIMMAX
 10
841.0
 20
594.0
  9
$UNITMODE
 70
     0
  9
$VISRETAIN
 70
     1
  9
$PLINEGEN
 70
     0
  9
$PSLTSCALE
 70
     0
  9
$TREEDEPTH
 70
  3020
  9
$PICKSTYLE
 70
     0
  9
$CMLSTYLE
  2
STANDARD
  9
$CMLJUST
 70
     0
  9
$CMLSCALE
 40
20.0
  9
$PROXYGRAPHICS
 70
     1
  9
$MEASUREMENT
 70
     1
  0
ENDSEC
  0
SECTION
  2
CLASSES
  0
CLASS
  1
ACDBDICTIONARYWDFLT
  2
AcDbDictionaryWithDefault
  3
AutoCAD 2000
 90
        0
280
     0
281
     0
  0
CLASS
  1
ACDBPLACEHOLDER
  2
AcDbPlaceHolder
  3
AutoCAD 2000
 90
        0
280
     0
281
     0
  0
CLASS
  1
LAYOUT
  2
AcDbLayout
  3
AutoCAD 2000
 90
        0
280
     0
281
     0
  0
CLASS
  1
AMGSETTINGSOBJ
  2
AmgSettingsObj
  3
"AcadM|Product Description: AutoCAD Mechanical 2000|Company: Autodesk"
 90
        0
280
     0
281
     0
  0
CLASS
  1
ACME_DOCUMENT
  2
AcMeDbDoc
  3
AcMeServices
 90
        0
280
     0
281
     0
  0
CLASS
  1
ACMESCOPE
  2
AcMeScope
  3
AcMeServices
 90
        0
280
     0
281
     0
  0
CLASS
  1
ACMECOMMANDHISTORY
  2
AcMeCommandHistory
  3
AcMeServices
 90
        0
280
     0
281
     0
  0
CLASS
  1
DICTIONARYVAR
  2
AcDbDictionaryVar
  3
AutoCAD 2000
 90
        0
280
     0
281
     0
  0
CLASS
  1
ACIMSYSVARMAN
  2
AcImSysVarManager
  3
AcMeServices
 90
        0
280
     0
281
     0
  0
CLASS
  1
ACIMREALSYSVAR
  2
AcImRealSysVar
  3
AcMeServices
 90
        0
280
     0
281
     0
  0
CLASS
  1
ACIMINTSYSVAR
  2
AcImIntSysVar
  3
AcMeServices
 90
        0
280
     0
281
     0
  0
CLASS
  1
ACMEDRAWINGMAN
  2
AcMeDrawingMan
  3
AcMeServices
 90
        0
280
     0
281
     0
  0
CLASS
  1
ACMEVIEW
  2
AcMeView
  3
AcMeServices
 90
        0
280
     0
281
     0
  0
CLASS
  1
ACDBENTITYCACHE
  2
AcMeEntityCache
  3
AcMeServices
 90
        0
280
     0
281
     0
  0
CLASS
  1
GSMANAGER
  2
AcMeGSManager
  3
AcMeServices
 90
        0
280
     0
281
     0
  0
CLASS
  1
AmdtInternalReactor
  2
AmdtInternalReactor
  3
AcMeServices
 90
        0
280
     0
281
     0
  0
CLASS
  1
ACMESTATEMGR
  2
AcMeStateMgr
  3
AcMeServices
 90
        0
280
     0
281
     0
  0
CLASS
  1
ACME_DATABASE
  2
AcMeDbDatabase
  3
AcMeServices
 90
        0
280
     0
281
     0
  0
CLASS
  1
ACRFINSADJUSTERMGR
  2
AcRfInsAdjusterMgr
  3
AcMeServices
 90
        0
280
     0
281
     0
  0
CLASS
  1
ACMDATADICTIONARY
  2
AcmDataDictionary
  3
"AcmSymBB|Product Description: AutoCAD Mechanical 2000|Company: Autodesk"
 90
        0
280
     0
281
     0
  0
CLASS
  1
ACMDATAENTRYBLOCK
  2
AcmDataEntryBlock
  3
"AcmSymBB|Product Description: AutoCAD Mechanical 2000|Company: Autodesk"
 90
        0
280
     0
281
     0
  0
CLASS
  1
AMGOBJPROPCFG
  2
AmgObjPropCfg
  3
"AmgLay|Product Description: AutoCAD Mechanical 2000|Company: Autodesk"
 90
        1
280
     0
281
     0
  0
CLASS
  1
ACAMGFILTERDAT
  2
AcAmgFilterDat
  3
"AcadM|Product Description: AutoCAD Mechanical 2000|Company: Autodesk"
 90
        0
280
     0
281
     0
  0
CLASS
  1
LAYER_INDEX
  2
AcDbLayerIndex
  3
AutoCAD 2000
 90
        0
280
     0
281
     0
  0
CLASS
  1
IDBUFFER
  2
AcDbIdBuffer
  3
AutoCAD 2000
 90
        0
280
     0
281
     0
  0
CLASS
  1
ACIMSTRSYSVAR
  2
AcImStrSysVar
  3
AcMeServices
 90
        0
280
     0
281
     0
  0
CLASS
  1
ACMSTANDARDJIS
  2
AcmStandardJIS
  3
"AcmSymBB|Product Description: AutoCAD Mechanical 2000|Company: Autodesk"
 90
        0
280
     0
281
     0
  0
CLASS
  1
ACMSURFSTANDARDJIS
  2
AcmSurfTextStdJIS
  3
"AcmSymBB|Product Description: AutoCAD Mechanical 2000|Company: Autodesk"
 90
        0
280
     0
281
     0
  0
CLASS
  1
ACMFCFSTANDARDJIS
  2
AcmFCFStdJIS
  3
"AcmSymBB|Product Description: AutoCAD Mechanical 2000|Company: Autodesk"
 90
        0
280
     0
281
     0
  0
CLASS
  1
ACMWELDSTANDARDJIS
  2
AcmWeldingStdJIS
  3
"AcmSymBB|Product Description: AutoCAD Mechanical 2000|Company: Autodesk"
 90
        0
280
     0
281
     0
  0
CLASS
  1
ACMIDSTANDARDJIS
  2
AcmIdStdJIS
  3
"AcmSymBB|Product Description: AutoCAD Mechanical 2000|Company: Autodesk"
 90
        0
280
     0
281
     0
  0
CLASS
  1
ACMDATUMSTANDARDJIS
  2
AcmDatumStdJIS
  3
"AcmSymBB|Product Description: AutoCAD Mechanical 2000|Company: Autodesk"
 90
        0
280
     0
281
     0
  0
CLASS
  1
ACMBOMSTANDARDJIS
  2
AcmBOMStdJIS
  3
"AcmSymBB|Product Description: AutoCAD Mechanical 2000|Company: Autodesk"
 90
        0
280
     0
281
     0
  0
CLASS
  1
ACMSTANDARDANSI
  2
AcmStandardANSI
  3
"AcmSymBB|Product Description: AutoCAD Mechanical 2000|Company: Autodesk"
 90
        0
280
     0
281
     0
  0
CLASS
  1
ACMSURFSTANDARDANSI
  2
AcmSurfTextStdANSI
  3
"AcmSymBB|Product Description: AutoCAD Mechanical 2000|Company: Autodesk"
 90
        0
280
     0
281
     0
  0
CLASS
  1
ACMFCFSTANDARDANSI
  2
AcmFCFStdANSI
  3
"AcmSymBB|Product Description: AutoCAD Mechanical 2000|Company: Autodesk"
 90
        0
280
     0
281
     0
  0
CLASS
  1
ACMWELDSTANDARDANSI
  2
AcmWeldingStdANSI
  3
"AcmSymBB|Product Description: AutoCAD Mechanical 2000|Company: Autodesk"
 90
        0
280
     0
281
     0
  0
CLASS
  1
ACMIDSTANDARDANSI
  2
AcmIdStdANSI
  3
"AcmSymBB|Product Description: AutoCAD Mechanical 2000|Company: Autodesk"
 90
        0
280
     0
281
     0
  0
CLASS
  1
ACMDATUMSTANDARDANSI
  2
AcmDatumStdANSI
  3
"AcmSymBB|Product Description: AutoCAD Mechanical 2000|Company: Autodesk"
 90
        0
280
     0
281
     0
  0
CLASS
  1
ACMBOMSTANDARDANSI
  2
AcmBOMStdANSI
  3
"AcmSymBB|Product Description: AutoCAD Mechanical 2000|Company: Autodesk"
 90
        0
280
     0
281
     0
  0
CLASS
  1
ACMSTANDARDBSI
  2
AcmStandardBSI
  3
"AcmSymBB|Product Description: AutoCAD Mechanical 2000|Company: Autodesk"
 90
        0
280
     0
281
     0
  0
CLASS
  1
ACMSURFSTANDARDBSI
  2
AcmSurfTextStdBSI
  3
"AcmSymBB|Product Description: AutoCAD Mechanical 2000|Company: Autodesk"
 90
        0
280
     0
281
     0
  0
CLASS
  1
ACMFCFSTANDARDBSI
  2
AcmFCFStdBSI
  3
"AcmSymBB|Product Description: AutoCAD Mechanical 2000|Company: Autodesk"
 90
        0
280
     0
281
     0
  0
CLASS
  1
ACMWELDSTANDARDBSI
  2
AcmWeldingStdBSI
  3
"AcmSymBB|Product Description: AutoCAD Mechanical 2000|Company: Autodesk"
 90
        0
280
     0
281
     0
  0
CLASS
  1
ACMIDSTANDARDBSI
  2
AcmIdStdBSI
  3
"AcmSymBB|Product Description: AutoCAD Mechanical 2000|Company: Autodesk"
 90
        0
280
     0
281
     0
  0
CLASS
  1
ACMDATUMSTANDARDBSI
  2
AcmDatumStdBSI
  3
"AcmSymBB|Product Description: AutoCAD Mechanical 2000|Company: Autodesk"
 90
        0
280
     0
281
     0
  0
CLASS
  1
ACMBOMSTANDARDBSI
  2
AcmBOMStdBSI
  3
"AcmSymBB|Product Description: AutoCAD Mechanical 2000|Company: Autodesk"
 90
        0
280
     0
281
     0
  0
CLASS
  1
SORTENTSTABLE
  2
AcDbSortentsTable
  3
AutoCAD 2000
 90
        0
280
     0
281
     0
  0
CLASS
  1
LONG_TRANSACTION
  2
AcDbLongTransaction
  3
AutoCAD 2000
 90
        0
280
     0
281
     0
  0
CLASS
  1
LWPOLYLINE
  2
AcDbPolyline
  3
AutoCAD 2000
 90
        0
280
     0
281
     1
  0
CLASS
  1
HATCH
  2
AcDbHatch
  3
AutoCAD 2000
 90
        0
280
     0
281
     1
  0
CLASS
  1
XRECORD
  2
AcDbXrecord
  3
AutoCAD 2000
 90
        0
280
     0
281
     0
  0
ENDSEC
  0
SECTION
  2
TABLES
  0
TABLE
  2
VPORT
  5
8
330
0
100
AcDbSymbolTable
 70
     3
  0
VPORT
  5
1B88
330
8
100
AcDbSymbolTableRecord
100
AcDbViewportTableRecord
  2
*ACTIVE
 70
     0
 10
0.0
 20
0.0
 11
1.0
 21
1.0
 12
-44.338180349952
 22
-23.15564477300955
 13
0.0
 23
0.0
 14
2.5
 24
2.5
 15
10.0
 25
10.0
 16
0.0
 26
0.0
 36
1.0
 17
0.0
 27
0.0
 37
0.0
 40
81.90667627142032
 41
1.56570841889117
 42
50.0
 43
0.0
 44
0.0
 50
0.0
 51
0.0
 71
     0
 72
   100
 73
     1
 74
     3
 75
     0
 76
     0
 77
     0
 78
     0
  0
ENDTAB
  0
TABLE
  2
LTYPE
  5
5
330
0
100
AcDbSymbolTable
 70
    10
  0
LTYPE
  5
14
330
5
100
AcDbSymbolTableRecord
100
AcDbLinetypeTableRecord
  2
BYBLOCK
 70
     0
  3

 72
    65
 73
     0
 40
0.0
  0
LTYPE
  5
15
330
5
100
AcDbSymbolTableRecord
100
AcDbLinetypeTableRecord
  2
BYLAYER
 70
     0
  3

 72
    65
 73
     0
 40
0.0
  0
LTYPE
  5
16
330
5
100
AcDbSymbolTableRecord
100
AcDbLinetypeTableRecord
  2
CONTINUOUS
 70
     0
  3
Solid line
 72
    65
 73
     0
 40
0.0
  0
LTYPE
  5
4B
330
5
100
AcDbSymbolTableRecord
100
AcDbLinetypeTableRecord
  2
AM_ISO02W050
 70
     0
  3
__ __ __ __ __ __ __ __ __ __ __ __ __ __ __
 72
    65
 73
     2
 40
7.5
 49
6.0
 74
     0
 49
-1.5
 74
     0
  0
LTYPE
  5
4C
330
5
100
AcDbSymbolTableRecord
100
AcDbLinetypeTableRecord
  2
AM_ISO08W050
 70
     0
  3
____ . ____ . ____ . ____ . ____ . ____ . ____
 72
    65
 73
     4
 40
18.0
 49
12.0
 74
     0
 49
-1.5
 74
     0
 49
3.0
 74
     0
 49
-1.5
 74
     0
  0
LTYPE
  5
4D
330
5
100
AcDbSymbolTableRecord
100
AcDbLinetypeTableRecord
  2
AM_ISO09W050
 70
     0
  3
_____ . . _____ . . _____ . . ____ .. ____
 72
    65
 73
     6
 40
22.5
 49
12.0
 74
     0
 49
-1.5
 74
     0
 49
3.0
 74
     0
 49
-1.5
 74
     0
 49
3.0
 74
     0
 49
-1.5
 74
     0
  0
LTYPE
  5
4E
330
5
100
AcDbSymbolTableRecord
100
AcDbLinetypeTableRecord
  2
AMCONSTR
 70
     0
  3
_______________________
 72
    65
 73
     2
 40
9999.0
 49
9999.0
 74
     0
 49
0.0
 74
     0
  0
LTYPE
  5
4F
330
5
100
AcDbSymbolTableRecord
100
AcDbLinetypeTableRecord
  2
AM_ISO02W050X2
 70
     0
  3
 _ _ _ _ _ _ _ _ _ _ _ _
 72
    65
 73
     2
 40
3.75
 49
3.0
 74
     0
 49
-0.75
 74
     0
  0
LTYPE
  5
50
330
5
100
AcDbSymbolTableRecord
100
AcDbLinetypeTableRecord
  2
AM_ISO08W050X2
 70
     0
  3
__ . __ . __ . __ . __ . __
 72
    65
 73
     4
 40
9.0
 49
6.0
 74
     0
 49
-0.75
 74
     0
 49
1.5
 74
     0
 49
-0.75
 74
     0
  0
LTYPE
  5
53
330
5
100
AcDbSymbolTableRecord
100
AcDbLinetypeTableRecord
  2
AMZIGZAG
 70
     0
  3
/\/-/\/-/\/-/\/-/\/-/\/
 72
    65
 73
     2
 40
11.00009999999999
 49
0.0001
 74
     4
 75
   135
340
52
 46
0.04
 50
0.0
 44
0.0
 45
0.0
 49
-11.0
 74
     0
  0
LTYPE
  5
166
330
5
100
AcDbSymbolTableRecord
100
AcDbLinetypeTableRecord
  2
ACJISTGL
 70
     0
  3
_ _ _ _ _
 72
    65
 73
     2
 40
3.0
 49
2.0
 74
     0
 49
-1.0
 74
     0
  0
LTYPE
  5
26A
330
5
100
AcDbSymbolTableRecord
100
AcDbLinetypeTableRecord
  2
ACJISTGB
 70
     0
  3
__ . . __ . .
 72
    65
 73
     6
 40
9.0
 49
4.0
 74
     0
 49
-1.0
 74
     0
 49
1.0
 74
     0
 49
-1.0
 74
     0
 49
1.0
 74
     0
 49
-1.0
 74
     0
  0
ENDTAB
  0
TABLE
  2
LAYER
  5
2
330
0
100
AcDbSymbolTable
 70
     7
  0
LAYER
  5
10
330
2
100
AcDbSymbolTableRecord
100
AcDbLayerTableRecord
  2
0
 70
     0
 62
     7
  6
CONTINUOUS
  0
LAYER
  5
3F9
330
2
100
AcDbSymbolTableRecord
100
AcDbLayerTableRecord
  2
AM_0
 70
     0
 62
     7
  6
CONTINUOUS
  0
LAYER
  5
BA4
330
2
100
AcDbSymbolTableRecord
100
AcDbLayerTableRecord
  2
AM_11
 70
     0
 62
     3
  6
AM_ISO09W050
  0
LAYER
  5
BA5
330
2
100
AcDbSymbolTableRecord
100
AcDbLayerTableRecord
  2
AM_7
 70
     0
 62
     4
  6
AM_ISO08W050
  0
LAYER
  5
D38
330
2
100
AcDbSymbolTableRecord
100
AcDbLayerTableRecord
  2
AM_5
 70
     0
 62
     3
  6
CONTINUOUS
  0
LAYER
  5
D3A
330
2
100
AcDbSymbolTableRecord
100
AcDbLayerTableRecord
  2
DEFPOINTS
 70
     0
 62
     7
  6
CONTINUOUS
  0
LAYER
  5
F16
330
2
100
AcDbSymbolTableRecord
100
AcDbLayerTableRecord
  2
AM_6
 70
     0
 62
     2
  6
CONTINUOUS
  0
ENDTAB
  0
TABLE
  2
STYLE
  5
3
330
0
100
AcDbSymbolTable
 70
     5
  0
STYLE
  5
11
330
3
100
AcDbSymbolTableRecord
100
AcDbTextStyleTableRecord
  2
STANDARD
 70
     0
 40
0.0
 41
1.0
 50
0.0
 71
     0
 42
2.5
  3
simplex.shx
  4
EXTFONT.SHX
  0
STYLE
  5
52
330
3
100
AcDbSymbolTableRecord
100
AcDbTextStyleTableRecord
  2

 70
     1
 40
0.0
 41
1.0
 50
0.0
 71
     0
 42
2.5
  3
ltypeshp.shx
  4

  0
STYLE
  5
6B
330
3
100
AcDbSymbolTableRecord
100
AcDbTextStyleTableRecord
  2
ASAMI
 70
     0
 40
0.0
 41
1.0
 50
0.0
 71
     0
 42
2.5
  3
simplex.shx
  4
EXTFONT.SHX
  0
STYLE
  5
262
330
3
100
AcDbSymbolTableRecord
100
AcDbTextStyleTableRecord
  2
ACJISTS
 70
     0
 40
1.0
 41
1.0
 50
0.0
 71
     0
 42
2.5
  3
simplex.shx
  4
bigfont.shx
  0
STYLE
  5
269
330
3
100
AcDbSymbolTableRecord
100
AcDbTextStyleTableRecord
  2
ACJISGDT
 70
     0
 40
0.0
 41
1.0
 50
0.0
 71
     0
 42
2.5
  3
amgdtans.shx
  4

  0
ENDTAB
  0
TABLE
  2
VIEW
  5
6
330
0
100
AcDbSymbolTable
 70
     0
  0
ENDTAB
  0
TABLE
  2
UCS
  5
7
330
0
100
AcDbSymbolTable
 70
     0
  0
ENDTAB
  0
TABLE
  2
APPID
  5
9
330
0
100
AcDbSymbolTable
 70
    13
  0
APPID
  5
12
330
9
100
AcDbSymbolTableRecord
100
AcDbRegAppTableRecord
  2
ACAD
 70
     0
  0
APPID
  5
30
330
9
100
AcDbSymbolTableRecord
100
AcDbRegAppTableRecord
  2
MCAD_NO_VIS
 70
     0
  0
APPID
  5
31
330
9
100
AcDbSymbolTableRecord
100
AcDbRegAppTableRecord
  2
ACAD_TEMP_GRAPHIC
 70
     0
  0
APPID
  5
2C2
330
9
100
AcDbSymbolTableRecord
100
AcDbRegAppTableRecord
  2
GENIUS_GENDTOL_13
 70
     0
  0
APPID
  5
339
330
9
100
AcDbSymbolTableRecord
100
AcDbRegAppTableRecord
  2
GENIUS_GENODEF_13
 70
     0
  0
APPID
  5
33A
330
9
100
AcDbSymbolTableRecord
100
AcDbRegAppTableRecord
  2
GENIUS_GENOBJ-N-RSBK_13
 70
     0
  0
APPID
  5
33B
330
9
100
AcDbSymbolTableRecord
100
AcDbRegAppTableRecord
  2
GENIUS_GENOBJ-N-LIB_13
 70
     0
  0
APPID
  5
33C
330
9
100
AcDbSymbolTableRecord
100
AcDbRegAppTableRecord
  2
GENIUS_GENSCALE_13
 70
     0
  0
APPID
  5
378
330
9
100
AcDbSymbolTableRecord
100
AcDbRegAppTableRecord
  2
GENIUS_GENDIMSH_14
 70
     0
  0
APPID
  5
BA6
330
9
100
AcDbSymbolTableRecord
100
AcDbRegAppTableRecord
  2
GENIUS_GENOBJ-N-CEN_13
 70
     0
  0
APPID
  5
D2B
330
9
100
AcDbSymbolTableRecord
100
AcDbRegAppTableRecord
  2
GENIUS_GENFIL_13
 70
     0
  0
APPID
  5
D2C
330
9
100
AcDbSymbolTableRecord
100
AcDbRegAppTableRecord
  2
GENIUS_GENOBJ-N-CHA_13
 70
     0
  0
APPID
  5
1812
330
9
100
AcDbSymbolTableRecord
100
AcDbRegAppTableRecord
  2
GENIUS_GENOBJ-N-FIL_13
 70
     0
  0
ENDTAB
  0
TABLE
  2
DIMSTYLE
  5
A
330
0
100
AcDbSymbolTable
 70
     8
  0
DIMSTYLE
105
58
102
{ACAD_REACTORS
330
D39
330
131A
330
166A
330
1AC3
102
}
330
A
100
AcDbSymbolTableRecord
100
AcDbDimStyleTableRecord
  2
AM_JIS
 70
     0
  3

  4
"
  5
OPEN30
  6

  7

 40
1.0
 41
2.5
 42
1.0
 43
12.0
 44
1.0
 45
0.0
 46
0.0
 47
0.1
 48
0.1
140
3.2
141
0.0
142
0.0
143
0.0393701
144
1.0
145
0.0
146
0.71
147
1.5
 71
     0
 72
     0
 73
     0
 74
     0
 75
     0
 76
     0
 77
     3
 78
     8
170
     0
171
     2
172
     1
173
     0
174
     0
175
     0
176
   256
177
   256
178
     2
270
     2
271
     3
272
     3
273
     2
274
     2
340
6B
275
     0
280
     0
281
     0
282
     0
283
     0
284
     0
285
     0
286
     0
287
     3
288
     0
  0
DIMSTYLE
105
5F
330
A
100
AcDbSymbolTableRecord
100
AcDbDimStyleTableRecord
  2
AM_JIS$3
 70
     0
  3

  4
"
  5
OPEN30
  6

  7

 40
1.0
 41
2.5
 42
1.0
 43
10.0
 44
1.0
 45
0.0
 46
0.0
 47
0.1
 48
0.1
140
3.2
141
0.0
142
0.0
143
0.0393701
144
1.0
145
0.0
146
0.71
147
1.5
 71
     0
 72
     0
 73
     0
 74
     1
 75
     0
 76
     0
 77
     3
 78
     8
170
     0
171
     2
172
     0
173
     0
174
     0
175
     0
176
   256
177
   256
178
     2
270
     2
271
     2
272
     3
273
     2
274
     2
340
6B
275
     0
280
     0
281
     0
282
     0
283
     0
284
     0
285
     0
286
     0
287
     0
288
     1
  0
DIMSTYLE
105
60
102
{ACAD_REACTORS
330
1A27
102
}
330
A
100
AcDbSymbolTableRecord
100
AcDbDimStyleTableRecord
  2
AM_JIS$4
 70
     0
  3

  4
"
  5
OPEN30
  6

  7

 40
1.0
 41
2.5
 42
1.0
 43
10.0
 44
1.0
 45
0.0
 46
0.0
 47
0.1
 48
0.1
140
3.2
141
0.0
142
0.0
143
0.0393701
144
1.0
145
0.0
146
0.71
147
1.5
 71
     0
 72
     0
 73
     0
 74
     1
 75
     0
 76
     0
 77
     3
 78
     8
170
     0
171
     2
172
     0
173
     0
174
     0
175
     0
176
   256
177
   256
178
     2
270
     2
271
     2
272
     3
273
     2
274
     2
340
6B
275
     0
280
     0
281
     0
282
     0
283
     0
284
     0
285
     0
286
     0
287
     0
288
     1
  0
DIMSTYLE
105
61
330
A
100
AcDbSymbolTableRecord
100
AcDbDimStyleTableRecord
  2
AM_JIS$6
 70
     0
  3

  4
"
  5
OPEN30
  6

  7

 40
1.0
 41
2.5
 42
1.0
 43
10.0
 44
1.0
 45
0.0
 46
0.0
 47
0.1
 48
0.1
140
3.2
141
0.0
142
0.0
143
0.0393701
144
1.0
145
0.0
146
0.71
147
1.5
 71
     0
 72
     0
 73
     0
 74
     0
 75
     0
 76
     0
 77
     0
 78
     8
170
     0
171
     2
172
     1
173
     0
174
     0
175
     0
176
   256
177
   256
178
     2
270
     2
271
     2
272
     2
273
     2
274
     2
340
6B
275
     0
280
     0
281
     0
282
     0
283
     0
284
     0
285
     0
286
     0
287
     3
288
     0
  0
DIMSTYLE
105
62
330
A
100
AcDbSymbolTableRecord
100
AcDbDimStyleTableRecord
  2
AM_JIS$7
 70
     0
  3

  4
"
  5
OPEN30
  6

  7

 40
1.0
 41
2.5
 42
1.0
 43
10.0
 44
1.0
 45
0.0
 46
0.0
 47
0.1
 48
0.1
140
3.2
141
0.0
142
0.0
143
0.0393701
144
1.0
145
0.0
146
0.71
147
1.5
 71
     0
 72
     0
 73
     0
 74
     0
 75
     0
 76
     0
 77
     3
 78
     8
170
     0
171
     2
172
     1
173
     0
174
     0
175
     0
176
   256
177
   256
178
     2
270
     2
271
     2
272
     3
273
     2
274
     2
340
6B
275
     0
280
     0
281
     0
282
     0
283
     0
284
     0
285
     0
286
     0
287
     3
288
     0
  0
DIMSTYLE
105
63
330
A
100
AcDbSymbolTableRecord
100
AcDbDimStyleTableRecord
  2
AM_JIS$SF
 70
     0
  3

  4
"
  5
OPEN30
  6

  7

 40
1.0
 41
2.5
 42
1.0
 43
10.0
 44
1.0
 45
0.0
 46
0.0
 47
0.1
 48
0.1
140
3.2
141
0.0
142
0.0
143
0.0393701
144
1.0
145
0.0
146
0.71
147
1.5
 71
     0
 72
     0
 73
     0
 74
     0
 75
     1
 76
     1
 77
     3
 78
     8
170
     0
171
     2
172
     1
173
     0
174
     0
175
     0
176
   256
177
   256
178
     2
270
     2
271
     2
272
     2
273
     2
274
     2
340
6B
275
     0
280
     0
281
     0
282
     0
283
     0
284
     0
285
     0
286
     0
287
     3
288
     0
  0
DIMSTYLE
105
68
330
A
100
AcDbSymbolTableRecord
100
AcDbDimStyleTableRecord
  2
AM_JIS$SH
 70
     0
  3

  4
"
  5

  6
GENAXEH
  7
OPEN30
 40
1.0
 41
2.5
 42
1.0
 43
10.0
 44
1.0
 45
0.0
 46
0.0
 47
0.1
 48
0.1
140
3.2
141
0.0
142
0.0
143
0.0393701
144
2.0
145
0.0
146
0.71
147
1.5
 71
     0
 72
     0
 73
     0
 74
     0
 75
     1
 76
     1
 77
     3
 78
     8
170
     0
171
     2
172
     1
173
     1
174
     0
175
     0
176
   256
177
   256
178
     2
270
     2
271
     2
272
     2
273
     2
274
     2
340
6B
275
     0
280
     0
281
     0
282
     0
283
     0
284
     0
285
     0
286
     0
287
     3
288
     0
  0
DIMSTYLE
105
B34
330
A
100
AcDbSymbolTableRecord
100
AcDbDimStyleTableRecord
  2
AM_JIS$2
 70
     0
  3

  4
"
  5
OPEN30
  6

  7

 40
1.0
 41
2.5
 42
1.0
 43
12.0
 44
1.0
 45
0.0
 46
0.0
 47
0.1
 48
0.1
140
3.2
141
0.0
142
0.0
143
0.0393701
144
1.0
145
0.0
146
0.71
147
1.5
 71
     0
 72
     0
 73
     0
 74
     0
 75
     0
 76
     0
 77
     3
 78
     8
170
     0
171
     2
172
     1
173
     0
174
     0
175
     0
176
   256
177
   256
178
     2
270
     2
271
     3
272
     3
273
     2
274
     2
340
6B
275
     0
280
     0
281
     0
282
     0
283
     0
284
     0
285
     0
286
     0
287
     3
288
     0
  0
ENDTAB
  0
TABLE
  2
BLOCK_RECORD
  5
1
330
0
100
AcDbSymbolTable
 70
    10
  0
BLOCK_RECORD
  5
1F
102
{ACAD_XDICTIONARY
360
74
102
}
330
1
100
AcDbSymbolTableRecord
100
AcDbBlockTableRecord
  2
*MODEL_SPACE
  0
BLOCK_RECORD
  5
101
102
{ACAD_XDICTIONARY
360
1BB1
102
}
330
1
100
AcDbSymbolTableRecord
100
AcDbBlockTableRecord
  2
*PAPER_SPACE
  0
BLOCK_RECORD
  5
59
330
1
100
AcDbSymbolTableRecord
100
AcDbBlockTableRecord
  2
_OPEN30
  0
BLOCK_RECORD
  5
64
330
1
100
AcDbSymbolTableRecord
100
AcDbBlockTableRecord
  2
GENAXEH
  0
BLOCK_RECORD
  5
D3B
330
1
100
AcDbSymbolTableRecord
100
AcDbBlockTableRecord
  2
*D5
  0
BLOCK_RECORD
  5
131B
330
1
100
AcDbSymbolTableRecord
100
AcDbBlockTableRecord
  2
*D6
  0
BLOCK_RECORD
  5
166B
330
1
100
AcDbSymbolTableRecord
100
AcDbBlockTableRecord
  2
*D7
  0
BLOCK_RECORD
  5
1A28
330
1
100
AcDbSymbolTableRecord
100
AcDbBlockTableRecord
  2
*D8
  0
BLOCK_RECORD
  5
1AC4
330
1
100
AcDbSymbolTableRecord
100
AcDbBlockTableRecord
  2
*D9
  0
ENDTAB
  0
ENDSEC
  0
SECTION
  2
BLOCKS
  0
BLOCK
  5
20
330
1F
100
AcDbEntity
  8
0
100
AcDbBlockBegin
  2
*MODEL_SPACE
 70
     0
 10
0.0
 20
0.0
 30
0.0
  3
*MODEL_SPACE
  1

  0
ENDBLK
  5
21
330
1F
100
AcDbEntity
  8
0
100
AcDbBlockEnd
  0
BLOCK
  5
103
330
101
100
AcDbEntity
 67
     1
  8
0
100
AcDbBlockBegin
  2
*PAPER_SPACE
 70
     0
 10
0.0
 20
0.0
 30
0.0
  3
*PAPER_SPACE
  1

  0
ENDBLK
  5
104
330
101
100
AcDbEntity
 67
     1
  8
0
100
AcDbBlockEnd
  0
BLOCK
  5
5D
330
59
100
AcDbEntity
  8
0
100
AcDbBlockBegin
  2
_OPEN30
 70
     0
 10
0.0
 20
0.0
 30
0.0
  3
_OPEN30
  1

  0
LINE
  5
5A
330
59
100
AcDbEntity
  8
0
 62
     0
100
AcDbLine
 10
-1.0
 20
0.26794919
 30
0.0
 11
0.0
 21
0.0
 31
0.0
  0
LINE
  5
5B
330
59
100
AcDbEntity
  8
0
 62
     0
100
AcDbLine
 10
0.0
 20
0.0
 30
0.0
 11
-1.0
 21
-0.26794919
 31
0.0
  0
LINE
  5
5C
330
59
100
AcDbEntity
  8
0
 62
     0
100
AcDbLine
 10
0.0
 20
0.0
 30
0.0
 11
-1.0
 21
0.0
 31
0.0
  0
ENDBLK
  5
5E
330
59
100
AcDbEntity
  8
0
100
AcDbBlockEnd
  0
BLOCK
  5
66
330
64
100
AcDbEntity
  8
0
100
AcDbBlockBegin
  2
GENAXEH
 70
     0
 10
0.0
 20
0.0
 30
0.0
  3
GENAXEH
  1

  0
LINE
  5
65
330
64
100
AcDbEntity
  8
0
100
AcDbLine
 10
-1.0
 20
0.0
 30
0.0
 11
1.0
 21
0.0
 31
0.0
  0
ENDBLK
  5
67
330
64
100
AcDbEntity
  8
0
100
AcDbBlockEnd
  0
BLOCK
  5
D45
330
D3B
100
AcDbEntity
  8
0
100
AcDbBlockBegin
  2
*D5
 70
     1
 10
0.0
 20
0.0
 30
0.0
  3
*D5
  1

  0
LINE
  5
1725
330
D3B
100
AcDbEntity
  8
AM_5
100
AcDbLine
 10
-90.0
 20
-5.49754660795368
 30
0.0
 11
-90.0
 21
-33.54813097314139
 31
0.0
  0
LINE
  5
1726
330
D3B
100
AcDbEntity
  8
AM_5
100
AcDbLine
 10
-0.0000000000000001
 20
-7.002453392046959
 30
0.0
 11
-0.0000000000000017
 21
-33.54813097314139
 31
0.0
  0
LINE
  5
1727
330
D3B
100
AcDbEntity
  8
AM_5
100
AcDbLine
 10
-87.5
 20
-32.54813097314139
 30
0.0
 11
-2.500000000000001
 21
-32.54813097314139
 31
0.0
  0
INSERT
  5
1728
330
D3B
100
AcDbEntity
  8
AM_5
100
AcDbBlockReference
  2
_OPEN30
 10
-90.0
 20
-32.54813097314139
 30
0.0
 41
2.5
 42
2.5
 43
2.5
 50
180.0
  0
INSERT
  5
1729
330
D3B
100
AcDbEntity
  8
AM_5
100
AcDbBlockReference
  2
_OPEN30
 10
-0.0000000000000017
 20
-32.54813097314139
 30
0.0
 41
2.5
 42
2.5
 43
2.5
  0
MTEXT
  5
172A
330
D3B
100
AcDbEntity
  8
AM_5
 62
     2
100
AcDbMText
 10
-45.0
 20
-29.44813097314139
 30
0.0
 40
3.2
 41
0.0
 71
     5
 72
     1
  1
90
  7
ASAMI
1001
ACAD
1000
MTEXTBEGIN
1070
    73
1070
     1
1070
    44
1040
1.0
1070
    74
1070
     0
1000
MTEXTEND
  0
POINT
  5
172B
330
D3B
100
AcDbEntity
  8
DEFPOINTS
 62
     0
100
AcDbPoint
 10
-90.0
 20
-4.49754660795368
 30
0.0
  0
POINT
  5
172C
330
D3B
100
AcDbEntity
  8
DEFPOINTS
 62
     0
100
AcDbPoint
 10
-0.0000000000000001
 20
-6.002453392046959
 30
0.0
  0
POINT
  5
172D
330
D3B
100
AcDbEntity
  8
DEFPOINTS
 62
     0
100
AcDbPoint
 10
-0.0000000000000017
 20
-32.54813097314139
 30
0.0
  0
ENDBLK
  5
D46
330
D3B
100
AcDbEntity
  8
0
100
AcDbBlockEnd
  0
BLOCK
  5
1325
330
131B
100
AcDbEntity
  8
0
100
AcDbBlockBegin
  2
*D6
 70
     1
 10
0.0
 20
0.0
 30
0.0
  3
*D6
  1

  0
LINE
  5
1713
330
131B
100
AcDbEntity
  8
AM_5
100
AcDbLine
 10
-0.0000000000000001
 20
-6.457221882233046
 30
0.0
 11
-0.000000000000001
 21
-21.54813097314139
 31
0.0
  0
LINE
  5
1714
330
131B
100
AcDbEntity
  8
AM_5
100
AcDbLine
 10
-26.0
 20
-7.548130973141392
 30
0.0
 11
-26.0
 21
-21.54813097314139
 31
0.0
  0
LINE
  5
1715
330
131B
100
AcDbEntity
  8
AM_5
100
AcDbLine
 10
-2.5
 20
-20.54813097314139
 30
0.0
 11
-23.5
 21
-20.54813097314139
 31
0.0
  0
INSERT
  5
1716
330
131B
100
AcDbEntity
  8
AM_5
100
AcDbBlockReference
  2
_OPEN30
 10
-0.0000000000000009
 20
-20.54813097314139
 30
0.0
 41
2.5
 42
2.5
 43
2.5
  0
INSERT
  5
1717
330
131B
100
AcDbEntity
  8
AM_5
100
AcDbBlockReference
  2
_OPEN30
 10
-26.0
 20
-20.54813097314139
 30
0.0
 41
2.5
 42
2.5
 43
2.5
 50
180.0
  0
MTEXT
  5
1718
330
131B
100
AcDbEntity
  8
AM_5
 62
     2
100
AcDbMText
 10
-13.0
 20
-17.44813097314139
 30
0.0
 40
3.2
 41
0.0
 71
     5
 72
     1
  1
26
  7
ASAMI
1001
ACAD
1000
MTEXTBEGIN
1070
    73
1070
     1
1070
    44
1040
1.0
1070
    74
1070
     0
1000
MTEXTEND
  0
POINT
  5
1719
330
131B
100
AcDbEntity
  8
DEFPOINTS
 62
     0
100
AcDbPoint
 10
0.0
 20
-5.457221882233046
 30
0.0
  0
POINT
  5
171A
330
131B
100
AcDbEntity
  8
DEFPOINTS
 62
     0
100
AcDbPoint
 10
-26.0
 20
-6.548130973141392
 30
0.0
  0
POINT
  5
171B
330
131B
100
AcDbEntity
  8
DEFPOINTS
 62
     0
100
AcDbPoint
 10
-26.0
 20
-20.54813097314139
 30
0.0
  0
ENDBLK
  5
1326
330
131B
100
AcDbEntity
  8
0
100
AcDbBlockEnd
  0
BLOCK
  5
1675
330
166B
100
AcDbEntity
  8
0
100
AcDbBlockBegin
  2
*D7
 70
     1
 10
0.0
 20
0.0
 30
0.0
  3
*D7
  1

  0
LINE
  5
171C
330
166B
100
AcDbEntity
  8
AM_5
100
AcDbLine
 10
1.000000000018845
 20
-6.000000000049515
 30
0.0
 11
19.53057127860813
 21
-6.000000000049521
 31
0.0
  0
LINE
  5
171D
330
166B
100
AcDbEntity
  8
AM_5
100
AcDbLine
 10
1.000000000018846
 20
5.999999999999952
 30
0.0
 11
19.53057127860813
 21
5.999999999999946
 31
0.0
  0
LINE
  5
171E
330
166B
100
AcDbEntity
  8
AM_5
100
AcDbLine
 10
18.53057127860814
 20
-3.50000000004952
 30
0.0
 11
18.53057127860814
 21
3.499999999999947
 31
0.0
  0
INSERT
  5
171F
330
166B
100
AcDbEntity
  8
AM_5
100
AcDbBlockReference
  2
_OPEN30
 10
18.53057127860814
 20
-6.000000000049521
 30
0.0
 41
2.5
 42
2.5
 43
2.5
 50
270.0
  0
INSERT
  5
1720
330
166B
100
AcDbEntity
  8
AM_5
100
AcDbBlockReference
  2
_OPEN30
 10
18.53057127860814
 20
5.999999999999946
 30
0.0
 41
2.5
 42
2.5
 43
2.5
 50
90.0
  0
MTEXT
  5
1721
330
166B
100
AcDbEntity
  8
AM_5
 62
     2
100
AcDbMText
 10
15.43057127860813
 20
-0.0000000000247836
 30
0.0
 40
3.2
 41
0.0
 71
     5
 72
     1
  1
%%c12
  7
ASAMI
 11
0.0000000000000001
 21
1.0
 31
0.0
1001
ACAD
1000
MTEXTBEGIN
1070
    73
1070
     1
1070
    44
1040
1.0
1070
    74
1070
     0
1000
MTEXTEND
  0
POINT
  5
1722
330
166B
100
AcDbEntity
  8
DEFPOINTS
 62
     0
100
AcDbPoint
 10
0.0000000000188454
 20
-6.000000000049515
 30
0.0
  0
POINT
  5
1723
330
166B
100
AcDbEntity
  8
DEFPOINTS
 62
     0
100
AcDbPoint
 10
0.0000000000188461
 20
5.999999999999952
 30
0.0
  0
POINT
  5
1724
330
166B
100
AcDbEntity
  8
DEFPOINTS
 62
     0
100
AcDbPoint
 10
18.53057127860814
 20
5.999999999999946
 30
0.0
  0
ENDBLK
  5
1676
330
166B
100
AcDbEntity
  8
0
100
AcDbBlockEnd
  0
BLOCK
  5
1A2F
330
1A28
100
AcDbEntity
  8
0
100
AcDbBlockBegin
  2
*D8
 70
     1
 10
0.0
 20
0.0
 30
0.0
  3
*D8
  1

  0
LINE
  5
1BB3
330
1A28
100
AcDbEntity
  8
AM_5
100
AcDbLine
 10
14.30083307141035
 20
-17.29526233239417
 30
0.0
 11
1.608583845844369
 21
-7.017281564199127
 31
0.0
  0
MTEXT
  5
1BB4
330
1A28
100
AcDbEntity
  8
AM_5
 62
     2
100
AcDbMText
 10
11.47412896823176
 20
-11.01728782880451
 30
0.0
 40
3.2
 41
0.0
 71
     5
 72
     1
  1
R1.5
  7
ASAMI
 11
0.7771459614569701
 21
-0.6293203910498385
 31
0.0
  0
LINE
  5
1BB5
330
1A28
100
AcDbEntity
  8
AM_5
100
AcDbLine
 10
-1.499999999983509
 20
-4.499999999999775
 30
0.0
 11
-0.3342810577980564
 21
-5.44398058657453
 31
0.0
  0
INSERT
  5
1BB6
330
1A28
100
AcDbEntity
  8
AM_5
100
AcDbBlockReference
  2
_OPEN30
 10
-0.3342810577980564
 20
-5.44398058657453
 30
0.0
 41
2.5
 42
2.5
 43
2.5
 50
140.9999999999999
  0
POINT
  5
1BB7
330
1A28
100
AcDbEntity
  8
DEFPOINTS
 62
     0
100
AcDbPoint
 10
-0.3342810577980564
 20
-5.44398058657453
 30
0.0
  0
POINT
  5
1BB8
330
1A28
100
AcDbEntity
  8
DEFPOINTS
 62
     0
100
AcDbPoint
 10
-1.499999999983509
 20
-4.499999999999775
 30
0.0
  0
ENDBLK
  5
1A30
330
1A28
100
AcDbEntity
  8
0
100
AcDbBlockEnd
  0
BLOCK
  5
1ACE
330
1AC4
100
AcDbEntity
  8
0
100
AcDbBlockBegin
  2
*D9
 70
     1
 10
0.0
 20
0.0
 30
0.0
  3
*D9
  1

  0
LINE
  5
1B3D
330
1AC4
100
AcDbEntity
  8
AM_5
100
AcDbLine
 10
-90.5
 20
-6.000000000000046
 30
0.0
 11
-104.5
 21
-6.000000000000042
 31
0.0
  0
LINE
  5
1B3E
330
1AC4
100
AcDbEntity
  8
AM_5
100
AcDbLine
 10
-90.49999999999998
 20
5.999999999999968
 30
0.0
 11
-104.5
 21
5.999999999999972
 31
0.0
  0
LINE
  5
1B3F
330
1AC4
100
AcDbEntity
  8
AM_5
100
AcDbLine
 10
-103.5
 20
-3.500000000000042
 30
0.0
 11
-103.5
 21
3.499999999999972
 31
0.0
  0
INSERT
  5
1B40
330
1AC4
100
AcDbEntity
  8
AM_5
100
AcDbBlockReference
  2
_OPEN30
 10
-103.5
 20
-6.000000000000042
 30
0.0
 41
2.5
 42
2.5
 43
2.5
 50
270.0
  0
INSERT
  5
1B41
330
1AC4
100
AcDbEntity
  8
AM_5
100
AcDbBlockReference
  2
_OPEN30
 10
-103.5
 20
5.999999999999972
 30
0.0
 41
2.5
 42
2.5
 43
2.5
 50
90.0
  0
MTEXT
  5
1B42
330
1AC4
100
AcDbEntity
  8
AM_5
 62
     2
100
AcDbMText
 10
-106.6
 20
-0.0000000000000515
 30
0.0
 40
3.2
 41
0.0
 71
     5
 72
     1
  1
%%c12
  7
ASAMI
 11
0.0000000000000001
 21
1.0
 31
0.0
1001
ACAD
1000
MTEXTBEGIN
1070
    73
1070
     1
1070
    44
1040
1.0
1070
    74
1070
     0
1000
MTEXTEND
  0
POINT
  5
1B43
330
1AC4
100
AcDbEntity
  8
DEFPOINTS
 62
     0
100
AcDbPoint
 10
-89.50000000000001
 20
-6.000000000000047
 30
0.0
  0
POINT
  5
1B44
330
1AC4
100
AcDbEntity
  8
DEFPOINTS
 62
     0
100
AcDbPoint
 10
-89.49999999999999
 20
5.999999999999968
 30
0.0
  0
POINT
  5
1B45
330
1AC4
100
AcDbEntity
  8
DEFPOINTS
 62
     0
100
AcDbPoint
 10
-103.5
 20
5.999999999999972
 30
0.0
  0
ENDBLK
  5
1ACF
330
1AC4
100
AcDbEntity
  8
0
100
AcDbBlockEnd
  0
ENDSEC
  0
SECTION
  2
ENTITIES
  0
DIMENSION
  5
D39
330
1F
100
AcDbEntity
  8
AM_5
100
AcDbDimension
  2
*D5
 10
-0.0000000000000017
 20
-32.54813097314139
 30
0.0
 11
-45.0
 21
-29.44813097314139
 31
0.0
 70
    32
  1
<>
  3
AM_JIS
100
AcDbAlignedDimension
 13
-90.0
 23
-4.49754660795368
 33
0.0
 14
-0.0000000000000001
 24
-6.002453392046959
 34
0.0
100
AcDbRotatedDimension
1001
GENIUS_GENDTOL_13
1000

1000
h7
1000

1040
0.0
  0
TEXT
  5
F17
330
1F
100
AcDbEntity
  8
AM_6
100
AcDbText
 10
-77.85714285714286
 20
-53.50245339204703
 30
0.0
 40
5.0
  1
SSUP4120ZX-R15
 72
     1
 11
-45.0
 21
-51.00245339204703
 31
0.0
100
AcDbText
 73
     2
  0
LINE
  5
1160
330
1F
100
AcDbEntity
  8
AM_0
100
AcDbLine
 10
-89.99999999999998
 20
5.399999999999968
 30
0.0
 11
-89.49999999999999
 21
5.999999999999968
 31
0.0
1001
GENIUS_GENFIL_13
1070
     0
1040
0.5
1040
0.5
1040
20.0
1040
0.0
1002
{
1002
}
1001
GENIUS_GENODEF_13
1002
{
1000
HIER
1070
     0
1002
}
1002
{
1000
MANEDIT
1070
     0
1002
}
1002
{
1000
NOSEL
1070
     0
1002
}
1002
{
1000
BEHIND
1070
     0
1002
}
1002
{
1000
REACTOR
1002
}
1001
GENIUS_GENOBJ-N-CHA_13
1002
{
1000
OWNER
1000
GEN
1002
}
  0
LINE
  5
1161
330
1F
100
AcDbEntity
  8
AM_0
100
AcDbLine
 10
-90.0
 20
-5.400000000000047
 30
0.0
 11
-89.50000000000001
 21
-6.000000000000047
 31
0.0
1001
GENIUS_GENFIL_13
1070
     0
1040
0.5
1040
0.5
1040
20.0
1040
0.0
1002
{
1002
}
1001
GENIUS_GENODEF_13
1002
{
1000
HIER
1070
     0
1002
}
1002
{
1000
MANEDIT
1070
     0
1002
}
1002
{
1000
NOSEL
1070
     0
1002
}
1002
{
1000
BEHIND
1070
     0
1002
}
1002
{
1000
REACTOR
1002
}
1001
GENIUS_GENOBJ-N-CHA_13
1002
{
1000
OWNER
1000
GEN
1002
}
  0
LINE
  5
1162
330
1F
100
AcDbEntity
  8
AM_0
100
AcDbLine
 10
-89.49999999999999
 20
-6.000000000000047
 30
0.0
 11
-89.49999999999999
 21
5.99705592954428
 31
0.0
  0
LINE
  5
1163
330
1F
100
AcDbEntity
  8
AM_0
100
AcDbLine
 10
-89.99999999999998
 20
5.394111859088647
 30
0.0
 11
-90.0
 21
-5.400000000000047
 31
0.0
  0
LINE
  5
1164
330
1F
100
AcDbEntity
  8
AM_7
  6
AM_ISO08W050X2
100
AcDbLine
 10
4.530570278608138
 20
0.0000000000000004
 30
0.0
 11
-92.59314155754916
 21
-0.0000000000000508
 31
0.0
1001
GENIUS_GENODEF_13
1002
{
1000
HIER
1070
     0
1002
}
1002
{
1000
MANEDIT
1070
     0
1002
}
1002
{
1000
NOSEL
1070
     0
1002
}
1002
{
1000
BEHIND
1070
     0
1002
}
1002
{
1000
REACTOR
1002
}
1001
GENIUS_GENOBJ-N-CEN_13
1002
{
1000
OWNER
1000
GEN
1002
}
  0
LINE
  5
1165
330
1F
100
AcDbEntity
  8
AM_0
100
AcDbLine
 10
-89.50000000000001
 20
-6.000000000000047
 30
0.0
 11
-23.49350617811137
 21
-5.999999999999902
 31
0.0
  0
LINE
  5
1166
330
1F
100
AcDbEntity
  8
AM_0
100
AcDbLine
 10
-89.49999999999999
 20
5.999999999999968
 30
0.0
 11
-30.55398976789754
 21
5.999999999999952
 31
0.0
  0
LINE
  5
130D
330
1F
100
AcDbEntity
  8
AM_0
100
AcDbLine
 10
-3.0
 20
5.999999999999952
 30
0.0
 11
-1.499999999997648
 21
5.999999999999952
 31
0.0
  0
LINE
  5
130E
330
1F
100
AcDbEntity
  8
AM_0
100
AcDbLine
 10
-0.0134987442055387
 20
-0.1548903277393034
 30
0.0
 11
-1.680965005958652
 21
-0.0021613046028502
 31
0.0
  0
LINE
  5
130F
330
1F
100
AcDbEntity
  8
AM_0
100
AcDbLine
 10
-0.0134987442055387
 20
-0.1801153442032042
 30
0.0
 11
-0.1488118049282589
 21
1.127108858324755
 31
0.0
  0
LINE
  5
1310
330
1F
100
AcDbEntity
  8
AM_0
100
AcDbLine
 10
-0.1488118049282589
 20
1.127108858324755
 30
0.0
 11
-0.5623509428985266
 21
2.694201764051104
 31
0.0
  0
LINE
  5
1311
330
1F
100
AcDbEntity
  8
AM_0
100
AcDbLine
 10
-26.0
 20
3.015103990308319
 30
0.0
 11
-26.0
 21
4.50332596850655
 31
0.0
  0
LINE
  5
1312
330
1F
100
AcDbEntity
  8
AM_11
100
AcDbLine
 10
-26.0
 20
5.999999999999952
 30
0.0
 11
-0.0000000000000046
 21
5.999999999999952
 31
0.0
  0
LINE
  5
1313
330
1F
100
AcDbEntity
  8
AM_0
100
AcDbLine
 10
-0.1488118049282589
 20
-1.841361677415352
 30
0.0
 11
-0.0134987442055387
 21
-1.414890327739521
 31
0.0
  0
LINE
  5
1314
330
1F
100
AcDbEntity
  8
AM_0
100
AcDbLine
 10
-0.1488118049282589
 20
-1.841361677415352
 30
0.0
 11
-0.5167503427348742
 21
-2.59199401616679
 31
0.0
  0
LINE
  5
1316
330
1F
100
AcDbEntity
  8
AM_0
100
AcDbLine
 10
-0.2634539184171898
 20
-5.349089976482233
 30
0.0
 11
-0.5179358792425278
 21
-4.454199685811999
 31
0.0
  0
LINE
  5
1317
330
1F
100
AcDbEntity
  8
AM_0
100
AcDbLine
 10
-3.0
 20
-5.999999999999457
 30
0.0
 11
-1.499999999983831
 21
-5.999999999999777
 31
0.0
  0
LINE
  5
1319
330
1F
100
AcDbEntity
  8
AM_0
100
AcDbLine
 10
-0.1353130607221828
 20
-5.122599034539302
 30
0.0
 11
-0.1353130607221828
 21
-1.798817168926779
 31
0.0
  0
DIMENSION
  5
131A
330
1F
100
AcDbEntity
  8
AM_5
100
AcDbDimension
  2
*D6
 10
-26.0
 20
-20.54813097314139
 30
0.0
 11
-13.0
 21
-17.44813097314139
 31
0.0
 70
    32
  1
<>
  3
AM_JIS
100
AcDbAlignedDimension
 13
0.0
 23
-5.457221882233046
 33
0.0
 14
-26.0
 24
-6.548130973141392
 34
0.0
100
AcDbRotatedDimension
1001
GENIUS_GENDTOL_13
1000

1000
h7
1000

1040
0.0
  0
LINE
  5
1327
330
1F
100
AcDbEntity
  8
AM_11
100
AcDbLine
 10
0.0
 20
-6.0
 30
0.0
 11
-25.99999999999999
 21
-5.996741830219492
 31
0.0
  0
LINE
  5
1328
330
1F
100
AcDbEntity
  8
AM_0
100
AcDbLine
 10
0.0000000000023517
 20
4.500000000002308
 30
0.0
 11
0.000000000016489
 21
-4.499999999997421
 31
0.0
  0
LINE
  5
1329
330
1F
100
AcDbEntity
  8
AM_11
100
AcDbLine
 10
-26.0
 20
5.999999999999952
 30
0.0
 11
-25.99999999999999
 21
-5.996741830219492
 31
0.0
  0
POLYLINE
  5
132A
330
1F
100
AcDbEntity
  8
AM_0
100
AcDb2dPolyline
 66
     1
 10
0.0
 20
0.0
 30
0.0
 70
     2
  0
VERTEX
  5
132B
330
132A
100
AcDbEntity
  8
AM_0
100
AcDbVertex
100
AcDb2dVertex
 10
-26.0
 20
-2.769430162662001
 30
0.0
 42
-0.0129986936669445
  0
VERTEX
  5
132C
330
132A
100
AcDbEntity
  8
AM_0
100
AcDbVertex
100
AcDb2dVertex
 10
-27.46485609911479
 20
-1.609049737885186
 30
0.0
 42
-0.0238378164251699
 70
     1
  0
VERTEX
  5
132D
330
132A
100
AcDbEntity
  8
AM_0
100
AcDbVertex
100
AcDb2dVertex
 10
-28.21590909090909
 20
-0.9180462627508399
 30
0.0
 42
-0.0087697151677761
  0
VERTEX
  5
132E
330
132A
100
AcDbEntity
  8
AM_0
100
AcDbVertex
100
AcDb2dVertex
 10
-30.18496250114885
 20
1.146266893001768
 30
0.0
 42
-0.016586017082525
 70
     1
  0
VERTEX
  5
132F
330
132A
100
AcDbEntity
  8
AM_0
100
AcDbVertex
100
AcDb2dVertex
 10
-31.17045454545454
 20
2.290160881275199
 30
0.0
 42
-0.0451742545712589
  0
VERTEX
  5
1330
330
132A
100
AcDbEntity
  8
AM_0
100
AcDbVertex
100
AcDb2dVertex
 10
-31.83058349682148
 20
3.279973462287591
 30
0.0
 42
-0.1465772931919247
 70
     1
  0
VERTEX
  5
1331
330
132A
100
AcDbEntity
  8
AM_0
100
AcDbVertex
100
AcDb2dVertex
 10
-31.90909090909091
 20
3.646984125390077
 30
0.0
 42
-0.2363269648915856
  0
VERTEX
  5
1332
330
132A
100
AcDbEntity
  8
AM_0
100
AcDbVertex
100
AcDb2dVertex
 10
-31.77011990324524
 20
3.881675520782641
 30
0.0
 42
-0.0944295254831177
 70
     1
  0
VERTEX
  5
1333
330
132A
100
AcDbEntity
  8
AM_0
100
AcDbVertex
100
AcDb2dVertex
 10
-31.17045454545454
 20
4.122770566613229
 30
0.0
 42
-0.0735428200704349
  0
VERTEX
  5
1334
330
132A
100
AcDbEntity
  8
AM_0
100
AcDbVertex
100
AcDb2dVertex
 10
-30.39697110264352
 20
4.155693253289763
 30
0.0
 42
-0.025664050315163
 70
     1
  0
VERTEX
  5
1335
330
132A
100
AcDbEntity
  8
AM_0
100
AcDbVertex
100
AcDb2dVertex
 10
-28.21590909090909
 20
3.80683049907235
 30
0.0
 42
-0.0327084143688329
  0
VERTEX
  5
1336
330
132A
100
AcDbEntity
  8
AM_0
100
AcDbVertex
100
AcDb2dVertex
 10
-27.21740490988121
 20
3.52300813587757
 30
0.0
 42
-0.0257576852941419
 70
     1
  0
VERTEX
  5
1337
330
132A
100
AcDbEntity
  8
AM_0
100
AcDbVertex
100
AcDb2dVertex
 10
-26.0
 20
3.015103990308319
 30
0.0
  0
SEQEND
  5
1338
330
132A
100
AcDbEntity
  8
AM_0
  0
SPLINE
  5
1348
330
1F
100
AcDbEntity
  8
AM_0
100
AcDbSpline
210
0.0
220
0.0
230
1.0
 70
     8
 71
     3
 72
     8
 73
     4
 74
     0
 42
0.0000000001
 43
0.0000000001
 40
0.0
 40
0.0
 40
0.0
 40
0.0
 40
0.6152373134461622
 40
0.6152373134461622
 40
0.6152373134461622
 40
0.6152373134461622
 10
-20.68726474344467
 20
-5.70461701014833
 30
0.0
 10
-20.92963095783255
 20
-5.70461701014833
 30
0.0
 10
-21.16968929673834
 20
-5.694823603225398
 30
0.0
 10
-21.40757502755518
 20
-5.675810792888364
 30
0.0
  0
SPLINE
  5
1349
330
1F
100
AcDbEntity
  8
AM_0
100
AcDbSpline
210
0.0
220
0.0
230
1.0
 70
     8
 71
     3
 72
     8
 73
     4
 74
     0
 42
0.0000000001
 43
0.0000000001
 40
0.0
 40
0.0
 40
0.0
 40
0.0
 40
6.420166228128741
 40
6.420166228128741
 40
6.420166228128741
 40
6.420166228128741
 10
-18.93340954798796
 20
-5.178380190189044
 30
0.0
 10
-21.46234260671722
 20
-5.144252930350909
 30
0.0
 10
-23.77346508136173
 20
-4.144369130910489
 30
0.0
 10
-26.0
 20
-2.769430162662001
 30
0.0
  0
SPLINE
  5
134A
330
1F
100
AcDbEntity
  8
AM_0
100
AcDbSpline
210
0.0
220
0.0
230
1.0
 70
     8
 71
     3
 72
     8
 73
     4
 74
     0
 42
0.0000000001
 43
0.0000000001
 40
0.0
 40
0.0
 40
0.0
 40
0.0
 40
3.983447643433449
 40
3.983447643433449
 40
3.983447643433449
 40
3.983447643433449
 10
-22.35999999999954
 20
5.999999999999952
 30
0.0
 10
-23.9292369504428
 20
5.997055929544058
 30
0.0
 10
-25.39424527812624
 20
5.574324960035835
 30
0.0
 10
-26.79415034827892
 20
4.887547873013352
 30
0.0
  0
SPLINE
  5
134B
330
1F
100
AcDbEntity
  8
AM_0
100
AcDbSpline
210
0.0
220
0.0
230
1.0
 70
     8
 71
     3
 72
     8
 73
     4
 74
     0
 42
0.0000000001
 43
0.0000000001
 40
5.215942287204468
 40
5.215942287204468
 40
5.215942287204468
 40
5.215942287204468
 40
10.4969207889486
 40
10.4969207889486
 40
10.4969207889486
 40
10.4969207889486
 10
-25.99999999999996
 20
3.936785881072621
 30
0.0
 10
-24.17205645036856
 20
2.865555447059376
 30
0.0
 10
-22.42966059682478
 20
1.431305688301853
 30
0.0
 10
-20.68726474328129
 20
-0.0029440704556687
 30
0.0
  0
SPLINE
  5
134C
330
1F
100
AcDbEntity
  8
AM_0
100
AcDbSpline
210
0.0
220
0.0
230
1.0
 70
     8
 71
     3
 72
     8
 73
     4
 74
     0
 42
0.0000000001
 43
0.0000000001
 40
0.6393216442353146
 40
0.6393216442353146
 40
0.6393216442353146
 40
0.6393216442353146
 40
10.49653484266006
 40
10.49653484266006
 40
10.49653484266006
 40
10.49653484266006
 10
-30.55398976790593
 20
5.999999999999952
 30
0.0
 10
-25.78318430198173
 20
5.105216494878733
 30
0.0
 10
-22.44712976496546
 20
2.628581376081184
 30
0.0
 10
-19.11107522794811
 20
0.151946257283635
 30
0.0
  0
SPLINE
  5
134D
330
1F
100
AcDbEntity
  8
AM_0
100
AcDbSpline
210
0.0
220
0.0
230
1.0
 70
     8
 71
     3
 72
     8
 73
     4
 74
     0
 42
0.0000000001
 43
0.0000000001
 40
6.902118198828401
 40
6.902118198828401
 40
6.902118198828401
 40
6.902118198828401
 40
10.61176705360581
 40
10.61176705360581
 40
10.61176705360581
 40
10.61176705360581
 10
-26.00000000000018
 20
3.01510399030808
 30
0.0
 10
-24.76560036917961
 20
2.094528764768432
 30
0.0
 10
-23.56280018458984
 20
1.045792347156373
 30
0.0
 10
-22.36000000000009
 20
-0.0029440704556687
 30
0.0
  0
SPLINE
  5
134E
330
1F
100
AcDbEntity
  8
AM_0
100
AcDbSpline
210
0.0
220
0.0
230
1.0
 70
     8
 71
     3
 72
     8
 73
     4
 74
     0
 42
0.0000000001
 43
0.0000000001
 40
0.0
 40
0.0
 40
0.0
 40
0.0
 40
3.680948512210926
 40
3.680948512210926
 40
3.680948512210926
 40
3.680948512210926
 10
-9.625446561462965
 20
-5.70461701014833
 30
0.0
 10
-8.175375935440655
 20
-5.704617010148583
 30
0.0
 10
-6.807917953965328
 20
-5.354052496893555
 30
0.0
 10
-5.494102893712012
 20
-4.775855704459423
 30
0.0
  0
SPLINE
  5
134F
330
1F
100
AcDbEntity
  8
AM_0
100
AcDbSpline
210
0.0
220
0.0
230
1.0
 70
     8
 71
     3
 72
     8
 73
     4
 74
     0
 42
0.0000000001
 43
0.0000000001
 40
0.6152373134470183
 40
0.6152373134470183
 40
0.6152373134470183
 40
0.6152373134470183
 40
8.843083020165714
 40
8.843083020165714
 40
8.843083020165714
 40
8.843083020165714
 10
-8.905136277351175
 20
5.669922651976958
 30
0.0
 10
-5.723783251105653
 20
5.415655775625873
 30
0.0
 10
-2.930999391521626
 20
3.512506194669731
 30
0.0
 10
-0.2032480099761746
 20
1.333393059534683
 30
0.0
  0
SPLINE
  5
1350
330
1F
100
AcDbEntity
  8
AM_0
100
AcDbSpline
210
0.0
220
0.0
230
1.0
 70
     8
 71
     3
 72
     8
 73
     4
 74
     0
 42
0.0000000001
 43
0.0000000001
 40
0.0
 40
0.0
 40
0.0
 40
0.0
 40
10.7633540680078
 40
10.7633540680078
 40
10.7633540680078
 40
10.7633540680078
 10
-11.29818181818121
 20
5.999999999999968
 30
0.0
 10
-7.05807263987511
 20
5.99705592954433
 30
0.0
 10
-3.545107718996423
 20
2.998527964772164
 30
0.0
 10
-0.0321427981177366
 20
-0.000000000000002
 30
0.0
  0
SPLINE
  5
1351
330
1F
100
AcDbEntity
  8
AM_0
100
AcDbSpline
210
0.0
220
0.0
230
1.0
 70
     8
 71
     3
 72
     8
 73
     4
 74
     0
 42
0.0000000001
 43
0.0000000001
 40
1.589844636275461
 40
1.589844636275461
 40
1.589844636275461
 40
1.589844636275461
 40
10.4969207889486
 40
10.4969207889486
 40
10.4969207889486
 40
10.4969207889486
 10
-0.3986362341108159
 20
-5.518330916363764
 30
0.0
 10
-3.747879534635649
 20
-4.841051939665062
 30
0.0
 10
-6.686663048049048
 20
-2.421998005060365
 30
0.0
 10
-9.625446561462965
 20
-0.0029440704556687
 30
0.0
  0
SPLINE
  5
1352
330
1F
100
AcDbEntity
  8
AM_0
100
AcDbSpline
210
0.0
220
0.0
230
1.0
 70
     8
 71
     3
 72
     8
 73
     4
 74
     0
 42
0.0000000001
 43
0.0000000001
 40
0.1925119343883644
 40
0.1925119343883644
 40
0.1925119343883644
 40
0.1925119343883644
 40
10.61176705360627
 40
10.61176705360627
 40
10.61176705360627
 40
10.61176705360627
 10
-3.0
 20
-5.999999999999454
 30
0.0
 10
-4.541595159288814
 20
-5.894095883297599
 30
0.0
 10
-7.919888488735285
 20
-2.948519976876633
 30
0.0
 10
-11.29818181818175
 20
-0.0029440704556687
 30
0.0
  0
SPLINE
  5
1353
330
1F
100
AcDbEntity
  8
AM_0
100
AcDbSpline
210
0.0
220
0.0
230
1.0
 70
     8
 71
     3
 72
     8
 73
     4
 74
     0
 42
0.0000000001
 43
0.0000000001
 40
3.266224444355238
 40
3.266224444355238
 40
3.266224444355238
 40
3.266224444355238
 40
10.49653484266006
 40
10.49653484266006
 40
10.49653484266006
 40
10.49653484266006
 10
-0.5179358792425278
 20
-4.454199685811727
 30
0.0
 10
-3.155234907670712
 20
-3.481299832008698
 30
0.0
 10
-5.602245976900783
 20
-1.664676787362531
 30
0.0
 10
-8.049257046130316
 20
0.151946257283635
 30
0.0
  0
SPLINE
  5
1354
330
1F
100
AcDbEntity
  8
AM_0
100
AcDbSpline
210
0.0
220
0.0
230
1.0
 70
     8
 71
     3
 72
     8
 73
     4
 74
     0
 42
0.0000000001
 43
0.0000000001
 40
0.6393216439718838
 40
0.6393216439718838
 40
0.6393216439718838
 40
0.6393216439718838
 40
6.996796499348805
 40
6.996796499348805
 40
6.996796499348805
 40
6.996796499348805
 10
-7.477775524749631
 20
5.44393082658471
 30
0.0
 10
-5.015184386438249
 20
5.225474777929685
 30
0.0
 10
-2.753162306021295
 20
4.117709882705185
 30
0.0
 10
-0.5623509428979891
 20
2.694201764051104
 30
0.0
  0
SPLINE
  5
1355
330
1F
100
AcDbEntity
  8
AM_0
100
AcDbSpline
210
0.0
220
0.0
230
1.0
 70
     8
 71
     3
 72
     8
 73
     4
 74
     0
 42
0.0000000001
 43
0.0000000001
 40
0.0
 40
0.0
 40
0.0
 40
0.0
 40
2.378943819521855
 40
2.378943819521855
 40
2.378943819521855
 40
2.378943819521855
 10
-8.226922726254915
 20
-5.178380190189044
 30
0.0
 10
-7.289845794556778
 20
-5.165734593333116
 30
0.0
 10
-6.382674620265898
 20
-5.020489008695609
 30
0.0
 10
-5.498631336418586
 20
-4.772696013258175
 30
0.0
  0
SPLINE
  5
1356
330
1F
100
AcDbEntity
  8
AM_0
100
AcDbSpline
210
0.0
220
0.0
230
1.0
 70
     8
 71
     3
 72
     9
 73
     5
 74
     0
 42
0.0000000001
 43
0.0000000001
 40
0.0
 40
0.0
 40
0.0
 40
0.0
 40
0.6574415203969619
 40
3.123721247380082
 40
3.123721247380082
 40
3.123721247380082
 40
3.123721247380082
 10
-1.680965005958652
 20
-0.0021613046028502
 30
0.0
 10
-1.938909789326414
 20
0.0214647535013103
 30
0.0
 10
-3.40873929905585
 20
-0.7772595244947658
 30
0.0
 10
-1.095963448971658
 20
-1.799961327062715
 30
0.0
 10
-0.5167503427348742
 20
-2.59199401616679
 30
0.0
  0
SPLINE
  5
1357
330
1F
100
AcDbEntity
  8
AM_0
100
AcDbSpline
210
0.0
220
0.0
230
1.0
 70
     8
 71
     3
 72
     8
 73
     4
 74
     0
 42
0.0000000001
 43
0.0000000001
 40
0.6112293840561823
 40
0.6112293840561823
 40
0.6112293840561823
 40
0.6112293840561823
 40
2.847661750814433
 40
2.847661750814433
 40
2.847661750814433
 40
2.847661750814433
 10
-0.2703792733679698
 20
5.35908839396348
 30
0.0
 10
-0.5720068236975886
 20
4.656798499540736
 30
0.0
 10
-1.742966883324474
 20
4.238990471529486
 30
0.0
 10
-2.877690065916836
 20
4.039853550868156
 30
0.0
  0
SPLINE
  5
1358
330
1F
100
AcDbEntity
  8
AM_0
100
AcDbSpline
210
0.0
220
0.0
230
1.0
 70
     8
 71
     3
 72
     8
 73
     4
 74
     0
 42
0.0000000001
 43
0.0000000001
 40
2.999741188604434
 40
2.999741188604434
 40
2.999741188604434
 40
2.999741188604434
 40
4.066976460604845
 40
4.066976460604845
 40
4.066976460604845
 40
4.066976460604845
 10
-3.0
 20
5.999999999999952
 30
0.0
 10
-4.005213667613717
 20
5.635657584174905
 30
0.0
 10
-4.384160035077385
 20
5.895097368721188
 30
0.0
 10
-4.758492194620554
 20
4.843997998164105
 30
0.0
  0
SPLINE
  5
1359
330
1F
100
AcDbEntity
  8
AM_0
100
AcDbSpline
210
0.0
220
0.0
230
1.0
 70
     8
 71
     3
 72
     8
 73
     4
 74
     0
 42
0.0000000001
 43
0.0000000001
 40
0.0
 40
0.0
 40
0.0
 40
0.0
 40
1.551838382253894
 40
1.551838382253894
 40
1.551838382253894
 40
1.551838382253894
 10
-0.5167503427235882
 20
-2.591994016182342
 30
0.0
 10
-0.3151973241610803
 20
-3.17802233160377
 30
0.0
 10
-0.4049131473782114
 20
-3.844165124035641
 30
0.0
 10
-0.5179358792425278
 20
-4.454199685811999
 30
0.0
  0
SPLINE
  5
135A
330
1F
100
AcDbEntity
  8
AM_0
100
AcDbSpline
210
0.0
220
0.0
230
1.0
 70
     8
 71
     3
 72
     8
 73
     4
 74
     0
 42
0.0000000001
 43
0.0000000001
 40
0.0
 40
0.0
 40
0.0
 40
0.0
 40
10.49692078894909
 40
10.49692078894909
 40
10.49692078894909
 40
10.49692078894909
 10
-9.625446561462426
 20
-5.70461701014833
 30
0.0
 10
-13.76059717529085
 20
-5.70461701014833
 30
0.0
 10
-17.22393095928608
 20
-2.853780540301999
 30
0.0
 10
-20.68726474328129
 20
-0.0029440704556687
 30
0.0
  0
SPLINE
  5
135B
330
1F
100
AcDbEntity
  8
AM_0
100
AcDbSpline
210
0.0
220
0.0
230
1.0
 70
     8
 71
     3
 72
     8
 73
     4
 74
     0
 42
0.0000000001
 43
0.0000000001
 40
0.0
 40
0.0
 40
0.0
 40
0.0
 40
10.49653484265986
 40
10.49653484265986
 40
10.49653484265986
 40
10.49653484265986
 10
-7.871591366005718
 20
-5.178380190189044
 30
0.0
 10
-12.00622480421854
 20
-5.122584442968989
 30
0.0
 10
-15.55865001608333
 20
-2.485319092842677
 30
0.0
 10
-19.11107522794811
 20
0.151946257283635
 30
0.0
  0
SPLINE
  5
135C
330
1F
100
AcDbEntity
  8
AM_0
100
AcDbSpline
210
0.0
220
0.0
230
1.0
 70
     8
 71
     3
 72
     8
 73
     4
 74
     0
 42
0.0000000001
 43
0.0000000001
 40
0.0
 40
0.0
 40
0.0
 40
0.0
 40
10.61065478016067
 40
10.61065478016067
 40
10.61065478016067
 40
10.61065478016067
 10
-11.29818181818121
 20
-6.000110785145152
 30
0.0
 10
-15.47813673157784
 20
-6.000110785145152
 30
0.0
 10
-18.91906836578896
 20
-3.00152742780041
 30
0.0
 10
-22.36000000000009
 20
-0.0029440704556687
 30
0.0
  0
SPLINE
  5
135D
330
1F
100
AcDbEntity
  8
AM_0
100
AcDbSpline
210
0.0
220
0.0
230
1.0
 70
     8
 71
     3
 72
     8
 73
     4
 74
     0
 42
0.0000000001
 43
0.0000000001
 40
0.0
 40
0.0
 40
0.0
 40
0.0
 40
4.066976460604825
 40
4.066976460604825
 40
4.066976460604825
 40
4.066976460604825
 10
-11.29818181818121
 20
5.999999999999968
 30
0.0
 10
-12.90032406023791
 20
5.997055929544058
 30
0.0
 10
-14.39382071548917
 20
5.556410615171716
 30
0.0
 10
-15.82031037643835
 20
4.843997998164105
 30
0.0
  0
SPLINE
  5
135E
330
1F
100
AcDbEntity
  8
AM_0
100
AcDbSpline
210
0.0
220
0.0
230
1.0
 70
     8
 71
     3
 72
     8
 73
     4
 74
     0
 42
0.0000000001
 43
0.0000000001
 40
0.0
 40
0.0
 40
0.0
 40
0.0
 40
10.61176705360661
 40
10.61176705360661
 40
10.61176705360661
 40
10.61176705360661
 10
-22.35999999999954
 20
5.999999999999952
 30
0.0
 10
-18.17960691827626
 20
5.99705592954433
 30
0.0
 10
-14.73889436822874
 20
2.99705592954433
 30
0.0
 10
-11.29818181818121
 20
-0.0029440704556687
 30
0.0
  0
SPLINE
  5
135F
330
1F
100
AcDbEntity
  8
AM_0
100
AcDbSpline
210
0.0
220
0.0
230
1.0
 70
     8
 71
     3
 72
     8
 73
     4
 74
     0
 42
0.0000000001
 43
0.0000000001
 40
0.6152373134470183
 40
0.6152373134470183
 40
0.6152373134470183
 40
0.6152373134470183
 40
10.4969207889486
 40
10.4969207889486
 40
10.4969207889486
 40
10.4969207889486
 10
-19.9669544591695
 20
5.669922651976958
 30
0.0
 10
-16.1461337061117
 20
5.364546873192558
 30
0.0
 10
-12.8857901337876
 20
2.680801401368444
 30
0.0
 10
-9.625446561462426
 20
-0.0029440704556687
 30
0.0
  0
SPLINE
  5
1360
330
1F
100
AcDbEntity
  8
AM_0
100
AcDbSpline
210
0.0
220
0.0
230
1.0
 70
     8
 71
     3
 72
     8
 73
     4
 74
     0
 42
0.0000000001
 43
0.0000000001
 40
0.6393216442358057
 40
0.6393216442358057
 40
0.6393216442358057
 40
0.6393216442358057
 40
10.49653484266006
 40
10.49653484266006
 40
10.49653484266006
 40
10.49653484266006
 10
-18.53959370626055
 20
5.443930826557698
 30
0.0
 10
-14.72136612016393
 20
5.105216494878459
 30
0.0
 10
-11.38531158314712
 20
2.628581376081184
 30
0.0
 10
-8.049257046130316
 20
0.151946257283635
 30
0.0
  0
SPLINE
  5
1361
330
1F
100
AcDbEntity
  8
AM_0
100
AcDbSpline
210
0.0
220
0.0
230
1.0
 70
     8
 71
     3
 72
     8
 73
     4
 74
     0
 42
0.0000000001
 43
0.0000000001
 40
0.0
 40
0.0
 40
0.0
 40
0.0
 40
2.093133798227362
 40
2.093133798227362
 40
2.093133798227362
 40
2.093133798227362
 10
-11.29818181818175
 20
-6.00011078514488
 30
0.0
 10
-10.47361395827415
 20
-6.002944070455533
 30
0.0
 10
-9.677824240499914
 20
-5.886225537649852
 30
0.0
 10
-8.905136277351713
 20
-5.675810792888432
 30
0.0
  0
SPLINE
  5
1362
330
1F
100
AcDbEntity
  8
AM_0
100
AcDbSpline
210
0.0
220
0.0
230
1.0
 70
     8
 71
     3
 72
     8
 73
     4
 74
     0
 42
0.0000000001
 43
0.0000000001
 40
0.0
 40
0.0
 40
0.0
 40
0.0
 40
3.977355368879245
 40
3.977355368879245
 40
3.977355368879245
 40
3.977355368879245
 10
-20.68726474344467
 20
-5.70461701014833
 30
0.0
 10
-19.12042777994698
 20
-5.704617010148603
 30
0.0
 10
-17.65004383672633
 20
-5.295321238410132
 30
0.0
 10
-16.23956620206102
 20
-4.631814673463486
 30
0.0
  0
SPLINE
  5
1363
330
1F
100
AcDbEntity
  8
AM_0
100
AcDbSpline
210
0.0
220
0.0
230
1.0
 70
     8
 71
     3
 72
     8
 73
     4
 74
     0
 42
0.0000000001
 43
0.0000000001
 40
0.0
 40
0.0
 40
0.0
 40
0.0
 40
2.4079390838223
 40
2.4079390838223
 40
2.4079390838223
 40
2.4079390838223
 10
-19.28874090823716
 20
-5.178380190189044
 30
0.0
 10
-18.34024260833236
 20
-5.165580465093489
 30
0.0
 10
-17.4223835087376
 20
-5.01692871888781
 30
0.0
 10
-16.52813487768236
 20
-4.763589845143905
 30
0.0
  0
SPLINE
  5
1364
330
1F
100
AcDbEntity
  8
AM_0
100
AcDbSpline
210
0.0
220
0.0
230
1.0
 70
     8
 71
     3
 72
     8
 73
     4
 74
     0
 42
0.0000000001
 43
0.0000000001
 40
0.2725981709865456
 40
0.2725981709865456
 40
0.2725981709865456
 40
0.2725981709865456
 40
2.093133798227362
 40
2.093133798227362
 40
2.093133798227362
 40
2.093133798227362
 10
-23.49350617811137
 20
-5.999999999999902
 30
0.0
 10
-22.76916603338059
 20
-5.970953334860314
 30
0.0
 10
-22.07963238329745
 20
-5.858822284872087
 30
0.0
 10
-21.40757502755518
 20
-5.675810792888449
 30
0.0
  0
DIMENSION
  5
166A
330
1F
100
AcDbEntity
  8
AM_5
100
AcDbDimension
  2
*D7
 10
18.53057127860814
 20
5.999999999999946
 30
0.0
 11
15.43057127860813
 21
-0.0000000000247836
 31
0.0
 70
    32
  1
%%c<>
  3
AM_JIS
100
AcDbAlignedDimension
 13
0.0000000000188454
 23
-6.000000000049515
 33
0.0
 14
0.0000000000188461
 24
5.999999999999952
 34
0.0
 50
90.0
100
AcDbRotatedDimension
1001
GENIUS_GENDTOL_13
1000

1000
h7
1000

1040
0.0
  0
LINE
  5
1707
330
1F
100
AcDbEntity
  8
AM_11
100
AcDbLine
 10
-0.0000000000000046
 20
5.999999999999952
 30
0.0
 11
0.0
 21
-6.0
 31
0.0
  0
ARC
  5
1A1A
330
1F
100
AcDbEntity
  8
AM_0
100
AcDbCircle
 10
-1.49999999998351
 20
-4.499999999999777
 30
0.0
 40
1.5
100
AcDbArc
 50
269.9999999999878
 51
0.000000000089997
1001
GENIUS_GENODEF_13
1002
{
1000
HIER
1070
     0
1002
}
1002
{
1000
MANEDIT
1070
     0
1002
}
1002
{
1000
NOSEL
1070
     0
1002
}
1002
{
1000
BEHIND
1070
     0
1002
}
1002
{
1000
REACTOR
1002
}
1001
GENIUS_GENOBJ-N-FIL_13
1002
{
1000
OWNER
1000
GEN
1002
}
  0
ARC
  5
1A1C
330
1F
100
AcDbEntity
  8
AM_0
100
AcDbCircle
 10
-1.499999999997648
 20
4.499999999999952
 30
0.0
 40
1.5
100
AcDbArc
 50
0.0000000000899715
 51
90.0
1001
GENIUS_GENODEF_13
1002
{
1000
HIER
1070
     0
1002
}
1002
{
1000
MANEDIT
1070
     0
1002
}
1002
{
1000
NOSEL
1070
     0
1002
}
1002
{
1000
BEHIND
1070
     0
1002
}
1002
{
1000
REACTOR
1002
}
1001
GENIUS_GENOBJ-N-FIL_13
1002
{
1000
OWNER
1000
GEN
1002
}
  0
DIMENSION
  5
1A27
330
1F
100
AcDbEntity
  8
AM_5
100
AcDbDimension
  2
*D8
 10
-1.499999999983509
 20
-4.499999999999775
 30
0.0
 11
9.523235755977262
 21
-13.42644030932112
 31
0.0
 70
   164
  1
<>
  3
AM_JIS$4
100
AcDbRadialDimension
 15
-0.3342810577980564
 25
-5.44398058657453
 35
0.0
 40
0.0
1001
GENIUS_GENDTOL_13
1000

1000
h7
1000

1040
0.0
1001
ACAD
1000
DSTYLE
1002
{
1070
   287
1070
     3
1070
   271
1070
     3
1070
   288
1070
     1
1070
   289
1070
     3
1070
   172
1070
     1
1070
    74
1070
     0
1002
}
  0
DIMENSION
  5
1AC3
330
1F
100
AcDbEntity
  8
AM_5
100
AcDbDimension
  2
*D9
 10
-103.5
 20
5.999999999999972
 30
0.0
 11
-106.6
 21
-0.0000000000000515
 31
0.0
 70
    32
  1
%%c<>
  3
AM_JIS
100
AcDbAlignedDimension
 13
-89.50000000000001
 23
-6.000000000000047
 33
0.0
 14
-89.49999999999999
 24
5.999999999999968
 34
0.0
 50
270.0000000000002
100
AcDbRotatedDimension
1001
GENIUS_GENDTOL_13
1000

1000
h7
1000

1040
0.0
  0
VIEWPORT
  5
110
330
101
100
AcDbEntity
 67
     1
  8
0
100
AcDbViewport
 10
420.5
 20
297.0
 30
0.0
 40
948.9782706766916
 41
628.452
 68
     1
 69
     1
1001
ACAD
1000
MVIEW
1002
{
1070
    16
1010
0.0
1020
0.0
1030
0.0
1010
0.0
1020
0.0
1030
1.0
1040
0.0
1040
628.452
1040
420.5
1040
297.0
1040
50.0
1040
0.0
1040
0.0
1070
     0
1070
   100
1070
     1
1070
     1
1070
     0
1070
     0
1070
     0
1070
     0
1040
0.0
1040
0.0
1040
0.0
1040
10.0
1040
10.0
1040
10.0
1040
10.0
1070
     0
1002
{
1002
}
1002
}
  0
ENDSEC
  0
SECTION
  2
OBJECTS
  0
DICTIONARY
  5
C
330
0
100
AcDbDictionary
  3
ACAD_GROUP
350
D
  3
ACAD_LAYOUT
350
1A
  3
ACAD_MLINESTYLE
350
17
  3
ACAD_PLOTSETTINGS
350
19
  3
ACAD_PLOTSTYLENAME
350
E
  3
ACDBVARIABLEDICTIONARY
350
34
  3
ACMDICTIONARY
350
43
  3
AMG
350
2B
  3
AMGSNAPSETTINGS
350
6E
  3
DWGPROPS
350
1B7D
  3
ACDBHEADERROUNDTRIPXREC
350
1B89
  0
DICTIONARY
  5
74
330
1F
100
AcDbDictionary
280
     1
  3
ACAD_SORTENTS
360
1810
  3
ACAD_INDEX
360
1B7F
  3
ACAD_LAYOUTSELFREF
360
1BAC
  0
DICTIONARY
  5
1BB1
330
101
100
AcDbDictionary
280
     1
  3
ACAD_LAYOUTSELFREF
360
1BB2
  0
DICTIONARY
  5
D
102
{ACAD_REACTORS
330
C
102
}
330
C
100
AcDbDictionary
  0
DICTIONARY
  5
1A
102
{ACAD_REACTORS
330
C
102
}
330
C
100
AcDbDictionary
  0
DICTIONARY
  5
17
102
{ACAD_REACTORS
330
C
102
}
330
C
100
AcDbDictionary
  3
STANDARD
350
18
  0
DICTIONARY
  5
19
102
{ACAD_REACTORS
330
C
102
}
330
C
100
AcDbDictionary
  0
ACDBDICTIONARYWDFLT
  5
E
102
{ACAD_REACTORS
330
C
102
}
330
C
100
AcDbDictionary
281
     1
  3
Normal
350
F
100
AcDbDictionaryWithDefault
340
F
  0
DICTIONARY
  5
34
102
{ACAD_REACTORS
330
C
102
}
330
C
100
AcDbDictionary
  3
INDEXCTL
350
35
  3
SORTENTS
350
B5E
  0
DICTIONARY
  5
43
102
{ACAD_REACTORS
330
C
102
}
330
C
100
AcDbDictionary
  3
ACMSTDDICTIONARY
350
260
  0
DICTIONARY
  5
2B
102
{ACAD_REACTORS
330
C
102
}
330
C
100
AcDbDictionary
  3
ACMGSETTINGS
350
2C
  0
DICTIONARY
  5
6E
102
{ACAD_REACTORS
330
C
102
}
330
C
100
AcDbDictionary
  0
XRECORD
  5
1B7D
102
{ACAD_REACTORS
330
C
102
}
330
C
100
AcDbXrecord
  1
DWGPROPS COOKIE
  2

  3

  4

  6

  7

  8

  9

300
AmdtFileType=82
301
=
302
=
303
=
304
=
305
=
306
=
307
=
308
=
309
=
 40
0.05657625
 41
2452809.403188831
 42
2452844.446496851
  1

 90
        1
  0
DICTIONARY
  5
1B89
102
{ACAD_REACTORS
330
C
102
}
330
C
100
AcDbDictionary
  3
TSTACKALIGN
350
1B8A
  3
TSTACKSIZE
350
1B8B
  3
HYPERLINKBASE
350
1B8C
  3
STYLESHEET
350
1B8D
  3
LAYOUTDICT
350
1B8E
  3
PLOTSETDICT
350
1B8F
  3
PLOTSTYLNAMDICT
350
1B90
  3
LWETCUNION
350
1B91
  3
INSUNITS
350
1B92
  3
CEPSNTYPE
350
1B93
  3
FINGERPRINTGUID
350
1B94
  3
VERSIONGUID
350
1B95
  3
PSVPSCALE
350
1B96
  3
DIMSTYLEDATA
350
1B97
  3
PUCSORTHOREF
350
1B98
  3
PUCSORTHOVIEW
350
1B99
  3
PUCSBASE
350
1B9A
  3
PUCSORGTOP
350
1B9B
  3
PUCSORGBOTTOM
350
1B9C
  3
PUCSORGLEFT
350
1B9D
  3
PUCSORGRIGHT
350
1B9E
  3
PUCSORGFRONT
350
1B9F
  3
PUCSORGBACK
350
1BA0
  3
UCSORTHOREF
350
1BA1
  3
UCSORTHOVIEW
350
1BA2
  3
UCSBASE
350
1BA3
  3
UCSORGTOP
350
1BA4
  3
UCSORGBOTTOM
350
1BA5
  3
UCSORGLEFT
350
1BA6
  3
UCSORGRIGHT
350
1BA7
  3
UCSORGFRONT
350
1BA8
  3
UCSORGBACK
350
1BA9
  0
SORTENTSTABLE
  5
1810
102
{ACAD_REACTORS
330
74
102
}
330
74
100
AcDbSortentsTable
330
1F
331
135E
  5
135B
331
1329
  5
131A
331
1312
  5
1311
331
1355
  5
1352
331
134E
  5
134B
331
1164
  5
1164
331
1358
  5
1355
331
1165
  5
1165
331
132A
  5
1327
331
1356
  5
1353
331
1313
  5
1312
331
134F
  5
134C
331
1348
  5
1328
331
135F
  5
135C
331
F17
  5
F17
331
1360
  5
135D
331
1349
  5
1329
331
1350
  5
134D
331
1314
  5
1313
331
1357
  5
1354
331
130D
  5
1814
331
1166
  5
1166
331
1359
  5
1356
331
135A
  5
1357
331
1361
  5
135E
331
D39
  5
D39
331
134A
  5
132A
331
1351
  5
134E
331
130E
  5
130D
331
1160
  5
1160
331
1707
  5
1363
331
135B
  5
1358
331
1161
  5
1161
331
1362
  5
135F
331
134B
  5
1348
331
1352
  5
134F
331
1316
  5
1315
331
130F
  5
130E
331
135C
  5
1359
331
1363
  5
1360
331
1327
  5
1319
331
166A
  5
1362
331
1310
  5
130F
331
1353
  5
1350
331
1317
  5
1899
331
134C
  5
1349
331
1162
  5
1162
331
1319
  5
1317
331
131A
  5
1318
331
135D
  5
135A
331
1163
  5
1163
331
1328
  5
166A
331
1311
  5
1310
331
1354
  5
1351
331
134D
  5
134A
331
1364
  5
1361
  0
DICTIONARY
  5
1B7F
102
{ACAD_REACTORS
330
74
102
}
330
74
100
AcDbDictionary
  3
*A1
350
1B80
  0
XRECORD
  5
1BAC
102
{ACAD_REACTORS
330
74
102
}
330
74
100
AcDbXrecord
340
1F
  0
XRECORD
  5
1BB2
102
{ACAD_REACTORS
330
1BB1
102
}
330
1BB1
100
AcDbXrecord
340
101
  0
MLINESTYLE
  5
18
102
{ACAD_REACTORS
330
17
102
}
330
17
100
AcDbMlineStyle
  2
STANDARD
 70
     0
  3

 62
   256
 51
90.0
 52
90.0
 71
     2
 49
0.5
 62
   256
  6
BYLAYER
 49
-0.5
 62
   256
  6
BYLAYER
  0
ACDBPLACEHOLDER
  5
F
102
{ACAD_REACTORS
330
E
102
}
330
E
100
AcDbPlaceHolder
280
     0
  0
DICTIONARYVAR
  5
35
102
{ACAD_REACTORS
330
34
102
}
330
34
100
DictionaryVariables
280
     0
  1
1
  0
DICTIONARYVAR
  5
B5E
102
{ACAD_REACTORS
330
34
102
}
330
34
100
DictionaryVariables
280
     0
  1
127
  0
DICTIONARY
  5
260
102
{ACAD_REACTORS
330
43
102
}
330
43
100
AcDbDictionary
  0
DICTIONARY
  5
2C
102
{ACAD_REACTORS
330
2B
102
}
330
2B
100
AcDbDictionary
  3
DWGSETTINGS
350
2D
  0
XRECORD
  5
1B8A
102
{ACAD_REACTORS
330
1B89
102
}
330
1B89
100
AcDbXrecord
 90
        1
  0
XRECORD
  5
1B8B
102
{ACAD_REACTORS
330
1B89
102
}
330
1B89
100
AcDbXrecord
 90
       70
  0
XRECORD
  5
1B8C
102
{ACAD_REACTORS
330
1B89
102
}
330
1B89
100
AcDbXrecord
  1

  0
XRECORD
  5
1B8D
102
{ACAD_REACTORS
330
1B89
102
}
330
1B89
100
AcDbXrecord
  1
ASAMI.ctb
  0
XRECORD
  5
1B8E
102
{ACAD_REACTORS
330
1B89
102
}
330
1B89
100
AcDbXrecord
340
1A
  0
XRECORD
  5
1B8F
102
{ACAD_REACTORS
330
1B89
102
}
330
1B89
100
AcDbXrecord
340
19
  0
XRECORD
  5
1B90
102
{ACAD_REACTORS
330
1B89
102
}
330
1B89
100
AcDbXrecord
340
E
  0
XRECORD
  5
1B91
102
{ACAD_REACTORS
330
1B89
102
}
330
1B89
100
AcDbXrecord
 90
    10781
  0
XRECORD
  5
1B92
102
{ACAD_REACTORS
330
1B89
102
}
330
1B89
100
AcDbXrecord
 90
        4
  0
XRECORD
  5
1B93
102
{ACAD_REACTORS
330
1B89
102
}
330
1B89
100
AcDbXrecord
 90
        0
  0
XRECORD
  5
1B94
102
{ACAD_REACTORS
330
1B89
102
}
330
1B89
100
AcDbXrecord
  1
{AFB28963-8C59-40AE-9337-C84526B81ACE}
  0
XRECORD
  5
1B95
102
{ACAD_REACTORS
330
1B89
102
}
330
1B89
100
AcDbXrecord
  1
{C2DAED07-5DAE-40F9-B00F-664C3A2A7CDB}
  0
XRECORD
  5
1B96
102
{ACAD_REACTORS
330
1B89
102
}
330
1B89
100
AcDbXrecord
 40
0.0
  0
XRECORD
  5
1B97
102
{ACAD_REACTORS
330
1B89
102
}
330
1B89
100
AcDbXrecord
1000
DSTYLE
1002
{
1070
    79
 70
     2
1070
   341
340
59
1070
   342
340
59
1070
   371
 70
    -1
1070
   372
 70
    -1
1002
}
  0
XRECORD
  5
1B98
102
{ACAD_REACTORS
330
1B89
102
}
330
1B89
100
AcDbXrecord
340
0
  0
XRECORD
  5
1B99
102
{ACAD_REACTORS
330
1B89
102
}
330
1B89
100
AcDbXrecord
 70
     0
  0
XRECORD
  5
1B9A
102
{ACAD_REACTORS
330
1B89
102
}
330
1B89
100
AcDbXrecord
340
0
  0
XRECORD
  5
1B9B
102
{ACAD_REACTORS
330
1B89
102
}
330
1B89
100
AcDbXrecord
 10
0.0
 20
0.0
 30
0.0
  0
XRECORD
  5
1B9C
102
{ACAD_REACTORS
330
1B89
102
}
330
1B89
100
AcDbXrecord
 10
0.0
 20
0.0
 30
0.0
  0
XRECORD
  5
1B9D
102
{ACAD_REACTORS
330
1B89
102
}
330
1B89
100
AcDbXrecord
 10
0.0
 20
0.0
 30
0.0
  0
XRECORD
  5
1B9E
102
{ACAD_REACTORS
330
1B89
102
}
330
1B89
100
AcDbXrecord
 10
0.0
 20
0.0
 30
0.0
  0
XRECORD
  5
1B9F
102
{ACAD_REACTORS
330
1B89
102
}
330
1B89
100
AcDbXrecord
 10
0.0
 20
0.0
 30
0.0
  0
XRECORD
  5
1BA0
102
{ACAD_REACTORS
330
1B89
102
}
330
1B89
100
AcDbXrecord
 10
0.0
 20
0.0
 30
0.0
  0
XRECORD
  5
1BA1
102
{ACAD_REACTORS
330
1B89
102
}
330
1B89
100
AcDbXrecord
340
0
  0
XRECORD
  5
1BA2
102
{ACAD_REACTORS
330
1B89
102
}
330
1B89
100
AcDbXrecord
 70
     0
  0
XRECORD
  5
1BA3
102
{ACAD_REACTORS
330
1B89
102
}
330
1B89
100
AcDbXrecord
340
0
  0
XRECORD
  5
1BA4
102
{ACAD_REACTORS
330
1B89
102
}
330
1B89
100
AcDbXrecord
 10
0.0
 20
0.0
 30
0.0
  0
XRECORD
  5
1BA5
102
{ACAD_REACTORS
330
1B89
102
}
330
1B89
100
AcDbXrecord
 10
0.0
 20
0.0
 30
0.0
  0
XRECORD
  5
1BA6
102
{ACAD_REACTORS
330
1B89
102
}
330
1B89
100
AcDbXrecord
 10
0.0
 20
0.0
 30
0.0
  0
XRECORD
  5
1BA7
102
{ACAD_REACTORS
330
1B89
102
}
330
1B89
100
AcDbXrecord
 10
0.0
 20
0.0
 30
0.0
  0
XRECORD
  5
1BA8
102
{ACAD_REACTORS
330
1B89
102
}
330
1B89
100
AcDbXrecord
 10
0.0
 20
0.0
 30
0.0
  0
XRECORD
  5
1BA9
102
{ACAD_REACTORS
330
1B89
102
}
330
1B89
100
AcDbXrecord
 10
0.0
 20
0.0
 30
0.0
  0
LAYER_INDEX
  5
1B80
102
{ACAD_REACTORS
330
1B7F
102
}
330
1B7F
100
AcDbIndex
 40
2452844.462924073
100
AcDbLayerIndex
  8
0
360
1B81
 90
        0
  8
AM_0
360
1B82
 90
       49
  8
AM_11
360
1B83
 90
        4
  8
AM_7
360
1B84
 90
        1
  8
AM_5
360
1B85
 90
        5
  8
Defpoints
360
1B86
 90
        0
  8
AM_6
360
1B87
 90
        1
  0
XRECORD
  5
2D
102
{ACAD_REACTORS
330
2C
102
}
330
2C
100
AcDbXrecord
  1
VERSION
140
15.0
  1
PRODUCT
  2
AutoCAD Mechanical 2000
  0
IDBUFFER
  5
1B81
330
0
100
AcDbIdBuffer
  0
IDBUFFER
  5
1B82
330
0
100
AcDbIdBuffer
330
1A1C
330
1160
330
1161
330
1162
330
1163
330
1165
330
1166
330
130D
330
130E
330
130F
330
1310
330
1311
330
1313
330
1314
330
1316
330
1317
330
1319
330
1328
330
132A
330
1348
330
1349
330
134A
330
134B
330
134C
330
134D
330
134E
330
134F
330
1350
330
1351
330
1352
330
1353
330
1354
330
1355
330
1356
330
1357
330
1358
330
1359
330
135A
330
135B
330
135C
330
135D
330
135E
330
135F
330
1360
330
1361
330
1362
330
1363
330
1364
330
1A1A
  0
IDBUFFER
  5
1B83
330
0
100
AcDbIdBuffer
330
1312
330
1327
330
1329
330
1707
  0
IDBUFFER
  5
1B84
330
0
100
AcDbIdBuffer
330
1164
  0
IDBUFFER
  5
1B85
330
0
100
AcDbIdBuffer
330
D39
330
131A
330
166A
330
1A27
330
1AC3
  0
IDBUFFER
  5
1B86
330
0
100
AcDbIdBuffer
  0
IDBUFFER
  5
1B87
330
0
100
AcDbIdBuffer
330
F17
  0
ENDSEC
  0
EOF
