  0
SECTION
  2
HEADER
  9
$ACADVER
  1
AC1014
  9
$ACADMAINTVER
 70
     9
  9
$DWGCODEPAGE
  3
ANSI_932
  9
$INSBASE
 10
0.0
 20
0.0
 30
0.0
  9
$EXTMIN
 10
-131.2931425575492
 20
-56.42660827866215
 30
-0.00000001
  9
$EXTMAX
 10
19.53057127860813
 20
8.902999287716347
 30
0.00000001
  9
$LIMMIN
 10
-147.2739244382752
 20
-71.92713887357576
  9
$LIMMAX
 10
30.37546494411316
 20
17.75701917988897
  9
$ORTHOMODE
 70
     0
  9
$REGENMODE
 70
     1
  9
$FILLMODE
 70
     1
  9
$QTEXTMODE
 70
     0
  9
$MIRRTEXT
 70
     0
  9
$DRAGMODE
 70
     2
  9
$LTSCALE
 40
1.0
  9
$OSMODE
 70
  2103
  9
$ATTMODE
 70
     1
  9
$TEXTSIZE
 40
2.5
  9
$TRACEWID
 40
1.0
  9
$TEXTSTYLE
  7
STANDARD
  9
$CLAYER
  8
AM_0
  9
$CELTYPE
  6
BYLAYER
  9
$CECOLOR
 62
   256
  9
$CELTSCALE
 40
1.0
  9
$DELOBJ
 70
     1
  9
$DISPSILH
 70
     0
  9
$DIMSCALE
 40
1.0
  9
$DIMASZ
 40
2.5
  9
$DIMEXO
 40
1.0
  9
$DIMDLI
 40
12.0
  9
$DIMRND
 40
0.0
  9
$DIMDLE
 40
0.0
  9
$DIMEXE
 40
1.0
  9
$DIMTP
 40
0.1
  9
$DIMTM
 40
0.1
  9
$DIMTXT
 40
3.2
  9
$DIMCEN
 40
0.0
  9
$DIMTSZ
 40
0.0
  9
$DIMTOL
 70
     0
  9
$DIMLIM
 70
     0
  9
$DIMTIH
 70
     0
  9
$DIMTOH
 70
     0
  9
$DIMSE1
 70
     0
  9
$DIMSE2
 70
     0
  9
$DIMTAD
 70
     3
  9
$DIMZIN
 70
     8
  9
$DIMBLK
  1
OPEN30
  9
$DIMASO
 70
     1
  9
$DIMSHO
 70
     1
  9
$DIMPOST
  1

  9
$DIMAPOST
  1
"
  9
$DIMALT
 70
     0
  9
$DIMALTD
 70
     2
  9
$DIMALTF
 40
0.0393701
  9
$DIMLFAC
 40
1.0
  9
$DIMTOFL
 70
     1
  9
$DIMTVP
 40
0.0
  9
$DIMTIX
 70
     0
  9
$DIMSOXD
 70
     0
  9
$DIMSAH
 70
     0
  9
$DIMBLK1
  1

  9
$DIMBLK2
  1

  9
$DIMSTYLE
  2
AM_JIS
  9
$DIMCLRD
 70
   256
  9
$DIMCLRE
 70
   256
  9
$DIMCLRT
 70
     2
  9
$DIMTFAC
 40
0.71
  9
$DIMGAP
 40
1.5
  9
$DIMJUST
 70
     0
  9
$DIMSD1
 70
     0
  9
$DIMSD2
 70
     0
  9
$DIMTOLJ
 70
     0
  9
$DIMTZIN
 70
     0
  9
$DIMALTZ
 70
     0
  9
$DIMALTTZ
 70
     0
  9
$DIMFIT
 70
     3
  9
$DIMUPT
 70
     0
  9
$DIMUNIT
 70
     2
  9
$DIMDEC
 70
     3
  9
$DIMTDEC
 70
     3
  9
$DIMALTU
 70
     2
  9
$DIMALTTD
 70
     2
  9
$DIMTXSTY
  7
ASAMI
  9
$DIMAUNIT
 70
     0
  9
$LUNITS
 70
     2
  9
$LUPREC
 70
     2
  9
$SKETCHINC
 40
1.0
  9
$FILLETRAD
 40
2.5
  9
$AUNITS
 70
     0
  9
$AUPREC
 70
     0
  9
$MENU
  1
.
  9
$ELEVATION
 40
0.0
  9
$PELEVATION
 40
0.0
  9
$THICKNESS
 40
0.0
  9
$LIMCHECK
 70
     0
  9
$BLIPMODE
 70
     0
  9
$CHAMFERA
 40
0.5
  9
$CHAMFERB
 40
0.5
  9
$CHAMFERC
 40
20.0
  9
$CHAMFERD
 40
0.0
  9
$SKPOLY
 70
     0
  9
$TDCREATE
 40
2452809.403188831
  9
$TDUPDATE
 40
2452844.460467662
  9
$TDINDWG
 40
0.0612680787
  9
$TDUSRTIMER
 40
0.0612680787
  9
$USRTIMER
 70
     1
  9
$ANGBASE
 50
0.0
  9
$ANGDIR
 70
     0
  9
$PDMODE
 70
     0
  9
$PDSIZE
 40
0.0
  9
$PLINEWID
 40
0.0
  9
$COORDS
 70
     2
  9
$SPLFRAME
 70
     0
  9
$SPLINETYPE
 70
     6
  9
$SPLINESEGS
 70
     8
  9
$ATTDIA
 70
     1
  9
$ATTREQ
 70
     1
  9
$HANDLING
 70
 12289
  9
$HANDSEED
  5
1CFD
  9
$SURFTAB1
 70
     6
  9
$SURFTAB2
 70
     6
  9
$SURFTYPE
 70
     6
  9
$SURFU
 70
     6
  9
$SURFV
 70
     6
  9
$UCSNAME
  2

  9
$UCSORG
 10
0.0000000000188454
 20
-0.0000000000000014
 30
0.0
  9
$UCSXDIR
 10
1.0
 20
0.0
 30
0.0
  9
$UCSYDIR
 10
0.0
 20
1.0
 30
0.0
  9
$PUCSNAME
  2

  9
$PUCSORG
 10
0.0
 20
0.0
 30
0.0
  9
$PUCSXDIR
 10
1.0
 20
0.0
 30
0.0
  9
$PUCSYDIR
 10
0.0
 20
1.0
 30
0.0
  9
$USERI1
 70
     0
  9
$USERI2
 70
     0
  9
$USERI3
 70
     0
  9
$USERI4
 70
     0
  9
$USERI5
 70
     0
  9
$USERR1
 40
0.0
  9
$USERR2
 40
0.0
  9
$USERR3
 40
0.0
  9
$USERR4
 40
0.0
  9
$USERR5
 40
0.0
  9
$WORLDVIEW
 70
     1
  9
$SHADEDGE
 70
     3
  9
$SHADEDIF
 70
    70
  9
$TILEMODE
 70
     1
  9
$MAXACTVP
 70
    64
  9
$PINSBASE
 10
0.0
 20
0.0
 30
0.0
  9
$PLIMCHECK
 70
     0
  9
$PEXTMIN
 10
1.000000000000000E+20
 20
1.000000000000000E+20
 30
1.000000000000000E+20
  9
$PEXTMAX
 10
-1.000000000000000E+20
 20
-1.000000000000000E+20
 30
-1.000000000000000E+20
  9
$PLIMMIN
 10
0.0
 20
0.0
  9
$PLIMMAX
 10
841.0
 20
594.0
  9
$UNITMODE
 70
     0
  9
$VISRETAIN
 70
     1
  9
$PLINEGEN
 70
     0
  9
$PSLTSCALE
 70
     0
  9
$TREEDEPTH
 70
  3020
  9
$PICKSTYLE
 70
     0
  9
$CMLSTYLE
  2
STANDARD
  9
$CMLJUST
 70
     0
  9
$CMLSCALE
 40
20.0
  9
$PROXYGRAPHICS
 70
     1
  9
$MEASUREMENT
 70
     1
  0
ENDSEC
  0
SECTION
  2
CLASSES
  0
CLASS
  1
ACDBDICTIONARYWDFLT
  2
AcDbDictionaryWithDefault
  3
AutoCAD 2000
 90
        0
280
     0
281
     0
  0
CLASS
  1
ACDBPLACEHOLDER
  2
AcDbPlaceHolder
  3
AutoCAD 2000
 90
        0
280
     0
281
     0
  0
CLASS
  1
LAYOUT
  2
AcDbLayout
  3
AutoCAD 2000
 90
        0
280
     0
281
     0
  0
CLASS
  1
AMGSETTINGSOBJ
  2
AmgSettingsObj
  3
"AcadM|Product Description: AutoCAD Mechanical 2000|Company: Autodesk"
 90
        0
280
     0
281
     0
  0
CLASS
  1
ACME_DOCUMENT
  2
AcMeDbDoc
  3
AcMeServices
 90
        0
280
     0
281
     0
  0
CLASS
  1
ACMESCOPE
  2
AcMeScope
  3
AcMeServices
 90
        0
280
     0
281
     0
  0
CLASS
  1
ACMECOMMANDHISTORY
  2
AcMeCommandHistory
  3
AcMeServices
 90
        0
280
     0
281
     0
  0
CLASS
  1
DICTIONARYVAR
  2
AcDbDictionaryVar
  3
AutoCAD 2000
 90
        0
280
     0
281
     0
  0
CLASS
  1
ACIMSYSVARMAN
  2
AcImSysVarManager
  3
AcMeServices
 90
        0
280
     0
281
     0
  0
CLASS
  1
ACIMREALSYSVAR
  2
AcImRealSysVar
  3
AcMeServices
 90
        0
280
     0
281
     0
  0
CLASS
  1
ACIMINTSYSVAR
  2
AcImIntSysVar
  3
AcMeServices
 90
        0
280
     0
281
     0
  0
CLASS
  1
ACMEDRAWINGMAN
  2
AcMeDrawingMan
  3
AcMeServices
 90
        0
280
     0
281
     0
  0
CLASS
  1
ACMEVIEW
  2
AcMeView
  3
AcMeServices
 90
        0
280
     0
281
     0
  0
CLASS
  1
ACDBENTITYCACHE
  2
AcMeEntityCache
  3
AcMeServices
 90
        0
280
     0
281
     0
  0
CLASS
  1
GSMANAGER
  2
AcMeGSManager
  3
AcMeServices
 90
        0
280
     0
281
     0
  0
CLASS
  1
AmdtInternalReactor
  2
AmdtInternalReactor
  3
AcMeServices
 90
        0
280
     0
281
     0
  0
CLASS
  1
ACMESTATEMGR
  2
AcMeStateMgr
  3
AcMeServices
 90
        0
280
     0
281
     0
  0
CLASS
  1
ACME_DATABASE
  2
AcMeDbDatabase
  3
AcMeServices
 90
        0
280
     0
281
     0
  0
CLASS
  1
ACRFINSADJUSTERMGR
  2
AcRfInsAdjusterMgr
  3
AcMeServices
 90
        0
280
     0
281
     0
  0
CLASS
  1
ACMDATADICTIONARY
  2
AcmDataDictionary
  3
"AcmSymBB|Product Description: AutoCAD Mechanical 2000|Company: Autodesk"
 90
        0
280
     0
281
     0
  0
CLASS
  1
ACMDATAENTRYBLOCK
  2
AcmDataEntryBlock
  3
"AcmSymBB|Product Description: AutoCAD Mechanical 2000|Company: Autodesk"
 90
        0
280
     0
281
     0
  0
CLASS
  1
AMGOBJPROPCFG
  2
AmgObjPropCfg
  3
"AmgLay|Product Description: AutoCAD Mechanical 2000|Company: Autodesk"
 90
        1
280
     0
281
     0
  0
CLASS
  1
ACAMGFILTERDAT
  2
AcAmgFilterDat
  3
"AcadM|Product Description: AutoCAD Mechanical 2000|Company: Autodesk"
 90
        0
280
     0
281
     0
  0
CLASS
  1
LAYER_INDEX
  2
AcDbLayerIndex
  3
AutoCAD 2000
 90
        0
280
     0
281
     0
  0
CLASS
  1
IDBUFFER
  2
AcDbIdBuffer
  3
AutoCAD 2000
 90
        0
280
     0
281
     0
  0
CLASS
  1
ACIMSTRSYSVAR
  2
AcImStrSysVar
  3
AcMeServices
 90
        0
280
     0
281
     0
  0
CLASS
  1
ACMSTANDARDJIS
  2
AcmStandardJIS
  3
"AcmSymBB|Product Description: AutoCAD Mechanical 2000|Company: Autodesk"
 90
        0
280
     0
281
     0
  0
CLASS
  1
ACMSURFSTANDARDJIS
  2
AcmSurfTextStdJIS
  3
"AcmSymBB|Product Description: AutoCAD Mechanical 2000|Company: Autodesk"
 90
        0
280
     0
281
     0
  0
CLASS
  1
ACMFCFSTANDARDJIS
  2
AcmFCFStdJIS
  3
"AcmSymBB|Product Description: AutoCAD Mechanical 2000|Company: Autodesk"
 90
        0
280
     0
281
     0
  0
CLASS
  1
ACMWELDSTANDARDJIS
  2
AcmWeldingStdJIS
  3
"AcmSymBB|Product Description: AutoCAD Mechanical 2000|Company: Autodesk"
 90
        0
280
     0
281
     0
  0
CLASS
  1
ACMIDSTANDARDJIS
  2
AcmIdStdJIS
  3
"AcmSymBB|Product Description: AutoCAD Mechanical 2000|Company: Autodesk"
 90
        0
280
     0
281
     0
  0
CLASS
  1
ACMDATUMSTANDARDJIS
  2
AcmDatumStdJIS
  3
"AcmSymBB|Product Description: AutoCAD Mechanical 2000|Company: Autodesk"
 90
        0
280
     0
281
     0
  0
CLASS
  1
ACMBOMSTANDARDJIS
  2
AcmBOMStdJIS
  3
"AcmSymBB|Product Description: AutoCAD Mechanical 2000|Company: Autodesk"
 90
        0
280
     0
281
     0
  0
CLASS
  1
ACMSTANDARDANSI
  2
AcmStandardANSI
  3
"AcmSymBB|Product Description: AutoCAD Mechanical 2000|Company: Autodesk"
 90
        0
280
     0
281
     0
  0
CLASS
  1
ACMSURFSTANDARDANSI
  2
AcmSurfTextStdANSI
  3
"AcmSymBB|Product Description: AutoCAD Mechanical 2000|Company: Autodesk"
 90
        0
280
     0
281
     0
  0
CLASS
  1
ACMFCFSTANDARDANSI
  2
AcmFCFStdANSI
  3
"AcmSymBB|Product Description: AutoCAD Mechanical 2000|Company: Autodesk"
 90
        0
280
     0
281
     0
  0
CLASS
  1
ACMWELDSTANDARDANSI
  2
AcmWeldingStdANSI
  3
"AcmSymBB|Product Description: AutoCAD Mechanical 2000|Company: Autodesk"
 90
        0
280
     0
281
     0
  0
CLASS
  1
ACMIDSTANDARDANSI
  2
AcmIdStdANSI
  3
"AcmSymBB|Product Description: AutoCAD Mechanical 2000|Company: Autodesk"
 90
        0
280
     0
281
     0
  0
CLASS
  1
ACMDATUMSTANDARDANSI
  2
AcmDatumStdANSI
  3
"AcmSymBB|Product Description: AutoCAD Mechanical 2000|Company: Autodesk"
 90
        0
280
     0
281
     0
  0
CLASS
  1
ACMBOMSTANDARDANSI
  2
AcmBOMStdANSI
  3
"AcmSymBB|Product Description: AutoCAD Mechanical 2000|Company: Autodesk"
 90
        0
280
     0
281
     0
  0
CLASS
  1
ACMSTANDARDBSI
  2
AcmStandardBSI
  3
"AcmSymBB|Product Description: AutoCAD Mechanical 2000|Company: Autodesk"
 90
        0
280
     0
281
     0
  0
CLASS
  1
ACMSURFSTANDARDBSI
  2
AcmSurfTextStdBSI
  3
"AcmSymBB|Product Description: AutoCAD Mechanical 2000|Company: Autodesk"
 90
        0
280
     0
281
     0
  0
CLASS
  1
ACMFCFSTANDARDBSI
  2
AcmFCFStdBSI
  3
"AcmSymBB|Product Description: AutoCAD Mechanical 2000|Company: Autodesk"
 90
        0
280
     0
281
     0
  0
CLASS
  1
ACMWELDSTANDARDBSI
  2
AcmWeldingStdBSI
  3
"AcmSymBB|Product Description: AutoCAD Mechanical 2000|Company: Autodesk"
 90
        0
280
     0
281
     0
  0
CLASS
  1
ACMIDSTANDARDBSI
  2
AcmIdStdBSI
  3
"AcmSymBB|Product Description: AutoCAD Mechanical 2000|Company: Autodesk"
 90
        0
280
     0
281
     0
  0
CLASS
  1
ACMDATUMSTANDARDBSI
  2
AcmDatumStdBSI
  3
"AcmSymBB|Product Description: AutoCAD Mechanical 2000|Company: Autodesk"
 90
        0
280
     0
281
     0
  0
CLASS
  1
ACMBOMSTANDARDBSI
  2
AcmBOMStdBSI
  3
"AcmSymBB|Product Description: AutoCAD Mechanical 2000|Company: Autodesk"
 90
        0
280
     0
281
     0
  0
CLASS
  1
LONG_TRANSACTION
  2
AcDbLongTransaction
  3
AutoCAD 2000
 90
        0
280
     0
281
     0
  0
CLASS
  1
LWPOLYLINE
  2
AcDbPolyline
  3
AutoCAD 2000
 90
        0
280
     0
281
     1
  0
CLASS
  1
HATCH
  2
AcDbHatch
  3
AutoCAD 2000
 90
        0
280
     0
281
     1
  0
CLASS
  1
XRECORD
  2
AcDbXrecord
  3
AutoCAD 2000
 90
        0
280
     0
281
     0
  0
ENDSEC
  0
SECTION
  2
TABLES
  0
TABLE
  2
VPORT
  5
8
330
0
100
AcDbSymbolTable
 70
     3
  0
VPORT
  5
1CD2
330
8
100
AcDbSymbolTableRecord
100
AcDbViewportTableRecord
  2
*ACTIVE
 70
     0
 10
0.0
 20
0.0
 11
1.0
 21
1.0
 12
-55.87944705525609
 22
-23.76145110162132
 13
0.0
 23
0.0
 14
2.5
 24
2.5
 15
10.0
 25
10.0
 16
0.0
 26
0.0
 36
1.0
 17
0.0
 27
0.0
 37
0.0
 40
96.71674169293694
 41
1.56570841889117
 42
50.0
 43
0.0
 44
0.0
 50
0.0
 51
0.0
 71
     0
 72
   100
 73
     1
 74
     3
 75
     0
 76
     0
 77
     0
 78
     0
  0
ENDTAB
  0
TABLE
  2
LTYPE
  5
5
330
0
100
AcDbSymbolTable
 70
    10
  0
LTYPE
  5
14
330
5
100
AcDbSymbolTableRecord
100
AcDbLinetypeTableRecord
  2
BYBLOCK
 70
     0
  3

 72
    65
 73
     0
 40
0.0
  0
LTYPE
  5
15
330
5
100
AcDbSymbolTableRecord
100
AcDbLinetypeTableRecord
  2
BYLAYER
 70
     0
  3

 72
    65
 73
     0
 40
0.0
  0
LTYPE
  5
16
330
5
100
AcDbSymbolTableRecord
100
AcDbLinetypeTableRecord
  2
CONTINUOUS
 70
     0
  3
Solid line
 72
    65
 73
     0
 40
0.0
  0
LTYPE
  5
4B
330
5
100
AcDbSymbolTableRecord
100
AcDbLinetypeTableRecord
  2
AM_ISO02W050
 70
     0
  3
__ __ __ __ __ __ __ __ __ __ __ __ __ __ __
 72
    65
 73
     2
 40
7.5
 49
6.0
 74
     0
 49
-1.5
 74
     0
  0
LTYPE
  5
4C
330
5
100
AcDbSymbolTableRecord
100
AcDbLinetypeTableRecord
  2
AM_ISO08W050
 70
     0
  3
____ . ____ . ____ . ____ . ____ . ____ . ____
 72
    65
 73
     4
 40
18.0
 49
12.0
 74
     0
 49
-1.5
 74
     0
 49
3.0
 74
     0
 49
-1.5
 74
     0
  0
LTYPE
  5
4D
330
5
100
AcDbSymbolTableRecord
100
AcDbLinetypeTableRecord
  2
AM_ISO09W050
 70
     0
  3
_____ . . _____ . . _____ . . ____ .. ____
 72
    65
 73
     6
 40
22.5
 49
12.0
 74
     0
 49
-1.5
 74
     0
 49
3.0
 74
     0
 49
-1.5
 74
     0
 49
3.0
 74
     0
 49
-1.5
 74
     0
  0
LTYPE
  5
4E
330
5
100
AcDbSymbolTableRecord
100
AcDbLinetypeTableRecord
  2
AMCONSTR
 70
     0
  3
_______________________
 72
    65
 73
     2
 40
9999.0
 49
9999.0
 74
     0
 49
0.0
 74
     0
  0
LTYPE
  5
4F
330
5
100
AcDbSymbolTableRecord
100
AcDbLinetypeTableRecord
  2
AM_ISO02W050X2
 70
     0
  3
 _ _ _ _ _ _ _ _ _ _ _ _
 72
    65
 73
     2
 40
3.75
 49
3.0
 74
     0
 49
-0.75
 74
     0
  0
LTYPE
  5
50
330
5
100
AcDbSymbolTableRecord
100
AcDbLinetypeTableRecord
  2
AM_ISO08W050X2
 70
     0
  3
__ . __ . __ . __ . __ . __
 72
    65
 73
     4
 40
9.0
 49
6.0
 74
     0
 49
-0.75
 74
     0
 49
1.5
 74
     0
 49
-0.75
 74
     0
  0
LTYPE
  5
53
330
5
100
AcDbSymbolTableRecord
100
AcDbLinetypeTableRecord
  2
AMZIGZAG
 70
     0
  3
/\/-/\/-/\/-/\/-/\/-/\/
 72
    65
 73
     2
 40
11.00009999999999
 49
0.0001
 74
     4
 75
   135
340
52
 46
0.04
 50
0.0
 44
0.0
 45
0.0
 49
-11.0
 74
     0
  0
LTYPE
  5
166
330
5
100
AcDbSymbolTableRecord
100
AcDbLinetypeTableRecord
  2
ACJISTGL
 70
     0
  3
_ _ _ _ _
 72
    65
 73
     2
 40
3.0
 49
2.0
 74
     0
 49
-1.0
 74
     0
  0
LTYPE
  5
26A
330
5
100
AcDbSymbolTableRecord
100
AcDbLinetypeTableRecord
  2
ACJISTGB
 70
     0
  3
__ . . __ . .
 72
    65
 73
     6
 40
9.0
 49
4.0
 74
     0
 49
-1.0
 74
     0
 49
1.0
 74
     0
 49
-1.0
 74
     0
 49
1.0
 74
     0
 49
-1.0
 74
     0
  0
ENDTAB
  0
TABLE
  2
LAYER
  5
2
330
0
100
AcDbSymbolTable
 70
     7
  0
LAYER
  5
10
330
2
100
AcDbSymbolTableRecord
100
AcDbLayerTableRecord
  2
0
 70
     0
 62
     7
  6
CONTINUOUS
  0
LAYER
  5
3F9
330
2
100
AcDbSymbolTableRecord
100
AcDbLayerTableRecord
  2
AM_0
 70
     0
 62
     7
  6
CONTINUOUS
  0
LAYER
  5
BA4
330
2
100
AcDbSymbolTableRecord
100
AcDbLayerTableRecord
  2
AM_11
 70
     0
 62
     3
  6
AM_ISO09W050
  0
LAYER
  5
BA5
330
2
100
AcDbSymbolTableRecord
100
AcDbLayerTableRecord
  2
AM_7
 70
     0
 62
     4
  6
AM_ISO08W050
  0
LAYER
  5
D38
330
2
100
AcDbSymbolTableRecord
100
AcDbLayerTableRecord
  2
AM_5
 70
     0
 62
     3
  6
CONTINUOUS
  0
LAYER
  5
D3A
330
2
100
AcDbSymbolTableRecord
100
AcDbLayerTableRecord
  2
DEFPOINTS
 70
     0
 62
     7
  6
CONTINUOUS
  0
LAYER
  5
F16
330
2
100
AcDbSymbolTableRecord
100
AcDbLayerTableRecord
  2
AM_6
 70
     0
 62
     2
  6
CONTINUOUS
  0
ENDTAB
  0
TABLE
  2
STYLE
  5
3
330
0
100
AcDbSymbolTable
 70
     5
  0
STYLE
  5
11
330
3
100
AcDbSymbolTableRecord
100
AcDbTextStyleTableRecord
  2
STANDARD
 70
     0
 40
0.0
 41
1.0
 50
0.0
 71
     0
 42
2.5
  3
simplex.shx
  4
EXTFONT.SHX
  0
STYLE
  5
52
330
3
100
AcDbSymbolTableRecord
100
AcDbTextStyleTableRecord
  2

 70
     1
 40
0.0
 41
1.0
 50
0.0
 71
     0
 42
2.5
  3
ltypeshp.shx
  4

  0
STYLE
  5
6B
330
3
100
AcDbSymbolTableRecord
100
AcDbTextStyleTableRecord
  2
ASAMI
 70
     0
 40
0.0
 41
1.0
 50
0.0
 71
     0
 42
2.5
  3
simplex.shx
  4
EXTFONT.SHX
  0
STYLE
  5
262
330
3
100
AcDbSymbolTableRecord
100
AcDbTextStyleTableRecord
  2
ACJISTS
 70
     0
 40
1.0
 41
1.0
 50
0.0
 71
     0
 42
2.5
  3
simplex.shx
  4
bigfont.shx
  0
STYLE
  5
269
330
3
100
AcDbSymbolTableRecord
100
AcDbTextStyleTableRecord
  2
ACJISGDT
 70
     0
 40
0.0
 41
1.0
 50
0.0
 71
     0
 42
2.5
  3
amgdtans.shx
  4

  0
ENDTAB
  0
TABLE
  2
VIEW
  5
6
330
0
100
AcDbSymbolTable
 70
     0
  0
ENDTAB
  0
TABLE
  2
UCS
  5
7
330
0
100
AcDbSymbolTable
 70
     0
  0
ENDTAB
  0
TABLE
  2
APPID
  5
9
330
0
100
AcDbSymbolTable
 70
    12
  0
APPID
  5
12
330
9
100
AcDbSymbolTableRecord
100
AcDbRegAppTableRecord
  2
ACAD
 70
     0
  0
APPID
  5
30
330
9
100
AcDbSymbolTableRecord
100
AcDbRegAppTableRecord
  2
MCAD_NO_VIS
 70
     0
  0
APPID
  5
31
330
9
100
AcDbSymbolTableRecord
100
AcDbRegAppTableRecord
  2
ACAD_TEMP_GRAPHIC
 70
     0
  0
APPID
  5
2C2
330
9
100
AcDbSymbolTableRecord
100
AcDbRegAppTableRecord
  2
GENIUS_GENDTOL_13
 70
     0
  0
APPID
  5
339
330
9
100
AcDbSymbolTableRecord
100
AcDbRegAppTableRecord
  2
GENIUS_GENODEF_13
 70
     0
  0
APPID
  5
33A
330
9
100
AcDbSymbolTableRecord
100
AcDbRegAppTableRecord
  2
GENIUS_GENOBJ-N-RSBK_13
 70
     0
  0
APPID
  5
33B
330
9
100
AcDbSymbolTableRecord
100
AcDbRegAppTableRecord
  2
GENIUS_GENOBJ-N-LIB_13
 70
     0
  0
APPID
  5
33C
330
9
100
AcDbSymbolTableRecord
100
AcDbRegAppTableRecord
  2
GENIUS_GENSCALE_13
 70
     0
  0
APPID
  5
378
330
9
100
AcDbSymbolTableRecord
100
AcDbRegAppTableRecord
  2
GENIUS_GENDIMSH_14
 70
     0
  0
APPID
  5
BA6
330
9
100
AcDbSymbolTableRecord
100
AcDbRegAppTableRecord
  2
GENIUS_GENOBJ-N-CEN_13
 70
     0
  0
APPID
  5
D2B
330
9
100
AcDbSymbolTableRecord
100
AcDbRegAppTableRecord
  2
GENIUS_GENFIL_13
 70
     0
  0
APPID
  5
D2C
330
9
100
AcDbSymbolTableRecord
100
AcDbRegAppTableRecord
  2
GENIUS_GENOBJ-N-CHA_13
 70
     0
  0
ENDTAB
  0
TABLE
  2
DIMSTYLE
  5
A
330
0
100
AcDbSymbolTable
 70
     8
  0
DIMSTYLE
105
58
102
{ACAD_REACTORS
330
17D7
330
191A
330
18F0
330
1B51
102
}
330
A
100
AcDbSymbolTableRecord
100
AcDbDimStyleTableRecord
  2
AM_JIS
 70
     0
  3

  4
"
  5
OPEN30
  6

  7

 40
1.0
 41
2.5
 42
1.0
 43
12.0
 44
1.0
 45
0.0
 46
0.0
 47
0.1
 48
0.1
140
3.2
141
0.0
142
0.0
143
0.0393701
144
1.0
145
0.0
146
0.71
147
1.5
 71
     0
 72
     0
 73
     0
 74
     0
 75
     0
 76
     0
 77
     3
 78
     8
170
     0
171
     2
172
     1
173
     0
174
     0
175
     0
176
   256
177
   256
178
     2
270
     2
271
     3
272
     3
273
     2
274
     2
340
6B
275
     0
280
     0
281
     0
282
     0
283
     0
284
     0
285
     0
286
     0
287
     3
288
     0
  0
DIMSTYLE
105
5F
330
A
100
AcDbSymbolTableRecord
100
AcDbDimStyleTableRecord
  2
AM_JIS$3
 70
     0
  3

  4
"
  5
OPEN30
  6

  7

 40
1.0
 41
2.5
 42
1.0
 43
10.0
 44
1.0
 45
0.0
 46
0.0
 47
0.1
 48
0.1
140
3.2
141
0.0
142
0.0
143
0.0393701
144
1.0
145
0.0
146
0.71
147
1.5
 71
     0
 72
     0
 73
     0
 74
     1
 75
     0
 76
     0
 77
     3
 78
     8
170
     0
171
     2
172
     0
173
     0
174
     0
175
     0
176
   256
177
   256
178
     2
270
     2
271
     2
272
     3
273
     2
274
     2
340
6B
275
     0
280
     0
281
     0
282
     0
283
     0
284
     0
285
     0
286
     0
287
     0
288
     1
  0
DIMSTYLE
105
60
330
A
100
AcDbSymbolTableRecord
100
AcDbDimStyleTableRecord
  2
AM_JIS$4
 70
     0
  3

  4
"
  5
OPEN30
  6

  7

 40
1.0
 41
2.5
 42
1.0
 43
10.0
 44
1.0
 45
0.0
 46
0.0
 47
0.1
 48
0.1
140
3.2
141
0.0
142
0.0
143
0.0393701
144
1.0
145
0.0
146
0.71
147
1.5
 71
     0
 72
     0
 73
     0
 74
     1
 75
     0
 76
     0
 77
     3
 78
     8
170
     0
171
     2
172
     0
173
     0
174
     0
175
     0
176
   256
177
   256
178
     2
270
     2
271
     2
272
     3
273
     2
274
     2
340
6B
275
     0
280
     0
281
     0
282
     0
283
     0
284
     0
285
     0
286
     0
287
     0
288
     1
  0
DIMSTYLE
105
61
330
A
100
AcDbSymbolTableRecord
100
AcDbDimStyleTableRecord
  2
AM_JIS$6
 70
     0
  3

  4
"
  5
OPEN30
  6

  7

 40
1.0
 41
2.5
 42
1.0
 43
10.0
 44
1.0
 45
0.0
 46
0.0
 47
0.1
 48
0.1
140
3.2
141
0.0
142
0.0
143
0.0393701
144
1.0
145
0.0
146
0.71
147
1.5
 71
     0
 72
     0
 73
     0
 74
     0
 75
     0
 76
     0
 77
     0
 78
     8
170
     0
171
     2
172
     1
173
     0
174
     0
175
     0
176
   256
177
   256
178
     2
270
     2
271
     2
272
     2
273
     2
274
     2
340
6B
275
     0
280
     0
281
     0
282
     0
283
     0
284
     0
285
     0
286
     0
287
     3
288
     0
  0
DIMSTYLE
105
62
330
A
100
AcDbSymbolTableRecord
100
AcDbDimStyleTableRecord
  2
AM_JIS$7
 70
     0
  3

  4
"
  5
OPEN30
  6

  7

 40
1.0
 41
2.5
 42
1.0
 43
10.0
 44
1.0
 45
0.0
 46
0.0
 47
0.1
 48
0.1
140
3.2
141
0.0
142
0.0
143
0.0393701
144
1.0
145
0.0
146
0.71
147
1.5
 71
     0
 72
     0
 73
     0
 74
     0
 75
     0
 76
     0
 77
     3
 78
     8
170
     0
171
     2
172
     1
173
     0
174
     0
175
     0
176
   256
177
   256
178
     2
270
     2
271
     2
272
     3
273
     2
274
     2
340
6B
275
     0
280
     0
281
     0
282
     0
283
     0
284
     0
285
     0
286
     0
287
     3
288
     0
  0
DIMSTYLE
105
63
330
A
100
AcDbSymbolTableRecord
100
AcDbDimStyleTableRecord
  2
AM_JIS$SF
 70
     0
  3

  4
"
  5
OPEN30
  6

  7

 40
1.0
 41
2.5
 42
1.0
 43
10.0
 44
1.0
 45
0.0
 46
0.0
 47
0.1
 48
0.1
140
3.2
141
0.0
142
0.0
143
0.0393701
144
1.0
145
0.0
146
0.71
147
1.5
 71
     0
 72
     0
 73
     0
 74
     0
 75
     1
 76
     1
 77
     3
 78
     8
170
     0
171
     2
172
     1
173
     0
174
     0
175
     0
176
   256
177
   256
178
     2
270
     2
271
     2
272
     2
273
     2
274
     2
340
6B
275
     0
280
     0
281
     0
282
     0
283
     0
284
     0
285
     0
286
     0
287
     3
288
     0
  0
DIMSTYLE
105
68
330
A
100
AcDbSymbolTableRecord
100
AcDbDimStyleTableRecord
  2
AM_JIS$SH
 70
     0
  3

  4
"
  5

  6
GENAXEH
  7
OPEN30
 40
1.0
 41
2.5
 42
1.0
 43
10.0
 44
1.0
 45
0.0
 46
0.0
 47
0.1
 48
0.1
140
3.2
141
0.0
142
0.0
143
0.0393701
144
2.0
145
0.0
146
0.71
147
1.5
 71
     0
 72
     0
 73
     0
 74
     0
 75
     1
 76
     1
 77
     3
 78
     8
170
     0
171
     2
172
     1
173
     1
174
     0
175
     0
176
   256
177
   256
178
     2
270
     2
271
     2
272
     2
273
     2
274
     2
340
6B
275
     0
280
     0
281
     0
282
     0
283
     0
284
     0
285
     0
286
     0
287
     3
288
     0
  0
DIMSTYLE
105
B34
330
A
100
AcDbSymbolTableRecord
100
AcDbDimStyleTableRecord
  2
AM_JIS$2
 70
     0
  3

  4
"
  5
OPEN30
  6

  7

 40
1.0
 41
2.5
 42
1.0
 43
12.0
 44
1.0
 45
0.0
 46
0.0
 47
0.1
 48
0.1
140
3.2
141
0.0
142
0.0
143
0.0393701
144
1.0
145
0.0
146
0.71
147
1.5
 71
     0
 72
     0
 73
     0
 74
     0
 75
     0
 76
     0
 77
     3
 78
     8
170
     0
171
     2
172
     1
173
     0
174
     0
175
     0
176
   256
177
   256
178
     2
270
     2
271
     3
272
     3
273
     2
274
     2
340
6B
275
     0
280
     0
281
     0
282
     0
283
     0
284
     0
285
     0
286
     0
287
     3
288
     0
  0
ENDTAB
  0
TABLE
  2
BLOCK_RECORD
  5
1
330
0
100
AcDbSymbolTable
 70
     9
  0
BLOCK_RECORD
  5
1F
102
{ACAD_XDICTIONARY
360
74
102
}
330
1
100
AcDbSymbolTableRecord
100
AcDbBlockTableRecord
  2
*MODEL_SPACE
  0
BLOCK_RECORD
  5
101
102
{ACAD_XDICTIONARY
360
1CFB
102
}
330
1
100
AcDbSymbolTableRecord
100
AcDbBlockTableRecord
  2
*PAPER_SPACE
  0
BLOCK_RECORD
  5
59
330
1
100
AcDbSymbolTableRecord
100
AcDbBlockTableRecord
  2
_OPEN30
  0
BLOCK_RECORD
  5
64
330
1
100
AcDbSymbolTableRecord
100
AcDbBlockTableRecord
  2
GENAXEH
  0
BLOCK_RECORD
  5
17D8
330
1
100
AcDbSymbolTableRecord
100
AcDbBlockTableRecord
  2
*D5
  0
BLOCK_RECORD
  5
18F1
330
1
100
AcDbSymbolTableRecord
100
AcDbBlockTableRecord
  2
*D6
  0
BLOCK_RECORD
  5
191B
330
1
100
AcDbSymbolTableRecord
100
AcDbBlockTableRecord
  2
*D7
  0
BLOCK_RECORD
  5
1B52
330
1
100
AcDbSymbolTableRecord
100
AcDbBlockTableRecord
  2
*D8
  0
ENDTAB
  0
ENDSEC
  0
SECTION
  2
BLOCKS
  0
BLOCK
  5
20
330
1F
100
AcDbEntity
  8
0
100
AcDbBlockBegin
  2
*MODEL_SPACE
 70
     0
 10
0.0
 20
0.0
 30
0.0
  3
*MODEL_SPACE
  1

  0
ENDBLK
  5
21
330
1F
100
AcDbEntity
  8
0
100
AcDbBlockEnd
  0
BLOCK
  5
103
330
101
100
AcDbEntity
 67
     1
  8
0
100
AcDbBlockBegin
  2
*PAPER_SPACE
 70
     0
 10
0.0
 20
0.0
 30
0.0
  3
*PAPER_SPACE
  1

  0
ENDBLK
  5
104
330
101
100
AcDbEntity
 67
     1
  8
0
100
AcDbBlockEnd
  0
BLOCK
  5
5D
330
59
100
AcDbEntity
  8
0
100
AcDbBlockBegin
  2
_OPEN30
 70
     0
 10
0.0
 20
0.0
 30
0.0
  3
_OPEN30
  1

  0
LINE
  5
5A
330
59
100
AcDbEntity
  8
0
 62
     0
100
AcDbLine
 10
-1.0
 20
0.26794919
 30
0.0
 11
0.0
 21
0.0
 31
0.0
  0
LINE
  5
5B
330
59
100
AcDbEntity
  8
0
 62
     0
100
AcDbLine
 10
0.0
 20
0.0
 30
0.0
 11
-1.0
 21
-0.26794919
 31
0.0
  0
LINE
  5
5C
330
59
100
AcDbEntity
  8
0
 62
     0
100
AcDbLine
 10
0.0
 20
0.0
 30
0.0
 11
-1.0
 21
0.0
 31
0.0
  0
ENDBLK
  5
5E
330
59
100
AcDbEntity
  8
0
100
AcDbBlockEnd
  0
BLOCK
  5
66
330
64
100
AcDbEntity
  8
0
100
AcDbBlockBegin
  2
GENAXEH
 70
     0
 10
0.0
 20
0.0
 30
0.0
  3
GENAXEH
  1

  0
LINE
  5
65
330
64
100
AcDbEntity
  8
0
100
AcDbLine
 10
-1.0
 20
0.0
 30
0.0
 11
1.0
 21
0.0
 31
0.0
  0
ENDBLK
  5
67
330
64
100
AcDbEntity
  8
0
100
AcDbBlockEnd
  0
BLOCK
  5
17E2
330
17D8
100
AcDbEntity
  8
0
100
AcDbBlockBegin
  2
*D5
 70
     1
 10
0.0
 20
0.0
 30
0.0
  3
*D5
  1

  0
LINE
  5
1C1C
330
17D8
100
AcDbEntity
  8
AM_5
100
AcDbLine
 10
-110.4999999999999
 20
-8.00000000000006
 30
0.0
 11
-127.5931425575492
 21
-8.000000000000055
 31
0.0
  0
LINE
  5
1C1D
330
17D8
100
AcDbEntity
  8
AM_5
100
AcDbLine
 10
-110.4999999999999
 20
7.99999999999996
 30
0.0
 11
-127.5931425575492
 21
7.999999999999965
 31
0.0
  0
LINE
  5
1C1E
330
17D8
100
AcDbEntity
  8
AM_5
100
AcDbLine
 10
-126.5931425575492
 20
-5.500000000000055
 30
0.0
 11
-126.5931425575492
 21
5.499999999999965
 31
0.0
  0
INSERT
  5
1C1F
330
17D8
100
AcDbEntity
  8
AM_5
100
AcDbBlockReference
  2
_OPEN30
 10
-126.5931425575492
 20
-8.000000000000055
 30
0.0
 41
2.5
 42
2.5
 43
2.5
 50
270.0
  0
INSERT
  5
1C20
330
17D8
100
AcDbEntity
  8
AM_5
100
AcDbBlockReference
  2
_OPEN30
 10
-126.5931425575492
 20
7.999999999999965
 30
0.0
 41
2.5
 42
2.5
 43
2.5
 50
90.0
  0
MTEXT
  5
1C21
330
17D8
100
AcDbEntity
  8
AM_5
 62
     2
100
AcDbMText
 10
-129.6931425575492
 20
-0.0000000000000651
 30
0.0
 40
3.2
 41
0.0
 71
     5
 72
     1
  1
%%c16
  7
ASAMI
 11
0.0000000000000001
 21
1.0
 31
0.0
1001
ACAD
1000
MTEXTBEGIN
1070
    73
1070
     1
1070
    44
1040
1.0
1070
    74
1070
     0
1000
MTEXTEND
  0
POINT
  5
1C22
330
17D8
100
AcDbEntity
  8
DEFPOINTS
 62
     0
100
AcDbPoint
 10
-109.4999999999999
 20
-8.00000000000006
 30
0.0
  0
POINT
  5
1C23
330
17D8
100
AcDbEntity
  8
DEFPOINTS
 62
     0
100
AcDbPoint
 10
-109.4999999999999
 20
7.99999999999996
 30
0.0
  0
POINT
  5
1C24
330
17D8
100
AcDbEntity
  8
DEFPOINTS
 62
     0
100
AcDbPoint
 10
-126.5931425575492
 20
7.999999999999965
 30
0.0
  0
ENDBLK
  5
17E3
330
17D8
100
AcDbEntity
  8
0
100
AcDbBlockEnd
  0
BLOCK
  5
18FB
330
18F1
100
AcDbEntity
  8
0
100
AcDbBlockBegin
  2
*D6
 70
     1
 10
0.0
 20
0.0
 30
0.0
  3
*D6
  1

  0
LINE
  5
1C2E
330
18F1
100
AcDbEntity
  8
AM_5
100
AcDbLine
 10
1.000000000018845
 20
-7.500000000061894
 30
0.0
 11
19.53057127860813
 21
-7.500000000061899
 31
0.0
  0
LINE
  5
1C2F
330
18F1
100
AcDbEntity
  8
AM_5
100
AcDbLine
 10
1.000000000018846
 20
7.49999999999994
 30
0.0
 11
19.53057127860813
 21
7.499999999999935
 31
0.0
  0
LINE
  5
1C30
330
18F1
100
AcDbEntity
  8
AM_5
100
AcDbLine
 10
18.53057127860814
 20
-5.000000000061899
 30
0.0
 11
18.53057127860814
 21
4.999999999999935
 31
0.0
  0
INSERT
  5
1C31
330
18F1
100
AcDbEntity
  8
AM_5
100
AcDbBlockReference
  2
_OPEN30
 10
18.53057127860814
 20
-7.500000000061899
 30
0.0
 41
2.5
 42
2.5
 43
2.5
 50
270.0
  0
INSERT
  5
1C32
330
18F1
100
AcDbEntity
  8
AM_5
100
AcDbBlockReference
  2
_OPEN30
 10
18.53057127860814
 20
7.499999999999935
 30
0.0
 41
2.5
 42
2.5
 43
2.5
 50
90.0
  0
MTEXT
  5
1C33
330
18F1
100
AcDbEntity
  8
AM_5
 62
     2
100
AcDbMText
 10
15.43057127860813
 20
-0.0000000000309786
 30
0.0
 40
3.2
 41
0.0
 71
     5
 72
     1
  1
%%c15
  7
ASAMI
 11
0.0000000000000001
 21
1.0
 31
0.0
1001
ACAD
1000
MTEXTBEGIN
1070
    73
1070
     1
1070
    44
1040
1.0
1070
    74
1070
     0
1000
MTEXTEND
  0
POINT
  5
1C34
330
18F1
100
AcDbEntity
  8
DEFPOINTS
 62
     0
100
AcDbPoint
 10
0.0000000000188454
 20
-7.500000000061894
 30
0.0
  0
POINT
  5
1C35
330
18F1
100
AcDbEntity
  8
DEFPOINTS
 62
     0
100
AcDbPoint
 10
0.0000000000188461
 20
7.49999999999994
 30
0.0
  0
POINT
  5
1C36
330
18F1
100
AcDbEntity
  8
DEFPOINTS
 62
     0
100
AcDbPoint
 10
18.53057127860814
 20
7.499999999999935
 30
0.0
  0
ENDBLK
  5
18FC
330
18F1
100
AcDbEntity
  8
0
100
AcDbBlockEnd
  0
BLOCK
  5
1925
330
191B
100
AcDbEntity
  8
0
100
AcDbBlockBegin
  2
*D7
 70
     1
 10
0.0
 20
0.0
 30
0.0
  3
*D7
  1

  0
LINE
  5
1C25
330
191B
100
AcDbEntity
  8
AM_5
100
AcDbLine
 10
-0.0000000000000001
 20
-8.5
 30
0.0
 11
-0.000000000000001
 21
-23.03571428571428
 31
0.0
  0
LINE
  5
1C26
330
191B
100
AcDbEntity
  8
AM_5
100
AcDbLine
 10
-26.0
 20
-8.495927287774366
 30
0.0
 11
-26.0
 21
-23.03571428571428
 31
0.0
  0
LINE
  5
1C27
330
191B
100
AcDbEntity
  8
AM_5
100
AcDbLine
 10
-2.5
 20
-22.03571428571428
 30
0.0
 11
-23.5
 21
-22.03571428571428
 31
0.0
  0
INSERT
  5
1C28
330
191B
100
AcDbEntity
  8
AM_5
100
AcDbBlockReference
  2
_OPEN30
 10
-0.0000000000000009
 20
-22.03571428571428
 30
0.0
 41
2.5
 42
2.5
 43
2.5
  0
INSERT
  5
1C29
330
191B
100
AcDbEntity
  8
AM_5
100
AcDbBlockReference
  2
_OPEN30
 10
-26.0
 20
-22.03571428571428
 30
0.0
 41
2.5
 42
2.5
 43
2.5
 50
180.0
  0
MTEXT
  5
1C2A
330
191B
100
AcDbEntity
  8
AM_5
 62
     2
100
AcDbMText
 10
-13.0
 20
-18.93571428571428
 30
0.0
 40
3.2
 41
0.0
 71
     5
 72
     1
  1
26
  7
ASAMI
1001
ACAD
1000
MTEXTBEGIN
1070
    73
1070
     1
1070
    44
1040
1.0
1070
    74
1070
     0
1000
MTEXTEND
  0
POINT
  5
1C2B
330
191B
100
AcDbEntity
  8
DEFPOINTS
 62
     0
100
AcDbPoint
 10
0.0
 20
-7.499999999999999
 30
0.0
  0
POINT
  5
1C2C
330
191B
100
AcDbEntity
  8
DEFPOINTS
 62
     0
100
AcDbPoint
 10
-26.0
 20
-7.495927287774366
 30
0.0
  0
POINT
  5
1C2D
330
191B
100
AcDbEntity
  8
DEFPOINTS
 62
     0
100
AcDbPoint
 10
-26.0
 20
-22.03571428571428
 30
0.0
  0
ENDBLK
  5
1926
330
191B
100
AcDbEntity
  8
0
100
AcDbBlockEnd
  0
BLOCK
  5
1B5C
330
1B52
100
AcDbEntity
  8
0
100
AcDbBlockBegin
  2
*D8
 70
     1
 10
0.0
 20
0.0
 30
0.0
  3
*D8
  1

  0
LINE
  5
1C13
330
1B52
100
AcDbEntity
  8
AM_5
100
AcDbLine
 10
-110.0
 20
-8.714285714285779
 30
0.0
 11
-110.0
 21
-35.03571428571428
 31
0.0
  0
LINE
  5
1C14
330
1B52
100
AcDbEntity
  8
AM_5
100
AcDbLine
 10
-0.0000000000000005
 20
-9.035714285714284
 30
0.0
 11
-0.0000000000000021
 21
-35.03571428571428
 31
0.0
  0
LINE
  5
1C15
330
1B52
100
AcDbEntity
  8
AM_5
100
AcDbLine
 10
-107.4999999999999
 20
-34.03571428571428
 30
0.0
 11
-2.500000000000002
 21
-34.03571428571428
 31
0.0
  0
INSERT
  5
1C16
330
1B52
100
AcDbEntity
  8
AM_5
100
AcDbBlockReference
  2
_OPEN30
 10
-110.0
 20
-34.03571428571428
 30
0.0
 41
2.5
 42
2.5
 43
2.5
 50
180.0
  0
INSERT
  5
1C17
330
1B52
100
AcDbEntity
  8
AM_5
100
AcDbBlockReference
  2
_OPEN30
 10
-0.0000000000000021
 20
-34.03571428571428
 30
0.0
 41
2.5
 42
2.5
 43
2.5
  0
MTEXT
  5
1C18
330
1B52
100
AcDbEntity
  8
AM_5
 62
     2
100
AcDbMText
 10
-55.0
 20
-30.93571428571428
 30
0.0
 40
3.2
 41
0.0
 71
     5
 72
     1
  1
110
  7
ASAMI
1001
ACAD
1000
MTEXTBEGIN
1070
    73
1070
     1
1070
    44
1040
1.0
1070
    74
1070
     0
1000
MTEXTEND
  0
POINT
  5
1C19
330
1B52
100
AcDbEntity
  8
DEFPOINTS
 62
     0
100
AcDbPoint
 10
-110.0
 20
-7.714285714285779
 30
0.0
  0
POINT
  5
1C1A
330
1B52
100
AcDbEntity
  8
DEFPOINTS
 62
     0
100
AcDbPoint
 10
-0.0000000000000005
 20
-8.035714285714284
 30
0.0
  0
POINT
  5
1C1B
330
1B52
100
AcDbEntity
  8
DEFPOINTS
 62
     0
100
AcDbPoint
 10
-0.0000000000000021
 20
-34.03571428571428
 30
0.0
  0
ENDBLK
  5
1B5D
330
1B52
100
AcDbEntity
  8
0
100
AcDbBlockEnd
  0
ENDSEC
  0
SECTION
  2
ENTITIES
  0
TEXT
  5
F17
330
1F
100
AcDbEntity
  8
AM_6
100
AcDbText
 10
-77.97619047619048
 20
-56.42660827866213
 30
0.0
 40
5.0
  1
SSUP4150ZX
 72
     1
 11
-55.0
 21
-53.92660827866213
 31
0.0
100
AcDbText
 73
     2
  0
LINE
  5
17C9
330
1F
100
AcDbEntity
  8
AM_0
100
AcDbLine
 10
-109.9999999999999
 20
7.199999999999961
 30
0.0
 11
-109.4999999999999
 21
7.99999999999996
 31
0.0
1001
GENIUS_GENFIL_13
1070
     0
1040
0.5
1040
0.5
1040
20.0
1040
0.0
1002
{
1002
}
1001
GENIUS_GENODEF_13
1002
{
1000
HIER
1070
     0
1002
}
1002
{
1000
MANEDIT
1070
     0
1002
}
1002
{
1000
NOSEL
1070
     0
1002
}
1002
{
1000
BEHIND
1070
     0
1002
}
1002
{
1000
REACTOR
1002
}
1001
GENIUS_GENOBJ-N-CHA_13
1002
{
1000
OWNER
1000
GEN
1002
}
  0
LINE
  5
17CA
330
1F
100
AcDbEntity
  8
AM_0
100
AcDbLine
 10
-110.0
 20
-7.200000000000059
 30
0.0
 11
-109.4999999999999
 21
-8.00000000000006
 31
0.0
1001
GENIUS_GENFIL_13
1070
     0
1040
0.5
1040
0.5
1040
20.0
1040
0.0
1002
{
1002
}
1001
GENIUS_GENODEF_13
1002
{
1000
HIER
1070
     0
1002
}
1002
{
1000
MANEDIT
1070
     0
1002
}
1002
{
1000
NOSEL
1070
     0
1002
}
1002
{
1000
BEHIND
1070
     0
1002
}
1002
{
1000
REACTOR
1002
}
1001
GENIUS_GENOBJ-N-CHA_13
1002
{
1000
OWNER
1000
GEN
1002
}
  0
LINE
  5
17CB
330
1F
100
AcDbEntity
  8
AM_0
100
AcDbLine
 10
-109.9999999999999
 20
7.192149145451533
 30
0.0
 11
-110.0
 21
-7.200000000000059
 31
0.0
  0
LINE
  5
17CC
330
1F
100
AcDbEntity
  8
AM_0
100
AcDbLine
 10
-109.4999999999999
 20
-8.00000000000006
 30
0.0
 11
-109.4999999999999
 21
7.996074572725709
 31
0.0
  0
LINE
  5
17CD
330
1F
100
AcDbEntity
  8
AM_7
  6
AM_ISO08W050X2
100
AcDbLine
 10
4.530570278608138
 20
0.0000000000000012
 30
0.0
 11
-112.5931415575491
 21
-0.0000000000000646
 31
0.0
1001
GENIUS_GENODEF_13
1002
{
1000
HIER
1070
     0
1002
}
1002
{
1000
MANEDIT
1070
     0
1002
}
1002
{
1000
NOSEL
1070
     0
1002
}
1002
{
1000
BEHIND
1070
     0
1002
}
1002
{
1000
REACTOR
1002
}
1001
GENIUS_GENOBJ-N-CEN_13
1002
{
1000
OWNER
1000
GEN
1002
}
  0
LINE
  5
17CE
330
1F
100
AcDbEntity
  8
AM_0
100
AcDbLine
 10
-109.4999999999999
 20
-8.00000000000006
 30
0.0
 11
-30.38122497271582
 21
-7.99999999999988
 31
0.0
  0
LINE
  5
17CF
330
1F
100
AcDbEntity
  8
AM_0
100
AcDbLine
 10
-109.4999999999999
 20
7.99999999999996
 30
0.0
 11
-30.36602540376202
 21
7.999999999999935
 31
0.0
  0
DIMENSION
  5
17D7
330
1F
100
AcDbEntity
  8
AM_5
100
AcDbDimension
  2
*D5
 10
-126.5931425575492
 20
7.999999999999965
 30
0.0
 11
-129.6931425575492
 21
-0.0000000000000651
 31
0.0
 70
    32
  1
%%c<>
  3
AM_JIS
100
AcDbAlignedDimension
 13
-109.4999999999999
 23
-8.00000000000006
 33
0.0
 14
-109.4999999999999
 24
7.99999999999996
 34
0.0
 50
270.0000000000002
100
AcDbRotatedDimension
1001
GENIUS_GENDTOL_13
1000

1000
h7
1000

1040
0.0
  0
DIMENSION
  5
18F0
330
1F
100
AcDbEntity
  8
AM_5
100
AcDbDimension
  2
*D6
 10
18.53057127860814
 20
7.499999999999935
 30
0.0
 11
15.43057127860813
 21
-0.0000000000309786
 31
0.0
 70
    32
  1
%%c<>
  3
AM_JIS
100
AcDbAlignedDimension
 13
0.0000000000188454
 23
-7.500000000061894
 33
0.0
 14
0.0000000000188461
 24
7.49999999999994
 34
0.0
 50
90.0
100
AcDbRotatedDimension
1001
GENIUS_GENDTOL_13
1000

1000
h7
1000

1040
0.0
  0
DIMENSION
  5
191A
330
1F
100
AcDbEntity
  8
AM_5
100
AcDbDimension
  2
*D7
 10
-26.0
 20
-22.03571428571428
 30
0.0
 11
-13.0
 21
-18.93571428571428
 31
0.0
 70
    32
  1
<>
  3
AM_JIS
100
AcDbAlignedDimension
 13
0.0
 23
-7.499999999999999
 33
0.0
 14
-26.0
 24
-7.495927287774366
 34
0.0
100
AcDbRotatedDimension
1001
GENIUS_GENDTOL_13
1000

1000
h7
1000

1040
0.0
  0
LINE
  5
1A0A
330
1F
100
AcDbEntity
  8
AM_0
100
AcDbLine
 10
-28.49999999998115
 20
7.49999999999994
 30
0.0
 11
-28.49999999998115
 21
-7.495927287774367
 31
0.0
  0
LINE
  5
1A1B
330
1F
100
AcDbEntity
  8
AM_0
100
AcDbLine
 10
-30.36602540376202
 20
7.999999999999935
 30
0.0
 11
-28.4999999999776
 21
7.49999999999994
 31
0.0
  0
LINE
  5
1A1C
330
1F
100
AcDbEntity
  8
AM_0
100
AcDbLine
 10
-109.4999999999905
 20
-8.00000000000006
 30
0.0
 11
-32.24623707190356
 21
-7.999999999999885
 31
0.0
  0
LINE
  5
1A1E
330
1F
100
AcDbEntity
  8
AM_0
100
AcDbLine
 10
-30.38122497271582
 20
-7.99999999999988
 30
0.0
 11
-28.49999999998115
 21
-7.495927287774367
 31
0.0
  0
LINE
  5
1A1F
330
1F
100
AcDbEntity
  8
AM_0
100
AcDbLine
 10
-109.4999999999905
 20
7.99999999999996
 30
0.0
 11
-32.23205080755001
 21
7.999999999999936
 31
0.0
  0
LINE
  5
1B12
330
1F
100
AcDbEntity
  8
AM_0
100
AcDbLine
 10
-0.2363636363593708
 20
7.49999999999994
 30
0.0
 11
0.0000000000094249
 21
7.49999999999994
 31
0.0
  0
LINE
  5
1B13
330
1F
100
AcDbEntity
  8
AM_0
100
AcDbLine
 10
-0.148811804918834
 20
1.408886072905944
 30
0.0
 11
-0.5623509428891016
 21
3.36775220506388
 31
0.0
  0
LINE
  5
1B14
330
1F
100
AcDbEntity
  8
AM_0
100
AcDbLine
 10
-0.0134987441961137
 20
-0.1936129096741285
 30
0.0
 11
-1.680965005949227
 21
-0.002701630753562
 31
0.0
  0
LINE
  5
1B15
330
1F
100
AcDbEntity
  8
AM_0
100
AcDbLine
 10
-0.148811804918834
 20
-2.301702096769189
 30
0.0
 11
-0.5167503427254492
 21
-3.239992520208487
 31
0.0
  0
LINE
  5
1B16
330
1F
100
AcDbEntity
  8
AM_0
100
AcDbLine
 10
-0.148811804918834
 20
-2.301702096769189
 30
0.0
 11
-0.0134987441961137
 21
-1.768612909674401
 31
0.0
  0
LINE
  5
1B17
330
1F
100
AcDbEntity
  8
AM_0
100
AcDbLine
 10
-0.1353130607127579
 20
-7.055604247258371
 30
0.0
 11
-0.2047580377646813
 21
-6.944368841267929
 31
0.0
  0
LINE
  5
1B18
330
1F
100
AcDbEntity
  8
AM_0
100
AcDbLine
 10
-0.2363636363539964
 20
-7.499999999999316
 30
0.0
 11
0.0000000000094249
 21
-7.499999999999999
 31
0.0
  0
LINE
  5
1B19
330
1F
100
AcDbEntity
  8
AM_0
100
AcDbLine
 10
0.0000000000094249
 20
-7.500000000000001
 30
0.0
 11
-0.1353130607127579
 21
-7.055604247258371
 31
0.0
  0
LINE
  5
1B1A
330
1F
100
AcDbEntity
  8
AM_0
100
AcDbLine
 10
-0.2047580377646813
 20
-6.944368841267929
 30
0.0
 11
-0.5179358792331029
 21
-5.567749607264999
 31
0.0
  0
LINE
  5
1B1B
330
1F
100
AcDbEntity
  8
AM_0
100
AcDbLine
 10
-0.1353130607127579
 20
-7.055604247258371
 30
0.0
 11
-0.1353130607127579
 21
-2.248521461158473
 31
0.0
  0
LINE
  5
1B1C
330
1F
100
AcDbEntity
  8
AM_0
100
AcDbLine
 10
-0.0134987441961137
 20
-0.2251441802540045
 30
0.0
 11
-0.148811804918834
 21
1.408886072905944
 31
0.0
  0
LINE
  5
1B1D
330
1F
100
AcDbEntity
  8
AM_0
100
AcDbLine
 10
0.0000000000094203
 20
7.49999999999994
 30
0.0
 11
0.0000000000282703
 21
-7.500000000000001
 31
0.0
  0
LINE
  5
1B1E
330
1F
100
AcDbEntity
  8
AM_11
100
AcDbLine
 10
0.0000000000094203
 20
7.49999999999994
 30
0.0
 11
0.0000000000094249
 21
-7.499999999999999
 31
0.0
  0
LINE
  5
1B1F
330
1F
100
AcDbEntity
  8
AM_0
100
AcDbLine
 10
-25.99999999999054
 20
4.920982351340776
 30
0.0
 11
-25.99999999999058
 21
6.079575136978633
 31
0.0
  0
LINE
  5
1B20
330
1F
100
AcDbEntity
  8
AM_0
100
AcDbLine
 10
-25.99999999999058
 20
4.9209823513408
 30
0.0
 11
-25.99999999999058
 21
5.629157460633188
 31
0.0
  0
LINE
  5
1B21
330
1F
100
AcDbEntity
  8
AM_11
100
AcDbLine
 10
-25.99999999999058
 20
7.49999999999994
 30
0.0
 11
-25.99999999999058
 21
-7.495927287774367
 31
0.0
  0
LINE
  5
1B22
330
1F
100
AcDbEntity
  8
AM_11
100
AcDbLine
 10
-25.99999999999058
 20
7.49999999999994
 30
0.0
 11
0.0000000000094203
 21
7.49999999999994
 31
0.0
  0
LINE
  5
1B23
330
1F
100
AcDbEntity
  8
AM_11
100
AcDbLine
 10
0.0000000000094249
 20
-7.499999999999999
 30
0.0
 11
-25.99999999999058
 21
-7.495927287774367
 31
0.0
  0
POLYLINE
  5
1B24
330
1F
100
AcDbEntity
  8
AM_0
100
AcDb2dPolyline
 66
     1
 10
0.0
 20
0.0
 30
0.0
 70
     2
  0
VERTEX
  5
1B25
330
1B24
100
AcDbEntity
  8
AM_0
100
AcDbVertex
100
AcDb2dVertex
 10
-22.70240320701556
 20
-5.53949662301779
 30
0.0
 42
-0.0151163192947916
  0
VERTEX
  5
1B26
330
1B24
100
AcDbEntity
  8
AM_0
100
AcDbVertex
100
AcDb2dVertex
 10
-24.07517967031462
 20
-4.28042294581779
 30
0.0
 42
-0.0277842371413835
 70
     1
  0
VERTEX
  5
1B27
330
1B24
100
AcDbEntity
  8
AM_0
100
AcDbVertex
100
AcDb2dVertex
 10
-24.76490320701556
 20
-3.528958447367348
 30
0.0
 42
-0.0111607608234995
  0
VERTEX
  5
1B28
330
1B24
100
AcDbEntity
  8
AM_0
100
AcDbVertex
100
AcDb2dVertex
 10
-26.54029074515453
 20
-1.266702844213125
 30
0.0
 42
-0.0188483842134176
 70
     1
  0
VERTEX
  5
1B29
330
1B24
100
AcDbEntity
  8
AM_0
100
AcDbVertex
100
AcDb2dVertex
 10
-27.51490320701556
 20
0.1383225066010974
 30
0.0
 42
-0.0458031151351523
  0
VERTEX
  5
1B2A
330
1B24
100
AcDbEntity
  8
AM_0
100
AcDbVertex
100
AcDb2dVertex
 10
-28.1248598173504
 20
1.306926534216122
 30
0.0
 42
-0.125542105027817
 70
     1
  0
VERTEX
  5
1B2B
330
1B24
100
AcDbEntity
  8
AM_0
100
AcDbVertex
100
AcDb2dVertex
 10
-28.20240320701556
 20
1.795065284919101
 30
0.0
 42
-0.2126498099904329
  0
VERTEX
  5
1B2C
330
1B24
100
AcDbEntity
  8
AM_0
100
AcDbVertex
100
AcDb2dVertex
 10
-28.04666449422053
 20
2.100325538193492
 30
0.0
 42
-0.1147736539220553
 70
     1
  0
VERTEX
  5
1B2D
330
1B24
100
AcDbEntity
  8
AM_0
100
AcDbVertex
100
AcDb2dVertex
 10
-27.51490320701556
 20
2.356771621239011
 30
0.0
 42
-0.1083653050181237
  0
VERTEX
  5
1B2E
330
1B24
100
AcDbEntity
  8
AM_0
100
AcDbVertex
100
AcDb2dVertex
 10
-26.82445268314189
 20
2.340869906145091
 30
0.0
 42
-0.0342880160649103
 70
     1
  0
VERTEX
  5
1B2F
330
1B24
100
AcDbEntity
  8
AM_0
100
AcDbVertex
100
AcDb2dVertex
 10
-24.76490320701556
 20
1.643906807215081
 30
0.0
 42
-0.0371893647168365
  0
VERTEX
  5
1B30
330
1B24
100
AcDbEntity
  8
AM_0
100
AcDbVertex
100
AcDb2dVertex
 10
-23.7595946486668
 20
1.125162722811664
 30
0.0
 42
-0.0326399429479685
 70
     1
  0
VERTEX
  5
1B31
330
1B24
100
AcDbEntity
  8
AM_0
100
AcDbVertex
100
AcDb2dVertex
 10
-22.70240320701556
 20
0.3693356568712425
 30
0.0
  0
SEQEND
  5
1B32
330
1B24
100
AcDbEntity
  8
AM_0
  0
LINE
  5
1B33
330
1F
100
AcDbEntity
  8
AM_0
100
AcDbLine
 10
-28.49999999998115
 20
-7.495927287774367
 30
0.0
 11
-23.41958214366332
 21
-7.495927287774367
 31
0.0
  0
SPLINE
  5
1B34
330
1F
100
AcDbEntity
  8
AM_0
100
AcDbSpline
210
0.0
220
0.0
230
1.0
 70
     8
 71
     3
 72
     8
 73
     4
 74
     0
 42
0.0000000001
 43
0.0000000001
 40
0.0
 40
0.0
 40
0.0
 40
0.0
 40
0.6152373134461622
 40
0.6152373134461622
 40
0.6152373134461622
 40
0.6152373134461622
 10
-20.68726474343525
 20
-7.130771262685413
 30
0.0
 10
-20.92963095782313
 20
-7.130771262685413
 30
0.0
 10
-21.16968929672891
 20
-7.118529504031748
 30
0.0
 10
-21.40757502754575
 20
-7.094763491110454
 30
0.0
  0
SPLINE
  5
1B35
330
1F
100
AcDbEntity
  8
AM_0
100
AcDbSpline
210
0.0
220
0.0
230
1.0
 70
     8
 71
     3
 72
     8
 73
     4
 74
     0
 42
0.0000000001
 43
0.0000000001
 40
5.215942287204468
 40
5.215942287204468
 40
5.215942287204468
 40
5.215942287204468
 40
10.4969207889486
 40
10.4969207889486
 40
10.4969207889486
 40
10.4969207889486
 10
-25.99999999999054
 20
4.920982351340776
 30
0.0
 10
-24.17205645035914
 20
3.58194430882422
 30
0.0
 10
-22.42966059681536
 20
1.789132110377317
 30
0.0
 10
-20.68726474327187
 20
-0.0036800880695852
 30
0.0
  0
SPLINE
  5
1B36
330
1F
100
AcDbEntity
  8
AM_0
100
AcDbSpline
210
0.0
220
0.0
230
1.0
 70
     8
 71
     3
 72
     8
 73
     4
 74
     0
 42
0.0000000001
 43
0.0000000001
 40
0.0
 40
0.0
 40
0.0
 40
0.0
 40
3.977355368879245
 40
3.977355368879245
 40
3.977355368879245
 40
3.977355368879245
 10
-9.625446561453541
 20
-7.130771262685413
 30
0.0
 10
-8.058609597955845
 20
-7.130771262685754
 30
0.0
 10
-6.58822565473466
 20
-6.619151548012665
 30
0.0
 10
-5.177748020069885
 20
-5.789768341829357
 30
0.0
  0
SPLINE
  5
1B37
330
1F
100
AcDbEntity
  8
AM_0
100
AcDbSpline
210
0.0
220
0.0
230
1.0
 70
     8
 71
     3
 72
     8
 73
     4
 74
     0
 42
0.0000000001
 43
0.0000000001
 40
0.6152373134470183
 40
0.6152373134470183
 40
0.6152373134470183
 40
0.6152373134470183
 40
8.843083020165714
 40
8.843083020165714
 40
8.843083020165714
 40
8.843083020165714
 10
-8.905136277341751
 20
7.087403314971198
 30
0.0
 10
-5.723783251096228
 20
6.769569719532342
 30
0.0
 10
-2.930999391512201
 20
4.390632743337165
 30
0.0
 10
-0.2032480099667496
 20
1.666741324418354
 30
0.0
  0
SPLINE
  5
1B38
330
1F
100
AcDbEntity
  8
AM_0
100
AcDbSpline
210
0.0
220
0.0
230
1.0
 70
     8
 71
     3
 72
     8
 73
     4
 74
     0
 42
0.0000000001
 43
0.0000000001
 40
1.418383274962104
 40
1.418383274962104
 40
1.418383274962104
 40
1.418383274962104
 40
10.4969207889486
 40
10.4969207889486
 40
10.4969207889486
 40
10.4969207889486
 10
-0.2047580377646813
 20
-6.944368841267929
 30
0.0
 10
-3.634736273430711
 20
-6.167731993888991
 30
0.0
 10
-6.630091417441856
 20
-3.085706040979288
 30
0.0
 10
-9.625446561453541
 20
-0.0036800880695852
 30
0.0
  0
SPLINE
  5
1B39
330
1F
100
AcDbEntity
  8
AM_0
100
AcDbSpline
210
0.0
220
0.0
230
1.0
 70
     8
 71
     3
 72
     8
 73
     4
 74
     0
 42
0.0000000001
 43
0.0000000001
 40
3.266224444355238
 40
3.266224444355238
 40
3.266224444355238
 40
3.266224444355238
 40
10.49653484266006
 40
10.49653484266006
 40
10.49653484266006
 40
10.49653484266006
 10
-0.5179358792331029
 20
-5.567749607264659
 30
0.0
 10
-3.155234907661287
 20
-4.351624790010872
 30
0.0
 10
-5.602245976891357
 20
-2.080845984203164
 30
0.0
 10
-8.04925704612089
 20
0.1899328216045445
 30
0.0
  0
SPLINE
  5
1B3A
330
1F
100
AcDbEntity
  8
AM_0
100
AcDbSpline
210
0.0
220
0.0
230
1.0
 70
     8
 71
     3
 72
     8
 73
     4
 74
     0
 42
0.0000000001
 43
0.0000000001
 40
0.6393216439718838
 40
0.6393216439718838
 40
0.6393216439718838
 40
0.6393216439718838
 40
6.996796499348805
 40
6.996796499348805
 40
6.996796499348805
 40
6.996796499348805
 10
-7.477775524740206
 20
6.804913533230888
 30
0.0
 10
-5.015184386428824
 20
6.531843472412107
 30
0.0
 10
-2.75316230601187
 20
5.147137353381482
 30
0.0
 10
-0.5623509428885641
 20
3.36775220506388
 30
0.0
  0
SPLINE
  5
1B3B
330
1F
100
AcDbEntity
  8
AM_0
100
AcDbSpline
210
0.0
220
0.0
230
1.0
 70
     8
 71
     3
 72
     8
 73
     4
 74
     0
 42
0.0000000001
 43
0.0000000001
 40
0.0
 40
0.0
 40
0.0
 40
0.0
 40
2.4079390838223
 40
2.4079390838223
 40
2.4079390838223
 40
2.4079390838223
 10
-8.226922726245492
 20
-6.472975237736306
 30
0.0
 10
-7.27842442634123
 20
-6.456975581366861
 30
0.0
 10
-6.360565326745928
 20
-6.271160898609763
 30
0.0
 10
-5.466316695690694
 20
-5.954487306429881
 30
0.0
  0
SPLINE
  5
1B3C
330
1F
100
AcDbEntity
  8
AM_0
100
AcDbSpline
210
0.0
220
0.0
230
1.0
 70
     8
 71
     3
 72
     9
 73
     5
 74
     0
 42
0.0000000001
 43
0.0000000001
 40
0.0
 40
0.0
 40
0.0
 40
0.0
 40
0.6574415203969619
 40
3.123721247380082
 40
3.123721247380082
 40
3.123721247380082
 40
3.123721247380082
 10
-1.680965005949227
 20
-0.002701630753562
 30
0.0
 10
-1.938909789316989
 20
0.0268309418766386
 30
0.0
 10
-3.408739299046425
 20
-0.9715744056184565
 30
0.0
 10
-1.095963448962233
 20
-2.249951658828394
 30
0.0
 10
-0.5167503427254492
 20
-3.239992520208487
 30
0.0
  0
SPLINE
  5
1B3D
330
1F
100
AcDbEntity
  8
AM_0
100
AcDbSpline
210
0.0
220
0.0
230
1.0
 70
     8
 71
     3
 72
     8
 73
     4
 74
     0
 42
0.0000000001
 43
0.0000000001
 40
0.0
 40
0.0
 40
0.0
 40
0.0
 40
1.551838382253894
 40
1.551838382253894
 40
1.551838382253894
 40
1.551838382253894
 10
-0.5167503427141633
 20
-3.239992520227928
 30
0.0
 10
-0.3151973241516554
 20
-3.972527914504713
 30
0.0
 10
-0.4049131473687864
 20
-4.805206405044551
 30
0.0
 10
-0.5179358792331029
 20
-5.567749607264999
 30
0.0
  0
SPLINE
  5
1B3E
330
1F
100
AcDbEntity
  8
AM_0
100
AcDbSpline
210
0.0
220
0.0
230
1.0
 70
     8
 71
     3
 72
     8
 73
     4
 74
     0
 42
0.0000000001
 43
0.0000000001
 40
0.0
 40
0.0
 40
0.0
 40
0.0
 40
10.49692078894909
 40
10.49692078894909
 40
10.49692078894909
 40
10.49692078894909
 10
-9.625446561453001
 20
-7.130771262685413
 30
0.0
 10
-13.76059717528143
 20
-7.130771262685413
 30
0.0
 10
-17.22393095927665
 20
-3.567225675377499
 30
0.0
 10
-20.68726474327187
 20
-0.0036800880695852
 30
0.0
  0
SPLINE
  5
1B3F
330
1F
100
AcDbEntity
  8
AM_0
100
AcDbSpline
210
0.0
220
0.0
230
1.0
 70
     8
 71
     3
 72
     8
 73
     4
 74
     0
 42
0.0000000001
 43
0.0000000001
 40
0.0
 40
0.0
 40
0.0
 40
0.0
 40
10.49653484265986
 40
10.49653484265986
 40
10.49653484265986
 40
10.49653484265986
 10
-7.871591365996293
 20
-6.472975237736306
 30
0.0
 10
-12.00622480420912
 20
-6.403230553711236
 30
0.0
 10
-15.5586500160739
 20
-3.106648866053346
 30
0.0
 10
-19.11107522793869
 20
0.1899328216045445
 30
0.0
  0
SPLINE
  5
1B40
330
1F
100
AcDbEntity
  8
AM_0
100
AcDbSpline
210
0.0
220
0.0
230
1.0
 70
     8
 71
     3
 72
     8
 73
     4
 74
     0
 42
0.0000000001
 43
0.0000000001
 40
0.0
 40
0.0
 40
0.0
 40
0.0
 40
10.61065478016067
 40
10.61065478016067
 40
10.61065478016067
 40
10.61065478016067
 10
-11.29818181817179
 20
-7.500138481431441
 30
0.0
 10
-15.47813673156842
 20
-7.500138481431441
 30
0.0
 10
-18.91906836577954
 20
-3.751909284750513
 30
0.0
 10
-22.35999999999066
 20
-0.0036800880695852
 30
0.0
  0
SPLINE
  5
1B41
330
1F
100
AcDbEntity
  8
AM_0
100
AcDbSpline
210
0.0
220
0.0
230
1.0
 70
     8
 71
     3
 72
     8
 73
     4
 74
     0
 42
0.0000000001
 43
0.0000000001
 40
0.6152373134470183
 40
0.6152373134470183
 40
0.6152373134470183
 40
0.6152373134470183
 40
10.4969207889486
 40
10.4969207889486
 40
10.4969207889486
 40
10.4969207889486
 10
-19.96695445916008
 20
7.087403314971198
 30
0.0
 10
-16.14613370610228
 20
6.705683591490697
 30
0.0
 10
-12.88579013377817
 20
3.351001751710556
 30
0.0
 10
-9.625446561453001
 20
-0.0036800880695852
 30
0.0
  0
SPLINE
  5
1B42
330
1F
100
AcDbEntity
  8
AM_0
100
AcDbSpline
210
0.0
220
0.0
230
1.0
 70
     8
 71
     3
 72
     8
 73
     4
 74
     0
 42
0.0000000001
 43
0.0000000001
 40
0.6393216442358057
 40
0.6393216442358057
 40
0.6393216442358057
 40
0.6393216442358057
 40
10.49653484266006
 40
10.49653484266006
 40
10.49653484266006
 40
10.49653484266006
 10
-18.53959370625113
 20
6.804913533197123
 30
0.0
 10
-14.72136612015451
 20
6.381520618598075
 30
0.0
 10
-11.3853115831377
 20
3.28572672010148
 30
0.0
 10
-8.04925704612089
 20
0.1899328216045445
 30
0.0
  0
SPLINE
  5
1B43
330
1F
100
AcDbEntity
  8
AM_0
100
AcDbSpline
210
0.0
220
0.0
230
1.0
 70
     8
 71
     3
 72
     8
 73
     4
 74
     0
 42
0.0000000001
 43
0.0000000001
 40
0.0
 40
0.0
 40
0.0
 40
0.0
 40
2.093133798227362
 40
2.093133798227362
 40
2.093133798227362
 40
2.093133798227362
 10
-11.29818181817233
 20
-7.5001384814311
 30
0.0
 10
-10.47361395826473
 20
-7.503680088069416
 30
0.0
 10
-9.677824240490489
 20
-7.357781922062314
 30
0.0
 10
-8.905136277342288
 20
-7.09476349111054
 30
0.0
  0
SPLINE
  5
1B44
330
1F
100
AcDbEntity
  8
AM_0
100
AcDbSpline
210
0.0
220
0.0
230
1.0
 70
     8
 71
     3
 72
     8
 73
     4
 74
     0
 42
0.0000000001
 43
0.0000000001
 40
0.0
 40
0.0
 40
0.0
 40
0.0
 40
3.977355368879245
 40
3.977355368879245
 40
3.977355368879245
 40
3.977355368879245
 10
-20.68726474343525
 20
-7.130771262685413
 30
0.0
 10
-19.12042777993755
 20
-7.130771262685754
 30
0.0
 10
-17.65004383671691
 20
-6.619151548012665
 30
0.0
 10
-16.23956620205159
 20
-5.789768341829357
 30
0.0
  0
SPLINE
  5
1B45
330
1F
100
AcDbEntity
  8
AM_0
100
AcDbSpline
210
0.0
220
0.0
230
1.0
 70
     8
 71
     3
 72
     8
 73
     4
 74
     0
 42
0.0000000001
 43
0.0000000001
 40
0.0
 40
0.0
 40
0.0
 40
0.0
 40
2.4079390838223
 40
2.4079390838223
 40
2.4079390838223
 40
2.4079390838223
 10
-19.28874090822773
 20
-6.472975237736306
 30
0.0
 10
-18.34024260832294
 20
-6.456975581366861
 30
0.0
 10
-17.42238350872818
 20
-6.271160898609763
 30
0.0
 10
-16.52813487767294
 20
-5.954487306429881
 30
0.0
  0
SPLINE
  5
1B46
330
1F
100
AcDbEntity
  8
AM_0
100
AcDbSpline
210
0.0
220
0.0
230
1.0
 70
     8
 71
     3
 72
     8
 73
     4
 74
     0
 42
0.0000000001
 43
0.0000000001
 40
0.2725981709865456
 40
0.2725981709865456
 40
0.2725981709865456
 40
0.2725981709865456
 40
2.093133798227362
 40
2.093133798227362
 40
2.093133798227362
 40
2.093133798227362
 10
-23.49350617810195
 20
-7.499999999999877
 30
0.0
 10
-22.76916603337116
 20
-7.463691668575392
 30
0.0
 10
-22.07963238328802
 20
-7.323527856090109
 30
0.0
 10
-21.40757502754575
 20
-7.094763491110561
 30
0.0
  0
SPLINE
  5
1B47
330
1F
100
AcDbEntity
  8
AM_0
100
AcDbSpline
210
0.0
220
0.0
230
1.0
 70
     8
 71
     3
 72
     8
 73
     4
 74
     0
 42
0.0000000001
 43
0.0000000001
 40
0.1925119343883644
 40
0.1925119343883644
 40
0.1925119343883644
 40
0.1925119343883644
 40
10.61176705360627
 40
10.61176705360627
 40
10.61176705360627
 40
10.61176705360627
 10
-0.4631518500876311
 20
-7.499999999948409
 30
0.0
 10
-4.541595159279388
 20
-7.367619854121999
 30
0.0
 10
-7.91988848872586
 20
-3.685649971095792
 30
0.0
 10
-11.29818181817233
 20
-0.0036800880695852
 30
0.0
  0
SPLINE
  5
1B48
330
1F
100
AcDbEntity
  8
AM_0
100
AcDbSpline
210
0.0
220
0.0
230
1.0
 70
     8
 71
     3
 72
     8
 73
     4
 74
     0
 42
0.0000000001
 43
0.0000000001
 40
0.0
 40
0.0
 40
0.0
 40
0.0
 40
10.61176705360661
 40
10.61176705360661
 40
10.61176705360661
 40
10.61176705360661
 10
-22.35999999999012
 20
7.49999999999994
 30
0.0
 10
-18.17960691826684
 20
7.496319911930414
 30
0.0
 10
-14.73889436821932
 20
3.746319911930414
 30
0.0
 10
-11.29818181817179
 20
-0.0036800880695852
 30
0.0
  0
SPLINE
  5
1B49
330
1F
100
AcDbEntity
  8
AM_0
100
AcDbSpline
210
0.0
220
0.0
230
1.0
 70
     8
 71
     3
 72
     8
 73
     4
 74
     0
 42
0.0000000001
 43
0.0000000001
 40
0.0
 40
0.0
 40
0.0
 40
0.0
 40
10.7633540680078
 40
10.7633540680078
 40
10.7633540680078
 40
10.7633540680078
 10
-11.29818181817179
 20
7.49999999999996
 30
0.0
 10
-7.058072639865685
 20
7.496319911930414
 30
0.0
 10
-3.545107718986998
 20
3.748159955965206
 30
0.0
 10
-0.0321427981083117
 20
-0.0000000000000018
 30
0.0
  0
SPLINE
  5
1B4A
330
1F
100
AcDbEntity
  8
AM_0
100
AcDbSpline
210
0.0
220
0.0
230
1.0
 70
     8
 71
     3
 72
     8
 73
     4
 74
     0
 42
0.0000000001
 43
0.0000000001
 40
0.0
 40
0.0
 40
0.0
 40
0.0
 40
4.066976460604825
 40
4.066976460604825
 40
4.066976460604825
 40
4.066976460604825
 10
-11.29818181817179
 20
7.49999999999996
 30
0.0
 10
-12.90032406022849
 20
7.496319911930073
 30
0.0
 10
-14.39382071547974
 20
6.945513268964647
 30
0.0
 10
-15.82031037642892
 20
6.054997497705131
 30
0.0
  0
SPLINE
  5
1B4B
330
1F
100
AcDbEntity
  8
AM_0
100
AcDbSpline
210
0.0
220
0.0
230
1.0
 70
     8
 71
     3
 72
     8
 73
     4
 74
     0
 42
0.0000000001
 43
0.0000000001
 40
0.0
 40
0.0
 40
0.0
 40
0.0
 40
4.066976460604845
 40
4.066976460604845
 40
4.066976460604845
 40
4.066976460604845
 10
-0.2363636363593708
 20
7.49999999999994
 30
0.0
 10
-1.838505878410698
 20
7.496319911930073
 30
0.0
 10
-3.332002533661415
 20
6.945513268964647
 30
0.0
 10
-4.758492194611129
 20
6.054997497705131
 30
0.0
  0
SPLINE
  5
1B4C
330
1F
100
AcDbEntity
  8
AM_0
100
AcDbSpline
210
0.0
220
0.0
230
1.0
 70
     8
 71
     3
 72
     8
 73
     4
 74
     0
 42
0.0000000001
 43
0.0000000001
 40
0.0
 40
0.0
 40
0.0
 40
0.0
 40
2.847661750814433
 40
2.847661750814433
 40
2.847661750814433
 40
2.847661750814433
 10
-0.2363636363593708
 20
7.49999999999994
 30
0.0
 10
0.0707596959201006
 20
6.126888560292401
 30
0.0
 10
-1.432840736743691
 20
5.366769622115385
 30
0.0
 10
-2.877690065907411
 20
5.049816938585196
 30
0.0
  0
SPLINE
  5
1B4D
330
1F
100
AcDbEntity
  8
AM_0
100
AcDbSpline
210
0.0
220
0.0
230
1.0
 70
     8
 71
     3
 72
     8
 73
     4
 74
     0
 42
0.0000000001
 43
0.0000000001
 40
10.25978408704718
 40
10.25978408704718
 40
10.25978408704718
 40
10.25978408704718
 40
10.61176705360581
 40
10.61176705360581
 40
10.61176705360581
 40
10.61176705360581
 10
-22.70240320701556
 20
0.3693356568712472
 30
0.0
 10
-22.58825080955392
 20
0.2450883060964669
 30
0.0
 10
-22.47412540477229
 20
0.1207041090134407
 30
0.0
 10
-22.35999999999066
 20
-0.0036800880695852
 30
0.0
  0
SPLINE
  5
1B4E
330
1F
100
AcDbEntity
  8
AM_0
100
AcDbSpline
210
0.0
220
0.0
230
1.0
 70
     8
 71
     3
 72
     8
 73
     4
 74
     0
 42
0.0000000001
 43
0.0000000001
 40
0.0
 40
0.0
 40
0.0
 40
0.0
 40
3.321845793301682
 40
3.321845793301682
 40
3.321845793301682
 40
3.321845793301682
 10
-18.93340954797854
 20
-6.472975237736306
 30
0.0
 10
-20.24189991165092
 20
-6.450903088335887
 30
0.0
 10
-21.49207996273009
 20
-6.10565124848456
 30
0.0
 10
-22.70240320701558
 20
-5.539496623017783
 30
0.0
  0
SPLINE
  5
1B4F
330
1F
100
AcDbEntity
  8
AM_0
100
AcDbSpline
210
0.0
220
0.0
230
1.0
 70
     8
 71
     3
 72
     8
 73
     4
 74
     0
 42
0.0000000001
 43
0.0000000001
 40
0.6393216442353146
 40
0.6393216442353146
 40
0.6393216442353146
 40
0.6393216442353146
 40
10.49653484266006
 40
10.49653484266006
 40
10.49653484266006
 40
10.49653484266006
 10
-28.49999999998115
 20
7.49999999999994
 30
0.0
 10
-25.78318430197231
 20
6.381520618598417
 30
0.0
 10
-22.44712976495603
 20
3.28572672010148
 30
0.0
 10
-19.11107522793869
 20
0.1899328216045445
 30
0.0
  0
SPLINE
  5
1B50
330
1F
100
AcDbEntity
  8
AM_0
100
AcDbSpline
210
0.0
220
0.0
230
1.0
 70
     8
 71
     3
 72
     8
 73
     4
 74
     0
 42
0.0000000001
 43
0.0000000001
 40
0.0
 40
0.0
 40
0.0
 40
0.0
 40
3.604191264077629
 40
3.604191264077629
 40
3.604191264077629
 40
3.604191264077629
 10
-22.35999999999012
 20
7.49999999999994
 30
0.0
 10
-23.77983292220231
 20
7.496670286028598
 30
0.0
 10
-25.11433924616204
 20
7.063768215411659
 30
0.0
 10
-25.99999999999058
 20
6.079575136978633
 30
0.0
  0
DIMENSION
  5
1B51
330
1F
100
AcDbEntity
  8
AM_5
100
AcDbDimension
  2
*D8
 10
-0.0000000000000021
 20
-34.03571428571428
 30
0.0
 11
-55.0
 21
-30.93571428571428
 31
0.0
 70
    32
  1
<>
  3
AM_JIS
100
AcDbAlignedDimension
 13
-110.0
 23
-7.714285714285779
 33
0.0
 14
-0.0000000000000005
 24
-8.035714285714284
 34
0.0
100
AcDbRotatedDimension
1001
GENIUS_GENDTOL_13
1000

1000
h7
1000

1040
0.0
  0
LINE
  5
1C0A
330
1F
100
AcDbEntity
  8
AM_0
100
AcDbLine
 10
-30.36602540376202
 20
7.999999999999935
 30
0.0
 11
-30.36602540376203
 21
-7.995927287773412
 31
0.0
  0
LINE
  5
1CAE
330
1F
100
AcDbEntity
  8
AM_0
100
AcDbLine
 10
-25.99999999999058
 20
2.099481596017779
 30
0.0
 11
-25.99999999999058
 21
6.079575136978633
 31
0.0
  0
VIEWPORT
  5
110
330
101
100
AcDbEntity
 67
     1
  8
0
100
AcDbViewport
 10
420.5
 20
297.0
 30
0.0
 40
948.9782706766916
 41
628.452
 68
     1
 69
     1
1001
ACAD
1000
MVIEW
1002
{
1070
    16
1010
0.0
1020
0.0
1030
0.0
1010
0.0
1020
0.0
1030
1.0
1040
0.0
1040
628.452
1040
420.5
1040
297.0
1040
50.0
1040
0.0
1040
0.0
1070
     0
1070
   100
1070
     1
1070
     1
1070
     0
1070
     0
1070
     0
1070
     0
1040
0.0
1040
0.0
1040
0.0
1040
10.0
1040
10.0
1040
10.0
1040
10.0
1070
     0
1002
{
1002
}
1002
}
  0
ENDSEC
  0
SECTION
  2
OBJECTS
  0
DICTIONARY
  5
C
330
0
100
AcDbDictionary
  3
ACAD_GROUP
350
D
  3
ACAD_LAYOUT
350
1A
  3
ACAD_MLINESTYLE
350
17
  3
ACAD_PLOTSETTINGS
350
19
  3
ACAD_PLOTSTYLENAME
350
E
  3
ACDBVARIABLEDICTIONARY
350
34
  3
ACMDICTIONARY
350
43
  3
AMG
350
2B
  3
AMGSNAPSETTINGS
350
6E
  3
DWGPROPS
350
1CC7
  3
ACDBHEADERROUNDTRIPXREC
350
1CD3
  0
DICTIONARY
  5
74
330
1F
100
AcDbDictionary
280
     1
  3
ACAD_INDEX
360
1CC9
  3
ACAD_LAYOUTSELFREF
360
1CF6
  0
DICTIONARY
  5
1CFB
330
101
100
AcDbDictionary
280
     1
  3
ACAD_LAYOUTSELFREF
360
1CFC
  0
DICTIONARY
  5
D
102
{ACAD_REACTORS
330
C
102
}
330
C
100
AcDbDictionary
  0
DICTIONARY
  5
1A
102
{ACAD_REACTORS
330
C
102
}
330
C
100
AcDbDictionary
  0
DICTIONARY
  5
17
102
{ACAD_REACTORS
330
C
102
}
330
C
100
AcDbDictionary
  3
STANDARD
350
18
  0
DICTIONARY
  5
19
102
{ACAD_REACTORS
330
C
102
}
330
C
100
AcDbDictionary
  0
ACDBDICTIONARYWDFLT
  5
E
102
{ACAD_REACTORS
330
C
102
}
330
C
100
AcDbDictionary
281
     1
  3
Normal
350
F
100
AcDbDictionaryWithDefault
340
F
  0
DICTIONARY
  5
34
102
{ACAD_REACTORS
330
C
102
}
330
C
100
AcDbDictionary
  3
INDEXCTL
350
35
  3
SORTENTS
350
B5E
  0
DICTIONARY
  5
43
102
{ACAD_REACTORS
330
C
102
}
330
C
100
AcDbDictionary
  3
ACMSTDDICTIONARY
350
260
  0
DICTIONARY
  5
2B
102
{ACAD_REACTORS
330
C
102
}
330
C
100
AcDbDictionary
  3
ACMGSETTINGS
350
2C
  0
DICTIONARY
  5
6E
102
{ACAD_REACTORS
330
C
102
}
330
C
100
AcDbDictionary
  0
XRECORD
  5
1CC7
102
{ACAD_REACTORS
330
C
102
}
330
C
100
AcDbXrecord
  1
DWGPROPS COOKIE
  2

  3

  4

  6

  7

  8

  9

300
AmdtFileType=82
301
=
302
=
303
=
304
=
305
=
306
=
307
=
308
=
309
=
 40
0.0612210532407407
 41
2452809.403188831
 42
2452844.423782002
  1

 90
        1
  0
DICTIONARY
  5
1CD3
102
{ACAD_REACTORS
330
C
102
}
330
C
100
AcDbDictionary
  3
TSTACKALIGN
350
1CD4
  3
TSTACKSIZE
350
1CD5
  3
HYPERLINKBASE
350
1CD6
  3
STYLESHEET
350
1CD7
  3
LAYOUTDICT
350
1CD8
  3
PLOTSETDICT
350
1CD9
  3
PLOTSTYLNAMDICT
350
1CDA
  3
LWETCUNION
350
1CDB
  3
INSUNITS
350
1CDC
  3
CEPSNTYPE
350
1CDD
  3
FINGERPRINTGUID
350
1CDE
  3
VERSIONGUID
350
1CDF
  3
PSVPSCALE
350
1CE0
  3
DIMSTYLEDATA
350
1CE1
  3
PUCSORTHOREF
350
1CE2
  3
PUCSORTHOVIEW
350
1CE3
  3
PUCSBASE
350
1CE4
  3
PUCSORGTOP
350
1CE5
  3
PUCSORGBOTTOM
350
1CE6
  3
PUCSORGLEFT
350
1CE7
  3
PUCSORGRIGHT
350
1CE8
  3
PUCSORGFRONT
350
1CE9
  3
PUCSORGBACK
350
1CEA
  3
UCSORTHOREF
350
1CEB
  3
UCSORTHOVIEW
350
1CEC
  3
UCSBASE
350
1CED
  3
UCSORGTOP
350
1CEE
  3
UCSORGBOTTOM
350
1CEF
  3
UCSORGLEFT
350
1CF0
  3
UCSORGRIGHT
350
1CF1
  3
UCSORGFRONT
350
1CF2
  3
UCSORGBACK
350
1CF3
  0
DICTIONARY
  5
1CC9
102
{ACAD_REACTORS
330
74
102
}
330
74
100
AcDbDictionary
  3
*A1
350
1CCA
  0
XRECORD
  5
1CF6
102
{ACAD_REACTORS
330
74
102
}
330
74
100
AcDbXrecord
340
1F
  0
XRECORD
  5
1CFC
102
{ACAD_REACTORS
330
1CFB
102
}
330
1CFB
100
AcDbXrecord
340
101
  0
MLINESTYLE
  5
18
102
{ACAD_REACTORS
330
17
102
}
330
17
100
AcDbMlineStyle
  2
STANDARD
 70
     0
  3

 62
   256
 51
90.0
 52
90.0
 71
     2
 49
0.5
 62
   256
  6
BYLAYER
 49
-0.5
 62
   256
  6
BYLAYER
  0
ACDBPLACEHOLDER
  5
F
102
{ACAD_REACTORS
330
E
102
}
330
E
100
AcDbPlaceHolder
280
     0
  0
DICTIONARYVAR
  5
35
102
{ACAD_REACTORS
330
34
102
}
330
34
100
DictionaryVariables
280
     0
  1
1
  0
DICTIONARYVAR
  5
B5E
102
{ACAD_REACTORS
330
34
102
}
330
34
100
DictionaryVariables
280
     0
  1
96
  0
DICTIONARY
  5
260
102
{ACAD_REACTORS
330
43
102
}
330
43
100
AcDbDictionary
  0
DICTIONARY
  5
2C
102
{ACAD_REACTORS
330
2B
102
}
330
2B
100
AcDbDictionary
  3
DWGSETTINGS
350
2D
  0
XRECORD
  5
1CD4
102
{ACAD_REACTORS
330
1CD3
102
}
330
1CD3
100
AcDbXrecord
 90
        1
  0
XRECORD
  5
1CD5
102
{ACAD_REACTORS
330
1CD3
102
}
330
1CD3
100
AcDbXrecord
 90
       70
  0
XRECORD
  5
1CD6
102
{ACAD_REACTORS
330
1CD3
102
}
330
1CD3
100
AcDbXrecord
  1

  0
XRECORD
  5
1CD7
102
{ACAD_REACTORS
330
1CD3
102
}
330
1CD3
100
AcDbXrecord
  1
ASAMI.ctb
  0
XRECORD
  5
1CD8
102
{ACAD_REACTORS
330
1CD3
102
}
330
1CD3
100
AcDbXrecord
340
1A
  0
XRECORD
  5
1CD9
102
{ACAD_REACTORS
330
1CD3
102
}
330
1CD3
100
AcDbXrecord
340
19
  0
XRECORD
  5
1CDA
102
{ACAD_REACTORS
330
1CD3
102
}
330
1CD3
100
AcDbXrecord
340
E
  0
XRECORD
  5
1CDB
102
{ACAD_REACTORS
330
1CD3
102
}
330
1CD3
100
AcDbXrecord
 90
    10781
  0
XRECORD
  5
1CDC
102
{ACAD_REACTORS
330
1CD3
102
}
330
1CD3
100
AcDbXrecord
 90
        4
  0
XRECORD
  5
1CDD
102
{ACAD_REACTORS
330
1CD3
102
}
330
1CD3
100
AcDbXrecord
 90
        0
  0
XRECORD
  5
1CDE
102
{ACAD_REACTORS
330
1CD3
102
}
330
1CD3
100
AcDbXrecord
  1
{AFB28963-8C59-40AE-9337-C84526B81ACE}
  0
XRECORD
  5
1CDF
102
{ACAD_REACTORS
330
1CD3
102
}
330
1CD3
100
AcDbXrecord
  1
{185CCA0B-C805-4690-9DB3-D1874622B646}
  0
XRECORD
  5
1CE0
102
{ACAD_REACTORS
330
1CD3
102
}
330
1CD3
100
AcDbXrecord
 40
0.0
  0
XRECORD
  5
1CE1
102
{ACAD_REACTORS
330
1CD3
102
}
330
1CD3
100
AcDbXrecord
1000
DSTYLE
1002
{
1070
    79
 70
     2
1070
   341
340
59
1070
   342
340
59
1070
   371
 70
    -1
1070
   372
 70
    -1
1002
}
  0
XRECORD
  5
1CE2
102
{ACAD_REACTORS
330
1CD3
102
}
330
1CD3
100
AcDbXrecord
340
0
  0
XRECORD
  5
1CE3
102
{ACAD_REACTORS
330
1CD3
102
}
330
1CD3
100
AcDbXrecord
 70
     0
  0
XRECORD
  5
1CE4
102
{ACAD_REACTORS
330
1CD3
102
}
330
1CD3
100
AcDbXrecord
340
0
  0
XRECORD
  5
1CE5
102
{ACAD_REACTORS
330
1CD3
102
}
330
1CD3
100
AcDbXrecord
 10
0.0
 20
0.0
 30
0.0
  0
XRECORD
  5
1CE6
102
{ACAD_REACTORS
330
1CD3
102
}
330
1CD3
100
AcDbXrecord
 10
0.0
 20
0.0
 30
0.0
  0
XRECORD
  5
1CE7
102
{ACAD_REACTORS
330
1CD3
102
}
330
1CD3
100
AcDbXrecord
 10
0.0
 20
0.0
 30
0.0
  0
XRECORD
  5
1CE8
102
{ACAD_REACTORS
330
1CD3
102
}
330
1CD3
100
AcDbXrecord
 10
0.0
 20
0.0
 30
0.0
  0
XRECORD
  5
1CE9
102
{ACAD_REACTORS
330
1CD3
102
}
330
1CD3
100
AcDbXrecord
 10
0.0
 20
0.0
 30
0.0
  0
XRECORD
  5
1CEA
102
{ACAD_REACTORS
330
1CD3
102
}
330
1CD3
100
AcDbXrecord
 10
0.0
 20
0.0
 30
0.0
  0
XRECORD
  5
1CEB
102
{ACAD_REACTORS
330
1CD3
102
}
330
1CD3
100
AcDbXrecord
340
0
  0
XRECORD
  5
1CEC
102
{ACAD_REACTORS
330
1CD3
102
}
330
1CD3
100
AcDbXrecord
 70
     0
  0
XRECORD
  5
1CED
102
{ACAD_REACTORS
330
1CD3
102
}
330
1CD3
100
AcDbXrecord
340
0
  0
XRECORD
  5
1CEE
102
{ACAD_REACTORS
330
1CD3
102
}
330
1CD3
100
AcDbXrecord
 10
0.0
 20
0.0
 30
0.0
  0
XRECORD
  5
1CEF
102
{ACAD_REACTORS
330
1CD3
102
}
330
1CD3
100
AcDbXrecord
 10
0.0
 20
0.0
 30
0.0
  0
XRECORD
  5
1CF0
102
{ACAD_REACTORS
330
1CD3
102
}
330
1CD3
100
AcDbXrecord
 10
0.0
 20
0.0
 30
0.0
  0
XRECORD
  5
1CF1
102
{ACAD_REACTORS
330
1CD3
102
}
330
1CD3
100
AcDbXrecord
 10
0.0
 20
0.0
 30
0.0
  0
XRECORD
  5
1CF2
102
{ACAD_REACTORS
330
1CD3
102
}
330
1CD3
100
AcDbXrecord
 10
0.0
 20
0.0
 30
0.0
  0
XRECORD
  5
1CF3
102
{ACAD_REACTORS
330
1CD3
102
}
330
1CD3
100
AcDbXrecord
 10
0.0
 20
0.0
 30
0.0
  0
LAYER_INDEX
  5
1CCA
102
{ACAD_REACTORS
330
1CC9
102
}
330
1CC9
100
AcDbIndex
 40
2452844.460467662
100
AcDbLayerIndex
  8
0
360
1CCB
 90
        0
  8
AM_0
360
1CCC
 90
       58
  8
AM_11
360
1CCD
 90
        4
  8
AM_7
360
1CCE
 90
        1
  8
AM_5
360
1CCF
 90
        4
  8
Defpoints
360
1CD0
 90
        0
  8
AM_6
360
1CD1
 90
        1
  0
XRECORD
  5
2D
102
{ACAD_REACTORS
330
2C
102
}
330
2C
100
AcDbXrecord
  1
VERSION
140
15.0
  1
PRODUCT
  2
AutoCAD Mechanical 2000
  0
IDBUFFER
  5
1CCB
330
0
100
AcDbIdBuffer
  0
IDBUFFER
  5
1CCC
330
0
100
AcDbIdBuffer
330
1B49
330
1B4A
330
1B4B
330
1B4C
330
1B4D
330
1B4E
330
1B4F
330
1B50
330
1C0A
330
1CAE
330
17C9
330
17CA
330
17CB
330
17CC
330
17CE
330
17CF
330
1A0A
330
1A1B
330
1A1C
330
1A1E
330
1A1F
330
1B12
330
1B13
330
1B14
330
1B15
330
1B16
330
1B17
330
1B18
330
1B19
330
1B1A
330
1B1B
330
1B1C
330
1B1D
330
1B1F
330
1B20
330
1B24
330
1B33
330
1B34
330
1B35
330
1B36
330
1B37
330
1B38
330
1B39
330
1B3A
330
1B3B
330
1B3C
330
1B3D
330
1B3E
330
1B3F
330
1B40
330
1B41
330
1B42
330
1B43
330
1B44
330
1B45
330
1B46
330
1B47
330
1B48
  0
IDBUFFER
  5
1CCD
330
0
100
AcDbIdBuffer
330
1B1E
330
1B21
330
1B22
330
1B23
  0
IDBUFFER
  5
1CCE
330
0
100
AcDbIdBuffer
330
17CD
  0
IDBUFFER
  5
1CCF
330
0
100
AcDbIdBuffer
330
17D7
330
18F0
330
191A
330
1B51
  0
IDBUFFER
  5
1CD0
330
0
100
AcDbIdBuffer
  0
IDBUFFER
  5
1CD1
330
0
100
AcDbIdBuffer
330
F17
  0
ENDSEC
  0
EOF
