  0
SECTION
  2
HEADER
  9
$ACADVER
  1
AC1014
  9
$ACADMAINTVER
 70
     9
  9
$DWGCODEPAGE
  3
ANSI_932
  9
$INSBASE
 10
0.0
 20
0.0
 30
0.0
  9
$EXTMIN
 10
-133.2
 20
-56.42660827866215
 30
-0.00000001
  9
$EXTMAX
 10
18.23076923079026
 20
9.619195469556665
 30
0.00000001
  9
$LIMMIN
 10
-142.173954244666
 20
-68.96682754176862
  9
$LIMMAX
 10
31.71152938631291
 20
22.70405284366507
  9
$ORTHOMODE
 70
     0
  9
$REGENMODE
 70
     1
  9
$FILLMODE
 70
     1
  9
$QTEXTMODE
 70
     0
  9
$MIRRTEXT
 70
     0
  9
$DRAGMODE
 70
     2
  9
$LTSCALE
 40
1.0
  9
$OSMODE
 70
  2103
  9
$ATTMODE
 70
     1
  9
$TEXTSIZE
 40
2.5
  9
$TRACEWID
 40
1.0
  9
$TEXTSTYLE
  7
STANDARD
  9
$CLAYER
  8
AM_11
  9
$CELTYPE
  6
BYLAYER
  9
$CECOLOR
 62
   256
  9
$CELTSCALE
 40
1.0
  9
$DELOBJ
 70
     1
  9
$DISPSILH
 70
     0
  9
$DIMSCALE
 40
1.0
  9
$DIMASZ
 40
2.5
  9
$DIMEXO
 40
1.0
  9
$DIMDLI
 40
12.0
  9
$DIMRND
 40
0.0
  9
$DIMDLE
 40
0.0
  9
$DIMEXE
 40
1.0
  9
$DIMTP
 40
0.1
  9
$DIMTM
 40
0.1
  9
$DIMTXT
 40
3.2
  9
$DIMCEN
 40
0.0
  9
$DIMTSZ
 40
0.0
  9
$DIMTOL
 70
     0
  9
$DIMLIM
 70
     0
  9
$DIMTIH
 70
     0
  9
$DIMTOH
 70
     0
  9
$DIMSE1
 70
     0
  9
$DIMSE2
 70
     0
  9
$DIMTAD
 70
     3
  9
$DIMZIN
 70
     8
  9
$DIMBLK
  1
OPEN30
  9
$DIMASO
 70
     1
  9
$DIMSHO
 70
     1
  9
$DIMPOST
  1

  9
$DIMAPOST
  1
"
  9
$DIMALT
 70
     0
  9
$DIMALTD
 70
     2
  9
$DIMALTF
 40
0.0393701
  9
$DIMLFAC
 40
1.0
  9
$DIMTOFL
 70
     1
  9
$DIMTVP
 40
0.0
  9
$DIMTIX
 70
     0
  9
$DIMSOXD
 70
     0
  9
$DIMSAH
 70
     0
  9
$DIMBLK1
  1

  9
$DIMBLK2
  1

  9
$DIMSTYLE
  2
AM_JIS
  9
$DIMCLRD
 70
   256
  9
$DIMCLRE
 70
   256
  9
$DIMCLRT
 70
     2
  9
$DIMTFAC
 40
0.71
  9
$DIMGAP
 40
1.5
  9
$DIMJUST
 70
     0
  9
$DIMSD1
 70
     0
  9
$DIMSD2
 70
     0
  9
$DIMTOLJ
 70
     0
  9
$DIMTZIN
 70
     0
  9
$DIMALTZ
 70
     0
  9
$DIMALTTZ
 70
     0
  9
$DIMFIT
 70
     3
  9
$DIMUPT
 70
     0
  9
$DIMUNIT
 70
     2
  9
$DIMDEC
 70
     3
  9
$DIMTDEC
 70
     3
  9
$DIMALTU
 70
     2
  9
$DIMALTTD
 70
     2
  9
$DIMTXSTY
  7
ASAMI
  9
$DIMAUNIT
 70
     0
  9
$LUNITS
 70
     2
  9
$LUPREC
 70
     2
  9
$SKETCHINC
 40
1.0
  9
$FILLETRAD
 40
2.0
  9
$AUNITS
 70
     0
  9
$AUPREC
 70
     0
  9
$MENU
  1
.
  9
$ELEVATION
 40
0.0
  9
$PELEVATION
 40
0.0
  9
$THICKNESS
 40
0.0
  9
$LIMCHECK
 70
     0
  9
$BLIPMODE
 70
     0
  9
$CHAMFERA
 40
0.5
  9
$CHAMFERB
 40
0.5
  9
$CHAMFERC
 40
20.0
  9
$CHAMFERD
 40
0.0
  9
$SKPOLY
 70
     0
  9
$TDCREATE
 40
2452809.403188831
  9
$TDUPDATE
 40
2452844.463372754
  9
$TDINDWG
 40
0.0745690625
  9
$TDUSRTIMER
 40
0.0745690625
  9
$USRTIMER
 70
     1
  9
$ANGBASE
 50
0.0
  9
$ANGDIR
 70
     0
  9
$PDMODE
 70
     0
  9
$PDSIZE
 40
0.0
  9
$PLINEWID
 40
0.0
  9
$COORDS
 70
     2
  9
$SPLFRAME
 70
     0
  9
$SPLINETYPE
 70
     6
  9
$SPLINESEGS
 70
     8
  9
$ATTDIA
 70
     1
  9
$ATTREQ
 70
     1
  9
$HANDLING
 70
 12289
  9
$HANDSEED
  5
1F75
  9
$SURFTAB1
 70
     6
  9
$SURFTAB2
 70
     6
  9
$SURFTYPE
 70
     6
  9
$SURFU
 70
     6
  9
$SURFV
 70
     6
  9
$UCSNAME
  2

  9
$UCSORG
 10
0.0000000000094209
 20
-0.0000000000000014
 30
0.0
  9
$UCSXDIR
 10
1.0
 20
0.0
 30
0.0
  9
$UCSYDIR
 10
0.0
 20
1.0
 30
0.0
  9
$PUCSNAME
  2

  9
$PUCSORG
 10
0.0
 20
0.0
 30
0.0
  9
$PUCSXDIR
 10
1.0
 20
0.0
 30
0.0
  9
$PUCSYDIR
 10
0.0
 20
1.0
 30
0.0
  9
$USERI1
 70
     0
  9
$USERI2
 70
     0
  9
$USERI3
 70
     0
  9
$USERI4
 70
     0
  9
$USERI5
 70
     0
  9
$USERR1
 40
0.0
  9
$USERR2
 40
0.0
  9
$USERR3
 40
0.0
  9
$USERR4
 40
0.0
  9
$USERR5
 40
0.0
  9
$WORLDVIEW
 70
     1
  9
$SHADEDGE
 70
     3
  9
$SHADEDIF
 70
    70
  9
$TILEMODE
 70
     1
  9
$MAXACTVP
 70
    64
  9
$PINSBASE
 10
0.0
 20
0.0
 30
0.0
  9
$PLIMCHECK
 70
     0
  9
$PEXTMIN
 10
1.000000000000000E+20
 20
1.000000000000000E+20
 30
1.000000000000000E+20
  9
$PEXTMAX
 10
-1.000000000000000E+20
 20
-1.000000000000000E+20
 30
-1.000000000000000E+20
  9
$PLIMMIN
 10
0.0
 20
0.0
  9
$PLIMMAX
 10
841.0
 20
594.0
  9
$UNITMODE
 70
     0
  9
$VISRETAIN
 70
     1
  9
$PLINEGEN
 70
     0
  9
$PSLTSCALE
 70
     0
  9
$TREEDEPTH
 70
  3020
  9
$PICKSTYLE
 70
     0
  9
$CMLSTYLE
  2
STANDARD
  9
$CMLJUST
 70
     0
  9
$CMLSCALE
 40
20.0
  9
$PROXYGRAPHICS
 70
     1
  9
$MEASUREMENT
 70
     1
  0
ENDSEC
  0
SECTION
  2
CLASSES
  0
CLASS
  1
ACDBDICTIONARYWDFLT
  2
AcDbDictionaryWithDefault
  3
AutoCAD 2000
 90
        0
280
     0
281
     0
  0
CLASS
  1
ACDBPLACEHOLDER
  2
AcDbPlaceHolder
  3
AutoCAD 2000
 90
        0
280
     0
281
     0
  0
CLASS
  1
LAYOUT
  2
AcDbLayout
  3
AutoCAD 2000
 90
        0
280
     0
281
     0
  0
CLASS
  1
AMGSETTINGSOBJ
  2
AmgSettingsObj
  3
"AcadM|Product Description: AutoCAD Mechanical 2000|Company: Autodesk"
 90
        0
280
     0
281
     0
  0
CLASS
  1
ACME_DOCUMENT
  2
AcMeDbDoc
  3
AcMeServices
 90
        0
280
     0
281
     0
  0
CLASS
  1
ACMESCOPE
  2
AcMeScope
  3
AcMeServices
 90
        0
280
     0
281
     0
  0
CLASS
  1
ACMECOMMANDHISTORY
  2
AcMeCommandHistory
  3
AcMeServices
 90
        0
280
     0
281
     0
  0
CLASS
  1
DICTIONARYVAR
  2
AcDbDictionaryVar
  3
AutoCAD 2000
 90
        0
280
     0
281
     0
  0
CLASS
  1
ACIMSYSVARMAN
  2
AcImSysVarManager
  3
AcMeServices
 90
        0
280
     0
281
     0
  0
CLASS
  1
ACIMREALSYSVAR
  2
AcImRealSysVar
  3
AcMeServices
 90
        0
280
     0
281
     0
  0
CLASS
  1
ACIMINTSYSVAR
  2
AcImIntSysVar
  3
AcMeServices
 90
        0
280
     0
281
     0
  0
CLASS
  1
ACMEDRAWINGMAN
  2
AcMeDrawingMan
  3
AcMeServices
 90
        0
280
     0
281
     0
  0
CLASS
  1
ACMEVIEW
  2
AcMeView
  3
AcMeServices
 90
        0
280
     0
281
     0
  0
CLASS
  1
ACDBENTITYCACHE
  2
AcMeEntityCache
  3
AcMeServices
 90
        0
280
     0
281
     0
  0
CLASS
  1
GSMANAGER
  2
AcMeGSManager
  3
AcMeServices
 90
        0
280
     0
281
     0
  0
CLASS
  1
AmdtInternalReactor
  2
AmdtInternalReactor
  3
AcMeServices
 90
        0
280
     0
281
     0
  0
CLASS
  1
ACMESTATEMGR
  2
AcMeStateMgr
  3
AcMeServices
 90
        0
280
     0
281
     0
  0
CLASS
  1
ACME_DATABASE
  2
AcMeDbDatabase
  3
AcMeServices
 90
        0
280
     0
281
     0
  0
CLASS
  1
ACRFINSADJUSTERMGR
  2
AcRfInsAdjusterMgr
  3
AcMeServices
 90
        0
280
     0
281
     0
  0
CLASS
  1
ACMDATADICTIONARY
  2
AcmDataDictionary
  3
"AcmSymBB|Product Description: AutoCAD Mechanical 2000|Company: Autodesk"
 90
        0
280
     0
281
     0
  0
CLASS
  1
ACMDATAENTRYBLOCK
  2
AcmDataEntryBlock
  3
"AcmSymBB|Product Description: AutoCAD Mechanical 2000|Company: Autodesk"
 90
        0
280
     0
281
     0
  0
CLASS
  1
AMGOBJPROPCFG
  2
AmgObjPropCfg
  3
"AmgLay|Product Description: AutoCAD Mechanical 2000|Company: Autodesk"
 90
        1
280
     0
281
     0
  0
CLASS
  1
ACAMGFILTERDAT
  2
AcAmgFilterDat
  3
"AcadM|Product Description: AutoCAD Mechanical 2000|Company: Autodesk"
 90
        0
280
     0
281
     0
  0
CLASS
  1
LAYER_INDEX
  2
AcDbLayerIndex
  3
AutoCAD 2000
 90
        0
280
     0
281
     0
  0
CLASS
  1
IDBUFFER
  2
AcDbIdBuffer
  3
AutoCAD 2000
 90
        0
280
     0
281
     0
  0
CLASS
  1
ACIMSTRSYSVAR
  2
AcImStrSysVar
  3
AcMeServices
 90
        0
280
     0
281
     0
  0
CLASS
  1
ACMSTANDARDJIS
  2
AcmStandardJIS
  3
"AcmSymBB|Product Description: AutoCAD Mechanical 2000|Company: Autodesk"
 90
        0
280
     0
281
     0
  0
CLASS
  1
ACMSURFSTANDARDJIS
  2
AcmSurfTextStdJIS
  3
"AcmSymBB|Product Description: AutoCAD Mechanical 2000|Company: Autodesk"
 90
        0
280
     0
281
     0
  0
CLASS
  1
ACMFCFSTANDARDJIS
  2
AcmFCFStdJIS
  3
"AcmSymBB|Product Description: AutoCAD Mechanical 2000|Company: Autodesk"
 90
        0
280
     0
281
     0
  0
CLASS
  1
ACMWELDSTANDARDJIS
  2
AcmWeldingStdJIS
  3
"AcmSymBB|Product Description: AutoCAD Mechanical 2000|Company: Autodesk"
 90
        0
280
     0
281
     0
  0
CLASS
  1
ACMIDSTANDARDJIS
  2
AcmIdStdJIS
  3
"AcmSymBB|Product Description: AutoCAD Mechanical 2000|Company: Autodesk"
 90
        0
280
     0
281
     0
  0
CLASS
  1
ACMDATUMSTANDARDJIS
  2
AcmDatumStdJIS
  3
"AcmSymBB|Product Description: AutoCAD Mechanical 2000|Company: Autodesk"
 90
        0
280
     0
281
     0
  0
CLASS
  1
ACMBOMSTANDARDJIS
  2
AcmBOMStdJIS
  3
"AcmSymBB|Product Description: AutoCAD Mechanical 2000|Company: Autodesk"
 90
        0
280
     0
281
     0
  0
CLASS
  1
ACMSTANDARDANSI
  2
AcmStandardANSI
  3
"AcmSymBB|Product Description: AutoCAD Mechanical 2000|Company: Autodesk"
 90
        0
280
     0
281
     0
  0
CLASS
  1
ACMSURFSTANDARDANSI
  2
AcmSurfTextStdANSI
  3
"AcmSymBB|Product Description: AutoCAD Mechanical 2000|Company: Autodesk"
 90
        0
280
     0
281
     0
  0
CLASS
  1
ACMFCFSTANDARDANSI
  2
AcmFCFStdANSI
  3
"AcmSymBB|Product Description: AutoCAD Mechanical 2000|Company: Autodesk"
 90
        0
280
     0
281
     0
  0
CLASS
  1
ACMWELDSTANDARDANSI
  2
AcmWeldingStdANSI
  3
"AcmSymBB|Product Description: AutoCAD Mechanical 2000|Company: Autodesk"
 90
        0
280
     0
281
     0
  0
CLASS
  1
ACMIDSTANDARDANSI
  2
AcmIdStdANSI
  3
"AcmSymBB|Product Description: AutoCAD Mechanical 2000|Company: Autodesk"
 90
        0
280
     0
281
     0
  0
CLASS
  1
ACMDATUMSTANDARDANSI
  2
AcmDatumStdANSI
  3
"AcmSymBB|Product Description: AutoCAD Mechanical 2000|Company: Autodesk"
 90
        0
280
     0
281
     0
  0
CLASS
  1
ACMBOMSTANDARDANSI
  2
AcmBOMStdANSI
  3
"AcmSymBB|Product Description: AutoCAD Mechanical 2000|Company: Autodesk"
 90
        0
280
     0
281
     0
  0
CLASS
  1
ACMSTANDARDBSI
  2
AcmStandardBSI
  3
"AcmSymBB|Product Description: AutoCAD Mechanical 2000|Company: Autodesk"
 90
        0
280
     0
281
     0
  0
CLASS
  1
ACMSURFSTANDARDBSI
  2
AcmSurfTextStdBSI
  3
"AcmSymBB|Product Description: AutoCAD Mechanical 2000|Company: Autodesk"
 90
        0
280
     0
281
     0
  0
CLASS
  1
ACMFCFSTANDARDBSI
  2
AcmFCFStdBSI
  3
"AcmSymBB|Product Description: AutoCAD Mechanical 2000|Company: Autodesk"
 90
        0
280
     0
281
     0
  0
CLASS
  1
ACMWELDSTANDARDBSI
  2
AcmWeldingStdBSI
  3
"AcmSymBB|Product Description: AutoCAD Mechanical 2000|Company: Autodesk"
 90
        0
280
     0
281
     0
  0
CLASS
  1
ACMIDSTANDARDBSI
  2
AcmIdStdBSI
  3
"AcmSymBB|Product Description: AutoCAD Mechanical 2000|Company: Autodesk"
 90
        0
280
     0
281
     0
  0
CLASS
  1
ACMDATUMSTANDARDBSI
  2
AcmDatumStdBSI
  3
"AcmSymBB|Product Description: AutoCAD Mechanical 2000|Company: Autodesk"
 90
        0
280
     0
281
     0
  0
CLASS
  1
ACMBOMSTANDARDBSI
  2
AcmBOMStdBSI
  3
"AcmSymBB|Product Description: AutoCAD Mechanical 2000|Company: Autodesk"
 90
        0
280
     0
281
     0
  0
CLASS
  1
SORTENTSTABLE
  2
AcDbSortentsTable
  3
AutoCAD 2000
 90
        0
280
     0
281
     0
  0
CLASS
  1
LONG_TRANSACTION
  2
AcDbLongTransaction
  3
AutoCAD 2000
 90
        0
280
     0
281
     0
  0
CLASS
  1
LWPOLYLINE
  2
AcDbPolyline
  3
AutoCAD 2000
 90
        0
280
     0
281
     1
  0
CLASS
  1
HATCH
  2
AcDbHatch
  3
AutoCAD 2000
 90
        0
280
     0
281
     1
  0
CLASS
  1
XRECORD
  2
AcDbXrecord
  3
AutoCAD 2000
 90
        0
280
     0
281
     0
  0
ENDSEC
  0
SECTION
  2
TABLES
  0
TABLE
  2
VPORT
  5
8
330
0
100
AcDbSymbolTable
 70
     3
  0
VPORT
  5
1F44
330
8
100
AcDbSymbolTableRecord
100
AcDbViewportTableRecord
  2
*ACTIVE
 70
     0
 10
0.0
 20
0.0
 11
1.0
 21
1.0
 12
-57.48650165533587
 22
-23.40415052819153
 13
0.0
 23
0.0
 14
2.5
 24
2.5
 15
10.0
 25
10.0
 16
0.0
 26
0.0
 36
1.0
 17
0.0
 27
0.0
 37
0.0
 40
97.10913281748995
 41
1.56570841889117
 42
50.0
 43
0.0
 44
0.0
 50
0.0
 51
0.0
 71
     0
 72
   100
 73
     1
 74
     3
 75
     0
 76
     0
 77
     0
 78
     0
  0
ENDTAB
  0
TABLE
  2
LTYPE
  5
5
330
0
100
AcDbSymbolTable
 70
    10
  0
LTYPE
  5
14
330
5
100
AcDbSymbolTableRecord
100
AcDbLinetypeTableRecord
  2
BYBLOCK
 70
     0
  3

 72
    65
 73
     0
 40
0.0
  0
LTYPE
  5
15
330
5
100
AcDbSymbolTableRecord
100
AcDbLinetypeTableRecord
  2
BYLAYER
 70
     0
  3

 72
    65
 73
     0
 40
0.0
  0
LTYPE
  5
16
330
5
100
AcDbSymbolTableRecord
100
AcDbLinetypeTableRecord
  2
CONTINUOUS
 70
     0
  3
Solid line
 72
    65
 73
     0
 40
0.0
  0
LTYPE
  5
4B
330
5
100
AcDbSymbolTableRecord
100
AcDbLinetypeTableRecord
  2
AM_ISO02W050
 70
     0
  3
__ __ __ __ __ __ __ __ __ __ __ __ __ __ __
 72
    65
 73
     2
 40
7.5
 49
6.0
 74
     0
 49
-1.5
 74
     0
  0
LTYPE
  5
4C
330
5
100
AcDbSymbolTableRecord
100
AcDbLinetypeTableRecord
  2
AM_ISO08W050
 70
     0
  3
____ . ____ . ____ . ____ . ____ . ____ . ____
 72
    65
 73
     4
 40
18.0
 49
12.0
 74
     0
 49
-1.5
 74
     0
 49
3.0
 74
     0
 49
-1.5
 74
     0
  0
LTYPE
  5
4D
330
5
100
AcDbSymbolTableRecord
100
AcDbLinetypeTableRecord
  2
AM_ISO09W050
 70
     0
  3
_____ . . _____ . . _____ . . ____ .. ____
 72
    65
 73
     6
 40
22.5
 49
12.0
 74
     0
 49
-1.5
 74
     0
 49
3.0
 74
     0
 49
-1.5
 74
     0
 49
3.0
 74
     0
 49
-1.5
 74
     0
  0
LTYPE
  5
4E
330
5
100
AcDbSymbolTableRecord
100
AcDbLinetypeTableRecord
  2
AMCONSTR
 70
     0
  3
_______________________
 72
    65
 73
     2
 40
9999.0
 49
9999.0
 74
     0
 49
0.0
 74
     0
  0
LTYPE
  5
4F
330
5
100
AcDbSymbolTableRecord
100
AcDbLinetypeTableRecord
  2
AM_ISO02W050X2
 70
     0
  3
 _ _ _ _ _ _ _ _ _ _ _ _
 72
    65
 73
     2
 40
3.75
 49
3.0
 74
     0
 49
-0.75
 74
     0
  0
LTYPE
  5
50
330
5
100
AcDbSymbolTableRecord
100
AcDbLinetypeTableRecord
  2
AM_ISO08W050X2
 70
     0
  3
__ . __ . __ . __ . __ . __
 72
    65
 73
     4
 40
9.0
 49
6.0
 74
     0
 49
-0.75
 74
     0
 49
1.5
 74
     0
 49
-0.75
 74
     0
  0
LTYPE
  5
53
330
5
100
AcDbSymbolTableRecord
100
AcDbLinetypeTableRecord
  2
AMZIGZAG
 70
     0
  3
/\/-/\/-/\/-/\/-/\/-/\/
 72
    65
 73
     2
 40
11.00009999999999
 49
0.0001
 74
     4
 75
   135
340
52
 46
0.04
 50
0.0
 44
0.0
 45
0.0
 49
-11.0
 74
     0
  0
LTYPE
  5
166
330
5
100
AcDbSymbolTableRecord
100
AcDbLinetypeTableRecord
  2
ACJISTGL
 70
     0
  3
_ _ _ _ _
 72
    65
 73
     2
 40
3.0
 49
2.0
 74
     0
 49
-1.0
 74
     0
  0
LTYPE
  5
26A
330
5
100
AcDbSymbolTableRecord
100
AcDbLinetypeTableRecord
  2
ACJISTGB
 70
     0
  3
__ . . __ . .
 72
    65
 73
     6
 40
9.0
 49
4.0
 74
     0
 49
-1.0
 74
     0
 49
1.0
 74
     0
 49
-1.0
 74
     0
 49
1.0
 74
     0
 49
-1.0
 74
     0
  0
ENDTAB
  0
TABLE
  2
LAYER
  5
2
330
0
100
AcDbSymbolTable
 70
     7
  0
LAYER
  5
10
330
2
100
AcDbSymbolTableRecord
100
AcDbLayerTableRecord
  2
0
 70
     0
 62
     7
  6
CONTINUOUS
  0
LAYER
  5
3F9
330
2
100
AcDbSymbolTableRecord
100
AcDbLayerTableRecord
  2
AM_0
 70
     0
 62
     7
  6
CONTINUOUS
  0
LAYER
  5
BA4
330
2
100
AcDbSymbolTableRecord
100
AcDbLayerTableRecord
  2
AM_11
 70
     0
 62
     3
  6
AM_ISO09W050
  0
LAYER
  5
BA5
330
2
100
AcDbSymbolTableRecord
100
AcDbLayerTableRecord
  2
AM_7
 70
     0
 62
     4
  6
AM_ISO08W050
  0
LAYER
  5
D38
330
2
100
AcDbSymbolTableRecord
100
AcDbLayerTableRecord
  2
AM_5
 70
     0
 62
     3
  6
CONTINUOUS
  0
LAYER
  5
D3A
330
2
100
AcDbSymbolTableRecord
100
AcDbLayerTableRecord
  2
DEFPOINTS
 70
     0
 62
     7
  6
CONTINUOUS
  0
LAYER
  5
F16
330
2
100
AcDbSymbolTableRecord
100
AcDbLayerTableRecord
  2
AM_6
 70
     0
 62
     2
  6
CONTINUOUS
  0
ENDTAB
  0
TABLE
  2
STYLE
  5
3
330
0
100
AcDbSymbolTable
 70
     5
  0
STYLE
  5
11
330
3
100
AcDbSymbolTableRecord
100
AcDbTextStyleTableRecord
  2
STANDARD
 70
     0
 40
0.0
 41
1.0
 50
0.0
 71
     0
 42
2.5
  3
simplex.shx
  4
EXTFONT.SHX
  0
STYLE
  5
52
330
3
100
AcDbSymbolTableRecord
100
AcDbTextStyleTableRecord
  2

 70
     1
 40
0.0
 41
1.0
 50
0.0
 71
     0
 42
2.5
  3
ltypeshp.shx
  4

  0
STYLE
  5
6B
330
3
100
AcDbSymbolTableRecord
100
AcDbTextStyleTableRecord
  2
ASAMI
 70
     0
 40
0.0
 41
1.0
 50
0.0
 71
     0
 42
2.5
  3
simplex.shx
  4
EXTFONT.SHX
  0
STYLE
  5
262
330
3
100
AcDbSymbolTableRecord
100
AcDbTextStyleTableRecord
  2
ACJISTS
 70
     0
 40
1.0
 41
1.0
 50
0.0
 71
     0
 42
2.5
  3
simplex.shx
  4
bigfont.shx
  0
STYLE
  5
269
330
3
100
AcDbSymbolTableRecord
100
AcDbTextStyleTableRecord
  2
ACJISGDT
 70
     0
 40
0.0
 41
1.0
 50
0.0
 71
     0
 42
2.5
  3
amgdtans.shx
  4

  0
ENDTAB
  0
TABLE
  2
VIEW
  5
6
330
0
100
AcDbSymbolTable
 70
     0
  0
ENDTAB
  0
TABLE
  2
UCS
  5
7
330
0
100
AcDbSymbolTable
 70
     0
  0
ENDTAB
  0
TABLE
  2
APPID
  5
9
330
0
100
AcDbSymbolTable
 70
    13
  0
APPID
  5
12
330
9
100
AcDbSymbolTableRecord
100
AcDbRegAppTableRecord
  2
ACAD
 70
     0
  0
APPID
  5
30
330
9
100
AcDbSymbolTableRecord
100
AcDbRegAppTableRecord
  2
MCAD_NO_VIS
 70
     0
  0
APPID
  5
31
330
9
100
AcDbSymbolTableRecord
100
AcDbRegAppTableRecord
  2
ACAD_TEMP_GRAPHIC
 70
     0
  0
APPID
  5
2C2
330
9
100
AcDbSymbolTableRecord
100
AcDbRegAppTableRecord
  2
GENIUS_GENDTOL_13
 70
     0
  0
APPID
  5
339
330
9
100
AcDbSymbolTableRecord
100
AcDbRegAppTableRecord
  2
GENIUS_GENODEF_13
 70
     0
  0
APPID
  5
33A
330
9
100
AcDbSymbolTableRecord
100
AcDbRegAppTableRecord
  2
GENIUS_GENOBJ-N-RSBK_13
 70
     0
  0
APPID
  5
33B
330
9
100
AcDbSymbolTableRecord
100
AcDbRegAppTableRecord
  2
GENIUS_GENOBJ-N-LIB_13
 70
     0
  0
APPID
  5
33C
330
9
100
AcDbSymbolTableRecord
100
AcDbRegAppTableRecord
  2
GENIUS_GENSCALE_13
 70
     0
  0
APPID
  5
378
330
9
100
AcDbSymbolTableRecord
100
AcDbRegAppTableRecord
  2
GENIUS_GENDIMSH_14
 70
     0
  0
APPID
  5
BA6
330
9
100
AcDbSymbolTableRecord
100
AcDbRegAppTableRecord
  2
GENIUS_GENOBJ-N-CEN_13
 70
     0
  0
APPID
  5
D2B
330
9
100
AcDbSymbolTableRecord
100
AcDbRegAppTableRecord
  2
GENIUS_GENFIL_13
 70
     0
  0
APPID
  5
D2C
330
9
100
AcDbSymbolTableRecord
100
AcDbRegAppTableRecord
  2
GENIUS_GENOBJ-N-CHA_13
 70
     0
  0
APPID
  5
1CDE
330
9
100
AcDbSymbolTableRecord
100
AcDbRegAppTableRecord
  2
GENIUS_GENOBJ-N-FIL_13
 70
     0
  0
ENDTAB
  0
TABLE
  2
DIMSTYLE
  5
A
330
0
100
AcDbSymbolTable
 70
     8
  0
DIMSTYLE
105
58
102
{ACAD_REACTORS
330
D39
330
19A6
330
19D0
330
1E81
102
}
330
A
100
AcDbSymbolTableRecord
100
AcDbDimStyleTableRecord
  2
AM_JIS
 70
     0
  3

  4
"
  5
OPEN30
  6

  7

 40
1.0
 41
2.5
 42
1.0
 43
12.0
 44
1.0
 45
0.0
 46
0.0
 47
0.1
 48
0.1
140
3.2
141
0.0
142
0.0
143
0.0393701
144
1.0
145
0.0
146
0.71
147
1.5
 71
     0
 72
     0
 73
     0
 74
     0
 75
     0
 76
     0
 77
     3
 78
     8
170
     0
171
     2
172
     1
173
     0
174
     0
175
     0
176
   256
177
   256
178
     2
270
     2
271
     3
272
     3
273
     2
274
     2
340
6B
275
     0
280
     0
281
     0
282
     0
283
     0
284
     0
285
     0
286
     0
287
     3
288
     0
  0
DIMSTYLE
105
5F
330
A
100
AcDbSymbolTableRecord
100
AcDbDimStyleTableRecord
  2
AM_JIS$3
 70
     0
  3

  4
"
  5
OPEN30
  6

  7

 40
1.0
 41
2.5
 42
1.0
 43
10.0
 44
1.0
 45
0.0
 46
0.0
 47
0.1
 48
0.1
140
3.2
141
0.0
142
0.0
143
0.0393701
144
1.0
145
0.0
146
0.71
147
1.5
 71
     0
 72
     0
 73
     0
 74
     1
 75
     0
 76
     0
 77
     3
 78
     8
170
     0
171
     2
172
     0
173
     0
174
     0
175
     0
176
   256
177
   256
178
     2
270
     2
271
     2
272
     3
273
     2
274
     2
340
6B
275
     0
280
     0
281
     0
282
     0
283
     0
284
     0
285
     0
286
     0
287
     0
288
     1
  0
DIMSTYLE
105
60
102
{ACAD_REACTORS
330
1DF5
102
}
330
A
100
AcDbSymbolTableRecord
100
AcDbDimStyleTableRecord
  2
AM_JIS$4
 70
     0
  3

  4
"
  5
OPEN30
  6

  7

 40
1.0
 41
2.5
 42
1.0
 43
10.0
 44
1.0
 45
0.0
 46
0.0
 47
0.1
 48
0.1
140
3.2
141
0.0
142
0.0
143
0.0393701
144
1.0
145
0.0
146
0.71
147
1.5
 71
     0
 72
     0
 73
     0
 74
     1
 75
     0
 76
     0
 77
     3
 78
     8
170
     0
171
     2
172
     0
173
     0
174
     0
175
     0
176
   256
177
   256
178
     2
270
     2
271
     2
272
     3
273
     2
274
     2
340
6B
275
     0
280
     0
281
     0
282
     0
283
     0
284
     0
285
     0
286
     0
287
     0
288
     1
  0
DIMSTYLE
105
61
330
A
100
AcDbSymbolTableRecord
100
AcDbDimStyleTableRecord
  2
AM_JIS$6
 70
     0
  3

  4
"
  5
OPEN30
  6

  7

 40
1.0
 41
2.5
 42
1.0
 43
10.0
 44
1.0
 45
0.0
 46
0.0
 47
0.1
 48
0.1
140
3.2
141
0.0
142
0.0
143
0.0393701
144
1.0
145
0.0
146
0.71
147
1.5
 71
     0
 72
     0
 73
     0
 74
     0
 75
     0
 76
     0
 77
     0
 78
     8
170
     0
171
     2
172
     1
173
     0
174
     0
175
     0
176
   256
177
   256
178
     2
270
     2
271
     2
272
     2
273
     2
274
     2
340
6B
275
     0
280
     0
281
     0
282
     0
283
     0
284
     0
285
     0
286
     0
287
     3
288
     0
  0
DIMSTYLE
105
62
330
A
100
AcDbSymbolTableRecord
100
AcDbDimStyleTableRecord
  2
AM_JIS$7
 70
     0
  3

  4
"
  5
OPEN30
  6

  7

 40
1.0
 41
2.5
 42
1.0
 43
10.0
 44
1.0
 45
0.0
 46
0.0
 47
0.1
 48
0.1
140
3.2
141
0.0
142
0.0
143
0.0393701
144
1.0
145
0.0
146
0.71
147
1.5
 71
     0
 72
     0
 73
     0
 74
     0
 75
     0
 76
     0
 77
     3
 78
     8
170
     0
171
     2
172
     1
173
     0
174
     0
175
     0
176
   256
177
   256
178
     2
270
     2
271
     2
272
     3
273
     2
274
     2
340
6B
275
     0
280
     0
281
     0
282
     0
283
     0
284
     0
285
     0
286
     0
287
     3
288
     0
  0
DIMSTYLE
105
63
330
A
100
AcDbSymbolTableRecord
100
AcDbDimStyleTableRecord
  2
AM_JIS$SF
 70
     0
  3

  4
"
  5
OPEN30
  6

  7

 40
1.0
 41
2.5
 42
1.0
 43
10.0
 44
1.0
 45
0.0
 46
0.0
 47
0.1
 48
0.1
140
3.2
141
0.0
142
0.0
143
0.0393701
144
1.0
145
0.0
146
0.71
147
1.5
 71
     0
 72
     0
 73
     0
 74
     0
 75
     1
 76
     1
 77
     3
 78
     8
170
     0
171
     2
172
     1
173
     0
174
     0
175
     0
176
   256
177
   256
178
     2
270
     2
271
     2
272
     2
273
     2
274
     2
340
6B
275
     0
280
     0
281
     0
282
     0
283
     0
284
     0
285
     0
286
     0
287
     3
288
     0
  0
DIMSTYLE
105
68
330
A
100
AcDbSymbolTableRecord
100
AcDbDimStyleTableRecord
  2
AM_JIS$SH
 70
     0
  3

  4
"
  5

  6
GENAXEH
  7
OPEN30
 40
1.0
 41
2.5
 42
1.0
 43
10.0
 44
1.0
 45
0.0
 46
0.0
 47
0.1
 48
0.1
140
3.2
141
0.0
142
0.0
143
0.0393701
144
2.0
145
0.0
146
0.71
147
1.5
 71
     0
 72
     0
 73
     0
 74
     0
 75
     1
 76
     1
 77
     3
 78
     8
170
     0
171
     2
172
     1
173
     1
174
     0
175
     0
176
   256
177
   256
178
     2
270
     2
271
     2
272
     2
273
     2
274
     2
340
6B
275
     0
280
     0
281
     0
282
     0
283
     0
284
     0
285
     0
286
     0
287
     3
288
     0
  0
DIMSTYLE
105
B34
330
A
100
AcDbSymbolTableRecord
100
AcDbDimStyleTableRecord
  2
AM_JIS$2
 70
     0
  3

  4
"
  5
OPEN30
  6

  7

 40
1.0
 41
2.5
 42
1.0
 43
12.0
 44
1.0
 45
0.0
 46
0.0
 47
0.1
 48
0.1
140
3.2
141
0.0
142
0.0
143
0.0393701
144
1.0
145
0.0
146
0.71
147
1.5
 71
     0
 72
     0
 73
     0
 74
     0
 75
     0
 76
     0
 77
     3
 78
     8
170
     0
171
     2
172
     1
173
     0
174
     0
175
     0
176
   256
177
   256
178
     2
270
     2
271
     3
272
     3
273
     2
274
     2
340
6B
275
     0
280
     0
281
     0
282
     0
283
     0
284
     0
285
     0
286
     0
287
     3
288
     0
  0
ENDTAB
  0
TABLE
  2
BLOCK_RECORD
  5
1
330
0
100
AcDbSymbolTable
 70
    10
  0
BLOCK_RECORD
  5
1F
102
{ACAD_XDICTIONARY
360
74
102
}
330
1
100
AcDbSymbolTableRecord
100
AcDbBlockTableRecord
  2
*MODEL_SPACE
  0
BLOCK_RECORD
  5
101
102
{ACAD_XDICTIONARY
360
1F6D
102
}
330
1
100
AcDbSymbolTableRecord
100
AcDbBlockTableRecord
  2
*PAPER_SPACE
  0
BLOCK_RECORD
  5
59
330
1
100
AcDbSymbolTableRecord
100
AcDbBlockTableRecord
  2
_OPEN30
  0
BLOCK_RECORD
  5
64
330
1
100
AcDbSymbolTableRecord
100
AcDbBlockTableRecord
  2
GENAXEH
  0
BLOCK_RECORD
  5
D3B
330
1
100
AcDbSymbolTableRecord
100
AcDbBlockTableRecord
  2
*D5
  0
BLOCK_RECORD
  5
19A7
330
1
100
AcDbSymbolTableRecord
100
AcDbBlockTableRecord
  2
*D6
  0
BLOCK_RECORD
  5
19D1
330
1
100
AcDbSymbolTableRecord
100
AcDbBlockTableRecord
  2
*D7
  0
BLOCK_RECORD
  5
1DF6
330
1
100
AcDbSymbolTableRecord
100
AcDbBlockTableRecord
  2
*D8
  0
BLOCK_RECORD
  5
1E82
330
1
100
AcDbSymbolTableRecord
100
AcDbBlockTableRecord
  2
*D9
  0
ENDTAB
  0
ENDSEC
  0
SECTION
  2
BLOCKS
  0
BLOCK
  5
20
330
1F
100
AcDbEntity
  8
0
100
AcDbBlockBegin
  2
*MODEL_SPACE
 70
     0
 10
0.0
 20
0.0
 30
0.0
  3
*MODEL_SPACE
  1

  0
ENDBLK
  5
21
330
1F
100
AcDbEntity
  8
0
100
AcDbBlockEnd
  0
BLOCK
  5
103
330
101
100
AcDbEntity
 67
     1
  8
0
100
AcDbBlockBegin
  2
*PAPER_SPACE
 70
     0
 10
0.0
 20
0.0
 30
0.0
  3
*PAPER_SPACE
  1

  0
ENDBLK
  5
104
330
101
100
AcDbEntity
 67
     1
  8
0
100
AcDbBlockEnd
  0
BLOCK
  5
5D
330
59
100
AcDbEntity
  8
0
100
AcDbBlockBegin
  2
_OPEN30
 70
     0
 10
0.0
 20
0.0
 30
0.0
  3
_OPEN30
  1

  0
LINE
  5
5A
330
59
100
AcDbEntity
  8
0
 62
     0
100
AcDbLine
 10
-1.0
 20
0.26794919
 30
0.0
 11
0.0
 21
0.0
 31
0.0
  0
LINE
  5
5B
330
59
100
AcDbEntity
  8
0
 62
     0
100
AcDbLine
 10
0.0
 20
0.0
 30
0.0
 11
-1.0
 21
-0.26794919
 31
0.0
  0
LINE
  5
5C
330
59
100
AcDbEntity
  8
0
 62
     0
100
AcDbLine
 10
0.0
 20
0.0
 30
0.0
 11
-1.0
 21
0.0
 31
0.0
  0
ENDBLK
  5
5E
330
59
100
AcDbEntity
  8
0
100
AcDbBlockEnd
  0
BLOCK
  5
66
330
64
100
AcDbEntity
  8
0
100
AcDbBlockBegin
  2
GENAXEH
 70
     0
 10
0.0
 20
0.0
 30
0.0
  3
GENAXEH
  1

  0
LINE
  5
65
330
64
100
AcDbEntity
  8
0
100
AcDbLine
 10
-1.0
 20
0.0
 30
0.0
 11
1.0
 21
0.0
 31
0.0
  0
ENDBLK
  5
67
330
64
100
AcDbEntity
  8
0
100
AcDbBlockEnd
  0
BLOCK
  5
D45
330
D3B
100
AcDbEntity
  8
0
100
AcDbBlockBegin
  2
*D5
 70
     1
 10
0.0
 20
0.0
 30
0.0
  3
*D5
  1

  0
LINE
  5
1C04
330
D3B
100
AcDbEntity
  8
AM_5
100
AcDbLine
 10
-115.0
 20
-8.200000000000059
 30
0.0
 11
-115.0
 21
-34.99999999999996
 31
0.0
  0
LINE
  5
1C05
330
D3B
100
AcDbEntity
  8
AM_5
100
AcDbLine
 10
-0.0000000000021741
 20
-9.0
 30
0.0
 11
-0.0000000000021757
 21
-34.99999999999996
 31
0.0
  0
LINE
  5
1C06
330
D3B
100
AcDbEntity
  8
AM_5
100
AcDbLine
 10
-112.5
 20
-33.99999999999995
 30
0.0
 11
-2.500000000002175
 21
-33.99999999999995
 31
0.0
  0
INSERT
  5
1C07
330
D3B
100
AcDbEntity
  8
AM_5
100
AcDbBlockReference
  2
_OPEN30
 10
-115.0
 20
-33.99999999999995
 30
0.0
 41
2.5
 42
2.5
 43
2.5
 50
180.0
  0
INSERT
  5
1C08
330
D3B
100
AcDbEntity
  8
AM_5
100
AcDbBlockReference
  2
_OPEN30
 10
-0.0000000000021756
 20
-33.99999999999995
 30
0.0
 41
2.5
 42
2.5
 43
2.5
  0
MTEXT
  5
1C09
330
D3B
100
AcDbEntity
  8
AM_5
 62
     2
100
AcDbMText
 10
-57.50000000000109
 20
-30.89999999999995
 30
0.0
 40
3.2
 41
0.0
 71
     5
 72
     1
  1
115
  7
ASAMI
1001
ACAD
1000
MTEXTBEGIN
1070
    73
1070
     1
1070
    44
1040
1.0
1070
    74
1070
     0
1000
MTEXTEND
  0
POINT
  5
1C0A
330
D3B
100
AcDbEntity
  8
DEFPOINTS
 62
     0
100
AcDbPoint
 10
-115.0
 20
-7.200000000000058
 30
0.0
  0
POINT
  5
1C0B
330
D3B
100
AcDbEntity
  8
DEFPOINTS
 62
     0
100
AcDbPoint
 10
-0.0000000000021741
 20
-7.999999999999999
 30
0.0
  0
POINT
  5
1C0C
330
D3B
100
AcDbEntity
  8
DEFPOINTS
 62
     0
100
AcDbPoint
 10
-0.0000000000021756
 20
-33.99999999999995
 30
0.0
  0
ENDBLK
  5
D46
330
D3B
100
AcDbEntity
  8
0
100
AcDbBlockEnd
  0
BLOCK
  5
19B1
330
19A7
100
AcDbEntity
  8
0
100
AcDbBlockBegin
  2
*D6
 70
     1
 10
0.0
 20
0.0
 30
0.0
  3
*D6
  1

  0
LINE
  5
19DD
330
19A7
100
AcDbEntity
  8
AM_5
100
AcDbLine
 10
1.00000000002102
 20
-8.00000000006602
 30
0.0
 11
18.23076923079025
 21
-8.000000000066025
 31
0.0
  0
LINE
  5
19DE
330
19A7
100
AcDbEntity
  8
AM_5
100
AcDbLine
 10
1.000000000021021
 20
7.999999999999936
 30
0.0
 11
18.23076923079026
 21
7.999999999999931
 31
0.0
  0
LINE
  5
19DF
330
19A7
100
AcDbEntity
  8
AM_5
100
AcDbLine
 10
17.23076923079025
 20
-5.500000000066025
 30
0.0
 11
17.23076923079025
 21
5.499999999999932
 31
0.0
  0
INSERT
  5
19E0
330
19A7
100
AcDbEntity
  8
AM_5
100
AcDbBlockReference
  2
_OPEN30
 10
17.23076923079025
 20
-8.000000000066025
 30
0.0
 41
2.5
 42
2.5
 43
2.5
 50
270.0
  0
INSERT
  5
19E1
330
19A7
100
AcDbEntity
  8
AM_5
100
AcDbBlockReference
  2
_OPEN30
 10
17.23076923079025
 20
7.999999999999932
 30
0.0
 41
2.5
 42
2.5
 43
2.5
 50
90.0
  0
MTEXT
  5
19E2
330
19A7
100
AcDbEntity
  8
AM_5
 62
     2
100
AcDbMText
 10
14.13076923079025
 20
-0.0000000000330436
 30
0.0
 40
3.2
 41
0.0
 71
     5
 72
     1
  1
%%c16
  7
ASAMI
 11
0.0000000000000001
 21
1.0
 31
0.0
1001
ACAD
1000
MTEXTBEGIN
1070
    73
1070
     1
1070
    44
1040
1.0
1070
    74
1070
     0
1000
MTEXTEND
  0
POINT
  5
19E3
330
19A7
100
AcDbEntity
  8
DEFPOINTS
 62
     0
100
AcDbPoint
 10
0.0000000000210202
 20
-8.00000000006602
 30
0.0
  0
POINT
  5
19E4
330
19A7
100
AcDbEntity
  8
DEFPOINTS
 62
     0
100
AcDbPoint
 10
0.0000000000210211
 20
7.999999999999936
 30
0.0
  0
POINT
  5
19E5
330
19A7
100
AcDbEntity
  8
DEFPOINTS
 62
     0
100
AcDbPoint
 10
17.23076923079025
 20
7.999999999999932
 30
0.0
  0
ENDBLK
  5
19B2
330
19A7
100
AcDbEntity
  8
0
100
AcDbBlockEnd
  0
BLOCK
  5
19DB
330
19D1
100
AcDbEntity
  8
0
100
AcDbBlockBegin
  2
*D7
 70
     1
 10
0.0
 20
0.0
 30
0.0
  3
*D7
  1

  0
LINE
  5
1BFB
330
19D1
100
AcDbEntity
  8
AM_5
100
AcDbLine
 10
-0.0000000000021741
 20
-9.0
 30
0.0
 11
-0.000000000002175
 21
-22.99999999999995
 31
0.0
  0
LINE
  5
1BFC
330
19D1
100
AcDbEntity
  8
AM_5
100
AcDbLine
 10
-32.00000000000216
 20
-8.995655773625991
 30
0.0
 11
-32.00000000000216
 21
-22.99999999999995
 31
0.0
  0
LINE
  5
1BFD
330
19D1
100
AcDbEntity
  8
AM_5
100
AcDbLine
 10
-2.500000000002174
 20
-21.99999999999995
 30
0.0
 11
-29.50000000000216
 21
-21.99999999999995
 31
0.0
  0
INSERT
  5
1BFE
330
19D1
100
AcDbEntity
  8
AM_5
100
AcDbBlockReference
  2
_OPEN30
 10
-0.0000000000021749
 20
-21.99999999999995
 30
0.0
 41
2.5
 42
2.5
 43
2.5
  0
INSERT
  5
1BFF
330
19D1
100
AcDbEntity
  8
AM_5
100
AcDbBlockReference
  2
_OPEN30
 10
-32.00000000000216
 20
-21.99999999999995
 30
0.0
 41
2.5
 42
2.5
 43
2.5
 50
180.0
  0
MTEXT
  5
1C00
330
19D1
100
AcDbEntity
  8
AM_5
 62
     2
100
AcDbMText
 10
-16.00000000000217
 20
-18.89999999999995
 30
0.0
 40
3.2
 41
0.0
 71
     5
 72
     1
  1
32
  7
ASAMI
1001
ACAD
1000
MTEXTBEGIN
1070
    73
1070
     1
1070
    44
1040
1.0
1070
    74
1070
     0
1000
MTEXTEND
  0
POINT
  5
1C01
330
19D1
100
AcDbEntity
  8
DEFPOINTS
 62
     0
100
AcDbPoint
 10
-0.0000000000021741
 20
-7.999999999999999
 30
0.0
  0
POINT
  5
1C02
330
19D1
100
AcDbEntity
  8
DEFPOINTS
 62
     0
100
AcDbPoint
 10
-32.00000000000216
 20
-7.99565577362599
 30
0.0
  0
POINT
  5
1C03
330
19D1
100
AcDbEntity
  8
DEFPOINTS
 62
     0
100
AcDbPoint
 10
-32.00000000000216
 20
-21.99999999999995
 30
0.0
  0
ENDBLK
  5
19DC
330
19D1
100
AcDbEntity
  8
0
100
AcDbBlockEnd
  0
BLOCK
  5
1DFC
330
1DF6
100
AcDbEntity
  8
0
100
AcDbBlockBegin
  2
*D8
 70
     1
 10
0.0
 20
0.0
 30
0.0
  3
*D8
  1

  0
LINE
  5
1F6F
330
1DF6
100
AcDbEntity
  8
AM_5
100
AcDbLine
 10
9.040039087566867
 20
-17.65049278482745
 30
0.0
 11
1.095216274086121
 21
-9.266169377149626
 31
0.0
  0
MTEXT
  5
1F70
330
1DF6
100
AcDbEntity
  8
AM_5
 62
     2
100
AcDbMText
 10
8.424312941983179
 20
-12.49375036109173
 30
0.0
 40
3.2
 41
0.0
 71
     5
 72
     1
  1
R2
  7
ASAMI
 11
0.6878258386817783
 21
-0.7258757577173303
 31
0.0
  0
LINE
  5
1F71
330
1DF6
100
AcDbEntity
  8
AM_5
100
AcDbLine
 10
-1.99999999998188
 20
-5.999728467421642
 30
0.0
 11
-0.624348322618324
 21
-7.451479982856302
 31
0.0
  0
INSERT
  5
1F72
330
1DF6
100
AcDbEntity
  8
AM_5
100
AcDbBlockReference
  2
_OPEN30
 10
-0.624348322618324
 20
-7.451479982856302
 30
0.0
 41
2.5
 42
2.5
 43
2.5
 50
133.458250618114
  0
POINT
  5
1F73
330
1DF6
100
AcDbEntity
  8
DEFPOINTS
 62
     0
100
AcDbPoint
 10
-0.624348322618324
 20
-7.451479982856302
 30
0.0
  0
POINT
  5
1F74
330
1DF6
100
AcDbEntity
  8
DEFPOINTS
 62
     0
100
AcDbPoint
 10
-1.99999999998188
 20
-5.999728467421642
 30
0.0
  0
ENDBLK
  5
1DFD
330
1DF6
100
AcDbEntity
  8
0
100
AcDbBlockEnd
  0
BLOCK
  5
1E8C
330
1E82
100
AcDbEntity
  8
0
100
AcDbBlockBegin
  2
*D9
 70
     1
 10
0.0
 20
0.0
 30
0.0
  3
*D9
  1

  0
LINE
  5
1EFB
330
1E82
100
AcDbEntity
  8
AM_5
100
AcDbLine
 10
-115.4999999999999
 20
7.99999999999996
 30
0.0
 11
-129.5
 21
7.999999999999963
 31
0.0
  0
LINE
  5
1EFC
330
1E82
100
AcDbEntity
  8
AM_5
100
AcDbLine
 10
-115.5
 20
-8.00000000000006
 30
0.0
 11
-129.5
 21
-8.000000000000055
 31
0.0
  0
LINE
  5
1EFD
330
1E82
100
AcDbEntity
  8
AM_5
100
AcDbLine
 10
-128.5
 20
5.499999999999963
 30
0.0
 11
-128.5
 21
-5.500000000000056
 31
0.0
  0
INSERT
  5
1EFE
330
1E82
100
AcDbEntity
  8
AM_5
100
AcDbBlockReference
  2
_OPEN30
 10
-128.5
 20
7.999999999999963
 30
0.0
 41
2.5
 42
2.5
 43
2.5
 50
90.0
  0
INSERT
  5
1EFF
330
1E82
100
AcDbEntity
  8
AM_5
100
AcDbBlockReference
  2
_OPEN30
 10
-128.5
 20
-8.000000000000056
 30
0.0
 41
2.5
 42
2.5
 43
2.5
 50
270.0
  0
MTEXT
  5
1F00
330
1E82
100
AcDbEntity
  8
AM_5
 62
     2
100
AcDbMText
 10
-131.6
 20
-0.0000000000000668
 30
0.0
 40
3.2
 41
0.0
 71
     5
 72
     1
  1
%%c16
  7
ASAMI
 11
0.0000000000000001
 21
1.0
 31
0.0
1001
ACAD
1000
MTEXTBEGIN
1070
    73
1070
     1
1070
    44
1040
1.0
1070
    74
1070
     0
1000
MTEXTEND
  0
POINT
  5
1F01
330
1E82
100
AcDbEntity
  8
DEFPOINTS
 62
     0
100
AcDbPoint
 10
-114.4999999999999
 20
7.99999999999996
 30
0.0
  0
POINT
  5
1F02
330
1E82
100
AcDbEntity
  8
DEFPOINTS
 62
     0
100
AcDbPoint
 10
-114.5
 20
-8.00000000000006
 30
0.0
  0
POINT
  5
1F03
330
1E82
100
AcDbEntity
  8
DEFPOINTS
 62
     0
100
AcDbPoint
 10
-128.5
 20
-8.000000000000056
 30
0.0
  0
ENDBLK
  5
1E8D
330
1E82
100
AcDbEntity
  8
0
100
AcDbBlockEnd
  0
ENDSEC
  0
SECTION
  2
ENTITIES
  0
DIMENSION
  5
D39
330
1F
100
AcDbEntity
  8
AM_5
100
AcDbDimension
  2
*D5
 10
-0.0000000000021756
 20
-33.99999999999995
 30
0.0
 11
-57.50000000000109
 21
-30.89999999999995
 31
0.0
 70
    32
  1
<>
  3
AM_JIS
100
AcDbAlignedDimension
 13
-115.0
 23
-7.200000000000058
 33
0.0
 14
-0.0000000000021741
 24
-7.999999999999999
 34
0.0
100
AcDbRotatedDimension
1001
GENIUS_GENDTOL_13
1000

1000
h7
1000

1040
0.0
  0
TEXT
  5
F17
330
1F
100
AcDbEntity
  8
AM_6
100
AcDbText
 10
-88.33333333333333
 20
-56.42660827866213
 30
0.0
 40
5.0
  1
SSUP4160ZX-R20
 72
     1
 11
-55.0
 21
-53.92660827866213
 31
0.0
100
AcDbText
 73
     2
  0
LINE
  5
17C9
330
1F
100
AcDbEntity
  8
AM_0
100
AcDbLine
 10
-114.9999999999999
 20
7.199999999999961
 30
0.0
 11
-114.4999999999999
 21
7.99999999999996
 31
0.0
1001
GENIUS_GENFIL_13
1070
     0
1040
0.5
1040
0.5
1040
20.0
1040
0.0
1002
{
1002
}
1001
GENIUS_GENODEF_13
1002
{
1000
HIER
1070
     0
1002
}
1002
{
1000
MANEDIT
1070
     0
1002
}
1002
{
1000
NOSEL
1070
     0
1002
}
1002
{
1000
BEHIND
1070
     0
1002
}
1002
{
1000
REACTOR
1002
}
1001
GENIUS_GENOBJ-N-CHA_13
1002
{
1000
OWNER
1000
GEN
1002
}
  0
LINE
  5
17CA
330
1F
100
AcDbEntity
  8
AM_0
100
AcDbLine
 10
-115.0
 20
-7.200000000000058
 30
0.0
 11
-114.5
 21
-8.00000000000006
 31
0.0
1001
GENIUS_GENFIL_13
1070
     0
1040
0.5
1040
0.5
1040
20.0
1040
0.0
1002
{
1002
}
1001
GENIUS_GENODEF_13
1002
{
1000
HIER
1070
     0
1002
}
1002
{
1000
MANEDIT
1070
     0
1002
}
1002
{
1000
NOSEL
1070
     0
1002
}
1002
{
1000
BEHIND
1070
     0
1002
}
1002
{
1000
REACTOR
1002
}
1001
GENIUS_GENOBJ-N-CHA_13
1002
{
1000
OWNER
1000
GEN
1002
}
  0
LINE
  5
17CB
330
1F
100
AcDbEntity
  8
AM_0
100
AcDbLine
 10
-114.9999999999999
 20
7.192149145451534
 30
0.0
 11
-115.0
 21
-7.200000000000058
 31
0.0
  0
LINE
  5
17CC
330
1F
100
AcDbEntity
  8
AM_0
100
AcDbLine
 10
-114.4999999999999
 20
-8.00000000000006
 30
0.0
 11
-114.4999999999999
 21
7.99607457272571
 31
0.0
  0
LINE
  5
17CD
330
1F
100
AcDbEntity
  8
AM_7
  6
AM_ISO08W050X2
100
AcDbLine
 10
4.530570278608138
 20
0.0000000000000012
 30
0.0
 11
-117.5931415575491
 21
-0.000000000000064
 31
0.0
1001
GENIUS_GENODEF_13
1002
{
1000
HIER
1070
     0
1002
}
1002
{
1000
MANEDIT
1070
     0
1002
}
1002
{
1000
NOSEL
1070
     0
1002
}
1002
{
1000
BEHIND
1070
     0
1002
}
1002
{
1000
REACTOR
1002
}
1001
GENIUS_GENOBJ-N-CEN_13
1002
{
1000
OWNER
1000
GEN
1002
}
  0
LINE
  5
17CE
330
1F
100
AcDbEntity
  8
AM_0
100
AcDbLine
 10
-114.5
 20
-8.00000000000006
 30
0.0
 11
-28.91508452690868
 21
-7.999999999999878
 31
0.0
  0
LINE
  5
17CF
330
1F
100
AcDbEntity
  8
AM_0
100
AcDbLine
 10
-114.4999999999999
 20
7.99999999999996
 30
0.0
 11
-37.60491048356837
 21
7.999999999999937
 31
0.0
  0
LINE
  5
1987
330
1F
100
AcDbEntity
  8
AM_0
100
AcDbLine
 10
-2.721105625689233
 20
7.999999999999938
 30
0.0
 11
-1.999999999999278
 21
7.999999999999937
 31
0.0
  0
LINE
  5
1988
330
1F
100
AcDbEntity
  8
AM_0
100
AcDbLine
 10
-0.1831529906831081
 20
1.502811811099674
 30
0.0
 11
-0.6921242374157452
 21
3.592269018734806
 31
0.0
  0
LINE
  5
1989
330
1F
100
AcDbEntity
  8
AM_0
100
AcDbLine
 10
-0.0166138390243755
 20
-0.2065204369857372
 30
0.0
 11
-2.068880007335899
 21
-0.0028817394704663
 31
0.0
  0
LINE
  5
198A
330
1F
100
AcDbEntity
  8
AM_0
100
AcDbLine
 10
-0.1831529906831081
 20
-2.455148903220468
 30
0.0
 11
-0.6360004218297114
 21
-3.45599202155572
 31
0.0
  0
LINE
  5
198B
330
1F
100
AcDbEntity
  8
AM_0
100
AcDbLine
 10
-0.1831529906831081
 20
-2.455148903220468
 30
0.0
 11
-0.0166138390243755
 21
-1.886520436986028
 31
0.0
  0
LINE
  5
198C
330
1F
100
AcDbEntity
  8
AM_0
100
AcDbLine
 10
-0.0166138390243755
 20
-0.2401537922709383
 30
0.0
 11
-0.1831529906831081
 21
1.502811811099674
 31
0.0
  0
LINE
  5
198E
330
1F
100
AcDbEntity
  8
AM_0
100
AcDbLine
 10
-0.3318763902997082
 20
-7.103070491827908
 30
0.0
 11
-0.6374595436852852
 21
-5.938932914415999
 31
0.0
  0
LINE
  5
198F
330
1F
100
AcDbEntity
  8
AM_0
100
AcDbLine
 10
-2.721105625689233
 20
-7.999999999944969
 30
0.0
 11
-2.000271514127753
 21
-7.999728448991658
 31
0.0
  0
LINE
  5
1991
330
1F
100
AcDbEntity
  8
AM_0
100
AcDbLine
 10
-0.1665391516602452
 20
-6.798741181758346
 30
0.0
 11
-0.1665391516602453
 21
-2.398422891902372
 31
0.0
  0
LINE
  5
1992
330
1F
100
AcDbEntity
  8
AM_0
100
AcDbLine
 10
0.0000000000007199
 20
6.000000000002837
 30
0.0
 11
0.0000000000181197
 21
-5.999728467418741
 31
0.0
  0
LINE
  5
1993
330
1F
100
AcDbEntity
  8
AM_0
100
AcDbLine
 10
-32.00000000000217
 20
4.020138653744425
 30
0.0
 11
-32.00000000000217
 21
6.004434624675401
 31
0.0
  0
POLYLINE
  5
1994
330
1F
100
AcDbEntity
  8
AM_0
100
AcDb2dPolyline
 66
     1
 10
0.0
 20
0.0
 30
0.0
 70
     2
  0
VERTEX
  5
1995
330
1994
100
AcDbEntity
  8
AM_0
100
AcDbVertex
100
AcDb2dVertex
 10
-32.00000000000217
 20
-3.692573550216001
 30
0.0
 42
-0.0129986936669445
  0
VERTEX
  5
1996
330
1994
100
AcDbEntity
  8
AM_0
100
AcDbVertex
100
AcDb2dVertex
 10
-33.8028998142973
 20
-2.145399650513581
 30
0.0
 42
-0.0238378164251699
 70
     1
  0
VERTEX
  5
1997
330
1994
100
AcDbEntity
  8
AM_0
100
AcDbVertex
100
AcDb2dVertex
 10
-34.72727272727491
 20
-1.224061683667786
 30
0.0
 42
-0.0087697151677761
  0
VERTEX
  5
1998
330
1994
100
AcDbEntity
  8
AM_0
100
AcDbVertex
100
AcDb2dVertex
 10
-37.15072307833922
 20
1.528355857335692
 30
0.0
 42
-0.016586017082525
 70
     1
  0
VERTEX
  5
1999
330
1994
100
AcDbEntity
  8
AM_0
100
AcDbVertex
100
AcDb2dVertex
 10
-38.36363636363854
 20
3.053547841700265
 30
0.0
 42
-0.0451742545712589
  0
VERTEX
  5
199A
330
1994
100
AcDbEntity
  8
AM_0
100
AcDbVertex
100
AcDb2dVertex
 10
-39.17610276532093
 20
4.373297949716788
 30
0.0
 42
-0.1465772931919247
 70
     1
  0
VERTEX
  5
199B
330
1994
100
AcDbEntity
  8
AM_0
100
AcDbVertex
100
AcDb2dVertex
 10
-39.27272727272944
 20
4.862645500520103
 30
0.0
 42
-0.2363269648915856
  0
VERTEX
  5
199C
330
1994
100
AcDbEntity
  8
AM_0
100
AcDbVertex
100
AcDb2dVertex
 10
-39.10168603476556
 20
5.175567361043523
 30
0.0
 42
-0.0944295254831177
 70
     1
  0
VERTEX
  5
199D
330
1994
100
AcDbEntity
  8
AM_0
100
AcDbVertex
100
AcDb2dVertex
 10
-38.36363636363854
 20
5.497027422150973
 30
0.0
 42
-0.0735428200704349
  0
VERTEX
  5
199E
330
1994
100
AcDbEntity
  8
AM_0
100
AcDbVertex
100
AcDb2dVertex
 10
-37.41165674171728
 20
5.540924337719685
 30
0.0
 42
-0.025664050315163
 70
     1
  0
VERTEX
  5
199F
330
1994
100
AcDbEntity
  8
AM_0
100
AcDbVertex
100
AcDb2dVertex
 10
-34.72727272727491
 20
5.075773998763135
 30
0.0
 42
-0.0327084143688329
  0
VERTEX
  5
19A0
330
1994
100
AcDbEntity
  8
AM_0
100
AcDbVertex
100
AcDb2dVertex
 10
-33.49834450447136
 20
4.697344181170094
 30
0.0
 42
-0.0257576852941419
 70
     1
  0
VERTEX
  5
19A1
330
1994
100
AcDbEntity
  8
AM_0
100
AcDbVertex
100
AcDb2dVertex
 10
-32.00000000000217
 20
4.020138653744425
 30
0.0
  0
SEQEND
  5
19A2
330
1994
100
AcDbEntity
  8
AM_0
  0
LINE
  5
19A3
330
1F
100
AcDbEntity
  8
AM_11
100
AcDbLine
 10
-32.00000000000217
 20
7.999999999999936
 30
0.0
 11
-32.00000000000216
 21
-7.99565577362599
 31
0.0
  0
LINE
  5
19A4
330
1F
100
AcDbEntity
  8
AM_11
100
AcDbLine
 10
-0.0000000000000003
 20
-7.999999999999997
 30
0.0
 11
-32.00000000000216
 21
-7.99565577362599
 31
0.0
  0
LINE
  5
19A5
330
1F
100
AcDbEntity
  8
AM_11
100
AcDbLine
 10
-32.00000000000217
 20
7.999999999999936
 30
0.0
 11
-0.0000000000021797
 21
7.999999999999937
 31
0.0
  0
DIMENSION
  5
19A6
330
1F
100
AcDbEntity
  8
AM_5
100
AcDbDimension
  2
*D6
 10
17.23076923079025
 20
7.999999999999932
 30
0.0
 11
14.13076923079025
 21
-0.0000000000330436
 31
0.0
 70
    32
  1
%%c<>
  3
AM_JIS
100
AcDbAlignedDimension
 13
0.0000000000210202
 23
-8.00000000006602
 33
0.0
 14
0.0000000000210211
 24
7.999999999999936
 34
0.0
 50
90.0
100
AcDbRotatedDimension
1001
GENIUS_GENDTOL_13
1000

1000
h7
1000

1040
0.0
  0
SPLINE
  5
19B3
330
1F
100
AcDbEntity
  8
AM_0
100
AcDbSpline
210
0.0
220
0.0
230
1.0
 70
     8
 71
     3
 72
     8
 73
     4
 74
     0
 42
0.0000000001
 43
0.0000000001
 40
0.6393216442353146
 40
0.6393216442353146
 40
0.6393216442353146
 40
0.6393216442353146
 40
10.49653484266006
 40
10.49653484266006
 40
10.49653484266006
 40
10.49653484266006
 10
-37.6049104835787
 20
7.999999999999936
 30
0.0
 10
-31.73314991013354
 20
6.806955326504978
 30
0.0
 10
-27.62723663380581
 20
3.504775168108245
 30
0.0
 10
-23.52132335747677
 20
0.2025950097115139
 30
0.0
  0
SPLINE
  5
19B4
330
1F
100
AcDbEntity
  8
AM_0
100
AcDbSpline
210
0.0
220
0.0
230
1.0
 70
     8
 71
     3
 72
     8
 73
     4
 74
     0
 42
0.0000000001
 43
0.0000000001
 40
0.0
 40
0.0
 40
0.0
 40
0.0
 40
0.6152373134461622
 40
0.6152373134461622
 40
0.6152373134461622
 40
0.6152373134461622
 10
-25.46124891501101
 20
-7.606156013531107
 30
0.0
 10
-25.75954579425763
 20
-7.606156013531107
 30
0.0
 10
-26.05500221137244
 20
-7.593098137633864
 30
0.0
 10
-26.34778464930086
 20
-7.567747723851151
 30
0.0
  0
SPLINE
  5
19B5
330
1F
100
AcDbEntity
  8
AM_0
100
AcDbSpline
210
0.0
220
0.0
230
1.0
 70
     8
 71
     3
 72
     8
 73
     4
 74
     0
 42
0.0000000001
 43
0.0000000001
 40
0.0
 40
0.0
 40
0.0
 40
0.0
 40
6.420166228128741
 40
6.420166228128741
 40
6.420166228128741
 40
6.420166228128741
 10
-23.30265790521813
 20
-6.904506920252059
 30
0.0
 10
-26.41519090057721
 20
-6.859003907134545
 30
0.0
 10
-29.25964933090893
 20
-5.525825507880653
 30
0.0
 10
-32.00000000000217
 20
-3.692573550216001
 30
0.0
  0
SPLINE
  5
19B6
330
1F
100
AcDbEntity
  8
AM_0
100
AcDbSpline
210
0.0
220
0.0
230
1.0
 70
     8
 71
     3
 72
     8
 73
     4
 74
     0
 42
0.0000000001
 43
0.0000000001
 40
5.215942287204468
 40
5.215942287204468
 40
5.215942287204468
 40
5.215942287204468
 40
10.4969207889486
 40
10.4969207889486
 40
10.4969207889486
 40
10.4969207889486
 10
-32.00000000000214
 20
5.249047841430162
 30
0.0
 10
-29.75022332353272
 20
3.820740596079168
 30
0.0
 10
-27.60573611917113
 20
1.908407584402471
 30
0.0
 10
-25.46124891480992
 20
-0.0039254272742244
 30
0.0
  0
SPLINE
  5
19B7
330
1F
100
AcDbEntity
  8
AM_0
100
AcDbSpline
210
0.0
220
0.0
230
1.0
 70
     8
 71
     3
 72
     8
 73
     4
 74
     0
 42
0.0000000001
 43
0.0000000001
 40
6.902118198828401
 40
6.902118198828401
 40
6.902118198828401
 40
6.902118198828401
 40
10.61176705360581
 40
10.61176705360581
 40
10.61176705360581
 40
10.61176705360581
 10
-32.0000000000024
 20
4.020138653744107
 30
0.0
 10
-30.48073891591554
 20
2.792705019691244
 30
0.0
 10
-29.00036945795891
 20
1.394389796208498
 30
0.0
 10
-27.52000000000228
 20
-0.0039254272742244
 30
0.0
  0
SPLINE
  5
19B8
330
1F
100
AcDbEntity
  8
AM_0
100
AcDbSpline
210
0.0
220
0.0
230
1.0
 70
     8
 71
     3
 72
     8
 73
     4
 74
     0
 42
0.0000000001
 43
0.0000000001
 40
0.0
 40
0.0
 40
0.0
 40
0.0
 40
3.781496139134591
 40
3.781496139134591
 40
3.781496139134591
 40
3.781496139134591
 10
-11.84670346026428
 20
-7.606156013531107
 30
0.0
 10
-10.0132507867447
 20
-7.606156013531452
 30
0.0
 10
-8.287105839380176
 20
-7.112852140451709
 30
0.0
 10
-6.629611209937057
 20
-6.303956194636596
 30
0.0
  0
SPLINE
  5
19B9
330
1F
100
AcDbEntity
  8
AM_0
100
AcDbSpline
210
0.0
220
0.0
230
1.0
 70
     8
 71
     3
 72
     8
 73
     4
 74
     0
 42
0.0000000001
 43
0.0000000001
 40
0.6152373134470183
 40
0.6152373134470183
 40
0.6152373134470183
 40
0.6152373134470183
 40
8.843083020165714
 40
8.843083020165714
 40
8.843083020165714
 40
8.843083020165714
 10
-10.96016772597285
 20
7.559896869302611
 30
0.0
 10
-7.044656309055286
 20
7.220874367501165
 30
0.0
 10
-3.60738386649033
 20
4.683341592892976
 30
0.0
 10
-0.2501513968959274
 20
1.777857412712911
 30
0.0
  0
SPLINE
  5
19BA
330
1F
100
AcDbEntity
  8
AM_0
100
AcDbSpline
210
0.0
220
0.0
230
1.0
 70
     8
 71
     3
 72
     8
 73
     4
 74
     0
 42
0.0000000001
 43
0.0000000001
 40
1.614480654414863
 40
1.614480654414863
 40
1.614480654414863
 40
1.614480654414863
 40
10.4969207889486
 40
10.4969207889486
 40
10.4969207889486
 40
10.4969207889486
 10
-0.5248218667309958
 20
-7.350228180556906
 30
0.0
 10
-4.632783083301631
 20
-6.436893669012654
 30
0.0
 10
-8.239743271782641
 20
-3.220409548143439
 30
0.0
 10
-11.84670346026428
 20
-0.0039254272742244
 30
0.0
  0
SPLINE
  5
19BB
330
1F
100
AcDbEntity
  8
AM_0
100
AcDbSpline
210
0.0
220
0.0
230
1.0
 70
     8
 71
     3
 72
     8
 73
     4
 74
     0
 42
0.0000000001
 43
0.0000000001
 40
3.266224444355238
 40
3.266224444355238
 40
3.266224444355238
 40
3.266224444355238
 40
10.49653484266006
 40
10.49653484266006
 40
10.49653484266006
 40
10.49653484266006
 10
-0.6374595436852852
 20
-5.938932914415635
 30
0.0
 10
-3.883366040212282
 20
-4.64173310934493
 30
0.0
 10
-6.895071971572368
 20
-2.219569049816708
 30
0.0
 10
-9.906777902931793
 20
0.2025950097115139
 30
0.0
  0
SPLINE
  5
19BC
330
1F
100
AcDbEntity
  8
AM_0
100
AcDbSpline
210
0.0
220
0.0
230
1.0
 70
     8
 71
     3
 72
     8
 73
     4
 74
     0
 42
0.0000000001
 43
0.0000000001
 40
0.6393216439718838
 40
0.6393216439718838
 40
0.6393216439718838
 40
0.6393216439718838
 40
6.996796499348805
 40
6.996796499348805
 40
6.996796499348805
 40
6.996796499348805
 10
-9.203416030463259
 20
7.258574435446281
 30
0.0
 10
-6.172534629464635
 20
6.967299703906247
 30
0.0
 10
-3.388507453566845
 20
5.490279843606914
 30
0.0
 10
-0.6921242374150837
 20
3.592269018734806
 30
0.0
  0
SPLINE
  5
19BD
330
1F
100
AcDbEntity
  8
AM_0
100
AcDbSpline
210
0.0
220
0.0
230
1.0
 70
     8
 71
     3
 72
     8
 73
     4
 74
     0
 42
0.0000000001
 43
0.0000000001
 40
0.0
 40
0.0
 40
0.0
 40
0.0
 40
2.4079390838223
 40
2.4079390838223
 40
2.4079390838223
 40
2.4079390838223
 10
-10.12544335539284
 20
-6.904506920252059
 30
0.0
 10
-8.958060832433751
 20
-6.887440620124651
 30
0.0
 10
-7.828388094470302
 20
-6.689238291850414
 30
0.0
 10
-6.727774394710014
 20
-6.35145312685854
 30
0.0
  0
SPLINE
  5
19BE
330
1F
100
AcDbEntity
  8
AM_0
100
AcDbSpline
210
0.0
220
0.0
230
1.0
 70
     8
 71
     3
 72
     9
 73
     5
 74
     0
 42
0.0000000001
 43
0.0000000001
 40
0.0
 40
0.0
 40
0.0
 40
0.0
 40
0.6574415203969619
 40
3.123721247380082
 40
3.123721247380082
 40
3.123721247380082
 40
3.123721247380082
 10
-2.068880007335899
 20
-0.0028817394704663
 30
0.0
 10
-2.386350509942376
 20
0.028619671335081
 30
0.0
 10
-4.195371444993989
 20
-1.036346032659687
 30
0.0
 10
-1.348878091044214
 20
-2.39994843608362
 30
0.0
 10
-0.6360004218297114
 20
-3.45599202155572
 30
0.0
  0
SPLINE
  5
19BF
330
1F
100
AcDbEntity
  8
AM_0
100
AcDbSpline
210
0.0
220
0.0
230
1.0
 70
     8
 71
     3
 72
     8
 73
     4
 74
     0
 42
0.0000000001
 43
0.0000000001
 40
0.0
 40
0.0
 40
0.0
 40
0.0
 40
1.551838382253894
 40
1.551838382253894
 40
1.551838382253894
 40
1.551838382253894
 10
-0.636000421815821
 20
-3.455992021576456
 30
0.0
 10
-0.3879351682004268
 20
-4.237363108805027
 30
0.0
 10
-0.4983546429292034
 20
-5.125553498714188
 30
0.0
 10
-0.6374595436852852
 20
-5.938932914415999
 30
0.0
  0
SPLINE
  5
19C0
330
1F
100
AcDbEntity
  8
AM_0
100
AcDbSpline
210
0.0
220
0.0
230
1.0
 70
     8
 71
     3
 72
     8
 73
     4
 74
     0
 42
0.0000000001
 43
0.0000000001
 40
0.0
 40
0.0
 40
0.0
 40
0.0
 40
10.49692078894909
 40
10.49692078894909
 40
10.49692078894909
 40
10.49692078894909
 10
-11.84670346026362
 20
-7.606156013531107
 30
0.0
 10
-16.93611960036015
 20
-7.606156013531107
 30
0.0
 10
-21.19868425758504
 20
-3.805040720402665
 30
0.0
 10
-25.46124891480992
 20
-0.0039254272742244
 30
0.0
  0
SPLINE
  5
19C1
330
1F
100
AcDbEntity
  8
AM_0
100
AcDbSpline
210
0.0
220
0.0
230
1.0
 70
     8
 71
     3
 72
     8
 73
     4
 74
     0
 42
0.0000000001
 43
0.0000000001
 40
0.0
 40
0.0
 40
0.0
 40
0.0
 40
10.49653484265986
 40
10.49653484265986
 40
10.49653484265986
 40
10.49653484265986
 10
-9.68811245047075
 20
-6.904506920252059
 30
0.0
 10
-14.77689206673269
 20
-6.830112590625319
 30
0.0
 10
-19.14910771210473
 20
-3.313758790456902
 30
0.0
 10
-23.52132335747677
 20
0.2025950097115139
 30
0.0
  0
SPLINE
  5
19C2
330
1F
100
AcDbEntity
  8
AM_0
100
AcDbSpline
210
0.0
220
0.0
230
1.0
 70
     8
 71
     3
 72
     8
 73
     4
 74
     0
 42
0.0000000001
 43
0.0000000001
 40
0.0
 40
0.0
 40
0.0
 40
0.0
 40
10.61065478016067
 40
10.61065478016067
 40
10.61065478016067
 40
10.61065478016067
 10
-13.90545454545598
 20
-8.000147713526869
 30
0.0
 10
-19.05001443886721
 20
-8.000147713526869
 30
0.0
 10
-23.28500721943475
 20
-4.002036570400547
 30
0.0
 10
-27.52000000000228
 20
-0.0039254272742244
 30
0.0
  0
SPLINE
  5
19C3
330
1F
100
AcDbEntity
  8
AM_0
100
AcDbSpline
210
0.0
220
0.0
230
1.0
 70
     8
 71
     3
 72
     8
 73
     4
 74
     0
 42
0.0000000001
 43
0.0000000001
 40
0.6152373134470183
 40
0.6152373134470183
 40
0.6152373134470183
 40
0.6152373134470183
 40
10.4969207889486
 40
10.4969207889486
 40
10.4969207889486
 40
10.4969207889486
 10
-24.57471318051849
 20
7.559896869302611
 30
0.0
 10
-19.87216456137042
 20
7.152729164256744
 30
0.0
 10
-15.85943401081768
 20
3.574401868491259
 30
0.0
 10
-11.84670346026362
 20
-0.0039254272742244
 30
0.0
  0
SPLINE
  5
19C4
330
1F
100
AcDbEntity
  8
AM_0
100
AcDbSpline
210
0.0
220
0.0
230
1.0
 70
     8
 71
     3
 72
     8
 73
     4
 74
     0
 42
0.0000000001
 43
0.0000000001
 40
0.6393216442358057
 40
0.6393216442358057
 40
0.6393216442358057
 40
0.6393216442358057
 40
10.49653484266006
 40
10.49653484266006
 40
10.49653484266006
 40
10.49653484266006
 10
-22.81796148463055
 20
7.258574435410265
 30
0.0
 10
-18.11860445558856
 20
6.806955326504612
 30
0.0
 10
-14.01269117926018
 20
3.504775168108245
 30
0.0
 10
-9.906777902931793
 20
0.2025950097115139
 30
0.0
  0
SPLINE
  5
19C5
330
1F
100
AcDbEntity
  8
AM_0
100
AcDbSpline
210
0.0
220
0.0
230
1.0
 70
     8
 71
     3
 72
     8
 73
     4
 74
     0
 42
0.0000000001
 43
0.0000000001
 40
0.0
 40
0.0
 40
0.0
 40
0.0
 40
2.093133798227362
 40
2.093133798227362
 40
2.093133798227362
 40
2.093133798227362
 10
-13.90545454545664
 20
-8.000147713526507
 30
0.0
 10
-12.89060179480113
 20
-8.003925427274044
 30
0.0
 10
-11.91116829600206
 20
-7.848300716866468
 30
0.0
 10
-10.96016772597351
 20
-7.567747723851242
 30
0.0
  0
SPLINE
  5
19C6
330
1F
100
AcDbEntity
  8
AM_0
100
AcDbSpline
210
0.0
220
0.0
230
1.0
 70
     8
 71
     3
 72
     8
 73
     4
 74
     0
 42
0.0000000001
 43
0.0000000001
 40
0.0
 40
0.0
 40
0.0
 40
0.0
 40
3.977355368879245
 40
3.977355368879245
 40
3.977355368879245
 40
3.977355368879245
 10
-25.46124891501101
 20
-7.606156013531107
 30
0.0
 10
-23.53283419070615
 20
-7.60615601353147
 30
0.0
 10
-21.72313087597304
 20
-7.060428317880176
 30
0.0
 10
-19.98715840253881
 20
-6.175752897951314
 30
0.0
  0
SPLINE
  5
19C7
330
1F
100
AcDbEntity
  8
AM_0
100
AcDbSpline
210
0.0
220
0.0
230
1.0
 70
     8
 71
     3
 72
     8
 73
     4
 74
     0
 42
0.0000000001
 43
0.0000000001
 40
0.0
 40
0.0
 40
0.0
 40
0.0
 40
2.4079390838223
 40
2.4079390838223
 40
2.4079390838223
 40
2.4079390838223
 10
-23.73998881014022
 20
-6.904506920252059
 30
0.0
 10
-22.57260628718047
 20
-6.887440620124651
 30
0.0
 10
-21.44293354921769
 20
-6.689238291850414
 30
0.0
 10
-20.3423198494574
 20
-6.35145312685854
 30
0.0
  0
SPLINE
  5
19C8
330
1F
100
AcDbEntity
  8
AM_0
100
AcDbSpline
210
0.0
220
0.0
230
1.0
 70
     8
 71
     3
 72
     8
 73
     4
 74
     0
 42
0.0000000001
 43
0.0000000001
 40
0.2725981709865456
 40
0.2725981709865456
 40
0.2725981709865456
 40
0.2725981709865456
 40
2.093133798227362
 40
2.093133798227362
 40
2.093133798227362
 40
2.093133798227362
 10
-28.91508452690848
 20
-7.999999999999869
 30
0.0
 10
-28.0235889641629
 20
-7.961271113147084
 30
0.0
 10
-27.17493216406058
 20
-7.811763046496116
 30
0.0
 10
-26.34778464930086
 20
-7.567747723851264
 30
0.0
  0
SPLINE
  5
19C9
330
1F
100
AcDbEntity
  8
AM_0
100
AcDbSpline
210
0.0
220
0.0
230
1.0
 70
     8
 71
     3
 72
     8
 73
     4
 74
     0
 42
0.0000000001
 43
0.0000000001
 40
0.1925119343883644
 40
0.1925119343883644
 40
0.1925119343883644
 40
0.1925119343883644
 40
10.61176705360627
 40
10.61176705360627
 40
10.61176705360627
 40
10.61176705360627
 10
-2.721105625689233
 20
-7.999999999944969
 30
0.0
 10
-5.58965558066533
 20
-7.858794511063465
 30
0.0
 10
-9.747555063060985
 20
-3.931359969168845
 30
0.0
 10
-13.90545454545664
 20
-0.0039254272742244
 30
0.0
  0
SPLINE
  5
19CA
330
1F
100
AcDbEntity
  8
AM_0
100
AcDbSpline
210
0.0
220
0.0
230
1.0
 70
     8
 71
     3
 72
     8
 73
     4
 74
     0
 42
0.0000000001
 43
0.0000000001
 40
0.0
 40
0.0
 40
0.0
 40
0.0
 40
3.983447643433449
 40
3.983447643433449
 40
3.983447643433449
 40
3.983447643433449
 10
-27.52000000000162
 20
7.999999999999936
 30
0.0
 10
-29.45136855439331
 20
7.996074572725411
 30
0.0
 10
-31.25445572692678
 20
7.432433280047781
 30
0.0
 10
-32.97741581326853
 20
6.516730497351137
 30
0.0
  0
SPLINE
  5
19CB
330
1F
100
AcDbEntity
  8
AM_0
100
AcDbSpline
210
0.0
220
0.0
230
1.0
 70
     8
 71
     3
 72
     8
 73
     4
 74
     0
 42
0.0000000001
 43
0.0000000001
 40
0.0
 40
0.0
 40
0.0
 40
0.0
 40
10.61176705360661
 40
10.61176705360661
 40
10.61176705360661
 40
10.61176705360661
 10
-27.52000000000162
 20
7.999999999999936
 30
0.0
 10
-22.37490082249604
 20
7.996074572725775
 30
0.0
 10
-18.14017768397601
 20
3.996074572725774
 30
0.0
 10
-13.90545454545598
 20
-0.0039254272742244
 30
0.0
  0
SPLINE
  5
19CC
330
1F
100
AcDbEntity
  8
AM_0
100
AcDbSpline
210
0.0
220
0.0
230
1.0
 70
     8
 71
     3
 72
     8
 73
     4
 74
     0
 42
0.0000000001
 43
0.0000000001
 40
0.0
 40
0.0
 40
0.0
 40
0.0
 40
10.7633540680078
 40
10.7633540680078
 40
10.7633540680078
 40
10.7633540680078
 10
-13.90545454545598
 20
7.999999999999958
 30
0.0
 10
-8.686858633694619
 20
7.996074572725775
 30
0.0
 10
-4.363209500305464
 20
3.998037286362886
 30
0.0
 10
-0.0395603669163114
 20
-0.0000000000000021
 30
0.0
  0
SPLINE
  5
19CD
330
1F
100
AcDbEntity
  8
AM_0
100
AcDbSpline
210
0.0
220
0.0
230
1.0
 70
     8
 71
     3
 72
     8
 73
     4
 74
     0
 42
0.0000000001
 43
0.0000000001
 40
0.0
 40
0.0
 40
0.0
 40
0.0
 40
4.066976460604825
 40
4.066976460604825
 40
4.066976460604825
 40
4.066976460604825
 10
-13.90545454545598
 20
7.999999999999958
 30
0.0
 10
-15.87732192029499
 20
7.996074572725411
 30
0.0
 10
-17.715471649835
 20
7.408547486895623
 30
0.0
 10
-19.47115123254168
 20
6.45866399755214
 30
0.0
  0
SPLINE
  5
19CE
330
1F
100
AcDbEntity
  8
AM_0
100
AcDbSpline
210
0.0
220
0.0
230
1.0
 70
     8
 71
     3
 72
     8
 73
     4
 74
     0
 42
0.0000000001
 43
0.0000000001
 40
1.431528947184555
 40
1.431528947184555
 40
1.431528947184555
 40
1.431528947184555
 40
4.066976460604845
 40
4.066976460604845
 40
4.066976460604845
 40
4.066976460604845
 10
-2.721105625689233
 20
7.999999999999938
 30
0.0
 10
-3.546573887415206
 20
7.537574542039036
 30
0.0
 10
-4.718905219503502
 20
7.074199421540546
 30
0.0
 10
-5.856605777996703
 20
6.45866399755214
 30
0.0
  0
SPLINE
  5
19CF
330
1F
100
AcDbEntity
  8
AM_0
100
AcDbSpline
210
0.0
220
0.0
230
1.0
 70
     8
 71
     3
 72
     8
 73
     4
 74
     0
 42
0.0000000001
 43
0.0000000001
 40
0.6314554241876453
 40
0.6314554241876453
 40
0.6314554241876453
 40
0.6314554241876453
 40
2.847661750814433
 40
2.847661750814433
 40
2.847661750814433
 40
2.847661750814433
 10
-0.3431083967663497
 20
7.120138480338956
 30
0.0
 10
-0.7300725159290079
 20
6.199012224569881
 30
0.0
 10
-2.15782054254359
 20
5.649585999803975
 30
0.0
 10
-3.541772388822896
 20
5.386471401157542
 30
0.0
  0
DIMENSION
  5
19D0
330
1F
100
AcDbEntity
  8
AM_5
100
AcDbDimension
  2
*D7
 10
-32.00000000000216
 20
-21.99999999999995
 30
0.0
 11
-16.00000000000217
 21
-18.89999999999995
 31
0.0
 70
    32
  1
<>
  3
AM_JIS
100
AcDbAlignedDimension
 13
-0.0000000000021741
 23
-7.999999999999999
 33
0.0
 14
-32.00000000000216
 24
-7.99565577362599
 34
0.0
100
AcDbRotatedDimension
1001
GENIUS_GENDTOL_13
1000

1000
h7
1000

1040
0.0
  0
LINE
  5
1BE8
330
1F
100
AcDbEntity
  8
AM_11
100
AcDbLine
 10
-0.0000000000021797
 20
7.999999999999937
 30
0.0
 11
-0.0000000000000003
 21
-7.999999999999997
 31
0.0
  0
ARC
  5
1DE6
330
1F
100
AcDbEntity
  8
AM_0
100
AcDbCircle
 10
-1.999999999999279
 20
5.999999999999937
 30
0.0
 40
2.0
100
AcDbArc
 50
0.0000000000830506
 51
89.99999999999994
1001
GENIUS_GENODEF_13
1002
{
1000
HIER
1070
     0
1002
}
1002
{
1000
MANEDIT
1070
     0
1002
}
1002
{
1000
NOSEL
1070
     0
1002
}
1002
{
1000
BEHIND
1070
     0
1002
}
1002
{
1000
REACTOR
1002
}
1001
GENIUS_GENOBJ-N-FIL_13
1002
{
1000
OWNER
1000
GEN
1002
}
  0
ARC
  5
1DE8
330
1F
100
AcDbEntity
  8
AM_0
100
AcDbCircle
 10
-1.99999999998188
 20
-5.999728467421641
 30
0.0
 40
2.0
100
AcDbArc
 50
269.9922216926577
 51
0.0000000000830761
1001
GENIUS_GENODEF_13
1002
{
1000
HIER
1070
     0
1002
}
1002
{
1000
MANEDIT
1070
     0
1002
}
1002
{
1000
NOSEL
1070
     0
1002
}
1002
{
1000
BEHIND
1070
     0
1002
}
1002
{
1000
REACTOR
1002
}
1001
GENIUS_GENOBJ-N-FIL_13
1002
{
1000
OWNER
1000
GEN
1002
}
  0
DIMENSION
  5
1DF5
330
1F
100
AcDbEntity
  8
AM_5
100
AcDbDimension
  2
*D8
 10
-1.99999999998188
 20
-5.999728467421642
 30
0.0
 11
6.174098093059456
 21
-14.62601046100524
 31
0.0
 70
   164
  1
<>
  3
AM_JIS$4
100
AcDbRadialDimension
 15
-0.624348322618324
 25
-7.451479982856302
 35
0.0
 40
0.0
1001
GENIUS_GENDTOL_13
1000

1000
h7
1000

1040
0.0
1001
ACAD
1000
DSTYLE
1002
{
1070
   287
1070
     3
1070
   271
1070
     3
1070
   288
1070
     1
1070
   289
1070
     3
1070
   172
1070
     1
1070
    74
1070
     0
1002
}
  0
DIMENSION
  5
1E81
330
1F
100
AcDbEntity
  8
AM_5
100
AcDbDimension
  2
*D9
 10
-128.5
 20
-8.000000000000056
 30
0.0
 11
-131.6
 21
-0.0000000000000668
 31
0.0
 70
    32
  1
%%c<>
  3
AM_JIS
100
AcDbAlignedDimension
 13
-114.4999999999999
 23
7.99999999999996
 33
0.0
 14
-114.5
 24
-8.00000000000006
 34
0.0
 50
270.0
100
AcDbRotatedDimension
1001
GENIUS_GENDTOL_13
1000

1000
h7
1000

1040
0.0
  0
VIEWPORT
  5
110
330
101
100
AcDbEntity
 67
     1
  8
0
100
AcDbViewport
 10
420.5
 20
297.0
 30
0.0
 40
948.9782706766916
 41
628.452
 68
     1
 69
     1
1001
ACAD
1000
MVIEW
1002
{
1070
    16
1010
0.0
1020
0.0
1030
0.0
1010
0.0
1020
0.0
1030
1.0
1040
0.0
1040
628.452
1040
420.5
1040
297.0
1040
50.0
1040
0.0
1040
0.0
1070
     0
1070
   100
1070
     1
1070
     1
1070
     0
1070
     0
1070
     0
1070
     0
1040
0.0
1040
0.0
1040
0.0
1040
10.0
1040
10.0
1040
10.0
1040
10.0
1070
     0
1002
{
1002
}
1002
}
  0
ENDSEC
  0
SECTION
  2
OBJECTS
  0
DICTIONARY
  5
C
330
0
100
AcDbDictionary
  3
ACAD_GROUP
350
D
  3
ACAD_LAYOUT
350
1A
  3
ACAD_MLINESTYLE
350
17
  3
ACAD_PLOTSETTINGS
350
19
  3
ACAD_PLOTSTYLENAME
350
E
  3
ACDBVARIABLEDICTIONARY
350
34
  3
ACMDICTIONARY
350
43
  3
AMG
350
2B
  3
AMGSNAPSETTINGS
350
6E
  3
DWGPROPS
350
1F39
  3
ACDBHEADERROUNDTRIPXREC
350
1F45
  0
DICTIONARY
  5
74
330
1F
100
AcDbDictionary
280
     1
  3
ACAD_SORTENTS
360
1CDC
  3
ACAD_INDEX
360
1F3B
  3
ACAD_LAYOUTSELFREF
360
1F68
  0
DICTIONARY
  5
1F6D
330
101
100
AcDbDictionary
280
     1
  3
ACAD_LAYOUTSELFREF
360
1F6E
  0
DICTIONARY
  5
D
102
{ACAD_REACTORS
330
C
102
}
330
C
100
AcDbDictionary
  0
DICTIONARY
  5
1A
102
{ACAD_REACTORS
330
C
102
}
330
C
100
AcDbDictionary
  0
DICTIONARY
  5
17
102
{ACAD_REACTORS
330
C
102
}
330
C
100
AcDbDictionary
  3
STANDARD
350
18
  0
DICTIONARY
  5
19
102
{ACAD_REACTORS
330
C
102
}
330
C
100
AcDbDictionary
  0
ACDBDICTIONARYWDFLT
  5
E
102
{ACAD_REACTORS
330
C
102
}
330
C
100
AcDbDictionary
281
     1
  3
Normal
350
F
100
AcDbDictionaryWithDefault
340
F
  0
DICTIONARY
  5
34
102
{ACAD_REACTORS
330
C
102
}
330
C
100
AcDbDictionary
  3
INDEXCTL
350
35
  3
SORTENTS
350
B5E
  0
DICTIONARY
  5
43
102
{ACAD_REACTORS
330
C
102
}
330
C
100
AcDbDictionary
  3
ACMSTDDICTIONARY
350
260
  0
DICTIONARY
  5
2B
102
{ACAD_REACTORS
330
C
102
}
330
C
100
AcDbDictionary
  3
ACMGSETTINGS
350
2C
  0
DICTIONARY
  5
6E
102
{ACAD_REACTORS
330
C
102
}
330
C
100
AcDbDictionary
  0
XRECORD
  5
1F39
102
{ACAD_REACTORS
330
C
102
}
330
C
100
AcDbXrecord
  1
DWGPROPS COOKIE
  2

  3

  4

  6

  7

  8

  9

300
AmdtFileType=82
301
=
302
=
303
=
304
=
305
=
306
=
307
=
308
=
309
=
 40
0.0745175231481482
 41
2452809.403188831
 42
2452844.446210022
  1

 90
        1
  0
DICTIONARY
  5
1F45
102
{ACAD_REACTORS
330
C
102
}
330
C
100
AcDbDictionary
  3
TSTACKALIGN
350
1F46
  3
TSTACKSIZE
350
1F47
  3
HYPERLINKBASE
350
1F48
  3
STYLESHEET
350
1F49
  3
LAYOUTDICT
350
1F4A
  3
PLOTSETDICT
350
1F4B
  3
PLOTSTYLNAMDICT
350
1F4C
  3
LWETCUNION
350
1F4D
  3
INSUNITS
350
1F4E
  3
CEPSNTYPE
350
1F4F
  3
FINGERPRINTGUID
350
1F50
  3
VERSIONGUID
350
1F51
  3
PSVPSCALE
350
1F52
  3
DIMSTYLEDATA
350
1F53
  3
PUCSORTHOREF
350
1F54
  3
PUCSORTHOVIEW
350
1F55
  3
PUCSBASE
350
1F56
  3
PUCSORGTOP
350
1F57
  3
PUCSORGBOTTOM
350
1F58
  3
PUCSORGLEFT
350
1F59
  3
PUCSORGRIGHT
350
1F5A
  3
PUCSORGFRONT
350
1F5B
  3
PUCSORGBACK
350
1F5C
  3
UCSORTHOREF
350
1F5D
  3
UCSORTHOVIEW
350
1F5E
  3
UCSBASE
350
1F5F
  3
UCSORGTOP
350
1F60
  3
UCSORGBOTTOM
350
1F61
  3
UCSORGLEFT
350
1F62
  3
UCSORGRIGHT
350
1F63
  3
UCSORGFRONT
350
1F64
  3
UCSORGBACK
350
1F65
  0
SORTENTSTABLE
  5
1CDC
102
{ACAD_REACTORS
330
74
102
}
330
74
100
AcDbSortentsTable
330
1F
331
1993
  5
1991
331
17CC
  5
17CC
331
19C6
  5
19C4
331
19CD
  5
19CB
331
198A
  5
1989
331
19BF
  5
19BD
331
19B8
  5
19B6
331
19B9
  5
19B7
331
19C0
  5
19BE
331
198B
  5
198A
331
19CE
  5
19CC
331
19C7
  5
19C5
331
17CD
  5
17CD
331
1994
  5
1992
331
19D0
  5
19CE
331
F17
  5
F17
331
19C1
  5
19BF
331
19A3
  5
1993
331
19CF
  5
19CD
331
198C
  5
198B
331
19C8
  5
19C6
331
17CE
  5
17CE
331
19BA
  5
19B8
331
19B3
  5
19A5
331
19B4
  5
19A6
331
D39
  5
D39
331
19A4
  5
1994
331
19C9
  5
19C7
331
19C2
  5
19C0
331
17CF
  5
17CF
331
19BB
  5
19B9
331
19BC
  5
19BA
331
19C3
  5
19C1
331
1987
  5
19D0
331
19CA
  5
19C8
331
198E
  5
198D
331
1BE8
  5
19CF
331
19A5
  5
19A3
331
17C9
  5
17C9
331
19B5
  5
19B3
331
17CA
  5
17CA
331
19BD
  5
19BB
331
1988
  5
1987
331
198F
  5
198E
331
19CB
  5
19C9
331
19A6
  5
19A4
331
19C4
  5
19C2
331
19B6
  5
19B4
331
1991
  5
1990
331
1992
  5
1CEB
331
19BE
  5
19BC
331
19C5
  5
19C3
331
19CC
  5
19CA
331
1989
  5
1988
331
17CB
  5
17CB
331
19B7
  5
19B5
  0
DICTIONARY
  5
1F3B
102
{ACAD_REACTORS
330
74
102
}
330
74
100
AcDbDictionary
  3
*A1
350
1F3C
  0
XRECORD
  5
1F68
102
{ACAD_REACTORS
330
74
102
}
330
74
100
AcDbXrecord
340
1F
  0
XRECORD
  5
1F6E
102
{ACAD_REACTORS
330
1F6D
102
}
330
1F6D
100
AcDbXrecord
340
101
  0
MLINESTYLE
  5
18
102
{ACAD_REACTORS
330
17
102
}
330
17
100
AcDbMlineStyle
  2
STANDARD
 70
     0
  3

 62
   256
 51
90.0
 52
90.0
 71
     2
 49
0.5
 62
   256
  6
BYLAYER
 49
-0.5
 62
   256
  6
BYLAYER
  0
ACDBPLACEHOLDER
  5
F
102
{ACAD_REACTORS
330
E
102
}
330
E
100
AcDbPlaceHolder
280
     0
  0
DICTIONARYVAR
  5
35
102
{ACAD_REACTORS
330
34
102
}
330
34
100
DictionaryVariables
280
     0
  1
1
  0
DICTIONARYVAR
  5
B5E
102
{ACAD_REACTORS
330
34
102
}
330
34
100
DictionaryVariables
280
     0
  1
127
  0
DICTIONARY
  5
260
102
{ACAD_REACTORS
330
43
102
}
330
43
100
AcDbDictionary
  0
DICTIONARY
  5
2C
102
{ACAD_REACTORS
330
2B
102
}
330
2B
100
AcDbDictionary
  3
DWGSETTINGS
350
2D
  0
XRECORD
  5
1F46
102
{ACAD_REACTORS
330
1F45
102
}
330
1F45
100
AcDbXrecord
 90
        1
  0
XRECORD
  5
1F47
102
{ACAD_REACTORS
330
1F45
102
}
330
1F45
100
AcDbXrecord
 90
       70
  0
XRECORD
  5
1F48
102
{ACAD_REACTORS
330
1F45
102
}
330
1F45
100
AcDbXrecord
  1

  0
XRECORD
  5
1F49
102
{ACAD_REACTORS
330
1F45
102
}
330
1F45
100
AcDbXrecord
  1
ASAMI.ctb
  0
XRECORD
  5
1F4A
102
{ACAD_REACTORS
330
1F45
102
}
330
1F45
100
AcDbXrecord
340
1A
  0
XRECORD
  5
1F4B
102
{ACAD_REACTORS
330
1F45
102
}
330
1F45
100
AcDbXrecord
340
19
  0
XRECORD
  5
1F4C
102
{ACAD_REACTORS
330
1F45
102
}
330
1F45
100
AcDbXrecord
340
E
  0
XRECORD
  5
1F4D
102
{ACAD_REACTORS
330
1F45
102
}
330
1F45
100
AcDbXrecord
 90
    10781
  0
XRECORD
  5
1F4E
102
{ACAD_REACTORS
330
1F45
102
}
330
1F45
100
AcDbXrecord
 90
        4
  0
XRECORD
  5
1F4F
102
{ACAD_REACTORS
330
1F45
102
}
330
1F45
100
AcDbXrecord
 90
        0
  0
XRECORD
  5
1F50
102
{ACAD_REACTORS
330
1F45
102
}
330
1F45
100
AcDbXrecord
  1
{AFB28963-8C59-40AE-9337-C84526B81ACE}
  0
XRECORD
  5
1F51
102
{ACAD_REACTORS
330
1F45
102
}
330
1F45
100
AcDbXrecord
  1
{4E298401-B347-499B-A06F-E1D1A123AE9C}
  0
XRECORD
  5
1F52
102
{ACAD_REACTORS
330
1F45
102
}
330
1F45
100
AcDbXrecord
 40
0.0
  0
XRECORD
  5
1F53
102
{ACAD_REACTORS
330
1F45
102
}
330
1F45
100
AcDbXrecord
1000
DSTYLE
1002
{
1070
    79
 70
     2
1070
   341
340
59
1070
   342
340
59
1070
   371
 70
    -1
1070
   372
 70
    -1
1002
}
  0
XRECORD
  5
1F54
102
{ACAD_REACTORS
330
1F45
102
}
330
1F45
100
AcDbXrecord
340
0
  0
XRECORD
  5
1F55
102
{ACAD_REACTORS
330
1F45
102
}
330
1F45
100
AcDbXrecord
 70
     0
  0
XRECORD
  5
1F56
102
{ACAD_REACTORS
330
1F45
102
}
330
1F45
100
AcDbXrecord
340
0
  0
XRECORD
  5
1F57
102
{ACAD_REACTORS
330
1F45
102
}
330
1F45
100
AcDbXrecord
 10
0.0
 20
0.0
 30
0.0
  0
XRECORD
  5
1F58
102
{ACAD_REACTORS
330
1F45
102
}
330
1F45
100
AcDbXrecord
 10
0.0
 20
0.0
 30
0.0
  0
XRECORD
  5
1F59
102
{ACAD_REACTORS
330
1F45
102
}
330
1F45
100
AcDbXrecord
 10
0.0
 20
0.0
 30
0.0
  0
XRECORD
  5
1F5A
102
{ACAD_REACTORS
330
1F45
102
}
330
1F45
100
AcDbXrecord
 10
0.0
 20
0.0
 30
0.0
  0
XRECORD
  5
1F5B
102
{ACAD_REACTORS
330
1F45
102
}
330
1F45
100
AcDbXrecord
 10
0.0
 20
0.0
 30
0.0
  0
XRECORD
  5
1F5C
102
{ACAD_REACTORS
330
1F45
102
}
330
1F45
100
AcDbXrecord
 10
0.0
 20
0.0
 30
0.0
  0
XRECORD
  5
1F5D
102
{ACAD_REACTORS
330
1F45
102
}
330
1F45
100
AcDbXrecord
340
0
  0
XRECORD
  5
1F5E
102
{ACAD_REACTORS
330
1F45
102
}
330
1F45
100
AcDbXrecord
 70
     0
  0
XRECORD
  5
1F5F
102
{ACAD_REACTORS
330
1F45
102
}
330
1F45
100
AcDbXrecord
340
0
  0
XRECORD
  5
1F60
102
{ACAD_REACTORS
330
1F45
102
}
330
1F45
100
AcDbXrecord
 10
0.0
 20
0.0
 30
0.0
  0
XRECORD
  5
1F61
102
{ACAD_REACTORS
330
1F45
102
}
330
1F45
100
AcDbXrecord
 10
0.0
 20
0.0
 30
0.0
  0
XRECORD
  5
1F62
102
{ACAD_REACTORS
330
1F45
102
}
330
1F45
100
AcDbXrecord
 10
0.0
 20
0.0
 30
0.0
  0
XRECORD
  5
1F63
102
{ACAD_REACTORS
330
1F45
102
}
330
1F45
100
AcDbXrecord
 10
0.0
 20
0.0
 30
0.0
  0
XRECORD
  5
1F64
102
{ACAD_REACTORS
330
1F45
102
}
330
1F45
100
AcDbXrecord
 10
0.0
 20
0.0
 30
0.0
  0
XRECORD
  5
1F65
102
{ACAD_REACTORS
330
1F45
102
}
330
1F45
100
AcDbXrecord
 10
0.0
 20
0.0
 30
0.0
  0
LAYER_INDEX
  5
1F3C
102
{ACAD_REACTORS
330
1F3B
102
}
330
1F3B
100
AcDbIndex
 40
2452844.463372754
100
AcDbLayerIndex
  8
0
360
1F3D
 90
        0
  8
AM_0
360
1F3E
 90
       49
  8
AM_11
360
1F3F
 90
        4
  8
AM_7
360
1F40
 90
        1
  8
AM_5
360
1F41
 90
        5
  8
Defpoints
360
1F42
 90
        0
  8
AM_6
360
1F43
 90
        1
  0
XRECORD
  5
2D
102
{ACAD_REACTORS
330
2C
102
}
330
2C
100
AcDbXrecord
  1
VERSION
140
15.0
  1
PRODUCT
  2
AutoCAD Mechanical 2000
  0
IDBUFFER
  5
1F3D
330
0
100
AcDbIdBuffer
  0
IDBUFFER
  5
1F3E
330
0
100
AcDbIdBuffer
330
1DE8
330
17C9
330
17CA
330
17CB
330
17CC
330
17CE
330
17CF
330
1987
330
1988
330
1989
330
198A
330
198B
330
198C
330
198E
330
198F
330
1991
330
1992
330
1993
330
1994
330
19B3
330
19B4
330
19B5
330
19B6
330
19B7
330
19B8
330
19B9
330
19BA
330
19BB
330
19BC
330
19BD
330
19BE
330
19BF
330
19C0
330
19C1
330
19C2
330
19C3
330
19C4
330
19C5
330
19C6
330
19C7
330
19C8
330
19C9
330
19CA
330
19CB
330
19CC
330
19CD
330
19CE
330
19CF
330
1DE6
  0
IDBUFFER
  5
1F3F
330
0
100
AcDbIdBuffer
330
19A3
330
19A4
330
19A5
330
1BE8
  0
IDBUFFER
  5
1F40
330
0
100
AcDbIdBuffer
330
17CD
  0
IDBUFFER
  5
1F41
330
0
100
AcDbIdBuffer
330
D39
330
19A6
330
19D0
330
1DF5
330
1E81
  0
IDBUFFER
  5
1F42
330
0
100
AcDbIdBuffer
  0
IDBUFFER
  5
1F43
330
0
100
AcDbIdBuffer
330
F17
  0
ENDSEC
  0
EOF
