  0
SECTION
  2
HEADER
  9
$ACADVER
  1
AC1014
  9
$ACADMAINTVER
 70
     9
  9
$DWGCODEPAGE
  3
ANSI_932
  9
$INSBASE
 10
0.0
 20
0.0
 30
0.0
  9
$EXTMIN
 10
-62.35000099999997
 20
-33.25000099999999
 30
-0.00000001
  9
$EXTMAX
 10
10.50000099999999
 20
5.500000000000039
 30
0.00000001
  9
$LIMMIN
 10
-67.93017126400292
 20
-41.81965750495786
  9
$LIMMAX
 10
20.1320140552645
 20
10.23992433779204
  9
$ORTHOMODE
 70
     0
  9
$REGENMODE
 70
     1
  9
$FILLMODE
 70
     1
  9
$QTEXTMODE
 70
     0
  9
$MIRRTEXT
 70
     0
  9
$DRAGMODE
 70
     2
  9
$LTSCALE
 40
1.0
  9
$OSMODE
 70
  2103
  9
$ATTMODE
 70
     1
  9
$TEXTSIZE
 40
2.5
  9
$TRACEWID
 40
1.0
  9
$TEXTSTYLE
  7
STANDARD
  9
$CLAYER
  8
AM_0
  9
$CELTYPE
  6
BYLAYER
  9
$CECOLOR
 62
   256
  9
$CELTSCALE
 40
1.0
  9
$DELOBJ
 70
     1
  9
$DISPSILH
 70
     0
  9
$DIMSCALE
 40
1.0
  9
$DIMASZ
 40
2.5
  9
$DIMEXO
 40
1.0
  9
$DIMDLI
 40
12.0
  9
$DIMRND
 40
0.0
  9
$DIMDLE
 40
0.0
  9
$DIMEXE
 40
1.0
  9
$DIMTP
 40
0.1
  9
$DIMTM
 40
0.1
  9
$DIMTXT
 40
3.2
  9
$DIMCEN
 40
0.0
  9
$DIMTSZ
 40
0.0
  9
$DIMTOL
 70
     0
  9
$DIMLIM
 70
     0
  9
$DIMTIH
 70
     0
  9
$DIMTOH
 70
     0
  9
$DIMSE1
 70
     0
  9
$DIMSE2
 70
     0
  9
$DIMTAD
 70
     3
  9
$DIMZIN
 70
     8
  9
$DIMBLK
  1
OPEN30
  9
$DIMASO
 70
     1
  9
$DIMSHO
 70
     1
  9
$DIMPOST
  1

  9
$DIMAPOST
  1
"
  9
$DIMALT
 70
     0
  9
$DIMALTD
 70
     2
  9
$DIMALTF
 40
0.0393701
  9
$DIMLFAC
 40
1.0
  9
$DIMTOFL
 70
     1
  9
$DIMTVP
 40
0.0
  9
$DIMTIX
 70
     0
  9
$DIMSOXD
 70
     0
  9
$DIMSAH
 70
     0
  9
$DIMBLK1
  1

  9
$DIMBLK2
  1

  9
$DIMSTYLE
  2
AM_JIS
  9
$DIMCLRD
 70
   256
  9
$DIMCLRE
 70
   256
  9
$DIMCLRT
 70
     2
  9
$DIMTFAC
 40
0.71
  9
$DIMGAP
 40
1.5
  9
$DIMJUST
 70
     0
  9
$DIMSD1
 70
     0
  9
$DIMSD2
 70
     0
  9
$DIMTOLJ
 70
     0
  9
$DIMTZIN
 70
     0
  9
$DIMALTZ
 70
     0
  9
$DIMALTTZ
 70
     0
  9
$DIMFIT
 70
     3
  9
$DIMUPT
 70
     0
  9
$DIMUNIT
 70
     2
  9
$DIMDEC
 70
     3
  9
$DIMTDEC
 70
     3
  9
$DIMALTU
 70
     2
  9
$DIMALTTD
 70
     2
  9
$DIMTXSTY
  7
ASAMI
  9
$DIMAUNIT
 70
     0
  9
$LUNITS
 70
     2
  9
$LUPREC
 70
     2
  9
$SKETCHINC
 40
1.0
  9
$FILLETRAD
 40
2.5
  9
$AUNITS
 70
     0
  9
$AUPREC
 70
     0
  9
$MENU
  1
.
  9
$ELEVATION
 40
0.0
  9
$PELEVATION
 40
0.0
  9
$THICKNESS
 40
0.0
  9
$LIMCHECK
 70
     0
  9
$BLIPMODE
 70
     0
  9
$CHAMFERA
 40
0.5
  9
$CHAMFERB
 40
0.5
  9
$CHAMFERC
 40
20.0
  9
$CHAMFERD
 40
0.0
  9
$SKPOLY
 70
     0
  9
$TDCREATE
 40
2452809.475734583
  9
$TDUPDATE
 40
2452844.572462199
  9
$TDINDWG
 40
0.0579376389
  9
$TDUSRTIMER
 40
0.0579374653
  9
$USRTIMER
 70
     1
  9
$ANGBASE
 50
0.0
  9
$ANGDIR
 70
     0
  9
$PDMODE
 70
     0
  9
$PDSIZE
 40
0.0
  9
$PLINEWID
 40
0.0
  9
$COORDS
 70
     2
  9
$SPLFRAME
 70
     0
  9
$SPLINETYPE
 70
     6
  9
$SPLINESEGS
 70
     8
  9
$ATTDIA
 70
     1
  9
$ATTREQ
 70
     1
  9
$HANDLING
 70
 12289
  9
$HANDSEED
  5
1C4F
  9
$SURFTAB1
 70
     6
  9
$SURFTAB2
 70
     6
  9
$SURFTYPE
 70
     6
  9
$SURFU
 70
     6
  9
$SURFV
 70
     6
  9
$UCSNAME
  2

  9
$UCSORG
 10
0.0
 20
0.0
 30
0.0
  9
$UCSXDIR
 10
1.0
 20
0.000000000000002
 30
0.0
  9
$UCSYDIR
 10
-0.000000000000002
 20
1.0
 30
0.0
  9
$PUCSNAME
  2

  9
$PUCSORG
 10
0.0
 20
0.0
 30
0.0
  9
$PUCSXDIR
 10
1.0
 20
0.0
 30
0.0
  9
$PUCSYDIR
 10
0.0
 20
1.0
 30
0.0
  9
$USERI1
 70
     0
  9
$USERI2
 70
     0
  9
$USERI3
 70
     0
  9
$USERI4
 70
     0
  9
$USERI5
 70
     0
  9
$USERR1
 40
0.0
  9
$USERR2
 40
0.0
  9
$USERR3
 40
0.0
  9
$USERR4
 40
0.0
  9
$USERR5
 40
0.0
  9
$WORLDVIEW
 70
     1
  9
$SHADEDGE
 70
     3
  9
$SHADEDIF
 70
    70
  9
$TILEMODE
 70
     1
  9
$MAXACTVP
 70
    64
  9
$PINSBASE
 10
0.0
 20
0.0
 30
0.0
  9
$PLIMCHECK
 70
     0
  9
$PEXTMIN
 10
1.000000000000000E+20
 20
1.000000000000000E+20
 30
1.000000000000000E+20
  9
$PEXTMAX
 10
-1.000000000000000E+20
 20
-1.000000000000000E+20
 30
-1.000000000000000E+20
  9
$PLIMMIN
 10
0.0
 20
0.0
  9
$PLIMMAX
 10
841.0
 20
594.0
  9
$UNITMODE
 70
     0
  9
$VISRETAIN
 70
     1
  9
$PLINEGEN
 70
     0
  9
$PSLTSCALE
 70
     0
  9
$TREEDEPTH
 70
  3020
  9
$PICKSTYLE
 70
     0
  9
$CMLSTYLE
  2
STANDARD
  9
$CMLJUST
 70
     0
  9
$CMLSCALE
 40
20.0
  9
$PROXYGRAPHICS
 70
     1
  9
$MEASUREMENT
 70
     1
  0
ENDSEC
  0
SECTION
  2
CLASSES
  0
CLASS
  1
ACDBDICTIONARYWDFLT
  2
AcDbDictionaryWithDefault
  3
AutoCAD 2000
 90
        0
280
     0
281
     0
  0
CLASS
  1
ACDBPLACEHOLDER
  2
AcDbPlaceHolder
  3
AutoCAD 2000
 90
        0
280
     0
281
     0
  0
CLASS
  1
LAYOUT
  2
AcDbLayout
  3
AutoCAD 2000
 90
        0
280
     0
281
     0
  0
CLASS
  1
AMGSETTINGSOBJ
  2
AmgSettingsObj
  3
"AcadM|Product Description: AutoCAD Mechanical 2000|Company: Autodesk"
 90
        0
280
     0
281
     0
  0
CLASS
  1
ACME_DOCUMENT
  2
AcMeDbDoc
  3
AcMeServices
 90
        0
280
     0
281
     0
  0
CLASS
  1
ACMESCOPE
  2
AcMeScope
  3
AcMeServices
 90
        0
280
     0
281
     0
  0
CLASS
  1
ACMECOMMANDHISTORY
  2
AcMeCommandHistory
  3
AcMeServices
 90
        0
280
     0
281
     0
  0
CLASS
  1
DICTIONARYVAR
  2
AcDbDictionaryVar
  3
AutoCAD 2000
 90
        0
280
     0
281
     0
  0
CLASS
  1
ACIMSYSVARMAN
  2
AcImSysVarManager
  3
AcMeServices
 90
        0
280
     0
281
     0
  0
CLASS
  1
ACIMREALSYSVAR
  2
AcImRealSysVar
  3
AcMeServices
 90
        0
280
     0
281
     0
  0
CLASS
  1
ACIMINTSYSVAR
  2
AcImIntSysVar
  3
AcMeServices
 90
        0
280
     0
281
     0
  0
CLASS
  1
ACMEDRAWINGMAN
  2
AcMeDrawingMan
  3
AcMeServices
 90
        0
280
     0
281
     0
  0
CLASS
  1
ACMEVIEW
  2
AcMeView
  3
AcMeServices
 90
        0
280
     0
281
     0
  0
CLASS
  1
ACDBENTITYCACHE
  2
AcMeEntityCache
  3
AcMeServices
 90
        0
280
     0
281
     0
  0
CLASS
  1
GSMANAGER
  2
AcMeGSManager
  3
AcMeServices
 90
        0
280
     0
281
     0
  0
CLASS
  1
AmdtInternalReactor
  2
AmdtInternalReactor
  3
AcMeServices
 90
        0
280
     0
281
     0
  0
CLASS
  1
ACMESTATEMGR
  2
AcMeStateMgr
  3
AcMeServices
 90
        0
280
     0
281
     0
  0
CLASS
  1
ACME_DATABASE
  2
AcMeDbDatabase
  3
AcMeServices
 90
        0
280
     0
281
     0
  0
CLASS
  1
ACRFINSADJUSTERMGR
  2
AcRfInsAdjusterMgr
  3
AcMeServices
 90
        0
280
     0
281
     0
  0
CLASS
  1
ACMDATADICTIONARY
  2
AcmDataDictionary
  3
"AcmSymBB|Product Description: AutoCAD Mechanical 2000|Company: Autodesk"
 90
        0
280
     0
281
     0
  0
CLASS
  1
ACMDATAENTRYBLOCK
  2
AcmDataEntryBlock
  3
"AcmSymBB|Product Description: AutoCAD Mechanical 2000|Company: Autodesk"
 90
        0
280
     0
281
     0
  0
CLASS
  1
AMGOBJPROPCFG
  2
AmgObjPropCfg
  3
"AmgLay|Product Description: AutoCAD Mechanical 2000|Company: Autodesk"
 90
        1
280
     0
281
     0
  0
CLASS
  1
ACAMGFILTERDAT
  2
AcAmgFilterDat
  3
"AcadM|Product Description: AutoCAD Mechanical 2000|Company: Autodesk"
 90
        0
280
     0
281
     0
  0
CLASS
  1
LAYER_INDEX
  2
AcDbLayerIndex
  3
AutoCAD 2000
 90
        0
280
     0
281
     0
  0
CLASS
  1
IDBUFFER
  2
AcDbIdBuffer
  3
AutoCAD 2000
 90
        0
280
     0
281
     0
  0
CLASS
  1
ACIMSTRSYSVAR
  2
AcImStrSysVar
  3
AcMeServices
 90
        0
280
     0
281
     0
  0
CLASS
  1
ACMSTANDARDJIS
  2
AcmStandardJIS
  3
"AcmSymBB|Product Description: AutoCAD Mechanical 2000|Company: Autodesk"
 90
        0
280
     0
281
     0
  0
CLASS
  1
ACMSURFSTANDARDJIS
  2
AcmSurfTextStdJIS
  3
"AcmSymBB|Product Description: AutoCAD Mechanical 2000|Company: Autodesk"
 90
        0
280
     0
281
     0
  0
CLASS
  1
ACMFCFSTANDARDJIS
  2
AcmFCFStdJIS
  3
"AcmSymBB|Product Description: AutoCAD Mechanical 2000|Company: Autodesk"
 90
        0
280
     0
281
     0
  0
CLASS
  1
ACMWELDSTANDARDJIS
  2
AcmWeldingStdJIS
  3
"AcmSymBB|Product Description: AutoCAD Mechanical 2000|Company: Autodesk"
 90
        0
280
     0
281
     0
  0
CLASS
  1
ACMIDSTANDARDJIS
  2
AcmIdStdJIS
  3
"AcmSymBB|Product Description: AutoCAD Mechanical 2000|Company: Autodesk"
 90
        0
280
     0
281
     0
  0
CLASS
  1
ACMDATUMSTANDARDJIS
  2
AcmDatumStdJIS
  3
"AcmSymBB|Product Description: AutoCAD Mechanical 2000|Company: Autodesk"
 90
        0
280
     0
281
     0
  0
CLASS
  1
ACMBOMSTANDARDJIS
  2
AcmBOMStdJIS
  3
"AcmSymBB|Product Description: AutoCAD Mechanical 2000|Company: Autodesk"
 90
        0
280
     0
281
     0
  0
CLASS
  1
ACMSTANDARDANSI
  2
AcmStandardANSI
  3
"AcmSymBB|Product Description: AutoCAD Mechanical 2000|Company: Autodesk"
 90
        0
280
     0
281
     0
  0
CLASS
  1
ACMSURFSTANDARDANSI
  2
AcmSurfTextStdANSI
  3
"AcmSymBB|Product Description: AutoCAD Mechanical 2000|Company: Autodesk"
 90
        0
280
     0
281
     0
  0
CLASS
  1
ACMFCFSTANDARDANSI
  2
AcmFCFStdANSI
  3
"AcmSymBB|Product Description: AutoCAD Mechanical 2000|Company: Autodesk"
 90
        0
280
     0
281
     0
  0
CLASS
  1
ACMWELDSTANDARDANSI
  2
AcmWeldingStdANSI
  3
"AcmSymBB|Product Description: AutoCAD Mechanical 2000|Company: Autodesk"
 90
        0
280
     0
281
     0
  0
CLASS
  1
ACMIDSTANDARDANSI
  2
AcmIdStdANSI
  3
"AcmSymBB|Product Description: AutoCAD Mechanical 2000|Company: Autodesk"
 90
        0
280
     0
281
     0
  0
CLASS
  1
ACMDATUMSTANDARDANSI
  2
AcmDatumStdANSI
  3
"AcmSymBB|Product Description: AutoCAD Mechanical 2000|Company: Autodesk"
 90
        0
280
     0
281
     0
  0
CLASS
  1
ACMBOMSTANDARDANSI
  2
AcmBOMStdANSI
  3
"AcmSymBB|Product Description: AutoCAD Mechanical 2000|Company: Autodesk"
 90
        0
280
     0
281
     0
  0
CLASS
  1
ACMSTANDARDBSI
  2
AcmStandardBSI
  3
"AcmSymBB|Product Description: AutoCAD Mechanical 2000|Company: Autodesk"
 90
        0
280
     0
281
     0
  0
CLASS
  1
ACMSURFSTANDARDBSI
  2
AcmSurfTextStdBSI
  3
"AcmSymBB|Product Description: AutoCAD Mechanical 2000|Company: Autodesk"
 90
        0
280
     0
281
     0
  0
CLASS
  1
ACMFCFSTANDARDBSI
  2
AcmFCFStdBSI
  3
"AcmSymBB|Product Description: AutoCAD Mechanical 2000|Company: Autodesk"
 90
        0
280
     0
281
     0
  0
CLASS
  1
ACMWELDSTANDARDBSI
  2
AcmWeldingStdBSI
  3
"AcmSymBB|Product Description: AutoCAD Mechanical 2000|Company: Autodesk"
 90
        0
280
     0
281
     0
  0
CLASS
  1
ACMIDSTANDARDBSI
  2
AcmIdStdBSI
  3
"AcmSymBB|Product Description: AutoCAD Mechanical 2000|Company: Autodesk"
 90
        0
280
     0
281
     0
  0
CLASS
  1
ACMDATUMSTANDARDBSI
  2
AcmDatumStdBSI
  3
"AcmSymBB|Product Description: AutoCAD Mechanical 2000|Company: Autodesk"
 90
        0
280
     0
281
     0
  0
CLASS
  1
ACMBOMSTANDARDBSI
  2
AcmBOMStdBSI
  3
"AcmSymBB|Product Description: AutoCAD Mechanical 2000|Company: Autodesk"
 90
        0
280
     0
281
     0
  0
CLASS
  1
LONG_TRANSACTION
  2
AcDbLongTransaction
  3
AutoCAD 2000
 90
        0
280
     0
281
     0
  0
CLASS
  1
LWPOLYLINE
  2
AcDbPolyline
  3
AutoCAD 2000
 90
        0
280
     0
281
     1
  0
CLASS
  1
HATCH
  2
AcDbHatch
  3
AutoCAD 2000
 90
        0
280
     0
281
     1
  0
CLASS
  1
XRECORD
  2
AcDbXrecord
  3
AutoCAD 2000
 90
        0
280
     0
281
     0
  0
ENDSEC
  0
SECTION
  2
TABLES
  0
TABLE
  2
VPORT
  5
8
330
0
100
AcDbSymbolTable
 70
     3
  0
VPORT
  5
1C1E
330
8
100
AcDbSymbolTableRecord
100
AcDbViewportTableRecord
  2
*ACTIVE
 70
     0
 10
0.0
 20
0.0
 11
1.0
 21
1.0
 12
-25.92102921139076
 22
-13.8729769853102
 13
0.0
 23
0.0
 14
2.5
 24
2.5
 15
10.0
 25
10.0
 16
0.0
 26
0.0
 36
1.0
 17
0.0
 27
0.0
 37
0.0
 40
46.71693195283372
 41
1.56570841889117
 42
50.0
 43
0.0
 44
0.0
 50
0.0
 51
0.0
 71
     0
 72
   100
 73
     1
 74
     3
 75
     0
 76
     0
 77
     0
 78
     0
  0
ENDTAB
  0
TABLE
  2
LTYPE
  5
5
330
0
100
AcDbSymbolTable
 70
    10
  0
LTYPE
  5
14
330
5
100
AcDbSymbolTableRecord
100
AcDbLinetypeTableRecord
  2
BYBLOCK
 70
     0
  3

 72
    65
 73
     0
 40
0.0
  0
LTYPE
  5
15
330
5
100
AcDbSymbolTableRecord
100
AcDbLinetypeTableRecord
  2
BYLAYER
 70
     0
  3

 72
    65
 73
     0
 40
0.0
  0
LTYPE
  5
16
330
5
100
AcDbSymbolTableRecord
100
AcDbLinetypeTableRecord
  2
CONTINUOUS
 70
     0
  3
Solid line
 72
    65
 73
     0
 40
0.0
  0
LTYPE
  5
4B
330
5
100
AcDbSymbolTableRecord
100
AcDbLinetypeTableRecord
  2
AM_ISO02W050
 70
     0
  3
__ __ __ __ __ __ __ __ __ __ __ __ __ __ __
 72
    65
 73
     2
 40
7.5
 49
6.0
 74
     0
 49
-1.5
 74
     0
  0
LTYPE
  5
4C
330
5
100
AcDbSymbolTableRecord
100
AcDbLinetypeTableRecord
  2
AM_ISO08W050
 70
     0
  3
____ . ____ . ____ . ____ . ____ . ____ . ____
 72
    65
 73
     4
 40
18.0
 49
12.0
 74
     0
 49
-1.5
 74
     0
 49
3.0
 74
     0
 49
-1.5
 74
     0
  0
LTYPE
  5
4D
330
5
100
AcDbSymbolTableRecord
100
AcDbLinetypeTableRecord
  2
AM_ISO09W050
 70
     0
  3
_____ . . _____ . . _____ . . ____ .. ____
 72
    65
 73
     6
 40
22.5
 49
12.0
 74
     0
 49
-1.5
 74
     0
 49
3.0
 74
     0
 49
-1.5
 74
     0
 49
3.0
 74
     0
 49
-1.5
 74
     0
  0
LTYPE
  5
4E
330
5
100
AcDbSymbolTableRecord
100
AcDbLinetypeTableRecord
  2
AMCONSTR
 70
     0
  3
_______________________
 72
    65
 73
     2
 40
9999.0
 49
9999.0
 74
     0
 49
0.0
 74
     0
  0
LTYPE
  5
4F
330
5
100
AcDbSymbolTableRecord
100
AcDbLinetypeTableRecord
  2
AM_ISO02W050X2
 70
     0
  3
 _ _ _ _ _ _ _ _ _ _ _ _
 72
    65
 73
     2
 40
3.75
 49
3.0
 74
     0
 49
-0.75
 74
     0
  0
LTYPE
  5
50
330
5
100
AcDbSymbolTableRecord
100
AcDbLinetypeTableRecord
  2
AM_ISO08W050X2
 70
     0
  3
__ . __ . __ . __ . __ . __
 72
    65
 73
     4
 40
9.0
 49
6.0
 74
     0
 49
-0.75
 74
     0
 49
1.5
 74
     0
 49
-0.75
 74
     0
  0
LTYPE
  5
53
330
5
100
AcDbSymbolTableRecord
100
AcDbLinetypeTableRecord
  2
AMZIGZAG
 70
     0
  3
/\/-/\/-/\/-/\/-/\/-/\/
 72
    65
 73
     2
 40
11.00009999999999
 49
0.0001
 74
     4
 75
   135
340
52
 46
0.04
 50
0.0
 44
0.0
 45
0.0
 49
-11.0
 74
     0
  0
LTYPE
  5
166
330
5
100
AcDbSymbolTableRecord
100
AcDbLinetypeTableRecord
  2
ACJISTGL
 70
     0
  3
_ _ _ _ _
 72
    65
 73
     2
 40
3.0
 49
2.0
 74
     0
 49
-1.0
 74
     0
  0
LTYPE
  5
26A
330
5
100
AcDbSymbolTableRecord
100
AcDbLinetypeTableRecord
  2
ACJISTGB
 70
     0
  3
__ . . __ . .
 72
    65
 73
     6
 40
9.0
 49
4.0
 74
     0
 49
-1.0
 74
     0
 49
1.0
 74
     0
 49
-1.0
 74
     0
 49
1.0
 74
     0
 49
-1.0
 74
     0
  0
ENDTAB
  0
TABLE
  2
LAYER
  5
2
330
0
100
AcDbSymbolTable
 70
     7
  0
LAYER
  5
10
330
2
100
AcDbSymbolTableRecord
100
AcDbLayerTableRecord
  2
0
 70
     0
 62
     7
  6
CONTINUOUS
  0
LAYER
  5
3F9
330
2
100
AcDbSymbolTableRecord
100
AcDbLayerTableRecord
  2
AM_0
 70
     0
 62
     7
  6
CONTINUOUS
  0
LAYER
  5
BA4
330
2
100
AcDbSymbolTableRecord
100
AcDbLayerTableRecord
  2
AM_11
 70
     0
 62
     3
  6
AM_ISO09W050
  0
LAYER
  5
BA5
330
2
100
AcDbSymbolTableRecord
100
AcDbLayerTableRecord
  2
AM_7
 70
     0
 62
     4
  6
AM_ISO08W050
  0
LAYER
  5
CA1
330
2
100
AcDbSymbolTableRecord
100
AcDbLayerTableRecord
  2
AM_5
 70
     0
 62
     3
  6
CONTINUOUS
  0
LAYER
  5
D14
330
2
100
AcDbSymbolTableRecord
100
AcDbLayerTableRecord
  2
DEFPOINTS
 70
     0
 62
     7
  6
CONTINUOUS
  0
LAYER
  5
F74
330
2
100
AcDbSymbolTableRecord
100
AcDbLayerTableRecord
  2
AM_6
 70
     0
 62
     2
  6
CONTINUOUS
  0
ENDTAB
  0
TABLE
  2
STYLE
  5
3
330
0
100
AcDbSymbolTable
 70
     5
  0
STYLE
  5
11
330
3
100
AcDbSymbolTableRecord
100
AcDbTextStyleTableRecord
  2
STANDARD
 70
     0
 40
0.0
 41
1.0
 50
0.0
 71
     0
 42
2.5
  3
simplex.shx
  4
EXTFONT.SHX
  0
STYLE
  5
52
330
3
100
AcDbSymbolTableRecord
100
AcDbTextStyleTableRecord
  2

 70
     1
 40
0.0
 41
1.0
 50
0.0
 71
     0
 42
2.5
  3
ltypeshp.shx
  4

  0
STYLE
  5
6B
330
3
100
AcDbSymbolTableRecord
100
AcDbTextStyleTableRecord
  2
ASAMI
 70
     0
 40
0.0
 41
1.0
 50
0.0
 71
     0
 42
2.5
  3
simplex.shx
  4
EXTFONT.SHX
  0
STYLE
  5
262
330
3
100
AcDbSymbolTableRecord
100
AcDbTextStyleTableRecord
  2
ACJISTS
 70
     0
 40
1.0
 41
1.0
 50
0.0
 71
     0
 42
2.5
  3
simplex.shx
  4
bigfont.shx
  0
STYLE
  5
269
330
3
100
AcDbSymbolTableRecord
100
AcDbTextStyleTableRecord
  2
ACJISGDT
 70
     0
 40
0.0
 41
1.0
 50
0.0
 71
     0
 42
2.5
  3
amgdtans.shx
  4

  0
ENDTAB
  0
TABLE
  2
VIEW
  5
6
330
0
100
AcDbSymbolTable
 70
     0
  0
ENDTAB
  0
TABLE
  2
UCS
  5
7
330
0
100
AcDbSymbolTable
 70
     0
  0
ENDTAB
  0
TABLE
  2
APPID
  5
9
330
0
100
AcDbSymbolTable
 70
    12
  0
APPID
  5
12
330
9
100
AcDbSymbolTableRecord
100
AcDbRegAppTableRecord
  2
ACAD
 70
     0
  0
APPID
  5
30
330
9
100
AcDbSymbolTableRecord
100
AcDbRegAppTableRecord
  2
MCAD_NO_VIS
 70
     0
  0
APPID
  5
31
330
9
100
AcDbSymbolTableRecord
100
AcDbRegAppTableRecord
  2
ACAD_TEMP_GRAPHIC
 70
     0
  0
APPID
  5
2C2
330
9
100
AcDbSymbolTableRecord
100
AcDbRegAppTableRecord
  2
GENIUS_GENDTOL_13
 70
     0
  0
APPID
  5
339
330
9
100
AcDbSymbolTableRecord
100
AcDbRegAppTableRecord
  2
GENIUS_GENODEF_13
 70
     0
  0
APPID
  5
33A
330
9
100
AcDbSymbolTableRecord
100
AcDbRegAppTableRecord
  2
GENIUS_GENOBJ-N-RSBK_13
 70
     0
  0
APPID
  5
33B
330
9
100
AcDbSymbolTableRecord
100
AcDbRegAppTableRecord
  2
GENIUS_GENOBJ-N-LIB_13
 70
     0
  0
APPID
  5
33C
330
9
100
AcDbSymbolTableRecord
100
AcDbRegAppTableRecord
  2
GENIUS_GENSCALE_13
 70
     0
  0
APPID
  5
378
330
9
100
AcDbSymbolTableRecord
100
AcDbRegAppTableRecord
  2
GENIUS_GENDIMSH_14
 70
     0
  0
APPID
  5
BA6
330
9
100
AcDbSymbolTableRecord
100
AcDbRegAppTableRecord
  2
GENIUS_GENOBJ-N-CEN_13
 70
     0
  0
APPID
  5
D02
330
9
100
AcDbSymbolTableRecord
100
AcDbRegAppTableRecord
  2
GENIUS_GENFIL_13
 70
     0
  0
APPID
  5
D03
330
9
100
AcDbSymbolTableRecord
100
AcDbRegAppTableRecord
  2
GENIUS_GENOBJ-N-CHA_13
 70
     0
  0
ENDTAB
  0
TABLE
  2
DIMSTYLE
  5
A
330
0
100
AcDbSymbolTable
 70
     8
  0
DIMSTYLE
105
58
102
{ACAD_REACTORS
330
D13
330
D9C
330
EDE
330
11DC
330
1271
102
}
330
A
100
AcDbSymbolTableRecord
100
AcDbDimStyleTableRecord
  2
AM_JIS
 70
     0
  3

  4
"
  5
OPEN30
  6

  7

 40
0.5
 41
2.5
 42
1.0
 43
12.0
 44
1.0
 45
0.0
 46
0.0
 47
0.1
 48
0.1
140
3.2
141
0.0
142
0.0
143
0.0393701
144
1.0
145
0.0
146
0.71
147
1.5
 71
     0
 72
     0
 73
     0
 74
     0
 75
     0
 76
     0
 77
     3
 78
     8
170
     0
171
     2
172
     1
173
     0
174
     0
175
     0
176
   256
177
   256
178
     2
270
     2
271
     3
272
     3
273
     2
274
     2
340
6B
275
     0
280
     0
281
     0
282
     0
283
     0
284
     0
285
     0
286
     0
287
     3
288
     0
  0
DIMSTYLE
105
5F
330
A
100
AcDbSymbolTableRecord
100
AcDbDimStyleTableRecord
  2
AM_JIS$3
 70
     0
  3

  4
"
  5
OPEN30
  6

  7

 40
0.5
 41
2.5
 42
1.0
 43
10.0
 44
1.0
 45
0.0
 46
0.0
 47
0.1
 48
0.1
140
3.2
141
0.0
142
0.0
143
0.0393701
144
1.0
145
0.0
146
0.71
147
1.5
 71
     0
 72
     0
 73
     0
 74
     1
 75
     0
 76
     0
 77
     3
 78
     8
170
     0
171
     2
172
     0
173
     0
174
     0
175
     0
176
   256
177
   256
178
     2
270
     2
271
     2
272
     3
273
     2
274
     2
340
6B
275
     0
280
     0
281
     0
282
     0
283
     0
284
     0
285
     0
286
     0
287
     0
288
     1
  0
DIMSTYLE
105
60
102
{ACAD_REACTORS
330
1AF3
102
}
330
A
100
AcDbSymbolTableRecord
100
AcDbDimStyleTableRecord
  2
AM_JIS$4
 70
     0
  3

  4
"
  5
OPEN30
  6

  7

 40
0.5
 41
2.5
 42
1.0
 43
10.0
 44
1.0
 45
0.0
 46
0.0
 47
0.1
 48
0.1
140
3.2
141
0.0
142
0.0
143
0.0393701
144
1.0
145
0.0
146
0.71
147
1.5
 71
     0
 72
     0
 73
     0
 74
     1
 75
     0
 76
     0
 77
     3
 78
     8
170
     0
171
     2
172
     0
173
     0
174
     0
175
     0
176
   256
177
   256
178
     2
270
     2
271
     2
272
     3
273
     2
274
     2
340
6B
275
     0
280
     0
281
     0
282
     0
283
     0
284
     0
285
     0
286
     0
287
     0
288
     1
  0
DIMSTYLE
105
61
330
A
100
AcDbSymbolTableRecord
100
AcDbDimStyleTableRecord
  2
AM_JIS$6
 70
     0
  3

  4
"
  5
OPEN30
  6

  7

 40
0.5
 41
2.5
 42
1.0
 43
10.0
 44
1.0
 45
0.0
 46
0.0
 47
0.1
 48
0.1
140
3.2
141
0.0
142
0.0
143
0.0393701
144
1.0
145
0.0
146
0.71
147
1.5
 71
     0
 72
     0
 73
     0
 74
     0
 75
     0
 76
     0
 77
     0
 78
     8
170
     0
171
     2
172
     1
173
     0
174
     0
175
     0
176
   256
177
   256
178
     2
270
     2
271
     2
272
     2
273
     2
274
     2
340
6B
275
     0
280
     0
281
     0
282
     0
283
     0
284
     0
285
     0
286
     0
287
     3
288
     0
  0
DIMSTYLE
105
62
330
A
100
AcDbSymbolTableRecord
100
AcDbDimStyleTableRecord
  2
AM_JIS$7
 70
     0
  3

  4
"
  5
OPEN30
  6

  7

 40
0.5
 41
2.5
 42
1.0
 43
10.0
 44
1.0
 45
0.0
 46
0.0
 47
0.1
 48
0.1
140
3.2
141
0.0
142
0.0
143
0.0393701
144
1.0
145
0.0
146
0.71
147
1.5
 71
     0
 72
     0
 73
     0
 74
     0
 75
     0
 76
     0
 77
     3
 78
     8
170
     0
171
     2
172
     1
173
     0
174
     0
175
     0
176
   256
177
   256
178
     2
270
     2
271
     2
272
     3
273
     2
274
     2
340
6B
275
     0
280
     0
281
     0
282
     0
283
     0
284
     0
285
     0
286
     0
287
     3
288
     0
  0
DIMSTYLE
105
63
330
A
100
AcDbSymbolTableRecord
100
AcDbDimStyleTableRecord
  2
AM_JIS$SF
 70
     0
  3

  4
"
  5
OPEN30
  6

  7

 40
0.5
 41
2.5
 42
1.0
 43
10.0
 44
1.0
 45
0.0
 46
0.0
 47
0.1
 48
0.1
140
3.2
141
0.0
142
0.0
143
0.0393701
144
1.0
145
0.0
146
0.71
147
1.5
 71
     0
 72
     0
 73
     0
 74
     0
 75
     1
 76
     1
 77
     3
 78
     8
170
     0
171
     2
172
     1
173
     0
174
     0
175
     0
176
   256
177
   256
178
     2
270
     2
271
     2
272
     2
273
     2
274
     2
340
6B
275
     0
280
     0
281
     0
282
     0
283
     0
284
     0
285
     0
286
     0
287
     3
288
     0
  0
DIMSTYLE
105
68
330
A
100
AcDbSymbolTableRecord
100
AcDbDimStyleTableRecord
  2
AM_JIS$SH
 70
     0
  3

  4
"
  5

  6
GENAXEH
  7
OPEN30
 40
0.5
 41
2.5
 42
1.0
 43
10.0
 44
1.0
 45
0.0
 46
0.0
 47
0.1
 48
0.1
140
3.2
141
0.0
142
0.0
143
0.0393701
144
2.0
145
0.0
146
0.71
147
1.5
 71
     0
 72
     0
 73
     0
 74
     0
 75
     1
 76
     1
 77
     3
 78
     8
170
     0
171
     2
172
     1
173
     1
174
     0
175
     0
176
   256
177
   256
178
     2
270
     2
271
     2
272
     2
273
     2
274
     2
340
6B
275
     0
280
     0
281
     0
282
     0
283
     0
284
     0
285
     0
286
     0
287
     3
288
     0
  0
DIMSTYLE
105
B34
330
A
100
AcDbSymbolTableRecord
100
AcDbDimStyleTableRecord
  2
AM_JIS$2
 70
     0
  3

  4
"
  5
OPEN30
  6

  7

 40
0.5
 41
2.5
 42
1.0
 43
12.0
 44
1.0
 45
0.0
 46
0.0
 47
0.1
 48
0.1
140
3.2
141
0.0
142
0.0
143
0.0393701
144
1.0
145
0.0
146
0.71
147
1.5
 71
     0
 72
     0
 73
     0
 74
     0
 75
     0
 76
     0
 77
     3
 78
     8
170
     0
171
     2
172
     1
173
     0
174
     0
175
     0
176
   256
177
   256
178
     2
270
     2
271
     3
272
     3
273
     2
274
     2
340
6B
275
     0
280
     0
281
     0
282
     0
283
     0
284
     0
285
     0
286
     0
287
     3
288
     0
  0
ENDTAB
  0
TABLE
  2
BLOCK_RECORD
  5
1
330
0
100
AcDbSymbolTable
 70
    11
  0
BLOCK_RECORD
  5
1F
102
{ACAD_XDICTIONARY
360
74
102
}
330
1
100
AcDbSymbolTableRecord
100
AcDbBlockTableRecord
  2
*MODEL_SPACE
  0
BLOCK_RECORD
  5
101
102
{ACAD_XDICTIONARY
360
1C47
102
}
330
1
100
AcDbSymbolTableRecord
100
AcDbBlockTableRecord
  2
*PAPER_SPACE
  0
BLOCK_RECORD
  5
59
330
1
100
AcDbSymbolTableRecord
100
AcDbBlockTableRecord
  2
_OPEN30
  0
BLOCK_RECORD
  5
64
330
1
100
AcDbSymbolTableRecord
100
AcDbBlockTableRecord
  2
GENAXEH
  0
BLOCK_RECORD
  5
D15
330
1
100
AcDbSymbolTableRecord
100
AcDbBlockTableRecord
  2
*D5
  0
BLOCK_RECORD
  5
D9D
330
1
100
AcDbSymbolTableRecord
100
AcDbBlockTableRecord
  2
*D6
  0
BLOCK_RECORD
  5
EDF
330
1
100
AcDbSymbolTableRecord
100
AcDbBlockTableRecord
  2
*D7
  0
BLOCK_RECORD
  5
11DD
330
1
100
AcDbSymbolTableRecord
100
AcDbBlockTableRecord
  2
*D8
  0
BLOCK_RECORD
  5
1272
330
1
100
AcDbSymbolTableRecord
100
AcDbBlockTableRecord
  2
*D9
  0
BLOCK_RECORD
  5
1AF4
330
1
100
AcDbSymbolTableRecord
100
AcDbBlockTableRecord
  2
*D10
  0
ENDTAB
  0
ENDSEC
  0
SECTION
  2
BLOCKS
  0
BLOCK
  5
20
330
1F
100
AcDbEntity
  8
0
100
AcDbBlockBegin
  2
*MODEL_SPACE
 70
     0
 10
0.0
 20
0.0
 30
0.0
  3
*MODEL_SPACE
  1

  0
ENDBLK
  5
21
330
1F
100
AcDbEntity
  8
0
100
AcDbBlockEnd
  0
BLOCK
  5
103
330
101
100
AcDbEntity
 67
     1
  8
0
100
AcDbBlockBegin
  2
*PAPER_SPACE
 70
     0
 10
0.0
 20
0.0
 30
0.0
  3
*PAPER_SPACE
  1

  0
ENDBLK
  5
104
330
101
100
AcDbEntity
 67
     1
  8
0
100
AcDbBlockEnd
  0
BLOCK
  5
5D
330
59
100
AcDbEntity
  8
0
100
AcDbBlockBegin
  2
_OPEN30
 70
     0
 10
0.0
 20
0.0
 30
0.0
  3
_OPEN30
  1

  0
LINE
  5
5A
330
59
100
AcDbEntity
  8
0
 62
     0
100
AcDbLine
 10
-1.0
 20
0.26794919
 30
0.0
 11
0.0
 21
0.0
 31
0.0
  0
LINE
  5
5B
330
59
100
AcDbEntity
  8
0
 62
     0
100
AcDbLine
 10
0.0
 20
0.0
 30
0.0
 11
-1.0
 21
-0.26794919
 31
0.0
  0
LINE
  5
5C
330
59
100
AcDbEntity
  8
0
 62
     0
100
AcDbLine
 10
0.0
 20
0.0
 30
0.0
 11
-1.0
 21
0.0
 31
0.0
  0
ENDBLK
  5
5E
330
59
100
AcDbEntity
  8
0
100
AcDbBlockEnd
  0
BLOCK
  5
66
330
64
100
AcDbEntity
  8
0
100
AcDbBlockBegin
  2
GENAXEH
 70
     0
 10
0.0
 20
0.0
 30
0.0
  3
GENAXEH
  1

  0
LINE
  5
65
330
64
100
AcDbEntity
  8
0
100
AcDbLine
 10
-1.0
 20
0.0
 30
0.0
 11
1.0
 21
0.0
 31
0.0
  0
ENDBLK
  5
67
330
64
100
AcDbEntity
  8
0
100
AcDbBlockEnd
  0
BLOCK
  5
D1F
330
D15
100
AcDbEntity
  8
0
100
AcDbBlockBegin
  2
*D5
 70
     1
 10
0.0
 20
0.0
 30
0.0
  3
*D5
  1

  0
LINE
  5
1BBE
330
D15
100
AcDbEntity
  8
AM_5
100
AcDbLine
 10
-49.99999999999999
 20
-2.999999999999849
 30
0.0
 11
-49.99999999999999
 21
-22.50000099999998
 31
0.0
  0
LINE
  5
1BBF
330
D15
100
AcDbEntity
  8
AM_5
100
AcDbLine
 10
0.0
 20
-2.0
 30
0.0
 11
-0.0000000000000013
 21
-22.50000099999998
 31
0.0
  0
LINE
  5
1BC0
330
D15
100
AcDbEntity
  8
AM_5
100
AcDbLine
 10
-48.74999999999999
 20
-22.00000099999998
 30
0.0
 11
-1.250000000000001
 21
-22.00000099999998
 31
0.0
  0
INSERT
  5
1BC1
330
D15
100
AcDbEntity
  8
AM_5
100
AcDbBlockReference
  2
_OPEN30
 10
-49.99999999999999
 20
-22.00000099999998
 30
0.0
 41
1.25
 42
1.25
 43
1.25
 50
180.0
  0
INSERT
  5
1BC2
330
D15
100
AcDbEntity
  8
AM_5
100
AcDbBlockReference
  2
_OPEN30
 10
-0.0000000000000013
 20
-22.00000099999998
 30
0.0
 41
1.25
 42
1.25
 43
1.25
  0
MTEXT
  5
1BC3
330
D15
100
AcDbEntity
  8
AM_5
 62
     2
100
AcDbMText
 10
-24.99999999999999
 20
-20.45000099999998
 30
0.0
 40
1.6
 41
0.0
 71
     5
 72
     1
  1
50
  7
ASAMI
1001
ACAD
1000
MTEXTBEGIN
1070
    73
1070
     1
1070
    44
1040
1.0
1070
    74
1070
     0
1000
MTEXTEND
  0
POINT
  5
1BC4
330
D15
100
AcDbEntity
  8
DEFPOINTS
 62
     0
100
AcDbPoint
 10
-49.99999999999999
 20
-2.499999999999849
 30
0.0
  0
POINT
  5
1BC5
330
D15
100
AcDbEntity
  8
DEFPOINTS
 62
     0
100
AcDbPoint
 10
0.0
 20
-1.5
 30
0.0
  0
POINT
  5
1BC6
330
D15
100
AcDbEntity
  8
DEFPOINTS
 62
     0
100
AcDbPoint
 10
-0.0000000000000013
 20
-22.00000099999998
 30
0.0
  0
ENDBLK
  5
D20
330
D15
100
AcDbEntity
  8
0
100
AcDbBlockEnd
  0
BLOCK
  5
DA7
330
D9D
100
AcDbEntity
  8
0
100
AcDbBlockBegin
  2
*D6
 70
     1
 10
0.0
 20
0.0
 30
0.0
  3
*D6
  1

  0
LINE
  5
1BE5
330
D9D
100
AcDbEntity
  8
AM_5
100
AcDbLine
 10
-5.999999999999998
 20
-2.500000000000003
 30
0.0
 11
-5.999999999999999
 21
-10.50000099999998
 31
0.0
  0
LINE
  5
1BE6
330
D9D
100
AcDbEntity
  8
AM_5
100
AcDbLine
 10
0.0
 20
-2.0
 30
0.0
 11
-0.0000000000000006
 21
-10.50000099999998
 31
0.0
  0
LINE
  5
1BE7
330
D9D
100
AcDbEntity
  8
AM_5
100
AcDbLine
 10
-4.749999999999999
 20
-10.00000099999998
 30
0.0
 11
-1.25
 21
-10.00000099999998
 31
0.0
  0
INSERT
  5
1BE8
330
D9D
100
AcDbEntity
  8
AM_5
100
AcDbBlockReference
  2
_OPEN30
 10
-5.999999999999999
 20
-10.00000099999998
 30
0.0
 41
1.25
 42
1.25
 43
1.25
 50
180.0
  0
INSERT
  5
1BE9
330
D9D
100
AcDbEntity
  8
AM_5
100
AcDbBlockReference
  2
_OPEN30
 10
-0.0000000000000005
 20
-10.00000099999998
 30
0.0
 41
1.25
 42
1.25
 43
1.25
  0
MTEXT
  5
1BEA
330
D9D
100
AcDbEntity
  8
AM_5
 62
     2
100
AcDbMText
 10
-3.0
 20
-8.450000999999982
 30
0.0
 40
1.6
 41
0.0
 71
     5
 72
     1
  1
6
  7
ASAMI
1001
ACAD
1000
MTEXTBEGIN
1070
    73
1070
     1
1070
    44
1040
1.0
1070
    74
1070
     0
1000
MTEXTEND
  0
POINT
  5
1BEB
330
D9D
100
AcDbEntity
  8
DEFPOINTS
 62
     0
100
AcDbPoint
 10
-5.999999999999998
 20
-2.000000000000003
 30
0.0
  0
POINT
  5
1BEC
330
D9D
100
AcDbEntity
  8
DEFPOINTS
 62
     0
100
AcDbPoint
 10
0.0
 20
-1.5
 30
0.0
  0
POINT
  5
1BED
330
D9D
100
AcDbEntity
  8
DEFPOINTS
 62
     0
100
AcDbPoint
 10
-0.0000000000000005
 20
-10.00000099999998
 30
0.0
  0
ENDBLK
  5
DA8
330
D9D
100
AcDbEntity
  8
0
100
AcDbBlockEnd
  0
BLOCK
  5
EE9
330
EDF
100
AcDbEntity
  8
0
100
AcDbBlockBegin
  2
*D7
 70
     1
 10
0.0
 20
0.0
 30
0.0
  3
*D7
  1

  0
LINE
  5
1BFA
330
EDF
100
AcDbEntity
  8
AM_5
100
AcDbLine
 10
0.5
 20
-2.0
 30
0.0
 11
10.50000099999999
 21
-2.000000000000002
 31
0.0
  0
LINE
  5
1BFB
330
EDF
100
AcDbEntity
  8
AM_5
100
AcDbLine
 10
0.5
 20
2.0
 30
0.0
 11
10.50000099999999
 21
1.999999999999996
 31
0.0
  0
LINE
  5
1BFC
330
EDF
100
AcDbEntity
  8
AM_5
100
AcDbLine
 10
10.00000099999999
 20
-0.7500000000000027
 30
0.0
 11
10.00000099999999
 21
0.7499999999999972
 31
0.0
  0
INSERT
  5
1BFD
330
EDF
100
AcDbEntity
  8
AM_5
100
AcDbBlockReference
  2
_OPEN30
 10
10.00000099999999
 20
-2.000000000000002
 30
0.0
 41
1.25
 42
1.25
 43
1.25
 50
270.0
  0
INSERT
  5
1BFE
330
EDF
100
AcDbEntity
  8
AM_5
100
AcDbBlockReference
  2
_OPEN30
 10
10.00000099999999
 20
1.999999999999997
 30
0.0
 41
1.25
 42
1.25
 43
1.25
 50
90.0
  0
MTEXT
  5
1BFF
330
EDF
100
AcDbEntity
  8
AM_5
 62
     2
100
AcDbMText
 10
8.450000999999994
 20
-0.000000000000001
 30
0.0
 40
1.6
 41
0.0
 71
     5
 72
     1
  1
%%c4
  7
ASAMI
 11
0.0000000000000001
 21
1.0
 31
0.0
1001
ACAD
1000
MTEXTBEGIN
1070
    73
1070
     1
1070
    44
1040
1.0
1070
    74
1070
     0
1000
MTEXTEND
  0
POINT
  5
1C00
330
EDF
100
AcDbEntity
  8
DEFPOINTS
 62
     0
100
AcDbPoint
 10
0.0
 20
-2.0
 30
0.0
  0
POINT
  5
1C01
330
EDF
100
AcDbEntity
  8
DEFPOINTS
 62
     0
100
AcDbPoint
 10
0.0
 20
2.0
 30
0.0
  0
POINT
  5
1C02
330
EDF
100
AcDbEntity
  8
DEFPOINTS
 62
     0
100
AcDbPoint
 10
10.00000099999999
 20
1.999999999999997
 30
0.0
  0
ENDBLK
  5
EEA
330
EDF
100
AcDbEntity
  8
0
100
AcDbBlockEnd
  0
BLOCK
  5
11E7
330
11DD
100
AcDbEntity
  8
0
100
AcDbBlockBegin
  2
*D8
 70
     1
 10
0.0
 20
0.0
 30
0.0
  3
*D8
  1

  0
LINE
  5
1BD2
330
11DD
100
AcDbEntity
  8
AM_5
100
AcDbLine
 10
0.0
 20
-2.0
 30
0.0
 11
-0.0000000000000009
 21
-16.50000100000001
 31
0.0
  0
LINE
  5
1BD3
330
11DD
100
AcDbEntity
  8
AM_5
100
AcDbLine
 10
-16.0
 20
-2.399999999999964
 30
0.0
 11
-16.0
 21
-16.50000100000001
 31
0.0
  0
LINE
  5
1BD4
330
11DD
100
AcDbEntity
  8
AM_5
100
AcDbLine
 10
-1.25
 20
-16.00000100000001
 30
0.0
 11
-14.75
 21
-16.00000100000001
 31
0.0
  0
INSERT
  5
1BD5
330
11DD
100
AcDbEntity
  8
AM_5
100
AcDbBlockReference
  2
_OPEN30
 10
-0.0000000000000009
 20
-16.00000100000001
 30
0.0
 41
1.25
 42
1.25
 43
1.25
  0
INSERT
  5
1BD6
330
11DD
100
AcDbEntity
  8
AM_5
100
AcDbBlockReference
  2
_OPEN30
 10
-16.0
 20
-16.00000100000001
 30
0.0
 41
1.25
 42
1.25
 43
1.25
 50
180.0
  0
MTEXT
  5
1BD7
330
11DD
100
AcDbEntity
  8
AM_5
 62
     2
100
AcDbMText
 10
-8.0
 20
-14.45000100000001
 30
0.0
 40
1.6
 41
0.0
 71
     5
 72
     1
  1
16
  7
ASAMI
1001
ACAD
1000
MTEXTBEGIN
1070
    73
1070
     1
1070
    44
1040
1.0
1070
    74
1070
     0
1000
MTEXTEND
  0
POINT
  5
1BD8
330
11DD
100
AcDbEntity
  8
DEFPOINTS
 62
     0
100
AcDbPoint
 10
0.0
 20
-1.5
 30
0.0
  0
POINT
  5
1BD9
330
11DD
100
AcDbEntity
  8
DEFPOINTS
 62
     0
100
AcDbPoint
 10
-16.0
 20
-1.899999999999964
 30
0.0
  0
POINT
  5
1BDA
330
11DD
100
AcDbEntity
  8
DEFPOINTS
 62
     0
100
AcDbPoint
 10
-16.0
 20
-16.00000100000001
 30
0.0
  0
ENDBLK
  5
11E8
330
11DD
100
AcDbEntity
  8
0
100
AcDbBlockEnd
  0
BLOCK
  5
127C
330
1272
100
AcDbEntity
  8
0
100
AcDbBlockBegin
  2
*D9
 70
     1
 10
0.0
 20
0.0
 30
0.0
  3
*D9
  1

  0
LINE
  5
1BC7
330
1272
100
AcDbEntity
  8
AM_5
100
AcDbLine
 10
-49.99999999999999
 20
-2.999999999999849
 30
0.0
 11
-60.50000099999998
 21
-2.999999999999845
 31
0.0
  0
LINE
  5
1BC8
330
1272
100
AcDbEntity
  8
AM_5
100
AcDbLine
 10
-49.99999999999999
 20
3.000000000000037
 30
0.0
 11
-60.50000099999998
 21
3.00000000000004
 31
0.0
  0
LINE
  5
1BC9
330
1272
100
AcDbEntity
  8
AM_5
100
AcDbLine
 10
-60.00000099999997
 20
-4.249999999999846
 30
0.0
 11
-60.00000099999997
 21
-5.499999999999846
 31
0.0
  0
LINE
  5
1BCA
330
1272
100
AcDbEntity
  8
AM_5
100
AcDbLine
 10
-60.00000099999997
 20
4.250000000000039
 30
0.0
 11
-60.00000099999997
 21
5.500000000000039
 31
0.0
  0
LINE
  5
1BCB
330
1272
100
AcDbEntity
  8
AM_5
100
AcDbLine
 10
-60.00000099999997
 20
-2.999999999999846
 30
0.0
 11
-60.00000099999997
 21
3.000000000000039
 31
0.0
  0
INSERT
  5
1BCC
330
1272
100
AcDbEntity
  8
AM_5
100
AcDbBlockReference
  2
_OPEN30
 10
-60.00000099999997
 20
-2.999999999999846
 30
0.0
 41
1.25
 42
1.25
 43
1.25
 50
90.0
  0
INSERT
  5
1BCD
330
1272
100
AcDbEntity
  8
AM_5
100
AcDbBlockReference
  2
_OPEN30
 10
-60.00000099999997
 20
3.000000000000039
 30
0.0
 41
1.25
 42
1.25
 43
1.25
 50
270.0
  0
MTEXT
  5
1BCE
330
1272
100
AcDbEntity
  8
AM_5
 62
     2
100
AcDbMText
 10
-61.55000099999997
 20
0.0000000000000907
 30
0.0
 40
1.6
 41
0.0
 71
     5
 72
     1
  1
%%c6
  7
ASAMI
 11
0.0000000000000001
 21
1.0
 31
0.0
1001
ACAD
1000
MTEXTBEGIN
1070
    73
1070
     1
1070
    44
1040
1.0
1070
    74
1070
     0
1000
MTEXTEND
  0
POINT
  5
1BCF
330
1272
100
AcDbEntity
  8
DEFPOINTS
 62
     0
100
AcDbPoint
 10
-49.49999999999999
 20
-2.999999999999849
 30
0.0
  0
POINT
  5
1BD0
330
1272
100
AcDbEntity
  8
DEFPOINTS
 62
     0
100
AcDbPoint
 10
-49.49999999999999
 20
3.000000000000037
 30
0.0
  0
POINT
  5
1BD1
330
1272
100
AcDbEntity
  8
DEFPOINTS
 62
     0
100
AcDbPoint
 10
-60.00000099999997
 20
3.000000000000039
 30
0.0
  0
ENDBLK
  5
127D
330
1272
100
AcDbEntity
  8
0
100
AcDbBlockEnd
  0
BLOCK
  5
1AFB
330
1AF4
100
AcDbEntity
  8
0
100
AcDbBlockBegin
  2
*D10
 70
     1
 10
0.0
 20
0.0
 30
0.0
  3
*D10
  1

  0
LINE
  5
1C49
330
1AF4
100
AcDbEntity
  8
AM_5
100
AcDbLine
 10
6.845879683295662
 20
-7.44857607730441
 30
0.0
 11
0.8600054325497033
 21
-2.601310684337215
 31
0.0
  0
MTEXT
  5
1C4A
330
1AF4
100
AcDbEntity
  8
AM_5
 62
     2
100
AcDbMText
 10
5.314105389960537
 20
-4.213692384968655
 30
0.0
 40
1.6
 41
0.0
 71
     5
 72
     1
  1
R0.5
  7
ASAMI
 11
0.7771459614569715
 21
-0.6293203910498369
 31
0.0
  0
LINE
  5
1C4B
330
1AF4
100
AcDbEntity
  8
AM_5
100
AcDbLine
 10
-0.4999999999999967
 20
-1.5
 30
0.0
 11
-0.1114270192715109
 21
-1.814660195524919
 31
0.0
  0
INSERT
  5
1C4C
330
1AF4
100
AcDbEntity
  8
AM_5
100
AcDbBlockReference
  2
_OPEN30
 10
-0.1114270192715109
 20
-1.814660195524919
 30
0.0
 41
1.25
 42
1.25
 43
1.25
 50
141.0
  0
POINT
  5
1C4D
330
1AF4
100
AcDbEntity
  8
DEFPOINTS
 62
     0
100
AcDbPoint
 10
-0.1114270192715145
 20
-1.814660195524918
 30
0.0
  0
POINT
  5
1C4E
330
1AF4
100
AcDbEntity
  8
DEFPOINTS
 62
     0
100
AcDbPoint
 10
-0.4999999999999997
 20
-1.499999999999999
 30
0.0
  0
ENDBLK
  5
1AFC
330
1AF4
100
AcDbEntity
  8
0
100
AcDbBlockEnd
  0
ENDSEC
  0
SECTION
  2
ENTITIES
  0
LINE
  5
C55
330
1F
100
AcDbEntity
  8
AM_0
100
AcDbLine
 10
0.0
 20
1.499999999999999
 30
0.0
 11
0.0
 21
-1.5
 31
0.0
  0
SPLINE
  5
C56
330
1F
100
AcDbEntity
  8
AM_0
100
AcDbSpline
210
0.0
220
0.0
230
1.0
 70
     8
 71
     3
 72
     8
 73
     4
 74
     0
 42
0.0000000001
 43
0.0000000001
 40
0.5179176998437139
 40
0.5179176998437139
 40
0.5179176998437139
 40
0.5179176998437139
 40
8.999068685365031
 40
8.999068685365031
 40
8.999068685365031
 40
8.999068685365031
 10
-5.133914764404743
 20
1.747301404182236
 30
0.0
 10
-4.027307472287702
 20
1.654584125762017
 30
0.0
 10
-3.11307475351723
 20
0.8252144181356708
 30
0.0
 10
-2.198842034746576
 20
-0.0041552894907216
 30
0.0
  0
SPLINE
  5
C57
330
1F
100
AcDbEntity
  8
AM_0
100
AcDbSpline
210
0.0
220
0.0
230
1.0
 70
     8
 71
     3
 72
     8
 73
     4
 74
     0
 42
0.0000000001
 43
0.0000000001
 40
0.5179176998614976
 40
0.5179176998614976
 40
0.5179176998614976
 40
0.5179176998614976
 40
5.514523215700526
 40
5.514523215700526
 40
5.514523215700526
 40
5.514523215700526
 10
-1.993914764397777
 20
1.751456693672345
 30
0.0
 10
-1.341965505494772
 20
1.69683301516759
 30
0.0
 10
-0.7567872966596952
 20
1.386525566309888
 30
0.0
 10
-0.1990424822327441
 20
0.9711684932711033
 30
0.0
  0
SPLINE
  5
C58
330
1F
100
AcDbEntity
  8
AM_0
100
AcDbSpline
210
0.0
220
0.0
230
1.0
 70
     8
 71
     3
 72
     8
 73
     4
 74
     2
 42
0.0000000001
 43
0.0000000001
 44
0.0000000001
 12
0.9999878186055967
 22
0.0049358525525493
 32
0.0
 40
0.0
 40
0.0
 40
0.0
 40
0.0
 40
3.716114009487542
 40
3.716114009487542
 40
3.716114009487542
 40
3.716114009487542
 10
-3.2200000000018
 20
1.987436371688341
 30
0.0
 10
-1.981310419322752
 20
1.993550435294772
 30
0.0
 10
-1.030655209662294
 20
0.9967752176473753
 30
0.0
 10
-0.0800000000018372
 20
-0.0000000000000217
 30
0.0
 11
-3.2200000000018
 21
1.987436371688341
 31
0.0
 11
-0.0800000000018372
 21
-0.0000000000000217
 31
0.0
  0
SPLINE
  5
C59
330
1F
100
AcDbEntity
  8
AM_0
100
AcDbSpline
210
0.0
220
0.0
230
1.0
 70
     8
 71
     3
 72
     8
 73
     4
 74
     0
 42
0.0000000001
 43
0.0000000001
 40
0.8291973398015029
 40
0.8291973398015029
 40
0.8291973398015029
 40
0.8291973398015029
 40
7.918446762666186
 40
7.918446762666186
 40
7.918446762666186
 40
7.918446762666186
 10
-2.465067302186889
 20
1.864591040394135
 30
0.0
 10
-1.554856157115773
 20
1.738327842198101
 30
0.0
 10
-0.7872577337551774
 20
1.09791122284446
 30
0.0
 10
-0.040892375315434
 20
0.3809442590349373
 30
0.0
  0
SPLINE
  5
C5A
330
1F
100
AcDbEntity
  8
AM_0
100
AcDbSpline
210
0.0
220
0.0
230
1.0
 70
     8
 71
     3
 72
     8
 73
     4
 74
     0
 42
0.0000000001
 43
0.0000000001
 40
0.829197339801526
 40
0.829197339801526
 40
0.829197339801526
 40
0.829197339801526
 40
9.158576263912857
 40
9.158576263912857
 40
9.158576263912857
 40
9.158576263912857
 10
-5.605067302186853
 20
1.860435750903367
 30
0.0
 10
-4.535632009954952
 20
1.712085204997493
 30
0.0
 10
-3.663068283154916
 20
0.8539649577533747
 30
0.0
 10
-2.790504556355062
 20
-0.0041552894907216
 30
0.0
  0
SPLINE
  5
C5C
330
1F
100
AcDbEntity
  8
AM_0
100
AcDbSpline
210
0.0
220
0.0
230
1.0
 70
     8
 71
     3
 72
     8
 73
     4
 74
     0
 42
0.0000000001
 43
0.0000000001
 40
0.6176137941296894
 40
0.6176137941296894
 40
0.6176137941296894
 40
0.6176137941296894
 40
2.57750390504933
 40
2.57750390504933
 40
2.57750390504933
 40
2.57750390504933
 10
-0.0923944836113444
 20
1.789582014306045
 30
0.0
 10
-0.183330134785641
 20
1.589017366737179
 30
0.0
 10
-0.4995619273246592
 20
1.457169747122745
 30
0.0
 10
-0.8348090102313108
 20
1.383291746844452
 30
0.0
  0
SPLINE
  5
C5E
330
1F
100
AcDbEntity
  8
AM_0
100
AcDbSpline
210
0.0
220
0.0
230
1.0
 70
     8
 71
     3
 72
     8
 73
     4
 74
     0
 42
0.0000000001
 43
0.0000000001
 40
0.6885489935631906
 40
0.6885489935631906
 40
0.6885489935631906
 40
0.6885489935631906
 40
3.514580779201212
 40
3.514580779201212
 40
3.514580779201212
 40
3.514580779201212
 10
-0.3495653564072445
 20
1.976832693936899
 30
0.0
 10
-0.7150803233572426
 20
1.93514765733391
 30
0.0
 10
-1.054696395494734
 20
1.807540285844214
 30
0.0
 10
-1.377742707135894
 20
1.622239677481844
 30
0.0
  0
SPLINE
  5
C5F
330
1F
100
AcDbEntity
  8
AM_0
100
AcDbSpline
210
0.0
220
0.0
230
1.0
 70
     8
 71
     3
 72
     8
 73
     4
 74
     0
 42
0.0000000001
 43
0.0000000001
 40
0.0
 40
0.0
 40
0.0
 40
0.0
 40
3.514580779201212
 40
3.514580779201212
 40
3.514580779201212
 40
3.514580779201212
 10
-3.223963030844242
 20
1.991591661179064
 30
0.0
 10
-3.692568093071804
 20
1.993904654847098
 30
0.0
 10
-4.119950752965086
 20
1.852687883986233
 30
0.0
 10
-4.52170573797839
 20
1.622239677481844
 30
0.0
  0
SPLINE
  5
C60
330
1F
100
AcDbEntity
  8
AM_0
100
AcDbSpline
210
0.0
220
0.0
230
1.0
 70
     8
 71
     3
 72
     8
 73
     4
 74
     0
 42
0.0000000001
 43
0.0000000001
 40
0.0
 40
0.0
 40
0.0
 40
0.0
 40
0.0001935953510688
 40
0.0001935953510688
 40
0.0001935953510688
 40
0.0001935953510688
 10
-2.198842034746576
 20
1.760033508949983
 30
0.0
 10
-2.19881622203311
 20
1.760033508949983
 30
0.0
 10
-2.198790409425964
 20
1.760033508542711
 30
0.0
 10
-2.198764596925229
 20
1.76003350772819
 30
0.0
  0
SPLINE
  5
C61
330
1F
100
AcDbEntity
  8
AM_0
100
AcDbSpline
210
0.0
220
0.0
230
1.0
 70
     8
 71
     3
 72
     8
 73
     4
 74
     0
 42
0.0000000001
 43
0.0000000001
 40
0.0
 40
0.0
 40
0.0
 40
0.0
 40
0.0001935953510984
 40
0.0001935953510984
 40
0.0001935953510984
 40
0.0001935953510984
 10
-5.338842034746539
 20
1.75587821945926
 30
0.0
 10
-5.338816222033074
 20
1.75587821945926
 30
0.0
 10
-5.338790409425927
 20
1.755878219051988
 30
0.0
 10
-5.338764596925193
 20
1.755878218237468
 30
0.0
  0
SPLINE
  5
C62
330
1F
100
AcDbEntity
  8
AM_0
100
AcDbSpline
210
0.0
220
0.0
230
1.0
 70
     8
 71
     3
 72
     8
 73
     4
 74
     0
 42
0.0000000001
 43
0.0000000001
 40
0.0
 40
0.0
 40
0.0
 40
0.0
 40
2.142709433955016
 40
2.142709433955016
 40
2.142709433955016
 40
2.142709433955016
 10
-5.342805065588981
 20
-1.760033508950003
 30
0.0
 10
-5.057110474394994
 20
-1.760033508950003
 30
0.0
 10
-4.784444773136874
 20
-1.710142490328574
 30
0.0
 10
-4.52170573797839
 20
-1.622239677481842
 30
0.0
  0
SPLINE
  5
C63
330
1F
100
AcDbEntity
  8
AM_0
100
AcDbSpline
210
0.0
220
0.0
230
1.0
 70
     8
 71
     3
 72
     8
 73
     4
 74
     2
 42
0.0000000001
 43
0.0000000001
 44
0.0000000001
 12
-1.0
 22
0.0000000000000001
 32
0.0
 40
0.0
 40
0.0
 40
0.0
 40
0.0
 40
3.599627474146046
 40
3.599627474146046
 40
3.599627474146046
 40
3.599627474146046
 10
-2.202805065589018
 20
-1.76418879844068
 30
0.0
 10
-3.402680890304367
 20
-1.76418879844068
 30
0.0
 10
-4.372742977946718
 20
-0.8841720439657011
 30
0.0
 10
-5.342805065589072
 20
-0.0041552894907216
 30
0.0
 11
-2.202805065589018
 21
-1.76418879844068
 31
0.0
 11
-5.342805065589072
 21
-0.0041552894907216
 31
0.0
  0
SPLINE
  5
C64
330
1F
100
AcDbEntity
  8
AM_0
100
AcDbSpline
210
0.0
220
0.0
230
1.0
 70
     8
 71
     3
 72
     8
 73
     4
 74
     2
 42
0.0000000001
 43
0.0000000001
 44
0.0000000001
 12
-1.0
 22
0.0000000000000001
 32
0.0
 40
0.0
 40
0.0
 40
0.0
 40
0.0
 40
3.663430505565091
 40
3.663430505565091
 40
3.663430505565091
 40
3.663430505565091
 10
-2.794467587197413
 20
-1.891249105151494
 30
0.0
 10
-4.015611089052444
 20
-1.891249105151494
 30
0.0
 10
-4.97503933812491
 20
-0.9477021973211082
 30
0.0
 10
-5.934467587197376
 20
-0.0041552894907216
 30
0.0
 11
-2.794467587197413
 21
-1.891249105151494
 31
0.0
 11
-5.934467587197376
 21
-0.0041552894907216
 31
0.0
  0
SPLINE
  5
C65
330
1F
100
AcDbEntity
  8
AM_0
100
AcDbSpline
210
0.0
220
0.0
230
1.0
 70
     8
 71
     3
 72
     8
 73
     4
 74
     0
 42
0.0000000001
 43
0.0000000001
 40
0.0
 40
0.0
 40
0.0
 40
0.0
 40
8.399619336653909
 40
8.399619336653909
 40
8.399619336653909
 40
8.399619336653909
 10
-3.223963030844242
 20
-1.991591661179084
 30
0.0
 10
-4.343898633188018
 20
-1.997119565518186
 30
0.0
 10
-5.228380574363745
 20
-1.182835750227262
 30
0.0
 10
-6.090289419411691
 20
-0.2899560504544741
 30
0.0
  0
SPLINE
  5
C66
330
1F
100
AcDbEntity
  8
AM_0
100
AcDbSpline
210
0.0
220
0.0
230
1.0
 70
     8
 71
     3
 72
     8
 73
     4
 74
     0
 42
0.0000000001
 43
0.0000000001
 40
0.0
 40
0.0
 40
0.0
 40
0.0
 40
2.142709433955016
 40
2.142709433955016
 40
2.142709433955016
 40
2.142709433955016
 10
-2.198842034746576
 20
-1.76003350894998
 30
0.0
 10
-1.913147443552588
 20
-1.76003350894998
 30
0.0
 10
-1.640481742294377
 20
-1.710142490328552
 30
0.0
 10
-1.377742707135894
 20
-1.622239677481842
 30
0.0
  0
SPLINE
  5
C67
330
1F
100
AcDbEntity
  8
AM_0
100
AcDbSpline
210
0.0
220
0.0
230
1.0
 70
     8
 71
     3
 72
     8
 73
     4
 74
     0
 42
0.0000000001
 43
0.0000000001
 40
2.924396646875711
 40
2.924396646875711
 40
2.924396646875711
 40
2.924396646875711
 40
8.999068685365031
 40
8.999068685365031
 40
8.999068685365031
 40
8.999068685365031
 10
-0.1636800797029536
 20
-1.515590831334633
 30
0.0
 10
-0.8891933932193751
 20
-1.192236714073009
 30
0.0
 10
-1.544017713982975
 20
-0.5981960017818654
 30
0.0
 10
-2.198842034746576
 20
-0.0041552894906989
 30
0.0
  0
SPLINE
  5
C68
330
1F
100
AcDbEntity
  8
AM_0
100
AcDbSpline
210
0.0
220
0.0
230
1.0
 70
     8
 71
     3
 72
     8
 73
     4
 74
     0
 42
0.0000000001
 43
0.0000000001
 40
1.244914495961638
 40
1.244914495961638
 40
1.244914495961638
 40
1.244914495961638
 40
9.158576263912857
 40
9.158576263912857
 40
9.158576263912857
 40
9.158576263912857
 10
-0.1346207953699155
 20
-1.841318087454924
 30
0.0
 10
-1.132475964357743
 20
-1.634738663063191
 30
0.0
 10
-1.961490260356402
 20
-0.8194469762769235
 30
0.0
 10
-2.790504556355062
 20
-0.0041552894906989
 30
0.0
  0
SPLINE
  5
C69
330
1F
100
AcDbEntity
  8
AM_0
100
AcDbSpline
210
0.0
220
0.0
230
1.0
 70
     8
 71
     3
 72
     8
 73
     4
 74
     0
 42
0.0000000001
 43
0.0000000001
 40
0.2956604358238705
 40
0.2956604358238705
 40
0.2956604358238705
 40
0.2956604358238705
 40
3.720617705229725
 40
3.720617705229725
 40
3.720617705229725
 40
3.720617705229725
 10
-0.3703032448682962
 20
-1.98288585784668
 30
0.0
 10
-1.471159924231664
 20
-1.847034396708187
 30
0.0
 10
-2.345579962116732
 20
-0.9255948430994546
 30
0.0
 10
-3.2200000000018
 20
-0.0041552894907216
 30
0.0
  0
LINE
  5
C6A
330
1F
100
AcDbEntity
  8
AM_0
100
AcDbLine
 10
-0.0457982667060605
 20
-1.709047328308163
 30
0.0
 11
-0.0457982667060605
 21
-0.6264658196044126
 31
0.0
  0
LINE
  5
C6B
330
1F
100
AcDbEntity
  8
AM_0
100
AcDbLine
 10
-0.0394879715358002
 20
-0.6137872258051618
 30
0.0
 11
0.0
 21
-0.4912171685514967
 31
0.0
  0
LINE
  5
C6C
330
1F
100
AcDbEntity
  8
AM_0
100
AcDbLine
 10
0.0
 20
-0.0510608847077254
 30
0.0
 11
-0.0394879715358002
 21
0.3757029527748965
 31
0.0
  0
LINE
  5
C6D
330
1F
100
AcDbEntity
  8
AM_0
100
AcDbLine
 10
-0.0394879715358002
 20
-0.6137872258051618
 30
0.0
 11
-0.1640210151011161
 21
-0.863998005388929
 31
0.0
  0
LINE
  5
C6E
330
1F
100
AcDbEntity
  8
AM_0
100
AcDbLine
 10
0.0
 20
-0.0510608847077254
 30
0.0
 11
-0.5580629011153178
 21
-0.000720434867684
 31
0.0
  0
LINE
  5
C6F
330
1F
100
AcDbEntity
  8
AM_0
100
AcDbLine
 10
-0.0394879715358002
 20
0.3757029527748965
 30
0.0
 11
-0.1990424822323802
 21
0.9711684932714669
 31
0.0
  0
LINE
  5
C73
330
1F
100
AcDbEntity
  8
AM_0
100
AcDbLine
 10
-0.0868614567060091
 20
-1.781631930087693
 30
0.0
 11
-0.1636800797029536
 21
-1.515590831334633
 31
0.0
  0
SPLINE
  5
C74
330
1F
100
AcDbEntity
  8
AM_0
100
AcDbSpline
210
0.0
220
0.0
230
1.0
 70
     8
 71
     3
 72
     8
 73
     4
 74
     2
 42
0.0000000001
 43
0.0000000001
 44
0.0000000001
 12
0.2968072260726871
 22
-0.9549374170860815
 32
0.0
 13
-0.1104733016500219
 23
-0.9938790920542315
 33
0.0
 40
0.0
 40
0.0
 40
0.0
 40
0.0
 40
0.651592915145231
 40
0.651592915145231
 40
0.651592915145231
 40
0.651592915145231
 10
-0.1640210150985695
 20
-0.8639980053838588
 30
0.0
 10
-0.0995551865409456
 20
-1.071408157177317
 30
0.0
 10
-0.1396855394803349
 20
-1.299722639703462
 30
0.0
 10
-0.1636800797029536
 20
-1.515590831334633
 30
0.0
 11
-0.1640210150985695
 21
-0.8639980053838588
 31
0.0
 11
-0.1636800797029536
 21
-1.515590831334633
 31
0.0
  0
SPLINE
  5
C75
330
1F
100
AcDbEntity
  8
AM_0
100
AcDbSpline
210
0.0
220
0.0
230
1.0
 70
     8
 71
     3
 72
     8
 73
     4
 74
     0
 42
0.0000000001
 43
0.0000000001
 40
9.141233629465322
 40
9.141233629465322
 40
9.141233629465322
 40
9.141233629465322
 40
9.290285023718936
 40
9.290285023718936
 40
9.290285023718936
 40
9.290285023718936
 10
-0.0342424690870757
 20
-0.047972019108396
 30
0.0
 10
-0.0494957723935841
 20
-0.0319841071761392
 30
0.0
 10
-0.0647478861977106
 20
-0.0159920535880691
 30
0.0
 10
-0.0800000000018372
 20
0.0000000000000011
 30
0.0
  0
SPLINE
  5
C76
330
1F
100
AcDbEntity
  8
AM_0
100
AcDbSpline
210
0.0
220
0.0
230
1.0
 70
     8
 71
     3
 72
     9
 73
     5
 74
     3
 42
0.0000000001
 43
0.0000000001
 44
0.0000000001
 12
-0.9959561288896109
 22
0.0898409112109892
 32
0.0
 13
0.5961652186767444
 23
-0.8028617764223863
 33
0.0
 40
0.0
 40
0.0
 40
0.0
 40
0.0
 40
0.2629766081586739
 40
1.249488498951863
 40
1.249488498951863
 40
1.249488498951863
 40
1.249488498951863
 10
-0.5580629011153178
 20
-0.000720434867684
 30
0.0
 10
-0.6453672893320621
 20
0.0071549178336995
 30
0.0
 10
-1.142848046471172
 20
-0.2590865081648868
 30
0.0
 10
-0.3600623741350928
 20
-0.59998710902092
 30
0.0
 10
-0.1640210151011161
 20
-0.863998005388929
 30
0.0
 11
-0.5580629011153178
 21
-0.000720434867684
 31
0.0
 11
-0.7980629011153724
 21
-0.1082225113063021
 31
0.0
 11
-0.1640210151011161
 21
-0.863998005388929
 31
0.0
  0
SPLINE
  5
C77
330
1F
100
AcDbEntity
  8
AM_0
100
AcDbSpline
210
0.0
220
0.0
230
1.0
 70
     8
 71
     3
 72
     8
 73
     4
 74
     0
 42
0.0000000001
 43
0.0000000001
 40
0.0
 40
0.0
 40
0.0
 40
0.0
 40
2.085529961854907
 40
2.085529961854907
 40
2.085529961854907
 40
2.085529961854907
 10
-2.790504556354971
 20
-1.887093815660795
 30
0.0
 10
-2.512433894774312
 20
-1.887093815660795
 30
0.0
 10
-2.247934049402919
 20
-1.838167734605962
 30
0.0
 10
-1.993914764397868
 20
-1.751456693672342
 30
0.0
  0
SPLINE
  5
C78
330
1F
100
AcDbEntity
  8
AM_0
100
AcDbSpline
210
0.0
220
0.0
230
1.0
 70
     8
 71
     3
 72
     8
 73
     4
 74
     0
 42
0.0000000001
 43
0.0000000001
 40
0.0
 40
0.0
 40
0.0
 40
0.0
 40
1.978364719412732
 40
1.978364719412732
 40
1.978364719412732
 40
1.978364719412732
 10
-3.2200000000018
 20
-1.987436371688339
 30
0.0
 10
-2.956221250645557
 20
-1.988738360561704
 30
0.0
 10
-2.70550417876102
 20
-1.944561692546766
 30
0.0
 10
-2.465067302206352
 20
-1.86459104040059
 30
0.0
  0
POLYLINE
  5
C79
330
1F
100
AcDbEntity
  8
AM_0
100
AcDb2dPolyline
 66
     1
 10
0.0
 20
0.0
 30
0.0
 70
     2
  0
VERTEX
  5
C7A
330
C79
100
AcDbEntity
  8
AM_0
100
AcDbVertex
100
AcDb2dVertex
 10
-6.0
 20
-1.676901933362573
 30
0.0
 42
-0.0230041772467715
  0
VERTEX
  5
C7B
330
C79
100
AcDbEntity
  8
AM_0
100
AcDbVertex
100
AcDb2dVertex
 10
-6.320563705882067
 20
-1.455092695130183
 30
0.0
 42
-0.0405369427811071
 70
     1
  0
VERTEX
  5
C7C
330
C79
100
AcDbEntity
  8
AM_0
100
AcDbVertex
100
AcDb2dVertex
 10
-6.485249999999995
 20
-1.307021824424809
 30
0.0
 42
-0.0218730450044702
  0
VERTEX
  5
C7D
330
C79
100
AcDbEntity
  8
AM_0
100
AcDbVertex
100
AcDb2dVertex
 10
-6.886672954269306
 20
-0.8434806223296435
 30
0.0
 42
-0.0311955358087158
 70
     1
  0
VERTEX
  5
C7E
330
C79
100
AcDbEntity
  8
AM_0
100
AcDbVertex
100
AcDb2dVertex
 10
-7.132250000000021
 20
-0.490307928591169
 30
0.0
 42
-0.0495171753539275
  0
VERTEX
  5
C7F
330
C79
100
AcDbEntity
  8
AM_0
100
AcDbVertex
100
AcDb2dVertex
 10
-7.269547988457361
 20
-0.2033522558051846
 30
0.0
 42
-0.0980887089957094
 70
     1
  0
VERTEX
  5
C80
330
C79
100
AcDbEntity
  8
AM_0
100
AcDbVertex
100
AcDb2dVertex
 10
-7.293999999999959
 20
-0.0434741416953148
 30
0.0
 42
-0.1602936925217278
  0
VERTEX
  5
C81
330
C79
100
AcDbEntity
  8
AM_0
100
AcDbVertex
100
AcDb2dVertex
 10
-7.250957260514223
 20
0.0703021951204573
 30
0.0
 42
-0.1317128335817564
 70
     1
  0
VERTEX
  5
C82
330
C79
100
AcDbEntity
  8
AM_0
100
AcDbVertex
100
AcDb2dVertex
 10
-7.132250000000021
 20
0.1567308478796075
 30
0.0
 42
-0.1572941928372058
  0
VERTEX
  5
C83
330
C79
100
AcDbEntity
  8
AM_0
100
AcDbVertex
100
AcDb2dVertex
 10
-6.967445132182819
 20
0.1658663886424573
 30
0.0
 42
-0.0493803804385245
 70
     1
  0
VERTEX
  5
C84
330
C79
100
AcDbEntity
  8
AM_0
100
AcDbVertex
100
AcDb2dVertex
 10
-6.485249999999995
 20
-0.0130704455705246
 30
0.0
 42
-0.0494001655057179
  0
VERTEX
  5
C85
330
C79
100
AcDbEntity
  8
AM_0
100
AcDbVertex
100
AcDb2dVertex
 10
-6.230576156977712
 20
-0.1701730729340216
 30
0.0
 42
-0.0470909004785133
 70
     1
  0
VERTEX
  5
C86
330
C79
100
AcDbEntity
  8
AM_0
100
AcDbVertex
100
AcDb2dVertex
 10
-6.0
 20
-0.383076728595579
 30
0.0
  0
SEQEND
  5
C87
330
C79
100
AcDbEntity
  8
AM_0
  0
LINE
  5
C88
330
1F
100
AcDbEntity
  8
AM_0
100
AcDbLine
 10
-6.0
 20
-0.3830767285561012
 30
0.0
 11
-6.0
 21
0.0602781986255661
 31
0.0
  0
SPLINE
  5
C89
330
1F
100
AcDbEntity
  8
AM_0
100
AcDbSpline
210
0.0
220
0.0
230
1.0
 70
     8
 71
     3
 72
     8
 73
     4
 74
     0
 42
0.0000000001
 43
0.0000000001
 40
0.0
 40
0.0
 40
0.0
 40
0.0
 40
1.690066516727341
 40
1.690066516727341
 40
1.690066516727341
 40
1.690066516727341
 10
-5.346768096431423
 20
-1.76418879844068
 30
0.0
 10
-5.572110298661845
 20
-1.76418879844068
 30
0.0
 10
-5.789346839691551
 20
-1.733150107049003
 30
0.0
 10
-6.0
 20
-1.676901933362545
 30
0.0
  0
SPLINE
  5
C8C
330
1F
100
AcDbEntity
  8
AM_0
100
AcDbSpline
210
0.0
220
0.0
230
1.0
 70
     8
 71
     3
 72
     8
 73
     4
 74
     0
 42
0.0000000001
 43
0.0000000001
 40
8.950064817795073
 40
8.950064817795073
 40
8.950064817795073
 40
8.950064817795073
 40
9.158576263912857
 40
9.158576263912857
 40
9.158576263912857
 40
9.158576263912857
 10
-6.00000000000009
 20
0.0602781986254069
 30
0.0
 10
-5.978153803459735
 20
0.0388077922290687
 30
0.0
 10
-5.956310695328555
 20
0.0173262513691736
 30
0.0
 10
-5.934467587197376
 20
-0.0041552894907216
 30
0.0
  0
SPLINE
  5
C8D
330
1F
100
AcDbEntity
  8
AM_0
100
AcDbSpline
210
0.0
220
0.0
230
1.0
 70
     8
 71
     3
 72
     8
 73
     4
 74
     0
 42
0.0000000001
 43
0.0000000001
 40
6.974934265298577
 40
6.974934265298577
 40
6.974934265298577
 40
6.974934265298577
 40
8.999068685365031
 40
8.999068685365031
 40
8.999068685365031
 40
8.999068685365031
 10
-6.000000000000818
 20
0.5796493588193937
 30
0.0
 10
-5.779191569537305
 20
0.3917239431825248
 30
0.0
 10
-5.560998317563189
 20
0.1937843268459129
 30
0.0
 10
-5.342805065589072
 20
-0.0041552894907216
 30
0.0
  0
LINE
  5
C8E
330
1F
100
AcDbEntity
  8
AM_11
100
AcDbLine
 10
0.0
 20
-2.0
 30
0.0
 11
-5.999999999999998
 21
-2.000000000000003
 31
0.0
  0
LINE
  5
C8F
330
1F
100
AcDbEntity
  8
AM_11
100
AcDbLine
 10
-5.999999999999998
 20
1.999999999999996
 30
0.0
 11
0.0
 21
2.0
 31
0.0
  0
LINE
  5
CF8
330
1F
100
AcDbEntity
  8
AM_11
100
AcDbLine
 10
-5.999999999999998
 20
1.999999999999996
 30
0.0
 11
-5.999999999999998
 21
-2.000000000000003
 31
0.0
  0
LINE
  5
CFE
330
1F
100
AcDbEntity
  8
AM_0
100
AcDbLine
 10
-49.99999999999999
 20
2.500000000000044
 30
0.0
 11
-49.99999999999996
 21
-2.499999999999902
 31
0.0
  0
DIMENSION
  5
D13
330
1F
100
AcDbEntity
  8
AM_5
100
AcDbDimension
  2
*D5
 10
-0.0000000000000013
 20
-22.00000099999998
 30
0.0
 11
-24.99999999999999
 21
-20.45000099999998
 31
0.0
 70
    32
  1
<>
  3
AM_JIS
100
AcDbAlignedDimension
 13
-49.99999999999999
 23
-2.499999999999849
 33
0.0
 14
0.0
 24
-1.5
 34
0.0
 50
0.0000000000001132
100
AcDbRotatedDimension
1001
GENIUS_GENDTOL_13
1000

1000
h7
1000

1040
0.0
  0
DIMENSION
  5
D9C
330
1F
100
AcDbEntity
  8
AM_5
100
AcDbDimension
  2
*D6
 10
-0.0000000000000005
 20
-10.00000099999998
 30
0.0
 11
-3.0
 21
-8.450000999999982
 31
0.0
 70
    32
  1
<>
  3
AM_JIS
100
AcDbAlignedDimension
 13
-5.999999999999998
 23
-2.000000000000003
 33
0.0
 14
0.0
 24
-1.5
 34
0.0
 50
0.0000000000001132
100
AcDbRotatedDimension
1001
GENIUS_GENDTOL_13
1000

1000
h7
1000

1040
0.0
  0
LINE
  5
E4A
330
1F
100
AcDbEntity
  8
AM_0
100
AcDbLine
 10
-15.99999999999999
 20
1.900000000000034
 30
0.0
 11
-15.99999999999999
 21
-1.899999999999964
 31
0.0
  0
DIMENSION
  5
EDE
330
1F
100
AcDbEntity
  8
AM_5
100
AcDbDimension
  2
*D7
 10
10.00000099999999
 20
1.999999999999997
 30
0.0
 11
10.00000099999999
 21
-0.0000000000000012
 31
0.0
 70
   160
  1
%%c<>
  3
AM_JIS
100
AcDbAlignedDimension
 13
0.0
 23
-2.0
 33
0.0
 14
0.0
 24
2.0
 34
0.0
 50
89.99999999999884
100
AcDbRotatedDimension
1001
GENIUS_GENDTOL_13
1000

1000
h7
1000

1040
0.0
  0
TEXT
  5
F75
330
1F
100
AcDbEntity
  8
AM_6
100
AcDbText
 10
-43.15476190476188
 20
-33.25000099999998
 30
0.0
 40
2.5
  1
SSUPR4040ZX-R05
 72
     4
 11
-24.99999999999998
 21
-32.00000099999998
 31
0.0
100
AcDbText
  0
SPLINE
  5
F89
330
1F
100
AcDbEntity
  8
AM_0
100
AcDbSpline
210
0.0
220
0.0
230
1.0
 70
     8
 71
     3
 72
     8
 73
     4
 74
     0
 42
0.0000000001
 43
0.0000000001
 40
1.015969964738205
 40
1.015969964738205
 40
1.015969964738205
 40
1.015969964738205
 40
2.085529961854907
 40
2.085529961854907
 40
2.085529961854907
 40
2.085529961854907
 10
-5.999999999999996
 20
-1.899999999999945
 30
0.0
 10
-5.805474941062254
 20
-1.899999999999944
 30
0.0
 10
-5.711211378254265
 20
-1.811389478811281
 30
0.0
 10
-5.596401276408061
 20
-1.751456693672345
 30
0.0
  0
SPLINE
  5
F8F
330
1F
100
AcDbEntity
  8
AM_0
100
AcDbSpline
210
0.0
220
0.0
230
1.0
 70
     8
 71
     3
 72
     8
 73
     4
 74
     0
 42
0.0000000001
 43
0.0000000001
 40
0.9308799986946773
 40
0.9308799986946773
 40
0.9308799986946773
 40
0.9308799986946773
 40
9.304213052490601
 40
9.304213052490601
 40
9.304213052490601
 40
9.304213052490601
 10
-6.0
 20
1.964256848866741
 30
0.0
 10
-4.932980924501433
 20
1.797844915480588
 30
0.0
 10
-4.076490462253246
 20
0.898922457740282
 30
0.0
 10
-3.220000000005058
 20
-0.0000000000000245
 30
0.0
  0
LINE
  5
10F8
330
1F
100
AcDbEntity
  8
AM_0
100
AcDbLine
 10
-5.999999999999998
 20
1.96425684886674
 30
0.0
 11
-6.064256848866686
 21
1.900000000000053
 31
0.0
  0
POLYLINE
  5
10F9
330
1F
100
AcDbEntity
  8
AM_0
100
AcDb2dPolyline
 66
     1
 10
0.0
 20
0.0
 30
0.0
  0
VERTEX
  5
10FA
330
10F9
100
AcDbEntity
  8
AM_0
100
AcDbVertex
100
AcDb2dVertex
 10
-6.064256848866686
 20
1.900000000000053
 30
0.0
 42
0.0727535616601194
  0
VERTEX
  5
10FB
330
10F9
100
AcDbEntity
  8
AM_0
100
AcDbVertex
100
AcDb2dVertex
 10
-6.959721659340811
 20
1.766128743756071
 30
0.0
 42
0.0139461738785528
  0
VERTEX
  5
10FC
330
10F9
100
AcDbEntity
  8
AM_0
100
AcDbVertex
100
AcDb2dVertex
 10
-7.1284132239919
 20
1.719262846998908
 30
0.0
 42
0.0436287246585526
  0
VERTEX
  5
10FD
330
10F9
100
AcDbEntity
  8
AM_0
100
AcDbVertex
100
AcDb2dVertex
 10
-7.275164681585465
 20
1.659611537066048
 30
0.0
 42
0.2738540026404822
  0
VERTEX
  5
10FE
330
10F9
100
AcDbEntity
  8
AM_0
100
AcDbVertex
100
AcDb2dVertex
 10
-7.28961511313355
 20
1.636711312060123
 30
0.0
 42
0.1958299863149157
  0
VERTEX
  5
10FF
330
10F9
100
AcDbEntity
  8
AM_0
100
AcDbVertex
100
AcDb2dVertex
 10
-7.278393314582171
 20
1.606757481801123
 30
0.0
 42
0.028966137260715
  0
VERTEX
  5
1100
330
10F9
100
AcDbEntity
  8
AM_0
100
AcDbVertex
100
AcDb2dVertex
 10
-7.1284132239919
 20
1.462005121368197
 30
0.0
 42
0.0057813111855378
  0
VERTEX
  5
1101
330
10F9
100
AcDbEntity
  8
AM_0
100
AcDbVertex
100
AcDb2dVertex
 10
-6.951201671303078
 20
1.313291105107073
 30
0.0
 42
0.0022201051474406
  0
VERTEX
  5
1102
330
10F9
100
AcDbEntity
  8
AM_0
100
AcDbVertex
100
AcDb2dVertex
 10
-6.483605667425489
 20
0.933474144747829
 30
0.0
 42
0.0115243051902067
  0
VERTEX
  5
1103
330
10F9
100
AcDbEntity
  8
AM_0
100
AcDbVertex
100
AcDb2dVertex
 10
-6.325409783903432
 20
0.8120370837819061
 30
0.0
 42
0.0057470741765196
  0
VERTEX
  5
1104
330
10F9
100
AcDbEntity
  8
AM_0
100
AcDbVertex
100
AcDb2dVertex
 10
-5.999999999982355
 20
0.5796493588058819
 30
0.0
  0
SEQEND
  5
1105
330
10F9
100
AcDbEntity
  8
AM_0
  0
DIMENSION
  5
11DC
330
1F
100
AcDbEntity
  8
AM_5
100
AcDbDimension
  2
*D8
 10
-16.0
 20
-16.00000100000001
 30
0.0
 11
-8.0
 21
-14.45000100000001
 31
0.0
 70
    32
  1
<>
  3
AM_JIS
100
AcDbAlignedDimension
 13
0.0
 23
-1.5
 33
0.0
 14
-16.0
 24
-1.899999999999964
 34
0.0
 50
0.0000000000001132
100
AcDbRotatedDimension
1001
GENIUS_GENDTOL_13
1000

1000
h7
1000

1040
0.0
  0
DIMENSION
  5
1271
330
1F
100
AcDbEntity
  8
AM_5
100
AcDbDimension
  2
*D9
 10
-60.00000099999997
 20
3.000000000000039
 30
0.0
 11
-60.00000099999997
 21
0.0000000000000905
 31
0.0
 70
   160
  1
%%c<>
  3
AM_JIS
100
AcDbAlignedDimension
 13
-49.49999999999999
 23
-2.999999999999849
 33
0.0
 14
-49.49999999999999
 24
3.000000000000037
 34
0.0
 50
270.0
100
AcDbRotatedDimension
1001
GENIUS_GENDTOL_13
1000

1000
h7
1000

1040
0.0
  0
LINE
  5
1386
330
1F
100
AcDbEntity
  8
AM_0
100
AcDbLine
 10
-17.90525588832578
 20
3.000000000000043
 30
0.0
 11
-49.49999999999999
 21
3.000000000000046
 31
0.0
  0
LINE
  5
1387
330
1F
100
AcDbEntity
  8
AM_0
100
AcDbLine
 10
-49.49999999999995
 20
-2.999999999999902
 30
0.0
 11
-17.90525588832572
 21
-2.999999999999953
 31
0.0
  0
LINE
  5
138F
330
1F
100
AcDbEntity
  8
AM_0
100
AcDbLine
 10
-49.99999999999999
 20
2.500000000000044
 30
0.0
 11
-49.49999999999999
 21
3.000000000000046
 31
0.0
1001
GENIUS_GENFIL_13
1070
     0
1040
0.5
1040
0.5
1040
20.0
1040
0.0
1002
{
1002
}
1001
GENIUS_GENODEF_13
1002
{
1000
HIER
1070
     0
1002
}
1002
{
1000
MANEDIT
1070
     0
1002
}
1002
{
1000
NOSEL
1070
     0
1002
}
1002
{
1000
BEHIND
1070
     0
1002
}
1002
{
1000
REACTOR
1002
}
1001
GENIUS_GENOBJ-N-CHA_13
1002
{
1000
OWNER
1000
GEN
1002
}
  0
LINE
  5
1391
330
1F
100
AcDbEntity
  8
AM_0
100
AcDbLine
 10
-49.99999999999996
 20
-2.499999999999902
 30
0.0
 11
-49.49999999999995
 21
-2.999999999999902
 31
0.0
1001
GENIUS_GENFIL_13
1070
     0
1040
0.5
1040
0.5
1040
20.0
1040
0.0
1002
{
1002
}
1001
GENIUS_GENODEF_13
1002
{
1000
HIER
1070
     0
1002
}
1002
{
1000
MANEDIT
1070
     0
1002
}
1002
{
1000
NOSEL
1070
     0
1002
}
1002
{
1000
BEHIND
1070
     0
1002
}
1002
{
1000
REACTOR
1002
}
1001
GENIUS_GENOBJ-N-CHA_13
1002
{
1000
OWNER
1000
GEN
1002
}
  0
LINE
  5
1392
330
1F
100
AcDbEntity
  8
AM_0
100
AcDbLine
 10
-49.49999999999995
 20
-2.999999999999902
 30
0.0
 11
-49.49999999999995
 21
3.000000000000074
 31
0.0
  0
LINE
  5
139A
330
1F
100
AcDbEntity
  8
AM_7
100
AcDbLine
 10
-52.99999999999998
 20
0.0000000000000706
 30
0.0
 11
3.0
 21
-0.000000000000036
 31
0.0
1001
GENIUS_GENODEF_13
1002
{
1000
HIER
1070
     0
1002
}
1002
{
1000
MANEDIT
1070
     0
1002
}
1002
{
1000
NOSEL
1070
     0
1002
}
1002
{
1000
BEHIND
1070
     0
1002
}
1002
{
1000
REACTOR
1002
}
1001
GENIUS_GENOBJ-N-CEN_13
1002
{
1000
OWNER
1000
GEN
1002
}
  0
LINE
  5
19DC
330
1F
100
AcDbEntity
  8
AM_0
100
AcDbLine
 10
-15.99999999999999
 20
1.900000000000034
 30
0.0
 11
-17.90525588832575
 21
3.000000000000024
 31
0.0
  0
LINE
  5
19EA
330
1F
100
AcDbEntity
  8
AM_0
100
AcDbLine
 10
-17.90525588832572
 20
-2.999999999999953
 30
0.0
 11
-17.90525588832575
 21
3.000000000000026
 31
0.0
  0
LINE
  5
1AA0
330
1F
100
AcDbEntity
  8
AM_0
100
AcDbLine
 10
-15.99999999999998
 20
-1.900000000000019
 30
0.0
 11
-17.90525588832574
 21
-3.000000000000017
 31
0.0
  0
LINE
  5
1AA1
330
1F
100
AcDbEntity
  8
AM_0
100
AcDbLine
 10
-15.99999999999999
 20
1.900000000000034
 30
0.0
 11
-6.064256848866684
 21
1.900000000000054
 31
0.0
  0
LINE
  5
1AA6
330
1F
100
AcDbEntity
  8
AM_0
100
AcDbLine
 10
-15.99999999999989
 20
-1.899999999999964
 30
0.0
 11
-5.999999999999996
 21
-1.899999999999945
 31
0.0
  0
ARC
  5
1AE7
330
1F
100
AcDbEntity
  8
AM_0
100
AcDbCircle
 10
-0.5
 20
-1.5
 30
0.0
 40
0.5
100
AcDbArc
 50
285.0340782420754
 51
0.0
  0
ARC
  5
1AE9
330
1F
100
AcDbEntity
  8
AM_0
100
AcDbCircle
 10
-0.5
 20
1.499999999999999
 30
0.0
 40
0.5
100
AcDbArc
 50
0.0
 51
72.49017800057734
  0
LINE
  5
1AEA
330
1F
100
AcDbEntity
  8
AM_11
100
AcDbLine
 10
0.0
 20
2.0
 30
0.0
 11
0.0
 21
-2.0
 31
0.0
  0
DIMENSION
  5
1AF3
330
1F
100
AcDbEntity
  8
AM_5
100
AcDbDimension
  2
*D10
 10
-0.4999999999999997
 20
-1.499999999999999
 30
0.0
 11
5.314105389960528
 21
-4.213692384968665
 31
0.0
 70
    36
  1
<>
 51
359.9999999999998
  3
AM_JIS$4
100
AcDbRadialDimension
 15
-0.1114270192715145
 25
-1.814660195524918
 35
0.0
 40
0.0
1001
GENIUS_GENDTOL_13
1000

1000
h7
1000

1040
0.0
1001
ACAD
1000
DSTYLE
1002
{
1070
   287
1070
     3
1070
   271
1070
     3
1070
   288
1070
     1
1070
   289
1070
     3
1070
   172
1070
     1
1070
    74
1070
     0
1002
}
  0
VIEWPORT
  5
110
330
101
100
AcDbEntity
 67
     1
  8
0
100
AcDbViewport
 10
420.5
 20
297.0
 30
0.0
 40
948.9782706766916
 41
628.452
 68
     1
 69
     1
1001
ACAD
1000
MVIEW
1002
{
1070
    16
1010
0.0
1020
0.0
1030
0.0
1010
0.0
1020
0.0
1030
1.0
1040
0.0
1040
628.452
1040
420.5
1040
297.0
1040
50.0
1040
0.0
1040
0.0
1070
     0
1070
   100
1070
     1
1070
     1
1070
     0
1070
     0
1070
     0
1070
     0
1040
0.0
1040
0.0
1040
0.0
1040
10.0
1040
10.0
1040
10.0
1040
10.0
1070
     0
1002
{
1002
}
1002
}
  0
ENDSEC
  0
SECTION
  2
OBJECTS
  0
DICTIONARY
  5
C
330
0
100
AcDbDictionary
  3
ACAD_GROUP
350
D
  3
ACAD_LAYOUT
350
1A
  3
ACAD_MLINESTYLE
350
17
  3
ACAD_PLOTSETTINGS
350
19
  3
ACAD_PLOTSTYLENAME
350
E
  3
ACDBVARIABLEDICTIONARY
350
34
  3
ACMDICTIONARY
350
43
  3
AMG
350
2B
  3
AMGSNAPSETTINGS
350
6E
  3
DWGPROPS
350
1C13
  3
ACDBHEADERROUNDTRIPXREC
350
1C1F
  0
DICTIONARY
  5
74
330
1F
100
AcDbDictionary
280
     1
  3
ACAD_INDEX
360
1C15
  3
ACAD_LAYOUTSELFREF
360
1C42
  0
DICTIONARY
  5
1C47
330
101
100
AcDbDictionary
280
     1
  3
ACAD_LAYOUTSELFREF
360
1C48
  0
DICTIONARY
  5
D
102
{ACAD_REACTORS
330
C
102
}
330
C
100
AcDbDictionary
  0
DICTIONARY
  5
1A
102
{ACAD_REACTORS
330
C
102
}
330
C
100
AcDbDictionary
  0
DICTIONARY
  5
17
102
{ACAD_REACTORS
330
C
102
}
330
C
100
AcDbDictionary
  3
STANDARD
350
18
  0
DICTIONARY
  5
19
102
{ACAD_REACTORS
330
C
102
}
330
C
100
AcDbDictionary
  0
ACDBDICTIONARYWDFLT
  5
E
102
{ACAD_REACTORS
330
C
102
}
330
C
100
AcDbDictionary
281
     1
  3
Normal
350
F
100
AcDbDictionaryWithDefault
340
F
  0
DICTIONARY
  5
34
102
{ACAD_REACTORS
330
C
102
}
330
C
100
AcDbDictionary
  3
INDEXCTL
350
35
  3
SORTENTS
350
B5E
  0
DICTIONARY
  5
43
102
{ACAD_REACTORS
330
C
102
}
330
C
100
AcDbDictionary
  3
ACMSTDDICTIONARY
350
260
  0
DICTIONARY
  5
2B
102
{ACAD_REACTORS
330
C
102
}
330
C
100
AcDbDictionary
  3
ACMGSETTINGS
350
2C
  0
DICTIONARY
  5
6E
102
{ACAD_REACTORS
330
C
102
}
330
C
100
AcDbDictionary
  0
XRECORD
  5
1C13
102
{ACAD_REACTORS
330
C
102
}
330
C
100
AcDbXrecord
  1
DWGPROPS COOKIE
  2

  3

  4

  6

  7

  8

  9

300
AmdtFileType=82
301
=
302
=
303
=
304
=
305
=
306
=
307
=
308
=
309
=
 40
0.0578911689814815
 41
2452809.475734583
 42
2452844.571096458
  1

 90
        1
  0
DICTIONARY
  5
1C1F
102
{ACAD_REACTORS
330
C
102
}
330
C
100
AcDbDictionary
  3
TSTACKALIGN
350
1C20
  3
TSTACKSIZE
350
1C21
  3
HYPERLINKBASE
350
1C22
  3
STYLESHEET
350
1C23
  3
LAYOUTDICT
350
1C24
  3
PLOTSETDICT
350
1C25
  3
PLOTSTYLNAMDICT
350
1C26
  3
LWETCUNION
350
1C27
  3
INSUNITS
350
1C28
  3
CEPSNTYPE
350
1C29
  3
FINGERPRINTGUID
350
1C2A
  3
VERSIONGUID
350
1C2B
  3
PSVPSCALE
350
1C2C
  3
DIMSTYLEDATA
350
1C2D
  3
PUCSORTHOREF
350
1C2E
  3
PUCSORTHOVIEW
350
1C2F
  3
PUCSBASE
350
1C30
  3
PUCSORGTOP
350
1C31
  3
PUCSORGBOTTOM
350
1C32
  3
PUCSORGLEFT
350
1C33
  3
PUCSORGRIGHT
350
1C34
  3
PUCSORGFRONT
350
1C35
  3
PUCSORGBACK
350
1C36
  3
UCSORTHOREF
350
1C37
  3
UCSORTHOVIEW
350
1C38
  3
UCSBASE
350
1C39
  3
UCSORGTOP
350
1C3A
  3
UCSORGBOTTOM
350
1C3B
  3
UCSORGLEFT
350
1C3C
  3
UCSORGRIGHT
350
1C3D
  3
UCSORGFRONT
350
1C3E
  3
UCSORGBACK
350
1C3F
  0
DICTIONARY
  5
1C15
102
{ACAD_REACTORS
330
74
102
}
330
74
100
AcDbDictionary
  3
*A1
350
1C16
  0
XRECORD
  5
1C42
102
{ACAD_REACTORS
330
74
102
}
330
74
100
AcDbXrecord
340
1F
  0
XRECORD
  5
1C48
102
{ACAD_REACTORS
330
1C47
102
}
330
1C47
100
AcDbXrecord
340
101
  0
MLINESTYLE
  5
18
102
{ACAD_REACTORS
330
17
102
}
330
17
100
AcDbMlineStyle
  2
STANDARD
 70
     0
  3

 62
   256
 51
90.0
 52
90.0
 71
     2
 49
0.5
 62
   256
  6
BYLAYER
 49
-0.5
 62
   256
  6
BYLAYER
  0
ACDBPLACEHOLDER
  5
F
102
{ACAD_REACTORS
330
E
102
}
330
E
100
AcDbPlaceHolder
280
     0
  0
DICTIONARYVAR
  5
35
102
{ACAD_REACTORS
330
34
102
}
330
34
100
DictionaryVariables
280
     0
  1
1
  0
DICTIONARYVAR
  5
B5E
102
{ACAD_REACTORS
330
34
102
}
330
34
100
DictionaryVariables
280
     0
  1
96
  0
DICTIONARY
  5
260
102
{ACAD_REACTORS
330
43
102
}
330
43
100
AcDbDictionary
  0
DICTIONARY
  5
2C
102
{ACAD_REACTORS
330
2B
102
}
330
2B
100
AcDbDictionary
  3
DWGSETTINGS
350
2D
  0
XRECORD
  5
1C20
102
{ACAD_REACTORS
330
1C1F
102
}
330
1C1F
100
AcDbXrecord
 90
        1
  0
XRECORD
  5
1C21
102
{ACAD_REACTORS
330
1C1F
102
}
330
1C1F
100
AcDbXrecord
 90
       70
  0
XRECORD
  5
1C22
102
{ACAD_REACTORS
330
1C1F
102
}
330
1C1F
100
AcDbXrecord
  1

  0
XRECORD
  5
1C23
102
{ACAD_REACTORS
330
1C1F
102
}
330
1C1F
100
AcDbXrecord
  1
ASAMI.ctb
  0
XRECORD
  5
1C24
102
{ACAD_REACTORS
330
1C1F
102
}
330
1C1F
100
AcDbXrecord
340
1A
  0
XRECORD
  5
1C25
102
{ACAD_REACTORS
330
1C1F
102
}
330
1C1F
100
AcDbXrecord
340
19
  0
XRECORD
  5
1C26
102
{ACAD_REACTORS
330
1C1F
102
}
330
1C1F
100
AcDbXrecord
340
E
  0
XRECORD
  5
1C27
102
{ACAD_REACTORS
330
1C1F
102
}
330
1C1F
100
AcDbXrecord
 90
    10781
  0
XRECORD
  5
1C28
102
{ACAD_REACTORS
330
1C1F
102
}
330
1C1F
100
AcDbXrecord
 90
        4
  0
XRECORD
  5
1C29
102
{ACAD_REACTORS
330
1C1F
102
}
330
1C1F
100
AcDbXrecord
 90
        0
  0
XRECORD
  5
1C2A
102
{ACAD_REACTORS
330
1C1F
102
}
330
1C1F
100
AcDbXrecord
  1
{AFB28963-8C59-40AE-9337-C84526B81ACE}
  0
XRECORD
  5
1C2B
102
{ACAD_REACTORS
330
1C1F
102
}
330
1C1F
100
AcDbXrecord
  1
{3EF290C0-D90C-4DBD-93D3-9CBD88260C15}
  0
XRECORD
  5
1C2C
102
{ACAD_REACTORS
330
1C1F
102
}
330
1C1F
100
AcDbXrecord
 40
0.0
  0
XRECORD
  5
1C2D
102
{ACAD_REACTORS
330
1C1F
102
}
330
1C1F
100
AcDbXrecord
1000
DSTYLE
1002
{
1070
    79
 70
     2
1070
   341
340
59
1070
   342
340
59
1070
   371
 70
    -1
1070
   372
 70
    -1
1002
}
  0
XRECORD
  5
1C2E
102
{ACAD_REACTORS
330
1C1F
102
}
330
1C1F
100
AcDbXrecord
340
0
  0
XRECORD
  5
1C2F
102
{ACAD_REACTORS
330
1C1F
102
}
330
1C1F
100
AcDbXrecord
 70
     0
  0
XRECORD
  5
1C30
102
{ACAD_REACTORS
330
1C1F
102
}
330
1C1F
100
AcDbXrecord
340
0
  0
XRECORD
  5
1C31
102
{ACAD_REACTORS
330
1C1F
102
}
330
1C1F
100
AcDbXrecord
 10
0.0
 20
0.0
 30
0.0
  0
XRECORD
  5
1C32
102
{ACAD_REACTORS
330
1C1F
102
}
330
1C1F
100
AcDbXrecord
 10
0.0
 20
0.0
 30
0.0
  0
XRECORD
  5
1C33
102
{ACAD_REACTORS
330
1C1F
102
}
330
1C1F
100
AcDbXrecord
 10
0.0
 20
0.0
 30
0.0
  0
XRECORD
  5
1C34
102
{ACAD_REACTORS
330
1C1F
102
}
330
1C1F
100
AcDbXrecord
 10
0.0
 20
0.0
 30
0.0
  0
XRECORD
  5
1C35
102
{ACAD_REACTORS
330
1C1F
102
}
330
1C1F
100
AcDbXrecord
 10
0.0
 20
0.0
 30
0.0
  0
XRECORD
  5
1C36
102
{ACAD_REACTORS
330
1C1F
102
}
330
1C1F
100
AcDbXrecord
 10
0.0
 20
0.0
 30
0.0
  0
XRECORD
  5
1C37
102
{ACAD_REACTORS
330
1C1F
102
}
330
1C1F
100
AcDbXrecord
340
0
  0
XRECORD
  5
1C38
102
{ACAD_REACTORS
330
1C1F
102
}
330
1C1F
100
AcDbXrecord
 70
     0
  0
XRECORD
  5
1C39
102
{ACAD_REACTORS
330
1C1F
102
}
330
1C1F
100
AcDbXrecord
340
0
  0
XRECORD
  5
1C3A
102
{ACAD_REACTORS
330
1C1F
102
}
330
1C1F
100
AcDbXrecord
 10
0.0
 20
0.0
 30
0.0
  0
XRECORD
  5
1C3B
102
{ACAD_REACTORS
330
1C1F
102
}
330
1C1F
100
AcDbXrecord
 10
0.0
 20
0.0
 30
0.0
  0
XRECORD
  5
1C3C
102
{ACAD_REACTORS
330
1C1F
102
}
330
1C1F
100
AcDbXrecord
 10
0.0
 20
0.0
 30
0.0
  0
XRECORD
  5
1C3D
102
{ACAD_REACTORS
330
1C1F
102
}
330
1C1F
100
AcDbXrecord
 10
0.0
 20
0.0
 30
0.0
  0
XRECORD
  5
1C3E
102
{ACAD_REACTORS
330
1C1F
102
}
330
1C1F
100
AcDbXrecord
 10
0.0
 20
0.0
 30
0.0
  0
XRECORD
  5
1C3F
102
{ACAD_REACTORS
330
1C1F
102
}
330
1C1F
100
AcDbXrecord
 10
0.0
 20
0.0
 30
0.0
  0
LAYER_INDEX
  5
1C16
102
{ACAD_REACTORS
330
1C15
102
}
330
1C15
100
AcDbIndex
 40
2452844.572462199
100
AcDbLayerIndex
  8
0
360
1C17
 90
        0
  8
AM_0
360
1C18
 90
       54
  8
AM_11
360
1C19
 90
        4
  8
AM_7
360
1C1A
 90
        1
  8
AM_5
360
1C1B
 90
        6
  8
Defpoints
360
1C1C
 90
        0
  8
AM_6
360
1C1D
 90
        1
  0
XRECORD
  5
2D
102
{ACAD_REACTORS
330
2C
102
}
330
2C
100
AcDbXrecord
  1
VERSION
140
15.0
  1
PRODUCT
  2
AutoCAD Mechanical 2000
  0
IDBUFFER
  5
1C17
330
0
100
AcDbIdBuffer
  0
IDBUFFER
  5
1C18
330
0
100
AcDbIdBuffer
330
19EA
330
1AA0
330
1AA1
330
1AA6
330
1AE7
330
1AE9
330
C55
330
C56
330
C57
330
C58
330
C59
330
C5A
330
C5C
330
C5E
330
C5F
330
C60
330
C61
330
C62
330
C63
330
C64
330
C65
330
C66
330
C67
330
C68
330
C69
330
C6A
330
C6B
330
C6C
330
C6D
330
C6E
330
C6F
330
C73
330
C74
330
C75
330
C76
330
C77
330
C78
330
C79
330
C88
330
C89
330
C8C
330
C8D
330
CFE
330
E4A
330
F89
330
F8F
330
10F8
330
10F9
330
1386
330
1387
330
138F
330
1391
330
1392
330
19DC
  0
IDBUFFER
  5
1C19
330
0
100
AcDbIdBuffer
330
C8E
330
C8F
330
CF8
330
1AEA
  0
IDBUFFER
  5
1C1A
330
0
100
AcDbIdBuffer
330
139A
  0
IDBUFFER
  5
1C1B
330
0
100
AcDbIdBuffer
330
D13
330
D9C
330
EDE
330
11DC
330
1271
330
1AF3
  0
IDBUFFER
  5
1C1C
330
0
100
AcDbIdBuffer
  0
IDBUFFER
  5
1C1D
330
0
100
AcDbIdBuffer
330
F75
  0
ENDSEC
  0
EOF
