  0
SECTION
  2
HEADER
  9
$ACADVER
  1
AC1014
  9
$ACADMAINTVER
 70
     9
  9
$DWGCODEPAGE
  3
ANSI_932
  9
$INSBASE
 10
0.0
 20
0.0
 30
0.0
  9
$EXTMIN
 10
-62.35000099999997
 20
-33.25000099999992
 30
-0.00000001
  9
$EXTMAX
 10
10.50000099999999
 20
5.500000000000039
 30
0.00000001
  9
$LIMMIN
 10
-69.58523077398206
 20
-41.96394325869087
  9
$LIMMAX
 10
20.25042769004653
 20
11.75946712485807
  9
$ORTHOMODE
 70
     0
  9
$REGENMODE
 70
     1
  9
$FILLMODE
 70
     1
  9
$QTEXTMODE
 70
     0
  9
$MIRRTEXT
 70
     0
  9
$DRAGMODE
 70
     2
  9
$LTSCALE
 40
1.0
  9
$OSMODE
 70
  2103
  9
$ATTMODE
 70
     1
  9
$TEXTSIZE
 40
2.5
  9
$TRACEWID
 40
1.0
  9
$TEXTSTYLE
  7
STANDARD
  9
$CLAYER
  8
AM_0
  9
$CELTYPE
  6
BYLAYER
  9
$CECOLOR
 62
   256
  9
$CELTSCALE
 40
1.0
  9
$DELOBJ
 70
     1
  9
$DISPSILH
 70
     0
  9
$DIMSCALE
 40
1.0
  9
$DIMASZ
 40
2.5
  9
$DIMEXO
 40
1.0
  9
$DIMDLI
 40
12.0
  9
$DIMRND
 40
0.0
  9
$DIMDLE
 40
0.0
  9
$DIMEXE
 40
1.0
  9
$DIMTP
 40
0.1
  9
$DIMTM
 40
0.1
  9
$DIMTXT
 40
3.2
  9
$DIMCEN
 40
0.0
  9
$DIMTSZ
 40
0.0
  9
$DIMTOL
 70
     0
  9
$DIMLIM
 70
     0
  9
$DIMTIH
 70
     0
  9
$DIMTOH
 70
     0
  9
$DIMSE1
 70
     0
  9
$DIMSE2
 70
     0
  9
$DIMTAD
 70
     3
  9
$DIMZIN
 70
     8
  9
$DIMBLK
  1
OPEN30
  9
$DIMASO
 70
     1
  9
$DIMSHO
 70
     1
  9
$DIMPOST
  1

  9
$DIMAPOST
  1
"
  9
$DIMALT
 70
     0
  9
$DIMALTD
 70
     2
  9
$DIMALTF
 40
0.0393701
  9
$DIMLFAC
 40
1.0
  9
$DIMTOFL
 70
     1
  9
$DIMTVP
 40
0.0
  9
$DIMTIX
 70
     0
  9
$DIMSOXD
 70
     0
  9
$DIMSAH
 70
     0
  9
$DIMBLK1
  1

  9
$DIMBLK2
  1

  9
$DIMSTYLE
  2
AM_JIS
  9
$DIMCLRD
 70
   256
  9
$DIMCLRE
 70
   256
  9
$DIMCLRT
 70
     2
  9
$DIMTFAC
 40
0.71
  9
$DIMGAP
 40
1.5
  9
$DIMJUST
 70
     0
  9
$DIMSD1
 70
     0
  9
$DIMSD2
 70
     0
  9
$DIMTOLJ
 70
     0
  9
$DIMTZIN
 70
     0
  9
$DIMALTZ
 70
     0
  9
$DIMALTTZ
 70
     0
  9
$DIMFIT
 70
     3
  9
$DIMUPT
 70
     0
  9
$DIMUNIT
 70
     2
  9
$DIMDEC
 70
     3
  9
$DIMTDEC
 70
     3
  9
$DIMALTU
 70
     2
  9
$DIMALTTD
 70
     2
  9
$DIMTXSTY
  7
ASAMI
  9
$DIMAUNIT
 70
     0
  9
$LUNITS
 70
     2
  9
$LUPREC
 70
     2
  9
$SKETCHINC
 40
1.0
  9
$FILLETRAD
 40
2.5
  9
$AUNITS
 70
     0
  9
$AUPREC
 70
     0
  9
$MENU
  1
.
  9
$ELEVATION
 40
0.0
  9
$PELEVATION
 40
0.0
  9
$THICKNESS
 40
0.0
  9
$LIMCHECK
 70
     0
  9
$BLIPMODE
 70
     0
  9
$CHAMFERA
 40
0.5
  9
$CHAMFERB
 40
0.5
  9
$CHAMFERC
 40
20.0
  9
$CHAMFERD
 40
0.0
  9
$SKPOLY
 70
     0
  9
$TDCREATE
 40
2452809.475734583
  9
$TDUPDATE
 40
2452844.575578703
  9
$TDINDWG
 40
0.0481821412
  9
$TDUSRTIMER
 40
0.0481819676
  9
$USRTIMER
 70
     1
  9
$ANGBASE
 50
0.0
  9
$ANGDIR
 70
     0
  9
$PDMODE
 70
     0
  9
$PDSIZE
 40
0.0
  9
$PLINEWID
 40
0.0
  9
$COORDS
 70
     2
  9
$SPLFRAME
 70
     0
  9
$SPLINETYPE
 70
     6
  9
$SPLINESEGS
 70
     8
  9
$ATTDIA
 70
     1
  9
$ATTREQ
 70
     1
  9
$HANDLING
 70
 12289
  9
$HANDSEED
  5
1C10
  9
$SURFTAB1
 70
     6
  9
$SURFTAB2
 70
     6
  9
$SURFTYPE
 70
     6
  9
$SURFU
 70
     6
  9
$SURFV
 70
     6
  9
$UCSNAME
  2

  9
$UCSORG
 10
0.0
 20
0.0
 30
0.0
  9
$UCSXDIR
 10
1.0
 20
0.000000000000002
 30
0.0
  9
$UCSYDIR
 10
-0.000000000000002
 20
1.0
 30
0.0
  9
$PUCSNAME
  2

  9
$PUCSORG
 10
0.0
 20
0.0
 30
0.0
  9
$PUCSXDIR
 10
1.0
 20
0.0
 30
0.0
  9
$PUCSYDIR
 10
0.0
 20
1.0
 30
0.0
  9
$USERI1
 70
     0
  9
$USERI2
 70
     0
  9
$USERI3
 70
     0
  9
$USERI4
 70
     0
  9
$USERI5
 70
     0
  9
$USERR1
 40
0.0
  9
$USERR2
 40
0.0
  9
$USERR3
 40
0.0
  9
$USERR4
 40
0.0
  9
$USERR5
 40
0.0
  9
$WORLDVIEW
 70
     1
  9
$SHADEDGE
 70
     3
  9
$SHADEDIF
 70
    70
  9
$TILEMODE
 70
     1
  9
$MAXACTVP
 70
    64
  9
$PINSBASE
 10
0.0
 20
0.0
 30
0.0
  9
$PLIMCHECK
 70
     0
  9
$PEXTMIN
 10
1.000000000000000E+20
 20
1.000000000000000E+20
 30
1.000000000000000E+20
  9
$PEXTMAX
 10
-1.000000000000000E+20
 20
-1.000000000000000E+20
 30
-1.000000000000000E+20
  9
$PLIMMIN
 10
0.0
 20
0.0
  9
$PLIMMAX
 10
841.0
 20
594.0
  9
$UNITMODE
 70
     0
  9
$VISRETAIN
 70
     1
  9
$PLINEGEN
 70
     0
  9
$PSLTSCALE
 70
     0
  9
$TREEDEPTH
 70
  3020
  9
$PICKSTYLE
 70
     0
  9
$CMLSTYLE
  2
STANDARD
  9
$CMLJUST
 70
     0
  9
$CMLSCALE
 40
20.0
  9
$PROXYGRAPHICS
 70
     1
  9
$MEASUREMENT
 70
     1
  0
ENDSEC
  0
SECTION
  2
CLASSES
  0
CLASS
  1
ACDBDICTIONARYWDFLT
  2
AcDbDictionaryWithDefault
  3
AutoCAD 2000
 90
        0
280
     0
281
     0
  0
CLASS
  1
ACDBPLACEHOLDER
  2
AcDbPlaceHolder
  3
AutoCAD 2000
 90
        0
280
     0
281
     0
  0
CLASS
  1
LAYOUT
  2
AcDbLayout
  3
AutoCAD 2000
 90
        0
280
     0
281
     0
  0
CLASS
  1
AMGSETTINGSOBJ
  2
AmgSettingsObj
  3
"AcadM|Product Description: AutoCAD Mechanical 2000|Company: Autodesk"
 90
        0
280
     0
281
     0
  0
CLASS
  1
ACME_DOCUMENT
  2
AcMeDbDoc
  3
AcMeServices
 90
        0
280
     0
281
     0
  0
CLASS
  1
ACMESCOPE
  2
AcMeScope
  3
AcMeServices
 90
        0
280
     0
281
     0
  0
CLASS
  1
ACMECOMMANDHISTORY
  2
AcMeCommandHistory
  3
AcMeServices
 90
        0
280
     0
281
     0
  0
CLASS
  1
DICTIONARYVAR
  2
AcDbDictionaryVar
  3
AutoCAD 2000
 90
        0
280
     0
281
     0
  0
CLASS
  1
ACIMSYSVARMAN
  2
AcImSysVarManager
  3
AcMeServices
 90
        0
280
     0
281
     0
  0
CLASS
  1
ACIMREALSYSVAR
  2
AcImRealSysVar
  3
AcMeServices
 90
        0
280
     0
281
     0
  0
CLASS
  1
ACIMINTSYSVAR
  2
AcImIntSysVar
  3
AcMeServices
 90
        0
280
     0
281
     0
  0
CLASS
  1
ACMEDRAWINGMAN
  2
AcMeDrawingMan
  3
AcMeServices
 90
        0
280
     0
281
     0
  0
CLASS
  1
ACMEVIEW
  2
AcMeView
  3
AcMeServices
 90
        0
280
     0
281
     0
  0
CLASS
  1
ACDBENTITYCACHE
  2
AcMeEntityCache
  3
AcMeServices
 90
        0
280
     0
281
     0
  0
CLASS
  1
GSMANAGER
  2
AcMeGSManager
  3
AcMeServices
 90
        0
280
     0
281
     0
  0
CLASS
  1
AmdtInternalReactor
  2
AmdtInternalReactor
  3
AcMeServices
 90
        0
280
     0
281
     0
  0
CLASS
  1
ACMESTATEMGR
  2
AcMeStateMgr
  3
AcMeServices
 90
        0
280
     0
281
     0
  0
CLASS
  1
ACME_DATABASE
  2
AcMeDbDatabase
  3
AcMeServices
 90
        0
280
     0
281
     0
  0
CLASS
  1
ACRFINSADJUSTERMGR
  2
AcRfInsAdjusterMgr
  3
AcMeServices
 90
        0
280
     0
281
     0
  0
CLASS
  1
ACMDATADICTIONARY
  2
AcmDataDictionary
  3
"AcmSymBB|Product Description: AutoCAD Mechanical 2000|Company: Autodesk"
 90
        0
280
     0
281
     0
  0
CLASS
  1
ACMDATAENTRYBLOCK
  2
AcmDataEntryBlock
  3
"AcmSymBB|Product Description: AutoCAD Mechanical 2000|Company: Autodesk"
 90
        0
280
     0
281
     0
  0
CLASS
  1
AMGOBJPROPCFG
  2
AmgObjPropCfg
  3
"AmgLay|Product Description: AutoCAD Mechanical 2000|Company: Autodesk"
 90
        1
280
     0
281
     0
  0
CLASS
  1
ACAMGFILTERDAT
  2
AcAmgFilterDat
  3
"AcadM|Product Description: AutoCAD Mechanical 2000|Company: Autodesk"
 90
        0
280
     0
281
     0
  0
CLASS
  1
LAYER_INDEX
  2
AcDbLayerIndex
  3
AutoCAD 2000
 90
        0
280
     0
281
     0
  0
CLASS
  1
IDBUFFER
  2
AcDbIdBuffer
  3
AutoCAD 2000
 90
        0
280
     0
281
     0
  0
CLASS
  1
ACIMSTRSYSVAR
  2
AcImStrSysVar
  3
AcMeServices
 90
        0
280
     0
281
     0
  0
CLASS
  1
ACMSTANDARDJIS
  2
AcmStandardJIS
  3
"AcmSymBB|Product Description: AutoCAD Mechanical 2000|Company: Autodesk"
 90
        0
280
     0
281
     0
  0
CLASS
  1
ACMSURFSTANDARDJIS
  2
AcmSurfTextStdJIS
  3
"AcmSymBB|Product Description: AutoCAD Mechanical 2000|Company: Autodesk"
 90
        0
280
     0
281
     0
  0
CLASS
  1
ACMFCFSTANDARDJIS
  2
AcmFCFStdJIS
  3
"AcmSymBB|Product Description: AutoCAD Mechanical 2000|Company: Autodesk"
 90
        0
280
     0
281
     0
  0
CLASS
  1
ACMWELDSTANDARDJIS
  2
AcmWeldingStdJIS
  3
"AcmSymBB|Product Description: AutoCAD Mechanical 2000|Company: Autodesk"
 90
        0
280
     0
281
     0
  0
CLASS
  1
ACMIDSTANDARDJIS
  2
AcmIdStdJIS
  3
"AcmSymBB|Product Description: AutoCAD Mechanical 2000|Company: Autodesk"
 90
        0
280
     0
281
     0
  0
CLASS
  1
ACMDATUMSTANDARDJIS
  2
AcmDatumStdJIS
  3
"AcmSymBB|Product Description: AutoCAD Mechanical 2000|Company: Autodesk"
 90
        0
280
     0
281
     0
  0
CLASS
  1
ACMBOMSTANDARDJIS
  2
AcmBOMStdJIS
  3
"AcmSymBB|Product Description: AutoCAD Mechanical 2000|Company: Autodesk"
 90
        0
280
     0
281
     0
  0
CLASS
  1
ACMSTANDARDANSI
  2
AcmStandardANSI
  3
"AcmSymBB|Product Description: AutoCAD Mechanical 2000|Company: Autodesk"
 90
        0
280
     0
281
     0
  0
CLASS
  1
ACMSURFSTANDARDANSI
  2
AcmSurfTextStdANSI
  3
"AcmSymBB|Product Description: AutoCAD Mechanical 2000|Company: Autodesk"
 90
        0
280
     0
281
     0
  0
CLASS
  1
ACMFCFSTANDARDANSI
  2
AcmFCFStdANSI
  3
"AcmSymBB|Product Description: AutoCAD Mechanical 2000|Company: Autodesk"
 90
        0
280
     0
281
     0
  0
CLASS
  1
ACMWELDSTANDARDANSI
  2
AcmWeldingStdANSI
  3
"AcmSymBB|Product Description: AutoCAD Mechanical 2000|Company: Autodesk"
 90
        0
280
     0
281
     0
  0
CLASS
  1
ACMIDSTANDARDANSI
  2
AcmIdStdANSI
  3
"AcmSymBB|Product Description: AutoCAD Mechanical 2000|Company: Autodesk"
 90
        0
280
     0
281
     0
  0
CLASS
  1
ACMDATUMSTANDARDANSI
  2
AcmDatumStdANSI
  3
"AcmSymBB|Product Description: AutoCAD Mechanical 2000|Company: Autodesk"
 90
        0
280
     0
281
     0
  0
CLASS
  1
ACMBOMSTANDARDANSI
  2
AcmBOMStdANSI
  3
"AcmSymBB|Product Description: AutoCAD Mechanical 2000|Company: Autodesk"
 90
        0
280
     0
281
     0
  0
CLASS
  1
ACMSTANDARDBSI
  2
AcmStandardBSI
  3
"AcmSymBB|Product Description: AutoCAD Mechanical 2000|Company: Autodesk"
 90
        0
280
     0
281
     0
  0
CLASS
  1
ACMSURFSTANDARDBSI
  2
AcmSurfTextStdBSI
  3
"AcmSymBB|Product Description: AutoCAD Mechanical 2000|Company: Autodesk"
 90
        0
280
     0
281
     0
  0
CLASS
  1
ACMFCFSTANDARDBSI
  2
AcmFCFStdBSI
  3
"AcmSymBB|Product Description: AutoCAD Mechanical 2000|Company: Autodesk"
 90
        0
280
     0
281
     0
  0
CLASS
  1
ACMWELDSTANDARDBSI
  2
AcmWeldingStdBSI
  3
"AcmSymBB|Product Description: AutoCAD Mechanical 2000|Company: Autodesk"
 90
        0
280
     0
281
     0
  0
CLASS
  1
ACMIDSTANDARDBSI
  2
AcmIdStdBSI
  3
"AcmSymBB|Product Description: AutoCAD Mechanical 2000|Company: Autodesk"
 90
        0
280
     0
281
     0
  0
CLASS
  1
ACMDATUMSTANDARDBSI
  2
AcmDatumStdBSI
  3
"AcmSymBB|Product Description: AutoCAD Mechanical 2000|Company: Autodesk"
 90
        0
280
     0
281
     0
  0
CLASS
  1
ACMBOMSTANDARDBSI
  2
AcmBOMStdBSI
  3
"AcmSymBB|Product Description: AutoCAD Mechanical 2000|Company: Autodesk"
 90
        0
280
     0
281
     0
  0
CLASS
  1
LONG_TRANSACTION
  2
AcDbLongTransaction
  3
AutoCAD 2000
 90
        0
280
     0
281
     0
  0
CLASS
  1
LWPOLYLINE
  2
AcDbPolyline
  3
AutoCAD 2000
 90
        0
280
     0
281
     1
  0
CLASS
  1
HATCH
  2
AcDbHatch
  3
AutoCAD 2000
 90
        0
280
     0
281
     1
  0
CLASS
  1
XRECORD
  2
AcDbXrecord
  3
AutoCAD 2000
 90
        0
280
     0
281
     0
  0
ENDSEC
  0
SECTION
  2
TABLES
  0
TABLE
  2
VPORT
  5
8
330
0
100
AcDbSymbolTable
 70
     3
  0
VPORT
  5
1BE5
330
8
100
AcDbSymbolTableRecord
100
AcDbViewportTableRecord
  2
*ACTIVE
 70
     0
 10
0.0
 20
0.0
 11
1.0
 21
1.0
 12
-25.92102921139076
 22
-13.8729769853102
 13
0.0
 23
0.0
 14
2.5
 24
2.5
 15
10.0
 25
10.0
 16
0.0
 26
0.0
 36
1.0
 17
0.0
 27
0.0
 37
0.0
 40
46.71693195283372
 41
1.56570841889117
 42
50.0
 43
0.0
 44
0.0
 50
0.0
 51
0.0
 71
     0
 72
   100
 73
     1
 74
     3
 75
     0
 76
     0
 77
     0
 78
     0
  0
ENDTAB
  0
TABLE
  2
LTYPE
  5
5
330
0
100
AcDbSymbolTable
 70
    10
  0
LTYPE
  5
14
330
5
100
AcDbSymbolTableRecord
100
AcDbLinetypeTableRecord
  2
BYBLOCK
 70
     0
  3

 72
    65
 73
     0
 40
0.0
  0
LTYPE
  5
15
330
5
100
AcDbSymbolTableRecord
100
AcDbLinetypeTableRecord
  2
BYLAYER
 70
     0
  3

 72
    65
 73
     0
 40
0.0
  0
LTYPE
  5
16
330
5
100
AcDbSymbolTableRecord
100
AcDbLinetypeTableRecord
  2
CONTINUOUS
 70
     0
  3
Solid line
 72
    65
 73
     0
 40
0.0
  0
LTYPE
  5
4B
330
5
100
AcDbSymbolTableRecord
100
AcDbLinetypeTableRecord
  2
AM_ISO02W050
 70
     0
  3
__ __ __ __ __ __ __ __ __ __ __ __ __ __ __
 72
    65
 73
     2
 40
7.5
 49
6.0
 74
     0
 49
-1.5
 74
     0
  0
LTYPE
  5
4C
330
5
100
AcDbSymbolTableRecord
100
AcDbLinetypeTableRecord
  2
AM_ISO08W050
 70
     0
  3
____ . ____ . ____ . ____ . ____ . ____ . ____
 72
    65
 73
     4
 40
18.0
 49
12.0
 74
     0
 49
-1.5
 74
     0
 49
3.0
 74
     0
 49
-1.5
 74
     0
  0
LTYPE
  5
4D
330
5
100
AcDbSymbolTableRecord
100
AcDbLinetypeTableRecord
  2
AM_ISO09W050
 70
     0
  3
_____ . . _____ . . _____ . . ____ .. ____
 72
    65
 73
     6
 40
22.5
 49
12.0
 74
     0
 49
-1.5
 74
     0
 49
3.0
 74
     0
 49
-1.5
 74
     0
 49
3.0
 74
     0
 49
-1.5
 74
     0
  0
LTYPE
  5
4E
330
5
100
AcDbSymbolTableRecord
100
AcDbLinetypeTableRecord
  2
AMCONSTR
 70
     0
  3
_______________________
 72
    65
 73
     2
 40
9999.0
 49
9999.0
 74
     0
 49
0.0
 74
     0
  0
LTYPE
  5
4F
330
5
100
AcDbSymbolTableRecord
100
AcDbLinetypeTableRecord
  2
AM_ISO02W050X2
 70
     0
  3
 _ _ _ _ _ _ _ _ _ _ _ _
 72
    65
 73
     2
 40
3.75
 49
3.0
 74
     0
 49
-0.75
 74
     0
  0
LTYPE
  5
50
330
5
100
AcDbSymbolTableRecord
100
AcDbLinetypeTableRecord
  2
AM_ISO08W050X2
 70
     0
  3
__ . __ . __ . __ . __ . __
 72
    65
 73
     4
 40
9.0
 49
6.0
 74
     0
 49
-0.75
 74
     0
 49
1.5
 74
     0
 49
-0.75
 74
     0
  0
LTYPE
  5
53
330
5
100
AcDbSymbolTableRecord
100
AcDbLinetypeTableRecord
  2
AMZIGZAG
 70
     0
  3
/\/-/\/-/\/-/\/-/\/-/\/
 72
    65
 73
     2
 40
11.00009999999999
 49
0.0001
 74
     4
 75
   135
340
52
 46
0.04
 50
0.0
 44
0.0
 45
0.0
 49
-11.0
 74
     0
  0
LTYPE
  5
166
330
5
100
AcDbSymbolTableRecord
100
AcDbLinetypeTableRecord
  2
ACJISTGL
 70
     0
  3
_ _ _ _ _
 72
    65
 73
     2
 40
3.0
 49
2.0
 74
     0
 49
-1.0
 74
     0
  0
LTYPE
  5
26A
330
5
100
AcDbSymbolTableRecord
100
AcDbLinetypeTableRecord
  2
ACJISTGB
 70
     0
  3
__ . . __ . .
 72
    65
 73
     6
 40
9.0
 49
4.0
 74
     0
 49
-1.0
 74
     0
 49
1.0
 74
     0
 49
-1.0
 74
     0
 49
1.0
 74
     0
 49
-1.0
 74
     0
  0
ENDTAB
  0
TABLE
  2
LAYER
  5
2
330
0
100
AcDbSymbolTable
 70
     7
  0
LAYER
  5
10
330
2
100
AcDbSymbolTableRecord
100
AcDbLayerTableRecord
  2
0
 70
     0
 62
     7
  6
CONTINUOUS
  0
LAYER
  5
3F9
330
2
100
AcDbSymbolTableRecord
100
AcDbLayerTableRecord
  2
AM_0
 70
     0
 62
     7
  6
CONTINUOUS
  0
LAYER
  5
BA4
330
2
100
AcDbSymbolTableRecord
100
AcDbLayerTableRecord
  2
AM_11
 70
     0
 62
     3
  6
AM_ISO09W050
  0
LAYER
  5
BA5
330
2
100
AcDbSymbolTableRecord
100
AcDbLayerTableRecord
  2
AM_7
 70
     0
 62
     4
  6
AM_ISO08W050
  0
LAYER
  5
CA1
330
2
100
AcDbSymbolTableRecord
100
AcDbLayerTableRecord
  2
AM_5
 70
     0
 62
     3
  6
CONTINUOUS
  0
LAYER
  5
D14
330
2
100
AcDbSymbolTableRecord
100
AcDbLayerTableRecord
  2
DEFPOINTS
 70
     0
 62
     7
  6
CONTINUOUS
  0
LAYER
  5
F74
330
2
100
AcDbSymbolTableRecord
100
AcDbLayerTableRecord
  2
AM_6
 70
     0
 62
     2
  6
CONTINUOUS
  0
ENDTAB
  0
TABLE
  2
STYLE
  5
3
330
0
100
AcDbSymbolTable
 70
     5
  0
STYLE
  5
11
330
3
100
AcDbSymbolTableRecord
100
AcDbTextStyleTableRecord
  2
STANDARD
 70
     0
 40
0.0
 41
1.0
 50
0.0
 71
     0
 42
2.5
  3
simplex.shx
  4
EXTFONT.SHX
  0
STYLE
  5
52
330
3
100
AcDbSymbolTableRecord
100
AcDbTextStyleTableRecord
  2

 70
     1
 40
0.0
 41
1.0
 50
0.0
 71
     0
 42
2.5
  3
ltypeshp.shx
  4

  0
STYLE
  5
6B
330
3
100
AcDbSymbolTableRecord
100
AcDbTextStyleTableRecord
  2
ASAMI
 70
     0
 40
0.0
 41
1.0
 50
0.0
 71
     0
 42
2.5
  3
simplex.shx
  4
EXTFONT.SHX
  0
STYLE
  5
262
330
3
100
AcDbSymbolTableRecord
100
AcDbTextStyleTableRecord
  2
ACJISTS
 70
     0
 40
1.0
 41
1.0
 50
0.0
 71
     0
 42
2.5
  3
simplex.shx
  4
bigfont.shx
  0
STYLE
  5
269
330
3
100
AcDbSymbolTableRecord
100
AcDbTextStyleTableRecord
  2
ACJISGDT
 70
     0
 40
0.0
 41
1.0
 50
0.0
 71
     0
 42
2.5
  3
amgdtans.shx
  4

  0
ENDTAB
  0
TABLE
  2
VIEW
  5
6
330
0
100
AcDbSymbolTable
 70
     0
  0
ENDTAB
  0
TABLE
  2
UCS
  5
7
330
0
100
AcDbSymbolTable
 70
     0
  0
ENDTAB
  0
TABLE
  2
APPID
  5
9
330
0
100
AcDbSymbolTable
 70
    12
  0
APPID
  5
12
330
9
100
AcDbSymbolTableRecord
100
AcDbRegAppTableRecord
  2
ACAD
 70
     0
  0
APPID
  5
30
330
9
100
AcDbSymbolTableRecord
100
AcDbRegAppTableRecord
  2
MCAD_NO_VIS
 70
     0
  0
APPID
  5
31
330
9
100
AcDbSymbolTableRecord
100
AcDbRegAppTableRecord
  2
ACAD_TEMP_GRAPHIC
 70
     0
  0
APPID
  5
2C2
330
9
100
AcDbSymbolTableRecord
100
AcDbRegAppTableRecord
  2
GENIUS_GENDTOL_13
 70
     0
  0
APPID
  5
339
330
9
100
AcDbSymbolTableRecord
100
AcDbRegAppTableRecord
  2
GENIUS_GENODEF_13
 70
     0
  0
APPID
  5
33A
330
9
100
AcDbSymbolTableRecord
100
AcDbRegAppTableRecord
  2
GENIUS_GENOBJ-N-RSBK_13
 70
     0
  0
APPID
  5
33B
330
9
100
AcDbSymbolTableRecord
100
AcDbRegAppTableRecord
  2
GENIUS_GENOBJ-N-LIB_13
 70
     0
  0
APPID
  5
33C
330
9
100
AcDbSymbolTableRecord
100
AcDbRegAppTableRecord
  2
GENIUS_GENSCALE_13
 70
     0
  0
APPID
  5
378
330
9
100
AcDbSymbolTableRecord
100
AcDbRegAppTableRecord
  2
GENIUS_GENDIMSH_14
 70
     0
  0
APPID
  5
BA6
330
9
100
AcDbSymbolTableRecord
100
AcDbRegAppTableRecord
  2
GENIUS_GENOBJ-N-CEN_13
 70
     0
  0
APPID
  5
D02
330
9
100
AcDbSymbolTableRecord
100
AcDbRegAppTableRecord
  2
GENIUS_GENFIL_13
 70
     0
  0
APPID
  5
D03
330
9
100
AcDbSymbolTableRecord
100
AcDbRegAppTableRecord
  2
GENIUS_GENOBJ-N-CHA_13
 70
     0
  0
ENDTAB
  0
TABLE
  2
DIMSTYLE
  5
A
330
0
100
AcDbSymbolTable
 70
     8
  0
DIMSTYLE
105
58
102
{ACAD_REACTORS
330
D13
330
D9C
330
EDE
330
11DC
330
1271
102
}
330
A
100
AcDbSymbolTableRecord
100
AcDbDimStyleTableRecord
  2
AM_JIS
 70
     0
  3

  4
"
  5
OPEN30
  6

  7

 40
0.5
 41
2.5
 42
1.0
 43
12.0
 44
1.0
 45
0.0
 46
0.0
 47
0.1
 48
0.1
140
3.2
141
0.0
142
0.0
143
0.0393701
144
1.0
145
0.0
146
0.71
147
1.5
 71
     0
 72
     0
 73
     0
 74
     0
 75
     0
 76
     0
 77
     3
 78
     8
170
     0
171
     2
172
     1
173
     0
174
     0
175
     0
176
   256
177
   256
178
     2
270
     2
271
     3
272
     3
273
     2
274
     2
340
6B
275
     0
280
     0
281
     0
282
     0
283
     0
284
     0
285
     0
286
     0
287
     3
288
     0
  0
DIMSTYLE
105
5F
330
A
100
AcDbSymbolTableRecord
100
AcDbDimStyleTableRecord
  2
AM_JIS$3
 70
     0
  3

  4
"
  5
OPEN30
  6

  7

 40
0.5
 41
2.5
 42
1.0
 43
10.0
 44
1.0
 45
0.0
 46
0.0
 47
0.1
 48
0.1
140
3.2
141
0.0
142
0.0
143
0.0393701
144
1.0
145
0.0
146
0.71
147
1.5
 71
     0
 72
     0
 73
     0
 74
     1
 75
     0
 76
     0
 77
     3
 78
     8
170
     0
171
     2
172
     0
173
     0
174
     0
175
     0
176
   256
177
   256
178
     2
270
     2
271
     2
272
     3
273
     2
274
     2
340
6B
275
     0
280
     0
281
     0
282
     0
283
     0
284
     0
285
     0
286
     0
287
     0
288
     1
  0
DIMSTYLE
105
60
330
A
100
AcDbSymbolTableRecord
100
AcDbDimStyleTableRecord
  2
AM_JIS$4
 70
     0
  3

  4
"
  5
OPEN30
  6

  7

 40
0.5
 41
2.5
 42
1.0
 43
10.0
 44
1.0
 45
0.0
 46
0.0
 47
0.1
 48
0.1
140
3.2
141
0.0
142
0.0
143
0.0393701
144
1.0
145
0.0
146
0.71
147
1.5
 71
     0
 72
     0
 73
     0
 74
     1
 75
     0
 76
     0
 77
     3
 78
     8
170
     0
171
     2
172
     0
173
     0
174
     0
175
     0
176
   256
177
   256
178
     2
270
     2
271
     2
272
     3
273
     2
274
     2
340
6B
275
     0
280
     0
281
     0
282
     0
283
     0
284
     0
285
     0
286
     0
287
     0
288
     1
  0
DIMSTYLE
105
61
330
A
100
AcDbSymbolTableRecord
100
AcDbDimStyleTableRecord
  2
AM_JIS$6
 70
     0
  3

  4
"
  5
OPEN30
  6

  7

 40
0.5
 41
2.5
 42
1.0
 43
10.0
 44
1.0
 45
0.0
 46
0.0
 47
0.1
 48
0.1
140
3.2
141
0.0
142
0.0
143
0.0393701
144
1.0
145
0.0
146
0.71
147
1.5
 71
     0
 72
     0
 73
     0
 74
     0
 75
     0
 76
     0
 77
     0
 78
     8
170
     0
171
     2
172
     1
173
     0
174
     0
175
     0
176
   256
177
   256
178
     2
270
     2
271
     2
272
     2
273
     2
274
     2
340
6B
275
     0
280
     0
281
     0
282
     0
283
     0
284
     0
285
     0
286
     0
287
     3
288
     0
  0
DIMSTYLE
105
62
330
A
100
AcDbSymbolTableRecord
100
AcDbDimStyleTableRecord
  2
AM_JIS$7
 70
     0
  3

  4
"
  5
OPEN30
  6

  7

 40
0.5
 41
2.5
 42
1.0
 43
10.0
 44
1.0
 45
0.0
 46
0.0
 47
0.1
 48
0.1
140
3.2
141
0.0
142
0.0
143
0.0393701
144
1.0
145
0.0
146
0.71
147
1.5
 71
     0
 72
     0
 73
     0
 74
     0
 75
     0
 76
     0
 77
     3
 78
     8
170
     0
171
     2
172
     1
173
     0
174
     0
175
     0
176
   256
177
   256
178
     2
270
     2
271
     2
272
     3
273
     2
274
     2
340
6B
275
     0
280
     0
281
     0
282
     0
283
     0
284
     0
285
     0
286
     0
287
     3
288
     0
  0
DIMSTYLE
105
63
330
A
100
AcDbSymbolTableRecord
100
AcDbDimStyleTableRecord
  2
AM_JIS$SF
 70
     0
  3

  4
"
  5
OPEN30
  6

  7

 40
0.5
 41
2.5
 42
1.0
 43
10.0
 44
1.0
 45
0.0
 46
0.0
 47
0.1
 48
0.1
140
3.2
141
0.0
142
0.0
143
0.0393701
144
1.0
145
0.0
146
0.71
147
1.5
 71
     0
 72
     0
 73
     0
 74
     0
 75
     1
 76
     1
 77
     3
 78
     8
170
     0
171
     2
172
     1
173
     0
174
     0
175
     0
176
   256
177
   256
178
     2
270
     2
271
     2
272
     2
273
     2
274
     2
340
6B
275
     0
280
     0
281
     0
282
     0
283
     0
284
     0
285
     0
286
     0
287
     3
288
     0
  0
DIMSTYLE
105
68
330
A
100
AcDbSymbolTableRecord
100
AcDbDimStyleTableRecord
  2
AM_JIS$SH
 70
     0
  3

  4
"
  5

  6
GENAXEH
  7
OPEN30
 40
0.5
 41
2.5
 42
1.0
 43
10.0
 44
1.0
 45
0.0
 46
0.0
 47
0.1
 48
0.1
140
3.2
141
0.0
142
0.0
143
0.0393701
144
2.0
145
0.0
146
0.71
147
1.5
 71
     0
 72
     0
 73
     0
 74
     0
 75
     1
 76
     1
 77
     3
 78
     8
170
     0
171
     2
172
     1
173
     1
174
     0
175
     0
176
   256
177
   256
178
     2
270
     2
271
     2
272
     2
273
     2
274
     2
340
6B
275
     0
280
     0
281
     0
282
     0
283
     0
284
     0
285
     0
286
     0
287
     3
288
     0
  0
DIMSTYLE
105
B34
330
A
100
AcDbSymbolTableRecord
100
AcDbDimStyleTableRecord
  2
AM_JIS$2
 70
     0
  3

  4
"
  5
OPEN30
  6

  7

 40
0.5
 41
2.5
 42
1.0
 43
12.0
 44
1.0
 45
0.0
 46
0.0
 47
0.1
 48
0.1
140
3.2
141
0.0
142
0.0
143
0.0393701
144
1.0
145
0.0
146
0.71
147
1.5
 71
     0
 72
     0
 73
     0
 74
     0
 75
     0
 76
     0
 77
     3
 78
     8
170
     0
171
     2
172
     1
173
     0
174
     0
175
     0
176
   256
177
   256
178
     2
270
     2
271
     3
272
     3
273
     2
274
     2
340
6B
275
     0
280
     0
281
     0
282
     0
283
     0
284
     0
285
     0
286
     0
287
     3
288
     0
  0
ENDTAB
  0
TABLE
  2
BLOCK_RECORD
  5
1
330
0
100
AcDbSymbolTable
 70
    10
  0
BLOCK_RECORD
  5
1F
102
{ACAD_XDICTIONARY
360
74
102
}
330
1
100
AcDbSymbolTableRecord
100
AcDbBlockTableRecord
  2
*MODEL_SPACE
  0
BLOCK_RECORD
  5
101
102
{ACAD_XDICTIONARY
360
1C0E
102
}
330
1
100
AcDbSymbolTableRecord
100
AcDbBlockTableRecord
  2
*PAPER_SPACE
  0
BLOCK_RECORD
  5
59
330
1
100
AcDbSymbolTableRecord
100
AcDbBlockTableRecord
  2
_OPEN30
  0
BLOCK_RECORD
  5
64
330
1
100
AcDbSymbolTableRecord
100
AcDbBlockTableRecord
  2
GENAXEH
  0
BLOCK_RECORD
  5
D15
330
1
100
AcDbSymbolTableRecord
100
AcDbBlockTableRecord
  2
*D5
  0
BLOCK_RECORD
  5
D9D
330
1
100
AcDbSymbolTableRecord
100
AcDbBlockTableRecord
  2
*D6
  0
BLOCK_RECORD
  5
EDF
330
1
100
AcDbSymbolTableRecord
100
AcDbBlockTableRecord
  2
*D7
  0
BLOCK_RECORD
  5
11DD
330
1
100
AcDbSymbolTableRecord
100
AcDbBlockTableRecord
  2
*D8
  0
BLOCK_RECORD
  5
1272
330
1
100
AcDbSymbolTableRecord
100
AcDbBlockTableRecord
  2
*D9
  0
ENDTAB
  0
ENDSEC
  0
SECTION
  2
BLOCKS
  0
BLOCK
  5
20
330
1F
100
AcDbEntity
  8
0
100
AcDbBlockBegin
  2
*MODEL_SPACE
 70
     0
 10
0.0
 20
0.0
 30
0.0
  3
*MODEL_SPACE
  1

  0
ENDBLK
  5
21
330
1F
100
AcDbEntity
  8
0
100
AcDbBlockEnd
  0
BLOCK
  5
103
330
101
100
AcDbEntity
 67
     1
  8
0
100
AcDbBlockBegin
  2
*PAPER_SPACE
 70
     0
 10
0.0
 20
0.0
 30
0.0
  3
*PAPER_SPACE
  1

  0
ENDBLK
  5
104
330
101
100
AcDbEntity
 67
     1
  8
0
100
AcDbBlockEnd
  0
BLOCK
  5
5D
330
59
100
AcDbEntity
  8
0
100
AcDbBlockBegin
  2
_OPEN30
 70
     0
 10
0.0
 20
0.0
 30
0.0
  3
_OPEN30
  1

  0
LINE
  5
5A
330
59
100
AcDbEntity
  8
0
 62
     0
100
AcDbLine
 10
-1.0
 20
0.26794919
 30
0.0
 11
0.0
 21
0.0
 31
0.0
  0
LINE
  5
5B
330
59
100
AcDbEntity
  8
0
 62
     0
100
AcDbLine
 10
0.0
 20
0.0
 30
0.0
 11
-1.0
 21
-0.26794919
 31
0.0
  0
LINE
  5
5C
330
59
100
AcDbEntity
  8
0
 62
     0
100
AcDbLine
 10
0.0
 20
0.0
 30
0.0
 11
-1.0
 21
0.0
 31
0.0
  0
ENDBLK
  5
5E
330
59
100
AcDbEntity
  8
0
100
AcDbBlockEnd
  0
BLOCK
  5
66
330
64
100
AcDbEntity
  8
0
100
AcDbBlockBegin
  2
GENAXEH
 70
     0
 10
0.0
 20
0.0
 30
0.0
  3
GENAXEH
  1

  0
LINE
  5
65
330
64
100
AcDbEntity
  8
0
100
AcDbLine
 10
-1.0
 20
0.0
 30
0.0
 11
1.0
 21
0.0
 31
0.0
  0
ENDBLK
  5
67
330
64
100
AcDbEntity
  8
0
100
AcDbBlockEnd
  0
BLOCK
  5
D1F
330
D15
100
AcDbEntity
  8
0
100
AcDbBlockBegin
  2
*D5
 70
     1
 10
0.0
 20
0.0
 30
0.0
  3
*D5
  1

  0
LINE
  5
1B86
330
D15
100
AcDbEntity
  8
AM_5
100
AcDbLine
 10
-49.99999999999999
 20
-2.999999999999849
 30
0.0
 11
-49.99999999999999
 21
-22.50000099999991
 31
0.0
  0
LINE
  5
1B87
330
D15
100
AcDbEntity
  8
AM_5
100
AcDbLine
 10
0.0
 20
-2.0
 30
0.0
 11
-0.0000000000000013
 21
-22.50000099999991
 31
0.0
  0
LINE
  5
1B88
330
D15
100
AcDbEntity
  8
AM_5
100
AcDbLine
 10
-48.74999999999999
 20
-22.00000099999992
 30
0.0
 11
-1.250000000000001
 21
-22.00000099999992
 31
0.0
  0
INSERT
  5
1B89
330
D15
100
AcDbEntity
  8
AM_5
100
AcDbBlockReference
  2
_OPEN30
 10
-49.99999999999999
 20
-22.00000099999992
 30
0.0
 41
1.25
 42
1.25
 43
1.25
 50
180.0
  0
INSERT
  5
1B8A
330
D15
100
AcDbEntity
  8
AM_5
100
AcDbBlockReference
  2
_OPEN30
 10
-0.0000000000000013
 20
-22.00000099999992
 30
0.0
 41
1.25
 42
1.25
 43
1.25
  0
MTEXT
  5
1B8B
330
D15
100
AcDbEntity
  8
AM_5
 62
     2
100
AcDbMText
 10
-24.99999999999999
 20
-20.45000099999991
 30
0.0
 40
1.6
 41
0.0
 71
     5
 72
     1
  1
50
  7
ASAMI
1001
ACAD
1000
MTEXTBEGIN
1070
    73
1070
     1
1070
    44
1040
1.0
1070
    74
1070
     0
1000
MTEXTEND
  0
POINT
  5
1B8C
330
D15
100
AcDbEntity
  8
DEFPOINTS
 62
     0
100
AcDbPoint
 10
-49.99999999999999
 20
-2.499999999999849
 30
0.0
  0
POINT
  5
1B8D
330
D15
100
AcDbEntity
  8
DEFPOINTS
 62
     0
100
AcDbPoint
 10
0.0
 20
-1.5
 30
0.0
  0
POINT
  5
1B8E
330
D15
100
AcDbEntity
  8
DEFPOINTS
 62
     0
100
AcDbPoint
 10
-0.0000000000000013
 20
-22.00000099999992
 30
0.0
  0
ENDBLK
  5
D20
330
D15
100
AcDbEntity
  8
0
100
AcDbBlockEnd
  0
BLOCK
  5
DA7
330
D9D
100
AcDbEntity
  8
0
100
AcDbBlockBegin
  2
*D6
 70
     1
 10
0.0
 20
0.0
 30
0.0
  3
*D6
  1

  0
LINE
  5
1BAD
330
D9D
100
AcDbEntity
  8
AM_5
100
AcDbLine
 10
-7.499999999999998
 20
-3.000000000000004
 30
0.0
 11
-7.499999999999999
 21
-10.50000099999991
 31
0.0
  0
LINE
  5
1BAE
330
D9D
100
AcDbEntity
  8
AM_5
100
AcDbLine
 10
0.0
 20
-2.0
 30
0.0
 11
-0.0000000000000006
 21
-10.50000099999991
 31
0.0
  0
LINE
  5
1BAF
330
D9D
100
AcDbEntity
  8
AM_5
100
AcDbLine
 10
-6.249999999999999
 20
-10.00000099999992
 30
0.0
 11
-1.25
 21
-10.00000099999992
 31
0.0
  0
INSERT
  5
1BB0
330
D9D
100
AcDbEntity
  8
AM_5
100
AcDbBlockReference
  2
_OPEN30
 10
-7.499999999999999
 20
-10.00000099999992
 30
0.0
 41
1.25
 42
1.25
 43
1.25
 50
180.0
  0
INSERT
  5
1BB1
330
D9D
100
AcDbEntity
  8
AM_5
100
AcDbBlockReference
  2
_OPEN30
 10
-0.0000000000000005
 20
-10.00000099999992
 30
0.0
 41
1.25
 42
1.25
 43
1.25
  0
MTEXT
  5
1BB2
330
D9D
100
AcDbEntity
  8
AM_5
 62
     2
100
AcDbMText
 10
-3.75
 20
-8.450000999999918
 30
0.0
 40
1.6
 41
0.0
 71
     5
 72
     1
  1
7.5
  7
ASAMI
1001
ACAD
1000
MTEXTBEGIN
1070
    73
1070
     1
1070
    44
1040
1.0
1070
    74
1070
     0
1000
MTEXTEND
  0
POINT
  5
1BB3
330
D9D
100
AcDbEntity
  8
DEFPOINTS
 62
     0
100
AcDbPoint
 10
-7.499999999999998
 20
-2.500000000000004
 30
0.0
  0
POINT
  5
1BB4
330
D9D
100
AcDbEntity
  8
DEFPOINTS
 62
     0
100
AcDbPoint
 10
0.0
 20
-1.5
 30
0.0
  0
POINT
  5
1BB5
330
D9D
100
AcDbEntity
  8
DEFPOINTS
 62
     0
100
AcDbPoint
 10
-0.0000000000000005
 20
-10.00000099999992
 30
0.0
  0
ENDBLK
  5
DA8
330
D9D
100
AcDbEntity
  8
0
100
AcDbBlockEnd
  0
BLOCK
  5
EE9
330
EDF
100
AcDbEntity
  8
0
100
AcDbBlockBegin
  2
*D7
 70
     1
 10
0.0
 20
0.0
 30
0.0
  3
*D7
  1

  0
LINE
  5
1BB6
330
EDF
100
AcDbEntity
  8
AM_5
100
AcDbLine
 10
0.5
 20
-2.5
 30
0.0
 11
10.50000099999999
 21
-2.500000000000002
 31
0.0
  0
LINE
  5
1BB7
330
EDF
100
AcDbEntity
  8
AM_5
100
AcDbLine
 10
0.5
 20
2.5
 30
0.0
 11
10.50000099999999
 21
2.499999999999997
 31
0.0
  0
LINE
  5
1BB8
330
EDF
100
AcDbEntity
  8
AM_5
100
AcDbLine
 10
10.00000099999999
 20
-3.750000000000002
 30
0.0
 11
10.00000099999999
 21
-5.000000000000002
 31
0.0
  0
LINE
  5
1BB9
330
EDF
100
AcDbEntity
  8
AM_5
100
AcDbLine
 10
10.00000099999999
 20
3.749999999999997
 30
0.0
 11
10.00000099999999
 21
4.999999999999997
 31
0.0
  0
LINE
  5
1BBA
330
EDF
100
AcDbEntity
  8
AM_5
100
AcDbLine
 10
10.00000099999999
 20
-2.500000000000002
 30
0.0
 11
10.00000099999999
 21
2.499999999999997
 31
0.0
  0
INSERT
  5
1BBB
330
EDF
100
AcDbEntity
  8
AM_5
100
AcDbBlockReference
  2
_OPEN30
 10
10.00000099999999
 20
-2.500000000000002
 30
0.0
 41
1.25
 42
1.25
 43
1.25
 50
90.0
  0
INSERT
  5
1BBC
330
EDF
100
AcDbEntity
  8
AM_5
100
AcDbBlockReference
  2
_OPEN30
 10
10.00000099999999
 20
2.499999999999997
 30
0.0
 41
1.25
 42
1.25
 43
1.25
 50
270.0
  0
MTEXT
  5
1BBD
330
EDF
100
AcDbEntity
  8
AM_5
 62
     2
100
AcDbMText
 10
8.450000999999994
 20
-0.0000000000000034
 30
0.0
 40
1.6
 41
0.0
 71
     5
 72
     1
  1
%%c5
  7
ASAMI
 11
0.0000000000000001
 21
1.0
 31
0.0
1001
ACAD
1000
MTEXTBEGIN
1070
    73
1070
     1
1070
    44
1040
1.0
1070
    74
1070
     0
1000
MTEXTEND
  0
POINT
  5
1BBE
330
EDF
100
AcDbEntity
  8
DEFPOINTS
 62
     0
100
AcDbPoint
 10
0.0
 20
-2.5
 30
0.0
  0
POINT
  5
1BBF
330
EDF
100
AcDbEntity
  8
DEFPOINTS
 62
     0
100
AcDbPoint
 10
0.0
 20
2.5
 30
0.0
  0
POINT
  5
1BC0
330
EDF
100
AcDbEntity
  8
DEFPOINTS
 62
     0
100
AcDbPoint
 10
10.00000099999999
 20
2.499999999999997
 30
0.0
  0
ENDBLK
  5
EEA
330
EDF
100
AcDbEntity
  8
0
100
AcDbBlockEnd
  0
BLOCK
  5
11E7
330
11DD
100
AcDbEntity
  8
0
100
AcDbBlockBegin
  2
*D8
 70
     1
 10
0.0
 20
0.0
 30
0.0
  3
*D8
  1

  0
LINE
  5
1B9A
330
11DD
100
AcDbEntity
  8
AM_5
100
AcDbLine
 10
0.0
 20
-2.0
 30
0.0
 11
-0.0000000000000009
 21
-16.50000099999996
 31
0.0
  0
LINE
  5
1B9B
330
11DD
100
AcDbEntity
  8
AM_5
100
AcDbLine
 10
-20.0
 20
-2.399999999999975
 30
0.0
 11
-20.0
 21
-16.50000099999996
 31
0.0
  0
LINE
  5
1B9C
330
11DD
100
AcDbEntity
  8
AM_5
100
AcDbLine
 10
-1.25
 20
-16.00000099999995
 30
0.0
 11
-18.75
 21
-16.00000099999995
 31
0.0
  0
INSERT
  5
1B9D
330
11DD
100
AcDbEntity
  8
AM_5
100
AcDbBlockReference
  2
_OPEN30
 10
-0.0000000000000009
 20
-16.00000099999995
 30
0.0
 41
1.25
 42
1.25
 43
1.25
  0
INSERT
  5
1B9E
330
11DD
100
AcDbEntity
  8
AM_5
100
AcDbBlockReference
  2
_OPEN30
 10
-20.0
 20
-16.00000099999995
 30
0.0
 41
1.25
 42
1.25
 43
1.25
 50
180.0
  0
MTEXT
  5
1B9F
330
11DD
100
AcDbEntity
  8
AM_5
 62
     2
100
AcDbMText
 10
-10.0
 20
-14.45000099999995
 30
0.0
 40
1.6
 41
0.0
 71
     5
 72
     1
  1
20
  7
ASAMI
1001
ACAD
1000
MTEXTBEGIN
1070
    73
1070
     1
1070
    44
1040
1.0
1070
    74
1070
     0
1000
MTEXTEND
  0
POINT
  5
1BA0
330
11DD
100
AcDbEntity
  8
DEFPOINTS
 62
     0
100
AcDbPoint
 10
0.0
 20
-1.5
 30
0.0
  0
POINT
  5
1BA1
330
11DD
100
AcDbEntity
  8
DEFPOINTS
 62
     0
100
AcDbPoint
 10
-20.0
 20
-1.899999999999975
 30
0.0
  0
POINT
  5
1BA2
330
11DD
100
AcDbEntity
  8
DEFPOINTS
 62
     0
100
AcDbPoint
 10
-20.0
 20
-16.00000099999995
 30
0.0
  0
ENDBLK
  5
11E8
330
11DD
100
AcDbEntity
  8
0
100
AcDbBlockEnd
  0
BLOCK
  5
127C
330
1272
100
AcDbEntity
  8
0
100
AcDbBlockBegin
  2
*D9
 70
     1
 10
0.0
 20
0.0
 30
0.0
  3
*D9
  1

  0
LINE
  5
1B8F
330
1272
100
AcDbEntity
  8
AM_5
100
AcDbLine
 10
-49.99999999999999
 20
-2.999999999999849
 30
0.0
 11
-60.50000099999998
 21
-2.999999999999845
 31
0.0
  0
LINE
  5
1B90
330
1272
100
AcDbEntity
  8
AM_5
100
AcDbLine
 10
-49.99999999999999
 20
3.000000000000037
 30
0.0
 11
-60.50000099999998
 21
3.00000000000004
 31
0.0
  0
LINE
  5
1B91
330
1272
100
AcDbEntity
  8
AM_5
100
AcDbLine
 10
-60.00000099999997
 20
-4.249999999999846
 30
0.0
 11
-60.00000099999997
 21
-5.499999999999846
 31
0.0
  0
LINE
  5
1B92
330
1272
100
AcDbEntity
  8
AM_5
100
AcDbLine
 10
-60.00000099999997
 20
4.250000000000039
 30
0.0
 11
-60.00000099999997
 21
5.500000000000039
 31
0.0
  0
LINE
  5
1B93
330
1272
100
AcDbEntity
  8
AM_5
100
AcDbLine
 10
-60.00000099999997
 20
-2.999999999999846
 30
0.0
 11
-60.00000099999997
 21
3.000000000000039
 31
0.0
  0
INSERT
  5
1B94
330
1272
100
AcDbEntity
  8
AM_5
100
AcDbBlockReference
  2
_OPEN30
 10
-60.00000099999997
 20
-2.999999999999846
 30
0.0
 41
1.25
 42
1.25
 43
1.25
 50
90.0
  0
INSERT
  5
1B95
330
1272
100
AcDbEntity
  8
AM_5
100
AcDbBlockReference
  2
_OPEN30
 10
-60.00000099999997
 20
3.000000000000039
 30
0.0
 41
1.25
 42
1.25
 43
1.25
 50
270.0
  0
MTEXT
  5
1B96
330
1272
100
AcDbEntity
  8
AM_5
 62
     2
100
AcDbMText
 10
-61.55000099999997
 20
0.0000000000000907
 30
0.0
 40
1.6
 41
0.0
 71
     5
 72
     1
  1
%%c6
  7
ASAMI
 11
0.0000000000000001
 21
1.0
 31
0.0
1001
ACAD
1000
MTEXTBEGIN
1070
    73
1070
     1
1070
    44
1040
1.0
1070
    74
1070
     0
1000
MTEXTEND
  0
POINT
  5
1B97
330
1272
100
AcDbEntity
  8
DEFPOINTS
 62
     0
100
AcDbPoint
 10
-49.49999999999999
 20
-2.999999999999849
 30
0.0
  0
POINT
  5
1B98
330
1272
100
AcDbEntity
  8
DEFPOINTS
 62
     0
100
AcDbPoint
 10
-49.49999999999999
 20
3.000000000000037
 30
0.0
  0
POINT
  5
1B99
330
1272
100
AcDbEntity
  8
DEFPOINTS
 62
     0
100
AcDbPoint
 10
-60.00000099999997
 20
3.000000000000039
 30
0.0
  0
ENDBLK
  5
127D
330
1272
100
AcDbEntity
  8
0
100
AcDbBlockEnd
  0
ENDSEC
  0
SECTION
  2
ENTITIES
  0
LINE
  5
C55
330
1F
100
AcDbEntity
  8
AM_0
100
AcDbLine
 10
0.0
 20
2.5
 30
0.0
 11
0.0
 21
-2.5
 31
0.0
  0
SPLINE
  5
C56
330
1F
100
AcDbEntity
  8
AM_0
100
AcDbSpline
210
0.0
220
0.0
230
1.0
 70
     8
 71
     3
 72
     8
 73
     4
 74
     0
 42
0.0000000001
 43
0.0000000001
 40
0.5179176998437139
 40
0.5179176998437139
 40
0.5179176998437139
 40
0.5179176998437139
 40
8.999068685365031
 40
8.999068685365031
 40
8.999068685365031
 40
8.999068685365031
 10
-6.417393455505929
 20
2.184126755227795
 30
0.0
 10
-5.034134340359628
 20
2.068230157202522
 30
0.0
 10
-3.891343441896537
 20
1.031518022669588
 30
0.0
 10
-2.74855254343322
 20
-0.005194111863402
 30
0.0
  0
SPLINE
  5
C57
330
1F
100
AcDbEntity
  8
AM_0
100
AcDbSpline
210
0.0
220
0.0
230
1.0
 70
     8
 71
     3
 72
     8
 73
     4
 74
     0
 42
0.0000000001
 43
0.0000000001
 40
0.5179176998614976
 40
0.5179176998614976
 40
0.5179176998614976
 40
0.5179176998614976
 40
5.514523215700526
 40
5.514523215700526
 40
5.514523215700526
 40
5.514523215700526
 10
-2.492393455497222
 20
2.189320867090431
 30
0.0
 10
-1.677456881868465
 20
2.121041268959488
 30
0.0
 10
-0.9459841208246189
 20
1.73315695788736
 30
0.0
 10
-0.2488031027909301
 20
1.213960616588879
 30
0.0
  0
SPLINE
  5
C58
330
1F
100
AcDbEntity
  8
AM_0
100
AcDbSpline
210
0.0
220
0.0
230
1.0
 70
     8
 71
     3
 72
     8
 73
     4
 74
     2
 42
0.0000000001
 43
0.0000000001
 44
0.0000000001
 12
0.9999878186055966
 22
0.0049358525525493
 32
0.0
 40
0.0
 40
0.0
 40
0.0
 40
0.0
 40
4.645142511859427
 40
4.645142511859427
 40
4.645142511859427
 40
4.645142511859427
 10
-4.02500000000225
 20
2.484295464610426
 30
0.0
 10
-2.47663802415344
 20
2.491938044118465
 30
0.0
 10
-1.288319012077868
 20
1.245969022059219
 30
0.0
 10
-0.1000000000022964
 20
-0.0000000000000271
 30
0.0
 11
-4.02500000000225
 21
2.484295464610426
 31
0.0
 11
-0.1000000000022964
 21
-0.0000000000000271
 31
0.0
  0
SPLINE
  5
C59
330
1F
100
AcDbEntity
  8
AM_0
100
AcDbSpline
210
0.0
220
0.0
230
1.0
 70
     8
 71
     3
 72
     8
 73
     4
 74
     0
 42
0.0000000001
 43
0.0000000001
 40
0.8291973398015029
 40
0.8291973398015029
 40
0.8291973398015029
 40
0.8291973398015029
 40
7.918446762666186
 40
7.918446762666186
 40
7.918446762666186
 40
7.918446762666186
 10
-3.081334127733611
 20
2.330738800492669
 30
0.0
 10
-1.943570196394716
 20
2.172909802747626
 30
0.0
 10
-0.9840721671939716
 20
1.372389028555575
 30
0.0
 10
-0.0511154691442926
 20
0.4761803237936717
 30
0.0
  0
SPLINE
  5
C5A
330
1F
100
AcDbEntity
  8
AM_0
100
AcDbSpline
210
0.0
220
0.0
230
1.0
 70
     8
 71
     3
 72
     8
 73
     4
 74
     0
 42
0.0000000001
 43
0.0000000001
 40
0.829197339801526
 40
0.829197339801526
 40
0.829197339801526
 40
0.829197339801526
 40
9.158576263912857
 40
9.158576263912857
 40
9.158576263912857
 40
9.158576263912857
 10
-7.006334127733566
 20
2.325544688629209
 30
0.0
 10
-5.66954001244369
 20
2.140106506246866
 30
0.0
 10
-4.578835353943645
 20
1.067456197191718
 30
0.0
 10
-3.488130695443828
 20
-0.005194111863402
 30
0.0
  0
SPLINE
  5
C5C
330
1F
100
AcDbEntity
  8
AM_0
100
AcDbSpline
210
0.0
220
0.0
230
1.0
 70
     8
 71
     3
 72
     8
 73
     4
 74
     0
 42
0.0000000001
 43
0.0000000001
 40
0.0
 40
0.0
 40
0.0
 40
0.0
 40
2.57750390504933
 40
2.57750390504933
 40
2.57750390504933
 40
2.57750390504933
 10
-0.1000000000022964
 20
2.5
 30
0.0
 10
0.0176096827300398
 20
2.09733931855081
 30
0.0
 10
-0.4923957560230292
 20
1.850563351234428
 30
0.0
 10
-1.043511262789138
 20
1.729114683555566
 30
0.0
  0
LINE
  5
C5D
330
1F
100
AcDbEntity
  8
AM_0
100
AcDbLine
 10
-0.1000000000022964
 20
2.5
 30
0.0
 11
0.0
 21
2.5
 31
0.0
  0
SPLINE
  5
C5E
330
1F
100
AcDbEntity
  8
AM_0
100
AcDbSpline
210
0.0
220
0.0
230
1.0
 70
     8
 71
     3
 72
     8
 73
     4
 74
     0
 42
0.0000000001
 43
0.0000000001
 40
0.0
 40
0.0
 40
0.0
 40
0.0
 40
3.514580779201212
 40
3.514580779201212
 40
3.514580779201212
 40
3.514580779201212
 10
-0.0970628129248429
 20
2.489489576473858
 30
0.0
 10
-0.6857563277866347
 20
2.492380818558872
 30
0.0
 10
-1.219984652653351
 20
2.315859854982791
 30
0.0
 10
-1.722178383919867
 20
2.027799596852305
 30
0.0
  0
SPLINE
  5
C5F
330
1F
100
AcDbEntity
  8
AM_0
100
AcDbSpline
210
0.0
220
0.0
230
1.0
 70
     8
 71
     3
 72
     8
 73
     4
 74
     0
 42
0.0000000001
 43
0.0000000001
 40
0.0
 40
0.0
 40
0.0
 40
0.0
 40
3.514580779201212
 40
3.514580779201212
 40
3.514580779201212
 40
3.514580779201212
 10
-4.029953788555303
 20
2.48948957647383
 30
0.0
 10
-4.615710116339755
 20
2.492380818558872
 30
0.0
 10
-5.149938441206359
 20
2.315859854982791
 30
0.0
 10
-5.652132172472987
 20
2.027799596852305
 30
0.0
  0
SPLINE
  5
C60
330
1F
100
AcDbEntity
  8
AM_0
100
AcDbSpline
210
0.0
220
0.0
230
1.0
 70
     8
 71
     3
 72
     8
 73
     4
 74
     0
 42
0.0000000001
 43
0.0000000001
 40
0.0
 40
0.0
 40
0.0
 40
0.0
 40
0.0001935953510688
 40
0.0001935953510688
 40
0.0001935953510688
 40
0.0001935953510688
 10
-2.74855254343322
 20
2.200041886187478
 30
0.0
 10
-2.748520277541388
 20
2.200041886187478
 30
0.0
 10
-2.748488011782455
 20
2.200041885678389
 30
0.0
 10
-2.748455746156537
 20
2.200041884660238
 30
0.0
  0
SPLINE
  5
C61
330
1F
100
AcDbEntity
  8
AM_0
100
AcDbSpline
210
0.0
220
0.0
230
1.0
 70
     8
 71
     3
 72
     8
 73
     4
 74
     0
 42
0.0000000001
 43
0.0000000001
 40
0.0
 40
0.0
 40
0.0
 40
0.0
 40
0.0001935953510984
 40
0.0001935953510984
 40
0.0001935953510984
 40
0.0001935953510984
 10
-6.673552543433174
 20
2.194847774324075
 30
0.0
 10
-6.673520277541342
 20
2.194847774324075
 30
0.0
 10
-6.673488011782408
 20
2.194847773814985
 30
0.0
 10
-6.673455746156491
 20
2.194847772796835
 30
0.0
  0
SPLINE
  5
C62
330
1F
100
AcDbEntity
  8
AM_0
100
AcDbSpline
210
0.0
220
0.0
230
1.0
 70
     8
 71
     3
 72
     8
 73
     4
 74
     0
 42
0.0000000001
 43
0.0000000001
 40
0.0
 40
0.0
 40
0.0
 40
0.0
 40
2.142709433955016
 40
2.142709433955016
 40
2.142709433955016
 40
2.142709433955016
 10
-6.678506331986227
 20
-2.200041886187504
 30
0.0
 10
-6.321388092993743
 20
-2.200041886187504
 30
0.0
 10
-5.980555966421093
 20
-2.137678112910718
 30
0.0
 10
-5.652132172472987
 20
-2.027799596852302
 30
0.0
  0
SPLINE
  5
C63
330
1F
100
AcDbEntity
  8
AM_0
100
AcDbSpline
210
0.0
220
0.0
230
1.0
 70
     8
 71
     3
 72
     8
 73
     4
 74
     2
 42
0.0000000001
 43
0.0000000001
 44
0.0000000001
 12
-1.0
 22
0.0000000000000001
 32
0.0
 40
0.0
 40
0.0
 40
0.0
 40
0.0
 40
4.499534342682557
 40
4.499534342682557
 40
4.499534342682557
 40
4.499534342682557
 10
-2.753506331986272
 20
-2.205235998050851
 30
0.0
 10
-4.253351112880459
 20
-2.205235998050851
 30
0.0
 10
-5.4659287224334
 20
-1.105215054957126
 30
0.0
 10
-6.67850633198634
 20
-0.005194111863402
 30
0.0
 11
-2.753506331986272
 21
-2.205235998050851
 31
0.0
 11
-6.67850633198634
 21
-0.005194111863402
 31
0.0
  0
SPLINE
  5
C64
330
1F
100
AcDbEntity
  8
AM_0
100
AcDbSpline
210
0.0
220
0.0
230
1.0
 70
     8
 71
     3
 72
     8
 73
     4
 74
     2
 42
0.0000000001
 43
0.0000000001
 44
0.0000000001
 12
-1.0
 22
0.0000000000000001
 32
0.0
 40
0.0
 40
0.0
 40
0.0
 40
0.0
 40
4.579288131956364
 40
4.579288131956364
 40
4.579288131956364
 40
4.579288131956364
 10
-3.493084483996767
 20
-2.364061381439368
 30
0.0
 10
-5.019513861315555
 20
-2.364061381439368
 30
0.0
 10
-6.218799172656138
 20
-1.184627746651385
 30
0.0
 10
-7.41808448399672
 20
-0.005194111863402
 30
0.0
 11
-3.493084483996767
 21
-2.364061381439368
 31
0.0
 11
-7.41808448399672
 21
-0.005194111863402
 31
0.0
  0
SPLINE
  5
C65
330
1F
100
AcDbEntity
  8
AM_0
100
AcDbSpline
210
0.0
220
0.0
230
1.0
 70
     8
 71
     3
 72
     8
 73
     4
 74
     0
 42
0.0000000001
 43
0.0000000001
 40
0.0
 40
0.0
 40
0.0
 40
0.0
 40
8.399619336653909
 40
8.399619336653909
 40
8.399619336653909
 40
8.399619336653909
 10
-4.029953788555303
 20
-2.489489576473856
 30
0.0
 10
-5.429873291485023
 20
-2.496399456897732
 30
0.0
 10
-6.535475717954682
 20
-1.478544687784078
 30
0.0
 10
-7.612861774264613
 20
-0.3624450630680926
 30
0.0
  0
SPLINE
  5
C66
330
1F
100
AcDbEntity
  8
AM_0
100
AcDbSpline
210
0.0
220
0.0
230
1.0
 70
     8
 71
     3
 72
     8
 73
     4
 74
     0
 42
0.0000000001
 43
0.0000000001
 40
0.0
 40
0.0
 40
0.0
 40
0.0
 40
2.142709433955016
 40
2.142709433955016
 40
2.142709433955016
 40
2.142709433955016
 10
-2.74855254343322
 20
-2.200041886187476
 30
0.0
 10
-2.391434304440736
 20
-2.200041886187476
 30
0.0
 10
-2.050602177867972
 20
-2.13767811291069
 30
0.0
 10
-1.722178383919867
 20
-2.027799596852302
 30
0.0
  0
SPLINE
  5
C67
330
1F
100
AcDbEntity
  8
AM_0
100
AcDbSpline
210
0.0
220
0.0
230
1.0
 70
     8
 71
     3
 72
     8
 73
     4
 74
     0
 42
0.0000000001
 43
0.0000000001
 40
2.924396646875711
 40
2.924396646875711
 40
2.924396646875711
 40
2.924396646875711
 40
8.999068685365031
 40
8.999068685365031
 40
8.999068685365031
 40
8.999068685365031
 10
-0.204600099628692
 20
-1.894488539168291
 30
0.0
 10
-1.111491741524218
 20
-1.490295892591261
 30
0.0
 10
-1.930022142478719
 20
-0.7477450022273318
 30
0.0
 10
-2.74855254343322
 20
-0.0051941118633736
 30
0.0
  0
SPLINE
  5
C68
330
1F
100
AcDbEntity
  8
AM_0
100
AcDbSpline
210
0.0
220
0.0
230
1.0
 70
     8
 71
     3
 72
     8
 73
     4
 74
     0
 42
0.0000000001
 43
0.0000000001
 40
1.045144398564957
 40
1.045144398564957
 40
1.045144398564957
 40
1.045144398564957
 40
9.158576263912857
 40
9.158576263912857
 40
9.158576263912857
 40
9.158576263912857
 10
-0.0734082917472279
 20
-2.319736358344497
 30
0.0
 10
-1.363276486604604
 20
-2.094875774122895
 30
0.0
 10
-2.425703591024216
 20
-1.050034942993106
 30
0.0
 10
-3.488130695443828
 20
-0.0051941118633736
 30
0.0
  0
SPLINE
  5
C69
330
1F
100
AcDbEntity
  8
AM_0
100
AcDbSpline
210
0.0
220
0.0
230
1.0
 70
     8
 71
     3
 72
     8
 73
     4
 74
     2
 42
0.0000000001
 43
0.0000000001
 44
0.0000000001
 12
-0.9999878186055966
 22
-0.0049358525525494
 32
0.0
 40
0.0
 40
0.0
 40
0.0
 40
0.0
 40
4.650772131537156
 40
4.650772131537156
 40
4.650772131537156
 40
4.650772131537156
 10
-0.1000000000022964
 20
-2.500000000000397
 30
0.0
 10
-1.65023849288481
 20
-2.507651841832655
 30
0.0
 10
-2.83761924644353
 20
-1.256422976848028
 30
0.0
 10
-4.02500000000225
 20
-0.005194111863402
 30
0.0
 11
-0.1000000000022964
 21
-2.500000000000397
 31
0.0
 11
-4.02500000000225
 21
-0.005194111863402
 31
0.0
  0
LINE
  5
C6A
330
1F
100
AcDbEntity
  8
AM_0
100
AcDbLine
 10
-0.0572478333825757
 20
-2.340130962869635
 30
0.0
 11
-0.0572478333825757
 21
-0.7830822745055157
 31
0.0
  0
LINE
  5
C6B
330
1F
100
AcDbEntity
  8
AM_0
100
AcDbLine
 10
-0.0493599644197502
 20
-0.7672340322564521
 30
0.0
 11
0.0
 21
-0.6140214606893708
 31
0.0
  0
LINE
  5
C6C
330
1F
100
AcDbEntity
  8
AM_0
100
AcDbLine
 10
0.0
 20
-0.0638261058846568
 30
0.0
 11
-0.0493599644197502
 21
0.4696286909686206
 31
0.0
  0
LINE
  5
C6D
330
1F
100
AcDbEntity
  8
AM_0
100
AcDbLine
 10
-0.0493599644197502
 20
-0.7672340322564521
 30
0.0
 11
-0.2050262688763951
 21
-1.079997506736161
 31
0.0
  0
LINE
  5
C6E
330
1F
100
AcDbEntity
  8
AM_0
100
AcDbLine
 10
0.0
 20
-0.0638261058846568
 30
0.0
 11
-0.6975786263941473
 21
-0.000900543584605
 31
0.0
  0
LINE
  5
C6F
330
1F
100
AcDbEntity
  8
AM_0
100
AcDbLine
 10
-0.0493599644197502
 20
0.4696286909686206
 30
0.0
 11
-0.2488031027904753
 21
1.213960616589333
 31
0.0
  0
LINE
  5
C70
330
1F
100
AcDbEntity
  8
AM_0
100
AcDbLine
 10
-0.0572478333825757
 20
-2.340130962869635
 30
0.0
 11
-0.086628400596851
 21
-2.303052494206183
 31
0.0
  0
LINE
  5
C71
330
1F
100
AcDbEntity
  8
AM_0
100
AcDbLine
 10
0.0
 20
-2.5
 30
0.0
 11
-0.0572478333825757
 21
-2.340130962869635
 31
0.0
  0
LINE
  5
C72
330
1F
100
AcDbEntity
  8
AM_0
100
AcDbLine
 10
-0.1000000000000227
 20
-2.5
 30
0.0
 11
0.0
 21
-2.5
 31
0.0
  0
LINE
  5
C73
330
1F
100
AcDbEntity
  8
AM_0
100
AcDbLine
 10
-0.086628400596851
 20
-2.303052494206183
 30
0.0
 11
-0.204600099628692
 21
-1.894488539168291
 31
0.0
  0
SPLINE
  5
C74
330
1F
100
AcDbEntity
  8
AM_0
100
AcDbSpline
210
0.0
220
0.0
230
1.0
 70
     8
 71
     3
 72
     8
 73
     4
 74
     2
 42
0.0000000001
 43
0.0000000001
 44
0.0000000001
 12
0.2968072260726872
 22
-0.9549374170860815
 32
0.0
 13
-0.1104733016500219
 23
-0.9938790920542313
 33
0.0
 40
0.0
 40
0.0
 40
0.0
 40
0.0
 40
0.8144911439315386
 40
0.8144911439315386
 40
0.8144911439315386
 40
0.8144911439315386
 10
-0.2050262688732118
 20
-1.079997506729823
 30
0.0
 10
-0.1244439831761819
 20
-1.339260196471647
 30
0.0
 10
-0.1746069243504186
 20
-1.624653299629327
 30
0.0
 10
-0.204600099628692
 20
-1.894488539168291
 30
0.0
 11
-0.2050262688732118
 21
-1.079997506729823
 31
0.0
 11
-0.204600099628692
 21
-1.894488539168291
 31
0.0
  0
SPLINE
  5
C75
330
1F
100
AcDbEntity
  8
AM_0
100
AcDbSpline
210
0.0
220
0.0
230
1.0
 70
     8
 71
     3
 72
     8
 73
     4
 74
     0
 42
0.0000000001
 43
0.0000000001
 40
9.141233629465322
 40
9.141233629465322
 40
9.141233629465322
 40
9.141233629465322
 40
9.290285023718936
 40
9.290285023718936
 40
9.290285023718936
 40
9.290285023718936
 10
-0.0428030863588447
 20
-0.059965023885495
 30
0.0
 10
-0.0618697154919801
 20
-0.039980133970174
 30
0.0
 10
-0.0809348577471383
 20
-0.0199900669850863
 30
0.0
 10
-0.1000000000022964
 20
0.0000000000000013
 30
0.0
  0
SPLINE
  5
C76
330
1F
100
AcDbEntity
  8
AM_0
100
AcDbSpline
210
0.0
220
0.0
230
1.0
 70
     8
 71
     3
 72
     9
 73
     5
 74
     3
 42
0.0000000001
 43
0.0000000001
 44
0.0000000001
 12
-0.9959561288896111
 22
0.0898409112109892
 32
0.0
 13
0.5961652186767443
 23
-0.8028617764223863
 33
0.0
 40
0.0
 40
0.0
 40
0.0
 40
0.0
 40
0.3287207601983423
 40
1.561860623689829
 40
1.561860623689829
 40
1.561860623689829
 40
1.561860623689829
 10
-0.6975786263941473
 20
-0.000900543584605
 30
0.0
 10
-0.8067091116650775
 20
0.0089436472921244
 30
0.0
 10
-1.428560058088965
 20
-0.3238581352061086
 30
0.0
 10
-0.4500779676688661
 20
-0.74998388627615
 30
0.0
 10
-0.2050262688763951
 20
-1.079997506736161
 30
0.0
 11
-0.6975786263941473
 21
-0.000900543584605
 31
0.0
 11
-0.9975786263942154
 21
-0.1352781391328777
 31
0.0
 11
-0.2050262688763951
 21
-1.079997506736161
 31
0.0
  0
SPLINE
  5
C77
330
1F
100
AcDbEntity
  8
AM_0
100
AcDbSpline
210
0.0
220
0.0
230
1.0
 70
     8
 71
     3
 72
     8
 73
     4
 74
     0
 42
0.0000000001
 43
0.0000000001
 40
0.0
 40
0.0
 40
0.0
 40
0.0
 40
2.085529961854907
 40
2.085529961854907
 40
2.085529961854907
 40
2.085529961854907
 10
-3.488130695443714
 20
-2.358867269575993
 30
0.0
 10
-3.140542368467889
 20
-2.358867269575993
 30
0.0
 10
-2.809917561753649
 20
-2.297709668257452
 30
0.0
 10
-2.492393455497335
 20
-2.189320867090428
 30
0.0
  0
SPLINE
  5
C78
330
1F
100
AcDbEntity
  8
AM_0
100
AcDbSpline
210
0.0
220
0.0
230
1.0
 70
     8
 71
     3
 72
     8
 73
     4
 74
     0
 42
0.0000000001
 43
0.0000000001
 40
0.0
 40
0.0
 40
0.0
 40
0.0
 40
1.978364719412732
 40
1.978364719412732
 40
1.978364719412732
 40
1.978364719412732
 10
-4.02500000000225
 20
-2.484295464610424
 30
0.0
 10
-3.695276563306947
 20
-2.485922950702131
 30
0.0
 10
-3.381880223451275
 20
-2.430702115683458
 30
0.0
 10
-3.081334127757941
 20
-2.330738800500738
 30
0.0
  0
POLYLINE
  5
C79
330
1F
100
AcDbEntity
  8
AM_0
100
AcDb2dPolyline
 66
     1
 10
0.0
 20
0.0
 30
0.0
 70
     2
  0
VERTEX
  5
C7A
330
C79
100
AcDbEntity
  8
AM_0
100
AcDbVertex
100
AcDb2dVertex
 10
-7.5
 20
-2.096127416703217
 30
0.0
 42
-0.0230041772467715
  0
VERTEX
  5
C7B
330
C79
100
AcDbEntity
  8
AM_0
100
AcDbVertex
100
AcDb2dVertex
 10
-7.900704632352583
 20
-1.818865868912729
 30
0.0
 42
-0.0405369427811071
 70
     1
  0
VERTEX
  5
C7C
330
C79
100
AcDbEntity
  8
AM_0
100
AcDbVertex
100
AcDb2dVertex
 10
-8.106562499999993
 20
-1.633777280531012
 30
0.0
 42
-0.0218730450044702
  0
VERTEX
  5
C7D
330
C79
100
AcDbEntity
  8
AM_0
100
AcDbVertex
100
AcDb2dVertex
 10
-8.608341192836633
 20
-1.054350777912054
 30
0.0
 42
-0.0311955358087158
 70
     1
  0
VERTEX
  5
C7E
330
C79
100
AcDbEntity
  8
AM_0
100
AcDbVertex
100
AcDb2dVertex
 10
-8.915312500000027
 20
-0.6128849107389613
 30
0.0
 42
-0.0495171753539275
  0
VERTEX
  5
C7F
330
C79
100
AcDbEntity
  8
AM_0
100
AcDbVertex
100
AcDb2dVertex
 10
-9.086934985571701
 20
-0.2541903197564808
 30
0.0
 42
-0.0980887089957094
 70
     1
  0
VERTEX
  5
C80
330
C79
100
AcDbEntity
  8
AM_0
100
AcDbVertex
100
AcDb2dVertex
 10
-9.117499999999949
 20
-0.0543426771191435
 30
0.0
 42
-0.1602936925217278
  0
VERTEX
  5
C81
330
C79
100
AcDbEntity
  8
AM_0
100
AcDbVertex
100
AcDb2dVertex
 10
-9.063696575642779
 20
0.0878777439005716
 30
0.0
 42
-0.1317128335817564
 70
     1
  0
VERTEX
  5
C82
330
C79
100
AcDbEntity
  8
AM_0
100
AcDbVertex
100
AcDb2dVertex
 10
-8.915312500000027
 20
0.1959135598495094
 30
0.0
 42
-0.1572941928372058
  0
VERTEX
  5
C83
330
C79
100
AcDbEntity
  8
AM_0
100
AcDbVertex
100
AcDb2dVertex
 10
-8.709306415228523
 20
0.2073329858030717
 30
0.0
 42
-0.0493803804385245
 70
     1
  0
VERTEX
  5
C84
330
C79
100
AcDbEntity
  8
AM_0
100
AcDbVertex
100
AcDb2dVertex
 10
-8.106562499999993
 20
-0.0163380569631557
 30
0.0
 42
-0.0494001655057179
  0
VERTEX
  5
C85
330
C79
100
AcDbEntity
  8
AM_0
100
AcDbVertex
100
AcDb2dVertex
 10
-7.78822019622214
 20
-0.212716341167527
 30
0.0
 42
-0.0470909004785133
 70
     1
  0
VERTEX
  5
C86
330
C79
100
AcDbEntity
  8
AM_0
100
AcDbVertex
100
AcDb2dVertex
 10
-7.5
 20
-0.4788459107444738
 30
0.0
  0
SEQEND
  5
C87
330
C79
100
AcDbEntity
  8
AM_0
  0
LINE
  5
C88
330
1F
100
AcDbEntity
  8
AM_0
100
AcDbLine
 10
-7.5
 20
-0.4788459106951266
 30
0.0
 11
-7.5
 21
0.0753477482819576
 31
0.0
  0
SPLINE
  5
C89
330
1F
100
AcDbEntity
  8
AM_0
100
AcDbSpline
210
0.0
220
0.0
230
1.0
 70
     8
 71
     3
 72
     8
 73
     4
 74
     0
 42
0.0000000001
 43
0.0000000001
 40
0.0
 40
0.0
 40
0.0
 40
0.0
 40
1.690066516727341
 40
1.690066516727341
 40
1.690066516727341
 40
1.690066516727341
 10
-6.68346012053928
 20
-2.205235998050851
 30
0.0
 10
-6.965137873327307
 20
-2.205235998050851
 30
0.0
 10
-7.23668354961444
 20
-2.166437633811254
 30
0.0
 10
-7.5
 20
-2.096127416703181
 30
0.0
  0
SPLINE
  5
C8C
330
1F
100
AcDbEntity
  8
AM_0
100
AcDbSpline
210
0.0
220
0.0
230
1.0
 70
     8
 71
     3
 72
     8
 73
     4
 74
     0
 42
0.0000000001
 43
0.0000000001
 40
8.950064817795073
 40
8.950064817795073
 40
8.950064817795073
 40
8.950064817795073
 40
9.158576263912857
 40
9.158576263912857
 40
9.158576263912857
 40
9.158576263912857
 10
-7.500000000000113
 20
0.0753477482817586
 30
0.0
 10
-7.472692254324668
 20
0.0485097402863359
 30
0.0
 10
-7.445388369160694
 20
0.021657814211467
 30
0.0
 10
-7.41808448399672
 20
-0.005194111863402
 30
0.0
  0
SPLINE
  5
C8D
330
1F
100
AcDbEntity
  8
AM_0
100
AcDbSpline
210
0.0
220
0.0
230
1.0
 70
     8
 71
     3
 72
     8
 73
     4
 74
     0
 42
0.0000000001
 43
0.0000000001
 40
6.974934265298577
 40
6.974934265298577
 40
6.974934265298577
 40
6.974934265298577
 40
8.999068685365031
 40
8.999068685365031
 40
8.999068685365031
 40
8.999068685365031
 10
-7.500000000001022
 20
0.7245616985242421
 30
0.0
 10
-7.223989461921631
 20
0.489654928978156
 30
0.0
 10
-6.951247896953987
 20
0.2422304085573912
 30
0.0
 10
-6.67850633198634
 20
-0.005194111863402
 30
0.0
  0
LINE
  5
C8E
330
1F
100
AcDbEntity
  8
AM_11
100
AcDbLine
 10
0.0
 20
-2.5
 30
0.0
 11
-7.499999999999998
 21
-2.500000000000004
 31
0.0
  0
LINE
  5
C8F
330
1F
100
AcDbEntity
  8
AM_11
100
AcDbLine
 10
-7.499999999999998
 20
2.499999999999995
 30
0.0
 11
0.0
 21
2.5
 31
0.0
  0
LINE
  5
CF8
330
1F
100
AcDbEntity
  8
AM_11
100
AcDbLine
 10
-7.499999999999998
 20
2.499999999999995
 30
0.0
 11
-7.499999999999998
 21
-2.500000000000004
 31
0.0
  0
LINE
  5
CFE
330
1F
100
AcDbEntity
  8
AM_0
100
AcDbLine
 10
-49.99999999999999
 20
2.500000000000044
 30
0.0
 11
-49.99999999999996
 21
-2.499999999999902
 31
0.0
  0
DIMENSION
  5
D13
330
1F
100
AcDbEntity
  8
AM_5
100
AcDbDimension
  2
*D5
 10
-0.0000000000000013
 20
-22.00000099999992
 30
0.0
 11
-24.99999999999999
 21
-20.45000099999991
 31
0.0
 70
    32
  1
<>
  3
AM_JIS
100
AcDbAlignedDimension
 13
-49.99999999999999
 23
-2.499999999999849
 33
0.0
 14
0.0
 24
-1.5
 34
0.0
 50
0.0000000000001132
100
AcDbRotatedDimension
1001
GENIUS_GENDTOL_13
1000

1000
h7
1000

1040
0.0
  0
DIMENSION
  5
D9C
330
1F
100
AcDbEntity
  8
AM_5
100
AcDbDimension
  2
*D6
 10
-0.0000000000000005
 20
-10.00000099999992
 30
0.0
 11
-3.75
 21
-8.450000999999918
 31
0.0
 70
    32
  1
<>
  3
AM_JIS
100
AcDbAlignedDimension
 13
-7.499999999999998
 23
-2.500000000000004
 33
0.0
 14
0.0
 24
-1.5
 34
0.0
 50
0.0000000000001132
100
AcDbRotatedDimension
1001
GENIUS_GENDTOL_13
1000

1000
h7
1000

1040
0.0
  0
LINE
  5
E4A
330
1F
100
AcDbEntity
  8
AM_0
100
AcDbLine
 10
-19.99999999999999
 20
2.400000000000027
 30
0.0
 11
-20.0
 21
-2.399999999999971
 31
0.0
  0
DIMENSION
  5
EDE
330
1F
100
AcDbEntity
  8
AM_5
100
AcDbDimension
  2
*D7
 10
10.00000099999999
 20
2.499999999999997
 30
0.0
 11
10.00000099999999
 21
-0.0000000000000036
 31
0.0
 70
   160
  1
%%c<>
  3
AM_JIS
100
AcDbAlignedDimension
 13
0.0
 23
-2.5
 33
0.0
 14
0.0
 24
2.5
 34
0.0
 50
89.99999999999884
100
AcDbRotatedDimension
1001
GENIUS_GENDTOL_13
1000

1000
h7
1000

1040
0.0
  0
TEXT
  5
F75
330
1F
100
AcDbEntity
  8
AM_6
100
AcDbText
 10
-37.97619047619044
 20
-33.25000099999992
 30
0.0
 40
2.5
  1
SSUPR4050ZX
 72
     4
 11
-24.99999999999996
 21
-32.00000099999992
 31
0.0
100
AcDbText
  0
SPLINE
  5
F89
330
1F
100
AcDbEntity
  8
AM_0
100
AcDbSpline
210
0.0
220
0.0
230
1.0
 70
     8
 71
     3
 72
     8
 73
     4
 74
     0
 42
0.0000000001
 43
0.0000000001
 40
1.015969964738205
 40
1.015969964738205
 40
1.015969964738205
 40
1.015969964738205
 40
2.085529961854907
 40
2.085529961854907
 40
2.085529961854907
 40
2.085529961854907
 10
-7.499999999999998
 20
-2.399999999999947
 30
0.0
 10
-7.256843676327817
 20
-2.37499999999993
 30
0.0
 10
-7.139014222817832
 20
-2.264236848514102
 30
0.0
 10
-6.995501595510075
 20
-2.189320867090431
 30
0.0
  0
SPLINE
  5
F8F
330
1F
100
AcDbEntity
  8
AM_0
100
AcDbSpline
210
0.0
220
0.0
230
1.0
 70
     8
 71
     3
 72
     8
 73
     4
 74
     0
 42
0.0000000001
 43
0.0000000001
 40
0.9308799986946773
 40
0.9308799986946773
 40
0.9308799986946773
 40
0.9308799986946773
 40
9.304213052490601
 40
9.304213052490601
 40
9.304213052490601
 40
9.304213052490601
 10
-7.5
 20
2.455321061083426
 30
0.0
 10
-6.166226155626791
 20
2.247306144350736
 30
0.0
 10
-5.095613077816558
 20
1.123653072175352
 30
0.0
 10
-4.025000000006323
 20
-0.0000000000000306
 30
0.0
  0
LINE
  5
10F8
330
1F
100
AcDbEntity
  8
AM_0
100
AcDbLine
 10
-7.499999999999998
 20
2.455321061083425
 30
0.0
 11
-7.555321061083373
 21
2.400000000000051
 31
0.0
  0
POLYLINE
  5
10F9
330
1F
100
AcDbEntity
  8
AM_0
100
AcDb2dPolyline
 66
     1
 10
0.0
 20
0.0
 30
0.0
  0
VERTEX
  5
10FA
330
10F9
100
AcDbEntity
  8
AM_0
100
AcDbVertex
100
AcDb2dVertex
 10
-7.555321061083373
 20
2.400000000000051
 30
0.0
 42
0.0533019508242402
  0
VERTEX
  5
10FB
330
10F9
100
AcDbEntity
  8
AM_0
100
AcDbVertex
100
AcDb2dVertex
 10
-8.699652074176015
 20
2.207660929695088
 30
0.0
 42
0.0139461738785528
  0
VERTEX
  5
10FC
330
10F9
100
AcDbEntity
  8
AM_0
100
AcDbVertex
100
AcDb2dVertex
 10
-8.910516529989875
 20
2.149078558748635
 30
0.0
 42
0.0436287246585526
  0
VERTEX
  5
10FD
330
10F9
100
AcDbEntity
  8
AM_0
100
AcDbVertex
100
AcDb2dVertex
 10
-9.093955851981831
 20
2.07451442133256
 30
0.0
 42
0.2738540026404822
  0
VERTEX
  5
10FE
330
10F9
100
AcDbEntity
  8
AM_0
100
AcDbVertex
100
AcDb2dVertex
 10
-9.112018891416937
 20
2.045889140075154
 30
0.0
 42
0.1958299863149157
  0
VERTEX
  5
10FF
330
10F9
100
AcDbEntity
  8
AM_0
100
AcDbVertex
100
AcDb2dVertex
 10
-9.097991643227715
 20
2.008446852251404
 30
0.0
 42
0.028966137260715
  0
VERTEX
  5
1100
330
10F9
100
AcDbEntity
  8
AM_0
100
AcDbVertex
100
AcDb2dVertex
 10
-8.910516529989875
 20
1.827506401710246
 30
0.0
 42
0.0057813111855378
  0
VERTEX
  5
1101
330
10F9
100
AcDbEntity
  8
AM_0
100
AcDbVertex
100
AcDb2dVertex
 10
-8.689002089128848
 20
1.641613881383841
 30
0.0
 42
0.0022201051474406
  0
VERTEX
  5
1102
330
10F9
100
AcDbEntity
  8
AM_0
100
AcDbVertex
100
AcDb2dVertex
 10
-8.104507084281863
 20
1.166842680934786
 30
0.0
 42
0.0115243051902067
  0
VERTEX
  5
1103
330
10F9
100
AcDbEntity
  8
AM_0
100
AcDbVertex
100
AcDb2dVertex
 10
-7.90676222987929
 20
1.015046354727382
 30
0.0
 42
0.0057470741765196
  0
VERTEX
  5
1104
330
10F9
100
AcDbEntity
  8
AM_0
100
AcDbVertex
100
AcDb2dVertex
 10
-7.499999999977944
 20
0.7245616985073524
 30
0.0
  0
SEQEND
  5
1105
330
10F9
100
AcDbEntity
  8
AM_0
  0
DIMENSION
  5
11DC
330
1F
100
AcDbEntity
  8
AM_5
100
AcDbDimension
  2
*D8
 10
-20.0
 20
-16.00000099999995
 30
0.0
 11
-10.0
 21
-14.45000099999995
 31
0.0
 70
    32
  1
<>
  3
AM_JIS
100
AcDbAlignedDimension
 13
0.0
 23
-1.5
 33
0.0
 14
-20.0
 24
-1.899999999999975
 34
0.0
 50
0.0000000000001132
100
AcDbRotatedDimension
1001
GENIUS_GENDTOL_13
1000

1000
h7
1000

1040
0.0
  0
DIMENSION
  5
1271
330
1F
100
AcDbEntity
  8
AM_5
100
AcDbDimension
  2
*D9
 10
-60.00000099999997
 20
3.000000000000039
 30
0.0
 11
-60.00000099999997
 21
0.0000000000000905
 31
0.0
 70
   160
  1
%%c<>
  3
AM_JIS
100
AcDbAlignedDimension
 13
-49.49999999999999
 23
-2.999999999999849
 33
0.0
 14
-49.49999999999999
 24
3.000000000000037
 34
0.0
 50
270.0
100
AcDbRotatedDimension
1001
GENIUS_GENDTOL_13
1000

1000
h7
1000

1040
0.0
  0
LINE
  5
1386
330
1F
100
AcDbEntity
  8
AM_0
100
AcDbLine
 10
-21.03923048454134
 20
3.000000000000035
 30
0.0
 11
-49.49999999999999
 21
3.000000000000046
 31
0.0
  0
LINE
  5
1387
330
1F
100
AcDbEntity
  8
AM_0
100
AcDbLine
 10
-49.49999999999995
 20
-2.999999999999902
 30
0.0
 11
-21.03923048454128
 21
-2.999999999999961
 31
0.0
  0
LINE
  5
138F
330
1F
100
AcDbEntity
  8
AM_0
100
AcDbLine
 10
-49.99999999999999
 20
2.500000000000044
 30
0.0
 11
-49.49999999999999
 21
3.000000000000046
 31
0.0
1001
GENIUS_GENFIL_13
1070
     0
1040
0.5
1040
0.5
1040
20.0
1040
0.0
1002
{
1002
}
1001
GENIUS_GENODEF_13
1002
{
1000
HIER
1070
     0
1002
}
1002
{
1000
MANEDIT
1070
     0
1002
}
1002
{
1000
NOSEL
1070
     0
1002
}
1002
{
1000
BEHIND
1070
     0
1002
}
1002
{
1000
REACTOR
1002
}
1001
GENIUS_GENOBJ-N-CHA_13
1002
{
1000
OWNER
1000
GEN
1002
}
  0
LINE
  5
1391
330
1F
100
AcDbEntity
  8
AM_0
100
AcDbLine
 10
-49.99999999999996
 20
-2.499999999999902
 30
0.0
 11
-49.49999999999995
 21
-2.999999999999902
 31
0.0
1001
GENIUS_GENFIL_13
1070
     0
1040
0.5
1040
0.5
1040
20.0
1040
0.0
1002
{
1002
}
1001
GENIUS_GENODEF_13
1002
{
1000
HIER
1070
     0
1002
}
1002
{
1000
MANEDIT
1070
     0
1002
}
1002
{
1000
NOSEL
1070
     0
1002
}
1002
{
1000
BEHIND
1070
     0
1002
}
1002
{
1000
REACTOR
1002
}
1001
GENIUS_GENOBJ-N-CHA_13
1002
{
1000
OWNER
1000
GEN
1002
}
  0
LINE
  5
1392
330
1F
100
AcDbEntity
  8
AM_0
100
AcDbLine
 10
-49.49999999999995
 20
-2.999999999999902
 30
0.0
 11
-49.49999999999995
 21
3.000000000000074
 31
0.0
  0
LINE
  5
139A
330
1F
100
AcDbEntity
  8
AM_7
100
AcDbLine
 10
-52.99999999999998
 20
0.0000000000000706
 30
0.0
 11
3.0
 21
-0.000000000000036
 31
0.0
1001
GENIUS_GENODEF_13
1002
{
1000
HIER
1070
     0
1002
}
1002
{
1000
MANEDIT
1070
     0
1002
}
1002
{
1000
NOSEL
1070
     0
1002
}
1002
{
1000
BEHIND
1070
     0
1002
}
1002
{
1000
REACTOR
1002
}
1001
GENIUS_GENOBJ-N-CEN_13
1002
{
1000
OWNER
1000
GEN
1002
}
  0
LINE
  5
19DC
330
1F
100
AcDbEntity
  8
AM_0
100
AcDbLine
 10
-19.99999999999999
 20
2.400000000000027
 30
0.0
 11
-21.03923048454131
 21
3.000000000000018
 31
0.0
  0
LINE
  5
19EA
330
1F
100
AcDbEntity
  8
AM_0
100
AcDbLine
 10
-21.03923048454128
 20
-2.999999999999961
 30
0.0
 11
-21.0392304845413
 21
3.000000000000018
 31
0.0
  0
LINE
  5
1AA0
330
1F
100
AcDbEntity
  8
AM_0
100
AcDbLine
 10
-19.99999999999998
 20
-2.399999999999963
 30
0.0
 11
-21.03923048454127
 21
-2.999999999999949
 31
0.0
  0
LINE
  5
1AFC
330
1F
100
AcDbEntity
  8
AM_0
100
AcDbLine
 10
-19.99999999999998
 20
-2.399999999999963
 30
0.0
 11
-7.499999999999996
 21
-2.399999999999947
 31
0.0
  0
LINE
  5
1AFD
330
1F
100
AcDbEntity
  8
AM_0
100
AcDbLine
 10
-19.99999999999999
 20
2.400000000000027
 30
0.0
 11
-7.555321061083375
 21
2.400000000000051
 31
0.0
  0
VIEWPORT
  5
110
330
101
100
AcDbEntity
 67
     1
  8
0
100
AcDbViewport
 10
420.5
 20
297.0
 30
0.0
 40
948.9782706766916
 41
628.452
 68
     1
 69
     1
1001
ACAD
1000
MVIEW
1002
{
1070
    16
1010
0.0
1020
0.0
1030
0.0
1010
0.0
1020
0.0
1030
1.0
1040
0.0
1040
628.452
1040
420.5
1040
297.0
1040
50.0
1040
0.0
1040
0.0
1070
     0
1070
   100
1070
     1
1070
     1
1070
     0
1070
     0
1070
     0
1070
     0
1040
0.0
1040
0.0
1040
0.0
1040
10.0
1040
10.0
1040
10.0
1040
10.0
1070
     0
1002
{
1002
}
1002
}
  0
ENDSEC
  0
SECTION
  2
OBJECTS
  0
DICTIONARY
  5
C
330
0
100
AcDbDictionary
  3
ACAD_GROUP
350
D
  3
ACAD_LAYOUT
350
1A
  3
ACAD_MLINESTYLE
350
17
  3
ACAD_PLOTSETTINGS
350
19
  3
ACAD_PLOTSTYLENAME
350
E
  3
ACDBVARIABLEDICTIONARY
350
34
  3
ACMDICTIONARY
350
43
  3
AMG
350
2B
  3
AMGSNAPSETTINGS
350
6E
  3
DWGPROPS
350
1BDA
  3
ACDBHEADERROUNDTRIPXREC
350
1BE6
  0
DICTIONARY
  5
74
330
1F
100
AcDbDictionary
280
     1
  3
ACAD_INDEX
360
1BDC
  3
ACAD_LAYOUTSELFREF
360
1C09
  0
DICTIONARY
  5
1C0E
330
101
100
AcDbDictionary
280
     1
  3
ACAD_LAYOUTSELFREF
360
1C0F
  0
DICTIONARY
  5
D
102
{ACAD_REACTORS
330
C
102
}
330
C
100
AcDbDictionary
  0
DICTIONARY
  5
1A
102
{ACAD_REACTORS
330
C
102
}
330
C
100
AcDbDictionary
  0
DICTIONARY
  5
17
102
{ACAD_REACTORS
330
C
102
}
330
C
100
AcDbDictionary
  3
STANDARD
350
18
  0
DICTIONARY
  5
19
102
{ACAD_REACTORS
330
C
102
}
330
C
100
AcDbDictionary
  0
ACDBDICTIONARYWDFLT
  5
E
102
{ACAD_REACTORS
330
C
102
}
330
C
100
AcDbDictionary
281
     1
  3
Normal
350
F
100
AcDbDictionaryWithDefault
340
F
  0
DICTIONARY
  5
34
102
{ACAD_REACTORS
330
C
102
}
330
C
100
AcDbDictionary
  3
INDEXCTL
350
35
  3
SORTENTS
350
B5E
  0
DICTIONARY
  5
43
102
{ACAD_REACTORS
330
C
102
}
330
C
100
AcDbDictionary
  3
ACMSTDDICTIONARY
350
260
  0
DICTIONARY
  5
2B
102
{ACAD_REACTORS
330
C
102
}
330
C
100
AcDbDictionary
  3
ACMGSETTINGS
350
2C
  0
DICTIONARY
  5
6E
102
{ACAD_REACTORS
330
C
102
}
330
C
100
AcDbDictionary
  0
XRECORD
  5
1BDA
102
{ACAD_REACTORS
330
C
102
}
330
C
100
AcDbXrecord
  1
DWGPROPS COOKIE
  2

  3

  4

  6

  7

  8

  9

300
AmdtFileType=82
301
=
302
=
303
=
304
=
305
=
306
=
307
=
308
=
309
=
 40
0.0481327662037037
 41
2452809.475734583
 42
2452844.536839363
  1

 90
        1
  0
DICTIONARY
  5
1BE6
102
{ACAD_REACTORS
330
C
102
}
330
C
100
AcDbDictionary
  3
TSTACKALIGN
350
1BE7
  3
TSTACKSIZE
350
1BE8
  3
HYPERLINKBASE
350
1BE9
  3
STYLESHEET
350
1BEA
  3
LAYOUTDICT
350
1BEB
  3
PLOTSETDICT
350
1BEC
  3
PLOTSTYLNAMDICT
350
1BED
  3
LWETCUNION
350
1BEE
  3
INSUNITS
350
1BEF
  3
CEPSNTYPE
350
1BF0
  3
FINGERPRINTGUID
350
1BF1
  3
VERSIONGUID
350
1BF2
  3
PSVPSCALE
350
1BF3
  3
DIMSTYLEDATA
350
1BF4
  3
PUCSORTHOREF
350
1BF5
  3
PUCSORTHOVIEW
350
1BF6
  3
PUCSBASE
350
1BF7
  3
PUCSORGTOP
350
1BF8
  3
PUCSORGBOTTOM
350
1BF9
  3
PUCSORGLEFT
350
1BFA
  3
PUCSORGRIGHT
350
1BFB
  3
PUCSORGFRONT
350
1BFC
  3
PUCSORGBACK
350
1BFD
  3
UCSORTHOREF
350
1BFE
  3
UCSORTHOVIEW
350
1BFF
  3
UCSBASE
350
1C00
  3
UCSORGTOP
350
1C01
  3
UCSORGBOTTOM
350
1C02
  3
UCSORGLEFT
350
1C03
  3
UCSORGRIGHT
350
1C04
  3
UCSORGFRONT
350
1C05
  3
UCSORGBACK
350
1C06
  0
DICTIONARY
  5
1BDC
102
{ACAD_REACTORS
330
74
102
}
330
74
100
AcDbDictionary
  3
*A1
350
1BDD
  0
XRECORD
  5
1C09
102
{ACAD_REACTORS
330
74
102
}
330
74
100
AcDbXrecord
340
1F
  0
XRECORD
  5
1C0F
102
{ACAD_REACTORS
330
1C0E
102
}
330
1C0E
100
AcDbXrecord
340
101
  0
MLINESTYLE
  5
18
102
{ACAD_REACTORS
330
17
102
}
330
17
100
AcDbMlineStyle
  2
STANDARD
 70
     0
  3

 62
   256
 51
90.0
 52
90.0
 71
     2
 49
0.5
 62
   256
  6
BYLAYER
 49
-0.5
 62
   256
  6
BYLAYER
  0
ACDBPLACEHOLDER
  5
F
102
{ACAD_REACTORS
330
E
102
}
330
E
100
AcDbPlaceHolder
280
     0
  0
DICTIONARYVAR
  5
35
102
{ACAD_REACTORS
330
34
102
}
330
34
100
DictionaryVariables
280
     0
  1
1
  0
DICTIONARYVAR
  5
B5E
102
{ACAD_REACTORS
330
34
102
}
330
34
100
DictionaryVariables
280
     0
  1
96
  0
DICTIONARY
  5
260
102
{ACAD_REACTORS
330
43
102
}
330
43
100
AcDbDictionary
  0
DICTIONARY
  5
2C
102
{ACAD_REACTORS
330
2B
102
}
330
2B
100
AcDbDictionary
  3
DWGSETTINGS
350
2D
  0
XRECORD
  5
1BE7
102
{ACAD_REACTORS
330
1BE6
102
}
330
1BE6
100
AcDbXrecord
 90
        1
  0
XRECORD
  5
1BE8
102
{ACAD_REACTORS
330
1BE6
102
}
330
1BE6
100
AcDbXrecord
 90
       70
  0
XRECORD
  5
1BE9
102
{ACAD_REACTORS
330
1BE6
102
}
330
1BE6
100
AcDbXrecord
  1

  0
XRECORD
  5
1BEA
102
{ACAD_REACTORS
330
1BE6
102
}
330
1BE6
100
AcDbXrecord
  1
ASAMI.ctb
  0
XRECORD
  5
1BEB
102
{ACAD_REACTORS
330
1BE6
102
}
330
1BE6
100
AcDbXrecord
340
1A
  0
XRECORD
  5
1BEC
102
{ACAD_REACTORS
330
1BE6
102
}
330
1BE6
100
AcDbXrecord
340
19
  0
XRECORD
  5
1BED
102
{ACAD_REACTORS
330
1BE6
102
}
330
1BE6
100
AcDbXrecord
340
E
  0
XRECORD
  5
1BEE
102
{ACAD_REACTORS
330
1BE6
102
}
330
1BE6
100
AcDbXrecord
 90
    10781
  0
XRECORD
  5
1BEF
102
{ACAD_REACTORS
330
1BE6
102
}
330
1BE6
100
AcDbXrecord
 90
        4
  0
XRECORD
  5
1BF0
102
{ACAD_REACTORS
330
1BE6
102
}
330
1BE6
100
AcDbXrecord
 90
        0
  0
XRECORD
  5
1BF1
102
{ACAD_REACTORS
330
1BE6
102
}
330
1BE6
100
AcDbXrecord
  1
{AFB28963-8C59-40AE-9337-C84526B81ACE}
  0
XRECORD
  5
1BF2
102
{ACAD_REACTORS
330
1BE6
102
}
330
1BE6
100
AcDbXrecord
  1
{2EC8F500-B4DE-42DF-95F7-E7648E6486CF}
  0
XRECORD
  5
1BF3
102
{ACAD_REACTORS
330
1BE6
102
}
330
1BE6
100
AcDbXrecord
 40
0.0
  0
XRECORD
  5
1BF4
102
{ACAD_REACTORS
330
1BE6
102
}
330
1BE6
100
AcDbXrecord
1000
DSTYLE
1002
{
1070
    79
 70
     2
1070
   341
340
59
1070
   342
340
59
1070
   371
 70
    -1
1070
   372
 70
    -1
1002
}
  0
XRECORD
  5
1BF5
102
{ACAD_REACTORS
330
1BE6
102
}
330
1BE6
100
AcDbXrecord
340
0
  0
XRECORD
  5
1BF6
102
{ACAD_REACTORS
330
1BE6
102
}
330
1BE6
100
AcDbXrecord
 70
     0
  0
XRECORD
  5
1BF7
102
{ACAD_REACTORS
330
1BE6
102
}
330
1BE6
100
AcDbXrecord
340
0
  0
XRECORD
  5
1BF8
102
{ACAD_REACTORS
330
1BE6
102
}
330
1BE6
100
AcDbXrecord
 10
0.0
 20
0.0
 30
0.0
  0
XRECORD
  5
1BF9
102
{ACAD_REACTORS
330
1BE6
102
}
330
1BE6
100
AcDbXrecord
 10
0.0
 20
0.0
 30
0.0
  0
XRECORD
  5
1BFA
102
{ACAD_REACTORS
330
1BE6
102
}
330
1BE6
100
AcDbXrecord
 10
0.0
 20
0.0
 30
0.0
  0
XRECORD
  5
1BFB
102
{ACAD_REACTORS
330
1BE6
102
}
330
1BE6
100
AcDbXrecord
 10
0.0
 20
0.0
 30
0.0
  0
XRECORD
  5
1BFC
102
{ACAD_REACTORS
330
1BE6
102
}
330
1BE6
100
AcDbXrecord
 10
0.0
 20
0.0
 30
0.0
  0
XRECORD
  5
1BFD
102
{ACAD_REACTORS
330
1BE6
102
}
330
1BE6
100
AcDbXrecord
 10
0.0
 20
0.0
 30
0.0
  0
XRECORD
  5
1BFE
102
{ACAD_REACTORS
330
1BE6
102
}
330
1BE6
100
AcDbXrecord
340
0
  0
XRECORD
  5
1BFF
102
{ACAD_REACTORS
330
1BE6
102
}
330
1BE6
100
AcDbXrecord
 70
     0
  0
XRECORD
  5
1C00
102
{ACAD_REACTORS
330
1BE6
102
}
330
1BE6
100
AcDbXrecord
340
0
  0
XRECORD
  5
1C01
102
{ACAD_REACTORS
330
1BE6
102
}
330
1BE6
100
AcDbXrecord
 10
0.0
 20
0.0
 30
0.0
  0
XRECORD
  5
1C02
102
{ACAD_REACTORS
330
1BE6
102
}
330
1BE6
100
AcDbXrecord
 10
0.0
 20
0.0
 30
0.0
  0
XRECORD
  5
1C03
102
{ACAD_REACTORS
330
1BE6
102
}
330
1BE6
100
AcDbXrecord
 10
0.0
 20
0.0
 30
0.0
  0
XRECORD
  5
1C04
102
{ACAD_REACTORS
330
1BE6
102
}
330
1BE6
100
AcDbXrecord
 10
0.0
 20
0.0
 30
0.0
  0
XRECORD
  5
1C05
102
{ACAD_REACTORS
330
1BE6
102
}
330
1BE6
100
AcDbXrecord
 10
0.0
 20
0.0
 30
0.0
  0
XRECORD
  5
1C06
102
{ACAD_REACTORS
330
1BE6
102
}
330
1BE6
100
AcDbXrecord
 10
0.0
 20
0.0
 30
0.0
  0
LAYER_INDEX
  5
1BDD
102
{ACAD_REACTORS
330
1BDC
102
}
330
1BDC
100
AcDbIndex
 40
2452844.575578703
100
AcDbLayerIndex
  8
0
360
1BDE
 90
        0
  8
AM_0
360
1BDF
 90
       56
  8
AM_11
360
1BE0
 90
        3
  8
AM_7
360
1BE1
 90
        1
  8
AM_5
360
1BE2
 90
        5
  8
Defpoints
360
1BE3
 90
        0
  8
AM_6
360
1BE4
 90
        1
  0
XRECORD
  5
2D
102
{ACAD_REACTORS
330
2C
102
}
330
2C
100
AcDbXrecord
  1
VERSION
140
15.0
  1
PRODUCT
  2
AutoCAD Mechanical 2000
  0
IDBUFFER
  5
1BDE
330
0
100
AcDbIdBuffer
  0
IDBUFFER
  5
1BDF
330
0
100
AcDbIdBuffer
330
138F
330
1391
330
1392
330
19DC
330
19EA
330
1AA0
330
1AFC
330
1AFD
330
C55
330
C56
330
C57
330
C58
330
C59
330
C5A
330
C5C
330
C5D
330
C5E
330
C5F
330
C60
330
C61
330
C62
330
C63
330
C64
330
C65
330
C66
330
C67
330
C68
330
C69
330
C6A
330
C6B
330
C6C
330
C6D
330
C6E
330
C6F
330
C70
330
C71
330
C72
330
C73
330
C74
330
C75
330
C76
330
C77
330
C78
330
C79
330
C88
330
C89
330
C8C
330
C8D
330
CFE
330
E4A
330
F89
330
F8F
330
10F8
330
10F9
330
1386
330
1387
  0
IDBUFFER
  5
1BE0
330
0
100
AcDbIdBuffer
330
C8E
330
C8F
330
CF8
  0
IDBUFFER
  5
1BE1
330
0
100
AcDbIdBuffer
330
139A
  0
IDBUFFER
  5
1BE2
330
0
100
AcDbIdBuffer
330
D13
330
D9C
330
EDE
330
11DC
330
1271
  0
IDBUFFER
  5
1BE3
330
0
100
AcDbIdBuffer
  0
IDBUFFER
  5
1BE4
330
0
100
AcDbIdBuffer
330
F75
  0
ENDSEC
  0
EOF
