  0
SECTION
  2
HEADER
  9
$ACADVER
  1
AC1014
  9
$ACADMAINTVER
 70
     9
  9
$DWGCODEPAGE
  3
ANSI_932
  9
$INSBASE
 10
0.0
 20
0.0
 30
0.0
  9
$EXTMIN
 10
-118.1999999999999
 20
-65.5
 30
-0.00000001
  9
$EXTMAX
 10
15.00000000000012
 20
5.978101216568846
 30
0.00000001
  9
$LIMMIN
 10
-133.0424332601376
 20
-80.6196643749112
  9
$LIMMAX
 10
39.21509578705462
 20
19.26843980392894
  9
$ORTHOMODE
 70
     0
  9
$REGENMODE
 70
     1
  9
$FILLMODE
 70
     1
  9
$QTEXTMODE
 70
     0
  9
$MIRRTEXT
 70
     0
  9
$DRAGMODE
 70
     2
  9
$LTSCALE
 40
1.0
  9
$OSMODE
 70
  2103
  9
$ATTMODE
 70
     1
  9
$TEXTSIZE
 40
2.5
  9
$TRACEWID
 40
1.0
  9
$TEXTSTYLE
  7
STANDARD
  9
$CLAYER
  8
AM_0
  9
$CELTYPE
  6
BYLAYER
  9
$CECOLOR
 62
   256
  9
$CELTSCALE
 40
1.0
  9
$DELOBJ
 70
     1
  9
$DISPSILH
 70
     0
  9
$DIMSCALE
 40
1.0
  9
$DIMASZ
 40
2.5
  9
$DIMEXO
 40
1.0
  9
$DIMDLI
 40
12.0
  9
$DIMRND
 40
0.0
  9
$DIMDLE
 40
0.0
  9
$DIMEXE
 40
1.0
  9
$DIMTP
 40
0.1
  9
$DIMTM
 40
0.1
  9
$DIMTXT
 40
3.2
  9
$DIMCEN
 40
0.0
  9
$DIMTSZ
 40
0.0
  9
$DIMTOL
 70
     0
  9
$DIMLIM
 70
     0
  9
$DIMTIH
 70
     0
  9
$DIMTOH
 70
     0
  9
$DIMSE1
 70
     0
  9
$DIMSE2
 70
     0
  9
$DIMTAD
 70
     3
  9
$DIMZIN
 70
     8
  9
$DIMBLK
  1
OPEN30
  9
$DIMASO
 70
     1
  9
$DIMSHO
 70
     1
  9
$DIMPOST
  1

  9
$DIMAPOST
  1
"
  9
$DIMALT
 70
     0
  9
$DIMALTD
 70
     2
  9
$DIMALTF
 40
0.0393701
  9
$DIMLFAC
 40
1.0
  9
$DIMTOFL
 70
     1
  9
$DIMTVP
 40
0.0
  9
$DIMTIX
 70
     0
  9
$DIMSOXD
 70
     0
  9
$DIMSAH
 70
     0
  9
$DIMBLK1
  1

  9
$DIMBLK2
  1

  9
$DIMSTYLE
  2
AM_JIS
  9
$DIMCLRD
 70
   256
  9
$DIMCLRE
 70
   256
  9
$DIMCLRT
 70
     2
  9
$DIMTFAC
 40
0.71
  9
$DIMGAP
 40
1.5
  9
$DIMJUST
 70
     0
  9
$DIMSD1
 70
     0
  9
$DIMSD2
 70
     0
  9
$DIMTOLJ
 70
     0
  9
$DIMTZIN
 70
     0
  9
$DIMALTZ
 70
     0
  9
$DIMALTTZ
 70
     0
  9
$DIMFIT
 70
     3
  9
$DIMUPT
 70
     0
  9
$DIMUNIT
 70
     2
  9
$DIMDEC
 70
     3
  9
$DIMTDEC
 70
     3
  9
$DIMALTU
 70
     2
  9
$DIMALTTD
 70
     2
  9
$DIMTXSTY
  7
ASAMI
  9
$DIMAUNIT
 70
     0
  9
$LUNITS
 70
     2
  9
$LUPREC
 70
     2
  9
$SKETCHINC
 40
1.0
  9
$FILLETRAD
 40
2.5
  9
$AUNITS
 70
     0
  9
$AUPREC
 70
     0
  9
$MENU
  1
.
  9
$ELEVATION
 40
0.0
  9
$PELEVATION
 40
0.0
  9
$THICKNESS
 40
0.0
  9
$LIMCHECK
 70
     0
  9
$BLIPMODE
 70
     0
  9
$CHAMFERA
 40
0.5
  9
$CHAMFERB
 40
0.5
  9
$CHAMFERC
 40
20.0
  9
$CHAMFERD
 40
0.0
  9
$SKPOLY
 70
     0
  9
$TDCREATE
 40
2452809.475734583
  9
$TDUPDATE
 40
2452844.573439120
  9
$TDINDWG
 40
0.0361975579
  9
$TDUSRTIMER
 40
0.0361973843
  9
$USRTIMER
 70
     1
  9
$ANGBASE
 50
0.0
  9
$ANGDIR
 70
     0
  9
$PDMODE
 70
     0
  9
$PDSIZE
 40
0.0
  9
$PLINEWID
 40
0.0
  9
$COORDS
 70
     2
  9
$SPLFRAME
 70
     0
  9
$SPLINETYPE
 70
     6
  9
$SPLINESEGS
 70
     8
  9
$ATTDIA
 70
     1
  9
$ATTREQ
 70
     1
  9
$HANDLING
 70
 12289
  9
$HANDSEED
  5
14C9
  9
$SURFTAB1
 70
     6
  9
$SURFTAB2
 70
     6
  9
$SURFTYPE
 70
     6
  9
$SURFU
 70
     6
  9
$SURFV
 70
     6
  9
$UCSNAME
  2

  9
$UCSORG
 10
0.0
 20
0.0
 30
0.0
  9
$UCSXDIR
 10
1.0
 20
0.0
 30
0.0
  9
$UCSYDIR
 10
0.0
 20
1.0
 30
0.0
  9
$PUCSNAME
  2

  9
$PUCSORG
 10
0.0
 20
0.0
 30
0.0
  9
$PUCSXDIR
 10
1.0
 20
0.0
 30
0.0
  9
$PUCSYDIR
 10
0.0
 20
1.0
 30
0.0
  9
$USERI1
 70
     0
  9
$USERI2
 70
     0
  9
$USERI3
 70
     0
  9
$USERI4
 70
     0
  9
$USERI5
 70
     0
  9
$USERR1
 40
0.0
  9
$USERR2
 40
0.0
  9
$USERR3
 40
0.0
  9
$USERR4
 40
0.0
  9
$USERR5
 40
0.0
  9
$WORLDVIEW
 70
     1
  9
$SHADEDGE
 70
     3
  9
$SHADEDIF
 70
    70
  9
$TILEMODE
 70
     1
  9
$MAXACTVP
 70
    64
  9
$PINSBASE
 10
0.0
 20
0.0
 30
0.0
  9
$PLIMCHECK
 70
     0
  9
$PEXTMIN
 10
1.000000000000000E+20
 20
1.000000000000000E+20
 30
1.000000000000000E+20
  9
$PEXTMAX
 10
-1.000000000000000E+20
 20
-1.000000000000000E+20
 30
-1.000000000000000E+20
  9
$PLIMMIN
 10
0.0
 20
0.0
  9
$PLIMMAX
 10
841.0
 20
594.0
  9
$UNITMODE
 70
     0
  9
$VISRETAIN
 70
     1
  9
$PLINEGEN
 70
     0
  9
$PSLTSCALE
 70
     0
  9
$TREEDEPTH
 70
  3020
  9
$PICKSTYLE
 70
     0
  9
$CMLSTYLE
  2
STANDARD
  9
$CMLJUST
 70
     0
  9
$CMLSCALE
 40
20.0
  9
$PROXYGRAPHICS
 70
     1
  9
$MEASUREMENT
 70
     1
  0
ENDSEC
  0
SECTION
  2
CLASSES
  0
CLASS
  1
ACDBDICTIONARYWDFLT
  2
AcDbDictionaryWithDefault
  3
AutoCAD 2000
 90
        0
280
     0
281
     0
  0
CLASS
  1
ACDBPLACEHOLDER
  2
AcDbPlaceHolder
  3
AutoCAD 2000
 90
        0
280
     0
281
     0
  0
CLASS
  1
LAYOUT
  2
AcDbLayout
  3
AutoCAD 2000
 90
        0
280
     0
281
     0
  0
CLASS
  1
AMGSETTINGSOBJ
  2
AmgSettingsObj
  3
"AcadM|Product Description: AutoCAD Mechanical 2000|Company: Autodesk"
 90
        0
280
     0
281
     0
  0
CLASS
  1
ACME_DOCUMENT
  2
AcMeDbDoc
  3
AcMeServices
 90
        0
280
     0
281
     0
  0
CLASS
  1
ACMESCOPE
  2
AcMeScope
  3
AcMeServices
 90
        0
280
     0
281
     0
  0
CLASS
  1
ACMECOMMANDHISTORY
  2
AcMeCommandHistory
  3
AcMeServices
 90
        0
280
     0
281
     0
  0
CLASS
  1
DICTIONARYVAR
  2
AcDbDictionaryVar
  3
AutoCAD 2000
 90
        0
280
     0
281
     0
  0
CLASS
  1
ACIMSYSVARMAN
  2
AcImSysVarManager
  3
AcMeServices
 90
        0
280
     0
281
     0
  0
CLASS
  1
ACIMREALSYSVAR
  2
AcImRealSysVar
  3
AcMeServices
 90
        0
280
     0
281
     0
  0
CLASS
  1
ACIMINTSYSVAR
  2
AcImIntSysVar
  3
AcMeServices
 90
        0
280
     0
281
     0
  0
CLASS
  1
ACMEDRAWINGMAN
  2
AcMeDrawingMan
  3
AcMeServices
 90
        0
280
     0
281
     0
  0
CLASS
  1
ACMEVIEW
  2
AcMeView
  3
AcMeServices
 90
        0
280
     0
281
     0
  0
CLASS
  1
ACDBENTITYCACHE
  2
AcMeEntityCache
  3
AcMeServices
 90
        0
280
     0
281
     0
  0
CLASS
  1
GSMANAGER
  2
AcMeGSManager
  3
AcMeServices
 90
        0
280
     0
281
     0
  0
CLASS
  1
AmdtInternalReactor
  2
AmdtInternalReactor
  3
AcMeServices
 90
        0
280
     0
281
     0
  0
CLASS
  1
ACMESTATEMGR
  2
AcMeStateMgr
  3
AcMeServices
 90
        0
280
     0
281
     0
  0
CLASS
  1
ACME_DATABASE
  2
AcMeDbDatabase
  3
AcMeServices
 90
        0
280
     0
281
     0
  0
CLASS
  1
ACRFINSADJUSTERMGR
  2
AcRfInsAdjusterMgr
  3
AcMeServices
 90
        0
280
     0
281
     0
  0
CLASS
  1
ACMDATADICTIONARY
  2
AcmDataDictionary
  3
"AcmSymBB|Product Description: AutoCAD Mechanical 2000|Company: Autodesk"
 90
        0
280
     0
281
     0
  0
CLASS
  1
ACMDATAENTRYBLOCK
  2
AcmDataEntryBlock
  3
"AcmSymBB|Product Description: AutoCAD Mechanical 2000|Company: Autodesk"
 90
        0
280
     0
281
     0
  0
CLASS
  1
AMGOBJPROPCFG
  2
AmgObjPropCfg
  3
"AmgLay|Product Description: AutoCAD Mechanical 2000|Company: Autodesk"
 90
        1
280
     0
281
     0
  0
CLASS
  1
ACAMGFILTERDAT
  2
AcAmgFilterDat
  3
"AcadM|Product Description: AutoCAD Mechanical 2000|Company: Autodesk"
 90
        0
280
     0
281
     0
  0
CLASS
  1
LAYER_INDEX
  2
AcDbLayerIndex
  3
AutoCAD 2000
 90
        0
280
     0
281
     0
  0
CLASS
  1
IDBUFFER
  2
AcDbIdBuffer
  3
AutoCAD 2000
 90
        0
280
     0
281
     0
  0
CLASS
  1
ACIMSTRSYSVAR
  2
AcImStrSysVar
  3
AcMeServices
 90
        0
280
     0
281
     0
  0
CLASS
  1
ACMSTANDARDJIS
  2
AcmStandardJIS
  3
"AcmSymBB|Product Description: AutoCAD Mechanical 2000|Company: Autodesk"
 90
        0
280
     0
281
     0
  0
CLASS
  1
ACMSURFSTANDARDJIS
  2
AcmSurfTextStdJIS
  3
"AcmSymBB|Product Description: AutoCAD Mechanical 2000|Company: Autodesk"
 90
        0
280
     0
281
     0
  0
CLASS
  1
ACMFCFSTANDARDJIS
  2
AcmFCFStdJIS
  3
"AcmSymBB|Product Description: AutoCAD Mechanical 2000|Company: Autodesk"
 90
        0
280
     0
281
     0
  0
CLASS
  1
ACMWELDSTANDARDJIS
  2
AcmWeldingStdJIS
  3
"AcmSymBB|Product Description: AutoCAD Mechanical 2000|Company: Autodesk"
 90
        0
280
     0
281
     0
  0
CLASS
  1
ACMIDSTANDARDJIS
  2
AcmIdStdJIS
  3
"AcmSymBB|Product Description: AutoCAD Mechanical 2000|Company: Autodesk"
 90
        0
280
     0
281
     0
  0
CLASS
  1
ACMDATUMSTANDARDJIS
  2
AcmDatumStdJIS
  3
"AcmSymBB|Product Description: AutoCAD Mechanical 2000|Company: Autodesk"
 90
        0
280
     0
281
     0
  0
CLASS
  1
ACMBOMSTANDARDJIS
  2
AcmBOMStdJIS
  3
"AcmSymBB|Product Description: AutoCAD Mechanical 2000|Company: Autodesk"
 90
        0
280
     0
281
     0
  0
CLASS
  1
ACMSTANDARDANSI
  2
AcmStandardANSI
  3
"AcmSymBB|Product Description: AutoCAD Mechanical 2000|Company: Autodesk"
 90
        0
280
     0
281
     0
  0
CLASS
  1
ACMSURFSTANDARDANSI
  2
AcmSurfTextStdANSI
  3
"AcmSymBB|Product Description: AutoCAD Mechanical 2000|Company: Autodesk"
 90
        0
280
     0
281
     0
  0
CLASS
  1
ACMFCFSTANDARDANSI
  2
AcmFCFStdANSI
  3
"AcmSymBB|Product Description: AutoCAD Mechanical 2000|Company: Autodesk"
 90
        0
280
     0
281
     0
  0
CLASS
  1
ACMWELDSTANDARDANSI
  2
AcmWeldingStdANSI
  3
"AcmSymBB|Product Description: AutoCAD Mechanical 2000|Company: Autodesk"
 90
        0
280
     0
281
     0
  0
CLASS
  1
ACMIDSTANDARDANSI
  2
AcmIdStdANSI
  3
"AcmSymBB|Product Description: AutoCAD Mechanical 2000|Company: Autodesk"
 90
        0
280
     0
281
     0
  0
CLASS
  1
ACMDATUMSTANDARDANSI
  2
AcmDatumStdANSI
  3
"AcmSymBB|Product Description: AutoCAD Mechanical 2000|Company: Autodesk"
 90
        0
280
     0
281
     0
  0
CLASS
  1
ACMBOMSTANDARDANSI
  2
AcmBOMStdANSI
  3
"AcmSymBB|Product Description: AutoCAD Mechanical 2000|Company: Autodesk"
 90
        0
280
     0
281
     0
  0
CLASS
  1
ACMSTANDARDBSI
  2
AcmStandardBSI
  3
"AcmSymBB|Product Description: AutoCAD Mechanical 2000|Company: Autodesk"
 90
        0
280
     0
281
     0
  0
CLASS
  1
ACMSURFSTANDARDBSI
  2
AcmSurfTextStdBSI
  3
"AcmSymBB|Product Description: AutoCAD Mechanical 2000|Company: Autodesk"
 90
        0
280
     0
281
     0
  0
CLASS
  1
ACMFCFSTANDARDBSI
  2
AcmFCFStdBSI
  3
"AcmSymBB|Product Description: AutoCAD Mechanical 2000|Company: Autodesk"
 90
        0
280
     0
281
     0
  0
CLASS
  1
ACMWELDSTANDARDBSI
  2
AcmWeldingStdBSI
  3
"AcmSymBB|Product Description: AutoCAD Mechanical 2000|Company: Autodesk"
 90
        0
280
     0
281
     0
  0
CLASS
  1
ACMIDSTANDARDBSI
  2
AcmIdStdBSI
  3
"AcmSymBB|Product Description: AutoCAD Mechanical 2000|Company: Autodesk"
 90
        0
280
     0
281
     0
  0
CLASS
  1
ACMDATUMSTANDARDBSI
  2
AcmDatumStdBSI
  3
"AcmSymBB|Product Description: AutoCAD Mechanical 2000|Company: Autodesk"
 90
        0
280
     0
281
     0
  0
CLASS
  1
ACMBOMSTANDARDBSI
  2
AcmBOMStdBSI
  3
"AcmSymBB|Product Description: AutoCAD Mechanical 2000|Company: Autodesk"
 90
        0
280
     0
281
     0
  0
CLASS
  1
LONG_TRANSACTION
  2
AcDbLongTransaction
  3
AutoCAD 2000
 90
        0
280
     0
281
     0
  0
CLASS
  1
LWPOLYLINE
  2
AcDbPolyline
  3
AutoCAD 2000
 90
        0
280
     0
281
     1
  0
CLASS
  1
HATCH
  2
AcDbHatch
  3
AutoCAD 2000
 90
        0
280
     0
281
     1
  0
CLASS
  1
XRECORD
  2
AcDbXrecord
  3
AutoCAD 2000
 90
        0
280
     0
281
     0
  0
ENDSEC
  0
SECTION
  2
TABLES
  0
TABLE
  2
VPORT
  5
8
330
0
100
AcDbSymbolTable
 70
     3
  0
VPORT
  5
1498
330
8
100
AcDbSymbolTableRecord
100
AcDbViewportTableRecord
  2
*ACTIVE
 70
     0
 10
0.0
 20
0.0
 11
1.0
 21
1.0
 12
-51.77426980801001
 22
-29.67340676765745
 13
0.0
 23
0.0
 14
2.5
 24
2.5
 15
10.0
 25
10.0
 16
0.0
 26
0.0
 36
1.0
 17
0.0
 27
0.0
 37
0.0
 40
85.42744766983181
 41
1.56570841889117
 42
50.0
 43
0.0
 44
0.0
 50
0.0
 51
0.0
 71
     0
 72
   100
 73
     1
 74
     3
 75
     0
 76
     0
 77
     0
 78
     0
  0
ENDTAB
  0
TABLE
  2
LTYPE
  5
5
330
0
100
AcDbSymbolTable
 70
    10
  0
LTYPE
  5
14
330
5
100
AcDbSymbolTableRecord
100
AcDbLinetypeTableRecord
  2
BYBLOCK
 70
     0
  3

 72
    65
 73
     0
 40
0.0
  0
LTYPE
  5
15
330
5
100
AcDbSymbolTableRecord
100
AcDbLinetypeTableRecord
  2
BYLAYER
 70
     0
  3

 72
    65
 73
     0
 40
0.0
  0
LTYPE
  5
16
330
5
100
AcDbSymbolTableRecord
100
AcDbLinetypeTableRecord
  2
CONTINUOUS
 70
     0
  3
Solid line
 72
    65
 73
     0
 40
0.0
  0
LTYPE
  5
4B
330
5
100
AcDbSymbolTableRecord
100
AcDbLinetypeTableRecord
  2
AM_ISO02W050
 70
     0
  3
__ __ __ __ __ __ __ __ __ __ __ __ __ __ __
 72
    65
 73
     2
 40
7.5
 49
6.0
 74
     0
 49
-1.5
 74
     0
  0
LTYPE
  5
4C
330
5
100
AcDbSymbolTableRecord
100
AcDbLinetypeTableRecord
  2
AM_ISO08W050
 70
     0
  3
____ . ____ . ____ . ____ . ____ . ____ . ____
 72
    65
 73
     4
 40
18.0
 49
12.0
 74
     0
 49
-1.5
 74
     0
 49
3.0
 74
     0
 49
-1.5
 74
     0
  0
LTYPE
  5
4D
330
5
100
AcDbSymbolTableRecord
100
AcDbLinetypeTableRecord
  2
AM_ISO09W050
 70
     0
  3
_____ . . _____ . . _____ . . ____ .. ____
 72
    65
 73
     6
 40
22.5
 49
12.0
 74
     0
 49
-1.5
 74
     0
 49
3.0
 74
     0
 49
-1.5
 74
     0
 49
3.0
 74
     0
 49
-1.5
 74
     0
  0
LTYPE
  5
4E
330
5
100
AcDbSymbolTableRecord
100
AcDbLinetypeTableRecord
  2
AMCONSTR
 70
     0
  3
_______________________
 72
    65
 73
     2
 40
9999.0
 49
9999.0
 74
     0
 49
0.0
 74
     0
  0
LTYPE
  5
4F
330
5
100
AcDbSymbolTableRecord
100
AcDbLinetypeTableRecord
  2
AM_ISO02W050X2
 70
     0
  3
 _ _ _ _ _ _ _ _ _ _ _ _
 72
    65
 73
     2
 40
3.75
 49
3.0
 74
     0
 49
-0.75
 74
     0
  0
LTYPE
  5
50
330
5
100
AcDbSymbolTableRecord
100
AcDbLinetypeTableRecord
  2
AM_ISO08W050X2
 70
     0
  3
__ . __ . __ . __ . __ . __
 72
    65
 73
     4
 40
9.0
 49
6.0
 74
     0
 49
-0.75
 74
     0
 49
1.5
 74
     0
 49
-0.75
 74
     0
  0
LTYPE
  5
53
330
5
100
AcDbSymbolTableRecord
100
AcDbLinetypeTableRecord
  2
AMZIGZAG
 70
     0
  3
/\/-/\/-/\/-/\/-/\/-/\/
 72
    65
 73
     2
 40
11.00009999999999
 49
0.0001
 74
     4
 75
   135
340
52
 46
0.04
 50
0.0
 44
0.0
 45
0.0
 49
-11.0
 74
     0
  0
LTYPE
  5
166
330
5
100
AcDbSymbolTableRecord
100
AcDbLinetypeTableRecord
  2
ACJISTGL
 70
     0
  3
_ _ _ _ _
 72
    65
 73
     2
 40
3.0
 49
2.0
 74
     0
 49
-1.0
 74
     0
  0
LTYPE
  5
26A
330
5
100
AcDbSymbolTableRecord
100
AcDbLinetypeTableRecord
  2
ACJISTGB
 70
     0
  3
__ . . __ . .
 72
    65
 73
     6
 40
9.0
 49
4.0
 74
     0
 49
-1.0
 74
     0
 49
1.0
 74
     0
 49
-1.0
 74
     0
 49
1.0
 74
     0
 49
-1.0
 74
     0
  0
ENDTAB
  0
TABLE
  2
LAYER
  5
2
330
0
100
AcDbSymbolTable
 70
     7
  0
LAYER
  5
10
330
2
100
AcDbSymbolTableRecord
100
AcDbLayerTableRecord
  2
0
 70
     0
 62
     7
  6
CONTINUOUS
  0
LAYER
  5
3F9
330
2
100
AcDbSymbolTableRecord
100
AcDbLayerTableRecord
  2
AM_0
 70
     0
 62
     7
  6
CONTINUOUS
  0
LAYER
  5
BA4
330
2
100
AcDbSymbolTableRecord
100
AcDbLayerTableRecord
  2
AM_11
 70
     0
 62
     3
  6
AM_ISO09W050
  0
LAYER
  5
BA5
330
2
100
AcDbSymbolTableRecord
100
AcDbLayerTableRecord
  2
AM_7
 70
     0
 62
     4
  6
AM_ISO08W050
  0
LAYER
  5
CA1
330
2
100
AcDbSymbolTableRecord
100
AcDbLayerTableRecord
  2
AM_5
 70
     0
 62
     3
  6
CONTINUOUS
  0
LAYER
  5
D14
330
2
100
AcDbSymbolTableRecord
100
AcDbLayerTableRecord
  2
DEFPOINTS
 70
     0
 62
     7
  6
CONTINUOUS
  0
LAYER
  5
F74
330
2
100
AcDbSymbolTableRecord
100
AcDbLayerTableRecord
  2
AM_6
 70
     0
 62
     2
  6
CONTINUOUS
  0
ENDTAB
  0
TABLE
  2
STYLE
  5
3
330
0
100
AcDbSymbolTable
 70
     5
  0
STYLE
  5
11
330
3
100
AcDbSymbolTableRecord
100
AcDbTextStyleTableRecord
  2
STANDARD
 70
     0
 40
0.0
 41
1.0
 50
0.0
 71
     0
 42
2.5
  3
simplex.shx
  4
EXTFONT.SHX
  0
STYLE
  5
52
330
3
100
AcDbSymbolTableRecord
100
AcDbTextStyleTableRecord
  2

 70
     1
 40
0.0
 41
1.0
 50
0.0
 71
     0
 42
2.5
  3
ltypeshp.shx
  4

  0
STYLE
  5
6B
330
3
100
AcDbSymbolTableRecord
100
AcDbTextStyleTableRecord
  2
ASAMI
 70
     0
 40
0.0
 41
1.0
 50
0.0
 71
     0
 42
2.5
  3
simplex.shx
  4
EXTFONT.SHX
  0
STYLE
  5
262
330
3
100
AcDbSymbolTableRecord
100
AcDbTextStyleTableRecord
  2
ACJISTS
 70
     0
 40
1.0
 41
1.0
 50
0.0
 71
     0
 42
2.5
  3
simplex.shx
  4
bigfont.shx
  0
STYLE
  5
269
330
3
100
AcDbSymbolTableRecord
100
AcDbTextStyleTableRecord
  2
ACJISGDT
 70
     0
 40
0.0
 41
1.0
 50
0.0
 71
     0
 42
2.5
  3
amgdtans.shx
  4

  0
ENDTAB
  0
TABLE
  2
VIEW
  5
6
330
0
100
AcDbSymbolTable
 70
     0
  0
ENDTAB
  0
TABLE
  2
UCS
  5
7
330
0
100
AcDbSymbolTable
 70
     0
  0
ENDTAB
  0
TABLE
  2
APPID
  5
9
330
0
100
AcDbSymbolTable
 70
    12
  0
APPID
  5
12
330
9
100
AcDbSymbolTableRecord
100
AcDbRegAppTableRecord
  2
ACAD
 70
     0
  0
APPID
  5
30
330
9
100
AcDbSymbolTableRecord
100
AcDbRegAppTableRecord
  2
MCAD_NO_VIS
 70
     0
  0
APPID
  5
31
330
9
100
AcDbSymbolTableRecord
100
AcDbRegAppTableRecord
  2
ACAD_TEMP_GRAPHIC
 70
     0
  0
APPID
  5
2C2
330
9
100
AcDbSymbolTableRecord
100
AcDbRegAppTableRecord
  2
GENIUS_GENDTOL_13
 70
     0
  0
APPID
  5
339
330
9
100
AcDbSymbolTableRecord
100
AcDbRegAppTableRecord
  2
GENIUS_GENODEF_13
 70
     0
  0
APPID
  5
33A
330
9
100
AcDbSymbolTableRecord
100
AcDbRegAppTableRecord
  2
GENIUS_GENOBJ-N-RSBK_13
 70
     0
  0
APPID
  5
33B
330
9
100
AcDbSymbolTableRecord
100
AcDbRegAppTableRecord
  2
GENIUS_GENOBJ-N-LIB_13
 70
     0
  0
APPID
  5
33C
330
9
100
AcDbSymbolTableRecord
100
AcDbRegAppTableRecord
  2
GENIUS_GENSCALE_13
 70
     0
  0
APPID
  5
378
330
9
100
AcDbSymbolTableRecord
100
AcDbRegAppTableRecord
  2
GENIUS_GENDIMSH_14
 70
     0
  0
APPID
  5
BA6
330
9
100
AcDbSymbolTableRecord
100
AcDbRegAppTableRecord
  2
GENIUS_GENOBJ-N-CEN_13
 70
     0
  0
APPID
  5
D02
330
9
100
AcDbSymbolTableRecord
100
AcDbRegAppTableRecord
  2
GENIUS_GENFIL_13
 70
     0
  0
APPID
  5
D03
330
9
100
AcDbSymbolTableRecord
100
AcDbRegAppTableRecord
  2
GENIUS_GENOBJ-N-CHA_13
 70
     0
  0
ENDTAB
  0
TABLE
  2
DIMSTYLE
  5
A
330
0
100
AcDbSymbolTable
 70
     8
  0
DIMSTYLE
105
58
102
{ACAD_REACTORS
330
D13
330
D9C
330
EDE
330
11DC
330
1271
102
}
330
A
100
AcDbSymbolTableRecord
100
AcDbDimStyleTableRecord
  2
AM_JIS
 70
     0
  3

  4
"
  5
OPEN30
  6

  7

 40
1.0
 41
2.5
 42
1.0
 43
12.0
 44
1.0
 45
0.0
 46
0.0
 47
0.1
 48
0.1
140
3.2
141
0.0
142
0.0
143
0.0393701
144
1.0
145
0.0
146
0.71
147
1.5
 71
     0
 72
     0
 73
     0
 74
     0
 75
     0
 76
     0
 77
     3
 78
     8
170
     0
171
     2
172
     1
173
     0
174
     0
175
     0
176
   256
177
   256
178
     2
270
     2
271
     3
272
     3
273
     2
274
     2
340
6B
275
     0
280
     0
281
     0
282
     0
283
     0
284
     0
285
     0
286
     0
287
     3
288
     0
  0
DIMSTYLE
105
5F
330
A
100
AcDbSymbolTableRecord
100
AcDbDimStyleTableRecord
  2
AM_JIS$3
 70
     0
  3

  4
"
  5
OPEN30
  6

  7

 40
1.0
 41
2.5
 42
1.0
 43
10.0
 44
1.0
 45
0.0
 46
0.0
 47
0.1
 48
0.1
140
3.2
141
0.0
142
0.0
143
0.0393701
144
1.0
145
0.0
146
0.71
147
1.5
 71
     0
 72
     0
 73
     0
 74
     1
 75
     0
 76
     0
 77
     3
 78
     8
170
     0
171
     2
172
     0
173
     0
174
     0
175
     0
176
   256
177
   256
178
     2
270
     2
271
     2
272
     3
273
     2
274
     2
340
6B
275
     0
280
     0
281
     0
282
     0
283
     0
284
     0
285
     0
286
     0
287
     0
288
     1
  0
DIMSTYLE
105
60
102
{ACAD_REACTORS
330
13F3
102
}
330
A
100
AcDbSymbolTableRecord
100
AcDbDimStyleTableRecord
  2
AM_JIS$4
 70
     0
  3

  4
"
  5
OPEN30
  6

  7

 40
1.0
 41
2.5
 42
1.0
 43
10.0
 44
1.0
 45
0.0
 46
0.0
 47
0.1
 48
0.1
140
3.2
141
0.0
142
0.0
143
0.0393701
144
1.0
145
0.0
146
0.71
147
1.5
 71
     0
 72
     0
 73
     0
 74
     1
 75
     0
 76
     0
 77
     3
 78
     8
170
     0
171
     2
172
     0
173
     0
174
     0
175
     0
176
   256
177
   256
178
     2
270
     2
271
     2
272
     3
273
     2
274
     2
340
6B
275
     0
280
     0
281
     0
282
     0
283
     0
284
     0
285
     0
286
     0
287
     0
288
     1
  0
DIMSTYLE
105
61
330
A
100
AcDbSymbolTableRecord
100
AcDbDimStyleTableRecord
  2
AM_JIS$6
 70
     0
  3

  4
"
  5
OPEN30
  6

  7

 40
1.0
 41
2.5
 42
1.0
 43
10.0
 44
1.0
 45
0.0
 46
0.0
 47
0.1
 48
0.1
140
3.2
141
0.0
142
0.0
143
0.0393701
144
1.0
145
0.0
146
0.71
147
1.5
 71
     0
 72
     0
 73
     0
 74
     0
 75
     0
 76
     0
 77
     0
 78
     8
170
     0
171
     2
172
     1
173
     0
174
     0
175
     0
176
   256
177
   256
178
     2
270
     2
271
     2
272
     2
273
     2
274
     2
340
6B
275
     0
280
     0
281
     0
282
     0
283
     0
284
     0
285
     0
286
     0
287
     3
288
     0
  0
DIMSTYLE
105
62
330
A
100
AcDbSymbolTableRecord
100
AcDbDimStyleTableRecord
  2
AM_JIS$7
 70
     0
  3

  4
"
  5
OPEN30
  6

  7

 40
1.0
 41
2.5
 42
1.0
 43
10.0
 44
1.0
 45
0.0
 46
0.0
 47
0.1
 48
0.1
140
3.2
141
0.0
142
0.0
143
0.0393701
144
1.0
145
0.0
146
0.71
147
1.5
 71
     0
 72
     0
 73
     0
 74
     0
 75
     0
 76
     0
 77
     3
 78
     8
170
     0
171
     2
172
     1
173
     0
174
     0
175
     0
176
   256
177
   256
178
     2
270
     2
271
     2
272
     3
273
     2
274
     2
340
6B
275
     0
280
     0
281
     0
282
     0
283
     0
284
     0
285
     0
286
     0
287
     3
288
     0
  0
DIMSTYLE
105
63
330
A
100
AcDbSymbolTableRecord
100
AcDbDimStyleTableRecord
  2
AM_JIS$SF
 70
     0
  3

  4
"
  5
OPEN30
  6

  7

 40
1.0
 41
2.5
 42
1.0
 43
10.0
 44
1.0
 45
0.0
 46
0.0
 47
0.1
 48
0.1
140
3.2
141
0.0
142
0.0
143
0.0393701
144
1.0
145
0.0
146
0.71
147
1.5
 71
     0
 72
     0
 73
     0
 74
     0
 75
     1
 76
     1
 77
     3
 78
     8
170
     0
171
     2
172
     1
173
     0
174
     0
175
     0
176
   256
177
   256
178
     2
270
     2
271
     2
272
     2
273
     2
274
     2
340
6B
275
     0
280
     0
281
     0
282
     0
283
     0
284
     0
285
     0
286
     0
287
     3
288
     0
  0
DIMSTYLE
105
68
330
A
100
AcDbSymbolTableRecord
100
AcDbDimStyleTableRecord
  2
AM_JIS$SH
 70
     0
  3

  4
"
  5

  6
GENAXEH
  7
OPEN30
 40
1.0
 41
2.5
 42
1.0
 43
10.0
 44
1.0
 45
0.0
 46
0.0
 47
0.1
 48
0.1
140
3.2
141
0.0
142
0.0
143
0.0393701
144
2.0
145
0.0
146
0.71
147
1.5
 71
     0
 72
     0
 73
     0
 74
     0
 75
     1
 76
     1
 77
     3
 78
     8
170
     0
171
     2
172
     1
173
     1
174
     0
175
     0
176
   256
177
   256
178
     2
270
     2
271
     2
272
     2
273
     2
274
     2
340
6B
275
     0
280
     0
281
     0
282
     0
283
     0
284
     0
285
     0
286
     0
287
     3
288
     0
  0
DIMSTYLE
105
B34
330
A
100
AcDbSymbolTableRecord
100
AcDbDimStyleTableRecord
  2
AM_JIS$2
 70
     0
  3

  4
"
  5
OPEN30
  6

  7

 40
1.0
 41
2.5
 42
1.0
 43
12.0
 44
1.0
 45
0.0
 46
0.0
 47
0.1
 48
0.1
140
3.2
141
0.0
142
0.0
143
0.0393701
144
1.0
145
0.0
146
0.71
147
1.5
 71
     0
 72
     0
 73
     0
 74
     0
 75
     0
 76
     0
 77
     3
 78
     8
170
     0
171
     2
172
     1
173
     0
174
     0
175
     0
176
   256
177
   256
178
     2
270
     2
271
     3
272
     3
273
     2
274
     2
340
6B
275
     0
280
     0
281
     0
282
     0
283
     0
284
     0
285
     0
286
     0
287
     3
288
     0
  0
ENDTAB
  0
TABLE
  2
BLOCK_RECORD
  5
1
330
0
100
AcDbSymbolTable
 70
    11
  0
BLOCK_RECORD
  5
1F
102
{ACAD_XDICTIONARY
360
74
102
}
330
1
100
AcDbSymbolTableRecord
100
AcDbBlockTableRecord
  2
*MODEL_SPACE
  0
BLOCK_RECORD
  5
101
102
{ACAD_XDICTIONARY
360
14C1
102
}
330
1
100
AcDbSymbolTableRecord
100
AcDbBlockTableRecord
  2
*PAPER_SPACE
  0
BLOCK_RECORD
  5
59
330
1
100
AcDbSymbolTableRecord
100
AcDbBlockTableRecord
  2
_OPEN30
  0
BLOCK_RECORD
  5
64
330
1
100
AcDbSymbolTableRecord
100
AcDbBlockTableRecord
  2
GENAXEH
  0
BLOCK_RECORD
  5
D15
330
1
100
AcDbSymbolTableRecord
100
AcDbBlockTableRecord
  2
*D5
  0
BLOCK_RECORD
  5
D9D
330
1
100
AcDbSymbolTableRecord
100
AcDbBlockTableRecord
  2
*D6
  0
BLOCK_RECORD
  5
EDF
330
1
100
AcDbSymbolTableRecord
100
AcDbBlockTableRecord
  2
*D7
  0
BLOCK_RECORD
  5
11DD
330
1
100
AcDbSymbolTableRecord
100
AcDbBlockTableRecord
  2
*D8
  0
BLOCK_RECORD
  5
1272
330
1
100
AcDbSymbolTableRecord
100
AcDbBlockTableRecord
  2
*D9
  0
BLOCK_RECORD
  5
13F4
330
1
100
AcDbSymbolTableRecord
100
AcDbBlockTableRecord
  2
*D10
  0
ENDTAB
  0
ENDSEC
  0
SECTION
  2
BLOCKS
  0
BLOCK
  5
20
330
1F
100
AcDbEntity
  8
0
100
AcDbBlockBegin
  2
*MODEL_SPACE
 70
     0
 10
0.0
 20
0.0
 30
0.0
  3
*MODEL_SPACE
  1

  0
ENDBLK
  5
21
330
1F
100
AcDbEntity
  8
0
100
AcDbBlockEnd
  0
BLOCK
  5
103
330
101
100
AcDbEntity
 67
     1
  8
0
100
AcDbBlockBegin
  2
*PAPER_SPACE
 70
     0
 10
0.0
 20
0.0
 30
0.0
  3
*PAPER_SPACE
  1

  0
ENDBLK
  5
104
330
101
100
AcDbEntity
 67
     1
  8
0
100
AcDbBlockEnd
  0
BLOCK
  5
5D
330
59
100
AcDbEntity
  8
0
100
AcDbBlockBegin
  2
_OPEN30
 70
     0
 10
0.0
 20
0.0
 30
0.0
  3
_OPEN30
  1

  0
LINE
  5
5A
330
59
100
AcDbEntity
  8
0
 62
     0
100
AcDbLine
 10
-1.0
 20
0.26794919
 30
0.0
 11
0.0
 21
0.0
 31
0.0
  0
LINE
  5
5B
330
59
100
AcDbEntity
  8
0
 62
     0
100
AcDbLine
 10
0.0
 20
0.0
 30
0.0
 11
-1.0
 21
-0.26794919
 31
0.0
  0
LINE
  5
5C
330
59
100
AcDbEntity
  8
0
 62
     0
100
AcDbLine
 10
0.0
 20
0.0
 30
0.0
 11
-1.0
 21
0.0
 31
0.0
  0
ENDBLK
  5
5E
330
59
100
AcDbEntity
  8
0
100
AcDbBlockEnd
  0
BLOCK
  5
66
330
64
100
AcDbEntity
  8
0
100
AcDbBlockBegin
  2
GENAXEH
 70
     0
 10
0.0
 20
0.0
 30
0.0
  3
GENAXEH
  1

  0
LINE
  5
65
330
64
100
AcDbEntity
  8
0
100
AcDbLine
 10
-1.0
 20
0.0
 30
0.0
 11
1.0
 21
0.0
 31
0.0
  0
ENDBLK
  5
67
330
64
100
AcDbEntity
  8
0
100
AcDbBlockEnd
  0
BLOCK
  5
D1F
330
D15
100
AcDbEntity
  8
0
100
AcDbBlockBegin
  2
*D5
 70
     1
 10
0.0
 20
0.0
 30
0.0
  3
*D5
  1

  0
LINE
  5
139D
330
D15
100
AcDbEntity
  8
AM_5
100
AcDbLine
 10
-99.99999999999998
 20
-5.499999999999955
 30
0.0
 11
-99.99999999999998
 21
-43.99999999999999
 31
0.0
  0
LINE
  5
139E
330
D15
100
AcDbEntity
  8
AM_5
100
AcDbLine
 10
-0.0000000000000001
 20
-5.978979152947371
 30
0.0
 11
-0.0000000000000024
 21
-43.99999999999999
 31
0.0
  0
LINE
  5
139F
330
D15
100
AcDbEntity
  8
AM_5
100
AcDbLine
 10
-97.49999999999998
 20
-42.99999999999999
 30
0.0
 11
-2.500000000000002
 21
-42.99999999999999
 31
0.0
  0
INSERT
  5
13A0
330
D15
100
AcDbEntity
  8
AM_5
100
AcDbBlockReference
  2
_OPEN30
 10
-99.99999999999998
 20
-42.99999999999999
 30
0.0
 41
2.5
 42
2.5
 43
2.5
 50
180.0
  0
INSERT
  5
13A1
330
D15
100
AcDbEntity
  8
AM_5
100
AcDbBlockReference
  2
_OPEN30
 10
-0.0000000000000023
 20
-42.99999999999999
 30
0.0
 41
2.5
 42
2.5
 43
2.5
  0
MTEXT
  5
13A2
330
D15
100
AcDbEntity
  8
AM_5
 62
     2
100
AcDbMText
 10
-49.99999999999999
 20
-39.89999999999999
 30
0.0
 40
3.2
 41
0.0
 71
     5
 72
     1
  1
100
  7
ASAMI
1001
ACAD
1000
MTEXTBEGIN
1070
    73
1070
     1
1070
    44
1040
1.0
1070
    74
1070
     0
1000
MTEXTEND
  0
POINT
  5
13A3
330
D15
100
AcDbEntity
  8
DEFPOINTS
 62
     0
100
AcDbPoint
 10
-99.99999999999998
 20
-4.499999999999955
 30
0.0
  0
POINT
  5
13A4
330
D15
100
AcDbEntity
  8
DEFPOINTS
 62
     0
100
AcDbPoint
 10
0.0
 20
-4.978979152947371
 30
0.0
  0
POINT
  5
13A5
330
D15
100
AcDbEntity
  8
DEFPOINTS
 62
     0
100
AcDbPoint
 10
-0.0000000000000023
 20
-42.99999999999999
 30
0.0
  0
ENDBLK
  5
D20
330
D15
100
AcDbEntity
  8
0
100
AcDbBlockEnd
  0
BLOCK
  5
DA7
330
D9D
100
AcDbEntity
  8
0
100
AcDbBlockBegin
  2
*D6
 70
     1
 10
0.0
 20
0.0
 30
0.0
  3
*D6
  1

  0
LINE
  5
13B8
330
D9D
100
AcDbEntity
  8
AM_5
100
AcDbLine
 10
-15.0
 20
-6.000000000000009
 30
0.0
 11
-15.0
 21
-19.99999999999999
 31
0.0
  0
LINE
  5
13B9
330
D9D
100
AcDbEntity
  8
AM_5
100
AcDbLine
 10
-0.0000000000000001
 20
-5.978979152947371
 30
0.0
 11
-0.0000000000000009
 21
-19.99999999999999
 31
0.0
  0
LINE
  5
13BA
330
D9D
100
AcDbEntity
  8
AM_5
100
AcDbLine
 10
-12.5
 20
-18.99999999999998
 30
0.0
 11
-2.5
 21
-18.99999999999998
 31
0.0
  0
INSERT
  5
13BB
330
D9D
100
AcDbEntity
  8
AM_5
100
AcDbBlockReference
  2
_OPEN30
 10
-15.0
 20
-18.99999999999998
 30
0.0
 41
2.5
 42
2.5
 43
2.5
 50
180.0
  0
INSERT
  5
13BC
330
D9D
100
AcDbEntity
  8
AM_5
100
AcDbBlockReference
  2
_OPEN30
 10
-0.0000000000000009
 20
-18.99999999999998
 30
0.0
 41
2.5
 42
2.5
 43
2.5
  0
MTEXT
  5
13BD
330
D9D
100
AcDbEntity
  8
AM_5
 62
     2
100
AcDbMText
 10
-7.500000000000001
 20
-15.89999999999998
 30
0.0
 40
3.2
 41
0.0
 71
     5
 72
     1
  1
15
  7
ASAMI
1001
ACAD
1000
MTEXTBEGIN
1070
    73
1070
     1
1070
    44
1040
1.0
1070
    74
1070
     0
1000
MTEXTEND
  0
POINT
  5
13BE
330
D9D
100
AcDbEntity
  8
DEFPOINTS
 62
     0
100
AcDbPoint
 10
-15.0
 20
-5.000000000000009
 30
0.0
  0
POINT
  5
13BF
330
D9D
100
AcDbEntity
  8
DEFPOINTS
 62
     0
100
AcDbPoint
 10
0.0
 20
-4.978979152947371
 30
0.0
  0
POINT
  5
13C0
330
D9D
100
AcDbEntity
  8
DEFPOINTS
 62
     0
100
AcDbPoint
 10
-0.0000000000000009
 20
-18.99999999999998
 30
0.0
  0
ENDBLK
  5
DA8
330
D9D
100
AcDbEntity
  8
0
100
AcDbBlockEnd
  0
BLOCK
  5
EE9
330
EDF
100
AcDbEntity
  8
0
100
AcDbBlockBegin
  2
*D7
 70
     1
 10
0.0
 20
0.0
 30
0.0
  3
*D7
  1

  0
LINE
  5
13C1
330
EDF
100
AcDbEntity
  8
AM_5
100
AcDbLine
 10
1.0
 20
-5.0
 30
0.0
 11
15.00000000000011
 21
-5.000000000000004
 31
0.0
  0
LINE
  5
13C2
330
EDF
100
AcDbEntity
  8
AM_5
100
AcDbLine
 10
1.0
 20
5.0
 30
0.0
 11
15.00000000000012
 21
4.999999999999995
 31
0.0
  0
LINE
  5
13C3
330
EDF
100
AcDbEntity
  8
AM_5
100
AcDbLine
 10
14.00000000000011
 20
-2.500000000000003
 30
0.0
 11
14.00000000000011
 21
2.499999999999996
 31
0.0
  0
INSERT
  5
13C4
330
EDF
100
AcDbEntity
  8
AM_5
100
AcDbBlockReference
  2
_OPEN30
 10
14.00000000000011
 20
-5.000000000000004
 30
0.0
 41
2.5
 42
2.5
 43
2.5
 50
270.0
  0
INSERT
  5
13C5
330
EDF
100
AcDbEntity
  8
AM_5
100
AcDbBlockReference
  2
_OPEN30
 10
14.00000000000012
 20
4.999999999999995
 30
0.0
 41
2.5
 42
2.5
 43
2.5
 50
90.0
  0
MTEXT
  5
13C6
330
EDF
100
AcDbEntity
  8
AM_5
 62
     2
100
AcDbMText
 10
10.90000000000012
 20
-0.0000000000000014
 30
0.0
 40
3.2
 41
0.0
 71
     5
 72
     1
  1
%%c10
  7
ASAMI
 11
0.0000000000000001
 21
1.0
 31
0.0
1001
ACAD
1000
MTEXTBEGIN
1070
    73
1070
     1
1070
    44
1040
1.0
1070
    74
1070
     0
1000
MTEXTEND
  0
POINT
  5
13C7
330
EDF
100
AcDbEntity
  8
DEFPOINTS
 62
     0
100
AcDbPoint
 10
0.0
 20
-5.0
 30
0.0
  0
POINT
  5
13C8
330
EDF
100
AcDbEntity
  8
DEFPOINTS
 62
     0
100
AcDbPoint
 10
0.0000000000000001
 20
5.0
 30
0.0
  0
POINT
  5
13C9
330
EDF
100
AcDbEntity
  8
DEFPOINTS
 62
     0
100
AcDbPoint
 10
14.00000000000012
 20
4.999999999999995
 30
0.0
  0
ENDBLK
  5
EEA
330
EDF
100
AcDbEntity
  8
0
100
AcDbBlockEnd
  0
BLOCK
  5
11E7
330
11DD
100
AcDbEntity
  8
0
100
AcDbBlockBegin
  2
*D8
 70
     1
 10
0.0
 20
0.0
 30
0.0
  3
*D8
  1

  0
LINE
  5
13AF
330
11DD
100
AcDbEntity
  8
AM_5
100
AcDbLine
 10
-0.0000000000000001
 20
-6.0
 30
0.0
 11
-0.0000000000000017
 21
-31.99999999999999
 31
0.0
  0
LINE
  5
13B0
330
11DD
100
AcDbEntity
  8
AM_5
100
AcDbLine
 10
-42.0
 20
-5.835465539610026
 30
0.0
 11
-42.0
 21
-31.99999999999999
 31
0.0
  0
LINE
  5
13B1
330
11DD
100
AcDbEntity
  8
AM_5
100
AcDbLine
 10
-2.500000000000001
 20
-30.99999999999999
 30
0.0
 11
-39.5
 21
-30.99999999999999
 31
0.0
  0
INSERT
  5
13B2
330
11DD
100
AcDbEntity
  8
AM_5
100
AcDbBlockReference
  2
_OPEN30
 10
-0.0000000000000016
 20
-30.99999999999999
 30
0.0
 41
2.5
 42
2.5
 43
2.5
  0
INSERT
  5
13B3
330
11DD
100
AcDbEntity
  8
AM_5
100
AcDbBlockReference
  2
_OPEN30
 10
-42.0
 20
-30.99999999999999
 30
0.0
 41
2.5
 42
2.5
 43
2.5
 50
180.0
  0
MTEXT
  5
13B4
330
11DD
100
AcDbEntity
  8
AM_5
 62
     2
100
AcDbMText
 10
-21.0
 20
-27.89999999999999
 30
0.0
 40
3.2
 41
0.0
 71
     5
 72
     1
  1
42
  7
ASAMI
1001
ACAD
1000
MTEXTBEGIN
1070
    73
1070
     1
1070
    44
1040
1.0
1070
    74
1070
     0
1000
MTEXTEND
  0
POINT
  5
13B5
330
11DD
100
AcDbEntity
  8
DEFPOINTS
 62
     0
100
AcDbPoint
 10
0.0
 20
-5.0
 30
0.0
  0
POINT
  5
13B6
330
11DD
100
AcDbEntity
  8
DEFPOINTS
 62
     0
100
AcDbPoint
 10
-42.0
 20
-4.835465539610026
 30
0.0
  0
POINT
  5
13B7
330
11DD
100
AcDbEntity
  8
DEFPOINTS
 62
     0
100
AcDbPoint
 10
-42.0
 20
-30.99999999999999
 30
0.0
  0
ENDBLK
  5
11E8
330
11DD
100
AcDbEntity
  8
0
100
AcDbBlockEnd
  0
BLOCK
  5
127C
330
1272
100
AcDbEntity
  8
0
100
AcDbBlockBegin
  2
*D9
 70
     1
 10
0.0
 20
0.0
 30
0.0
  3
*D9
  1

  0
LINE
  5
13A6
330
1272
100
AcDbEntity
  8
AM_5
100
AcDbLine
 10
-100.4999999999999
 20
-4.999999999999955
 30
0.0
 11
-114.4999999999999
 21
-4.999999999999951
 31
0.0
  0
LINE
  5
13A7
330
1272
100
AcDbEntity
  8
AM_5
100
AcDbLine
 10
-100.4999999999999
 20
4.99999999999993
 30
0.0
 11
-114.4999999999999
 21
4.999999999999935
 31
0.0
  0
LINE
  5
13A8
330
1272
100
AcDbEntity
  8
AM_5
100
AcDbLine
 10
-113.4999999999999
 20
-2.499999999999951
 30
0.0
 11
-113.4999999999999
 21
2.499999999999934
 31
0.0
  0
INSERT
  5
13A9
330
1272
100
AcDbEntity
  8
AM_5
100
AcDbBlockReference
  2
_OPEN30
 10
-113.4999999999999
 20
-4.999999999999952
 30
0.0
 41
2.5
 42
2.5
 43
2.5
 50
270.0
  0
INSERT
  5
13AA
330
1272
100
AcDbEntity
  8
AM_5
100
AcDbBlockReference
  2
_OPEN30
 10
-113.4999999999999
 20
4.999999999999934
 30
0.0
 41
2.5
 42
2.5
 43
2.5
 50
90.0
  0
MTEXT
  5
13AB
330
1272
100
AcDbEntity
  8
AM_5
 62
     2
100
AcDbMText
 10
-116.5999999999999
 20
-0.0000000000000264
 30
0.0
 40
3.2
 41
0.0
 71
     5
 72
     1
  1
%%c10
  7
ASAMI
 11
0.0000000000000001
 21
1.0
 31
0.0
1001
ACAD
1000
MTEXTBEGIN
1070
    73
1070
     1
1070
    44
1040
1.0
1070
    74
1070
     0
1000
MTEXTEND
  0
POINT
  5
13AC
330
1272
100
AcDbEntity
  8
DEFPOINTS
 62
     0
100
AcDbPoint
 10
-99.49999999999997
 20
-4.999999999999955
 30
0.0
  0
POINT
  5
13AD
330
1272
100
AcDbEntity
  8
DEFPOINTS
 62
     0
100
AcDbPoint
 10
-99.49999999999997
 20
4.99999999999993
 30
0.0
  0
POINT
  5
13AE
330
1272
100
AcDbEntity
  8
DEFPOINTS
 62
     0
100
AcDbPoint
 10
-113.4999999999999
 20
4.999999999999934
 30
0.0
  0
ENDBLK
  5
127D
330
1272
100
AcDbEntity
  8
0
100
AcDbBlockEnd
  0
BLOCK
  5
13FA
330
13F4
100
AcDbEntity
  8
0
100
AcDbBlockBegin
  2
*D10
 70
     1
 10
0.0
 20
0.0
 30
0.0
  3
*D10
  1

  0
LINE
  5
14C3
330
13F4
100
AcDbEntity
  8
AM_5
100
AcDbLine
 10
11.79973517788981
 20
-18.19130290822443
 30
0.0
 11
1.504872745684497
 21
-6.731700085946025
 31
0.0
  0
MTEXT
  5
14C4
330
13F4
100
AcDbEntity
  8
AM_5
 62
     2
100
AcDbMText
 10
9.79375769463326
 20
-11.31967469568875
 30
0.0
 40
3.2
 41
0.0
 71
     5
 72
     1
  1
R0.5
  7
ASAMI
 11
0.6682909152281661
 21
-0.7439000286486755
 31
0.0
  0
LINE
  5
14C5
330
13F4
100
AcDbEntity
  8
AM_5
100
AcDbLine
 10
-0.4999999999999996
 20
-4.5
 30
0.0
 11
-0.165854542385917
 21
-4.871950014324337
 31
0.0
  0
INSERT
  5
14C6
330
13F4
100
AcDbEntity
  8
AM_5
100
AcDbBlockReference
  2
_OPEN30
 10
-0.165854542385917
 20
-4.871950014324337
 30
0.0
 41
2.5
 42
2.5
 43
2.5
 50
131.935293474657
  0
POINT
  5
14C7
330
13F4
100
AcDbEntity
  8
DEFPOINTS
 62
     0
100
AcDbPoint
 10
-0.165854542385917
 20
-4.871950014324337
 30
0.0
  0
POINT
  5
14C8
330
13F4
100
AcDbEntity
  8
DEFPOINTS
 62
     0
100
AcDbPoint
 10
-0.4999999999999996
 20
-4.5
 30
0.0
  0
ENDBLK
  5
13FB
330
13F4
100
AcDbEntity
  8
0
100
AcDbBlockEnd
  0
ENDSEC
  0
SECTION
  2
ENTITIES
  0
LINE
  5
C55
330
1F
100
AcDbEntity
  8
AM_0
100
AcDbLine
 10
0.0
 20
4.5
 30
0.0
 11
0.0
 21
-4.5
 31
0.0
  0
SPLINE
  5
C56
330
1F
100
AcDbEntity
  8
AM_0
100
AcDbSpline
210
0.0
220
0.0
230
1.0
 70
     8
 71
     3
 72
     8
 73
     4
 74
     0
 42
0.0000000001
 43
0.0000000001
 40
0.5179176998437139
 40
0.5179176998437139
 40
0.5179176998437139
 40
0.5179176998437139
 40
8.999068685365031
 40
8.999068685365031
 40
8.999068685365031
 40
8.999068685365031
 10
-12.83478691101186
 20
4.36825351045559
 30
0.0
 10
-10.06826868071925
 20
4.136460314405044
 30
0.0
 10
-7.782686883793076
 20
2.063036045339177
 30
0.0
 10
-5.49710508686644
 20
-0.0103882237268041
 30
0.0
  0
SPLINE
  5
C57
330
1F
100
AcDbEntity
  8
AM_0
100
AcDbSpline
210
0.0
220
0.0
230
1.0
 70
     8
 71
     3
 72
     8
 73
     4
 74
     0
 42
0.0000000001
 43
0.0000000001
 40
0.5179176998614976
 40
0.5179176998614976
 40
0.5179176998614976
 40
0.5179176998614976
 40
5.514523215700526
 40
5.514523215700526
 40
5.514523215700526
 40
5.514523215700526
 10
-4.984786910994444
 20
4.378641734180862
 30
0.0
 10
-3.354913763736931
 20
4.242082537918977
 30
0.0
 10
-1.891968241649237
 20
3.466313915774722
 30
0.0
 10
-0.4976062055818602
 20
2.427921233177758
 30
0.0
  0
SPLINE
  5
C58
330
1F
100
AcDbEntity
  8
AM_0
100
AcDbSpline
210
0.0
220
0.0
230
1.0
 70
     8
 71
     3
 72
     8
 73
     4
 74
     2
 42
0.0000000001
 43
0.0000000001
 44
0.0000000001
 12
0.9999878186055966
 22
0.0049358525525493
 32
0.0
 40
0.0
 40
0.0
 40
0.0
 40
0.0
 40
9.290285023718857
 40
9.290285023718857
 40
9.290285023718857
 40
9.290285023718857
 10
-8.050000000004501
 20
4.968590929220854
 30
0.0
 10
-4.95327604830688
 20
4.983876088236932
 30
0.0
 10
-2.576638024155736
 20
2.491938044118439
 30
0.0
 10
-0.2000000000045929
 20
-0.0000000000000542
 30
0.0
 11
-8.050000000004501
 21
4.968590929220854
 31
0.0
 11
-0.2000000000045929
 21
-0.0000000000000542
 31
0.0
  0
SPLINE
  5
C59
330
1F
100
AcDbEntity
  8
AM_0
100
AcDbSpline
210
0.0
220
0.0
230
1.0
 70
     8
 71
     3
 72
     8
 73
     4
 74
     0
 42
0.0000000001
 43
0.0000000001
 40
0.8291973398015029
 40
0.8291973398015029
 40
0.8291973398015029
 40
0.8291973398015029
 40
7.918446762666186
 40
7.918446762666186
 40
7.918446762666186
 40
7.918446762666186
 10
-6.162668255467224
 20
4.661477600985338
 30
0.0
 10
-3.887140392789433
 20
4.345819605495253
 30
0.0
 10
-1.968144334387943
 20
2.74477805711115
 30
0.0
 10
-0.1022309382885851
 20
0.9523606475873434
 30
0.0
  0
SPLINE
  5
C5A
330
1F
100
AcDbEntity
  8
AM_0
100
AcDbSpline
210
0.0
220
0.0
230
1.0
 70
     8
 71
     3
 72
     8
 73
     4
 74
     0
 42
0.0000000001
 43
0.0000000001
 40
0.829197339801526
 40
0.829197339801526
 40
0.829197339801526
 40
0.829197339801526
 40
9.158576263912857
 40
9.158576263912857
 40
9.158576263912857
 40
9.158576263912857
 10
-14.01266825546713
 20
4.651089377258418
 30
0.0
 10
-11.33908002488738
 20
4.280213012493734
 30
0.0
 10
-9.157670707887291
 20
2.134912394383436
 30
0.0
 10
-6.976261390887657
 20
-0.0103882237268041
 30
0.0
  0
SPLINE
  5
C5C
330
1F
100
AcDbEntity
  8
AM_0
100
AcDbSpline
210
0.0
220
0.0
230
1.0
 70
     8
 71
     3
 72
     8
 73
     4
 74
     0
 42
0.0000000001
 43
0.0000000001
 40
0.131961346043688
 40
0.131961346043688
 40
0.131961346043688
 40
0.131961346043688
 40
2.57750390504933
 40
2.57750390504933
 40
2.57750390504933
 40
2.57750390504933
 10
-0.1735852746330114
 20
4.878752461462091
 30
0.0
 10
-0.0694398364977158
 20
4.144798551566636
 30
0.0
 10
-1.04122280897324
 20
3.688691004791954
 30
0.0
 10
-2.087022525578277
 20
3.458229367111132
 30
0.0
  0
SPLINE
  5
C5E
330
1F
100
AcDbEntity
  8
AM_0
100
AcDbSpline
210
0.0
220
0.0
230
1.0
 70
     8
 71
     3
 72
     8
 73
     4
 74
     0
 42
0.0000000001
 43
0.0000000001
 40
0.1577626420591409
 40
0.1577626420591409
 40
0.1577626420591409
 40
0.1577626420591409
 40
3.514580779201212
 40
3.514580779201212
 40
3.514580779201212
 40
3.514580779201212
 10
-0.3520230078305728
 20
4.977601099023542
 30
0.0
 10
-1.467305409587863
 20
4.952617427823973
 30
0.0
 10
-2.485054289745815
 20
4.605858789275501
 30
0.0
 10
-3.444356767839735
 20
4.055599193704611
 30
0.0
  0
SPLINE
  5
C5F
330
1F
100
AcDbEntity
  8
AM_0
100
AcDbSpline
210
0.0
220
0.0
230
1.0
 70
     8
 71
     3
 72
     8
 73
     4
 74
     0
 42
0.0000000001
 43
0.0000000001
 40
0.0
 40
0.0
 40
0.0
 40
0.0
 40
3.514580779201212
 40
3.514580779201212
 40
3.514580779201212
 40
3.514580779201212
 10
-8.059907577110607
 20
4.978979152947661
 30
0.0
 10
-9.231420232679511
 20
4.984761637117745
 30
0.0
 10
-10.29987688241271
 20
4.631719709965582
 30
0.0
 10
-11.30426434494597
 20
4.055599193704611
 30
0.0
  0
SPLINE
  5
C60
330
1F
100
AcDbEntity
  8
AM_0
100
AcDbSpline
210
0.0
220
0.0
230
1.0
 70
     8
 71
     3
 72
     8
 73
     4
 74
     0
 42
0.0000000001
 43
0.0000000001
 40
0.0
 40
0.0
 40
0.0
 40
0.0
 40
0.0001935953510688
 40
0.0001935953510688
 40
0.0001935953510688
 40
0.0001935953510688
 10
-5.49710508686644
 20
4.400083772374958
 30
0.0
 10
-5.497040555082776
 20
4.400083772374958
 30
0.0
 10
-5.496976023564911
 20
4.400083771356778
 30
0.0
 10
-5.496911492313074
 20
4.400083769320477
 30
0.0
  0
SPLINE
  5
C61
330
1F
100
AcDbEntity
  8
AM_0
100
AcDbSpline
210
0.0
220
0.0
230
1.0
 70
     8
 71
     3
 72
     8
 73
     4
 74
     0
 42
0.0000000001
 43
0.0000000001
 40
0.0
 40
0.0
 40
0.0
 40
0.0
 40
0.0001935953510984
 40
0.0001935953510984
 40
0.0001935953510984
 40
0.0001935953510984
 10
-13.34710508686635
 20
4.389695548648151
 30
0.0
 10
-13.34704055508268
 20
4.389695548648151
 30
0.0
 10
-13.34697602356482
 20
4.389695547629972
 30
0.0
 10
-13.34691149231298
 20
4.38969554559367
 30
0.0
  0
SPLINE
  5
C62
330
1F
100
AcDbEntity
  8
AM_0
100
AcDbSpline
210
0.0
220
0.0
230
1.0
 70
     8
 71
     3
 72
     8
 73
     4
 74
     0
 42
0.0000000001
 43
0.0000000001
 40
0.0
 40
0.0
 40
0.0
 40
0.0
 40
2.142709433955016
 40
2.142709433955016
 40
2.142709433955016
 40
2.142709433955016
 10
-13.35701266397245
 20
-4.400083772375009
 30
0.0
 10
-12.64277618598748
 20
-4.400083772375009
 30
0.0
 10
-11.96111193284218
 20
-4.275356225821437
 30
0.0
 10
-11.30426434494597
 20
-4.055599193704606
 30
0.0
  0
SPLINE
  5
C63
330
1F
100
AcDbEntity
  8
AM_0
100
AcDbSpline
210
0.0
220
0.0
230
1.0
 70
     8
 71
     3
 72
     8
 73
     4
 74
     2
 42
0.0000000001
 43
0.0000000001
 44
0.0000000001
 12
-1.0
 22
0.0000000000000001
 32
0.0
 40
0.0
 40
0.0
 40
0.0
 40
0.0
 40
8.999068685365116
 40
8.999068685365116
 40
8.999068685365116
 40
8.999068685365116
 10
-5.507012663972545
 20
-4.410471996101702
 30
0.0
 10
-8.506702225760918
 20
-4.410471996101702
 30
0.0
 10
-10.9318574448668
 20
-2.210430109914252
 30
0.0
 10
-13.35701266397268
 20
-0.0103882237268041
 30
0.0
 11
-5.507012663972545
 21
-4.410471996101702
 31
0.0
 11
-13.35701266397268
 21
-0.0103882237268041
 31
0.0
  0
SPLINE
  5
C64
330
1F
100
AcDbEntity
  8
AM_0
100
AcDbSpline
210
0.0
220
0.0
230
1.0
 70
     8
 71
     3
 72
     8
 73
     4
 74
     2
 42
0.0000000001
 43
0.0000000001
 44
0.0000000001
 12
-1.0
 22
0.0000000000000001
 32
0.0
 40
0.0
 40
0.0
 40
0.0
 40
0.0
 40
9.158576263912731
 40
9.158576263912731
 40
9.158576263912731
 40
9.158576263912731
 10
-6.986168967993535
 20
-4.728122762878737
 30
0.0
 10
-10.03902772263111
 20
-4.728122762878737
 30
0.0
 10
-12.43759834531227
 20
-2.36925549330277
 30
0.0
 10
-14.83616896799344
 20
-0.0103882237268041
 30
0.0
 11
-6.986168967993535
 21
-4.728122762878737
 31
0.0
 11
-14.83616896799344
 21
-0.0103882237268041
 31
0.0
  0
SPLINE
  5
C65
330
1F
100
AcDbEntity
  8
AM_0
100
AcDbSpline
210
0.0
220
0.0
230
1.0
 70
     8
 71
     3
 72
     8
 73
     4
 74
     0
 42
0.0000000001
 43
0.0000000001
 40
0.0
 40
0.0
 40
0.0
 40
0.0
 40
8.399619336653909
 40
8.399619336653909
 40
8.399619336653909
 40
8.399619336653909
 10
-8.059907577110607
 20
-4.978979152947712
 30
0.0
 10
-10.85974658297004
 20
-4.992798913795465
 30
0.0
 10
-13.07095143590936
 20
-2.957089375568156
 30
0.0
 10
-15.22572354852923
 20
-0.7248901261361853
 30
0.0
  0
SPLINE
  5
C66
330
1F
100
AcDbEntity
  8
AM_0
100
AcDbSpline
210
0.0
220
0.0
230
1.0
 70
     8
 71
     3
 72
     8
 73
     4
 74
     0
 42
0.0000000001
 43
0.0000000001
 40
0.0
 40
0.0
 40
0.0
 40
0.0
 40
2.142709433955016
 40
2.142709433955016
 40
2.142709433955016
 40
2.142709433955016
 10
-5.49710508686644
 20
-4.400083772374952
 30
0.0
 10
-4.782868608881472
 20
-4.400083772374952
 30
0.0
 10
-4.101204355735944
 20
-4.27535622582138
 30
0.0
 10
-3.444356767839735
 20
-4.055599193704606
 30
0.0
  0
SPLINE
  5
C67
330
1F
100
AcDbEntity
  8
AM_0
100
AcDbSpline
210
0.0
220
0.0
230
1.0
 70
     8
 71
     3
 72
     8
 73
     4
 74
     0
 42
0.0000000001
 43
0.0000000001
 40
2.924396646875711
 40
2.924396646875711
 40
2.924396646875711
 40
2.924396646875711
 40
8.999068685365031
 40
8.999068685365031
 40
8.999068685365031
 40
8.999068685365031
 10
-0.4092001992573842
 20
-3.788977078336583
 30
0.0
 10
-2.222983483048437
 20
-2.980591785182522
 30
0.0
 10
-3.860044284957439
 20
-1.495490004454663
 30
0.0
 10
-5.49710508686644
 20
-0.0103882237267472
 30
0.0
  0
SPLINE
  5
C68
330
1F
100
AcDbEntity
  8
AM_0
100
AcDbSpline
210
0.0
220
0.0
230
1.0
 70
     8
 71
     3
 72
     8
 73
     4
 74
     0
 42
0.0000000001
 43
0.0000000001
 40
1.045144398564957
 40
1.045144398564957
 40
1.045144398564957
 40
1.045144398564957
 40
9.158576263912857
 40
9.158576263912857
 40
9.158576263912857
 40
9.158576263912857
 10
-0.1468165834944557
 20
-4.639472716688996
 30
0.0
 10
-2.726552973209209
 20
-4.189751548245792
 30
0.0
 10
-4.851407182048433
 20
-2.100069885986212
 30
0.0
 10
-6.976261390887657
 20
-0.0103882237267472
 30
0.0
  0
SPLINE
  5
C69
330
1F
100
AcDbEntity
  8
AM_0
100
AcDbSpline
210
0.0
220
0.0
230
1.0
 70
     8
 71
     3
 72
     8
 73
     4
 74
     0
 42
0.0000000001
 43
0.0000000001
 40
0.2399273498648315
 40
0.2399273498648315
 40
0.2399273498648315
 40
0.2399273498648315
 40
9.301544263074314
 40
9.301544263074314
 40
9.301544263074314
 40
9.301544263074314
 10
-0.4384883202849587
 20
-4.99620188760209
 30
0.0
 10
-3.422987876187161
 20
-4.886205109424513
 30
0.0
 10
-5.736493938095831
 20
-2.448296666575658
 30
0.0
 10
-8.050000000004501
 20
-0.0103882237268041
 30
0.0
  0
LINE
  5
C6A
330
1F
100
AcDbEntity
  8
AM_0
100
AcDbLine
 10
-0.1144956667651513
 20
-4.68026192573927
 30
0.0
 11
-0.1144956667651513
 21
-1.566164549011031
 31
0.0
  0
LINE
  5
C6B
330
1F
100
AcDbEntity
  8
AM_0
100
AcDbLine
 10
-0.0987199288395004
 20
-1.534468064512904
 30
0.0
 11
0.0
 21
-1.228042921378741
 31
0.0
  0
LINE
  5
C6C
330
1F
100
AcDbEntity
  8
AM_0
100
AcDbLine
 10
0.0
 20
-0.1276522117693135
 30
0.0
 11
-0.0987199288395004
 21
0.9392573819372413
 31
0.0
  0
LINE
  5
C6D
330
1F
100
AcDbEntity
  8
AM_0
100
AcDbLine
 10
-0.0987199288395004
 20
-1.534468064512904
 30
0.0
 11
-0.4100525377527902
 21
-2.159995013472323
 31
0.0
  0
LINE
  5
C6E
330
1F
100
AcDbEntity
  8
AM_0
100
AcDbLine
 10
0.0
 20
-0.1276522117693135
 30
0.0
 11
-1.395157252788294
 21
-0.00180108716921
 31
0.0
  0
LINE
  5
C6F
330
1F
100
AcDbEntity
  8
AM_0
100
AcDbLine
 10
-0.0987199288395004
 20
0.9392573819372413
 30
0.0
 11
-0.4976062055809507
 21
2.427921233178667
 31
0.0
  0
LINE
  5
C70
330
1F
100
AcDbEntity
  8
AM_0
100
AcDbLine
 10
-0.1144956667651513
 20
-4.68026192573927
 30
0.0
 11
-0.1732568011937019
 21
-4.606104988412366
 31
0.0
  0
LINE
  5
C71
330
1F
100
AcDbEntity
  8
AM_0
100
AcDbLine
 10
-0.081223269324439
 20
-4.773177689141497
 30
0.0
 11
-0.1144956667651513
 21
-4.68026192573927
 31
0.0
  0
LINE
  5
C72
330
1F
100
AcDbEntity
  8
AM_0
100
AcDbLine
 10
-0.2000000000000455
 20
-5.0
 30
0.0
 11
0.0
 21
-5.0
 31
0.0
  0
LINE
  5
C73
330
1F
100
AcDbEntity
  8
AM_0
100
AcDbLine
 10
-0.1732568011937019
 20
-4.606104988412366
 30
0.0
 11
-0.4092001992573842
 21
-3.788977078336583
 31
0.0
  0
SPLINE
  5
C74
330
1F
100
AcDbEntity
  8
AM_0
100
AcDbSpline
210
0.0
220
0.0
230
1.0
 70
     8
 71
     3
 72
     8
 73
     4
 74
     2
 42
0.0000000001
 43
0.0000000001
 44
0.0000000001
 12
0.2968072260726871
 22
-0.9549374170860815
 32
0.0
 13
-0.1104733016500219
 23
-0.9938790920542315
 33
0.0
 40
0.0
 40
0.0
 40
0.0
 40
0.0
 40
1.628982287863077
 40
1.628982287863077
 40
1.628982287863077
 40
1.628982287863077
 10
-0.4100525377464237
 20
-2.159995013459647
 30
0.0
 10
-0.2488879663523638
 20
-2.678520392943294
 30
0.0
 10
-0.3492138487008373
 20
-3.249306599258656
 30
0.0
 10
-0.4092001992573842
 20
-3.788977078336583
 30
0.0
 11
-0.4100525377464237
 21
-2.159995013459647
 31
0.0
 11
-0.4092001992573842
 21
-3.788977078336583
 31
0.0
  0
SPLINE
  5
C75
330
1F
100
AcDbEntity
  8
AM_0
100
AcDbSpline
210
0.0
220
0.0
230
1.0
 70
     8
 71
     3
 72
     8
 73
     4
 74
     0
 42
0.0000000001
 43
0.0000000001
 40
9.141233629465322
 40
9.141233629465322
 40
9.141233629465322
 40
9.141233629465322
 40
9.290285023718936
 40
9.290285023718936
 40
9.290285023718936
 40
9.290285023718936
 10
-0.0856061727176894
 20
-0.1199300477709899
 30
0.0
 10
-0.1237394309839601
 20
-0.079960267940348
 30
0.0
 10
-0.1618697154942765
 20
-0.0399801339701726
 30
0.0
 10
-0.2000000000045929
 20
0.0000000000000027
 30
0.0
  0
SPLINE
  5
C76
330
1F
100
AcDbEntity
  8
AM_0
100
AcDbSpline
210
0.0
220
0.0
230
1.0
 70
     8
 71
     3
 72
     9
 73
     5
 74
     3
 42
0.0000000001
 43
0.0000000001
 44
0.0000000001
 12
-0.9959561288896111
 22
0.0898409112109892
 32
0.0
 13
0.5961652186767444
 23
-0.8028617764223863
 33
0.0
 40
0.0
 40
0.0
 40
0.0
 40
0.0
 40
0.6574415203966847
 40
3.123721247379659
 40
3.123721247379659
 40
3.123721247379659
 40
3.123721247379659
 10
-1.395157252788294
 20
-0.00180108716921
 30
0.0
 10
-1.613418223330155
 20
0.0178872945842488
 30
0.0
 10
-2.857120116177931
 20
-0.6477162704122174
 30
0.0
 10
-0.9001559353377322
 20
-1.4999677725523
 30
0.0
 10
-0.4100525377527902
 20
-2.159995013472323
 30
0.0
 11
-1.395157252788294
 21
-0.00180108716921
 31
0.0
 11
-1.99515725278843
 21
-0.2705562782657553
 31
0.0
 11
-0.4100525377527902
 21
-2.159995013472323
 31
0.0
  0
SPLINE
  5
C77
330
1F
100
AcDbEntity
  8
AM_0
100
AcDbSpline
210
0.0
220
0.0
230
1.0
 70
     8
 71
     3
 72
     8
 73
     4
 74
     0
 42
0.0000000001
 43
0.0000000001
 40
0.0
 40
0.0
 40
0.0
 40
0.0
 40
2.085529961854907
 40
2.085529961854907
 40
2.085529961854907
 40
2.085529961854907
 10
-6.97626139088743
 20
-4.717734539151988
 30
0.0
 10
-6.281084736935781
 20
-4.717734539151988
 30
0.0
 10
-5.6198351235073
 20
-4.595419336514905
 30
0.0
 10
-4.984786910994671
 20
-4.378641734180857
 30
0.0
  0
SPLINE
  5
C78
330
1F
100
AcDbEntity
  8
AM_0
100
AcDbSpline
210
0.0
220
0.0
230
1.0
 70
     8
 71
     3
 72
     8
 73
     4
 74
     0
 42
0.0000000001
 43
0.0000000001
 40
0.0
 40
0.0
 40
0.0
 40
0.0
 40
1.978364719412732
 40
1.978364719412732
 40
1.978364719412732
 40
1.978364719412732
 10
-8.050000000004501
 20
-4.968590929220849
 30
0.0
 10
-7.390553126613895
 20
-4.971845901404262
 30
0.0
 10
-6.763760446902551
 20
-4.861404231366916
 30
0.0
 10
-6.162668255515882
 20
-4.661477601001476
 30
0.0
  0
POLYLINE
  5
C79
330
1F
100
AcDbEntity
  8
AM_0
100
AcDb2dPolyline
 66
     1
 10
0.0
 20
0.0
 30
0.0
 70
     2
  0
VERTEX
  5
C7A
330
C79
100
AcDbEntity
  8
AM_0
100
AcDbVertex
100
AcDb2dVertex
 10
-15.0
 20
-4.192254833406434
 30
0.0
 42
-0.0230041772467715
  0
VERTEX
  5
C7B
330
C79
100
AcDbEntity
  8
AM_0
100
AcDbVertex
100
AcDb2dVertex
 10
-15.80140926470517
 20
-3.637731737825458
 30
0.0
 42
-0.0405369427811071
 70
     1
  0
VERTEX
  5
C7C
330
C79
100
AcDbEntity
  8
AM_0
100
AcDbVertex
100
AcDb2dVertex
 10
-16.21312499999999
 20
-3.267554561062024
 30
0.0
 42
-0.0218730450044702
  0
VERTEX
  5
C7D
330
C79
100
AcDbEntity
  8
AM_0
100
AcDbVertex
100
AcDb2dVertex
 10
-17.21668238567326
 20
-2.108701555824109
 30
0.0
 42
-0.0311955358087158
 70
     1
  0
VERTEX
  5
C7E
330
C79
100
AcDbEntity
  8
AM_0
100
AcDbVertex
100
AcDb2dVertex
 10
-17.83062500000005
 20
-1.225769821477922
 30
0.0
 42
-0.0495171753539275
  0
VERTEX
  5
C7F
330
C79
100
AcDbEntity
  8
AM_0
100
AcDbVertex
100
AcDb2dVertex
 10
-18.1738699711434
 20
-0.5083806395129616
 30
0.0
 42
-0.0980887089957094
 70
     1
  0
VERTEX
  5
C80
330
C79
100
AcDbEntity
  8
AM_0
100
AcDbVertex
100
AcDb2dVertex
 10
-18.2349999999999
 20
-0.1086853542382871
 30
0.0
 42
-0.1602936925217278
  0
VERTEX
  5
C81
330
C79
100
AcDbEntity
  8
AM_0
100
AcDbVertex
100
AcDb2dVertex
 10
-18.12739315128555
 20
0.1757554878011431
 30
0.0
 42
-0.1317128335817564
 70
     1
  0
VERTEX
  5
C82
330
C79
100
AcDbEntity
  8
AM_0
100
AcDbVertex
100
AcDb2dVertex
 10
-17.83062500000005
 20
0.3918271196990188
 30
0.0
 42
-0.1572941928372058
  0
VERTEX
  5
C83
330
C79
100
AcDbEntity
  8
AM_0
100
AcDbVertex
100
AcDb2dVertex
 10
-17.41861283045705
 20
0.4146659716061434
 30
0.0
 42
-0.0493803804385245
 70
     1
  0
VERTEX
  5
C84
330
C79
100
AcDbEntity
  8
AM_0
100
AcDbVertex
100
AcDb2dVertex
 10
-16.21312499999999
 20
-0.0326761139263114
 30
0.0
 42
-0.0494001655057179
  0
VERTEX
  5
C85
330
C79
100
AcDbEntity
  8
AM_0
100
AcDbVertex
100
AcDb2dVertex
 10
-15.57644039244428
 20
-0.4254326823350541
 30
0.0
 42
-0.0470909004785133
 70
     1
  0
VERTEX
  5
C86
330
C79
100
AcDbEntity
  8
AM_0
100
AcDbVertex
100
AcDb2dVertex
 10
-15.0
 20
-0.9576918214889476
 30
0.0
  0
SEQEND
  5
C87
330
C79
100
AcDbEntity
  8
AM_0
  0
LINE
  5
C88
330
1F
100
AcDbEntity
  8
AM_0
100
AcDbLine
 10
-15.0
 20
-0.9576918213902532
 30
0.0
 11
-15.0
 21
0.1506954965639151
 31
0.0
  0
SPLINE
  5
C89
330
1F
100
AcDbEntity
  8
AM_0
100
AcDbSpline
210
0.0
220
0.0
230
1.0
 70
     8
 71
     3
 72
     8
 73
     4
 74
     0
 42
0.0000000001
 43
0.0000000001
 40
0.0
 40
0.0
 40
0.0
 40
0.0
 40
1.690066516727341
 40
1.690066516727341
 40
1.690066516727341
 40
1.690066516727341
 10
-13.36692024107856
 20
-4.410471996101702
 30
0.0
 10
-13.93027574665461
 20
-4.410471996101702
 30
0.0
 10
-14.47336709922888
 20
-4.332875267622509
 30
0.0
 10
-15.0
 20
-4.192254833406363
 30
0.0
  0
SPLINE
  5
C8C
330
1F
100
AcDbEntity
  8
AM_0
100
AcDbSpline
210
0.0
220
0.0
230
1.0
 70
     8
 71
     3
 72
     8
 73
     4
 74
     0
 42
0.0000000001
 43
0.0000000001
 40
8.950064817795073
 40
8.950064817795073
 40
8.950064817795073
 40
8.950064817795073
 40
9.158576263912857
 40
9.158576263912857
 40
9.158576263912857
 40
9.158576263912857
 10
-15.00000000000022
 20
0.1506954965635172
 30
0.0
 10
-14.94538450864934
 20
0.0970194805726719
 30
0.0
 10
-14.89077673832139
 20
0.0433156284229339
 30
0.0
 10
-14.83616896799344
 20
-0.0103882237268041
 30
0.0
  0
SPLINE
  5
C8D
330
1F
100
AcDbEntity
  8
AM_0
100
AcDbSpline
210
0.0
220
0.0
230
1.0
 70
     8
 71
     3
 72
     8
 73
     4
 74
     0
 42
0.0000000001
 43
0.0000000001
 40
6.974934265298577
 40
6.974934265298577
 40
6.974934265298577
 40
6.974934265298577
 40
8.999068685365031
 40
8.999068685365031
 40
8.999068685365031
 40
8.999068685365031
 10
-15.00000000000204
 20
1.449123397048484
 30
0.0
 10
-14.44797892384326
 20
0.9793098579563119
 30
0.0
 10
-13.90249579390797
 20
0.4844608171147824
 30
0.0
 10
-13.35701266397268
 20
-0.0103882237268041
 30
0.0
  0
LINE
  5
C8E
330
1F
100
AcDbEntity
  8
AM_11
100
AcDbLine
 10
0.0
 20
-5.0
 30
0.0
 11
-15.0
 21
-5.000000000000009
 31
0.0
  0
LINE
  5
C8F
330
1F
100
AcDbEntity
  8
AM_11
100
AcDbLine
 10
-15.0
 20
4.99999999999999
 30
0.0
 11
0.0000000000000001
 21
5.0
 31
0.0
  0
LINE
  5
CF8
330
1F
100
AcDbEntity
  8
AM_11
100
AcDbLine
 10
-15.0
 20
4.99999999999999
 30
0.0
 11
-15.0
 21
-5.000000000000009
 31
0.0
  0
LINE
  5
CFE
330
1F
100
AcDbEntity
  8
AM_0
100
AcDbLine
 10
-100.0
 20
4.499999999999937
 30
0.0
 11
-99.99999999999996
 21
-4.500000000000009
 31
0.0
  0
DIMENSION
  5
D13
330
1F
100
AcDbEntity
  8
AM_5
100
AcDbDimension
  2
*D5
 10
-0.0000000000000023
 20
-42.99999999999999
 30
0.0
 11
-49.99999999999999
 21
-39.89999999999999
 31
0.0
 70
    32
  1
<>
  3
AM_JIS
100
AcDbAlignedDimension
 13
-99.99999999999998
 23
-4.499999999999955
 33
0.0
 14
0.0
 24
-4.978979152947371
 34
0.0
 50
0.0000000000001132
100
AcDbRotatedDimension
1001
GENIUS_GENDTOL_13
1000

1000
h7
1000

1040
0.0
  0
DIMENSION
  5
D9C
330
1F
100
AcDbEntity
  8
AM_5
100
AcDbDimension
  2
*D6
 10
-0.0000000000000009
 20
-18.99999999999998
 30
0.0
 11
-7.500000000000001
 21
-15.89999999999998
 31
0.0
 70
    32
  1
<>
  3
AM_JIS
100
AcDbAlignedDimension
 13
-15.0
 23
-5.000000000000009
 33
0.0
 14
0.0
 24
-4.978979152947371
 34
0.0
 50
0.0000000000001132
100
AcDbRotatedDimension
1001
GENIUS_GENDTOL_13
1000

1000
h7
1000

1040
0.0
  0
LINE
  5
E4A
330
1F
100
AcDbEntity
  8
AM_0
100
AcDbLine
 10
-42.0
 20
4.864534460389952
 30
0.0
 11
-42.00000000000001
 21
-4.835465539610027
 31
0.0
  0
DIMENSION
  5
EDE
330
1F
100
AcDbEntity
  8
AM_5
100
AcDbDimension
  2
*D7
 10
14.00000000000012
 20
4.999999999999995
 30
0.0
 11
14.00000000000011
 21
-0.0000000000000017
 31
0.0
 70
   160
  1
%%c<>
  3
AM_JIS
100
AcDbAlignedDimension
 13
0.0
 23
-5.0
 33
0.0
 14
0.0000000000000001
 24
5.0
 34
0.0
 50
89.99999999999884
100
AcDbRotatedDimension
1001
GENIUS_GENDTOL_13
1000

1000
h7
1000

1040
0.0
  0
TEXT
  5
F75
330
1F
100
AcDbEntity
  8
AM_6
100
AcDbText
 10
-85.83333333333332
 20
-65.49999999999998
 30
0.0
 40
5.0
  1
SSUPR4100ZX-R05
 72
     4
 11
-49.99999999999999
 21
-62.99999999999999
 31
0.0
100
AcDbText
  0
SPLINE
  5
F89
330
1F
100
AcDbEntity
  8
AM_0
100
AcDbSpline
210
0.0
220
0.0
230
1.0
 70
     8
 71
     3
 72
     8
 73
     4
 74
     0
 42
0.0000000001
 43
0.0000000001
 40
1.015969964738205
 40
1.015969964738205
 40
1.015969964738205
 40
1.015969964738205
 40
2.085529961854907
 40
2.085529961854907
 40
2.085529961854907
 40
2.085529961854907
 10
-15.0
 20
-4.850000000000009
 30
0.0
 10
-14.51368735265563
 20
-4.787361269965824
 30
0.0
 10
-14.27802844563566
 20
-4.528473697028204
 30
0.0
 10
-13.99100319102015
 20
-4.378641734180864
 30
0.0
  0
SPLINE
  5
F8F
330
1F
100
AcDbEntity
  8
AM_0
100
AcDbSpline
210
0.0
220
0.0
230
1.0
 70
     8
 71
     3
 72
     8
 73
     4
 74
     0
 42
0.0000000001
 43
0.0000000001
 40
0.9308799986946773
 40
0.9308799986946773
 40
0.9308799986946773
 40
0.9308799986946773
 40
9.304213052490601
 40
9.304213052490601
 40
9.304213052490601
 40
9.304213052490601
 10
-15.0
 20
4.910642122166852
 30
0.0
 10
-12.33245231125358
 20
4.494612288701472
 30
0.0
 10
-10.19122615563311
 20
2.247306144350705
 30
0.0
 10
-8.050000000012648
 20
-0.0000000000000613
 30
0.0
  0
LINE
  5
10F8
330
1F
100
AcDbEntity
  8
AM_0
100
AcDbLine
 10
-15.0
 20
4.910642122166851
 30
0.0
 11
-15.06064212216686
 21
4.849999999999989
 31
0.0
  0
POLYLINE
  5
10F9
330
1F
100
AcDbEntity
  8
AM_0
100
AcDb2dPolyline
 66
     1
 10
0.0
 20
0.0
 30
0.0
  0
VERTEX
  5
10FA
330
10F9
100
AcDbEntity
  8
AM_0
100
AcDbVertex
100
AcDb2dVertex
 10
-15.06064212216686
 20
4.849999999999989
 30
0.0
 42
0.03401045001887
  0
VERTEX
  5
10FB
330
10F9
100
AcDbEntity
  8
AM_0
100
AcDbVertex
100
AcDb2dVertex
 10
-17.39930414835203
 20
4.415321859390178
 30
0.0
 42
0.0139461738785528
  0
VERTEX
  5
10FC
330
10F9
100
AcDbEntity
  8
AM_0
100
AcDbVertex
100
AcDb2dVertex
 10
-17.82103305997975
 20
4.298157117497271
 30
0.0
 42
0.0436287246585526
  0
VERTEX
  5
10FD
330
10F9
100
AcDbEntity
  8
AM_0
100
AcDbVertex
100
AcDb2dVertex
 10
-18.18791170396366
 20
4.14902884266512
 30
0.0
 42
0.2738540026404822
  0
VERTEX
  5
10FE
330
10F9
100
AcDbEntity
  8
AM_0
100
AcDbVertex
100
AcDb2dVertex
 10
-18.22403778283387
 20
4.09177828015031
 30
0.0
 42
0.1958299863149157
  0
VERTEX
  5
10FF
330
10F9
100
AcDbEntity
  8
AM_0
100
AcDbVertex
100
AcDb2dVertex
 10
-18.19598328645543
 20
4.016893704502808
 30
0.0
 42
0.028966137260715
  0
VERTEX
  5
1100
330
10F9
100
AcDbEntity
  8
AM_0
100
AcDbVertex
100
AcDb2dVertex
 10
-17.82103305997975
 20
3.655012803420492
 30
0.0
 42
0.0057813111855378
  0
VERTEX
  5
1101
330
10F9
100
AcDbEntity
  8
AM_0
100
AcDbVertex
100
AcDb2dVertex
 10
-17.37800417825769
 20
3.283227762767682
 30
0.0
 42
0.0022201051474406
  0
VERTEX
  5
1102
330
10F9
100
AcDbEntity
  8
AM_0
100
AcDbVertex
100
AcDb2dVertex
 10
-16.20901416856372
 20
2.333685361869572
 30
0.0
 42
0.0115243051902067
  0
VERTEX
  5
1103
330
10F9
100
AcDbEntity
  8
AM_0
100
AcDbVertex
100
AcDb2dVertex
 10
-15.81352445975858
 20
2.030092709454765
 30
0.0
 42
0.0057470741765196
  0
VERTEX
  5
1104
330
10F9
100
AcDbEntity
  8
AM_0
100
AcDbVertex
100
AcDb2dVertex
 10
-14.99999999995589
 20
1.449123397014704
 30
0.0
  0
SEQEND
  5
1105
330
10F9
100
AcDbEntity
  8
AM_0
  0
LINE
  5
11B6
330
1F
100
AcDbEntity
  8
AM_0
100
AcDbLine
 10
-15.06064212216686
 20
4.84999999999999
 30
0.0
 11
-42.0
 21
4.849999999999969
 31
0.0
  0
LINE
  5
11B7
330
1F
100
AcDbEntity
  8
AM_0
100
AcDbLine
 10
-15.0
 20
-4.850000000000009
 30
0.0
 11
-41.99999999999999
 21
-4.850000000000009
 31
0.0
  0
LINE
  5
11C7
330
1F
100
AcDbEntity
  8
AM_0
100
AcDbLine
 10
-42.0
 20
4.849999999999971
 30
0.0
 11
-42.25980762113536
 21
4.99999999999999
 31
0.0
  0
LINE
  5
11C8
330
1F
100
AcDbEntity
  8
AM_0
100
AcDbLine
 10
-42.0
 20
-4.850000000000009
 30
0.0
 11
-42.25980762113532
 21
-5.000000000000007
 31
0.0
  0
DIMENSION
  5
11DC
330
1F
100
AcDbEntity
  8
AM_5
100
AcDbDimension
  2
*D8
 10
-42.0
 20
-30.99999999999999
 30
0.0
 11
-21.0
 21
-27.89999999999999
 31
0.0
 70
    32
  1
<>
  3
AM_JIS
100
AcDbAlignedDimension
 13
0.0
 23
-5.0
 33
0.0
 14
-42.0
 24
-4.835465539610026
 34
0.0
 50
0.0000000000001132
100
AcDbRotatedDimension
1001
GENIUS_GENDTOL_13
1000

1000
h7
1000

1040
0.0
  0
DIMENSION
  5
1271
330
1F
100
AcDbEntity
  8
AM_5
100
AcDbDimension
  2
*D9
 10
-113.4999999999999
 20
4.999999999999934
 30
0.0
 11
-113.4999999999999
 21
-0.0000000000000268
 31
0.0
 70
   160
  1
%%c<>
  3
AM_JIS
100
AcDbAlignedDimension
 13
-99.49999999999997
 23
-4.999999999999955
 33
0.0
 14
-99.49999999999997
 24
4.99999999999993
 34
0.0
 50
270.0
100
AcDbRotatedDimension
1001
GENIUS_GENDTOL_13
1000

1000
h7
1000

1040
0.0
  0
LINE
  5
1385
330
1F
100
AcDbEntity
  8
AM_0
100
AcDbLine
 10
-42.25980762113532
 20
-5.000000000000009
 30
0.0
 11
-42.25980762113536
 21
4.99999999999999
 31
0.0
  0
LINE
  5
1386
330
1F
100
AcDbEntity
  8
AM_0
100
AcDbLine
 10
-42.25980762113536
 20
4.99999999999999
 30
0.0
 11
-99.49999999999999
 21
4.999999999999938
 31
0.0
  0
LINE
  5
1387
330
1F
100
AcDbEntity
  8
AM_0
100
AcDbLine
 10
-99.49999999999995
 20
-5.000000000000009
 30
0.0
 11
-42.25980762113532
 21
-5.000000000000009
 31
0.0
  0
LINE
  5
138F
330
1F
100
AcDbEntity
  8
AM_0
100
AcDbLine
 10
-100.0
 20
4.499999999999937
 30
0.0
 11
-99.49999999999999
 21
4.999999999999938
 31
0.0
1001
GENIUS_GENFIL_13
1070
     0
1040
0.5
1040
0.5
1040
20.0
1040
0.0
1002
{
1002
}
1001
GENIUS_GENODEF_13
1002
{
1000
HIER
1070
     0
1002
}
1002
{
1000
MANEDIT
1070
     0
1002
}
1002
{
1000
NOSEL
1070
     0
1002
}
1002
{
1000
BEHIND
1070
     0
1002
}
1002
{
1000
REACTOR
1002
}
1001
GENIUS_GENOBJ-N-CHA_13
1002
{
1000
OWNER
1000
GEN
1002
}
  0
LINE
  5
1391
330
1F
100
AcDbEntity
  8
AM_0
100
AcDbLine
 10
-99.99999999999996
 20
-4.500000000000009
 30
0.0
 11
-99.49999999999995
 21
-5.000000000000009
 31
0.0
1001
GENIUS_GENFIL_13
1070
     0
1040
0.5
1040
0.5
1040
20.0
1040
0.0
1002
{
1002
}
1001
GENIUS_GENODEF_13
1002
{
1000
HIER
1070
     0
1002
}
1002
{
1000
MANEDIT
1070
     0
1002
}
1002
{
1000
NOSEL
1070
     0
1002
}
1002
{
1000
BEHIND
1070
     0
1002
}
1002
{
1000
REACTOR
1002
}
1001
GENIUS_GENOBJ-N-CHA_13
1002
{
1000
OWNER
1000
GEN
1002
}
  0
LINE
  5
1392
330
1F
100
AcDbEntity
  8
AM_0
100
AcDbLine
 10
-99.49999999999995
 20
-5.000000000000009
 30
0.0
 11
-99.49999999999995
 21
4.999999999999967
 31
0.0
  0
LINE
  5
139A
330
1F
100
AcDbEntity
  8
AM_7
100
AcDbLine
 10
-102.9999999999999
 20
-0.000000000000036
 30
0.0
 11
3.0
 21
-0.000000000000036
 31
0.0
1001
GENIUS_GENODEF_13
1002
{
1000
HIER
1070
     0
1002
}
1002
{
1000
MANEDIT
1070
     0
1002
}
1002
{
1000
NOSEL
1070
     0
1002
}
1002
{
1000
BEHIND
1070
     0
1002
}
1002
{
1000
REACTOR
1002
}
1001
GENIUS_GENOBJ-N-CEN_13
1002
{
1000
OWNER
1000
GEN
1002
}
  0
ARC
  5
13E7
330
1F
100
AcDbEntity
  8
AM_0
100
AcDbCircle
 10
-0.5
 20
-4.5
 30
0.0
 40
0.5
100
AcDbArc
 50
277.0666215700262
 51
0.0
  0
ARC
  5
13E8
330
1F
100
AcDbEntity
  8
AM_0
100
AcDbCircle
 10
-0.5
 20
4.5
 30
0.0
 40
0.5
100
AcDbArc
 50
0.0
 51
72.78524874071377
  0
LINE
  5
13EA
330
1F
100
AcDbEntity
  8
AM_11
100
AcDbLine
 10
0.0000000000000001
 20
5.0
 30
0.0
 11
0.0
 21
-5.0
 31
0.0
  0
DIMENSION
  5
13F3
330
1F
100
AcDbEntity
  8
AM_5
100
AcDbDimension
  2
*D10
 10
-0.4999999999999996
 20
-4.5
 30
0.0
 11
9.79375769463326
 21
-11.31967469568875
 31
0.0
 70
    36
  1
<>
  3
AM_JIS$4
100
AcDbRadialDimension
 15
-0.165854542385917
 25
-4.871950014324337
 35
0.0
 40
0.0
1001
GENIUS_GENDTOL_13
1000

1000
h7
1000

1040
0.0
1001
ACAD
1000
DSTYLE
1002
{
1070
   287
1070
     3
1070
   271
1070
     3
1070
   288
1070
     1
1070
   289
1070
     3
1070
   172
1070
     1
1070
    74
1070
     0
1002
}
  0
VIEWPORT
  5
110
330
101
100
AcDbEntity
 67
     1
  8
0
100
AcDbViewport
 10
420.5
 20
297.0
 30
0.0
 40
948.9782706766916
 41
628.452
 68
     1
 69
     1
1001
ACAD
1000
MVIEW
1002
{
1070
    16
1010
0.0
1020
0.0
1030
0.0
1010
0.0
1020
0.0
1030
1.0
1040
0.0
1040
628.452
1040
420.5
1040
297.0
1040
50.0
1040
0.0
1040
0.0
1070
     0
1070
   100
1070
     1
1070
     1
1070
     0
1070
     0
1070
     0
1070
     0
1040
0.0
1040
0.0
1040
0.0
1040
10.0
1040
10.0
1040
10.0
1040
10.0
1070
     0
1002
{
1002
}
1002
}
  0
ENDSEC
  0
SECTION
  2
OBJECTS
  0
DICTIONARY
  5
C
330
0
100
AcDbDictionary
  3
ACAD_GROUP
350
D
  3
ACAD_LAYOUT
350
1A
  3
ACAD_MLINESTYLE
350
17
  3
ACAD_PLOTSETTINGS
350
19
  3
ACAD_PLOTSTYLENAME
350
E
  3
ACDBVARIABLEDICTIONARY
350
34
  3
ACMDICTIONARY
350
43
  3
AMG
350
2B
  3
AMGSNAPSETTINGS
350
6E
  3
DWGPROPS
350
148D
  3
ACDBHEADERROUNDTRIPXREC
350
1499
  0
DICTIONARY
  5
74
330
1F
100
AcDbDictionary
280
     1
  3
ACAD_INDEX
360
148F
  3
ACAD_LAYOUTSELFREF
360
14BC
  0
DICTIONARY
  5
14C1
330
101
100
AcDbDictionary
280
     1
  3
ACAD_LAYOUTSELFREF
360
14C2
  0
DICTIONARY
  5
D
102
{ACAD_REACTORS
330
C
102
}
330
C
100
AcDbDictionary
  0
DICTIONARY
  5
1A
102
{ACAD_REACTORS
330
C
102
}
330
C
100
AcDbDictionary
  0
DICTIONARY
  5
17
102
{ACAD_REACTORS
330
C
102
}
330
C
100
AcDbDictionary
  3
STANDARD
350
18
  0
DICTIONARY
  5
19
102
{ACAD_REACTORS
330
C
102
}
330
C
100
AcDbDictionary
  0
ACDBDICTIONARYWDFLT
  5
E
102
{ACAD_REACTORS
330
C
102
}
330
C
100
AcDbDictionary
281
     1
  3
Normal
350
F
100
AcDbDictionaryWithDefault
340
F
  0
DICTIONARY
  5
34
102
{ACAD_REACTORS
330
C
102
}
330
C
100
AcDbDictionary
  3
INDEXCTL
350
35
  3
SORTENTS
350
B5E
  0
DICTIONARY
  5
43
102
{ACAD_REACTORS
330
C
102
}
330
C
100
AcDbDictionary
  3
ACMSTDDICTIONARY
350
260
  0
DICTIONARY
  5
2B
102
{ACAD_REACTORS
330
C
102
}
330
C
100
AcDbDictionary
  3
ACMGSETTINGS
350
2C
  0
DICTIONARY
  5
6E
102
{ACAD_REACTORS
330
C
102
}
330
C
100
AcDbDictionary
  0
XRECORD
  5
148D
102
{ACAD_REACTORS
330
C
102
}
330
C
100
AcDbXrecord
  1
DWGPROPS COOKIE
  2

  3

  4

  6

  7

  8

  9

300
AmdtFileType=82
301
=
302
=
303
=
304
=
305
=
306
=
307
=
308
=
309
=
 40
0.0361510763888889
 41
2452809.475734583
 42
2452844.565770035
  1

 90
        1
  0
DICTIONARY
  5
1499
102
{ACAD_REACTORS
330
C
102
}
330
C
100
AcDbDictionary
  3
TSTACKALIGN
350
149A
  3
TSTACKSIZE
350
149B
  3
HYPERLINKBASE
350
149C
  3
STYLESHEET
350
149D
  3
LAYOUTDICT
350
149E
  3
PLOTSETDICT
350
149F
  3
PLOTSTYLNAMDICT
350
14A0
  3
LWETCUNION
350
14A1
  3
INSUNITS
350
14A2
  3
CEPSNTYPE
350
14A3
  3
FINGERPRINTGUID
350
14A4
  3
VERSIONGUID
350
14A5
  3
PSVPSCALE
350
14A6
  3
DIMSTYLEDATA
350
14A7
  3
PUCSORTHOREF
350
14A8
  3
PUCSORTHOVIEW
350
14A9
  3
PUCSBASE
350
14AA
  3
PUCSORGTOP
350
14AB
  3
PUCSORGBOTTOM
350
14AC
  3
PUCSORGLEFT
350
14AD
  3
PUCSORGRIGHT
350
14AE
  3
PUCSORGFRONT
350
14AF
  3
PUCSORGBACK
350
14B0
  3
UCSORTHOREF
350
14B1
  3
UCSORTHOVIEW
350
14B2
  3
UCSBASE
350
14B3
  3
UCSORGTOP
350
14B4
  3
UCSORGBOTTOM
350
14B5
  3
UCSORGLEFT
350
14B6
  3
UCSORGRIGHT
350
14B7
  3
UCSORGFRONT
350
14B8
  3
UCSORGBACK
350
14B9
  0
DICTIONARY
  5
148F
102
{ACAD_REACTORS
330
74
102
}
330
74
100
AcDbDictionary
  3
*A1
350
1490
  0
XRECORD
  5
14BC
102
{ACAD_REACTORS
330
74
102
}
330
74
100
AcDbXrecord
340
1F
  0
XRECORD
  5
14C2
102
{ACAD_REACTORS
330
14C1
102
}
330
14C1
100
AcDbXrecord
340
101
  0
MLINESTYLE
  5
18
102
{ACAD_REACTORS
330
17
102
}
330
17
100
AcDbMlineStyle
  2
STANDARD
 70
     0
  3

 62
   256
 51
90.0
 52
90.0
 71
     2
 49
0.5
 62
   256
  6
BYLAYER
 49
-0.5
 62
   256
  6
BYLAYER
  0
ACDBPLACEHOLDER
  5
F
102
{ACAD_REACTORS
330
E
102
}
330
E
100
AcDbPlaceHolder
280
     0
  0
DICTIONARYVAR
  5
35
102
{ACAD_REACTORS
330
34
102
}
330
34
100
DictionaryVariables
280
     0
  1
1
  0
DICTIONARYVAR
  5
B5E
102
{ACAD_REACTORS
330
34
102
}
330
34
100
DictionaryVariables
280
     0
  1
96
  0
DICTIONARY
  5
260
102
{ACAD_REACTORS
330
43
102
}
330
43
100
AcDbDictionary
  0
DICTIONARY
  5
2C
102
{ACAD_REACTORS
330
2B
102
}
330
2B
100
AcDbDictionary
  3
DWGSETTINGS
350
2D
  0
XRECORD
  5
149A
102
{ACAD_REACTORS
330
1499
102
}
330
1499
100
AcDbXrecord
 90
        1
  0
XRECORD
  5
149B
102
{ACAD_REACTORS
330
1499
102
}
330
1499
100
AcDbXrecord
 90
       70
  0
XRECORD
  5
149C
102
{ACAD_REACTORS
330
1499
102
}
330
1499
100
AcDbXrecord
  1

  0
XRECORD
  5
149D
102
{ACAD_REACTORS
330
1499
102
}
330
1499
100
AcDbXrecord
  1
ASAMI.ctb
  0
XRECORD
  5
149E
102
{ACAD_REACTORS
330
1499
102
}
330
1499
100
AcDbXrecord
340
1A
  0
XRECORD
  5
149F
102
{ACAD_REACTORS
330
1499
102
}
330
1499
100
AcDbXrecord
340
19
  0
XRECORD
  5
14A0
102
{ACAD_REACTORS
330
1499
102
}
330
1499
100
AcDbXrecord
340
E
  0
XRECORD
  5
14A1
102
{ACAD_REACTORS
330
1499
102
}
330
1499
100
AcDbXrecord
 90
    10781
  0
XRECORD
  5
14A2
102
{ACAD_REACTORS
330
1499
102
}
330
1499
100
AcDbXrecord
 90
        4
  0
XRECORD
  5
14A3
102
{ACAD_REACTORS
330
1499
102
}
330
1499
100
AcDbXrecord
 90
        0
  0
XRECORD
  5
14A4
102
{ACAD_REACTORS
330
1499
102
}
330
1499
100
AcDbXrecord
  1
{AFB28963-8C59-40AE-9337-C84526B81ACE}
  0
XRECORD
  5
14A5
102
{ACAD_REACTORS
330
1499
102
}
330
1499
100
AcDbXrecord
  1
{254CD6D0-D638-4974-8B4D-1FB0E9A345B0}
  0
XRECORD
  5
14A6
102
{ACAD_REACTORS
330
1499
102
}
330
1499
100
AcDbXrecord
 40
0.0
  0
XRECORD
  5
14A7
102
{ACAD_REACTORS
330
1499
102
}
330
1499
100
AcDbXrecord
1000
DSTYLE
1002
{
1070
    79
 70
     2
1070
   341
340
59
1070
   342
340
59
1070
   371
 70
    -1
1070
   372
 70
    -1
1002
}
  0
XRECORD
  5
14A8
102
{ACAD_REACTORS
330
1499
102
}
330
1499
100
AcDbXrecord
340
0
  0
XRECORD
  5
14A9
102
{ACAD_REACTORS
330
1499
102
}
330
1499
100
AcDbXrecord
 70
     0
  0
XRECORD
  5
14AA
102
{ACAD_REACTORS
330
1499
102
}
330
1499
100
AcDbXrecord
340
0
  0
XRECORD
  5
14AB
102
{ACAD_REACTORS
330
1499
102
}
330
1499
100
AcDbXrecord
 10
0.0
 20
0.0
 30
0.0
  0
XRECORD
  5
14AC
102
{ACAD_REACTORS
330
1499
102
}
330
1499
100
AcDbXrecord
 10
0.0
 20
0.0
 30
0.0
  0
XRECORD
  5
14AD
102
{ACAD_REACTORS
330
1499
102
}
330
1499
100
AcDbXrecord
 10
0.0
 20
0.0
 30
0.0
  0
XRECORD
  5
14AE
102
{ACAD_REACTORS
330
1499
102
}
330
1499
100
AcDbXrecord
 10
0.0
 20
0.0
 30
0.0
  0
XRECORD
  5
14AF
102
{ACAD_REACTORS
330
1499
102
}
330
1499
100
AcDbXrecord
 10
0.0
 20
0.0
 30
0.0
  0
XRECORD
  5
14B0
102
{ACAD_REACTORS
330
1499
102
}
330
1499
100
AcDbXrecord
 10
0.0
 20
0.0
 30
0.0
  0
XRECORD
  5
14B1
102
{ACAD_REACTORS
330
1499
102
}
330
1499
100
AcDbXrecord
340
0
  0
XRECORD
  5
14B2
102
{ACAD_REACTORS
330
1499
102
}
330
1499
100
AcDbXrecord
 70
     0
  0
XRECORD
  5
14B3
102
{ACAD_REACTORS
330
1499
102
}
330
1499
100
AcDbXrecord
340
0
  0
XRECORD
  5
14B4
102
{ACAD_REACTORS
330
1499
102
}
330
1499
100
AcDbXrecord
 10
0.0
 20
0.0
 30
0.0
  0
XRECORD
  5
14B5
102
{ACAD_REACTORS
330
1499
102
}
330
1499
100
AcDbXrecord
 10
0.0
 20
0.0
 30
0.0
  0
XRECORD
  5
14B6
102
{ACAD_REACTORS
330
1499
102
}
330
1499
100
AcDbXrecord
 10
0.0
 20
0.0
 30
0.0
  0
XRECORD
  5
14B7
102
{ACAD_REACTORS
330
1499
102
}
330
1499
100
AcDbXrecord
 10
0.0
 20
0.0
 30
0.0
  0
XRECORD
  5
14B8
102
{ACAD_REACTORS
330
1499
102
}
330
1499
100
AcDbXrecord
 10
0.0
 20
0.0
 30
0.0
  0
XRECORD
  5
14B9
102
{ACAD_REACTORS
330
1499
102
}
330
1499
100
AcDbXrecord
 10
0.0
 20
0.0
 30
0.0
  0
LAYER_INDEX
  5
1490
102
{ACAD_REACTORS
330
148F
102
}
330
148F
100
AcDbIndex
 40
2452844.57343912
100
AcDbLayerIndex
  8
0
360
1491
 90
        0
  8
AM_0
360
1492
 90
       57
  8
AM_11
360
1493
 90
        4
  8
AM_7
360
1494
 90
        1
  8
AM_5
360
1495
 90
        6
  8
Defpoints
360
1496
 90
        0
  8
AM_6
360
1497
 90
        1
  0
XRECORD
  5
2D
102
{ACAD_REACTORS
330
2C
102
}
330
2C
100
AcDbXrecord
  1
VERSION
140
15.0
  1
PRODUCT
  2
AutoCAD Mechanical 2000
  0
IDBUFFER
  5
1491
330
0
100
AcDbIdBuffer
  0
IDBUFFER
  5
1492
330
0
100
AcDbIdBuffer
330
11C8
330
1385
330
1386
330
1387
330
138F
330
1391
330
1392
330
13E7
330
13E8
330
C55
330
C56
330
C57
330
C58
330
C59
330
C5A
330
C5C
330
C5E
330
C5F
330
C60
330
C61
330
C62
330
C63
330
C64
330
C65
330
C66
330
C67
330
C68
330
C69
330
C6A
330
C6B
330
C6C
330
C6D
330
C6E
330
C6F
330
C70
330
C71
330
C72
330
C73
330
C74
330
C75
330
C76
330
C77
330
C78
330
C79
330
C88
330
C89
330
C8C
330
C8D
330
CFE
330
E4A
330
F89
330
F8F
330
10F8
330
10F9
330
11B6
330
11B7
330
11C7
  0
IDBUFFER
  5
1493
330
0
100
AcDbIdBuffer
330
C8E
330
C8F
330
CF8
330
13EA
  0
IDBUFFER
  5
1494
330
0
100
AcDbIdBuffer
330
139A
  0
IDBUFFER
  5
1495
330
0
100
AcDbIdBuffer
330
D13
330
D9C
330
EDE
330
11DC
330
1271
330
13F3
  0
IDBUFFER
  5
1496
330
0
100
AcDbIdBuffer
  0
IDBUFFER
  5
1497
330
0
100
AcDbIdBuffer
330
F75
  0
ENDSEC
  0
EOF
