  0
SECTION
  2
HEADER
  9
$ACADVER
  1
AC1014
  9
$ACADMAINTVER
 70
     9
  9
$DWGCODEPAGE
  3
ANSI_932
  9
$INSBASE
 10
0.0
 20
0.0
 30
0.0
  9
$EXTMIN
 10
-138.7
 20
-66.49999999999993
 30
-0.00000001
  9
$EXTMAX
 10
14.94076804269641
 20
10.99999999999999
 30
0.00000001
  9
$LIMMIN
 10
-145.9689772997614
 20
-82.37377839545022
  9
$LIMMAX
 10
42.30806504171107
 20
33.87188893517546
  9
$ORTHOMODE
 70
     0
  9
$REGENMODE
 70
     1
  9
$FILLMODE
 70
     1
  9
$QTEXTMODE
 70
     0
  9
$MIRRTEXT
 70
     0
  9
$DRAGMODE
 70
     2
  9
$LTSCALE
 40
1.0
  9
$OSMODE
 70
  2103
  9
$ATTMODE
 70
     1
  9
$TEXTSIZE
 40
2.5
  9
$TRACEWID
 40
1.0
  9
$TEXTSTYLE
  7
STANDARD
  9
$CLAYER
  8
AM_0
  9
$CELTYPE
  6
BYLAYER
  9
$CECOLOR
 62
   256
  9
$CELTSCALE
 40
1.0
  9
$DELOBJ
 70
     1
  9
$DISPSILH
 70
     0
  9
$DIMSCALE
 40
1.0
  9
$DIMASZ
 40
2.5
  9
$DIMEXO
 40
1.0
  9
$DIMDLI
 40
12.0
  9
$DIMRND
 40
0.0
  9
$DIMDLE
 40
0.0
  9
$DIMEXE
 40
1.0
  9
$DIMTP
 40
0.1
  9
$DIMTM
 40
0.1
  9
$DIMTXT
 40
3.2
  9
$DIMCEN
 40
0.0
  9
$DIMTSZ
 40
0.0
  9
$DIMTOL
 70
     0
  9
$DIMLIM
 70
     0
  9
$DIMTIH
 70
     0
  9
$DIMTOH
 70
     0
  9
$DIMSE1
 70
     0
  9
$DIMSE2
 70
     0
  9
$DIMTAD
 70
     3
  9
$DIMZIN
 70
     8
  9
$DIMBLK
  1
OPEN30
  9
$DIMASO
 70
     1
  9
$DIMSHO
 70
     1
  9
$DIMPOST
  1

  9
$DIMAPOST
  1
"
  9
$DIMALT
 70
     0
  9
$DIMALTD
 70
     2
  9
$DIMALTF
 40
0.0393701
  9
$DIMLFAC
 40
1.0
  9
$DIMTOFL
 70
     1
  9
$DIMTVP
 40
0.0
  9
$DIMTIX
 70
     0
  9
$DIMSOXD
 70
     0
  9
$DIMSAH
 70
     0
  9
$DIMBLK1
  1

  9
$DIMBLK2
  1

  9
$DIMSTYLE
  2
AM_JIS
  9
$DIMCLRD
 70
   256
  9
$DIMCLRE
 70
   256
  9
$DIMCLRT
 70
     2
  9
$DIMTFAC
 40
0.71
  9
$DIMGAP
 40
1.5
  9
$DIMJUST
 70
     0
  9
$DIMSD1
 70
     0
  9
$DIMSD2
 70
     0
  9
$DIMTOLJ
 70
     0
  9
$DIMTZIN
 70
     0
  9
$DIMALTZ
 70
     0
  9
$DIMALTTZ
 70
     0
  9
$DIMFIT
 70
     3
  9
$DIMUPT
 70
     0
  9
$DIMUNIT
 70
     2
  9
$DIMDEC
 70
     3
  9
$DIMTDEC
 70
     3
  9
$DIMALTU
 70
     2
  9
$DIMALTTD
 70
     2
  9
$DIMTXSTY
  7
ASAMI
  9
$DIMAUNIT
 70
     0
  9
$LUNITS
 70
     2
  9
$LUPREC
 70
     2
  9
$SKETCHINC
 40
1.0
  9
$FILLETRAD
 40
2.5
  9
$AUNITS
 70
     0
  9
$AUPREC
 70
     0
  9
$MENU
  1
.
  9
$ELEVATION
 40
0.0
  9
$PELEVATION
 40
0.0
  9
$THICKNESS
 40
0.0
  9
$LIMCHECK
 70
     0
  9
$BLIPMODE
 70
     0
  9
$CHAMFERA
 40
0.5
  9
$CHAMFERB
 40
0.5
  9
$CHAMFERC
 40
20.0
  9
$CHAMFERD
 40
0.0
  9
$SKPOLY
 70
     0
  9
$TDCREATE
 40
2452809.475734583
  9
$TDUPDATE
 40
2452844.576215092
  9
$TDINDWG
 40
0.0232201157
  9
$TDUSRTIMER
 40
0.0232199421
  9
$USRTIMER
 70
     1
  9
$ANGBASE
 50
0.0
  9
$ANGDIR
 70
     0
  9
$PDMODE
 70
     0
  9
$PDSIZE
 40
0.0
  9
$PLINEWID
 40
0.0
  9
$COORDS
 70
     2
  9
$SPLFRAME
 70
     0
  9
$SPLINETYPE
 70
     6
  9
$SPLINESEGS
 70
     8
  9
$ATTDIA
 70
     1
  9
$ATTREQ
 70
     1
  9
$HANDLING
 70
 12289
  9
$HANDSEED
  5
1640
  9
$SURFTAB1
 70
     6
  9
$SURFTAB2
 70
     6
  9
$SURFTYPE
 70
     6
  9
$SURFU
 70
     6
  9
$SURFV
 70
     6
  9
$UCSNAME
  2

  9
$UCSORG
 10
0.0
 20
0.0
 30
0.0
  9
$UCSXDIR
 10
1.0
 20
0.000000000000002
 30
0.0
  9
$UCSYDIR
 10
-0.000000000000002
 20
1.0
 30
0.0
  9
$PUCSNAME
  2

  9
$PUCSORG
 10
0.0
 20
0.0
 30
0.0
  9
$PUCSXDIR
 10
1.0
 20
0.0
 30
0.0
  9
$PUCSYDIR
 10
0.0
 20
1.0
 30
0.0
  9
$USERI1
 70
     0
  9
$USERI2
 70
     0
  9
$USERI3
 70
     0
  9
$USERI4
 70
     0
  9
$USERI5
 70
     0
  9
$USERR1
 40
0.0
  9
$USERR2
 40
0.0
  9
$USERR3
 40
0.0
  9
$USERR4
 40
0.0
  9
$USERR5
 40
0.0
  9
$WORLDVIEW
 70
     1
  9
$SHADEDGE
 70
     3
  9
$SHADEDIF
 70
    70
  9
$TILEMODE
 70
     1
  9
$MAXACTVP
 70
    64
  9
$PINSBASE
 10
0.0
 20
0.0
 30
0.0
  9
$PLIMCHECK
 70
     0
  9
$PEXTMIN
 10
1.000000000000000E+20
 20
1.000000000000000E+20
 30
1.000000000000000E+20
  9
$PEXTMAX
 10
-1.000000000000000E+20
 20
-1.000000000000000E+20
 30
-1.000000000000000E+20
  9
$PLIMMIN
 10
0.0
 20
0.0
  9
$PLIMMAX
 10
841.0
 20
594.0
  9
$UNITMODE
 70
     0
  9
$VISRETAIN
 70
     1
  9
$PLINEGEN
 70
     0
  9
$PSLTSCALE
 70
     0
  9
$TREEDEPTH
 70
  3020
  9
$PICKSTYLE
 70
     0
  9
$CMLSTYLE
  2
STANDARD
  9
$CMLJUST
 70
     0
  9
$CMLSCALE
 40
20.0
  9
$PROXYGRAPHICS
 70
     1
  9
$MEASUREMENT
 70
     1
  0
ENDSEC
  0
SECTION
  2
CLASSES
  0
CLASS
  1
ACDBDICTIONARYWDFLT
  2
AcDbDictionaryWithDefault
  3
AutoCAD 2000
 90
        0
280
     0
281
     0
  0
CLASS
  1
ACDBPLACEHOLDER
  2
AcDbPlaceHolder
  3
AutoCAD 2000
 90
        0
280
     0
281
     0
  0
CLASS
  1
LAYOUT
  2
AcDbLayout
  3
AutoCAD 2000
 90
        0
280
     0
281
     0
  0
CLASS
  1
AMGSETTINGSOBJ
  2
AmgSettingsObj
  3
"AcadM|Product Description: AutoCAD Mechanical 2000|Company: Autodesk"
 90
        0
280
     0
281
     0
  0
CLASS
  1
ACME_DOCUMENT
  2
AcMeDbDoc
  3
AcMeServices
 90
        0
280
     0
281
     0
  0
CLASS
  1
ACMESCOPE
  2
AcMeScope
  3
AcMeServices
 90
        0
280
     0
281
     0
  0
CLASS
  1
ACMECOMMANDHISTORY
  2
AcMeCommandHistory
  3
AcMeServices
 90
        0
280
     0
281
     0
  0
CLASS
  1
DICTIONARYVAR
  2
AcDbDictionaryVar
  3
AutoCAD 2000
 90
        0
280
     0
281
     0
  0
CLASS
  1
ACIMSYSVARMAN
  2
AcImSysVarManager
  3
AcMeServices
 90
        0
280
     0
281
     0
  0
CLASS
  1
ACIMREALSYSVAR
  2
AcImRealSysVar
  3
AcMeServices
 90
        0
280
     0
281
     0
  0
CLASS
  1
ACIMINTSYSVAR
  2
AcImIntSysVar
  3
AcMeServices
 90
        0
280
     0
281
     0
  0
CLASS
  1
ACMEDRAWINGMAN
  2
AcMeDrawingMan
  3
AcMeServices
 90
        0
280
     0
281
     0
  0
CLASS
  1
ACMEVIEW
  2
AcMeView
  3
AcMeServices
 90
        0
280
     0
281
     0
  0
CLASS
  1
ACDBENTITYCACHE
  2
AcMeEntityCache
  3
AcMeServices
 90
        0
280
     0
281
     0
  0
CLASS
  1
GSMANAGER
  2
AcMeGSManager
  3
AcMeServices
 90
        0
280
     0
281
     0
  0
CLASS
  1
AmdtInternalReactor
  2
AmdtInternalReactor
  3
AcMeServices
 90
        0
280
     0
281
     0
  0
CLASS
  1
ACMESTATEMGR
  2
AcMeStateMgr
  3
AcMeServices
 90
        0
280
     0
281
     0
  0
CLASS
  1
ACME_DATABASE
  2
AcMeDbDatabase
  3
AcMeServices
 90
        0
280
     0
281
     0
  0
CLASS
  1
ACRFINSADJUSTERMGR
  2
AcRfInsAdjusterMgr
  3
AcMeServices
 90
        0
280
     0
281
     0
  0
CLASS
  1
ACMDATADICTIONARY
  2
AcmDataDictionary
  3
"AcmSymBB|Product Description: AutoCAD Mechanical 2000|Company: Autodesk"
 90
        0
280
     0
281
     0
  0
CLASS
  1
ACMDATAENTRYBLOCK
  2
AcmDataEntryBlock
  3
"AcmSymBB|Product Description: AutoCAD Mechanical 2000|Company: Autodesk"
 90
        0
280
     0
281
     0
  0
CLASS
  1
AMGOBJPROPCFG
  2
AmgObjPropCfg
  3
"AmgLay|Product Description: AutoCAD Mechanical 2000|Company: Autodesk"
 90
        1
280
     0
281
     0
  0
CLASS
  1
ACAMGFILTERDAT
  2
AcAmgFilterDat
  3
"AcadM|Product Description: AutoCAD Mechanical 2000|Company: Autodesk"
 90
        0
280
     0
281
     0
  0
CLASS
  1
LAYER_INDEX
  2
AcDbLayerIndex
  3
AutoCAD 2000
 90
        0
280
     0
281
     0
  0
CLASS
  1
IDBUFFER
  2
AcDbIdBuffer
  3
AutoCAD 2000
 90
        0
280
     0
281
     0
  0
CLASS
  1
ACIMSTRSYSVAR
  2
AcImStrSysVar
  3
AcMeServices
 90
        0
280
     0
281
     0
  0
CLASS
  1
ACMSTANDARDJIS
  2
AcmStandardJIS
  3
"AcmSymBB|Product Description: AutoCAD Mechanical 2000|Company: Autodesk"
 90
        0
280
     0
281
     0
  0
CLASS
  1
ACMSURFSTANDARDJIS
  2
AcmSurfTextStdJIS
  3
"AcmSymBB|Product Description: AutoCAD Mechanical 2000|Company: Autodesk"
 90
        0
280
     0
281
     0
  0
CLASS
  1
ACMFCFSTANDARDJIS
  2
AcmFCFStdJIS
  3
"AcmSymBB|Product Description: AutoCAD Mechanical 2000|Company: Autodesk"
 90
        0
280
     0
281
     0
  0
CLASS
  1
ACMWELDSTANDARDJIS
  2
AcmWeldingStdJIS
  3
"AcmSymBB|Product Description: AutoCAD Mechanical 2000|Company: Autodesk"
 90
        0
280
     0
281
     0
  0
CLASS
  1
ACMIDSTANDARDJIS
  2
AcmIdStdJIS
  3
"AcmSymBB|Product Description: AutoCAD Mechanical 2000|Company: Autodesk"
 90
        0
280
     0
281
     0
  0
CLASS
  1
ACMDATUMSTANDARDJIS
  2
AcmDatumStdJIS
  3
"AcmSymBB|Product Description: AutoCAD Mechanical 2000|Company: Autodesk"
 90
        0
280
     0
281
     0
  0
CLASS
  1
ACMBOMSTANDARDJIS
  2
AcmBOMStdJIS
  3
"AcmSymBB|Product Description: AutoCAD Mechanical 2000|Company: Autodesk"
 90
        0
280
     0
281
     0
  0
CLASS
  1
ACMSTANDARDANSI
  2
AcmStandardANSI
  3
"AcmSymBB|Product Description: AutoCAD Mechanical 2000|Company: Autodesk"
 90
        0
280
     0
281
     0
  0
CLASS
  1
ACMSURFSTANDARDANSI
  2
AcmSurfTextStdANSI
  3
"AcmSymBB|Product Description: AutoCAD Mechanical 2000|Company: Autodesk"
 90
        0
280
     0
281
     0
  0
CLASS
  1
ACMFCFSTANDARDANSI
  2
AcmFCFStdANSI
  3
"AcmSymBB|Product Description: AutoCAD Mechanical 2000|Company: Autodesk"
 90
        0
280
     0
281
     0
  0
CLASS
  1
ACMWELDSTANDARDANSI
  2
AcmWeldingStdANSI
  3
"AcmSymBB|Product Description: AutoCAD Mechanical 2000|Company: Autodesk"
 90
        0
280
     0
281
     0
  0
CLASS
  1
ACMIDSTANDARDANSI
  2
AcmIdStdANSI
  3
"AcmSymBB|Product Description: AutoCAD Mechanical 2000|Company: Autodesk"
 90
        0
280
     0
281
     0
  0
CLASS
  1
ACMDATUMSTANDARDANSI
  2
AcmDatumStdANSI
  3
"AcmSymBB|Product Description: AutoCAD Mechanical 2000|Company: Autodesk"
 90
        0
280
     0
281
     0
  0
CLASS
  1
ACMBOMSTANDARDANSI
  2
AcmBOMStdANSI
  3
"AcmSymBB|Product Description: AutoCAD Mechanical 2000|Company: Autodesk"
 90
        0
280
     0
281
     0
  0
CLASS
  1
ACMSTANDARDBSI
  2
AcmStandardBSI
  3
"AcmSymBB|Product Description: AutoCAD Mechanical 2000|Company: Autodesk"
 90
        0
280
     0
281
     0
  0
CLASS
  1
ACMSURFSTANDARDBSI
  2
AcmSurfTextStdBSI
  3
"AcmSymBB|Product Description: AutoCAD Mechanical 2000|Company: Autodesk"
 90
        0
280
     0
281
     0
  0
CLASS
  1
ACMFCFSTANDARDBSI
  2
AcmFCFStdBSI
  3
"AcmSymBB|Product Description: AutoCAD Mechanical 2000|Company: Autodesk"
 90
        0
280
     0
281
     0
  0
CLASS
  1
ACMWELDSTANDARDBSI
  2
AcmWeldingStdBSI
  3
"AcmSymBB|Product Description: AutoCAD Mechanical 2000|Company: Autodesk"
 90
        0
280
     0
281
     0
  0
CLASS
  1
ACMIDSTANDARDBSI
  2
AcmIdStdBSI
  3
"AcmSymBB|Product Description: AutoCAD Mechanical 2000|Company: Autodesk"
 90
        0
280
     0
281
     0
  0
CLASS
  1
ACMDATUMSTANDARDBSI
  2
AcmDatumStdBSI
  3
"AcmSymBB|Product Description: AutoCAD Mechanical 2000|Company: Autodesk"
 90
        0
280
     0
281
     0
  0
CLASS
  1
ACMBOMSTANDARDBSI
  2
AcmBOMStdBSI
  3
"AcmSymBB|Product Description: AutoCAD Mechanical 2000|Company: Autodesk"
 90
        0
280
     0
281
     0
  0
CLASS
  1
LONG_TRANSACTION
  2
AcDbLongTransaction
  3
AutoCAD 2000
 90
        0
280
     0
281
     0
  0
CLASS
  1
LWPOLYLINE
  2
AcDbPolyline
  3
AutoCAD 2000
 90
        0
280
     0
281
     1
  0
CLASS
  1
HATCH
  2
AcDbHatch
  3
AutoCAD 2000
 90
        0
280
     0
281
     1
  0
CLASS
  1
XRECORD
  2
AcDbXrecord
  3
AutoCAD 2000
 90
        0
280
     0
281
     0
  0
ENDSEC
  0
SECTION
  2
TABLES
  0
TABLE
  2
VPORT
  5
8
330
0
100
AcDbSymbolTable
 70
     3
  0
VPORT
  5
1615
330
8
100
AcDbSymbolTableRecord
100
AcDbViewportTableRecord
  2
*ACTIVE
 70
     0
 10
0.0
 20
0.0
 11
1.0
 21
1.0
 12
-61.8797399547374
 22
-27.75064997708485
 13
0.0
 23
0.0
 14
2.5
 24
2.5
 15
10.0
 25
10.0
 16
0.0
 26
0.0
 36
1.0
 17
0.0
 27
0.0
 37
0.0
 40
98.55315143766958
 41
1.56570841889117
 42
50.0
 43
0.0
 44
0.0
 50
0.0
 51
0.0
 71
     0
 72
   100
 73
     1
 74
     3
 75
     0
 76
     0
 77
     0
 78
     0
  0
ENDTAB
  0
TABLE
  2
LTYPE
  5
5
330
0
100
AcDbSymbolTable
 70
    10
  0
LTYPE
  5
14
330
5
100
AcDbSymbolTableRecord
100
AcDbLinetypeTableRecord
  2
BYBLOCK
 70
     0
  3

 72
    65
 73
     0
 40
0.0
  0
LTYPE
  5
15
330
5
100
AcDbSymbolTableRecord
100
AcDbLinetypeTableRecord
  2
BYLAYER
 70
     0
  3

 72
    65
 73
     0
 40
0.0
  0
LTYPE
  5
16
330
5
100
AcDbSymbolTableRecord
100
AcDbLinetypeTableRecord
  2
CONTINUOUS
 70
     0
  3
Solid line
 72
    65
 73
     0
 40
0.0
  0
LTYPE
  5
4B
330
5
100
AcDbSymbolTableRecord
100
AcDbLinetypeTableRecord
  2
AM_ISO02W050
 70
     0
  3
__ __ __ __ __ __ __ __ __ __ __ __ __ __ __
 72
    65
 73
     2
 40
7.5
 49
6.0
 74
     0
 49
-1.5
 74
     0
  0
LTYPE
  5
4C
330
5
100
AcDbSymbolTableRecord
100
AcDbLinetypeTableRecord
  2
AM_ISO08W050
 70
     0
  3
____ . ____ . ____ . ____ . ____ . ____ . ____
 72
    65
 73
     4
 40
18.0
 49
12.0
 74
     0
 49
-1.5
 74
     0
 49
3.0
 74
     0
 49
-1.5
 74
     0
  0
LTYPE
  5
4D
330
5
100
AcDbSymbolTableRecord
100
AcDbLinetypeTableRecord
  2
AM_ISO09W050
 70
     0
  3
_____ . . _____ . . _____ . . ____ .. ____
 72
    65
 73
     6
 40
22.5
 49
12.0
 74
     0
 49
-1.5
 74
     0
 49
3.0
 74
     0
 49
-1.5
 74
     0
 49
3.0
 74
     0
 49
-1.5
 74
     0
  0
LTYPE
  5
4E
330
5
100
AcDbSymbolTableRecord
100
AcDbLinetypeTableRecord
  2
AMCONSTR
 70
     0
  3
_______________________
 72
    65
 73
     2
 40
9999.0
 49
9999.0
 74
     0
 49
0.0
 74
     0
  0
LTYPE
  5
4F
330
5
100
AcDbSymbolTableRecord
100
AcDbLinetypeTableRecord
  2
AM_ISO02W050X2
 70
     0
  3
 _ _ _ _ _ _ _ _ _ _ _ _
 72
    65
 73
     2
 40
3.75
 49
3.0
 74
     0
 49
-0.75
 74
     0
  0
LTYPE
  5
50
330
5
100
AcDbSymbolTableRecord
100
AcDbLinetypeTableRecord
  2
AM_ISO08W050X2
 70
     0
  3
__ . __ . __ . __ . __ . __
 72
    65
 73
     4
 40
9.0
 49
6.0
 74
     0
 49
-0.75
 74
     0
 49
1.5
 74
     0
 49
-0.75
 74
     0
  0
LTYPE
  5
53
330
5
100
AcDbSymbolTableRecord
100
AcDbLinetypeTableRecord
  2
AMZIGZAG
 70
     0
  3
/\/-/\/-/\/-/\/-/\/-/\/
 72
    65
 73
     2
 40
11.00009999999999
 49
0.0001
 74
     4
 75
   135
340
52
 46
0.04
 50
0.0
 44
0.0
 45
0.0
 49
-11.0
 74
     0
  0
LTYPE
  5
166
330
5
100
AcDbSymbolTableRecord
100
AcDbLinetypeTableRecord
  2
ACJISTGL
 70
     0
  3
_ _ _ _ _
 72
    65
 73
     2
 40
3.0
 49
2.0
 74
     0
 49
-1.0
 74
     0
  0
LTYPE
  5
26A
330
5
100
AcDbSymbolTableRecord
100
AcDbLinetypeTableRecord
  2
ACJISTGB
 70
     0
  3
__ . . __ . .
 72
    65
 73
     6
 40
9.0
 49
4.0
 74
     0
 49
-1.0
 74
     0
 49
1.0
 74
     0
 49
-1.0
 74
     0
 49
1.0
 74
     0
 49
-1.0
 74
     0
  0
ENDTAB
  0
TABLE
  2
LAYER
  5
2
330
0
100
AcDbSymbolTable
 70
     7
  0
LAYER
  5
10
330
2
100
AcDbSymbolTableRecord
100
AcDbLayerTableRecord
  2
0
 70
     0
 62
     7
  6
CONTINUOUS
  0
LAYER
  5
3F9
330
2
100
AcDbSymbolTableRecord
100
AcDbLayerTableRecord
  2
AM_0
 70
     0
 62
     7
  6
CONTINUOUS
  0
LAYER
  5
BA4
330
2
100
AcDbSymbolTableRecord
100
AcDbLayerTableRecord
  2
AM_11
 70
     0
 62
     3
  6
AM_ISO09W050
  0
LAYER
  5
BA5
330
2
100
AcDbSymbolTableRecord
100
AcDbLayerTableRecord
  2
AM_7
 70
     0
 62
     4
  6
AM_ISO08W050
  0
LAYER
  5
CA1
330
2
100
AcDbSymbolTableRecord
100
AcDbLayerTableRecord
  2
AM_5
 70
     0
 62
     3
  6
CONTINUOUS
  0
LAYER
  5
D14
330
2
100
AcDbSymbolTableRecord
100
AcDbLayerTableRecord
  2
DEFPOINTS
 70
     0
 62
     7
  6
CONTINUOUS
  0
LAYER
  5
F74
330
2
100
AcDbSymbolTableRecord
100
AcDbLayerTableRecord
  2
AM_6
 70
     0
 62
     2
  6
CONTINUOUS
  0
ENDTAB
  0
TABLE
  2
STYLE
  5
3
330
0
100
AcDbSymbolTable
 70
     5
  0
STYLE
  5
11
330
3
100
AcDbSymbolTableRecord
100
AcDbTextStyleTableRecord
  2
STANDARD
 70
     0
 40
0.0
 41
1.0
 50
0.0
 71
     0
 42
2.5
  3
simplex.shx
  4
EXTFONT.SHX
  0
STYLE
  5
52
330
3
100
AcDbSymbolTableRecord
100
AcDbTextStyleTableRecord
  2

 70
     1
 40
0.0
 41
1.0
 50
0.0
 71
     0
 42
2.5
  3
ltypeshp.shx
  4

  0
STYLE
  5
6B
330
3
100
AcDbSymbolTableRecord
100
AcDbTextStyleTableRecord
  2
ASAMI
 70
     0
 40
0.0
 41
1.0
 50
0.0
 71
     0
 42
2.5
  3
simplex.shx
  4
EXTFONT.SHX
  0
STYLE
  5
262
330
3
100
AcDbSymbolTableRecord
100
AcDbTextStyleTableRecord
  2
ACJISTS
 70
     0
 40
1.0
 41
1.0
 50
0.0
 71
     0
 42
2.5
  3
simplex.shx
  4
bigfont.shx
  0
STYLE
  5
269
330
3
100
AcDbSymbolTableRecord
100
AcDbTextStyleTableRecord
  2
ACJISGDT
 70
     0
 40
0.0
 41
1.0
 50
0.0
 71
     0
 42
2.5
  3
amgdtans.shx
  4

  0
ENDTAB
  0
TABLE
  2
VIEW
  5
6
330
0
100
AcDbSymbolTable
 70
     0
  0
ENDTAB
  0
TABLE
  2
UCS
  5
7
330
0
100
AcDbSymbolTable
 70
     0
  0
ENDTAB
  0
TABLE
  2
APPID
  5
9
330
0
100
AcDbSymbolTable
 70
    12
  0
APPID
  5
12
330
9
100
AcDbSymbolTableRecord
100
AcDbRegAppTableRecord
  2
ACAD
 70
     0
  0
APPID
  5
30
330
9
100
AcDbSymbolTableRecord
100
AcDbRegAppTableRecord
  2
MCAD_NO_VIS
 70
     0
  0
APPID
  5
31
330
9
100
AcDbSymbolTableRecord
100
AcDbRegAppTableRecord
  2
ACAD_TEMP_GRAPHIC
 70
     0
  0
APPID
  5
2C2
330
9
100
AcDbSymbolTableRecord
100
AcDbRegAppTableRecord
  2
GENIUS_GENDTOL_13
 70
     0
  0
APPID
  5
339
330
9
100
AcDbSymbolTableRecord
100
AcDbRegAppTableRecord
  2
GENIUS_GENODEF_13
 70
     0
  0
APPID
  5
33A
330
9
100
AcDbSymbolTableRecord
100
AcDbRegAppTableRecord
  2
GENIUS_GENOBJ-N-RSBK_13
 70
     0
  0
APPID
  5
33B
330
9
100
AcDbSymbolTableRecord
100
AcDbRegAppTableRecord
  2
GENIUS_GENOBJ-N-LIB_13
 70
     0
  0
APPID
  5
33C
330
9
100
AcDbSymbolTableRecord
100
AcDbRegAppTableRecord
  2
GENIUS_GENSCALE_13
 70
     0
  0
APPID
  5
378
330
9
100
AcDbSymbolTableRecord
100
AcDbRegAppTableRecord
  2
GENIUS_GENDIMSH_14
 70
     0
  0
APPID
  5
BA6
330
9
100
AcDbSymbolTableRecord
100
AcDbRegAppTableRecord
  2
GENIUS_GENOBJ-N-CEN_13
 70
     0
  0
APPID
  5
D02
330
9
100
AcDbSymbolTableRecord
100
AcDbRegAppTableRecord
  2
GENIUS_GENFIL_13
 70
     0
  0
APPID
  5
D03
330
9
100
AcDbSymbolTableRecord
100
AcDbRegAppTableRecord
  2
GENIUS_GENOBJ-N-CHA_13
 70
     0
  0
ENDTAB
  0
TABLE
  2
DIMSTYLE
  5
A
330
0
100
AcDbSymbolTable
 70
     8
  0
DIMSTYLE
105
58
102
{ACAD_REACTORS
330
1363
330
1368
330
136D
330
136E
330
13B2
102
}
330
A
100
AcDbSymbolTableRecord
100
AcDbDimStyleTableRecord
  2
AM_JIS
 70
     0
  3

  4
"
  5
OPEN30
  6

  7

 40
1.0
 41
2.5
 42
1.0
 43
12.0
 44
1.0
 45
0.0
 46
0.0
 47
0.1
 48
0.1
140
3.2
141
0.0
142
0.0
143
0.0393701
144
1.0
145
0.0
146
0.71
147
1.5
 71
     0
 72
     0
 73
     0
 74
     0
 75
     0
 76
     0
 77
     3
 78
     8
170
     0
171
     2
172
     1
173
     0
174
     0
175
     0
176
   256
177
   256
178
     2
270
     2
271
     3
272
     3
273
     2
274
     2
340
6B
275
     0
280
     0
281
     0
282
     0
283
     0
284
     0
285
     0
286
     0
287
     3
288
     0
  0
DIMSTYLE
105
5F
330
A
100
AcDbSymbolTableRecord
100
AcDbDimStyleTableRecord
  2
AM_JIS$3
 70
     0
  3

  4
"
  5
OPEN30
  6

  7

 40
1.0
 41
2.5
 42
1.0
 43
10.0
 44
1.0
 45
0.0
 46
0.0
 47
0.1
 48
0.1
140
3.2
141
0.0
142
0.0
143
0.0393701
144
1.0
145
0.0
146
0.71
147
1.5
 71
     0
 72
     0
 73
     0
 74
     1
 75
     0
 76
     0
 77
     3
 78
     8
170
     0
171
     2
172
     0
173
     0
174
     0
175
     0
176
   256
177
   256
178
     2
270
     2
271
     2
272
     3
273
     2
274
     2
340
6B
275
     0
280
     0
281
     0
282
     0
283
     0
284
     0
285
     0
286
     0
287
     0
288
     1
  0
DIMSTYLE
105
60
330
A
100
AcDbSymbolTableRecord
100
AcDbDimStyleTableRecord
  2
AM_JIS$4
 70
     0
  3

  4
"
  5
OPEN30
  6

  7

 40
1.0
 41
2.5
 42
1.0
 43
10.0
 44
1.0
 45
0.0
 46
0.0
 47
0.1
 48
0.1
140
3.2
141
0.0
142
0.0
143
0.0393701
144
1.0
145
0.0
146
0.71
147
1.5
 71
     0
 72
     0
 73
     0
 74
     1
 75
     0
 76
     0
 77
     3
 78
     8
170
     0
171
     2
172
     0
173
     0
174
     0
175
     0
176
   256
177
   256
178
     2
270
     2
271
     2
272
     3
273
     2
274
     2
340
6B
275
     0
280
     0
281
     0
282
     0
283
     0
284
     0
285
     0
286
     0
287
     0
288
     1
  0
DIMSTYLE
105
61
330
A
100
AcDbSymbolTableRecord
100
AcDbDimStyleTableRecord
  2
AM_JIS$6
 70
     0
  3

  4
"
  5
OPEN30
  6

  7

 40
1.0
 41
2.5
 42
1.0
 43
10.0
 44
1.0
 45
0.0
 46
0.0
 47
0.1
 48
0.1
140
3.2
141
0.0
142
0.0
143
0.0393701
144
1.0
145
0.0
146
0.71
147
1.5
 71
     0
 72
     0
 73
     0
 74
     0
 75
     0
 76
     0
 77
     0
 78
     8
170
     0
171
     2
172
     1
173
     0
174
     0
175
     0
176
   256
177
   256
178
     2
270
     2
271
     2
272
     2
273
     2
274
     2
340
6B
275
     0
280
     0
281
     0
282
     0
283
     0
284
     0
285
     0
286
     0
287
     3
288
     0
  0
DIMSTYLE
105
62
330
A
100
AcDbSymbolTableRecord
100
AcDbDimStyleTableRecord
  2
AM_JIS$7
 70
     0
  3

  4
"
  5
OPEN30
  6

  7

 40
1.0
 41
2.5
 42
1.0
 43
10.0
 44
1.0
 45
0.0
 46
0.0
 47
0.1
 48
0.1
140
3.2
141
0.0
142
0.0
143
0.0393701
144
1.0
145
0.0
146
0.71
147
1.5
 71
     0
 72
     0
 73
     0
 74
     0
 75
     0
 76
     0
 77
     3
 78
     8
170
     0
171
     2
172
     1
173
     0
174
     0
175
     0
176
   256
177
   256
178
     2
270
     2
271
     2
272
     3
273
     2
274
     2
340
6B
275
     0
280
     0
281
     0
282
     0
283
     0
284
     0
285
     0
286
     0
287
     3
288
     0
  0
DIMSTYLE
105
63
330
A
100
AcDbSymbolTableRecord
100
AcDbDimStyleTableRecord
  2
AM_JIS$SF
 70
     0
  3

  4
"
  5
OPEN30
  6

  7

 40
1.0
 41
2.5
 42
1.0
 43
10.0
 44
1.0
 45
0.0
 46
0.0
 47
0.1
 48
0.1
140
3.2
141
0.0
142
0.0
143
0.0393701
144
1.0
145
0.0
146
0.71
147
1.5
 71
     0
 72
     0
 73
     0
 74
     0
 75
     1
 76
     1
 77
     3
 78
     8
170
     0
171
     2
172
     1
173
     0
174
     0
175
     0
176
   256
177
   256
178
     2
270
     2
271
     2
272
     2
273
     2
274
     2
340
6B
275
     0
280
     0
281
     0
282
     0
283
     0
284
     0
285
     0
286
     0
287
     3
288
     0
  0
DIMSTYLE
105
68
330
A
100
AcDbSymbolTableRecord
100
AcDbDimStyleTableRecord
  2
AM_JIS$SH
 70
     0
  3

  4
"
  5

  6
GENAXEH
  7
OPEN30
 40
1.0
 41
2.5
 42
1.0
 43
10.0
 44
1.0
 45
0.0
 46
0.0
 47
0.1
 48
0.1
140
3.2
141
0.0
142
0.0
143
0.0393701
144
2.0
145
0.0
146
0.71
147
1.5
 71
     0
 72
     0
 73
     0
 74
     0
 75
     1
 76
     1
 77
     3
 78
     8
170
     0
171
     2
172
     1
173
     1
174
     0
175
     0
176
   256
177
   256
178
     2
270
     2
271
     2
272
     2
273
     2
274
     2
340
6B
275
     0
280
     0
281
     0
282
     0
283
     0
284
     0
285
     0
286
     0
287
     3
288
     0
  0
DIMSTYLE
105
B34
330
A
100
AcDbSymbolTableRecord
100
AcDbDimStyleTableRecord
  2
AM_JIS$2
 70
     0
  3

  4
"
  5
OPEN30
  6

  7

 40
1.0
 41
2.5
 42
1.0
 43
12.0
 44
1.0
 45
0.0
 46
0.0
 47
0.1
 48
0.1
140
3.2
141
0.0
142
0.0
143
0.0393701
144
1.0
145
0.0
146
0.71
147
1.5
 71
     0
 72
     0
 73
     0
 74
     0
 75
     0
 76
     0
 77
     3
 78
     8
170
     0
171
     2
172
     1
173
     0
174
     0
175
     0
176
   256
177
   256
178
     2
270
     2
271
     3
272
     3
273
     2
274
     2
340
6B
275
     0
280
     0
281
     0
282
     0
283
     0
284
     0
285
     0
286
     0
287
     3
288
     0
  0
ENDTAB
  0
TABLE
  2
BLOCK_RECORD
  5
1
330
0
100
AcDbSymbolTable
 70
    10
  0
BLOCK_RECORD
  5
1F
102
{ACAD_XDICTIONARY
360
74
102
}
330
1
100
AcDbSymbolTableRecord
100
AcDbBlockTableRecord
  2
*MODEL_SPACE
  0
BLOCK_RECORD
  5
101
102
{ACAD_XDICTIONARY
360
163E
102
}
330
1
100
AcDbSymbolTableRecord
100
AcDbBlockTableRecord
  2
*PAPER_SPACE
  0
BLOCK_RECORD
  5
59
330
1
100
AcDbSymbolTableRecord
100
AcDbBlockTableRecord
  2
_OPEN30
  0
BLOCK_RECORD
  5
64
330
1
100
AcDbSymbolTableRecord
100
AcDbBlockTableRecord
  2
GENAXEH
  0
BLOCK_RECORD
  5
13BF
330
1
100
AcDbSymbolTableRecord
100
AcDbBlockTableRecord
  2
*D5
  0
BLOCK_RECORD
  5
13CB
330
1
100
AcDbSymbolTableRecord
100
AcDbBlockTableRecord
  2
*D6
  0
BLOCK_RECORD
  5
13D7
330
1
100
AcDbSymbolTableRecord
100
AcDbBlockTableRecord
  2
*D7
  0
BLOCK_RECORD
  5
13E3
330
1
100
AcDbSymbolTableRecord
100
AcDbBlockTableRecord
  2
*D8
  0
BLOCK_RECORD
  5
13EF
330
1
100
AcDbSymbolTableRecord
100
AcDbBlockTableRecord
  2
*D9
  0
ENDTAB
  0
ENDSEC
  0
SECTION
  2
BLOCKS
  0
BLOCK
  5
20
330
1F
100
AcDbEntity
  8
0
100
AcDbBlockBegin
  2
*MODEL_SPACE
 70
     0
 10
0.0
 20
0.0
 30
0.0
  3
*MODEL_SPACE
  1

  0
ENDBLK
  5
21
330
1F
100
AcDbEntity
  8
0
100
AcDbBlockEnd
  0
BLOCK
  5
103
330
101
100
AcDbEntity
 67
     1
  8
0
100
AcDbBlockBegin
  2
*PAPER_SPACE
 70
     0
 10
0.0
 20
0.0
 30
0.0
  3
*PAPER_SPACE
  1

  0
ENDBLK
  5
104
330
101
100
AcDbEntity
 67
     1
  8
0
100
AcDbBlockEnd
  0
BLOCK
  5
5D
330
59
100
AcDbEntity
  8
0
100
AcDbBlockBegin
  2
_OPEN30
 70
     0
 10
0.0
 20
0.0
 30
0.0
  3
_OPEN30
  1

  0
LINE
  5
5A
330
59
100
AcDbEntity
  8
0
 62
     0
100
AcDbLine
 10
-1.0
 20
0.26794919
 30
0.0
 11
0.0
 21
0.0
 31
0.0
  0
LINE
  5
5B
330
59
100
AcDbEntity
  8
0
 62
     0
100
AcDbLine
 10
0.0
 20
0.0
 30
0.0
 11
-1.0
 21
-0.26794919
 31
0.0
  0
LINE
  5
5C
330
59
100
AcDbEntity
  8
0
 62
     0
100
AcDbLine
 10
0.0
 20
0.0
 30
0.0
 11
-1.0
 21
0.0
 31
0.0
  0
ENDBLK
  5
5E
330
59
100
AcDbEntity
  8
0
100
AcDbBlockEnd
  0
BLOCK
  5
66
330
64
100
AcDbEntity
  8
0
100
AcDbBlockBegin
  2
GENAXEH
 70
     0
 10
0.0
 20
0.0
 30
0.0
  3
GENAXEH
  1

  0
LINE
  5
65
330
64
100
AcDbEntity
  8
0
100
AcDbLine
 10
-1.0
 20
0.0
 30
0.0
 11
1.0
 21
0.0
 31
0.0
  0
ENDBLK
  5
67
330
64
100
AcDbEntity
  8
0
100
AcDbBlockEnd
  0
BLOCK
  5
13C9
330
13BF
100
AcDbEntity
  8
0
100
AcDbBlockBegin
  2
*D5
 70
     1
 10
0.0
 20
0.0
 30
0.0
  3
*D5
  1

  0
LINE
  5
15A3
330
13BF
100
AcDbEntity
  8
AM_5
100
AcDbLine
 10
-120.0
 20
-6.49999999999998
 30
0.0
 11
-120.0
 21
-44.99999999999992
 31
0.0
  0
LINE
  5
15A4
330
13BF
100
AcDbEntity
  8
AM_5
100
AcDbLine
 10
0.0000000000000007
 20
-7.000000000000001
 30
0.0
 11
-0.0000000000000017
 21
-44.99999999999992
 31
0.0
  0
LINE
  5
15A5
330
13BF
100
AcDbEntity
  8
AM_5
100
AcDbLine
 10
-117.5
 20
-43.99999999999992
 30
0.0
 11
-2.500000000000001
 21
-43.99999999999992
 31
0.0
  0
INSERT
  5
15A6
330
13BF
100
AcDbEntity
  8
AM_5
100
AcDbBlockReference
  2
_OPEN30
 10
-120.0
 20
-43.99999999999992
 30
0.0
 41
2.5
 42
2.5
 43
2.5
 50
180.0
  0
INSERT
  5
15A7
330
13BF
100
AcDbEntity
  8
AM_5
100
AcDbBlockReference
  2
_OPEN30
 10
-0.0000000000000016
 20
-43.99999999999992
 30
0.0
 41
2.5
 42
2.5
 43
2.5
  0
MTEXT
  5
15A8
330
13BF
100
AcDbEntity
  8
AM_5
 62
     2
100
AcDbMText
 10
-60.0
 20
-40.89999999999991
 30
0.0
 40
3.2
 41
0.0
 71
     5
 72
     1
  1
120
  7
ASAMI
1001
ACAD
1000
MTEXTBEGIN
1070
    73
1070
     1
1070
    44
1040
1.0
1070
    74
1070
     0
1000
MTEXTEND
  0
POINT
  5
15A9
330
13BF
100
AcDbEntity
  8
DEFPOINTS
 62
     0
100
AcDbPoint
 10
-120.0
 20
-5.49999999999998
 30
0.0
  0
POINT
  5
15AA
330
13BF
100
AcDbEntity
  8
DEFPOINTS
 62
     0
100
AcDbPoint
 10
0.0000000000000007
 20
-6.000000000000001
 30
0.0
  0
POINT
  5
15AB
330
13BF
100
AcDbEntity
  8
DEFPOINTS
 62
     0
100
AcDbPoint
 10
-0.0000000000000016
 20
-43.99999999999992
 30
0.0
  0
ENDBLK
  5
13CA
330
13BF
100
AcDbEntity
  8
0
100
AcDbBlockEnd
  0
BLOCK
  5
13D5
330
13CB
100
AcDbEntity
  8
0
100
AcDbBlockBegin
  2
*D6
 70
     1
 10
0.0
 20
0.0
 30
0.0
  3
*D6
  1

  0
LINE
  5
15CB
330
13CB
100
AcDbEntity
  8
AM_5
100
AcDbLine
 10
-120.5
 20
-5.99999999999998
 30
0.0
 11
-135.0
 21
-5.999999999999976
 31
0.0
  0
LINE
  5
15CC
330
13CB
100
AcDbEntity
  8
AM_5
100
AcDbLine
 10
-120.5
 20
5.999999999999905
 30
0.0
 11
-135.0
 21
5.99999999999991
 31
0.0
  0
LINE
  5
15CD
330
13CB
100
AcDbEntity
  8
AM_5
100
AcDbLine
 10
-134.0
 20
-8.499999999999976
 30
0.0
 11
-134.0
 21
-10.99999999999997
 31
0.0
  0
LINE
  5
15CE
330
13CB
100
AcDbEntity
  8
AM_5
100
AcDbLine
 10
-134.0
 20
8.499999999999909
 30
0.0
 11
-134.0
 21
10.9999999999999
 31
0.0
  0
LINE
  5
15CF
330
13CB
100
AcDbEntity
  8
AM_5
100
AcDbLine
 10
-134.0
 20
-5.999999999999976
 30
0.0
 11
-134.0
 21
5.999999999999909
 31
0.0
  0
INSERT
  5
15D0
330
13CB
100
AcDbEntity
  8
AM_5
100
AcDbBlockReference
  2
_OPEN30
 10
-134.0
 20
-5.999999999999976
 30
0.0
 41
2.5
 42
2.5
 43
2.5
 50
90.0
  0
INSERT
  5
15D1
330
13CB
100
AcDbEntity
  8
AM_5
100
AcDbBlockReference
  2
_OPEN30
 10
-134.0
 20
5.999999999999909
 30
0.0
 41
2.5
 42
2.5
 43
2.5
 50
270.0
  0
MTEXT
  5
15D2
330
13CB
100
AcDbEntity
  8
AM_5
 62
     2
100
AcDbMText
 10
-137.0999999999999
 20
-0.0000000000000545
 30
0.0
 40
3.2
 41
0.0
 71
     5
 72
     1
  1
%%c12
  7
ASAMI
 11
0.0000000000000001
 21
1.0
 31
0.0
1001
ACAD
1000
MTEXTBEGIN
1070
    73
1070
     1
1070
    44
1040
1.0
1070
    74
1070
     0
1000
MTEXTEND
  0
POINT
  5
15D3
330
13CB
100
AcDbEntity
  8
DEFPOINTS
 62
     0
100
AcDbPoint
 10
-119.5
 20
-5.99999999999998
 30
0.0
  0
POINT
  5
15D4
330
13CB
100
AcDbEntity
  8
DEFPOINTS
 62
     0
100
AcDbPoint
 10
-119.5
 20
5.999999999999905
 30
0.0
  0
POINT
  5
15D5
330
13CB
100
AcDbEntity
  8
DEFPOINTS
 62
     0
100
AcDbPoint
 10
-134.0
 20
5.999999999999909
 30
0.0
  0
ENDBLK
  5
13D6
330
13CB
100
AcDbEntity
  8
0
100
AcDbBlockEnd
  0
BLOCK
  5
13E1
330
13D7
100
AcDbEntity
  8
0
100
AcDbBlockBegin
  2
*D7
 70
     1
 10
0.0
 20
0.0
 30
0.0
  3
*D7
  1

  0
LINE
  5
15B5
330
13D7
100
AcDbEntity
  8
AM_5
100
AcDbLine
 10
-17.99999999999999
 20
-7.000000000000011
 30
0.0
 11
-17.99999999999999
 21
-20.99999999999992
 31
0.0
  0
LINE
  5
15B6
330
13D7
100
AcDbEntity
  8
AM_5
100
AcDbLine
 10
0.0000000000000007
 20
-7.000000000000001
 30
0.0
 11
-0.0000000000000002
 21
-20.99999999999992
 31
0.0
  0
LINE
  5
15B7
330
13D7
100
AcDbEntity
  8
AM_5
100
AcDbLine
 10
-15.49999999999999
 20
-19.99999999999992
 30
0.0
 11
-2.5
 21
-19.99999999999992
 31
0.0
  0
INSERT
  5
15B8
330
13D7
100
AcDbEntity
  8
AM_5
100
AcDbBlockReference
  2
_OPEN30
 10
-17.99999999999999
 20
-19.99999999999992
 30
0.0
 41
2.5
 42
2.5
 43
2.5
 50
180.0
  0
INSERT
  5
15B9
330
13D7
100
AcDbEntity
  8
AM_5
100
AcDbBlockReference
  2
_OPEN30
 10
-0.0000000000000001
 20
-19.99999999999992
 30
0.0
 41
2.5
 42
2.5
 43
2.5
  0
MTEXT
  5
15BA
330
13D7
100
AcDbEntity
  8
AM_5
 62
     2
100
AcDbMText
 10
-8.999999999999998
 20
-16.89999999999992
 30
0.0
 40
3.2
 41
0.0
 71
     5
 72
     1
  1
18
  7
ASAMI
1001
ACAD
1000
MTEXTBEGIN
1070
    73
1070
     1
1070
    44
1040
1.0
1070
    74
1070
     0
1000
MTEXTEND
  0
POINT
  5
15BB
330
13D7
100
AcDbEntity
  8
DEFPOINTS
 62
     0
100
AcDbPoint
 10
-17.99999999999999
 20
-6.000000000000011
 30
0.0
  0
POINT
  5
15BC
330
13D7
100
AcDbEntity
  8
DEFPOINTS
 62
     0
100
AcDbPoint
 10
0.0000000000000007
 20
-6.000000000000001
 30
0.0
  0
POINT
  5
15BD
330
13D7
100
AcDbEntity
  8
DEFPOINTS
 62
     0
100
AcDbPoint
 10
-0.0000000000000001
 20
-19.99999999999992
 30
0.0
  0
ENDBLK
  5
13E2
330
13D7
100
AcDbEntity
  8
0
100
AcDbBlockEnd
  0
BLOCK
  5
13ED
330
13E3
100
AcDbEntity
  8
0
100
AcDbBlockBegin
  2
*D8
 70
     1
 10
0.0
 20
0.0
 30
0.0
  3
*D8
  1

  0
LINE
  5
15AC
330
13E3
100
AcDbEntity
  8
AM_5
100
AcDbLine
 10
0.0000000000000006
 20
-7.0
 30
0.0
 11
-0.0000000000000009
 21
-33.00000000000002
 31
0.0
  0
LINE
  5
15AD
330
13E3
100
AcDbEntity
  8
AM_5
100
AcDbLine
 10
-50.0
 20
-6.835465539610035
 30
0.0
 11
-50.0
 21
-33.00000000000002
 31
0.0
  0
LINE
  5
15AE
330
13E3
100
AcDbEntity
  8
AM_5
100
AcDbLine
 10
-2.5
 20
-32.00000000000002
 30
0.0
 11
-47.5
 21
-32.00000000000002
 31
0.0
  0
INSERT
  5
15AF
330
13E3
100
AcDbEntity
  8
AM_5
100
AcDbBlockReference
  2
_OPEN30
 10
-0.0000000000000009
 20
-32.00000000000002
 30
0.0
 41
2.5
 42
2.5
 43
2.5
  0
INSERT
  5
15B0
330
13E3
100
AcDbEntity
  8
AM_5
100
AcDbBlockReference
  2
_OPEN30
 10
-50.0
 20
-32.00000000000002
 30
0.0
 41
2.5
 42
2.5
 43
2.5
 50
180.0
  0
MTEXT
  5
15B1
330
13E3
100
AcDbEntity
  8
AM_5
 62
     2
100
AcDbMText
 10
-25.0
 20
-28.90000000000002
 30
0.0
 40
3.2
 41
0.0
 71
     5
 72
     1
  1
50
  7
ASAMI
1001
ACAD
1000
MTEXTBEGIN
1070
    73
1070
     1
1070
    44
1040
1.0
1070
    74
1070
     0
1000
MTEXTEND
  0
POINT
  5
15B2
330
13E3
100
AcDbEntity
  8
DEFPOINTS
 62
     0
100
AcDbPoint
 10
0.0000000000000007
 20
-6.0
 30
0.0
  0
POINT
  5
15B3
330
13E3
100
AcDbEntity
  8
DEFPOINTS
 62
     0
100
AcDbPoint
 10
-50.0
 20
-5.835465539610035
 30
0.0
  0
POINT
  5
15B4
330
13E3
100
AcDbEntity
  8
DEFPOINTS
 62
     0
100
AcDbPoint
 10
-50.0
 20
-32.00000000000002
 30
0.0
  0
ENDBLK
  5
13EE
330
13E3
100
AcDbEntity
  8
0
100
AcDbBlockEnd
  0
BLOCK
  5
13F9
330
13EF
100
AcDbEntity
  8
0
100
AcDbBlockBegin
  2
*D9
 70
     1
 10
0.0
 20
0.0
 30
0.0
  3
*D9
  1

  0
LINE
  5
15BF
330
13EF
100
AcDbEntity
  8
AM_5
100
AcDbLine
 10
1.0
 20
-6.0
 30
0.0
 11
14.9407680426964
 21
-6.000000000000004
 31
0.0
  0
LINE
  5
15C0
330
13EF
100
AcDbEntity
  8
AM_5
100
AcDbLine
 10
0.9999999999999996
 20
6.0
 30
0.0
 11
14.94076804269641
 21
5.999999999999995
 31
0.0
  0
LINE
  5
15C1
330
13EF
100
AcDbEntity
  8
AM_5
100
AcDbLine
 10
13.9407680426964
 20
-8.500000000000003
 30
0.0
 11
13.9407680426964
 21
-11.0
 31
0.0
  0
LINE
  5
15C2
330
13EF
100
AcDbEntity
  8
AM_5
100
AcDbLine
 10
13.94076804269641
 20
8.499999999999996
 30
0.0
 11
13.94076804269641
 21
10.99999999999999
 31
0.0
  0
LINE
  5
15C3
330
13EF
100
AcDbEntity
  8
AM_5
100
AcDbLine
 10
13.9407680426964
 20
-6.000000000000003
 30
0.0
 11
13.94076804269641
 21
5.999999999999996
 31
0.0
  0
INSERT
  5
15C4
330
13EF
100
AcDbEntity
  8
AM_5
100
AcDbBlockReference
  2
_OPEN30
 10
13.9407680426964
 20
-6.000000000000003
 30
0.0
 41
2.5
 42
2.5
 43
2.5
 50
90.0
  0
INSERT
  5
15C5
330
13EF
100
AcDbEntity
  8
AM_5
100
AcDbBlockReference
  2
_OPEN30
 10
13.94076804269641
 20
5.999999999999996
 30
0.0
 41
2.5
 42
2.5
 43
2.5
 50
270.0
  0
MTEXT
  5
15C6
330
13EF
100
AcDbEntity
  8
AM_5
 62
     2
100
AcDbMText
 10
10.84076804269641
 20
-0.0000000000000005
 30
0.0
 40
3.2
 41
0.0
 71
     5
 72
     1
  1
%%c12
  7
ASAMI
 11
0.0000000000000001
 21
1.0
 31
0.0
1001
ACAD
1000
MTEXTBEGIN
1070
    73
1070
     1
1070
    44
1040
1.0
1070
    74
1070
     0
1000
MTEXTEND
  0
POINT
  5
15C7
330
13EF
100
AcDbEntity
  8
DEFPOINTS
 62
     0
100
AcDbPoint
 10
0.0000000000000007
 20
-6.0
 30
0.0
  0
POINT
  5
15C8
330
13EF
100
AcDbEntity
  8
DEFPOINTS
 62
     0
100
AcDbPoint
 10
-0.0000000000000003
 20
6.0
 30
0.0
  0
POINT
  5
15C9
330
13EF
100
AcDbEntity
  8
DEFPOINTS
 62
     0
100
AcDbPoint
 10
13.94076804269641
 20
5.999999999999996
 30
0.0
  0
ENDBLK
  5
13FA
330
13EF
100
AcDbEntity
  8
0
100
AcDbBlockEnd
  0
ENDSEC
  0
SECTION
  2
ENTITIES
  0
DIMENSION
  5
1363
330
1F
100
AcDbEntity
  8
AM_5
100
AcDbDimension
  2
*D5
 10
-0.0000000000000016
 20
-43.99999999999992
 30
0.0
 11
-60.0
 21
-40.89999999999991
 31
0.0
 70
    32
  1
<>
  3
AM_JIS
100
AcDbAlignedDimension
 13
-120.0
 23
-5.49999999999998
 33
0.0
 14
0.0000000000000007
 24
-6.000000000000001
 34
0.0
 50
0.0000000000001132
100
AcDbRotatedDimension
1001
GENIUS_GENDTOL_13
1000

1000
h7
1000

1040
0.0
  0
TEXT
  5
1364
330
1F
100
AcDbEntity
  8
AM_6
100
AcDbText
 10
-85.47619047619045
 20
-66.49999999999991
 30
0.0
 40
5.0
  1
SSUPR4120ZX
 72
     4
 11
-59.99999999999997
 21
-63.99999999999992
 31
0.0
100
AcDbText
  0
LINE
  5
1365
330
1F
100
AcDbEntity
  8
AM_0
100
AcDbLine
 10
-50.25980762113537
 20
5.99999999999998
 30
0.0
 11
-119.5
 21
5.999999999999913
 31
0.0
  0
LINE
  5
1366
330
1F
100
AcDbEntity
  8
AM_0
100
AcDbLine
 10
-119.4999999999999
 20
-6.000000000000034
 30
0.0
 11
-50.25980762113532
 21
-6.000000000000019
 31
0.0
  0
LINE
  5
1367
330
1F
100
AcDbEntity
  8
AM_7
100
AcDbLine
 10
-123.0
 20
-0.0000000000000608
 30
0.0
 11
3.0
 21
-0.000000000000036
 31
0.0
1001
GENIUS_GENODEF_13
1002
{
1000
HIER
1070
     0
1002
}
1002
{
1000
MANEDIT
1070
     0
1002
}
1002
{
1000
NOSEL
1070
     0
1002
}
1002
{
1000
BEHIND
1070
     0
1002
}
1002
{
1000
REACTOR
1002
}
1001
GENIUS_GENOBJ-N-CEN_13
1002
{
1000
OWNER
1000
GEN
1002
}
  0
DIMENSION
  5
1368
330
1F
100
AcDbEntity
  8
AM_5
100
AcDbDimension
  2
*D6
 10
-134.0
 20
5.999999999999909
 30
0.0
 11
-134.0
 21
-0.0000000000000549
 31
0.0
 70
   160
  1
%%c<>
  3
AM_JIS
100
AcDbAlignedDimension
 13
-119.5
 23
-5.99999999999998
 33
0.0
 14
-119.5
 24
5.999999999999905
 34
0.0
 50
270.0
100
AcDbRotatedDimension
1001
GENIUS_GENDTOL_13
1000

1000
h7
1000

1040
0.0
  0
LINE
  5
1369
330
1F
100
AcDbEntity
  8
AM_0
100
AcDbLine
 10
-120.0
 20
5.499999999999912
 30
0.0
 11
-119.9999999999999
 21
-5.500000000000034
 31
0.0
  0
LINE
  5
136A
330
1F
100
AcDbEntity
  8
AM_0
100
AcDbLine
 10
-119.4999999999999
 20
-6.000000000000034
 30
0.0
 11
-119.4999999999999
 21
5.999999999999942
 31
0.0
  0
LINE
  5
136B
330
1F
100
AcDbEntity
  8
AM_0
100
AcDbLine
 10
-119.9999999999999
 20
-5.500000000000034
 30
0.0
 11
-119.4999999999999
 21
-6.000000000000034
 31
0.0
1001
GENIUS_GENFIL_13
1070
     0
1040
0.5
1040
0.5
1040
20.0
1040
0.0
1002
{
1002
}
1001
GENIUS_GENODEF_13
1002
{
1000
HIER
1070
     0
1002
}
1002
{
1000
MANEDIT
1070
     0
1002
}
1002
{
1000
NOSEL
1070
     0
1002
}
1002
{
1000
BEHIND
1070
     0
1002
}
1002
{
1000
REACTOR
1002
}
1001
GENIUS_GENOBJ-N-CHA_13
1002
{
1000
OWNER
1000
GEN
1002
}
  0
LINE
  5
136C
330
1F
100
AcDbEntity
  8
AM_0
100
AcDbLine
 10
-120.0
 20
5.499999999999912
 30
0.0
 11
-119.5
 21
5.999999999999913
 31
0.0
1001
GENIUS_GENFIL_13
1070
     0
1040
0.5
1040
0.5
1040
20.0
1040
0.0
1002
{
1002
}
1001
GENIUS_GENODEF_13
1002
{
1000
HIER
1070
     0
1002
}
1002
{
1000
MANEDIT
1070
     0
1002
}
1002
{
1000
NOSEL
1070
     0
1002
}
1002
{
1000
BEHIND
1070
     0
1002
}
1002
{
1000
REACTOR
1002
}
1001
GENIUS_GENOBJ-N-CHA_13
1002
{
1000
OWNER
1000
GEN
1002
}
  0
DIMENSION
  5
136D
330
1F
100
AcDbEntity
  8
AM_5
100
AcDbDimension
  2
*D7
 10
-0.0000000000000001
 20
-19.99999999999992
 30
0.0
 11
-8.999999999999998
 21
-16.89999999999992
 31
0.0
 70
    32
  1
<>
  3
AM_JIS
100
AcDbAlignedDimension
 13
-17.99999999999999
 23
-6.000000000000011
 33
0.0
 14
0.0000000000000007
 24
-6.000000000000001
 34
0.0
 50
0.0000000000001132
100
AcDbRotatedDimension
1001
GENIUS_GENDTOL_13
1000

1000
h7
1000

1040
0.0
  0
DIMENSION
  5
136E
330
1F
100
AcDbEntity
  8
AM_5
100
AcDbDimension
  2
*D8
 10
-50.0
 20
-32.00000000000002
 30
0.0
 11
-25.0
 21
-28.90000000000002
 31
0.0
 70
    32
  1
<>
  3
AM_JIS
100
AcDbAlignedDimension
 13
0.0000000000000007
 23
-6.0
 33
0.0
 14
-50.0
 24
-5.835465539610035
 34
0.0
 50
0.0000000000001132
100
AcDbRotatedDimension
1001
GENIUS_GENDTOL_13
1000

1000
h7
1000

1040
0.0
  0
SPLINE
  5
136F
330
1F
100
AcDbEntity
  8
AM_0
100
AcDbSpline
210
0.0
220
0.0
230
1.0
 70
     8
 71
     3
 72
     8
 73
     4
 74
     0
 42
0.0000000001
 43
0.0000000001
 40
0.5179176998437139
 40
0.5179176998437139
 40
0.5179176998437139
 40
0.5179176998437139
 40
8.999068685365031
 40
8.999068685365031
 40
8.999068685365031
 40
8.999068685365031
 10
-15.40174429321423
 20
5.241904212546709
 30
0.0
 10
-12.0819224168631
 20
4.963752377286053
 30
0.0
 10
-9.33922426055169
 20
2.475643254407012
 30
0.0
 10
-6.596526104239728
 20
-0.0124658684721649
 30
0.0
  0
SPLINE
  5
1370
330
1F
100
AcDbEntity
  8
AM_0
100
AcDbSpline
210
0.0
220
0.0
230
1.0
 70
     8
 71
     3
 72
     8
 73
     4
 74
     0
 42
0.0000000001
 43
0.0000000001
 40
0.5179176998614976
 40
0.5179176998614976
 40
0.5179176998614976
 40
0.5179176998614976
 40
5.514523215700526
 40
5.514523215700526
 40
5.514523215700526
 40
5.514523215700526
 10
-5.981744293193332
 20
5.254370081017035
 30
0.0
 10
-4.025896516484317
 20
5.090499045502773
 30
0.0
 10
-2.270361889979085
 20
4.159576698929666
 30
0.0
 10
-0.5971274466982323
 20
2.91350547981331
 30
0.0
  0
SPLINE
  5
1371
330
1F
100
AcDbEntity
  8
AM_0
100
AcDbSpline
210
0.0
220
0.0
230
1.0
 70
     8
 71
     3
 72
     8
 73
     4
 74
     2
 42
0.0000000001
 43
0.0000000001
 44
0.0000000001
 12
0.9999878186055964
 22
0.0049358525525493
 32
0.0
 40
0.0
 40
0.0
 40
0.0
 40
0.0
 40
11.14834202846262
 40
11.14834202846262
 40
11.14834202846262
 40
11.14834202846262
 10
-9.660000000005402
 20
5.962309115065025
 30
0.0
 10
-5.943931257968258
 20
5.980651305884318
 30
0.0
 10
-3.091965628986884
 20
2.990325652942127
 30
0.0
 10
-0.2400000000055115
 20
-0.000000000000065
 30
0.0
 11
-9.660000000005402
 21
5.962309115065025
 31
0.0
 11
-0.2400000000055115
 21
-0.000000000000065
 31
0.0
  0
SPLINE
  5
1372
330
1F
100
AcDbEntity
  8
AM_0
100
AcDbSpline
210
0.0
220
0.0
230
1.0
 70
     8
 71
     3
 72
     8
 73
     4
 74
     0
 42
0.0000000001
 43
0.0000000001
 40
0.8291973398015029
 40
0.8291973398015029
 40
0.8291973398015029
 40
0.8291973398015029
 40
7.918446762666186
 40
7.918446762666186
 40
7.918446762666186
 40
7.918446762666186
 10
-7.395201906560668
 20
5.593773121182405
 30
0.0
 10
-4.66456847134732
 20
5.214983526594304
 30
0.0
 10
-2.361773201265532
 20
3.29373366853338
 30
0.0
 10
-0.1226771259463021
 20
1.142832777104812
 30
0.0
  0
SPLINE
  5
1373
330
1F
100
AcDbEntity
  8
AM_0
100
AcDbSpline
210
0.0
220
0.0
230
1.0
 70
     8
 71
     3
 72
     8
 73
     4
 74
     0
 42
0.0000000001
 43
0.0000000001
 40
0.829197339801526
 40
0.829197339801526
 40
0.829197339801526
 40
0.829197339801526
 40
9.158576263912857
 40
9.158576263912857
 40
9.158576263912857
 40
9.158576263912857
 10
-16.81520190656056
 20
5.581307252710101
 30
0.0
 10
-13.60689602986485
 20
5.136255614992481
 30
0.0
 10
-10.98920484946475
 20
2.561894873260124
 30
0.0
 10
-8.371513669065189
 20
-0.0124658684721649
 30
0.0
  0
SPLINE
  5
1374
330
1F
100
AcDbEntity
  8
AM_0
100
AcDbSpline
210
0.0
220
0.0
230
1.0
 70
     8
 71
     3
 72
     8
 73
     4
 74
     0
 42
0.0000000001
 43
0.0000000001
 40
0.0
 40
0.0
 40
0.0
 40
0.0
 40
2.57750390504933
 40
2.57750390504933
 40
2.57750390504933
 40
2.57750390504933
 10
-0.2400000000055115
 20
6.0
 30
0.0
 10
0.0422632385520956
 20
5.033614364521944
 30
0.0
 10
-1.18174981445527
 20
4.441352042962629
 30
0.0
 10
-2.504427030693932
 20
4.149875240533359
 30
0.0
  0
SPLINE
  5
1375
330
1F
100
AcDbEntity
  8
AM_0
100
AcDbSpline
210
0.0
220
0.0
230
1.0
 70
     8
 71
     3
 72
     8
 73
     4
 74
     0
 42
0.0000000001
 43
0.0000000001
 40
0.0
 40
0.0
 40
0.0
 40
0.0
 40
3.514580779201212
 40
3.514580779201212
 40
3.514580779201212
 40
3.514580779201212
 10
-0.2329507510196229
 20
5.974774983537261
 30
0.0
 10
-1.645815186687923
 20
5.981713964541294
 30
0.0
 10
-2.927963166368044
 20
5.558063651958699
 30
0.0
 10
-4.133228121407682
 20
4.866719032445533
 30
0.0
  0
SPLINE
  5
1376
330
1F
100
AcDbEntity
  8
AM_0
100
AcDbSpline
210
0.0
220
0.0
230
1.0
 70
     8
 71
     3
 72
     8
 73
     4
 74
     0
 42
0.0000000001
 43
0.0000000001
 40
0.0
 40
0.0
 40
0.0
 40
0.0
 40
3.514580779201212
 40
3.514580779201212
 40
3.514580779201212
 40
3.514580779201212
 10
-9.671889092532728
 20
5.974774983537193
 30
0.0
 10
-11.07770427921541
 20
5.981713964541294
 30
0.0
 10
-12.35985225889526
 20
5.558063651958699
 30
0.0
 10
-13.56511721393517
 20
4.866719032445533
 30
0.0
  0
SPLINE
  5
1377
330
1F
100
AcDbEntity
  8
AM_0
100
AcDbSpline
210
0.0
220
0.0
230
1.0
 70
     8
 71
     3
 72
     8
 73
     4
 74
     0
 42
0.0000000001
 43
0.0000000001
 40
0.0
 40
0.0
 40
0.0
 40
0.0
 40
0.0001935953510688
 40
0.0001935953510688
 40
0.0001935953510688
 40
0.0001935953510688
 10
-6.596526104239728
 20
5.280100526849949
 30
0.0
 10
-6.596448666099331
 20
5.280100526849949
 30
0.0
 10
-6.596371228277893
 20
5.280100525628134
 30
0.0
 10
-6.596293790775689
 20
5.280100523184572
 30
0.0
  0
SPLINE
  5
1378
330
1F
100
AcDbEntity
  8
AM_0
100
AcDbSpline
210
0.0
220
0.0
230
1.0
 70
     8
 71
     3
 72
     8
 73
     4
 74
     0
 42
0.0000000001
 43
0.0000000001
 40
0.0
 40
0.0
 40
0.0
 40
0.0
 40
0.0001935953510984
 40
0.0001935953510984
 40
0.0001935953510984
 40
0.0001935953510984
 10
-16.01652610423962
 20
5.267634658377781
 30
0.0
 10
-16.01644866609922
 20
5.267634658377781
 30
0.0
 10
-16.01637122827778
 20
5.267634657155966
 30
0.0
 10
-16.01629379077558
 20
5.267634654712404
 30
0.0
  0
SPLINE
  5
1379
330
1F
100
AcDbEntity
  8
AM_0
100
AcDbSpline
210
0.0
220
0.0
230
1.0
 70
     8
 71
     3
 72
     8
 73
     4
 74
     0
 42
0.0000000001
 43
0.0000000001
 40
0.0
 40
0.0
 40
0.0
 40
0.0
 40
2.142709433955016
 40
2.142709433955016
 40
2.142709433955016
 40
2.142709433955016
 10
-16.02841519676694
 20
-5.280100526850011
 30
0.0
 10
-15.17133142318498
 20
-5.280100526850011
 30
0.0
 10
-14.35333431941062
 20
-5.130427470985725
 30
0.0
 10
-13.56511721393517
 20
-4.866719032445526
 30
0.0
  0
SPLINE
  5
137A
330
1F
100
AcDbEntity
  8
AM_0
100
AcDbSpline
210
0.0
220
0.0
230
1.0
 70
     8
 71
     3
 72
     8
 73
     4
 74
     2
 42
0.0000000001
 43
0.0000000001
 44
0.0000000001
 12
-1.0
 22
0.0000000000000001
 32
0.0
 40
0.0
 40
0.0
 40
0.0
 40
0.0
 40
10.79888242243813
 40
10.79888242243813
 40
10.79888242243813
 40
10.79888242243813
 10
-6.608415196767055
 20
-5.292566395322043
 30
0.0
 10
-10.2080426709131
 20
-5.292566395322043
 30
0.0
 10
-13.11822893384015
 20
-2.652516131897103
 30
0.0
 10
-16.02841519676721
 20
-0.0124658684721649
 30
0.0
 11
-6.608415196767055
 21
-5.292566395322043
 31
0.0
 11
-16.02841519676721
 21
-0.0124658684721649
 31
0.0
  0
SPLINE
  5
137B
330
1F
100
AcDbEntity
  8
AM_0
100
AcDbSpline
210
0.0
220
0.0
230
1.0
 70
     8
 71
     3
 72
     8
 73
     4
 74
     2
 42
0.0000000001
 43
0.0000000001
 44
0.0000000001
 12
-1.0
 22
0.0000000000000001
 32
0.0
 40
0.0
 40
0.0
 40
0.0
 40
0.0
 40
10.99029151669527
 40
10.99029151669527
 40
10.99029151669527
 40
10.99029151669527
 10
-8.383402761592241
 20
-5.673747315454485
 30
0.0
 10
-12.04683326715733
 20
-5.673747315454484
 30
0.0
 10
-14.92511801437473
 20
-2.843106591963324
 30
0.0
 10
-17.80340276159213
 20
-0.0124658684721649
 30
0.0
 11
-8.383402761592241
 21
-5.673747315454485
 31
0.0
 11
-17.80340276159213
 21
-0.0124658684721649
 31
0.0
  0
SPLINE
  5
137C
330
1F
100
AcDbEntity
  8
AM_0
100
AcDbSpline
210
0.0
220
0.0
230
1.0
 70
     8
 71
     3
 72
     8
 73
     4
 74
     0
 42
0.0000000001
 43
0.0000000001
 40
0.0
 40
0.0
 40
0.0
 40
0.0
 40
8.399619336653909
 40
8.399619336653909
 40
8.399619336653909
 40
8.399619336653909
 10
-9.671889092532728
 20
-5.974774983537255
 30
0.0
 10
-13.03169589956405
 20
-5.991358696554558
 30
0.0
 10
-15.68514172309123
 20
-3.548507250681788
 30
0.0
 10
-18.27086825823507
 20
-0.8698681513634223
 30
0.0
  0
SPLINE
  5
137D
330
1F
100
AcDbEntity
  8
AM_0
100
AcDbSpline
210
0.0
220
0.0
230
1.0
 70
     8
 71
     3
 72
     8
 73
     4
 74
     0
 42
0.0000000001
 43
0.0000000001
 40
0.0
 40
0.0
 40
0.0
 40
0.0
 40
2.142709433955016
 40
2.142709433955016
 40
2.142709433955016
 40
2.142709433955016
 10
-6.596526104239728
 20
-5.280100526849943
 30
0.0
 10
-5.739442330657766
 20
-5.280100526849943
 30
0.0
 10
-4.921445226883133
 20
-5.130427470985656
 30
0.0
 10
-4.133228121407682
 20
-4.866719032445526
 30
0.0
  0
SPLINE
  5
137E
330
1F
100
AcDbEntity
  8
AM_0
100
AcDbSpline
210
0.0
220
0.0
230
1.0
 70
     8
 71
     3
 72
     8
 73
     4
 74
     0
 42
0.0000000001
 43
0.0000000001
 40
2.924396646875711
 40
2.924396646875711
 40
2.924396646875711
 40
2.924396646875711
 40
8.999068685365031
 40
8.999068685365031
 40
8.999068685365031
 40
8.999068685365031
 10
-0.491040239108861
 20
-4.546772494003899
 30
0.0
 10
-2.667580179658125
 20
-3.576710142219027
 30
0.0
 10
-4.632053141948927
 20
-1.794588005345596
 30
0.0
 10
-6.596526104239728
 20
-0.0124658684720966
 30
0.0
  0
SPLINE
  5
137F
330
1F
100
AcDbEntity
  8
AM_0
100
AcDbSpline
210
0.0
220
0.0
230
1.0
 70
     8
 71
     3
 72
     8
 73
     4
 74
     0
 42
0.0000000001
 43
0.0000000001
 40
1.045144398564957
 40
1.045144398564957
 40
1.045144398564957
 40
1.045144398564957
 40
9.158576263912857
 40
9.158576263912857
 40
9.158576263912857
 40
9.158576263912857
 10
-0.1761799001933468
 20
-5.567367260026795
 30
0.0
 10
-3.27186356785105
 20
-5.02770185789495
 30
0.0
 10
-5.821688618458119
 20
-2.520083863183455
 30
0.0
 10
-8.371513669065189
 20
-0.0124658684720966
 30
0.0
  0
SPLINE
  5
1380
330
1F
100
AcDbEntity
  8
AM_0
100
AcDbSpline
210
0.0
220
0.0
230
1.0
 70
     8
 71
     3
 72
     8
 73
     4
 74
     2
 42
0.0000000001
 43
0.0000000001
 44
0.0000000001
 12
-0.9999878186055964
 22
-0.0049358525525494
 32
0.0
 40
0.0
 40
0.0
 40
0.0
 40
0.0
 40
11.16185311568917
 40
11.16185311568917
 40
11.16185311568917
 40
11.16185311568917
 10
-0.2400000000055115
 20
-6.000000000000954
 30
0.0
 10
-3.960572382923544
 20
-6.018364420398373
 30
0.0
 10
-6.810286191464473
 20
-3.015415144435269
 30
0.0
 10
-9.660000000005402
 20
-0.0124658684721649
 30
0.0
 11
-0.2400000000055115
 21
-6.000000000000954
 31
0.0
 11
-9.660000000005402
 21
-0.0124658684721649
 31
0.0
  0
SPLINE
  5
1381
330
1F
100
AcDbEntity
  8
AM_0
100
AcDbSpline
210
0.0
220
0.0
230
1.0
 70
     8
 71
     3
 72
     8
 73
     4
 74
     2
 42
0.0000000001
 43
0.0000000001
 44
0.0000000001
 12
0.2968072260726872
 22
-0.9549374170860815
 32
0.0
 13
-0.1104733016500219
 23
-0.9938790920542315
 33
0.0
 40
0.0
 40
0.0
 40
0.0
 40
0.0
 40
1.954778745435693
 40
1.954778745435693
 40
1.954778745435693
 40
1.954778745435693
 10
-0.4920630452957085
 20
-2.591994016151576
 30
0.0
 10
-0.2986655596228366
 20
-3.214224471531953
 30
0.0
 10
-0.4190566184410047
 20
-3.899167919110387
 30
0.0
 10
-0.491040239108861
 20
-4.546772494003899
 30
0.0
 11
-0.4920630452957085
 21
-2.591994016151576
 31
0.0
 11
-0.491040239108861
 21
-4.546772494003899
 31
0.0
  0
SPLINE
  5
1382
330
1F
100
AcDbEntity
  8
AM_0
100
AcDbSpline
210
0.0
220
0.0
230
1.0
 70
     8
 71
     3
 72
     8
 73
     4
 74
     0
 42
0.0000000001
 43
0.0000000001
 40
9.141233629465322
 40
9.141233629465322
 40
9.141233629465322
 40
9.141233629465322
 40
9.290285023718936
 40
9.290285023718936
 40
9.290285023718936
 40
9.290285023718936
 10
-0.1027274072612272
 20
-0.1439160573251879
 30
0.0
 10
-0.1484873171807521
 20
-0.0959523215284175
 30
0.0
 10
-0.1942436585931318
 20
-0.0479761607642072
 30
0.0
 10
-0.2400000000055115
 20
0.0000000000000032
 30
0.0
  0
SPLINE
  5
1383
330
1F
100
AcDbEntity
  8
AM_0
100
AcDbSpline
210
0.0
220
0.0
230
1.0
 70
     8
 71
     3
 72
     9
 73
     5
 74
     3
 42
0.0000000001
 43
0.0000000001
 44
0.0000000001
 12
-0.9959561288896111
 22
0.0898409112109892
 32
0.0
 13
0.5961652186767443
 23
-0.8028617764223861
 33
0.0
 40
0.0
 40
0.0
 40
0.0
 40
0.0
 40
0.7889298244760217
 40
3.74846549685559
 40
3.74846549685559
 40
3.74846549685559
 40
3.74846549685559
 10
-1.674188703345953
 20
-0.002161304603052
 30
0.0
 10
-1.936101867996186
 20
0.0214647535010985
 30
0.0
 10
-3.428544139413517
 20
-0.7772595244946608
 30
0.0
 10
-1.080187122405278
 20
-1.79996132706276
 30
0.0
 10
-0.4920630453033482
 20
-2.591994016166787
 30
0.0
 11
-1.674188703345953
 21
-0.002161304603052
 31
0.0
 11
-2.394188703346117
 21
-0.3246675339189064
 31
0.0
 11
-0.4920630453033482
 21
-2.591994016166787
 31
0.0
  0
SPLINE
  5
1384
330
1F
100
AcDbEntity
  8
AM_0
100
AcDbSpline
210
0.0
220
0.0
230
1.0
 70
     8
 71
     3
 72
     8
 73
     4
 74
     0
 42
0.0000000001
 43
0.0000000001
 40
0.0
 40
0.0
 40
0.0
 40
0.0
 40
2.085529961854907
 40
2.085529961854907
 40
2.085529961854907
 40
2.085529961854907
 10
-8.371513669064915
 20
-5.661281446982385
 30
0.0
 10
-7.537301684322937
 20
-5.661281446982385
 30
0.0
 10
-6.74380214820876
 20
-5.514503203817886
 30
0.0
 10
-5.981744293193605
 20
-5.254370081017028
 30
0.0
  0
SPLINE
  5
1385
330
1F
100
AcDbEntity
  8
AM_0
100
AcDbSpline
210
0.0
220
0.0
230
1.0
 70
     8
 71
     3
 72
     8
 73
     4
 74
     0
 42
0.0000000001
 43
0.0000000001
 40
0.0
 40
0.0
 40
0.0
 40
0.0
 40
1.978364719412732
 40
1.978364719412732
 40
1.978364719412732
 40
1.978364719412732
 10
-9.660000000005402
 20
-5.962309115065019
 30
0.0
 10
-8.868663751936674
 20
-5.966215081685114
 30
0.0
 10
-8.116512536283062
 20
-5.833685077640299
 30
0.0
 10
-7.395201906619058
 20
-5.593773121201771
 30
0.0
  0
SPLINE
  5
1386
330
1F
100
AcDbEntity
  8
AM_0
100
AcDbSpline
210
0.0
220
0.0
230
1.0
 70
     8
 71
     3
 72
     8
 73
     4
 74
     0
 42
0.0000000001
 43
0.0000000001
 40
0.0
 40
0.0
 40
0.0
 40
0.0
 40
1.690066516727341
 40
1.690066516727341
 40
1.690066516727341
 40
1.690066516727341
 10
-16.04030428929427
 20
-5.292566395322043
 30
0.0
 10
-16.71633089598554
 20
-5.292566395322043
 30
0.0
 10
-17.36804051907465
 20
-5.19945032114701
 30
0.0
 10
-18.0
 20
-5.030705800087636
 30
0.0
  0
SPLINE
  5
1387
330
1F
100
AcDbEntity
  8
AM_0
100
AcDbSpline
210
0.0
220
0.0
230
1.0
 70
     8
 71
     3
 72
     8
 73
     4
 74
     0
 42
0.0000000001
 43
0.0000000001
 40
8.950064817795073
 40
8.950064817795073
 40
8.950064817795073
 40
8.950064817795073
 40
9.158576263912857
 40
9.158576263912857
 40
9.158576263912857
 40
9.158576263912857
 10
-18.00000000000027
 20
0.1808345958762206
 30
0.0
 10
-17.9344614103792
 20
0.1164233766872062
 30
0.0
 10
-17.86893208598566
 20
0.0519787541075207
 30
0.0
 10
-17.80340276159213
 20
-0.0124658684721649
 30
0.0
  0
SPLINE
  5
1388
330
1F
100
AcDbEntity
  8
AM_0
100
AcDbSpline
210
0.0
220
0.0
230
1.0
 70
     8
 71
     3
 72
     8
 73
     4
 74
     0
 42
0.0000000001
 43
0.0000000001
 40
6.974934265298577
 40
6.974934265298577
 40
6.974934265298577
 40
6.974934265298577
 40
8.999068685365031
 40
8.999068685365031
 40
8.999068685365031
 40
8.999068685365031
 10
-18.00000000000245
 20
1.73894807645818
 30
0.0
 10
-17.33757470861191
 20
1.175171829547574
 30
0.0
 10
-16.68299495268956
 20
0.5813529805377389
 30
0.0
 10
-16.02841519676721
 20
-0.0124658684721649
 30
0.0
  0
SPLINE
  5
1389
330
1F
100
AcDbEntity
  8
AM_0
100
AcDbSpline
210
0.0
220
0.0
230
1.0
 70
     8
 71
     3
 72
     8
 73
     4
 74
     0
 42
0.0000000001
 43
0.0000000001
 40
0.9308799986946773
 40
0.9308799986946773
 40
0.9308799986946773
 40
0.9308799986946773
 40
9.304213052490601
 40
9.304213052490601
 40
9.304213052490601
 40
9.304213052490601
 10
-18.0
 20
5.892770546600223
 30
0.0
 10
-14.7989427735043
 20
5.393534746441766
 30
0.0
 10
-12.22947138675974
 20
2.696767373220846
 30
0.0
 10
-9.660000000015177
 20
-0.0000000000000735
 30
0.0
  0
SPLINE
  5
138A
330
1F
100
AcDbEntity
  8
AM_0
100
AcDbSpline
210
0.0
220
0.0
230
1.0
 70
     8
 71
     3
 72
     8
 73
     4
 74
     0
 42
0.0000000001
 43
0.0000000001
 40
1.015969964738205
 40
1.015969964738205
 40
1.015969964738205
 40
1.015969964738205
 40
2.085529961854907
 40
2.085529961854907
 40
2.085529961854907
 40
2.085529961854907
 10
-18.0
 20
-5.850000000000035
 30
0.0
 10
-17.41642482318676
 20
-5.744833523958988
 30
0.0
 10
-17.13363413476279
 20
-5.434168436433846
 30
0.0
 10
-16.78920382922418
 20
-5.254370081017037
 30
0.0
  0
LINE
  5
138B
330
1F
100
AcDbEntity
  8
AM_11
100
AcDbLine
 10
-17.99999999999999
 20
5.999999999999988
 30
0.0
 11
0.0000000000000001
 21
6.0
 31
0.0
  0
LINE
  5
138C
330
1F
100
AcDbEntity
  8
AM_11
100
AcDbLine
 10
0.0
 20
-6.0
 30
0.0
 11
-17.99999999999999
 21
-6.000000000000011
 31
0.0
  0
LINE
  5
138F
330
1F
100
AcDbEntity
  8
AM_0
100
AcDbLine
 10
-50.0
 20
5.849999999999961
 30
0.0
 11
-50.0
 21
-5.850000000000044
 31
0.0
  0
LINE
  5
1390
330
1F
100
AcDbEntity
  8
AM_0
100
AcDbLine
 10
-50.25980762113532
 20
-6.000000000000019
 30
0.0
 11
-50.25980762113537
 21
5.99999999999998
 31
0.0
  0
LINE
  5
1391
330
1F
100
AcDbEntity
  8
AM_0
100
AcDbLine
 10
-50.0
 20
-5.850000000000019
 30
0.0
 11
-50.25980762113532
 21
-6.000000000000017
 31
0.0
  0
LINE
  5
1392
330
1F
100
AcDbEntity
  8
AM_0
100
AcDbLine
 10
-50.0
 20
5.849999999999961
 30
0.0
 11
-50.25980762113537
 21
5.99999999999998
 31
0.0
  0
LINE
  5
1393
330
1F
100
AcDbEntity
  8
AM_11
100
AcDbLine
 10
-17.99999999999999
 20
5.999999999999988
 30
0.0
 11
-17.99999999999999
 21
-6.000000000000011
 31
0.0
  0
POLYLINE
  5
1394
330
1F
100
AcDbEntity
  8
AM_0
100
AcDb2dPolyline
 66
     1
 10
0.0
 20
0.0
 30
0.0
  0
VERTEX
  5
1395
330
1394
100
AcDbEntity
  8
AM_0
100
AcDbVertex
100
AcDb2dVertex
 10
-18.04277054660026
 20
5.849999999999953
 30
0.0
 42
0.0253906470954273
  0
VERTEX
  5
1396
330
1394
100
AcDbEntity
  8
AM_0
100
AcDbVertex
100
AcDb2dVertex
 10
-20.87916497802243
 20
5.298386231268213
 30
0.0
 42
0.0139461738785528
  0
VERTEX
  5
1397
330
1394
100
AcDbEntity
  8
AM_0
100
AcDbVertex
100
AcDb2dVertex
 10
-21.3852396719757
 20
5.157788540996725
 30
0.0
 42
0.0436287246585526
  0
VERTEX
  5
1398
330
1394
100
AcDbEntity
  8
AM_0
100
AcDbVertex
100
AcDb2dVertex
 10
-21.82549404475639
 20
4.978834611198144
 30
0.0
 42
0.2738540026404822
  0
VERTEX
  5
1399
330
1394
100
AcDbEntity
  8
AM_0
100
AcDbVertex
100
AcDb2dVertex
 10
-21.86884533940065
 20
4.910133936180372
 30
0.0
 42
0.1958299863149157
  0
VERTEX
  5
139A
330
1394
100
AcDbEntity
  8
AM_0
100
AcDbVertex
100
AcDb2dVertex
 10
-21.83517994374651
 20
4.82027244540337
 30
0.0
 42
0.028966137260715
  0
VERTEX
  5
139B
330
1394
100
AcDbEntity
  8
AM_0
100
AcDbVertex
100
AcDb2dVertex
 10
-21.3852396719757
 20
4.386015364104591
 30
0.0
 42
0.0057813111855378
  0
VERTEX
  5
139C
330
1394
100
AcDbEntity
  8
AM_0
100
AcDbVertex
100
AcDb2dVertex
 10
-20.85360501390923
 20
3.939873315321219
 30
0.0
 42
0.0022201051474406
  0
VERTEX
  5
139D
330
1394
100
AcDbEntity
  8
AM_0
100
AcDbVertex
100
AcDb2dVertex
 10
-19.45081700227646
 20
2.800422434243487
 30
0.0
 42
0.0115243051902067
  0
VERTEX
  5
139E
330
1394
100
AcDbEntity
  8
AM_0
100
AcDbVertex
100
AcDb2dVertex
 10
-18.97622935171029
 20
2.436111251345718
 30
0.0
 42
0.0057470741765196
  0
VERTEX
  5
139F
330
1394
100
AcDbEntity
  8
AM_0
100
AcDbVertex
100
AcDb2dVertex
 10
-17.99999999994706
 20
1.738948076417645
 30
0.0
  0
SEQEND
  5
13A0
330
1394
100
AcDbEntity
  8
AM_0
  0
POLYLINE
  5
13A1
330
1F
100
AcDbEntity
  8
AM_0
100
AcDb2dPolyline
 66
     1
 10
0.0
 20
0.0
 30
0.0
 70
     2
  0
VERTEX
  5
13A2
330
13A1
100
AcDbEntity
  8
AM_0
100
AcDbVertex
100
AcDb2dVertex
 10
-18.0
 20
-5.030705800087721
 30
0.0
 42
-0.0230041772467715
  0
VERTEX
  5
13A3
330
13A1
100
AcDbEntity
  8
AM_0
100
AcDbVertex
100
AcDb2dVertex
 10
-18.9616911176462
 20
-4.36527808539055
 30
0.0
 42
-0.0405369427811071
 70
     1
  0
VERTEX
  5
13A4
330
13A1
100
AcDbEntity
  8
AM_0
100
AcDbVertex
100
AcDb2dVertex
 10
-19.45574999999998
 20
-3.921065473274429
 30
0.0
 42
-0.0218730450044702
  0
VERTEX
  5
13A5
330
13A1
100
AcDbEntity
  8
AM_0
100
AcDbVertex
100
AcDb2dVertex
 10
-20.66001886280792
 20
-2.530441866988931
 30
0.0
 42
-0.0311955358087158
 70
     1
  0
VERTEX
  5
13A6
330
13A1
100
AcDbEntity
  8
AM_0
100
AcDbVertex
100
AcDb2dVertex
 10
-21.39675000000006
 20
-1.470923785773507
 30
0.0
 42
-0.0495171753539275
  0
VERTEX
  5
13A7
330
13A1
100
AcDbEntity
  8
AM_0
100
AcDbVertex
100
AcDb2dVertex
 10
-21.80864396537208
 20
-0.6100567674155539
 30
0.0
 42
-0.0980887089957094
 70
     1
  0
VERTEX
  5
13A8
330
13A1
100
AcDbEntity
  8
AM_0
100
AcDbVertex
100
AcDb2dVertex
 10
-21.88199999999988
 20
-0.1304224250859445
 30
0.0
 42
-0.1602936925217278
  0
VERTEX
  5
13A9
330
13A1
100
AcDbEntity
  8
AM_0
100
AcDbVertex
100
AcDb2dVertex
 10
-21.75287178154266
 20
0.2109065853613718
 30
0.0
 42
-0.1317128335817564
 70
     1
  0
VERTEX
  5
13AA
330
13A1
100
AcDbEntity
  8
AM_0
100
AcDbVertex
100
AcDb2dVertex
 10
-21.39675000000006
 20
0.4701925436388227
 30
0.0
 42
-0.1572941928372058
  0
VERTEX
  5
13AB
330
13A1
100
AcDbEntity
  8
AM_0
100
AcDbVertex
100
AcDb2dVertex
 10
-20.90233539654846
 20
0.4975991659273721
 30
0.0
 42
-0.0493803804385245
 70
     1
  0
VERTEX
  5
13AC
330
13A1
100
AcDbEntity
  8
AM_0
100
AcDbVertex
100
AcDb2dVertex
 10
-19.45574999999998
 20
-0.0392113367115737
 30
0.0
 42
-0.0494001655057179
  0
VERTEX
  5
13AD
330
13A1
100
AcDbEntity
  8
AM_0
100
AcDbVertex
100
AcDb2dVertex
 10
-18.69172847093313
 20
-0.5105192188020649
 30
0.0
 42
-0.0470909004785133
 70
     1
  0
VERTEX
  5
13AE
330
13A1
100
AcDbEntity
  8
AM_0
100
AcDbVertex
100
AcDb2dVertex
 10
-18.0
 20
-1.149230185786737
 30
0.0
  0
SEQEND
  5
13AF
330
13A1
100
AcDbEntity
  8
AM_0
  0
LINE
  5
13B0
330
1F
100
AcDbEntity
  8
AM_0
100
AcDbLine
 10
-18.0
 20
-1.149230185668303
 30
0.0
 11
-18.0
 21
0.1808345958766981
 31
0.0
  0
LINE
  5
13B1
330
1F
100
AcDbEntity
  8
AM_0
100
AcDbLine
 10
-17.99999999999999
 20
5.892770546600222
 30
0.0
 11
-18.04277054660026
 21
5.849999999999953
 31
0.0
  0
DIMENSION
  5
13B2
330
1F
100
AcDbEntity
  8
AM_5
100
AcDbDimension
  2
*D9
 10
13.94076804269641
 20
5.999999999999996
 30
0.0
 11
13.94076804269641
 21
-0.0000000000000009
 31
0.0
 70
   160
  1
%%c<>
  3
AM_JIS
100
AcDbAlignedDimension
 13
0.0000000000000007
 23
-6.0
 33
0.0
 14
-0.0000000000000003
 24
6.0
 34
0.0
 50
89.99999999999884
100
AcDbRotatedDimension
1001
GENIUS_GENDTOL_13
1000

1000
h7
1000

1040
0.0
  0
LINE
  5
13B3
330
1F
100
AcDbEntity
  8
AM_0
100
AcDbLine
 10
0.0
 20
6.0
 30
0.0
 11
0.0
 21
-6.0
 31
0.0
  0
LINE
  5
13B4
330
1F
100
AcDbEntity
  8
AM_0
100
AcDbLine
 10
-0.1184639146074005
 20
1.127108858324689
 30
0.0
 11
-0.5971274466971409
 21
2.913505479814401
 31
0.0
  0
LINE
  5
13B5
330
1F
100
AcDbEntity
  8
AM_0
100
AcDbLine
 10
-0.1373948001181816
 20
-5.616314310887124
 30
0.0
 11
-0.1373948001181816
 21
-1.879397458813238
 31
0.0
  0
LINE
  5
13B6
330
1F
100
AcDbEntity
  8
AM_0
100
AcDbLine
 10
-0.1184639146074005
 20
-1.841361677415485
 30
0.0
 11
-0.4920630453033482
 21
-2.591994016166787
 31
0.0
  0
LINE
  5
13B7
330
1F
100
AcDbEntity
  8
AM_0
100
AcDbLine
 10
-0.1373948001181816
 20
-5.616314310887124
 30
0.0
 11
-0.2079081614324423
 21
-5.527325986094839
 31
0.0
  0
LINE
  5
13B8
330
1F
100
AcDbEntity
  8
AM_0
100
AcDbLine
 10
0.0
 20
-6.0
 30
0.0
 11
-0.1373948001181816
 21
-5.616314310887124
 31
0.0
  0
LINE
  5
13B9
330
1F
100
AcDbEntity
  8
AM_0
100
AcDbLine
 10
-0.2400000000000546
 20
-6.0
 30
0.0
 11
0.0
 21
-6.0
 31
0.0
  0
LINE
  5
13BA
330
1F
100
AcDbEntity
  8
AM_0
100
AcDbLine
 10
-0.2079081614324423
 20
-5.527325986094839
 30
0.0
 11
-0.491040239108861
 21
-4.546772494003899
 31
0.0
  0
LINE
  5
13BB
330
1F
100
AcDbEntity
  8
AM_0
100
AcDbLine
 10
0.0
 20
-0.1531826541231762
 30
0.0
 11
-0.1184639146074005
 21
1.127108858324689
 31
0.0
  0
LINE
  5
13BC
330
1F
100
AcDbEntity
  8
AM_0
100
AcDbLine
 10
0.0
 20
-0.1531826541231762
 30
0.0
 11
-1.674188703345953
 21
-0.002161304603052
 31
0.0
  0
LINE
  5
13BD
330
1F
100
AcDbEntity
  8
AM_0
100
AcDbLine
 10
-0.1184639146074005
 20
-1.841361677415485
 30
0.0
 11
0.0
 21
-1.473651505654489
 31
0.0
  0
LINE
  5
13BE
330
1F
100
AcDbEntity
  8
AM_0
100
AcDbLine
 10
-0.2400000000055115
 20
6.0
 30
0.0
 11
0.0
 21
6.0
 31
0.0
  0
LINE
  5
159C
330
1F
100
AcDbEntity
  8
AM_0
100
AcDbLine
 10
-17.99999999999985
 20
-5.850000000000045
 30
0.0
 11
-50.0
 21
-5.850000000000019
 31
0.0
  0
LINE
  5
159D
330
1F
100
AcDbEntity
  8
AM_0
100
AcDbLine
 10
-49.99999999999999
 20
5.849999999999953
 30
0.0
 11
-18.04277054660026
 21
5.849999999999953
 31
0.0
  0
VIEWPORT
  5
110
330
101
100
AcDbEntity
 67
     1
  8
0
100
AcDbViewport
 10
420.5
 20
297.0
 30
0.0
 40
948.9782706766916
 41
628.452
 68
     1
 69
     1
1001
ACAD
1000
MVIEW
1002
{
1070
    16
1010
0.0
1020
0.0
1030
0.0
1010
0.0
1020
0.0
1030
1.0
1040
0.0
1040
628.452
1040
420.5
1040
297.0
1040
50.0
1040
0.0
1040
0.0
1070
     0
1070
   100
1070
     1
1070
     1
1070
     0
1070
     0
1070
     0
1070
     0
1040
0.0
1040
0.0
1040
0.0
1040
10.0
1040
10.0
1040
10.0
1040
10.0
1070
     0
1002
{
1002
}
1002
}
  0
ENDSEC
  0
SECTION
  2
OBJECTS
  0
DICTIONARY
  5
C
330
0
100
AcDbDictionary
  3
ACAD_GROUP
350
D
  3
ACAD_LAYOUT
350
1A
  3
ACAD_MLINESTYLE
350
17
  3
ACAD_PLOTSETTINGS
350
19
  3
ACAD_PLOTSTYLENAME
350
E
  3
ACDBVARIABLEDICTIONARY
350
34
  3
ACMDICTIONARY
350
43
  3
AMG
350
2B
  3
AMGSNAPSETTINGS
350
6E
  3
DWGPROPS
350
160A
  3
ACDBHEADERROUNDTRIPXREC
350
1616
  0
DICTIONARY
  5
74
330
1F
100
AcDbDictionary
280
     1
  3
ACAD_INDEX
360
160C
  3
ACAD_LAYOUTSELFREF
360
1639
  0
DICTIONARY
  5
163E
330
101
100
AcDbDictionary
280
     1
  3
ACAD_LAYOUTSELFREF
360
163F
  0
DICTIONARY
  5
D
102
{ACAD_REACTORS
330
C
102
}
330
C
100
AcDbDictionary
  0
DICTIONARY
  5
1A
102
{ACAD_REACTORS
330
C
102
}
330
C
100
AcDbDictionary
  0
DICTIONARY
  5
17
102
{ACAD_REACTORS
330
C
102
}
330
C
100
AcDbDictionary
  3
STANDARD
350
18
  0
DICTIONARY
  5
19
102
{ACAD_REACTORS
330
C
102
}
330
C
100
AcDbDictionary
  0
ACDBDICTIONARYWDFLT
  5
E
102
{ACAD_REACTORS
330
C
102
}
330
C
100
AcDbDictionary
281
     1
  3
Normal
350
F
100
AcDbDictionaryWithDefault
340
F
  0
DICTIONARY
  5
34
102
{ACAD_REACTORS
330
C
102
}
330
C
100
AcDbDictionary
  3
INDEXCTL
350
35
  3
SORTENTS
350
B5E
  0
DICTIONARY
  5
43
102
{ACAD_REACTORS
330
C
102
}
330
C
100
AcDbDictionary
  3
ACMSTDDICTIONARY
350
260
  0
DICTIONARY
  5
2B
102
{ACAD_REACTORS
330
C
102
}
330
C
100
AcDbDictionary
  3
ACMGSETTINGS
350
2C
  0
DICTIONARY
  5
6E
102
{ACAD_REACTORS
330
C
102
}
330
C
100
AcDbDictionary
  0
XRECORD
  5
160A
102
{ACAD_REACTORS
330
C
102
}
330
C
100
AcDbXrecord
  1
DWGPROPS COOKIE
  2

  3

  4

  6

  7

  8

  9

300
AmdtFileType=82
301
=
302
=
303
=
304
=
305
=
306
=
307
=
308
=
309
=
 40
0.0231691203703704
 41
2452809.475734583
 42
2452844.500228588
  1

 90
        1
  0
DICTIONARY
  5
1616
102
{ACAD_REACTORS
330
C
102
}
330
C
100
AcDbDictionary
  3
TSTACKALIGN
350
1617
  3
TSTACKSIZE
350
1618
  3
HYPERLINKBASE
350
1619
  3
STYLESHEET
350
161A
  3
LAYOUTDICT
350
161B
  3
PLOTSETDICT
350
161C
  3
PLOTSTYLNAMDICT
350
161D
  3
LWETCUNION
350
161E
  3
INSUNITS
350
161F
  3
CEPSNTYPE
350
1620
  3
FINGERPRINTGUID
350
1621
  3
VERSIONGUID
350
1622
  3
PSVPSCALE
350
1623
  3
DIMSTYLEDATA
350
1624
  3
PUCSORTHOREF
350
1625
  3
PUCSORTHOVIEW
350
1626
  3
PUCSBASE
350
1627
  3
PUCSORGTOP
350
1628
  3
PUCSORGBOTTOM
350
1629
  3
PUCSORGLEFT
350
162A
  3
PUCSORGRIGHT
350
162B
  3
PUCSORGFRONT
350
162C
  3
PUCSORGBACK
350
162D
  3
UCSORTHOREF
350
162E
  3
UCSORTHOVIEW
350
162F
  3
UCSBASE
350
1630
  3
UCSORGTOP
350
1631
  3
UCSORGBOTTOM
350
1632
  3
UCSORGLEFT
350
1633
  3
UCSORGRIGHT
350
1634
  3
UCSORGFRONT
350
1635
  3
UCSORGBACK
350
1636
  0
DICTIONARY
  5
160C
102
{ACAD_REACTORS
330
74
102
}
330
74
100
AcDbDictionary
  3
*A1
350
160D
  0
XRECORD
  5
1639
102
{ACAD_REACTORS
330
74
102
}
330
74
100
AcDbXrecord
340
1F
  0
XRECORD
  5
163F
102
{ACAD_REACTORS
330
163E
102
}
330
163E
100
AcDbXrecord
340
101
  0
MLINESTYLE
  5
18
102
{ACAD_REACTORS
330
17
102
}
330
17
100
AcDbMlineStyle
  2
STANDARD
 70
     0
  3

 62
   256
 51
90.0
 52
90.0
 71
     2
 49
0.5
 62
   256
  6
BYLAYER
 49
-0.5
 62
   256
  6
BYLAYER
  0
ACDBPLACEHOLDER
  5
F
102
{ACAD_REACTORS
330
E
102
}
330
E
100
AcDbPlaceHolder
280
     0
  0
DICTIONARYVAR
  5
35
102
{ACAD_REACTORS
330
34
102
}
330
34
100
DictionaryVariables
280
     0
  1
1
  0
DICTIONARYVAR
  5
B5E
102
{ACAD_REACTORS
330
34
102
}
330
34
100
DictionaryVariables
280
     0
  1
96
  0
DICTIONARY
  5
260
102
{ACAD_REACTORS
330
43
102
}
330
43
100
AcDbDictionary
  0
DICTIONARY
  5
2C
102
{ACAD_REACTORS
330
2B
102
}
330
2B
100
AcDbDictionary
  3
DWGSETTINGS
350
2D
  0
XRECORD
  5
1617
102
{ACAD_REACTORS
330
1616
102
}
330
1616
100
AcDbXrecord
 90
        1
  0
XRECORD
  5
1618
102
{ACAD_REACTORS
330
1616
102
}
330
1616
100
AcDbXrecord
 90
       70
  0
XRECORD
  5
1619
102
{ACAD_REACTORS
330
1616
102
}
330
1616
100
AcDbXrecord
  1

  0
XRECORD
  5
161A
102
{ACAD_REACTORS
330
1616
102
}
330
1616
100
AcDbXrecord
  1
ASAMI.ctb
  0
XRECORD
  5
161B
102
{ACAD_REACTORS
330
1616
102
}
330
1616
100
AcDbXrecord
340
1A
  0
XRECORD
  5
161C
102
{ACAD_REACTORS
330
1616
102
}
330
1616
100
AcDbXrecord
340
19
  0
XRECORD
  5
161D
102
{ACAD_REACTORS
330
1616
102
}
330
1616
100
AcDbXrecord
340
E
  0
XRECORD
  5
161E
102
{ACAD_REACTORS
330
1616
102
}
330
1616
100
AcDbXrecord
 90
    10781
  0
XRECORD
  5
161F
102
{ACAD_REACTORS
330
1616
102
}
330
1616
100
AcDbXrecord
 90
        4
  0
XRECORD
  5
1620
102
{ACAD_REACTORS
330
1616
102
}
330
1616
100
AcDbXrecord
 90
        0
  0
XRECORD
  5
1621
102
{ACAD_REACTORS
330
1616
102
}
330
1616
100
AcDbXrecord
  1
{AFB28963-8C59-40AE-9337-C84526B81ACE}
  0
XRECORD
  5
1622
102
{ACAD_REACTORS
330
1616
102
}
330
1616
100
AcDbXrecord
  1
{C941545A-F7EC-4023-88DE-75F453497348}
  0
XRECORD
  5
1623
102
{ACAD_REACTORS
330
1616
102
}
330
1616
100
AcDbXrecord
 40
0.0
  0
XRECORD
  5
1624
102
{ACAD_REACTORS
330
1616
102
}
330
1616
100
AcDbXrecord
1000
DSTYLE
1002
{
1070
    79
 70
     2
1070
   341
340
59
1070
   342
340
59
1070
   371
 70
    -1
1070
   372
 70
    -1
1002
}
  0
XRECORD
  5
1625
102
{ACAD_REACTORS
330
1616
102
}
330
1616
100
AcDbXrecord
340
0
  0
XRECORD
  5
1626
102
{ACAD_REACTORS
330
1616
102
}
330
1616
100
AcDbXrecord
 70
     0
  0
XRECORD
  5
1627
102
{ACAD_REACTORS
330
1616
102
}
330
1616
100
AcDbXrecord
340
0
  0
XRECORD
  5
1628
102
{ACAD_REACTORS
330
1616
102
}
330
1616
100
AcDbXrecord
 10
0.0
 20
0.0
 30
0.0
  0
XRECORD
  5
1629
102
{ACAD_REACTORS
330
1616
102
}
330
1616
100
AcDbXrecord
 10
0.0
 20
0.0
 30
0.0
  0
XRECORD
  5
162A
102
{ACAD_REACTORS
330
1616
102
}
330
1616
100
AcDbXrecord
 10
0.0
 20
0.0
 30
0.0
  0
XRECORD
  5
162B
102
{ACAD_REACTORS
330
1616
102
}
330
1616
100
AcDbXrecord
 10
0.0
 20
0.0
 30
0.0
  0
XRECORD
  5
162C
102
{ACAD_REACTORS
330
1616
102
}
330
1616
100
AcDbXrecord
 10
0.0
 20
0.0
 30
0.0
  0
XRECORD
  5
162D
102
{ACAD_REACTORS
330
1616
102
}
330
1616
100
AcDbXrecord
 10
0.0
 20
0.0
 30
0.0
  0
XRECORD
  5
162E
102
{ACAD_REACTORS
330
1616
102
}
330
1616
100
AcDbXrecord
340
0
  0
XRECORD
  5
162F
102
{ACAD_REACTORS
330
1616
102
}
330
1616
100
AcDbXrecord
 70
     0
  0
XRECORD
  5
1630
102
{ACAD_REACTORS
330
1616
102
}
330
1616
100
AcDbXrecord
340
0
  0
XRECORD
  5
1631
102
{ACAD_REACTORS
330
1616
102
}
330
1616
100
AcDbXrecord
 10
0.0
 20
0.0
 30
0.0
  0
XRECORD
  5
1632
102
{ACAD_REACTORS
330
1616
102
}
330
1616
100
AcDbXrecord
 10
0.0
 20
0.0
 30
0.0
  0
XRECORD
  5
1633
102
{ACAD_REACTORS
330
1616
102
}
330
1616
100
AcDbXrecord
 10
0.0
 20
0.0
 30
0.0
  0
XRECORD
  5
1634
102
{ACAD_REACTORS
330
1616
102
}
330
1616
100
AcDbXrecord
 10
0.0
 20
0.0
 30
0.0
  0
XRECORD
  5
1635
102
{ACAD_REACTORS
330
1616
102
}
330
1616
100
AcDbXrecord
 10
0.0
 20
0.0
 30
0.0
  0
XRECORD
  5
1636
102
{ACAD_REACTORS
330
1616
102
}
330
1616
100
AcDbXrecord
 10
0.0
 20
0.0
 30
0.0
  0
LAYER_INDEX
  5
160D
102
{ACAD_REACTORS
330
160C
102
}
330
160C
100
AcDbIndex
 40
2452844.576215092
100
AcDbLayerIndex
  8
0
360
160E
 90
        0
  8
AM_0
360
160F
 90
       56
  8
AM_11
360
1610
 90
        3
  8
AM_7
360
1611
 90
        1
  8
AM_5
360
1612
 90
        5
  8
Defpoints
360
1613
 90
        0
  8
AM_6
360
1614
 90
        1
  0
XRECORD
  5
2D
102
{ACAD_REACTORS
330
2C
102
}
330
2C
100
AcDbXrecord
  1
VERSION
140
15.0
  1
PRODUCT
  2
AutoCAD Mechanical 2000
  0
IDBUFFER
  5
160E
330
0
100
AcDbIdBuffer
  0
IDBUFFER
  5
160F
330
0
100
AcDbIdBuffer
330
13B9
330
13BA
330
13BB
330
13BC
330
13BD
330
13BE
330
159C
330
159D
330
1365
330
1366
330
1369
330
136A
330
136B
330
136C
330
136F
330
1370
330
1371
330
1372
330
1373
330
1374
330
1375
330
1376
330
1377
330
1378
330
1379
330
137A
330
137B
330
137C
330
137D
330
137E
330
137F
330
1380
330
1381
330
1382
330
1383
330
1384
330
1385
330
1386
330
1387
330
1388
330
1389
330
138A
330
138F
330
1390
330
1391
330
1392
330
1394
330
13A1
330
13B0
330
13B1
330
13B3
330
13B4
330
13B5
330
13B6
330
13B7
330
13B8
  0
IDBUFFER
  5
1610
330
0
100
AcDbIdBuffer
330
138B
330
138C
330
1393
  0
IDBUFFER
  5
1611
330
0
100
AcDbIdBuffer
330
1367
  0
IDBUFFER
  5
1612
330
0
100
AcDbIdBuffer
330
1363
330
1368
330
136D
330
136E
330
13B2
  0
IDBUFFER
  5
1613
330
0
100
AcDbIdBuffer
  0
IDBUFFER
  5
1614
330
0
100
AcDbIdBuffer
330
1364
  0
ENDSEC
  0
EOF
