  0
SECTION
  2
HEADER
  9
$ACADVER
  1
AC1014
  9
$ACADMAINTVER
 70
     9
  9
$DWGCODEPAGE
  3
ANSI_932
  9
$INSBASE
 10
0.0
 20
0.0
 30
0.0
  9
$EXTMIN
 10
-188.6999999999999
 20
-56.99999999999985
 30
-0.00000001
  9
$EXTMAX
 10
15.00000000000017
 20
10.12703661847329
 30
0.00000001
  9
$LIMMIN
 10
-203.3051430480615
 20
-90.05135998521586
  9
$LIMMAX
 10
32.26230167318573
 20
33.07111796578817
  9
$ORTHOMODE
 70
     0
  9
$REGENMODE
 70
     1
  9
$FILLMODE
 70
     1
  9
$QTEXTMODE
 70
     0
  9
$MIRRTEXT
 70
     0
  9
$DRAGMODE
 70
     2
  9
$LTSCALE
 40
1.0
  9
$OSMODE
 70
  2103
  9
$ATTMODE
 70
     1
  9
$TEXTSIZE
 40
2.5
  9
$TRACEWID
 40
1.0
  9
$TEXTSTYLE
  7
STANDARD
  9
$CLAYER
  8
AM_0
  9
$CELTYPE
  6
BYLAYER
  9
$CECOLOR
 62
   256
  9
$CELTSCALE
 40
1.0
  9
$DELOBJ
 70
     1
  9
$DISPSILH
 70
     0
  9
$DIMSCALE
 40
1.0
  9
$DIMASZ
 40
2.5
  9
$DIMEXO
 40
1.0
  9
$DIMDLI
 40
12.0
  9
$DIMRND
 40
0.0
  9
$DIMDLE
 40
0.0
  9
$DIMEXE
 40
1.0
  9
$DIMTP
 40
0.1
  9
$DIMTM
 40
0.1
  9
$DIMTXT
 40
3.2
  9
$DIMCEN
 40
0.0
  9
$DIMTSZ
 40
0.0
  9
$DIMTOL
 70
     0
  9
$DIMLIM
 70
     0
  9
$DIMTIH
 70
     0
  9
$DIMTOH
 70
     0
  9
$DIMSE1
 70
     0
  9
$DIMSE2
 70
     0
  9
$DIMTAD
 70
     3
  9
$DIMZIN
 70
     8
  9
$DIMBLK
  1
OPEN30
  9
$DIMASO
 70
     1
  9
$DIMSHO
 70
     1
  9
$DIMPOST
  1

  9
$DIMAPOST
  1
"
  9
$DIMALT
 70
     0
  9
$DIMALTD
 70
     2
  9
$DIMALTF
 40
0.0393701
  9
$DIMLFAC
 40
1.0
  9
$DIMTOFL
 70
     1
  9
$DIMTVP
 40
0.0
  9
$DIMTIX
 70
     0
  9
$DIMSOXD
 70
     0
  9
$DIMSAH
 70
     0
  9
$DIMBLK1
  1

  9
$DIMBLK2
  1

  9
$DIMSTYLE
  2
AM_JIS
  9
$DIMCLRD
 70
   256
  9
$DIMCLRE
 70
   256
  9
$DIMCLRT
 70
     2
  9
$DIMTFAC
 40
0.71
  9
$DIMGAP
 40
1.5
  9
$DIMJUST
 70
     0
  9
$DIMSD1
 70
     0
  9
$DIMSD2
 70
     0
  9
$DIMTOLJ
 70
     0
  9
$DIMTZIN
 70
     0
  9
$DIMALTZ
 70
     0
  9
$DIMALTTZ
 70
     0
  9
$DIMFIT
 70
     3
  9
$DIMUPT
 70
     0
  9
$DIMUNIT
 70
     2
  9
$DIMDEC
 70
     3
  9
$DIMTDEC
 70
     3
  9
$DIMALTU
 70
     2
  9
$DIMALTTD
 70
     2
  9
$DIMTXSTY
  7
ASAMI
  9
$DIMAUNIT
 70
     0
  9
$LUNITS
 70
     2
  9
$LUPREC
 70
     2
  9
$SKETCHINC
 40
1.0
  9
$FILLETRAD
 40
2.5
  9
$AUNITS
 70
     0
  9
$AUPREC
 70
     0
  9
$MENU
  1
.
  9
$ELEVATION
 40
0.0
  9
$PELEVATION
 40
0.0
  9
$THICKNESS
 40
0.0
  9
$LIMCHECK
 70
     0
  9
$BLIPMODE
 70
     0
  9
$CHAMFERA
 40
0.5
  9
$CHAMFERB
 40
0.5
  9
$CHAMFERC
 40
20.0
  9
$CHAMFERD
 40
0.0
  9
$SKPOLY
 70
     0
  9
$TDCREATE
 40
2452809.475734583
  9
$TDUPDATE
 40
2452844.575021331
  9
$TDINDWG
 40
0.0345151736
  9
$TDUSRTIMER
 40
0.0345150000
  9
$USRTIMER
 70
     1
  9
$ANGBASE
 50
0.0
  9
$ANGDIR
 70
     0
  9
$PDMODE
 70
     0
  9
$PDSIZE
 40
0.0
  9
$PLINEWID
 40
0.0
  9
$COORDS
 70
     2
  9
$SPLFRAME
 70
     0
  9
$SPLINETYPE
 70
     6
  9
$SPLINESEGS
 70
     8
  9
$ATTDIA
 70
     1
  9
$ATTREQ
 70
     1
  9
$HANDLING
 70
 12289
  9
$HANDSEED
  5
1680
  9
$SURFTAB1
 70
     6
  9
$SURFTAB2
 70
     6
  9
$SURFTYPE
 70
     6
  9
$SURFU
 70
     6
  9
$SURFV
 70
     6
  9
$UCSNAME
  2

  9
$UCSORG
 10
0.0
 20
0.0
 30
0.0
  9
$UCSXDIR
 10
1.0
 20
0.0
 30
0.0
  9
$UCSYDIR
 10
0.0
 20
1.0
 30
0.0
  9
$PUCSNAME
  2

  9
$PUCSORG
 10
0.0
 20
0.0
 30
0.0
  9
$PUCSXDIR
 10
1.0
 20
0.0
 30
0.0
  9
$PUCSYDIR
 10
0.0
 20
1.0
 30
0.0
  9
$USERI1
 70
     0
  9
$USERI2
 70
     0
  9
$USERI3
 70
     0
  9
$USERI4
 70
     0
  9
$USERI5
 70
     0
  9
$USERR1
 40
0.0
  9
$USERR2
 40
0.0
  9
$USERR3
 40
0.0
  9
$USERR4
 40
0.0
  9
$USERR5
 40
0.0
  9
$WORLDVIEW
 70
     1
  9
$SHADEDGE
 70
     3
  9
$SHADEDIF
 70
    70
  9
$TILEMODE
 70
     1
  9
$MAXACTVP
 70
    64
  9
$PINSBASE
 10
0.0
 20
0.0
 30
0.0
  9
$PLIMCHECK
 70
     0
  9
$PEXTMIN
 10
1.000000000000000E+20
 20
1.000000000000000E+20
 30
1.000000000000000E+20
  9
$PEXTMAX
 10
-1.000000000000000E+20
 20
-1.000000000000000E+20
 30
-1.000000000000000E+20
  9
$PLIMMIN
 10
0.0
 20
0.0
  9
$PLIMMAX
 10
841.0
 20
594.0
  9
$UNITMODE
 70
     0
  9
$VISRETAIN
 70
     1
  9
$PLINEGEN
 70
     0
  9
$PSLTSCALE
 70
     0
  9
$TREEDEPTH
 70
  3020
  9
$PICKSTYLE
 70
     0
  9
$CMLSTYLE
  2
STANDARD
  9
$CMLJUST
 70
     0
  9
$CMLSCALE
 40
20.0
  9
$PROXYGRAPHICS
 70
     1
  9
$MEASUREMENT
 70
     1
  0
ENDSEC
  0
SECTION
  2
CLASSES
  0
CLASS
  1
ACDBDICTIONARYWDFLT
  2
AcDbDictionaryWithDefault
  3
AutoCAD 2000
 90
        0
280
     0
281
     0
  0
CLASS
  1
ACDBPLACEHOLDER
  2
AcDbPlaceHolder
  3
AutoCAD 2000
 90
        0
280
     0
281
     0
  0
CLASS
  1
LAYOUT
  2
AcDbLayout
  3
AutoCAD 2000
 90
        0
280
     0
281
     0
  0
CLASS
  1
AMGSETTINGSOBJ
  2
AmgSettingsObj
  3
"AcadM|Product Description: AutoCAD Mechanical 2000|Company: Autodesk"
 90
        0
280
     0
281
     0
  0
CLASS
  1
ACME_DOCUMENT
  2
AcMeDbDoc
  3
AcMeServices
 90
        0
280
     0
281
     0
  0
CLASS
  1
ACMESCOPE
  2
AcMeScope
  3
AcMeServices
 90
        0
280
     0
281
     0
  0
CLASS
  1
ACMECOMMANDHISTORY
  2
AcMeCommandHistory
  3
AcMeServices
 90
        0
280
     0
281
     0
  0
CLASS
  1
DICTIONARYVAR
  2
AcDbDictionaryVar
  3
AutoCAD 2000
 90
        0
280
     0
281
     0
  0
CLASS
  1
ACIMSYSVARMAN
  2
AcImSysVarManager
  3
AcMeServices
 90
        0
280
     0
281
     0
  0
CLASS
  1
ACIMREALSYSVAR
  2
AcImRealSysVar
  3
AcMeServices
 90
        0
280
     0
281
     0
  0
CLASS
  1
ACIMINTSYSVAR
  2
AcImIntSysVar
  3
AcMeServices
 90
        0
280
     0
281
     0
  0
CLASS
  1
ACMEDRAWINGMAN
  2
AcMeDrawingMan
  3
AcMeServices
 90
        0
280
     0
281
     0
  0
CLASS
  1
ACMEVIEW
  2
AcMeView
  3
AcMeServices
 90
        0
280
     0
281
     0
  0
CLASS
  1
ACDBENTITYCACHE
  2
AcMeEntityCache
  3
AcMeServices
 90
        0
280
     0
281
     0
  0
CLASS
  1
GSMANAGER
  2
AcMeGSManager
  3
AcMeServices
 90
        0
280
     0
281
     0
  0
CLASS
  1
AmdtInternalReactor
  2
AmdtInternalReactor
  3
AcMeServices
 90
        0
280
     0
281
     0
  0
CLASS
  1
ACMESTATEMGR
  2
AcMeStateMgr
  3
AcMeServices
 90
        0
280
     0
281
     0
  0
CLASS
  1
ACME_DATABASE
  2
AcMeDbDatabase
  3
AcMeServices
 90
        0
280
     0
281
     0
  0
CLASS
  1
ACRFINSADJUSTERMGR
  2
AcRfInsAdjusterMgr
  3
AcMeServices
 90
        0
280
     0
281
     0
  0
CLASS
  1
ACMDATADICTIONARY
  2
AcmDataDictionary
  3
"AcmSymBB|Product Description: AutoCAD Mechanical 2000|Company: Autodesk"
 90
        0
280
     0
281
     0
  0
CLASS
  1
ACMDATAENTRYBLOCK
  2
AcmDataEntryBlock
  3
"AcmSymBB|Product Description: AutoCAD Mechanical 2000|Company: Autodesk"
 90
        0
280
     0
281
     0
  0
CLASS
  1
AMGOBJPROPCFG
  2
AmgObjPropCfg
  3
"AmgLay|Product Description: AutoCAD Mechanical 2000|Company: Autodesk"
 90
        1
280
     0
281
     0
  0
CLASS
  1
ACAMGFILTERDAT
  2
AcAmgFilterDat
  3
"AcadM|Product Description: AutoCAD Mechanical 2000|Company: Autodesk"
 90
        0
280
     0
281
     0
  0
CLASS
  1
LAYER_INDEX
  2
AcDbLayerIndex
  3
AutoCAD 2000
 90
        0
280
     0
281
     0
  0
CLASS
  1
IDBUFFER
  2
AcDbIdBuffer
  3
AutoCAD 2000
 90
        0
280
     0
281
     0
  0
CLASS
  1
ACIMSTRSYSVAR
  2
AcImStrSysVar
  3
AcMeServices
 90
        0
280
     0
281
     0
  0
CLASS
  1
ACMSTANDARDJIS
  2
AcmStandardJIS
  3
"AcmSymBB|Product Description: AutoCAD Mechanical 2000|Company: Autodesk"
 90
        0
280
     0
281
     0
  0
CLASS
  1
ACMSURFSTANDARDJIS
  2
AcmSurfTextStdJIS
  3
"AcmSymBB|Product Description: AutoCAD Mechanical 2000|Company: Autodesk"
 90
        0
280
     0
281
     0
  0
CLASS
  1
ACMFCFSTANDARDJIS
  2
AcmFCFStdJIS
  3
"AcmSymBB|Product Description: AutoCAD Mechanical 2000|Company: Autodesk"
 90
        0
280
     0
281
     0
  0
CLASS
  1
ACMWELDSTANDARDJIS
  2
AcmWeldingStdJIS
  3
"AcmSymBB|Product Description: AutoCAD Mechanical 2000|Company: Autodesk"
 90
        0
280
     0
281
     0
  0
CLASS
  1
ACMIDSTANDARDJIS
  2
AcmIdStdJIS
  3
"AcmSymBB|Product Description: AutoCAD Mechanical 2000|Company: Autodesk"
 90
        0
280
     0
281
     0
  0
CLASS
  1
ACMDATUMSTANDARDJIS
  2
AcmDatumStdJIS
  3
"AcmSymBB|Product Description: AutoCAD Mechanical 2000|Company: Autodesk"
 90
        0
280
     0
281
     0
  0
CLASS
  1
ACMBOMSTANDARDJIS
  2
AcmBOMStdJIS
  3
"AcmSymBB|Product Description: AutoCAD Mechanical 2000|Company: Autodesk"
 90
        0
280
     0
281
     0
  0
CLASS
  1
ACMSTANDARDANSI
  2
AcmStandardANSI
  3
"AcmSymBB|Product Description: AutoCAD Mechanical 2000|Company: Autodesk"
 90
        0
280
     0
281
     0
  0
CLASS
  1
ACMSURFSTANDARDANSI
  2
AcmSurfTextStdANSI
  3
"AcmSymBB|Product Description: AutoCAD Mechanical 2000|Company: Autodesk"
 90
        0
280
     0
281
     0
  0
CLASS
  1
ACMFCFSTANDARDANSI
  2
AcmFCFStdANSI
  3
"AcmSymBB|Product Description: AutoCAD Mechanical 2000|Company: Autodesk"
 90
        0
280
     0
281
     0
  0
CLASS
  1
ACMWELDSTANDARDANSI
  2
AcmWeldingStdANSI
  3
"AcmSymBB|Product Description: AutoCAD Mechanical 2000|Company: Autodesk"
 90
        0
280
     0
281
     0
  0
CLASS
  1
ACMIDSTANDARDANSI
  2
AcmIdStdANSI
  3
"AcmSymBB|Product Description: AutoCAD Mechanical 2000|Company: Autodesk"
 90
        0
280
     0
281
     0
  0
CLASS
  1
ACMDATUMSTANDARDANSI
  2
AcmDatumStdANSI
  3
"AcmSymBB|Product Description: AutoCAD Mechanical 2000|Company: Autodesk"
 90
        0
280
     0
281
     0
  0
CLASS
  1
ACMBOMSTANDARDANSI
  2
AcmBOMStdANSI
  3
"AcmSymBB|Product Description: AutoCAD Mechanical 2000|Company: Autodesk"
 90
        0
280
     0
281
     0
  0
CLASS
  1
ACMSTANDARDBSI
  2
AcmStandardBSI
  3
"AcmSymBB|Product Description: AutoCAD Mechanical 2000|Company: Autodesk"
 90
        0
280
     0
281
     0
  0
CLASS
  1
ACMSURFSTANDARDBSI
  2
AcmSurfTextStdBSI
  3
"AcmSymBB|Product Description: AutoCAD Mechanical 2000|Company: Autodesk"
 90
        0
280
     0
281
     0
  0
CLASS
  1
ACMFCFSTANDARDBSI
  2
AcmFCFStdBSI
  3
"AcmSymBB|Product Description: AutoCAD Mechanical 2000|Company: Autodesk"
 90
        0
280
     0
281
     0
  0
CLASS
  1
ACMWELDSTANDARDBSI
  2
AcmWeldingStdBSI
  3
"AcmSymBB|Product Description: AutoCAD Mechanical 2000|Company: Autodesk"
 90
        0
280
     0
281
     0
  0
CLASS
  1
ACMIDSTANDARDBSI
  2
AcmIdStdBSI
  3
"AcmSymBB|Product Description: AutoCAD Mechanical 2000|Company: Autodesk"
 90
        0
280
     0
281
     0
  0
CLASS
  1
ACMDATUMSTANDARDBSI
  2
AcmDatumStdBSI
  3
"AcmSymBB|Product Description: AutoCAD Mechanical 2000|Company: Autodesk"
 90
        0
280
     0
281
     0
  0
CLASS
  1
ACMBOMSTANDARDBSI
  2
AcmBOMStdBSI
  3
"AcmSymBB|Product Description: AutoCAD Mechanical 2000|Company: Autodesk"
 90
        0
280
     0
281
     0
  0
CLASS
  1
LONG_TRANSACTION
  2
AcDbLongTransaction
  3
AutoCAD 2000
 90
        0
280
     0
281
     0
  0
CLASS
  1
LWPOLYLINE
  2
AcDbPolyline
  3
AutoCAD 2000
 90
        0
280
     0
281
     1
  0
CLASS
  1
HATCH
  2
AcDbHatch
  3
AutoCAD 2000
 90
        0
280
     0
281
     1
  0
CLASS
  1
XRECORD
  2
AcDbXrecord
  3
AutoCAD 2000
 90
        0
280
     0
281
     0
  0
ENDSEC
  0
SECTION
  2
TABLES
  0
TABLE
  2
VPORT
  5
8
330
0
100
AcDbSymbolTable
 70
     3
  0
VPORT
  5
164F
330
8
100
AcDbSymbolTableRecord
100
AcDbViewportTableRecord
  2
*ACTIVE
 70
     0
 10
0.0
 20
0.0
 11
1.0
 21
1.0
 12
-86.84238931675766
 22
-23.43641793261474
 13
0.0
 23
0.0
 14
2.5
 24
2.5
 15
10.0
 25
10.0
 16
0.0
 26
0.0
 36
1.0
 17
0.0
 27
0.0
 37
0.0
 40
130.6374838367855
 41
1.56570841889117
 42
50.0
 43
0.0
 44
0.0
 50
0.0
 51
0.0
 71
     0
 72
   100
 73
     1
 74
     3
 75
     0
 76
     0
 77
     0
 78
     0
  0
ENDTAB
  0
TABLE
  2
LTYPE
  5
5
330
0
100
AcDbSymbolTable
 70
    10
  0
LTYPE
  5
14
330
5
100
AcDbSymbolTableRecord
100
AcDbLinetypeTableRecord
  2
BYBLOCK
 70
     0
  3

 72
    65
 73
     0
 40
0.0
  0
LTYPE
  5
15
330
5
100
AcDbSymbolTableRecord
100
AcDbLinetypeTableRecord
  2
BYLAYER
 70
     0
  3

 72
    65
 73
     0
 40
0.0
  0
LTYPE
  5
16
330
5
100
AcDbSymbolTableRecord
100
AcDbLinetypeTableRecord
  2
CONTINUOUS
 70
     0
  3
Solid line
 72
    65
 73
     0
 40
0.0
  0
LTYPE
  5
4B
330
5
100
AcDbSymbolTableRecord
100
AcDbLinetypeTableRecord
  2
AM_ISO02W050
 70
     0
  3
__ __ __ __ __ __ __ __ __ __ __ __ __ __ __
 72
    65
 73
     2
 40
7.5
 49
6.0
 74
     0
 49
-1.5
 74
     0
  0
LTYPE
  5
4C
330
5
100
AcDbSymbolTableRecord
100
AcDbLinetypeTableRecord
  2
AM_ISO08W050
 70
     0
  3
____ . ____ . ____ . ____ . ____ . ____ . ____
 72
    65
 73
     4
 40
18.0
 49
12.0
 74
     0
 49
-1.5
 74
     0
 49
3.0
 74
     0
 49
-1.5
 74
     0
  0
LTYPE
  5
4D
330
5
100
AcDbSymbolTableRecord
100
AcDbLinetypeTableRecord
  2
AM_ISO09W050
 70
     0
  3
_____ . . _____ . . _____ . . ____ .. ____
 72
    65
 73
     6
 40
22.5
 49
12.0
 74
     0
 49
-1.5
 74
     0
 49
3.0
 74
     0
 49
-1.5
 74
     0
 49
3.0
 74
     0
 49
-1.5
 74
     0
  0
LTYPE
  5
4E
330
5
100
AcDbSymbolTableRecord
100
AcDbLinetypeTableRecord
  2
AMCONSTR
 70
     0
  3
_______________________
 72
    65
 73
     2
 40
9999.0
 49
9999.0
 74
     0
 49
0.0
 74
     0
  0
LTYPE
  5
4F
330
5
100
AcDbSymbolTableRecord
100
AcDbLinetypeTableRecord
  2
AM_ISO02W050X2
 70
     0
  3
 _ _ _ _ _ _ _ _ _ _ _ _
 72
    65
 73
     2
 40
3.75
 49
3.0
 74
     0
 49
-0.75
 74
     0
  0
LTYPE
  5
50
330
5
100
AcDbSymbolTableRecord
100
AcDbLinetypeTableRecord
  2
AM_ISO08W050X2
 70
     0
  3
__ . __ . __ . __ . __ . __
 72
    65
 73
     4
 40
9.0
 49
6.0
 74
     0
 49
-0.75
 74
     0
 49
1.5
 74
     0
 49
-0.75
 74
     0
  0
LTYPE
  5
53
330
5
100
AcDbSymbolTableRecord
100
AcDbLinetypeTableRecord
  2
AMZIGZAG
 70
     0
  3
/\/-/\/-/\/-/\/-/\/-/\/
 72
    65
 73
     2
 40
11.00009999999999
 49
0.0001
 74
     4
 75
   135
340
52
 46
0.04
 50
0.0
 44
0.0
 45
0.0
 49
-11.0
 74
     0
  0
LTYPE
  5
166
330
5
100
AcDbSymbolTableRecord
100
AcDbLinetypeTableRecord
  2
ACJISTGL
 70
     0
  3
_ _ _ _ _
 72
    65
 73
     2
 40
3.0
 49
2.0
 74
     0
 49
-1.0
 74
     0
  0
LTYPE
  5
26A
330
5
100
AcDbSymbolTableRecord
100
AcDbLinetypeTableRecord
  2
ACJISTGB
 70
     0
  3
__ . . __ . .
 72
    65
 73
     6
 40
9.0
 49
4.0
 74
     0
 49
-1.0
 74
     0
 49
1.0
 74
     0
 49
-1.0
 74
     0
 49
1.0
 74
     0
 49
-1.0
 74
     0
  0
ENDTAB
  0
TABLE
  2
LAYER
  5
2
330
0
100
AcDbSymbolTable
 70
     7
  0
LAYER
  5
10
330
2
100
AcDbSymbolTableRecord
100
AcDbLayerTableRecord
  2
0
 70
     0
 62
     7
  6
CONTINUOUS
  0
LAYER
  5
3F9
330
2
100
AcDbSymbolTableRecord
100
AcDbLayerTableRecord
  2
AM_0
 70
     0
 62
     7
  6
CONTINUOUS
  0
LAYER
  5
BA4
330
2
100
AcDbSymbolTableRecord
100
AcDbLayerTableRecord
  2
AM_11
 70
     0
 62
     3
  6
AM_ISO09W050
  0
LAYER
  5
BA5
330
2
100
AcDbSymbolTableRecord
100
AcDbLayerTableRecord
  2
AM_7
 70
     0
 62
     4
  6
AM_ISO08W050
  0
LAYER
  5
CA1
330
2
100
AcDbSymbolTableRecord
100
AcDbLayerTableRecord
  2
AM_5
 70
     0
 62
     3
  6
CONTINUOUS
  0
LAYER
  5
D14
330
2
100
AcDbSymbolTableRecord
100
AcDbLayerTableRecord
  2
DEFPOINTS
 70
     0
 62
     7
  6
CONTINUOUS
  0
LAYER
  5
F74
330
2
100
AcDbSymbolTableRecord
100
AcDbLayerTableRecord
  2
AM_6
 70
     0
 62
     2
  6
CONTINUOUS
  0
ENDTAB
  0
TABLE
  2
STYLE
  5
3
330
0
100
AcDbSymbolTable
 70
     5
  0
STYLE
  5
11
330
3
100
AcDbSymbolTableRecord
100
AcDbTextStyleTableRecord
  2
STANDARD
 70
     0
 40
0.0
 41
1.0
 50
0.0
 71
     0
 42
2.5
  3
simplex.shx
  4
EXTFONT.SHX
  0
STYLE
  5
52
330
3
100
AcDbSymbolTableRecord
100
AcDbTextStyleTableRecord
  2

 70
     1
 40
0.0
 41
1.0
 50
0.0
 71
     0
 42
2.5
  3
ltypeshp.shx
  4

  0
STYLE
  5
6B
330
3
100
AcDbSymbolTableRecord
100
AcDbTextStyleTableRecord
  2
ASAMI
 70
     0
 40
0.0
 41
1.0
 50
0.0
 71
     0
 42
2.5
  3
simplex.shx
  4
EXTFONT.SHX
  0
STYLE
  5
262
330
3
100
AcDbSymbolTableRecord
100
AcDbTextStyleTableRecord
  2
ACJISTS
 70
     0
 40
1.0
 41
1.0
 50
0.0
 71
     0
 42
2.5
  3
simplex.shx
  4
bigfont.shx
  0
STYLE
  5
269
330
3
100
AcDbSymbolTableRecord
100
AcDbTextStyleTableRecord
  2
ACJISGDT
 70
     0
 40
0.0
 41
1.0
 50
0.0
 71
     0
 42
2.5
  3
amgdtans.shx
  4

  0
ENDTAB
  0
TABLE
  2
VIEW
  5
6
330
0
100
AcDbSymbolTable
 70
     0
  0
ENDTAB
  0
TABLE
  2
UCS
  5
7
330
0
100
AcDbSymbolTable
 70
     0
  0
ENDTAB
  0
TABLE
  2
APPID
  5
9
330
0
100
AcDbSymbolTable
 70
    12
  0
APPID
  5
12
330
9
100
AcDbSymbolTableRecord
100
AcDbRegAppTableRecord
  2
ACAD
 70
     0
  0
APPID
  5
30
330
9
100
AcDbSymbolTableRecord
100
AcDbRegAppTableRecord
  2
MCAD_NO_VIS
 70
     0
  0
APPID
  5
31
330
9
100
AcDbSymbolTableRecord
100
AcDbRegAppTableRecord
  2
ACAD_TEMP_GRAPHIC
 70
     0
  0
APPID
  5
2C2
330
9
100
AcDbSymbolTableRecord
100
AcDbRegAppTableRecord
  2
GENIUS_GENDTOL_13
 70
     0
  0
APPID
  5
339
330
9
100
AcDbSymbolTableRecord
100
AcDbRegAppTableRecord
  2
GENIUS_GENODEF_13
 70
     0
  0
APPID
  5
33A
330
9
100
AcDbSymbolTableRecord
100
AcDbRegAppTableRecord
  2
GENIUS_GENOBJ-N-RSBK_13
 70
     0
  0
APPID
  5
33B
330
9
100
AcDbSymbolTableRecord
100
AcDbRegAppTableRecord
  2
GENIUS_GENOBJ-N-LIB_13
 70
     0
  0
APPID
  5
33C
330
9
100
AcDbSymbolTableRecord
100
AcDbRegAppTableRecord
  2
GENIUS_GENSCALE_13
 70
     0
  0
APPID
  5
378
330
9
100
AcDbSymbolTableRecord
100
AcDbRegAppTableRecord
  2
GENIUS_GENDIMSH_14
 70
     0
  0
APPID
  5
BA6
330
9
100
AcDbSymbolTableRecord
100
AcDbRegAppTableRecord
  2
GENIUS_GENOBJ-N-CEN_13
 70
     0
  0
APPID
  5
D02
330
9
100
AcDbSymbolTableRecord
100
AcDbRegAppTableRecord
  2
GENIUS_GENFIL_13
 70
     0
  0
APPID
  5
D03
330
9
100
AcDbSymbolTableRecord
100
AcDbRegAppTableRecord
  2
GENIUS_GENOBJ-N-CHA_13
 70
     0
  0
ENDTAB
  0
TABLE
  2
DIMSTYLE
  5
A
330
0
100
AcDbSymbolTable
 70
     8
  0
DIMSTYLE
105
58
102
{ACAD_REACTORS
330
D13
330
D9C
330
EDE
330
1201
102
}
330
A
100
AcDbSymbolTableRecord
100
AcDbDimStyleTableRecord
  2
AM_JIS
 70
     0
  3

  4
"
  5
OPEN30
  6

  7

 40
1.0
 41
2.5
 42
1.0
 43
12.0
 44
1.0
 45
0.0
 46
0.0
 47
0.1
 48
0.1
140
3.2
141
0.0
142
0.0
143
0.0393701
144
1.0
145
0.0
146
0.71
147
1.5
 71
     0
 72
     0
 73
     0
 74
     0
 75
     0
 76
     0
 77
     3
 78
     8
170
     0
171
     2
172
     1
173
     0
174
     0
175
     0
176
   256
177
   256
178
     2
270
     2
271
     3
272
     3
273
     2
274
     2
340
6B
275
     0
280
     0
281
     0
282
     0
283
     0
284
     0
285
     0
286
     0
287
     3
288
     0
  0
DIMSTYLE
105
5F
330
A
100
AcDbSymbolTableRecord
100
AcDbDimStyleTableRecord
  2
AM_JIS$3
 70
     0
  3

  4
"
  5
OPEN30
  6

  7

 40
1.0
 41
2.5
 42
1.0
 43
10.0
 44
1.0
 45
0.0
 46
0.0
 47
0.1
 48
0.1
140
3.2
141
0.0
142
0.0
143
0.0393701
144
1.0
145
0.0
146
0.71
147
1.5
 71
     0
 72
     0
 73
     0
 74
     1
 75
     0
 76
     0
 77
     3
 78
     8
170
     0
171
     2
172
     0
173
     0
174
     0
175
     0
176
   256
177
   256
178
     2
270
     2
271
     2
272
     3
273
     2
274
     2
340
6B
275
     0
280
     0
281
     0
282
     0
283
     0
284
     0
285
     0
286
     0
287
     0
288
     1
  0
DIMSTYLE
105
60
102
{ACAD_REACTORS
330
157F
102
}
330
A
100
AcDbSymbolTableRecord
100
AcDbDimStyleTableRecord
  2
AM_JIS$4
 70
     0
  3

  4
"
  5
OPEN30
  6

  7

 40
1.0
 41
2.5
 42
1.0
 43
10.0
 44
1.0
 45
0.0
 46
0.0
 47
0.1
 48
0.1
140
3.2
141
0.0
142
0.0
143
0.0393701
144
1.0
145
0.0
146
0.71
147
1.5
 71
     0
 72
     0
 73
     0
 74
     1
 75
     0
 76
     0
 77
     3
 78
     8
170
     0
171
     2
172
     0
173
     0
174
     0
175
     0
176
   256
177
   256
178
     2
270
     2
271
     2
272
     3
273
     2
274
     2
340
6B
275
     0
280
     0
281
     0
282
     0
283
     0
284
     0
285
     0
286
     0
287
     0
288
     1
  0
DIMSTYLE
105
61
330
A
100
AcDbSymbolTableRecord
100
AcDbDimStyleTableRecord
  2
AM_JIS$6
 70
     0
  3

  4
"
  5
OPEN30
  6

  7

 40
1.0
 41
2.5
 42
1.0
 43
10.0
 44
1.0
 45
0.0
 46
0.0
 47
0.1
 48
0.1
140
3.2
141
0.0
142
0.0
143
0.0393701
144
1.0
145
0.0
146
0.71
147
1.5
 71
     0
 72
     0
 73
     0
 74
     0
 75
     0
 76
     0
 77
     0
 78
     8
170
     0
171
     2
172
     1
173
     0
174
     0
175
     0
176
   256
177
   256
178
     2
270
     2
271
     2
272
     2
273
     2
274
     2
340
6B
275
     0
280
     0
281
     0
282
     0
283
     0
284
     0
285
     0
286
     0
287
     3
288
     0
  0
DIMSTYLE
105
62
330
A
100
AcDbSymbolTableRecord
100
AcDbDimStyleTableRecord
  2
AM_JIS$7
 70
     0
  3

  4
"
  5
OPEN30
  6

  7

 40
1.0
 41
2.5
 42
1.0
 43
10.0
 44
1.0
 45
0.0
 46
0.0
 47
0.1
 48
0.1
140
3.2
141
0.0
142
0.0
143
0.0393701
144
1.0
145
0.0
146
0.71
147
1.5
 71
     0
 72
     0
 73
     0
 74
     0
 75
     0
 76
     0
 77
     3
 78
     8
170
     0
171
     2
172
     1
173
     0
174
     0
175
     0
176
   256
177
   256
178
     2
270
     2
271
     2
272
     3
273
     2
274
     2
340
6B
275
     0
280
     0
281
     0
282
     0
283
     0
284
     0
285
     0
286
     0
287
     3
288
     0
  0
DIMSTYLE
105
63
330
A
100
AcDbSymbolTableRecord
100
AcDbDimStyleTableRecord
  2
AM_JIS$SF
 70
     0
  3

  4
"
  5
OPEN30
  6

  7

 40
1.0
 41
2.5
 42
1.0
 43
10.0
 44
1.0
 45
0.0
 46
0.0
 47
0.1
 48
0.1
140
3.2
141
0.0
142
0.0
143
0.0393701
144
1.0
145
0.0
146
0.71
147
1.5
 71
     0
 72
     0
 73
     0
 74
     0
 75
     1
 76
     1
 77
     3
 78
     8
170
     0
171
     2
172
     1
173
     0
174
     0
175
     0
176
   256
177
   256
178
     2
270
     2
271
     2
272
     2
273
     2
274
     2
340
6B
275
     0
280
     0
281
     0
282
     0
283
     0
284
     0
285
     0
286
     0
287
     3
288
     0
  0
DIMSTYLE
105
68
330
A
100
AcDbSymbolTableRecord
100
AcDbDimStyleTableRecord
  2
AM_JIS$SH
 70
     0
  3

  4
"
  5

  6
GENAXEH
  7
OPEN30
 40
1.0
 41
2.5
 42
1.0
 43
10.0
 44
1.0
 45
0.0
 46
0.0
 47
0.1
 48
0.1
140
3.2
141
0.0
142
0.0
143
0.0393701
144
2.0
145
0.0
146
0.71
147
1.5
 71
     0
 72
     0
 73
     0
 74
     0
 75
     1
 76
     1
 77
     3
 78
     8
170
     0
171
     2
172
     1
173
     1
174
     0
175
     0
176
   256
177
   256
178
     2
270
     2
271
     2
272
     2
273
     2
274
     2
340
6B
275
     0
280
     0
281
     0
282
     0
283
     0
284
     0
285
     0
286
     0
287
     3
288
     0
  0
DIMSTYLE
105
B34
330
A
100
AcDbSymbolTableRecord
100
AcDbDimStyleTableRecord
  2
AM_JIS$2
 70
     0
  3

  4
"
  5
OPEN30
  6

  7

 40
1.0
 41
2.5
 42
1.0
 43
12.0
 44
1.0
 45
0.0
 46
0.0
 47
0.1
 48
0.1
140
3.2
141
0.0
142
0.0
143
0.0393701
144
1.0
145
0.0
146
0.71
147
1.5
 71
     0
 72
     0
 73
     0
 74
     0
 75
     0
 76
     0
 77
     3
 78
     8
170
     0
171
     2
172
     1
173
     0
174
     0
175
     0
176
   256
177
   256
178
     2
270
     2
271
     3
272
     3
273
     2
274
     2
340
6B
275
     0
280
     0
281
     0
282
     0
283
     0
284
     0
285
     0
286
     0
287
     3
288
     0
  0
ENDTAB
  0
TABLE
  2
BLOCK_RECORD
  5
1
330
0
100
AcDbSymbolTable
 70
    10
  0
BLOCK_RECORD
  5
1F
102
{ACAD_XDICTIONARY
360
74
102
}
330
1
100
AcDbSymbolTableRecord
100
AcDbBlockTableRecord
  2
*MODEL_SPACE
  0
BLOCK_RECORD
  5
101
102
{ACAD_XDICTIONARY
360
1678
102
}
330
1
100
AcDbSymbolTableRecord
100
AcDbBlockTableRecord
  2
*PAPER_SPACE
  0
BLOCK_RECORD
  5
59
330
1
100
AcDbSymbolTableRecord
100
AcDbBlockTableRecord
  2
_OPEN30
  0
BLOCK_RECORD
  5
64
330
1
100
AcDbSymbolTableRecord
100
AcDbBlockTableRecord
  2
GENAXEH
  0
BLOCK_RECORD
  5
D15
330
1
100
AcDbSymbolTableRecord
100
AcDbBlockTableRecord
  2
*D5
  0
BLOCK_RECORD
  5
D9D
330
1
100
AcDbSymbolTableRecord
100
AcDbBlockTableRecord
  2
*D6
  0
BLOCK_RECORD
  5
EDF
330
1
100
AcDbSymbolTableRecord
100
AcDbBlockTableRecord
  2
*D7
  0
BLOCK_RECORD
  5
1202
330
1
100
AcDbSymbolTableRecord
100
AcDbBlockTableRecord
  2
*D8
  0
BLOCK_RECORD
  5
1580
330
1
100
AcDbSymbolTableRecord
100
AcDbBlockTableRecord
  2
*D9
  0
ENDTAB
  0
ENDSEC
  0
SECTION
  2
BLOCKS
  0
BLOCK
  5
20
330
1F
100
AcDbEntity
  8
0
100
AcDbBlockBegin
  2
*MODEL_SPACE
 70
     0
 10
0.0
 20
0.0
 30
0.0
  3
*MODEL_SPACE
  1

  0
ENDBLK
  5
21
330
1F
100
AcDbEntity
  8
0
100
AcDbBlockEnd
  0
BLOCK
  5
103
330
101
100
AcDbEntity
 67
     1
  8
0
100
AcDbBlockBegin
  2
*PAPER_SPACE
 70
     0
 10
0.0
 20
0.0
 30
0.0
  3
*PAPER_SPACE
  1

  0
ENDBLK
  5
104
330
101
100
AcDbEntity
 67
     1
  8
0
100
AcDbBlockEnd
  0
BLOCK
  5
5D
330
59
100
AcDbEntity
  8
0
100
AcDbBlockBegin
  2
_OPEN30
 70
     0
 10
0.0
 20
0.0
 30
0.0
  3
_OPEN30
  1

  0
LINE
  5
5A
330
59
100
AcDbEntity
  8
0
 62
     0
100
AcDbLine
 10
-1.0
 20
0.26794919
 30
0.0
 11
0.0
 21
0.0
 31
0.0
  0
LINE
  5
5B
330
59
100
AcDbEntity
  8
0
 62
     0
100
AcDbLine
 10
0.0
 20
0.0
 30
0.0
 11
-1.0
 21
-0.26794919
 31
0.0
  0
LINE
  5
5C
330
59
100
AcDbEntity
  8
0
 62
     0
100
AcDbLine
 10
0.0
 20
0.0
 30
0.0
 11
-1.0
 21
0.0
 31
0.0
  0
ENDBLK
  5
5E
330
59
100
AcDbEntity
  8
0
100
AcDbBlockEnd
  0
BLOCK
  5
66
330
64
100
AcDbEntity
  8
0
100
AcDbBlockBegin
  2
GENAXEH
 70
     0
 10
0.0
 20
0.0
 30
0.0
  3
GENAXEH
  1

  0
LINE
  5
65
330
64
100
AcDbEntity
  8
0
100
AcDbLine
 10
-1.0
 20
0.0
 30
0.0
 11
1.0
 21
0.0
 31
0.0
  0
ENDBLK
  5
67
330
64
100
AcDbEntity
  8
0
100
AcDbBlockEnd
  0
BLOCK
  5
D1F
330
D15
100
AcDbEntity
  8
0
100
AcDbBlockBegin
  2
*D5
 70
     1
 10
0.0
 20
0.0
 30
0.0
  3
*D5
  1

  0
LINE
  5
156D
330
D15
100
AcDbEntity
  8
AM_5
100
AcDbLine
 10
-169.9999999999999
 20
-8.499999999999968
 30
0.0
 11
-169.9999999999999
 21
-35.49999999999981
 31
0.0
  0
LINE
  5
156E
330
D15
100
AcDbEntity
  8
AM_5
100
AcDbLine
 10
-0.0000000000000001
 20
-9.499999999999843
 30
0.0
 11
-0.0000000000000017
 21
-35.49999999999981
 31
0.0
  0
LINE
  5
156F
330
D15
100
AcDbEntity
  8
AM_5
100
AcDbLine
 10
-167.4999999999999
 20
-34.49999999999981
 30
0.0
 11
-2.500000000000001
 21
-34.49999999999981
 31
0.0
  0
INSERT
  5
1570
330
D15
100
AcDbEntity
  8
AM_5
100
AcDbBlockReference
  2
_OPEN30
 10
-169.9999999999999
 20
-34.49999999999981
 30
0.0
 41
2.5
 42
2.5
 43
2.5
 50
180.0
  0
INSERT
  5
1571
330
D15
100
AcDbEntity
  8
AM_5
100
AcDbBlockReference
  2
_OPEN30
 10
-0.0000000000000016
 20
-34.49999999999981
 30
0.0
 41
2.5
 42
2.5
 43
2.5
  0
MTEXT
  5
1572
330
D15
100
AcDbEntity
  8
AM_5
 62
     2
100
AcDbMText
 10
-84.99999999999996
 20
-31.39999999999981
 30
0.0
 40
3.2
 41
0.0
 71
     5
 72
     1
  1
170
  7
ASAMI
1001
ACAD
1000
MTEXTBEGIN
1070
    73
1070
     1
1070
    44
1040
1.0
1070
    74
1070
     0
1000
MTEXTEND
  0
POINT
  5
1573
330
D15
100
AcDbEntity
  8
DEFPOINTS
 62
     0
100
AcDbPoint
 10
-169.9999999999999
 20
-7.499999999999968
 30
0.0
  0
POINT
  5
1574
330
D15
100
AcDbEntity
  8
DEFPOINTS
 62
     0
100
AcDbPoint
 10
0.0
 20
-8.499999999999843
 30
0.0
  0
POINT
  5
1575
330
D15
100
AcDbEntity
  8
DEFPOINTS
 62
     0
100
AcDbPoint
 10
-0.0000000000000016
 20
-34.49999999999981
 30
0.0
  0
ENDBLK
  5
D20
330
D15
100
AcDbEntity
  8
0
100
AcDbBlockEnd
  0
BLOCK
  5
DA7
330
D9D
100
AcDbEntity
  8
0
100
AcDbBlockBegin
  2
*D6
 70
     1
 10
0.0
 20
0.0
 30
0.0
  3
*D6
  1

  0
LINE
  5
1538
330
D9D
100
AcDbEntity
  8
AM_5
100
AcDbLine
 10
-25.5
 20
-9.499999999999843
 30
0.0
 11
-25.5
 21
-23.49999999999981
 31
0.0
  0
LINE
  5
1539
330
D9D
100
AcDbEntity
  8
AM_5
100
AcDbLine
 10
-0.0000000000000001
 20
-9.499999999999843
 30
0.0
 11
-0.0000000000000009
 21
-23.49999999999981
 31
0.0
  0
LINE
  5
153A
330
D9D
100
AcDbEntity
  8
AM_5
100
AcDbLine
 10
-23.0
 20
-22.49999999999981
 30
0.0
 11
-2.5
 21
-22.49999999999981
 31
0.0
  0
INSERT
  5
153B
330
D9D
100
AcDbEntity
  8
AM_5
100
AcDbBlockReference
  2
_OPEN30
 10
-25.5
 20
-22.49999999999981
 30
0.0
 41
2.5
 42
2.5
 43
2.5
 50
180.0
  0
INSERT
  5
153C
330
D9D
100
AcDbEntity
  8
AM_5
100
AcDbBlockReference
  2
_OPEN30
 10
-0.0000000000000009
 20
-22.49999999999981
 30
0.0
 41
2.5
 42
2.5
 43
2.5
  0
MTEXT
  5
153D
330
D9D
100
AcDbEntity
  8
AM_5
 62
     2
100
AcDbMText
 10
-12.75
 20
-19.39999999999981
 30
0.0
 40
3.2
 41
0.0
 71
     5
 72
     1
  1
25.5
  7
ASAMI
1001
ACAD
1000
MTEXTBEGIN
1070
    73
1070
     1
1070
    44
1040
1.0
1070
    74
1070
     0
1000
MTEXTEND
  0
POINT
  5
153E
330
D9D
100
AcDbEntity
  8
DEFPOINTS
 62
     0
100
AcDbPoint
 10
-25.5
 20
-8.499999999999843
 30
0.0
  0
POINT
  5
153F
330
D9D
100
AcDbEntity
  8
DEFPOINTS
 62
     0
100
AcDbPoint
 10
0.0
 20
-8.499999999999843
 30
0.0
  0
POINT
  5
1540
330
D9D
100
AcDbEntity
  8
DEFPOINTS
 62
     0
100
AcDbPoint
 10
-0.0000000000000009
 20
-22.49999999999981
 30
0.0
  0
ENDBLK
  5
DA8
330
D9D
100
AcDbEntity
  8
0
100
AcDbBlockEnd
  0
BLOCK
  5
EE9
330
EDF
100
AcDbEntity
  8
0
100
AcDbBlockBegin
  2
*D7
 70
     1
 10
0.0
 20
0.0
 30
0.0
  3
*D7
  1

  0
LINE
  5
1542
330
EDF
100
AcDbEntity
  8
AM_5
100
AcDbLine
 10
1.0
 20
-8.50000000000081
 30
0.0
 11
15.00000000000016
 21
-8.500000000000815
 31
0.0
  0
LINE
  5
1543
330
EDF
100
AcDbEntity
  8
AM_5
100
AcDbLine
 10
1.0
 20
8.500000000001124
 30
0.0
 11
15.00000000000017
 21
8.500000000001119
 31
0.0
  0
LINE
  5
1544
330
EDF
100
AcDbEntity
  8
AM_5
100
AcDbLine
 10
14.00000000000017
 20
-6.000000000000813
 30
0.0
 11
14.00000000000017
 21
6.00000000000112
 31
0.0
  0
INSERT
  5
1545
330
EDF
100
AcDbEntity
  8
AM_5
100
AcDbBlockReference
  2
_OPEN30
 10
14.00000000000017
 20
-8.500000000000813
 30
0.0
 41
2.5
 42
2.5
 43
2.5
 50
270.0
  0
INSERT
  5
1546
330
EDF
100
AcDbEntity
  8
AM_5
100
AcDbBlockReference
  2
_OPEN30
 10
14.00000000000017
 20
8.50000000000112
 30
0.0
 41
2.5
 42
2.5
 43
2.5
 50
90.0
  0
MTEXT
  5
1547
330
EDF
100
AcDbEntity
  8
AM_5
 62
     2
100
AcDbMText
 10
10.90000000000016
 20
0.0000000000003554
 30
0.0
 40
3.2
 41
0.0
 71
     5
 72
     1
  1
%%c17
  7
ASAMI
 11
0.0000000000000001
 21
1.0
 31
0.0
1001
ACAD
1000
MTEXTBEGIN
1070
    73
1070
     1
1070
    44
1040
1.0
1070
    74
1070
     0
1000
MTEXTEND
  0
POINT
  5
1548
330
EDF
100
AcDbEntity
  8
DEFPOINTS
 62
     0
100
AcDbPoint
 10
0.0
 20
-8.50000000000081
 30
0.0
  0
POINT
  5
1549
330
EDF
100
AcDbEntity
  8
DEFPOINTS
 62
     0
100
AcDbPoint
 10
0.0
 20
8.500000000001124
 30
0.0
  0
POINT
  5
154A
330
EDF
100
AcDbEntity
  8
DEFPOINTS
 62
     0
100
AcDbPoint
 10
14.00000000000017
 20
8.50000000000112
 30
0.0
  0
ENDBLK
  5
EEA
330
EDF
100
AcDbEntity
  8
0
100
AcDbBlockEnd
  0
BLOCK
  5
120C
330
1202
100
AcDbEntity
  8
0
100
AcDbBlockBegin
  2
*D8
 70
     1
 10
0.0
 20
0.0
 30
0.0
  3
*D8
  1

  0
LINE
  5
1520
330
1202
100
AcDbEntity
  8
AM_5
100
AcDbLine
 10
-170.4999999999999
 20
-7.999999999999967
 30
0.0
 11
-184.9999999999999
 21
-7.999999999999962
 31
0.0
  0
LINE
  5
1521
330
1202
100
AcDbEntity
  8
AM_5
100
AcDbLine
 10
-170.4999999999999
 20
8.00000000000003
 30
0.0
 11
-184.9999999999999
 21
8.000000000000035
 31
0.0
  0
LINE
  5
1522
330
1202
100
AcDbEntity
  8
AM_5
100
AcDbLine
 10
-183.9999999999999
 20
-5.499999999999964
 30
0.0
 11
-183.9999999999999
 21
5.500000000000034
 31
0.0
  0
INSERT
  5
1523
330
1202
100
AcDbEntity
  8
AM_5
100
AcDbBlockReference
  2
_OPEN30
 10
-183.9999999999999
 20
-7.999999999999964
 30
0.0
 41
2.5
 42
2.5
 43
2.5
 50
270.0
  0
INSERT
  5
1524
330
1202
100
AcDbEntity
  8
AM_5
100
AcDbBlockReference
  2
_OPEN30
 10
-183.9999999999999
 20
8.000000000000033
 30
0.0
 41
2.5
 42
2.5
 43
2.5
 50
90.0
  0
MTEXT
  5
1525
330
1202
100
AcDbEntity
  8
AM_5
 62
     2
100
AcDbMText
 10
-187.0999999999999
 20
0.2726122319490011
 30
0.0
 40
3.2
 41
0.0
 71
     5
 72
     1
  1
%%c16
  7
ASAMI
 11
0.0000000000000001
 21
1.0
 31
0.0
1001
ACAD
1000
MTEXTBEGIN
1070
    73
1070
     1
1070
    44
1040
1.0
1070
    74
1070
     0
1000
MTEXTEND
  0
POINT
  5
1526
330
1202
100
AcDbEntity
  8
DEFPOINTS
 62
     0
100
AcDbPoint
 10
-169.4999999999999
 20
-7.999999999999968
 30
0.0
  0
POINT
  5
1527
330
1202
100
AcDbEntity
  8
DEFPOINTS
 62
     0
100
AcDbPoint
 10
-169.4999999999998
 20
8.00000000000003
 30
0.0
  0
POINT
  5
1528
330
1202
100
AcDbEntity
  8
DEFPOINTS
 62
     0
100
AcDbPoint
 10
-183.9999999999999
 20
8.000000000000033
 30
0.0
  0
ENDBLK
  5
120D
330
1202
100
AcDbEntity
  8
0
100
AcDbBlockEnd
  0
BLOCK
  5
1586
330
1580
100
AcDbEntity
  8
0
100
AcDbBlockBegin
  2
*D9
 70
     1
 10
0.0
 20
0.0
 30
0.0
  3
*D9
  1

  0
LINE
  5
167A
330
1580
100
AcDbEntity
  8
AM_5
100
AcDbLine
 10
8.586702252969772
 20
-17.5920172429589
 30
0.0
 11
1.106966965545478
 21
-9.755265929999502
 31
0.0
  0
MTEXT
  5
167B
330
1580
100
AcDbEntity
  8
AM_5
 62
     2
100
AcDbMText
 10
7.95239751813035
 20
-12.43752710188079
 30
0.0
 40
3.2
 41
0.0
 71
     5
 72
     1
  1
R2
  7
ASAMI
 11
0.6904371034545505
 21
-0.72339242888856
 31
0.0
  0
LINE
  5
167C
330
1580
100
AcDbEntity
  8
AM_5
100
AcDbLine
 10
-2.0
 20
-6.500000000000984
 30
0.0
 11
-0.6191257930908983
 21
-7.946784857778103
 31
0.0
  0
INSERT
  5
167D
330
1580
100
AcDbEntity
  8
AM_5
100
AcDbBlockReference
  2
_OPEN30
 10
-0.6191257930908983
 20
-7.946784857778103
 30
0.0
 41
2.5
 42
2.5
 43
2.5
 50
133.6647193588902
  0
POINT
  5
167E
330
1580
100
AcDbEntity
  8
DEFPOINTS
 62
     0
100
AcDbPoint
 10
-0.6191257930908983
 20
-7.946784857778103
 30
0.0
  0
POINT
  5
167F
330
1580
100
AcDbEntity
  8
DEFPOINTS
 62
     0
100
AcDbPoint
 10
-2.0
 20
-6.500000000000984
 30
0.0
  0
ENDBLK
  5
1587
330
1580
100
AcDbEntity
  8
0
100
AcDbBlockEnd
  0
ENDSEC
  0
SECTION
  2
ENTITIES
  0
LINE
  5
C55
330
1F
100
AcDbEntity
  8
AM_0
100
AcDbLine
 10
0.0
 20
6.494708047041255
 30
0.0
 11
0.0
 21
-6.500000000000984
 31
0.0
  0
SPLINE
  5
C56
330
1F
100
AcDbEntity
  8
AM_0
100
AcDbSpline
210
0.0
220
0.0
230
1.0
 70
     8
 71
     3
 72
     8
 73
     4
 74
     0
 42
0.0000000001
 43
0.0000000001
 40
0.5179176998437139
 40
0.5179176998437139
 40
0.5179176998437139
 40
0.5179176998437139
 40
8.999068685365031
 40
8.999068685365031
 40
8.999068685365031
 40
8.999068685365031
 10
-21.81913774872016
 20
7.390295527784228
 30
0.0
 10
-17.11605675722274
 20
6.996247094498298
 30
0.0
 10
-13.23056770244823
 20
3.471425837086324
 30
0.0
 10
-9.34507864767295
 20
-0.0533954203258446
 30
0.0
  0
SPLINE
  5
C57
330
1F
100
AcDbEntity
  8
AM_0
100
AcDbSpline
210
0.0
220
0.0
230
1.0
 70
     8
 71
     3
 72
     8
 73
     4
 74
     0
 42
0.0000000001
 43
0.0000000001
 40
0.5179176998614976
 40
0.5179176998614976
 40
0.5179176998614976
 40
0.5179176998614976
 40
5.514523215700526
 40
5.514523215700526
 40
5.514523215700526
 40
5.514523215700526
 10
-8.474137748690553
 20
7.40795550811719
 30
0.0
 10
-5.703353398352782
 20
7.175804874471985
 30
0.0
 10
-3.216346010803704
 20
5.85699821682675
 30
0.0
 10
-0.8459305494891625
 20
4.091730656411911
 30
0.0
  0
SPLINE
  5
C58
330
1F
100
AcDbEntity
  8
AM_0
100
AcDbSpline
210
0.0
220
0.0
230
1.0
 70
     8
 71
     3
 72
     8
 73
     4
 74
     2
 42
0.0000000001
 43
0.0000000001
 44
0.0000000001
 12
0.9999878186055966
 22
0.0049358525525493
 32
0.0
 40
0.0
 40
0.0
 40
0.0
 40
0.0
 40
15.79348454032206
 40
15.79348454032206
 40
15.79348454032206
 40
15.79348454032206
 10
-13.68500000000765
 20
8.410869139685177
 30
0.0
 10
-8.4205692821217
 20
8.436853910012509
 30
0.0
 10
-4.380284641064754
 20
4.20055923501107
 30
0.0
 10
-0.3400000000078081
 20
-0.0357354399903699
 30
0.0
 11
-13.68500000000765
 21
8.410869139685177
 31
0.0
 11
-0.3400000000078081
 21
-0.0357354399903699
 31
0.0
  0
SPLINE
  5
C59
330
1F
100
AcDbEntity
  8
AM_0
100
AcDbSpline
210
0.0
220
0.0
230
1.0
 70
     8
 71
     3
 72
     8
 73
     4
 74
     0
 42
0.0000000001
 43
0.0000000001
 40
0.8291973398015029
 40
0.8291973398015029
 40
0.8291973398015029
 40
0.8291973398015029
 40
7.918446762666186
 40
7.918446762666186
 40
7.918446762666186
 40
7.918446762666186
 10
-10.47653603429428
 20
7.888776481684797
 30
0.0
 10
-6.608138667742037
 20
7.352157889351655
 30
0.0
 10
-3.345845368459504
 20
4.630387257098679
 30
0.0
 10
-0.1737925950905947
 20
1.583277660908206
 30
0.0
  0
SPLINE
  5
C5A
330
1F
100
AcDbEntity
  8
AM_0
100
AcDbSpline
210
0.0
220
0.0
230
1.0
 70
     8
 71
     3
 72
     8
 73
     4
 74
     0
 42
0.0000000001
 43
0.0000000001
 40
0.829197339801526
 40
0.829197339801526
 40
0.829197339801526
 40
0.829197339801526
 40
9.158576263912857
 40
9.158576263912857
 40
9.158576263912857
 40
9.158576263912857
 10
-23.82153603429413
 20
7.871116501349033
 30
0.0
 10
-19.27643604230855
 20
7.24062668124907
 30
0.0
 10
-15.56804020340839
 20
3.593615630461565
 30
0.0
 10
-11.85964436450901
 20
-0.0533954203258446
 30
0.0
  0
SPLINE
  5
C5C
330
1F
100
AcDbEntity
  8
AM_0
100
AcDbSpline
210
0.0
220
0.0
230
1.0
 70
     8
 71
     3
 72
     8
 73
     4
 74
     0
 42
0.0000000001
 43
0.0000000001
 40
0.5704647410204207
 40
0.5704647410204207
 40
0.5704647410204207
 40
0.5704647410204207
 40
2.57750390504933
 40
2.57750390504933
 40
2.57750390504933
 40
2.57750390504933
 10
-0.3663382912105701
 20
7.64846253619187
 30
0.0
 10
-0.7145353755553178
 20
6.744691734257063
 30
0.0
 10
-2.088861791998207
 20
6.164789434524343
 30
0.0
 10
-3.54793829348307
 20
5.843254484098648
 30
0.0
  0
SPLINE
  5
C5E
330
1F
100
AcDbEntity
  8
AM_0
100
AcDbSpline
210
0.0
220
0.0
230
1.0
 70
     8
 71
     3
 72
     8
 73
     4
 74
     0
 42
0.0000000001
 43
0.0000000001
 40
0.6500907216614856
 40
0.6500907216614856
 40
0.6500907216614856
 40
0.6500907216614856
 40
3.514580779201212
 40
3.514580779201212
 40
3.514580779201212
 40
3.514580779201212
 10
-1.427577939205149
 20
8.411041260338009
 30
0.0
 10
-2.999793954438953
 20
8.203357410537265
 30
0.0
 10
-4.463775827914171
 20
7.657027904841966
 30
0.0
 10
-5.855406505327551
 20
6.85878318930756
 30
0.0
  0
SPLINE
  5
C5F
330
1F
100
AcDbEntity
  8
AM_0
100
AcDbSpline
210
0.0
220
0.0
230
1.0
 70
     8
 71
     3
 72
     8
 73
     4
 74
     0
 42
0.0000000001
 43
0.0000000001
 40
0.0
 40
0.0
 40
0.0
 40
0.0
 40
3.514580779201212
 40
3.514580779201212
 40
3.514580779201212
 40
3.514580779201212
 10
-13.70184288108803
 20
8.428529120020748
 30
0.0
 10
-15.69341439555516
 20
8.43835934310989
 30
0.0
 10
-17.50979070010162
 20
7.838188066951214
 30
0.0
 10
-19.21724938640816
 20
6.85878318930756
 30
0.0
  0
SPLINE
  5
C60
330
1F
100
AcDbEntity
  8
AM_0
100
AcDbSpline
210
0.0
220
0.0
230
1.0
 70
     8
 71
     3
 72
     8
 73
     4
 74
     0
 42
0.0000000001
 43
0.0000000001
 40
0.0
 40
0.0
 40
0.0
 40
0.0
 40
0.0001935953510688
 40
0.0001935953510688
 40
0.0001935953510688
 40
0.0001935953510688
 10
-9.34507864767295
 20
7.444406973047153
 30
0.0
 10
-9.34496894364072
 20
7.444406973047153
 30
0.0
 10
-9.344859240060351
 20
7.444406971316247
 30
0.0
 10
-9.344749536932228
 20
7.444406967854535
 30
0.0
  0
SPLINE
  5
C61
330
1F
100
AcDbEntity
  8
AM_0
100
AcDbSpline
210
0.0
220
0.0
230
1.0
 70
     8
 71
     3
 72
     8
 73
     4
 74
     0
 42
0.0000000001
 43
0.0000000001
 40
0.0
 40
0.0
 40
0.0
 40
0.0
 40
0.0001935953510984
 40
0.0001935953510984
 40
0.0001935953510984
 40
0.0001935953510984
 10
-22.69007864767279
 20
7.426746992711581
 30
0.0
 10
-22.68996894364057
 20
7.426746992711581
 30
0.0
 10
-22.68985924006019
 20
7.426746990980677
 30
0.0
 10
-22.68974953693207
 20
7.426746987518964
 30
0.0
  0
SPLINE
  5
C62
330
1F
100
AcDbEntity
  8
AM_0
100
AcDbSpline
210
0.0
220
0.0
230
1.0
 70
     8
 71
     3
 72
     8
 73
     4
 74
     0
 42
0.0000000001
 43
0.0000000001
 40
0.0
 40
0.0
 40
0.0
 40
0.0
 40
2.142709433955016
 40
2.142709433955016
 40
2.142709433955016
 40
2.142709433955016
 10
-22.70692152875317
 20
-7.515877853027793
 30
0.0
 10
-21.49271951617872
 20
-7.515877853027793
 30
0.0
 10
-20.33389028583171
 20
-7.303841023886723
 30
0.0
 10
-19.21724938640816
 20
-6.930254069288106
 30
0.0
  0
SPLINE
  5
C63
330
1F
100
AcDbEntity
  8
AM_0
100
AcDbSpline
210
0.0
220
0.0
230
1.0
 70
     8
 71
     3
 72
     8
 73
     4
 74
     2
 42
0.0000000001
 43
0.0000000001
 44
0.0000000001
 12
-1.0
 22
0.0000000000000001
 32
0.0
 40
0.0
 40
0.0
 40
0.0
 40
0.0
 40
15.29841676512069
 40
15.29841676512069
 40
15.29841676512069
 40
15.29841676512069
 10
-9.361921528753329
 20
-7.533537833363173
 30
0.0
 10
-14.46139378379356
 20
-7.533537833363173
 30
0.0
 10
-18.58415765627356
 20
-3.793466626844509
 30
0.0
 10
-22.70692152875355
 20
-0.0533954203258446
 30
0.0
 11
-9.361921528753329
 21
-7.533537833363173
 31
0.0
 11
-22.70692152875355
 21
-0.0533954203258446
 31
0.0
  0
SPLINE
  5
C64
330
1F
100
AcDbEntity
  8
AM_0
100
AcDbSpline
210
0.0
220
0.0
230
1.0
 70
     8
 71
     3
 72
     8
 73
     4
 74
     2
 42
0.0000000001
 43
0.0000000001
 44
0.0000000001
 12
-1.0
 22
0.0000000000000001
 32
0.0
 40
0.0
 40
0.0
 40
0.0
 40
0.0
 40
15.56957964865164
 40
15.56957964865164
 40
15.56957964865164
 40
15.56957964865164
 10
-11.87648724558901
 20
-8.073544136884132
 30
0.0
 10
-17.06634712847289
 20
-8.073544136884132
 30
0.0
 10
-21.14391718703088
 20
-4.063469778604988
 30
0.0
 10
-25.22148724558886
 20
-0.0533954203258446
 30
0.0
 11
-11.87648724558901
 21
-8.073544136884132
 31
0.0
 11
-25.22148724558886
 21
-0.0533954203258446
 31
0.0
  0
SPLINE
  5
C65
330
1F
100
AcDbEntity
  8
AM_0
100
AcDbSpline
210
0.0
220
0.0
230
1.0
 70
     8
 71
     3
 72
     8
 73
     4
 74
     0
 42
0.0000000001
 43
0.0000000001
 40
0.0
 40
0.0
 40
0.0
 40
0.0
 40
8.399619336653909
 40
8.399619336653909
 40
8.399619336653909
 40
8.399619336653909
 10
-13.70184288108803
 20
-8.500000000001389
 30
0.0
 10
-18.46156919104908
 20
-8.523493593442569
 30
0.0
 10
-22.22061744104592
 20
-5.062787378456144
 30
0.0
 10
-25.88373003249969
 20
-1.268048654421793
 30
0.0
  0
SPLINE
  5
C66
330
1F
100
AcDbEntity
  8
AM_0
100
AcDbSpline
210
0.0
220
0.0
230
1.0
 70
     8
 71
     3
 72
     8
 73
     4
 74
     0
 42
0.0000000001
 43
0.0000000001
 40
0.0
 40
0.0
 40
0.0
 40
0.0
 40
2.142709433955016
 40
2.142709433955016
 40
2.142709433955016
 40
2.142709433955016
 10
-9.34507864767295
 20
-7.515877853027697
 30
0.0
 10
-8.1308766350985
 20
-7.515877853027697
 30
0.0
 10
-6.972047404751107
 20
-7.303841023886624
 30
0.0
 10
-5.855406505327551
 20
-6.930254069288106
 30
0.0
  0
SPLINE
  5
C67
330
1F
100
AcDbEntity
  8
AM_0
100
AcDbSpline
210
0.0
220
0.0
230
1.0
 70
     8
 71
     3
 72
     8
 73
     4
 74
     0
 42
0.0000000001
 43
0.0000000001
 40
2.924396646875711
 40
2.924396646875711
 40
2.924396646875711
 40
2.924396646875711
 40
8.999068685365031
 40
8.999068685365031
 40
8.999068685365031
 40
8.999068685365031
 10
-0.6956403387375533
 20
-6.476996473162468
 30
0.0
 10
-3.779071921182345
 20
-5.102741474800567
 30
0.0
 10
-6.562075284427647
 20
-2.578068447563205
 30
0.0
 10
-9.34507864767295
 20
-0.053395420325748
 30
0.0
  0
SPLINE
  5
C68
330
1F
100
AcDbEntity
  8
AM_0
100
AcDbSpline
210
0.0
220
0.0
230
1.0
 70
     8
 71
     3
 72
     8
 73
     4
 74
     0
 42
0.0000000001
 43
0.0000000001
 40
1.225442940055349
 40
1.225442940055349
 40
1.225442940055349
 40
1.225442940055349
 40
9.158576263912857
 40
9.158576263912857
 40
9.158576263912857
 40
9.158576263912857
 10
-0.5408212625057928
 20
-7.867770964762557
 30
0.0
 10
-4.795684644181844
 20
-7.000425964398477
 30
0.0
 10
-8.327664504345431
 20
-3.526910692362021
 30
0.0
 10
-11.85964436450901
 20
-0.053395420325748
 30
0.0
  0
SPLINE
  5
C69
330
1F
100
AcDbEntity
  8
AM_0
100
AcDbSpline
210
0.0
220
0.0
230
1.0
 70
     8
 71
     3
 72
     8
 73
     4
 74
     0
 42
0.0000000001
 43
0.0000000001
 40
1.179258879863511
 40
1.179258879863511
 40
1.179258879863511
 40
1.179258879863511
 40
15.79348454032205
 40
15.79348454032205
 40
15.79348454032205
 40
15.79348454032205
 10
-1.499279442753263
 20
-8.436305483015965
 30
0.0
 10
-6.207786048122288
 20
-7.89335830965634
 30
0.0
 10
-9.946393024064972
 20
-3.973376864991091
 30
0.0
 10
-13.68500000000765
 20
-0.0533954203258446
 30
0.0
  0
LINE
  5
C6A
330
1F
100
AcDbEntity
  8
AM_0
100
AcDbLine
 10
-0.1946426335007574
 20
-7.360630454509142
 30
0.0
 11
-0.1946426335007573
 21
-2.698215173309032
 31
0.0
  0
LINE
  5
C6B
330
1F
100
AcDbEntity
  8
AM_0
100
AcDbLine
 10
-0.1678238790271507
 20
-2.644331149662216
 30
0.0
 11
0.0
 21
-2.123408406334138
 31
0.0
  0
LINE
  5
C6C
330
1F
100
AcDbEntity
  8
AM_0
100
AcDbLine
 10
0.0
 20
-0.2527441999981108
 30
0.0
 11
-0.1678238790271507
 21
1.561002109303032
 31
0.0
  0
LINE
  5
C6D
330
1F
100
AcDbEntity
  8
AM_0
100
AcDbLine
 10
-0.1678238790271507
 20
-2.644331149662216
 30
0.0
 11
-0.6970893141797435
 21
-3.707726962893227
 31
0.0
  0
LINE
  5
C6E
330
1F
100
AcDbEntity
  8
AM_0
100
AcDbLine
 10
0.0
 20
-0.2527441999981108
 30
0.0
 11
-2.3717673297401
 21
-0.0387972881779348
 31
0.0
  0
LINE
  5
C6F
330
1F
100
AcDbEntity
  8
AM_0
100
AcDbLine
 10
-0.1678238790271507
 20
1.561002109303032
 30
0.0
 11
-0.8459305494876163
 21
4.091730656413457
 31
0.0
  0
LINE
  5
C73
330
1F
100
AcDbEntity
  8
AM_0
100
AcDbLine
 10
-0.3589119569119818
 20
-7.643166669753711
 30
0.0
 11
-0.6956403387375533
 21
-6.47699647316247
 31
0.0
  0
SPLINE
  5
C74
330
1F
100
AcDbEntity
  8
AM_0
100
AcDbSpline
210
0.0
220
0.0
230
1.0
 70
     8
 71
     3
 72
     8
 73
     4
 74
     2
 42
0.0000000001
 43
0.0000000001
 44
0.0000000001
 12
0.2968072260726872
 22
-0.9549374170860815
 32
0.0
 13
-0.1104733016500219
 23
-0.9938790920542313
 33
0.0
 40
0.0
 40
0.0
 40
0.0
 40
0.0
 40
2.76926988936723
 40
2.76926988936723
 40
2.76926988936723
 40
2.76926988936723
 10
-0.6970893141689204
 20
-3.707726962871678
 30
0.0
 10
-0.4231095427990188
 20
-4.589220107993879
 30
0.0
 10
-0.5936635427914237
 20
-5.559556658729993
 30
0.0
 10
-0.6956403387375533
 20
-6.476996473162468
 30
0.0
 11
-0.6970893141689204
 21
-3.707726962871678
 31
0.0
 11
-0.6956403387375533
 21
-6.476996473162468
 31
0.0
  0
SPLINE
  5
C75
330
1F
100
AcDbEntity
  8
AM_0
100
AcDbSpline
210
0.0
220
0.0
230
1.0
 70
     8
 71
     3
 72
     8
 73
     4
 74
     0
 42
0.0000000001
 43
0.0000000001
 40
9.141233629465322
 40
9.141233629465322
 40
9.141233629465322
 40
9.141233629465322
 40
9.290285023718936
 40
9.290285023718936
 40
9.290285023718936
 40
9.290285023718936
 10
-0.1455304936200719
 20
-0.2396165212009607
 30
0.0
 10
-0.2103570326727322
 20
-0.1716678954888693
 30
0.0
 10
-0.2751785163402701
 20
-0.1037016677395712
 30
0.0
 10
-0.3400000000078081
 20
-0.0357354399902732
 30
0.0
  0
SPLINE
  5
C76
330
1F
100
AcDbEntity
  8
AM_0
100
AcDbSpline
210
0.0
220
0.0
230
1.0
 70
     8
 71
     3
 72
     9
 73
     5
 74
     3
 42
0.0000000001
 43
0.0000000001
 44
0.0000000001
 12
-0.9959561288896111
 22
0.0898409112109892
 32
0.0
 13
0.5961652186767445
 23
-0.8028617764223861
 33
0.0
 40
0.0
 40
0.0
 40
0.0
 40
0.0
 40
1.117650584674363
 40
5.31032612054542
 40
5.31032612054542
 40
5.31032612054542
 40
5.31032612054542
 10
-2.3717673297401
 20
-0.0387972881779348
 30
0.0
 10
-2.742810979661264
 20
-0.0053270391970549
 30
0.0
 10
-4.857104197502481
 20
-1.136853099691046
 30
0.0
 10
-1.530265090074145
 20
-2.585680653329188
 30
0.0
 10
-0.6970893141797433
 20
-3.707726962893227
 30
0.0
 11
-2.3717673297401
 21
-0.0387972881779348
 31
0.0
 11
-3.391767329740332
 21
-0.4956811130420619
 31
0.0
 11
-0.6970893141797433
 21
-3.707726962893227
 31
0.0
  0
SPLINE
  5
C77
330
1F
100
AcDbEntity
  8
AM_0
100
AcDbSpline
210
0.0
220
0.0
230
1.0
 70
     8
 71
     3
 72
     8
 73
     4
 74
     0
 42
0.0000000001
 43
0.0000000001
 40
0.0
 40
0.0
 40
0.0
 40
0.0
 40
2.085529961854907
 40
2.085529961854907
 40
2.085529961854907
 40
2.085529961854907
 10
-11.85964436450863
 20
-8.055884156548657
 30
0.0
 10
-10.67784405279083
 20
-8.055884156548657
 30
0.0
 10
-9.553719709962411
 20
-7.847948312065616
 30
0.0
 10
-8.474137748690942
 20
-7.479426388097735
 30
0.0
  0
SPLINE
  5
C78
330
1F
100
AcDbEntity
  8
AM_0
100
AcDbSpline
210
0.0
220
0.0
230
1.0
 70
     8
 71
     3
 72
     8
 73
     4
 74
     0
 42
0.0000000001
 43
0.0000000001
 40
0.0
 40
0.0
 40
0.0
 40
0.0
 40
1.978364719412732
 40
1.978364719412732
 40
1.978364719412732
 40
1.978364719412732
 10
-13.68500000000765
 20
-8.482340019665722
 30
0.0
 10
-12.56394031524362
 20
-8.487873472377524
 30
0.0
 10
-11.49839275973433
 20
-8.300122633314035
 30
0.0
 10
-10.47653603437699
 20
-7.960247361692788
 30
0.0
  0
POLYLINE
  5
C79
330
1F
100
AcDbEntity
  8
AM_0
100
AcDb2dPolyline
 66
     1
 10
0.0
 20
0.0
 30
0.0
 70
     2
  0
VERTEX
  5
C7A
330
C79
100
AcDbEntity
  8
AM_0
100
AcDbVertex
100
AcDb2dVertex
 10
-25.5
 20
-7.162568656781218
 30
0.0
 42
-0.0230041772467715
  0
VERTEX
  5
C7B
330
C79
100
AcDbEntity
  8
AM_0
100
AcDbVertex
100
AcDb2dVertex
 10
-26.86239574999879
 20
-6.219879394293558
 30
0.0
 42
-0.0405369427811071
 70
     1
  0
VERTEX
  5
C7C
330
C79
100
AcDbEntity
  8
AM_0
100
AcDbVertex
100
AcDb2dVertex
 10
-27.56231249999999
 20
-5.59057819379572
 30
0.0
 42
-0.0218730450044702
  0
VERTEX
  5
C7D
330
C79
100
AcDbEntity
  8
AM_0
100
AcDbVertex
100
AcDb2dVertex
 10
-29.26836005564455
 20
-3.620528084891264
 30
0.0
 42
-0.0311955358087158
 70
     1
  0
VERTEX
  5
C7E
330
C79
100
AcDbEntity
  8
AM_0
100
AcDbVertex
100
AcDb2dVertex
 10
-30.3120625000001
 20
-2.119544136502746
 30
0.0
 42
-0.0495171753539275
  0
VERTEX
  5
C7F
330
C79
100
AcDbEntity
  8
AM_0
100
AcDbVertex
100
AcDb2dVertex
 10
-30.89557895094378
 20
-0.8999825271623125
 30
0.0
 42
-0.0980887089957094
 70
     1
  0
VERTEX
  5
C80
330
C79
100
AcDbEntity
  8
AM_0
100
AcDbVertex
100
AcDb2dVertex
 10
-30.99949999999983
 20
-0.2205005421953658
 30
0.0
 42
-0.1602936925217278
  0
VERTEX
  5
C81
330
C79
100
AcDbEntity
  8
AM_0
100
AcDbVertex
100
AcDb2dVertex
 10
-30.81656835718545
 20
0.2630488892716656
 30
0.0
 42
-0.1317128335817564
 70
     1
  0
VERTEX
  5
C82
330
C79
100
AcDbEntity
  8
AM_0
100
AcDbVertex
100
AcDb2dVertex
 10
-30.3120625000001
 20
0.6303706634980544
 30
0.0
 42
-0.1572941928372058
  0
VERTEX
  5
C83
330
C79
100
AcDbEntity
  8
AM_0
100
AcDbVertex
100
AcDb2dVertex
 10
-29.61164181177699
 20
0.669196711740166
 30
0.0
 42
-0.0493803804385245
 70
     1
  0
VERTEX
  5
C84
330
C79
100
AcDbEntity
  8
AM_0
100
AcDbVertex
100
AcDb2dVertex
 10
-27.56231249999999
 20
-0.0912848336650072
 30
0.0
 42
-0.0494001655057179
  0
VERTEX
  5
C85
330
C79
100
AcDbEntity
  8
AM_0
100
AcDbVertex
100
AcDb2dVertex
 10
-26.47994866715528
 20
-0.7589709999598698
 30
0.0
 42
-0.0470909004785133
 70
     1
  0
VERTEX
  5
C86
330
C79
100
AcDbEntity
  8
AM_0
100
AcDbVertex
100
AcDb2dVertex
 10
-25.5
 20
-1.663811536521488
 30
0.0
  0
SEQEND
  5
C87
330
C79
100
AcDbEntity
  8
AM_0
  0
LINE
  5
C88
330
1F
100
AcDbEntity
  8
AM_0
100
AcDbLine
 10
-25.5
 20
-1.663811536353708
 30
0.0
 11
-25.5
 21
0.220446904168378
 31
0.0
  0
SPLINE
  5
C89
330
1F
100
AcDbEntity
  8
AM_0
100
AcDbSpline
210
0.0
220
0.0
230
1.0
 70
     8
 71
     3
 72
     8
 73
     4
 74
     0
 42
0.0000000001
 43
0.0000000001
 40
0.0
 40
0.0
 40
0.0
 40
0.0
 40
1.690066516727341
 40
1.690066516727341
 40
1.690066516727341
 40
1.690066516727341
 10
-22.72376440983355
 20
-7.533537833363173
 30
0.0
 10
-23.68146876931284
 20
-7.533537833363173
 30
0.0
 10
-24.6047240686891
 20
-7.401623394948543
 30
0.0
 10
-25.5
 20
-7.162568656781093
 30
0.0
  0
SPLINE
  5
C8C
330
1F
100
AcDbEntity
  8
AM_0
100
AcDbSpline
210
0.0
220
0.0
230
1.0
 70
     8
 71
     3
 72
     8
 73
     4
 74
     0
 42
0.0000000001
 43
0.0000000001
 40
8.950064817795073
 40
8.950064817795073
 40
8.950064817795073
 40
8.950064817795073
 40
9.158576263912857
 40
9.158576263912857
 40
9.158576263912857
 40
9.158576263912857
 10
-25.50000000000039
 20
0.2204469041677015
 30
0.0
 10
-25.40715366470388
 20
0.1291976769832644
 30
0.0
 10
-25.31432045514637
 20
0.0379011283287099
 30
0.0
 10
-25.22148724558886
 20
-0.0533954203258446
 30
0.0
  0
SPLINE
  5
C8D
330
1F
100
AcDbEntity
  8
AM_0
100
AcDbSpline
210
0.0
220
0.0
230
1.0
 70
     8
 71
     3
 72
     8
 73
     4
 74
     0
 42
0.0000000001
 43
0.0000000001
 40
6.974934265298577
 40
6.974934265298577
 40
6.974934265298577
 40
6.974934265298577
 40
8.999068685365031
 40
8.999068685365031
 40
8.999068685365031
 40
8.999068685365031
 10
-25.50000000000347
 20
2.427774334992145
 30
0.0
 10
-24.56156417053355
 20
1.629091318535452
 30
0.0
 10
-23.63424284964355
 20
0.7878479491048524
 30
0.0
 10
-22.70692152875355
 20
-0.0533954203258446
 30
0.0
  0
DIMENSION
  5
D13
330
1F
100
AcDbEntity
  8
AM_5
100
AcDbDimension
  2
*D5
 10
-0.0000000000000016
 20
-34.49999999999981
 30
0.0
 11
-84.99999999999996
 21
-31.39999999999981
 31
0.0
 70
    32
  1
<>
  3
AM_JIS
100
AcDbAlignedDimension
 13
-169.9999999999999
 23
-7.499999999999968
 33
0.0
 14
0.0
 24
-8.499999999999843
 34
0.0
 50
0.0000000000001131
100
AcDbRotatedDimension
1001
GENIUS_GENDTOL_13
1000

1000
h7
1000

1040
0.0
  0
DIMENSION
  5
D9C
330
1F
100
AcDbEntity
  8
AM_5
100
AcDbDimension
  2
*D6
 10
-0.0000000000000009
 20
-22.49999999999981
 30
0.0
 11
-12.75
 21
-19.39999999999981
 31
0.0
 70
    32
  1
<>
  3
AM_JIS
100
AcDbAlignedDimension
 13
-25.5
 23
-8.499999999999843
 33
0.0
 14
0.0
 24
-8.499999999999843
 34
0.0
 50
0.0000000000001131
100
AcDbRotatedDimension
1001
GENIUS_GENDTOL_13
1000

1000
h7
1000

1040
0.0
  0
DIMENSION
  5
EDE
330
1F
100
AcDbEntity
  8
AM_5
100
AcDbDimension
  2
*D7
 10
14.00000000000017
 20
8.50000000000112
 30
0.0
 11
14.00000000000017
 21
0.000000000000355
 31
0.0
 70
   160
  1
%%c<>
  3
AM_JIS
100
AcDbAlignedDimension
 13
0.0
 23
-8.50000000000081
 33
0.0
 14
0.0
 24
8.500000000001124
 34
0.0
 50
89.99999999999884
100
AcDbRotatedDimension
1001
GENIUS_GENDTOL_13
1000

1000
h7
1000

1040
0.0
  0
TEXT
  5
F75
330
1F
100
AcDbEntity
  8
AM_6
100
AcDbText
 10
-120.8333333333333
 20
-56.99999999999981
 30
0.0
 40
5.0
  1
SSUPR4170ZX-R20
 72
     4
 11
-84.99999999999996
 21
-54.49999999999981
 31
0.0
100
AcDbText
  0
SPLINE
  5
F89
330
1F
100
AcDbEntity
  8
AM_0
100
AcDbSpline
210
0.0
220
0.0
230
1.0
 70
     8
 71
     3
 72
     8
 73
     4
 74
     0
 42
0.0000000001
 43
0.0000000001
 40
1.005260299758161
 40
1.005260299758161
 40
1.005260299758161
 40
1.005260299758161
 40
2.085529961854907
 40
2.085529961854907
 40
2.085529961854907
 40
2.085529961854907
 10
-25.5
 20
-7.999999999999844
 30
0.0
 10
-24.91506726643377
 20
-7.818116463638891
 30
0.0
 10
-24.34391083623129
 20
-7.670314585132302
 30
0.0
 10
-23.78470542473426
 20
-7.479426388097747
 30
0.0
  0
SPLINE
  5
F8F
330
1F
100
AcDbEntity
  8
AM_0
100
AcDbSpline
210
0.0
220
0.0
230
1.0
 70
     8
 71
     3
 72
     8
 73
     4
 74
     0
 42
0.0000000001
 43
0.0000000001
 40
1.023967998564144
 40
1.023967998564144
 40
1.023967998564144
 40
1.023967998564144
 40
10.23463435773966
 40
10.23463435773966
 40
10.23463435773966
 40
10.23463435773966
 10
-25.5
 20
8.312356167693367
 30
0.0
 10
-20.96516892913109
 20
7.605105450802223
 30
0.0
 10
-17.3250844645763
 20
3.784685005405921
 30
0.0
 10
-13.6850000000215
 20
-0.035735439990382
 30
0.0
  0
DIMENSION
  5
1201
330
1F
100
AcDbEntity
  8
AM_5
100
AcDbDimension
  2
*D8
 10
-183.9999999999999
 20
8.000000000000033
 30
0.0
 11
-183.9999999999999
 21
0.2726122319490007
 31
0.0
 70
   160
  1
%%c<>
  3
AM_JIS
100
AcDbAlignedDimension
 13
-169.4999999999999
 23
-7.999999999999968
 33
0.0
 14
-169.4999999999998
 24
8.00000000000003
 34
0.0
 50
270.0
100
AcDbRotatedDimension
1001
GENIUS_GENDTOL_13
1000

1000
h7
1000

1040
0.0
  0
LINE
  5
12CD
330
1F
100
AcDbEntity
  8
AM_11
100
AcDbLine
 10
0.0
 20
-8.499999999999843
 30
0.0
 11
0.0
 21
8.500000000000156
 31
0.0
  0
LINE
  5
12DA
330
1F
100
AcDbEntity
  8
AM_11
100
AcDbLine
 10
-25.5
 20
-8.499999999999843
 30
0.0
 11
-25.5
 21
8.500000000000156
 31
0.0
  0
LINE
  5
12DB
330
1F
100
AcDbEntity
  8
AM_11
100
AcDbLine
 10
-25.5
 20
8.500000000000156
 30
0.0
 11
0.0
 21
8.500000000000156
 31
0.0
  0
LINE
  5
12DD
330
1F
100
AcDbEntity
  8
AM_11
100
AcDbLine
 10
-25.5
 20
-8.499999999999843
 30
0.0
 11
0.0
 21
-8.499999999999843
 31
0.0
  0
LINE
  5
12F6
330
1F
100
AcDbEntity
  8
AM_0
100
AcDbLine
 10
-25.5
 20
8.312356167693373
 30
0.0
 11
-25.81235616769322
 21
8.000000000000154
 31
0.0
  0
LINE
  5
1309
330
1F
100
AcDbEntity
  8
AM_0
100
AcDbLine
 10
-25.81235616769322
 20
8.000000000000154
 30
0.0
 11
-169.4999999999998
 21
8.00000000000003
 31
0.0
  0
LINE
  5
130A
330
1F
100
AcDbEntity
  8
AM_0
100
AcDbLine
 10
-25.5
 20
-7.999999999999844
 30
0.0
 11
-169.4999999999999
 21
-7.999999999999968
 31
0.0
  0
LINE
  5
1316
330
1F
100
AcDbEntity
  8
AM_0
100
AcDbLine
 10
-169.9999999999999
 20
-7.499999999999968
 30
0.0
 11
-169.9999999999998
 21
7.50000000000003
 31
0.0
  0
LINE
  5
1319
330
1F
100
AcDbEntity
  8
AM_0
100
AcDbLine
 10
-169.9999999999998
 20
7.50000000000003
 30
0.0
 11
-169.4999999999998
 21
8.00000000000003
 31
0.0
1001
GENIUS_GENFIL_13
1070
     0
1040
0.5
1040
0.5
1040
20.0
1040
0.0
1002
{
1002
}
1001
GENIUS_GENODEF_13
1002
{
1000
HIER
1070
     0
1002
}
1002
{
1000
MANEDIT
1070
     0
1002
}
1002
{
1000
NOSEL
1070
     0
1002
}
1002
{
1000
BEHIND
1070
     0
1002
}
1002
{
1000
REACTOR
1002
}
1001
GENIUS_GENOBJ-N-CHA_13
1002
{
1000
OWNER
1000
GEN
1002
}
  0
LINE
  5
131B
330
1F
100
AcDbEntity
  8
AM_0
100
AcDbLine
 10
-169.9999999999999
 20
-7.499999999999968
 30
0.0
 11
-169.4999999999999
 21
-7.999999999999968
 31
0.0
1001
GENIUS_GENFIL_13
1070
     0
1040
0.5
1040
0.5
1040
20.0
1040
0.0
1002
{
1002
}
1001
GENIUS_GENODEF_13
1002
{
1000
HIER
1070
     0
1002
}
1002
{
1000
MANEDIT
1070
     0
1002
}
1002
{
1000
NOSEL
1070
     0
1002
}
1002
{
1000
BEHIND
1070
     0
1002
}
1002
{
1000
REACTOR
1002
}
1001
GENIUS_GENOBJ-N-CHA_13
1002
{
1000
OWNER
1000
GEN
1002
}
  0
LINE
  5
131C
330
1F
100
AcDbEntity
  8
AM_0
100
AcDbLine
 10
-169.4999999999999
 20
-7.999999999999968
 30
0.0
 11
-169.4999999999999
 21
8.000000000000015
 31
0.0
  0
LINE
  5
136E
330
1F
100
AcDbEntity
  8
AM_7
100
AcDbLine
 10
-172.9999999999999
 20
0.0000000000000291
 30
0.0
 11
3.0
 21
0.0000000000001583
 31
0.0
1001
GENIUS_GENODEF_13
1002
{
1000
HIER
1070
     0
1002
}
1002
{
1000
MANEDIT
1070
     0
1002
}
1002
{
1000
NOSEL
1070
     0
1002
}
1002
{
1000
BEHIND
1070
     0
1002
}
1002
{
1000
REACTOR
1002
}
1001
GENIUS_GENOBJ-N-CEN_13
1002
{
1000
OWNER
1000
GEN
1002
}
  0
POLYLINE
  5
1487
330
1F
100
AcDbEntity
  8
AM_0
100
AcDb2dPolyline
 66
     1
 10
0.0
 20
0.0
 30
0.0
  0
VERTEX
  5
1488
330
1487
100
AcDbEntity
  8
AM_0
100
AcDbVertex
100
AcDb2dVertex
 10
-25.81235616769322
 20
8.000000000000154
 30
0.0
 42
0.0528073747139195
  0
VERTEX
  5
1489
330
1487
100
AcDbEntity
  8
AM_0
100
AcDbVertex
100
AcDb2dVertex
 10
-29.57881705219845
 20
7.470311720973026
 30
0.0
 42
0.0139461738785528
  0
VERTEX
  5
148A
330
1487
100
AcDbEntity
  8
AM_0
100
AcDbVertex
100
AcDb2dVertex
 10
-30.29575620196558
 20
7.271131659755084
 30
0.0
 42
0.0436287246585526
  0
VERTEX
  5
148B
330
1487
100
AcDbEntity
  8
AM_0
100
AcDbVertex
100
AcDb2dVertex
 10
-30.91944989673823
 20
7.017613592540428
 30
0.0
 42
0.2738540026404822
  0
VERTEX
  5
148C
330
1487
100
AcDbEntity
  8
AM_0
100
AcDbVertex
100
AcDb2dVertex
 10
-30.98086423081758
 20
6.92028763626525
 30
0.0
 42
0.1958299863149157
  0
VERTEX
  5
148D
330
1487
100
AcDbEntity
  8
AM_0
100
AcDbVertex
100
AcDb2dVertex
 10
-30.93317158697423
 20
6.792983857664497
 30
0.0
 42
0.028966137260715
  0
VERTEX
  5
148E
330
1487
100
AcDbEntity
  8
AM_0
100
AcDbVertex
100
AcDb2dVertex
 10
-30.29575620196558
 20
6.177786325824561
 30
0.0
 42
0.0057813111855378
  0
VERTEX
  5
148F
330
1487
100
AcDbEntity
  8
AM_0
100
AcDbVertex
100
AcDb2dVertex
 10
-29.54260710303808
 20
5.545751756714784
 30
0.0
 42
0.0022201051474406
  0
VERTEX
  5
1490
330
1487
100
AcDbEntity
  8
AM_0
100
AcDbVertex
100
AcDb2dVertex
 10
-27.55532408655833
 20
3.931529675187995
 30
0.0
 42
0.0115243051902067
  0
VERTEX
  5
1491
330
1487
100
AcDbEntity
  8
AM_0
100
AcDbVertex
100
AcDb2dVertex
 10
-26.88299158158959
 20
3.415422166082824
 30
0.0
 42
0.0057470741765196
  0
VERTEX
  5
1492
330
1487
100
AcDbEntity
  8
AM_0
100
AcDbVertex
100
AcDb2dVertex
 10
-25.49999999992501
 20
2.42777433493472
 30
0.0
  0
SEQEND
  5
1493
330
1487
100
AcDbEntity
  8
AM_0
  0
ARC
  5
156A
330
1F
100
AcDbEntity
  8
AM_0
100
AcDbCircle
 10
-2.0
 20
6.494708047041255
 30
0.0
 40
2.0
100
AcDbArc
 50
0.0
 51
73.36874870654234
  0
ARC
  5
156C
330
1F
100
AcDbEntity
  8
AM_0
100
AcDbCircle
 10
-2.0
 20
-6.500000000000984
 30
0.0
 40
2.0
100
AcDbArc
 50
284.4988326357242
 51
0.0
  0
DIMENSION
  5
157F
330
1F
100
AcDbEntity
  8
AM_5
100
AcDbDimension
  2
*D9
 10
-2.0
 20
-6.500000000000984
 30
0.0
 11
7.95239751813035
 21
-12.43752710188079
 31
0.0
 70
    36
  1
<>
  3
AM_JIS$4
100
AcDbRadialDimension
 15
-0.6191257930908983
 25
-7.946784857778103
 35
0.0
 40
0.0
1001
GENIUS_GENDTOL_13
1000

1000
h7
1000

1040
0.0
1001
ACAD
1000
DSTYLE
1002
{
1070
   287
1070
     3
1070
   271
1070
     3
1070
   288
1070
     1
1070
   289
1070
     3
1070
   172
1070
     1
1070
    74
1070
     0
1002
}
  0
VIEWPORT
  5
110
330
101
100
AcDbEntity
 67
     1
  8
0
100
AcDbViewport
 10
420.5
 20
297.0
 30
0.0
 40
948.9782706766916
 41
628.452
 68
     1
 69
     1
1001
ACAD
1000
MVIEW
1002
{
1070
    16
1010
0.0
1020
0.0
1030
0.0
1010
0.0
1020
0.0
1030
1.0
1040
0.0
1040
628.452
1040
420.5
1040
297.0
1040
50.0
1040
0.0
1040
0.0
1070
     0
1070
   100
1070
     1
1070
     1
1070
     0
1070
     0
1070
     0
1070
     0
1040
0.0
1040
0.0
1040
0.0
1040
10.0
1040
10.0
1040
10.0
1040
10.0
1070
     0
1002
{
1002
}
1002
}
  0
ENDSEC
  0
SECTION
  2
OBJECTS
  0
DICTIONARY
  5
C
330
0
100
AcDbDictionary
  3
ACAD_GROUP
350
D
  3
ACAD_LAYOUT
350
1A
  3
ACAD_MLINESTYLE
350
17
  3
ACAD_PLOTSETTINGS
350
19
  3
ACAD_PLOTSTYLENAME
350
E
  3
ACDBVARIABLEDICTIONARY
350
34
  3
ACMDICTIONARY
350
43
  3
AMG
350
2B
  3
AMGSNAPSETTINGS
350
6E
  3
DWGPROPS
350
1644
  3
ACDBHEADERROUNDTRIPXREC
350
1650
  0
DICTIONARY
  5
74
330
1F
100
AcDbDictionary
280
     1
  3
ACAD_INDEX
360
1646
  3
ACAD_LAYOUTSELFREF
360
1673
  0
DICTIONARY
  5
1678
330
101
100
AcDbDictionary
280
     1
  3
ACAD_LAYOUTSELFREF
360
1679
  0
DICTIONARY
  5
D
102
{ACAD_REACTORS
330
C
102
}
330
C
100
AcDbDictionary
  0
DICTIONARY
  5
1A
102
{ACAD_REACTORS
330
C
102
}
330
C
100
AcDbDictionary
  0
DICTIONARY
  5
17
102
{ACAD_REACTORS
330
C
102
}
330
C
100
AcDbDictionary
  3
STANDARD
350
18
  0
DICTIONARY
  5
19
102
{ACAD_REACTORS
330
C
102
}
330
C
100
AcDbDictionary
  0
ACDBDICTIONARYWDFLT
  5
E
102
{ACAD_REACTORS
330
C
102
}
330
C
100
AcDbDictionary
281
     1
  3
Normal
350
F
100
AcDbDictionaryWithDefault
340
F
  0
DICTIONARY
  5
34
102
{ACAD_REACTORS
330
C
102
}
330
C
100
AcDbDictionary
  3
INDEXCTL
350
35
  3
SORTENTS
350
B5E
  0
DICTIONARY
  5
43
102
{ACAD_REACTORS
330
C
102
}
330
C
100
AcDbDictionary
  3
ACMSTDDICTIONARY
350
260
  0
DICTIONARY
  5
2B
102
{ACAD_REACTORS
330
C
102
}
330
C
100
AcDbDictionary
  3
ACMGSETTINGS
350
2C
  0
DICTIONARY
  5
6E
102
{ACAD_REACTORS
330
C
102
}
330
C
100
AcDbDictionary
  0
XRECORD
  5
1644
102
{ACAD_REACTORS
330
C
102
}
330
C
100
AcDbXrecord
  1
DWGPROPS COOKIE
  2

  3

  4

  6

  7

  8

  9

300
AmdtFileType=82
301
=
302
=
303
=
304
=
305
=
306
=
307
=
308
=
309
=
 40
0.0344643518518519
 41
2452809.475734583
 42
2452844.564358356
  1

 90
        1
  0
DICTIONARY
  5
1650
102
{ACAD_REACTORS
330
C
102
}
330
C
100
AcDbDictionary
  3
TSTACKALIGN
350
1651
  3
TSTACKSIZE
350
1652
  3
HYPERLINKBASE
350
1653
  3
STYLESHEET
350
1654
  3
LAYOUTDICT
350
1655
  3
PLOTSETDICT
350
1656
  3
PLOTSTYLNAMDICT
350
1657
  3
LWETCUNION
350
1658
  3
INSUNITS
350
1659
  3
CEPSNTYPE
350
165A
  3
FINGERPRINTGUID
350
165B
  3
VERSIONGUID
350
165C
  3
PSVPSCALE
350
165D
  3
DIMSTYLEDATA
350
165E
  3
PUCSORTHOREF
350
165F
  3
PUCSORTHOVIEW
350
1660
  3
PUCSBASE
350
1661
  3
PUCSORGTOP
350
1662
  3
PUCSORGBOTTOM
350
1663
  3
PUCSORGLEFT
350
1664
  3
PUCSORGRIGHT
350
1665
  3
PUCSORGFRONT
350
1666
  3
PUCSORGBACK
350
1667
  3
UCSORTHOREF
350
1668
  3
UCSORTHOVIEW
350
1669
  3
UCSBASE
350
166A
  3
UCSORGTOP
350
166B
  3
UCSORGBOTTOM
350
166C
  3
UCSORGLEFT
350
166D
  3
UCSORGRIGHT
350
166E
  3
UCSORGFRONT
350
166F
  3
UCSORGBACK
350
1670
  0
DICTIONARY
  5
1646
102
{ACAD_REACTORS
330
74
102
}
330
74
100
AcDbDictionary
  3
*A1
350
1647
  0
XRECORD
  5
1673
102
{ACAD_REACTORS
330
74
102
}
330
74
100
AcDbXrecord
340
1F
  0
XRECORD
  5
1679
102
{ACAD_REACTORS
330
1678
102
}
330
1678
100
AcDbXrecord
340
101
  0
MLINESTYLE
  5
18
102
{ACAD_REACTORS
330
17
102
}
330
17
100
AcDbMlineStyle
  2
STANDARD
 70
     0
  3

 62
   256
 51
90.0
 52
90.0
 71
     2
 49
0.5
 62
   256
  6
BYLAYER
 49
-0.5
 62
   256
  6
BYLAYER
  0
ACDBPLACEHOLDER
  5
F
102
{ACAD_REACTORS
330
E
102
}
330
E
100
AcDbPlaceHolder
280
     0
  0
DICTIONARYVAR
  5
35
102
{ACAD_REACTORS
330
34
102
}
330
34
100
DictionaryVariables
280
     0
  1
1
  0
DICTIONARYVAR
  5
B5E
102
{ACAD_REACTORS
330
34
102
}
330
34
100
DictionaryVariables
280
     0
  1
96
  0
DICTIONARY
  5
260
102
{ACAD_REACTORS
330
43
102
}
330
43
100
AcDbDictionary
  0
DICTIONARY
  5
2C
102
{ACAD_REACTORS
330
2B
102
}
330
2B
100
AcDbDictionary
  3
DWGSETTINGS
350
2D
  0
XRECORD
  5
1651
102
{ACAD_REACTORS
330
1650
102
}
330
1650
100
AcDbXrecord
 90
        1
  0
XRECORD
  5
1652
102
{ACAD_REACTORS
330
1650
102
}
330
1650
100
AcDbXrecord
 90
       70
  0
XRECORD
  5
1653
102
{ACAD_REACTORS
330
1650
102
}
330
1650
100
AcDbXrecord
  1

  0
XRECORD
  5
1654
102
{ACAD_REACTORS
330
1650
102
}
330
1650
100
AcDbXrecord
  1
ASAMI.ctb
  0
XRECORD
  5
1655
102
{ACAD_REACTORS
330
1650
102
}
330
1650
100
AcDbXrecord
340
1A
  0
XRECORD
  5
1656
102
{ACAD_REACTORS
330
1650
102
}
330
1650
100
AcDbXrecord
340
19
  0
XRECORD
  5
1657
102
{ACAD_REACTORS
330
1650
102
}
330
1650
100
AcDbXrecord
340
E
  0
XRECORD
  5
1658
102
{ACAD_REACTORS
330
1650
102
}
330
1650
100
AcDbXrecord
 90
    10781
  0
XRECORD
  5
1659
102
{ACAD_REACTORS
330
1650
102
}
330
1650
100
AcDbXrecord
 90
        4
  0
XRECORD
  5
165A
102
{ACAD_REACTORS
330
1650
102
}
330
1650
100
AcDbXrecord
 90
        0
  0
XRECORD
  5
165B
102
{ACAD_REACTORS
330
1650
102
}
330
1650
100
AcDbXrecord
  1
{AFB28963-8C59-40AE-9337-C84526B81ACE}
  0
XRECORD
  5
165C
102
{ACAD_REACTORS
330
1650
102
}
330
1650
100
AcDbXrecord
  1
{F9DEEE2C-9DB4-470B-87D3-A0ED38B80A6D}
  0
XRECORD
  5
165D
102
{ACAD_REACTORS
330
1650
102
}
330
1650
100
AcDbXrecord
 40
0.0
  0
XRECORD
  5
165E
102
{ACAD_REACTORS
330
1650
102
}
330
1650
100
AcDbXrecord
1000
DSTYLE
1002
{
1070
    79
 70
     2
1070
   341
340
59
1070
   342
340
59
1070
   371
 70
    -1
1070
   372
 70
    -1
1002
}
  0
XRECORD
  5
165F
102
{ACAD_REACTORS
330
1650
102
}
330
1650
100
AcDbXrecord
340
0
  0
XRECORD
  5
1660
102
{ACAD_REACTORS
330
1650
102
}
330
1650
100
AcDbXrecord
 70
     0
  0
XRECORD
  5
1661
102
{ACAD_REACTORS
330
1650
102
}
330
1650
100
AcDbXrecord
340
0
  0
XRECORD
  5
1662
102
{ACAD_REACTORS
330
1650
102
}
330
1650
100
AcDbXrecord
 10
0.0
 20
0.0
 30
0.0
  0
XRECORD
  5
1663
102
{ACAD_REACTORS
330
1650
102
}
330
1650
100
AcDbXrecord
 10
0.0
 20
0.0
 30
0.0
  0
XRECORD
  5
1664
102
{ACAD_REACTORS
330
1650
102
}
330
1650
100
AcDbXrecord
 10
0.0
 20
0.0
 30
0.0
  0
XRECORD
  5
1665
102
{ACAD_REACTORS
330
1650
102
}
330
1650
100
AcDbXrecord
 10
0.0
 20
0.0
 30
0.0
  0
XRECORD
  5
1666
102
{ACAD_REACTORS
330
1650
102
}
330
1650
100
AcDbXrecord
 10
0.0
 20
0.0
 30
0.0
  0
XRECORD
  5
1667
102
{ACAD_REACTORS
330
1650
102
}
330
1650
100
AcDbXrecord
 10
0.0
 20
0.0
 30
0.0
  0
XRECORD
  5
1668
102
{ACAD_REACTORS
330
1650
102
}
330
1650
100
AcDbXrecord
340
0
  0
XRECORD
  5
1669
102
{ACAD_REACTORS
330
1650
102
}
330
1650
100
AcDbXrecord
 70
     0
  0
XRECORD
  5
166A
102
{ACAD_REACTORS
330
1650
102
}
330
1650
100
AcDbXrecord
340
0
  0
XRECORD
  5
166B
102
{ACAD_REACTORS
330
1650
102
}
330
1650
100
AcDbXrecord
 10
0.0
 20
0.0
 30
0.0
  0
XRECORD
  5
166C
102
{ACAD_REACTORS
330
1650
102
}
330
1650
100
AcDbXrecord
 10
0.0
 20
0.0
 30
0.0
  0
XRECORD
  5
166D
102
{ACAD_REACTORS
330
1650
102
}
330
1650
100
AcDbXrecord
 10
0.0
 20
0.0
 30
0.0
  0
XRECORD
  5
166E
102
{ACAD_REACTORS
330
1650
102
}
330
1650
100
AcDbXrecord
 10
0.0
 20
0.0
 30
0.0
  0
XRECORD
  5
166F
102
{ACAD_REACTORS
330
1650
102
}
330
1650
100
AcDbXrecord
 10
0.0
 20
0.0
 30
0.0
  0
XRECORD
  5
1670
102
{ACAD_REACTORS
330
1650
102
}
330
1650
100
AcDbXrecord
 10
0.0
 20
0.0
 30
0.0
  0
LAYER_INDEX
  5
1647
102
{ACAD_REACTORS
330
1646
102
}
330
1646
100
AcDbIndex
 40
2452844.575021331
100
AcDbLayerIndex
  8
0
360
1648
 90
        0
  8
AM_0
360
1649
 90
       48
  8
AM_11
360
164A
 90
        4
  8
AM_7
360
164B
 90
        1
  8
AM_5
360
164C
 90
        5
  8
Defpoints
360
164D
 90
        0
  8
AM_6
360
164E
 90
        1
  0
XRECORD
  5
2D
102
{ACAD_REACTORS
330
2C
102
}
330
2C
100
AcDbXrecord
  1
VERSION
140
15.0
  1
PRODUCT
  2
AutoCAD Mechanical 2000
  0
IDBUFFER
  5
1648
330
0
100
AcDbIdBuffer
  0
IDBUFFER
  5
1649
330
0
100
AcDbIdBuffer
330
C67
330
C68
330
C69
330
C6A
330
C6B
330
C6C
330
C6D
330
C6E
330
C6F
330
C73
330
C74
330
C75
330
C76
330
C77
330
C78
330
C79
330
C88
330
C89
330
C8C
330
C8D
330
F89
330
F8F
330
12F6
330
1309
330
130A
330
1316
330
1319
330
131B
330
131C
330
1487
330
156A
330
156C
330
C55
330
C56
330
C57
330
C58
330
C59
330
C5A
330
C5C
330
C5E
330
C5F
330
C60
330
C61
330
C62
330
C63
330
C64
330
C65
330
C66
  0
IDBUFFER
  5
164A
330
0
100
AcDbIdBuffer
330
12CD
330
12DA
330
12DB
330
12DD
  0
IDBUFFER
  5
164B
330
0
100
AcDbIdBuffer
330
136E
  0
IDBUFFER
  5
164C
330
0
100
AcDbIdBuffer
330
D13
330
D9C
330
EDE
330
1201
330
157F
  0
IDBUFFER
  5
164D
330
0
100
AcDbIdBuffer
  0
IDBUFFER
  5
164E
330
0
100
AcDbIdBuffer
330
F75
  0
ENDSEC
  0
EOF
