  0
SECTION
  2
HEADER
  9
$ACADVER
  1
AC1014
  9
$ACADMAINTVER
 70
     9
  9
$DWGCODEPAGE
  3
ANSI_932
  9
$INSBASE
 10
0.0
 20
0.0
 30
0.0
  9
$EXTMIN
 10
-218.6999999999999
 20
-70.4579583058955
 30
-0.00000001
  9
$EXTMAX
 10
15.0000000000002
 20
11.95620241927558
 30
0.00000001
  9
$LIMMIN
 10
-229.634158072541
 20
-99.9747661846181
  9
$LIMMAX
 10
30.8496284785532
 20
28.6981824010491
  9
$ORTHOMODE
 70
     0
  9
$REGENMODE
 70
     1
  9
$FILLMODE
 70
     1
  9
$QTEXTMODE
 70
     0
  9
$MIRRTEXT
 70
     0
  9
$DRAGMODE
 70
     2
  9
$LTSCALE
 40
1.0
  9
$OSMODE
 70
  2103
  9
$ATTMODE
 70
     1
  9
$TEXTSIZE
 40
2.5
  9
$TRACEWID
 40
1.0
  9
$TEXTSTYLE
  7
STANDARD
  9
$CLAYER
  8
AM_0
  9
$CELTYPE
  6
BYLAYER
  9
$CECOLOR
 62
   256
  9
$CELTSCALE
 40
1.0
  9
$DELOBJ
 70
     1
  9
$DISPSILH
 70
     0
  9
$DIMSCALE
 40
1.0
  9
$DIMASZ
 40
2.5
  9
$DIMEXO
 40
1.0
  9
$DIMDLI
 40
12.0
  9
$DIMRND
 40
0.0
  9
$DIMDLE
 40
0.0
  9
$DIMEXE
 40
1.0
  9
$DIMTP
 40
0.1
  9
$DIMTM
 40
0.1
  9
$DIMTXT
 40
3.2
  9
$DIMCEN
 40
0.0
  9
$DIMTSZ
 40
0.0
  9
$DIMTOL
 70
     0
  9
$DIMLIM
 70
     0
  9
$DIMTIH
 70
     0
  9
$DIMTOH
 70
     0
  9
$DIMSE1
 70
     0
  9
$DIMSE2
 70
     0
  9
$DIMTAD
 70
     3
  9
$DIMZIN
 70
     8
  9
$DIMBLK
  1
OPEN30
  9
$DIMASO
 70
     1
  9
$DIMSHO
 70
     1
  9
$DIMPOST
  1

  9
$DIMAPOST
  1
"
  9
$DIMALT
 70
     0
  9
$DIMALTD
 70
     2
  9
$DIMALTF
 40
0.0393701
  9
$DIMLFAC
 40
1.0
  9
$DIMTOFL
 70
     1
  9
$DIMTVP
 40
0.0
  9
$DIMTIX
 70
     0
  9
$DIMSOXD
 70
     0
  9
$DIMSAH
 70
     0
  9
$DIMBLK1
  1

  9
$DIMBLK2
  1

  9
$DIMSTYLE
  2
AM_JIS
  9
$DIMCLRD
 70
   256
  9
$DIMCLRE
 70
   256
  9
$DIMCLRT
 70
     2
  9
$DIMTFAC
 40
0.71
  9
$DIMGAP
 40
1.5
  9
$DIMJUST
 70
     0
  9
$DIMSD1
 70
     0
  9
$DIMSD2
 70
     0
  9
$DIMTOLJ
 70
     0
  9
$DIMTZIN
 70
     0
  9
$DIMALTZ
 70
     0
  9
$DIMALTTZ
 70
     0
  9
$DIMFIT
 70
     3
  9
$DIMUPT
 70
     0
  9
$DIMUNIT
 70
     2
  9
$DIMDEC
 70
     3
  9
$DIMTDEC
 70
     3
  9
$DIMALTU
 70
     2
  9
$DIMALTTD
 70
     2
  9
$DIMTXSTY
  7
ASAMI
  9
$DIMAUNIT
 70
     0
  9
$LUNITS
 70
     2
  9
$LUPREC
 70
     2
  9
$SKETCHINC
 40
1.0
  9
$FILLETRAD
 40
2.5
  9
$AUNITS
 70
     0
  9
$AUPREC
 70
     0
  9
$MENU
  1
.
  9
$ELEVATION
 40
0.0
  9
$PELEVATION
 40
0.0
  9
$THICKNESS
 40
0.0
  9
$LIMCHECK
 70
     0
  9
$BLIPMODE
 70
     0
  9
$CHAMFERA
 40
0.5
  9
$CHAMFERB
 40
0.5
  9
$CHAMFERC
 40
20.0
  9
$CHAMFERD
 40
0.0
  9
$SKPOLY
 70
     0
  9
$TDCREATE
 40
2452809.475734583
  9
$TDUPDATE
 40
2452844.575214294
  9
$TDINDWG
 40
0.0349741088
  9
$TDUSRTIMER
 40
0.0349739352
  9
$USRTIMER
 70
     1
  9
$ANGBASE
 50
0.0
  9
$ANGDIR
 70
     0
  9
$PDMODE
 70
     0
  9
$PDSIZE
 40
0.0
  9
$PLINEWID
 40
0.0
  9
$COORDS
 70
     2
  9
$SPLFRAME
 70
     0
  9
$SPLINETYPE
 70
     6
  9
$SPLINESEGS
 70
     8
  9
$ATTDIA
 70
     1
  9
$ATTREQ
 70
     1
  9
$HANDLING
 70
 12289
  9
$HANDSEED
  5
1A5B
  9
$SURFTAB1
 70
     6
  9
$SURFTAB2
 70
     6
  9
$SURFTYPE
 70
     6
  9
$SURFU
 70
     6
  9
$SURFV
 70
     6
  9
$UCSNAME
  2

  9
$UCSORG
 10
0.0
 20
0.0
 30
0.0
  9
$UCSXDIR
 10
1.0
 20
0.000000000000002
 30
0.0
  9
$UCSYDIR
 10
-0.000000000000002
 20
1.0
 30
0.0
  9
$PUCSNAME
  2

  9
$PUCSORG
 10
0.0
 20
0.0
 30
0.0
  9
$PUCSXDIR
 10
1.0
 20
0.0
 30
0.0
  9
$PUCSYDIR
 10
0.0
 20
1.0
 30
0.0
  9
$USERI1
 70
     0
  9
$USERI2
 70
     0
  9
$USERI3
 70
     0
  9
$USERI4
 70
     0
  9
$USERI5
 70
     0
  9
$USERR1
 40
0.0
  9
$USERR2
 40
0.0
  9
$USERR3
 40
0.0
  9
$USERR4
 40
0.0
  9
$USERR5
 40
0.0
  9
$WORLDVIEW
 70
     1
  9
$SHADEDGE
 70
     3
  9
$SHADEDIF
 70
    70
  9
$TILEMODE
 70
     1
  9
$MAXACTVP
 70
    64
  9
$PINSBASE
 10
0.0
 20
0.0
 30
0.0
  9
$PLIMCHECK
 70
     0
  9
$PEXTMIN
 10
1.000000000000000E+20
 20
1.000000000000000E+20
 30
1.000000000000000E+20
  9
$PEXTMAX
 10
-1.000000000000000E+20
 20
-1.000000000000000E+20
 30
-1.000000000000000E+20
  9
$PLIMMIN
 10
0.0
 20
0.0
  9
$PLIMMAX
 10
841.0
 20
594.0
  9
$UNITMODE
 70
     0
  9
$VISRETAIN
 70
     1
  9
$PLINEGEN
 70
     0
  9
$PSLTSCALE
 70
     0
  9
$TREEDEPTH
 70
  3020
  9
$PICKSTYLE
 70
     0
  9
$CMLSTYLE
  2
STANDARD
  9
$CMLJUST
 70
     0
  9
$CMLSCALE
 40
20.0
  9
$PROXYGRAPHICS
 70
     1
  9
$MEASUREMENT
 70
     1
  0
ENDSEC
  0
SECTION
  2
CLASSES
  0
CLASS
  1
ACDBDICTIONARYWDFLT
  2
AcDbDictionaryWithDefault
  3
AutoCAD 2000
 90
        0
280
     0
281
     0
  0
CLASS
  1
ACDBPLACEHOLDER
  2
AcDbPlaceHolder
  3
AutoCAD 2000
 90
        0
280
     0
281
     0
  0
CLASS
  1
LAYOUT
  2
AcDbLayout
  3
AutoCAD 2000
 90
        0
280
     0
281
     0
  0
CLASS
  1
AMGSETTINGSOBJ
  2
AmgSettingsObj
  3
"AcadM|Product Description: AutoCAD Mechanical 2000|Company: Autodesk"
 90
        0
280
     0
281
     0
  0
CLASS
  1
ACME_DOCUMENT
  2
AcMeDbDoc
  3
AcMeServices
 90
        0
280
     0
281
     0
  0
CLASS
  1
ACMESCOPE
  2
AcMeScope
  3
AcMeServices
 90
        0
280
     0
281
     0
  0
CLASS
  1
ACMECOMMANDHISTORY
  2
AcMeCommandHistory
  3
AcMeServices
 90
        0
280
     0
281
     0
  0
CLASS
  1
DICTIONARYVAR
  2
AcDbDictionaryVar
  3
AutoCAD 2000
 90
        0
280
     0
281
     0
  0
CLASS
  1
ACIMSYSVARMAN
  2
AcImSysVarManager
  3
AcMeServices
 90
        0
280
     0
281
     0
  0
CLASS
  1
ACIMREALSYSVAR
  2
AcImRealSysVar
  3
AcMeServices
 90
        0
280
     0
281
     0
  0
CLASS
  1
ACIMINTSYSVAR
  2
AcImIntSysVar
  3
AcMeServices
 90
        0
280
     0
281
     0
  0
CLASS
  1
ACMEDRAWINGMAN
  2
AcMeDrawingMan
  3
AcMeServices
 90
        0
280
     0
281
     0
  0
CLASS
  1
ACMEVIEW
  2
AcMeView
  3
AcMeServices
 90
        0
280
     0
281
     0
  0
CLASS
  1
ACDBENTITYCACHE
  2
AcMeEntityCache
  3
AcMeServices
 90
        0
280
     0
281
     0
  0
CLASS
  1
GSMANAGER
  2
AcMeGSManager
  3
AcMeServices
 90
        0
280
     0
281
     0
  0
CLASS
  1
AmdtInternalReactor
  2
AmdtInternalReactor
  3
AcMeServices
 90
        0
280
     0
281
     0
  0
CLASS
  1
ACMESTATEMGR
  2
AcMeStateMgr
  3
AcMeServices
 90
        0
280
     0
281
     0
  0
CLASS
  1
ACME_DATABASE
  2
AcMeDbDatabase
  3
AcMeServices
 90
        0
280
     0
281
     0
  0
CLASS
  1
ACRFINSADJUSTERMGR
  2
AcRfInsAdjusterMgr
  3
AcMeServices
 90
        0
280
     0
281
     0
  0
CLASS
  1
ACMDATADICTIONARY
  2
AcmDataDictionary
  3
"AcmSymBB|Product Description: AutoCAD Mechanical 2000|Company: Autodesk"
 90
        0
280
     0
281
     0
  0
CLASS
  1
ACMDATAENTRYBLOCK
  2
AcmDataEntryBlock
  3
"AcmSymBB|Product Description: AutoCAD Mechanical 2000|Company: Autodesk"
 90
        0
280
     0
281
     0
  0
CLASS
  1
AMGOBJPROPCFG
  2
AmgObjPropCfg
  3
"AmgLay|Product Description: AutoCAD Mechanical 2000|Company: Autodesk"
 90
        1
280
     0
281
     0
  0
CLASS
  1
ACAMGFILTERDAT
  2
AcAmgFilterDat
  3
"AcadM|Product Description: AutoCAD Mechanical 2000|Company: Autodesk"
 90
        0
280
     0
281
     0
  0
CLASS
  1
LAYER_INDEX
  2
AcDbLayerIndex
  3
AutoCAD 2000
 90
        0
280
     0
281
     0
  0
CLASS
  1
IDBUFFER
  2
AcDbIdBuffer
  3
AutoCAD 2000
 90
        0
280
     0
281
     0
  0
CLASS
  1
ACIMSTRSYSVAR
  2
AcImStrSysVar
  3
AcMeServices
 90
        0
280
     0
281
     0
  0
CLASS
  1
ACMSTANDARDJIS
  2
AcmStandardJIS
  3
"AcmSymBB|Product Description: AutoCAD Mechanical 2000|Company: Autodesk"
 90
        0
280
     0
281
     0
  0
CLASS
  1
ACMSURFSTANDARDJIS
  2
AcmSurfTextStdJIS
  3
"AcmSymBB|Product Description: AutoCAD Mechanical 2000|Company: Autodesk"
 90
        0
280
     0
281
     0
  0
CLASS
  1
ACMFCFSTANDARDJIS
  2
AcmFCFStdJIS
  3
"AcmSymBB|Product Description: AutoCAD Mechanical 2000|Company: Autodesk"
 90
        0
280
     0
281
     0
  0
CLASS
  1
ACMWELDSTANDARDJIS
  2
AcmWeldingStdJIS
  3
"AcmSymBB|Product Description: AutoCAD Mechanical 2000|Company: Autodesk"
 90
        0
280
     0
281
     0
  0
CLASS
  1
ACMIDSTANDARDJIS
  2
AcmIdStdJIS
  3
"AcmSymBB|Product Description: AutoCAD Mechanical 2000|Company: Autodesk"
 90
        0
280
     0
281
     0
  0
CLASS
  1
ACMDATUMSTANDARDJIS
  2
AcmDatumStdJIS
  3
"AcmSymBB|Product Description: AutoCAD Mechanical 2000|Company: Autodesk"
 90
        0
280
     0
281
     0
  0
CLASS
  1
ACMBOMSTANDARDJIS
  2
AcmBOMStdJIS
  3
"AcmSymBB|Product Description: AutoCAD Mechanical 2000|Company: Autodesk"
 90
        0
280
     0
281
     0
  0
CLASS
  1
ACMSTANDARDANSI
  2
AcmStandardANSI
  3
"AcmSymBB|Product Description: AutoCAD Mechanical 2000|Company: Autodesk"
 90
        0
280
     0
281
     0
  0
CLASS
  1
ACMSURFSTANDARDANSI
  2
AcmSurfTextStdANSI
  3
"AcmSymBB|Product Description: AutoCAD Mechanical 2000|Company: Autodesk"
 90
        0
280
     0
281
     0
  0
CLASS
  1
ACMFCFSTANDARDANSI
  2
AcmFCFStdANSI
  3
"AcmSymBB|Product Description: AutoCAD Mechanical 2000|Company: Autodesk"
 90
        0
280
     0
281
     0
  0
CLASS
  1
ACMWELDSTANDARDANSI
  2
AcmWeldingStdANSI
  3
"AcmSymBB|Product Description: AutoCAD Mechanical 2000|Company: Autodesk"
 90
        0
280
     0
281
     0
  0
CLASS
  1
ACMIDSTANDARDANSI
  2
AcmIdStdANSI
  3
"AcmSymBB|Product Description: AutoCAD Mechanical 2000|Company: Autodesk"
 90
        0
280
     0
281
     0
  0
CLASS
  1
ACMDATUMSTANDARDANSI
  2
AcmDatumStdANSI
  3
"AcmSymBB|Product Description: AutoCAD Mechanical 2000|Company: Autodesk"
 90
        0
280
     0
281
     0
  0
CLASS
  1
ACMBOMSTANDARDANSI
  2
AcmBOMStdANSI
  3
"AcmSymBB|Product Description: AutoCAD Mechanical 2000|Company: Autodesk"
 90
        0
280
     0
281
     0
  0
CLASS
  1
ACMSTANDARDBSI
  2
AcmStandardBSI
  3
"AcmSymBB|Product Description: AutoCAD Mechanical 2000|Company: Autodesk"
 90
        0
280
     0
281
     0
  0
CLASS
  1
ACMSURFSTANDARDBSI
  2
AcmSurfTextStdBSI
  3
"AcmSymBB|Product Description: AutoCAD Mechanical 2000|Company: Autodesk"
 90
        0
280
     0
281
     0
  0
CLASS
  1
ACMFCFSTANDARDBSI
  2
AcmFCFStdBSI
  3
"AcmSymBB|Product Description: AutoCAD Mechanical 2000|Company: Autodesk"
 90
        0
280
     0
281
     0
  0
CLASS
  1
ACMWELDSTANDARDBSI
  2
AcmWeldingStdBSI
  3
"AcmSymBB|Product Description: AutoCAD Mechanical 2000|Company: Autodesk"
 90
        0
280
     0
281
     0
  0
CLASS
  1
ACMIDSTANDARDBSI
  2
AcmIdStdBSI
  3
"AcmSymBB|Product Description: AutoCAD Mechanical 2000|Company: Autodesk"
 90
        0
280
     0
281
     0
  0
CLASS
  1
ACMDATUMSTANDARDBSI
  2
AcmDatumStdBSI
  3
"AcmSymBB|Product Description: AutoCAD Mechanical 2000|Company: Autodesk"
 90
        0
280
     0
281
     0
  0
CLASS
  1
ACMBOMSTANDARDBSI
  2
AcmBOMStdBSI
  3
"AcmSymBB|Product Description: AutoCAD Mechanical 2000|Company: Autodesk"
 90
        0
280
     0
281
     0
  0
CLASS
  1
LONG_TRANSACTION
  2
AcDbLongTransaction
  3
AutoCAD 2000
 90
        0
280
     0
281
     0
  0
CLASS
  1
LWPOLYLINE
  2
AcDbPolyline
  3
AutoCAD 2000
 90
        0
280
     0
281
     1
  0
CLASS
  1
HATCH
  2
AcDbHatch
  3
AutoCAD 2000
 90
        0
280
     0
281
     1
  0
CLASS
  1
XRECORD
  2
AcDbXrecord
  3
AutoCAD 2000
 90
        0
280
     0
281
     0
  0
ENDSEC
  0
SECTION
  2
TABLES
  0
TABLE
  2
VPORT
  5
8
330
0
100
AcDbSymbolTable
 70
     3
  0
VPORT
  5
1A2A
330
8
100
AcDbSymbolTableRecord
100
AcDbViewportTableRecord
  2
*ACTIVE
 70
     0
 10
0.0
 20
0.0
 11
1.0
 21
1.0
 12
-101.8466211604564
 22
-29.24744613116647
 13
0.0
 23
0.0
 14
2.5
 24
2.5
 15
10.0
 25
10.0
 16
0.0
 26
0.0
 36
1.0
 17
0.0
 27
0.0
 37
0.0
 40
149.8853512112578
 41
1.56570841889117
 42
50.0
 43
0.0
 44
0.0
 50
0.0
 51
0.0
 71
     0
 72
   100
 73
     1
 74
     3
 75
     0
 76
     0
 77
     0
 78
     0
  0
ENDTAB
  0
TABLE
  2
LTYPE
  5
5
330
0
100
AcDbSymbolTable
 70
    10
  0
LTYPE
  5
14
330
5
100
AcDbSymbolTableRecord
100
AcDbLinetypeTableRecord
  2
BYBLOCK
 70
     0
  3

 72
    65
 73
     0
 40
0.0
  0
LTYPE
  5
15
330
5
100
AcDbSymbolTableRecord
100
AcDbLinetypeTableRecord
  2
BYLAYER
 70
     0
  3

 72
    65
 73
     0
 40
0.0
  0
LTYPE
  5
16
330
5
100
AcDbSymbolTableRecord
100
AcDbLinetypeTableRecord
  2
CONTINUOUS
 70
     0
  3
Solid line
 72
    65
 73
     0
 40
0.0
  0
LTYPE
  5
4B
330
5
100
AcDbSymbolTableRecord
100
AcDbLinetypeTableRecord
  2
AM_ISO02W050
 70
     0
  3
__ __ __ __ __ __ __ __ __ __ __ __ __ __ __
 72
    65
 73
     2
 40
7.5
 49
6.0
 74
     0
 49
-1.5
 74
     0
  0
LTYPE
  5
4C
330
5
100
AcDbSymbolTableRecord
100
AcDbLinetypeTableRecord
  2
AM_ISO08W050
 70
     0
  3
____ . ____ . ____ . ____ . ____ . ____ . ____
 72
    65
 73
     4
 40
18.0
 49
12.0
 74
     0
 49
-1.5
 74
     0
 49
3.0
 74
     0
 49
-1.5
 74
     0
  0
LTYPE
  5
4D
330
5
100
AcDbSymbolTableRecord
100
AcDbLinetypeTableRecord
  2
AM_ISO09W050
 70
     0
  3
_____ . . _____ . . _____ . . ____ .. ____
 72
    65
 73
     6
 40
22.5
 49
12.0
 74
     0
 49
-1.5
 74
     0
 49
3.0
 74
     0
 49
-1.5
 74
     0
 49
3.0
 74
     0
 49
-1.5
 74
     0
  0
LTYPE
  5
4E
330
5
100
AcDbSymbolTableRecord
100
AcDbLinetypeTableRecord
  2
AMCONSTR
 70
     0
  3
_______________________
 72
    65
 73
     2
 40
9999.0
 49
9999.0
 74
     0
 49
0.0
 74
     0
  0
LTYPE
  5
4F
330
5
100
AcDbSymbolTableRecord
100
AcDbLinetypeTableRecord
  2
AM_ISO02W050X2
 70
     0
  3
 _ _ _ _ _ _ _ _ _ _ _ _
 72
    65
 73
     2
 40
3.75
 49
3.0
 74
     0
 49
-0.75
 74
     0
  0
LTYPE
  5
50
330
5
100
AcDbSymbolTableRecord
100
AcDbLinetypeTableRecord
  2
AM_ISO08W050X2
 70
     0
  3
__ . __ . __ . __ . __ . __
 72
    65
 73
     4
 40
9.0
 49
6.0
 74
     0
 49
-0.75
 74
     0
 49
1.5
 74
     0
 49
-0.75
 74
     0
  0
LTYPE
  5
53
330
5
100
AcDbSymbolTableRecord
100
AcDbLinetypeTableRecord
  2
AMZIGZAG
 70
     0
  3
/\/-/\/-/\/-/\/-/\/-/\/
 72
    65
 73
     2
 40
11.00009999999999
 49
0.0001
 74
     4
 75
   135
340
52
 46
0.04
 50
0.0
 44
0.0
 45
0.0
 49
-11.0
 74
     0
  0
LTYPE
  5
166
330
5
100
AcDbSymbolTableRecord
100
AcDbLinetypeTableRecord
  2
ACJISTGL
 70
     0
  3
_ _ _ _ _
 72
    65
 73
     2
 40
3.0
 49
2.0
 74
     0
 49
-1.0
 74
     0
  0
LTYPE
  5
26A
330
5
100
AcDbSymbolTableRecord
100
AcDbLinetypeTableRecord
  2
ACJISTGB
 70
     0
  3
__ . . __ . .
 72
    65
 73
     6
 40
9.0
 49
4.0
 74
     0
 49
-1.0
 74
     0
 49
1.0
 74
     0
 49
-1.0
 74
     0
 49
1.0
 74
     0
 49
-1.0
 74
     0
  0
ENDTAB
  0
TABLE
  2
LAYER
  5
2
330
0
100
AcDbSymbolTable
 70
     7
  0
LAYER
  5
10
330
2
100
AcDbSymbolTableRecord
100
AcDbLayerTableRecord
  2
0
 70
     0
 62
     7
  6
CONTINUOUS
  0
LAYER
  5
3F9
330
2
100
AcDbSymbolTableRecord
100
AcDbLayerTableRecord
  2
AM_0
 70
     0
 62
     7
  6
CONTINUOUS
  0
LAYER
  5
BA4
330
2
100
AcDbSymbolTableRecord
100
AcDbLayerTableRecord
  2
AM_11
 70
     0
 62
     3
  6
AM_ISO09W050
  0
LAYER
  5
BA5
330
2
100
AcDbSymbolTableRecord
100
AcDbLayerTableRecord
  2
AM_7
 70
     0
 62
     4
  6
AM_ISO08W050
  0
LAYER
  5
CA1
330
2
100
AcDbSymbolTableRecord
100
AcDbLayerTableRecord
  2
AM_5
 70
     0
 62
     3
  6
CONTINUOUS
  0
LAYER
  5
D14
330
2
100
AcDbSymbolTableRecord
100
AcDbLayerTableRecord
  2
DEFPOINTS
 70
     0
 62
     7
  6
CONTINUOUS
  0
LAYER
  5
F74
330
2
100
AcDbSymbolTableRecord
100
AcDbLayerTableRecord
  2
AM_6
 70
     0
 62
     2
  6
CONTINUOUS
  0
ENDTAB
  0
TABLE
  2
STYLE
  5
3
330
0
100
AcDbSymbolTable
 70
     5
  0
STYLE
  5
11
330
3
100
AcDbSymbolTableRecord
100
AcDbTextStyleTableRecord
  2
STANDARD
 70
     0
 40
0.0
 41
1.0
 50
0.0
 71
     0
 42
2.5
  3
simplex.shx
  4
EXTFONT.SHX
  0
STYLE
  5
52
330
3
100
AcDbSymbolTableRecord
100
AcDbTextStyleTableRecord
  2

 70
     1
 40
0.0
 41
1.0
 50
0.0
 71
     0
 42
2.5
  3
ltypeshp.shx
  4

  0
STYLE
  5
6B
330
3
100
AcDbSymbolTableRecord
100
AcDbTextStyleTableRecord
  2
ASAMI
 70
     0
 40
0.0
 41
1.0
 50
0.0
 71
     0
 42
2.5
  3
simplex.shx
  4
EXTFONT.SHX
  0
STYLE
  5
262
330
3
100
AcDbSymbolTableRecord
100
AcDbTextStyleTableRecord
  2
ACJISTS
 70
     0
 40
1.0
 41
1.0
 50
0.0
 71
     0
 42
2.5
  3
simplex.shx
  4
bigfont.shx
  0
STYLE
  5
269
330
3
100
AcDbSymbolTableRecord
100
AcDbTextStyleTableRecord
  2
ACJISGDT
 70
     0
 40
0.0
 41
1.0
 50
0.0
 71
     0
 42
2.5
  3
amgdtans.shx
  4

  0
ENDTAB
  0
TABLE
  2
VIEW
  5
6
330
0
100
AcDbSymbolTable
 70
     0
  0
ENDTAB
  0
TABLE
  2
UCS
  5
7
330
0
100
AcDbSymbolTable
 70
     0
  0
ENDTAB
  0
TABLE
  2
APPID
  5
9
330
0
100
AcDbSymbolTable
 70
    12
  0
APPID
  5
12
330
9
100
AcDbSymbolTableRecord
100
AcDbRegAppTableRecord
  2
ACAD
 70
     0
  0
APPID
  5
30
330
9
100
AcDbSymbolTableRecord
100
AcDbRegAppTableRecord
  2
MCAD_NO_VIS
 70
     0
  0
APPID
  5
31
330
9
100
AcDbSymbolTableRecord
100
AcDbRegAppTableRecord
  2
ACAD_TEMP_GRAPHIC
 70
     0
  0
APPID
  5
2C2
330
9
100
AcDbSymbolTableRecord
100
AcDbRegAppTableRecord
  2
GENIUS_GENDTOL_13
 70
     0
  0
APPID
  5
339
330
9
100
AcDbSymbolTableRecord
100
AcDbRegAppTableRecord
  2
GENIUS_GENODEF_13
 70
     0
  0
APPID
  5
33A
330
9
100
AcDbSymbolTableRecord
100
AcDbRegAppTableRecord
  2
GENIUS_GENOBJ-N-RSBK_13
 70
     0
  0
APPID
  5
33B
330
9
100
AcDbSymbolTableRecord
100
AcDbRegAppTableRecord
  2
GENIUS_GENOBJ-N-LIB_13
 70
     0
  0
APPID
  5
33C
330
9
100
AcDbSymbolTableRecord
100
AcDbRegAppTableRecord
  2
GENIUS_GENSCALE_13
 70
     0
  0
APPID
  5
378
330
9
100
AcDbSymbolTableRecord
100
AcDbRegAppTableRecord
  2
GENIUS_GENDIMSH_14
 70
     0
  0
APPID
  5
BA6
330
9
100
AcDbSymbolTableRecord
100
AcDbRegAppTableRecord
  2
GENIUS_GENOBJ-N-CEN_13
 70
     0
  0
APPID
  5
D02
330
9
100
AcDbSymbolTableRecord
100
AcDbRegAppTableRecord
  2
GENIUS_GENFIL_13
 70
     0
  0
APPID
  5
D03
330
9
100
AcDbSymbolTableRecord
100
AcDbRegAppTableRecord
  2
GENIUS_GENOBJ-N-CHA_13
 70
     0
  0
ENDTAB
  0
TABLE
  2
DIMSTYLE
  5
A
330
0
100
AcDbSymbolTable
 70
     8
  0
DIMSTYLE
105
58
102
{ACAD_REACTORS
330
1363
330
1368
330
136D
330
136E
330
13B2
102
}
330
A
100
AcDbSymbolTableRecord
100
AcDbDimStyleTableRecord
  2
AM_JIS
 70
     0
  3

  4
"
  5
OPEN30
  6

  7

 40
1.0
 41
2.5
 42
1.0
 43
12.0
 44
1.0
 45
0.0
 46
0.0
 47
0.1
 48
0.1
140
3.2
141
0.0
142
0.0
143
0.0393701
144
1.0
145
0.0
146
0.71
147
1.5
 71
     0
 72
     0
 73
     0
 74
     0
 75
     0
 76
     0
 77
     3
 78
     8
170
     0
171
     2
172
     1
173
     0
174
     0
175
     0
176
   256
177
   256
178
     2
270
     2
271
     3
272
     3
273
     2
274
     2
340
6B
275
     0
280
     0
281
     0
282
     0
283
     0
284
     0
285
     0
286
     0
287
     3
288
     0
  0
DIMSTYLE
105
5F
330
A
100
AcDbSymbolTableRecord
100
AcDbDimStyleTableRecord
  2
AM_JIS$3
 70
     0
  3

  4
"
  5
OPEN30
  6

  7

 40
1.0
 41
2.5
 42
1.0
 43
10.0
 44
1.0
 45
0.0
 46
0.0
 47
0.1
 48
0.1
140
3.2
141
0.0
142
0.0
143
0.0393701
144
1.0
145
0.0
146
0.71
147
1.5
 71
     0
 72
     0
 73
     0
 74
     1
 75
     0
 76
     0
 77
     3
 78
     8
170
     0
171
     2
172
     0
173
     0
174
     0
175
     0
176
   256
177
   256
178
     2
270
     2
271
     2
272
     3
273
     2
274
     2
340
6B
275
     0
280
     0
281
     0
282
     0
283
     0
284
     0
285
     0
286
     0
287
     0
288
     1
  0
DIMSTYLE
105
60
102
{ACAD_REACTORS
330
1983
102
}
330
A
100
AcDbSymbolTableRecord
100
AcDbDimStyleTableRecord
  2
AM_JIS$4
 70
     0
  3

  4
"
  5
OPEN30
  6

  7

 40
1.0
 41
2.5
 42
1.0
 43
10.0
 44
1.0
 45
0.0
 46
0.0
 47
0.1
 48
0.1
140
3.2
141
0.0
142
0.0
143
0.0393701
144
1.0
145
0.0
146
0.71
147
1.5
 71
     0
 72
     0
 73
     0
 74
     1
 75
     0
 76
     0
 77
     3
 78
     8
170
     0
171
     2
172
     0
173
     0
174
     0
175
     0
176
   256
177
   256
178
     2
270
     2
271
     2
272
     3
273
     2
274
     2
340
6B
275
     0
280
     0
281
     0
282
     0
283
     0
284
     0
285
     0
286
     0
287
     0
288
     1
  0
DIMSTYLE
105
61
330
A
100
AcDbSymbolTableRecord
100
AcDbDimStyleTableRecord
  2
AM_JIS$6
 70
     0
  3

  4
"
  5
OPEN30
  6

  7

 40
1.0
 41
2.5
 42
1.0
 43
10.0
 44
1.0
 45
0.0
 46
0.0
 47
0.1
 48
0.1
140
3.2
141
0.0
142
0.0
143
0.0393701
144
1.0
145
0.0
146
0.71
147
1.5
 71
     0
 72
     0
 73
     0
 74
     0
 75
     0
 76
     0
 77
     0
 78
     8
170
     0
171
     2
172
     1
173
     0
174
     0
175
     0
176
   256
177
   256
178
     2
270
     2
271
     2
272
     2
273
     2
274
     2
340
6B
275
     0
280
     0
281
     0
282
     0
283
     0
284
     0
285
     0
286
     0
287
     3
288
     0
  0
DIMSTYLE
105
62
330
A
100
AcDbSymbolTableRecord
100
AcDbDimStyleTableRecord
  2
AM_JIS$7
 70
     0
  3

  4
"
  5
OPEN30
  6

  7

 40
1.0
 41
2.5
 42
1.0
 43
10.0
 44
1.0
 45
0.0
 46
0.0
 47
0.1
 48
0.1
140
3.2
141
0.0
142
0.0
143
0.0393701
144
1.0
145
0.0
146
0.71
147
1.5
 71
     0
 72
     0
 73
     0
 74
     0
 75
     0
 76
     0
 77
     3
 78
     8
170
     0
171
     2
172
     1
173
     0
174
     0
175
     0
176
   256
177
   256
178
     2
270
     2
271
     2
272
     3
273
     2
274
     2
340
6B
275
     0
280
     0
281
     0
282
     0
283
     0
284
     0
285
     0
286
     0
287
     3
288
     0
  0
DIMSTYLE
105
63
330
A
100
AcDbSymbolTableRecord
100
AcDbDimStyleTableRecord
  2
AM_JIS$SF
 70
     0
  3

  4
"
  5
OPEN30
  6

  7

 40
1.0
 41
2.5
 42
1.0
 43
10.0
 44
1.0
 45
0.0
 46
0.0
 47
0.1
 48
0.1
140
3.2
141
0.0
142
0.0
143
0.0393701
144
1.0
145
0.0
146
0.71
147
1.5
 71
     0
 72
     0
 73
     0
 74
     0
 75
     1
 76
     1
 77
     3
 78
     8
170
     0
171
     2
172
     1
173
     0
174
     0
175
     0
176
   256
177
   256
178
     2
270
     2
271
     2
272
     2
273
     2
274
     2
340
6B
275
     0
280
     0
281
     0
282
     0
283
     0
284
     0
285
     0
286
     0
287
     3
288
     0
  0
DIMSTYLE
105
68
330
A
100
AcDbSymbolTableRecord
100
AcDbDimStyleTableRecord
  2
AM_JIS$SH
 70
     0
  3

  4
"
  5

  6
GENAXEH
  7
OPEN30
 40
1.0
 41
2.5
 42
1.0
 43
10.0
 44
1.0
 45
0.0
 46
0.0
 47
0.1
 48
0.1
140
3.2
141
0.0
142
0.0
143
0.0393701
144
2.0
145
0.0
146
0.71
147
1.5
 71
     0
 72
     0
 73
     0
 74
     0
 75
     1
 76
     1
 77
     3
 78
     8
170
     0
171
     2
172
     1
173
     1
174
     0
175
     0
176
   256
177
   256
178
     2
270
     2
271
     2
272
     2
273
     2
274
     2
340
6B
275
     0
280
     0
281
     0
282
     0
283
     0
284
     0
285
     0
286
     0
287
     3
288
     0
  0
DIMSTYLE
105
B34
330
A
100
AcDbSymbolTableRecord
100
AcDbDimStyleTableRecord
  2
AM_JIS$2
 70
     0
  3

  4
"
  5
OPEN30
  6

  7

 40
1.0
 41
2.5
 42
1.0
 43
12.0
 44
1.0
 45
0.0
 46
0.0
 47
0.1
 48
0.1
140
3.2
141
0.0
142
0.0
143
0.0393701
144
1.0
145
0.0
146
0.71
147
1.5
 71
     0
 72
     0
 73
     0
 74
     0
 75
     0
 76
     0
 77
     3
 78
     8
170
     0
171
     2
172
     1
173
     0
174
     0
175
     0
176
   256
177
   256
178
     2
270
     2
271
     3
272
     3
273
     2
274
     2
340
6B
275
     0
280
     0
281
     0
282
     0
283
     0
284
     0
285
     0
286
     0
287
     3
288
     0
  0
ENDTAB
  0
TABLE
  2
BLOCK_RECORD
  5
1
330
0
100
AcDbSymbolTable
 70
    11
  0
BLOCK_RECORD
  5
1F
102
{ACAD_XDICTIONARY
360
74
102
}
330
1
100
AcDbSymbolTableRecord
100
AcDbBlockTableRecord
  2
*MODEL_SPACE
  0
BLOCK_RECORD
  5
101
102
{ACAD_XDICTIONARY
360
1A53
102
}
330
1
100
AcDbSymbolTableRecord
100
AcDbBlockTableRecord
  2
*PAPER_SPACE
  0
BLOCK_RECORD
  5
59
330
1
100
AcDbSymbolTableRecord
100
AcDbBlockTableRecord
  2
_OPEN30
  0
BLOCK_RECORD
  5
64
330
1
100
AcDbSymbolTableRecord
100
AcDbBlockTableRecord
  2
GENAXEH
  0
BLOCK_RECORD
  5
13BF
330
1
100
AcDbSymbolTableRecord
100
AcDbBlockTableRecord
  2
*D5
  0
BLOCK_RECORD
  5
13CB
330
1
100
AcDbSymbolTableRecord
100
AcDbBlockTableRecord
  2
*D6
  0
BLOCK_RECORD
  5
13D7
330
1
100
AcDbSymbolTableRecord
100
AcDbBlockTableRecord
  2
*D7
  0
BLOCK_RECORD
  5
13E3
330
1
100
AcDbSymbolTableRecord
100
AcDbBlockTableRecord
  2
*D8
  0
BLOCK_RECORD
  5
13EF
330
1
100
AcDbSymbolTableRecord
100
AcDbBlockTableRecord
  2
*D9
  0
BLOCK_RECORD
  5
1984
330
1
100
AcDbSymbolTableRecord
100
AcDbBlockTableRecord
  2
*D10
  0
ENDTAB
  0
ENDSEC
  0
SECTION
  2
BLOCKS
  0
BLOCK
  5
20
330
1F
100
AcDbEntity
  8
0
100
AcDbBlockBegin
  2
*MODEL_SPACE
 70
     0
 10
0.0
 20
0.0
 30
0.0
  3
*MODEL_SPACE
  1

  0
ENDBLK
  5
21
330
1F
100
AcDbEntity
  8
0
100
AcDbBlockEnd
  0
BLOCK
  5
103
330
101
100
AcDbEntity
 67
     1
  8
0
100
AcDbBlockBegin
  2
*PAPER_SPACE
 70
     0
 10
0.0
 20
0.0
 30
0.0
  3
*PAPER_SPACE
  1

  0
ENDBLK
  5
104
330
101
100
AcDbEntity
 67
     1
  8
0
100
AcDbBlockEnd
  0
BLOCK
  5
5D
330
59
100
AcDbEntity
  8
0
100
AcDbBlockBegin
  2
_OPEN30
 70
     0
 10
0.0
 20
0.0
 30
0.0
  3
_OPEN30
  1

  0
LINE
  5
5A
330
59
100
AcDbEntity
  8
0
 62
     0
100
AcDbLine
 10
-1.0
 20
0.26794919
 30
0.0
 11
0.0
 21
0.0
 31
0.0
  0
LINE
  5
5B
330
59
100
AcDbEntity
  8
0
 62
     0
100
AcDbLine
 10
0.0
 20
0.0
 30
0.0
 11
-1.0
 21
-0.26794919
 31
0.0
  0
LINE
  5
5C
330
59
100
AcDbEntity
  8
0
 62
     0
100
AcDbLine
 10
0.0
 20
0.0
 30
0.0
 11
-1.0
 21
0.0
 31
0.0
  0
ENDBLK
  5
5E
330
59
100
AcDbEntity
  8
0
100
AcDbBlockEnd
  0
BLOCK
  5
66
330
64
100
AcDbEntity
  8
0
100
AcDbBlockBegin
  2
GENAXEH
 70
     0
 10
0.0
 20
0.0
 30
0.0
  3
GENAXEH
  1

  0
LINE
  5
65
330
64
100
AcDbEntity
  8
0
100
AcDbLine
 10
-1.0
 20
0.0
 30
0.0
 11
1.0
 21
0.0
 31
0.0
  0
ENDBLK
  5
67
330
64
100
AcDbEntity
  8
0
100
AcDbBlockEnd
  0
BLOCK
  5
13C9
330
13BF
100
AcDbEntity
  8
0
100
AcDbBlockBegin
  2
*D5
 70
     1
 10
0.0
 20
0.0
 30
0.0
  3
*D5
  1

  0
LINE
  5
196A
330
13BF
100
AcDbEntity
  8
AM_5
100
AcDbLine
 10
-200.0
 20
-10.50000000000015
 30
0.0
 11
-200.0
 21
-48.95795830589541
 31
0.0
  0
LINE
  5
196B
330
13BF
100
AcDbEntity
  8
AM_5
100
AcDbLine
 10
0.0000000000000114
 20
-11.00000000000004
 30
0.0
 11
0.0000000000000091
 21
-48.95795830589541
 31
0.0
  0
LINE
  5
196C
330
13BF
100
AcDbEntity
  8
AM_5
100
AcDbLine
 10
-197.5
 20
-47.95795830589541
 30
0.0
 11
-2.49999999999999
 21
-47.95795830589541
 31
0.0
  0
INSERT
  5
196D
330
13BF
100
AcDbEntity
  8
AM_5
100
AcDbBlockReference
  2
_OPEN30
 10
-200.0
 20
-47.95795830589541
 30
0.0
 41
2.5
 42
2.5
 43
2.5
 50
180.0
  0
INSERT
  5
196E
330
13BF
100
AcDbEntity
  8
AM_5
100
AcDbBlockReference
  2
_OPEN30
 10
0.0000000000000091
 20
-47.95795830589541
 30
0.0
 41
2.5
 42
2.5
 43
2.5
  0
MTEXT
  5
196F
330
13BF
100
AcDbEntity
  8
AM_5
 62
     2
100
AcDbMText
 10
-100.0
 20
-44.8579583058954
 30
0.0
 40
3.2
 41
0.0
 71
     5
 72
     1
  1
200
  7
ASAMI
1001
ACAD
1000
MTEXTBEGIN
1070
    73
1070
     1
1070
    44
1040
1.0
1070
    74
1070
     0
1000
MTEXTEND
  0
POINT
  5
1970
330
13BF
100
AcDbEntity
  8
DEFPOINTS
 62
     0
100
AcDbPoint
 10
-200.0
 20
-9.500000000000154
 30
0.0
  0
POINT
  5
1971
330
13BF
100
AcDbEntity
  8
DEFPOINTS
 62
     0
100
AcDbPoint
 10
0.0000000000000114
 20
-10.00000000000004
 30
0.0
  0
POINT
  5
1972
330
13BF
100
AcDbEntity
  8
DEFPOINTS
 62
     0
100
AcDbPoint
 10
0.0000000000000091
 20
-47.95795830589541
 30
0.0
  0
ENDBLK
  5
13CA
330
13BF
100
AcDbEntity
  8
0
100
AcDbBlockEnd
  0
BLOCK
  5
13D5
330
13CB
100
AcDbEntity
  8
0
100
AcDbBlockBegin
  2
*D6
 70
     1
 10
0.0
 20
0.0
 30
0.0
  3
*D6
  1

  0
LINE
  5
18A4
330
13CB
100
AcDbEntity
  8
AM_5
100
AcDbLine
 10
-200.4999999999999
 20
-10.00000000000015
 30
0.0
 11
-215.0
 21
-10.00000000000014
 31
0.0
  0
LINE
  5
18A5
330
13CB
100
AcDbEntity
  8
AM_5
100
AcDbLine
 10
-200.4999999999999
 20
9.999999999999733
 30
0.0
 11
-215.0
 21
9.999999999999738
 31
0.0
  0
LINE
  5
18A6
330
13CB
100
AcDbEntity
  8
AM_5
100
AcDbLine
 10
-214.0
 20
-7.50000000000015
 30
0.0
 11
-214.0
 21
7.499999999999737
 31
0.0
  0
INSERT
  5
18A7
330
13CB
100
AcDbEntity
  8
AM_5
100
AcDbBlockReference
  2
_OPEN30
 10
-214.0
 20
-10.00000000000015
 30
0.0
 41
2.5
 42
2.5
 43
2.5
 50
270.0
  0
INSERT
  5
18A8
330
13CB
100
AcDbEntity
  8
AM_5
100
AcDbBlockReference
  2
_OPEN30
 10
-214.0
 20
9.999999999999737
 30
0.0
 41
2.5
 42
2.5
 43
2.5
 50
90.0
  0
MTEXT
  5
18A9
330
13CB
100
AcDbEntity
  8
AM_5
 62
     2
100
AcDbMText
 10
-217.0999999999999
 20
-0.0000000000002286
 30
0.0
 40
3.2
 41
0.0
 71
     5
 72
     1
  1
%%c20
  7
ASAMI
 11
0.0000000000000001
 21
1.0
 31
0.0
1001
ACAD
1000
MTEXTBEGIN
1070
    73
1070
     1
1070
    44
1040
1.0
1070
    74
1070
     0
1000
MTEXTEND
  0
POINT
  5
18AA
330
13CB
100
AcDbEntity
  8
DEFPOINTS
 62
     0
100
AcDbPoint
 10
-199.5
 20
-10.00000000000015
 30
0.0
  0
POINT
  5
18AB
330
13CB
100
AcDbEntity
  8
DEFPOINTS
 62
     0
100
AcDbPoint
 10
-199.5
 20
9.999999999999733
 30
0.0
  0
POINT
  5
18AC
330
13CB
100
AcDbEntity
  8
DEFPOINTS
 62
     0
100
AcDbPoint
 10
-214.0
 20
9.999999999999737
 30
0.0
  0
ENDBLK
  5
13D6
330
13CB
100
AcDbEntity
  8
0
100
AcDbBlockEnd
  0
BLOCK
  5
13E1
330
13D7
100
AcDbEntity
  8
0
100
AcDbBlockBegin
  2
*D7
 70
     1
 10
0.0
 20
0.0
 30
0.0
  3
*D7
  1

  0
LINE
  5
1958
330
13D7
100
AcDbEntity
  8
AM_5
100
AcDbLine
 10
-29.99999999999999
 20
-11.00000000000003
 30
0.0
 11
-29.99999999999999
 21
-24.95795830589541
 31
0.0
  0
LINE
  5
1959
330
13D7
100
AcDbEntity
  8
AM_5
100
AcDbLine
 10
0.0000000000000114
 20
-11.00000000000004
 30
0.0
 11
0.0000000000000105
 21
-24.95795830589541
 31
0.0
  0
LINE
  5
195A
330
13D7
100
AcDbEntity
  8
AM_5
100
AcDbLine
 10
-27.49999999999999
 20
-23.95795830589541
 30
0.0
 11
-2.499999999999989
 21
-23.95795830589541
 31
0.0
  0
INSERT
  5
195B
330
13D7
100
AcDbEntity
  8
AM_5
100
AcDbBlockReference
  2
_OPEN30
 10
-29.99999999999999
 20
-23.95795830589541
 30
0.0
 41
2.5
 42
2.5
 43
2.5
 50
180.0
  0
INSERT
  5
195C
330
13D7
100
AcDbEntity
  8
AM_5
100
AcDbBlockReference
  2
_OPEN30
 10
0.0000000000000106
 20
-23.95795830589541
 30
0.0
 41
2.5
 42
2.5
 43
2.5
  0
MTEXT
  5
195D
330
13D7
100
AcDbEntity
  8
AM_5
 62
     2
100
AcDbMText
 10
-14.99999999999999
 20
-20.8579583058954
 30
0.0
 40
3.2
 41
0.0
 71
     5
 72
     1
  1
30
  7
ASAMI
1001
ACAD
1000
MTEXTBEGIN
1070
    73
1070
     1
1070
    44
1040
1.0
1070
    74
1070
     0
1000
MTEXTEND
  0
POINT
  5
195E
330
13D7
100
AcDbEntity
  8
DEFPOINTS
 62
     0
100
AcDbPoint
 10
-29.99999999999999
 20
-10.00000000000003
 30
0.0
  0
POINT
  5
195F
330
13D7
100
AcDbEntity
  8
DEFPOINTS
 62
     0
100
AcDbPoint
 10
0.0000000000000114
 20
-10.00000000000004
 30
0.0
  0
POINT
  5
1960
330
13D7
100
AcDbEntity
  8
DEFPOINTS
 62
     0
100
AcDbPoint
 10
0.0000000000000106
 20
-23.95795830589541
 30
0.0
  0
ENDBLK
  5
13E2
330
13D7
100
AcDbEntity
  8
0
100
AcDbBlockEnd
  0
BLOCK
  5
13ED
330
13E3
100
AcDbEntity
  8
0
100
AcDbBlockBegin
  2
*D8
 70
     1
 10
0.0
 20
0.0
 30
0.0
  3
*D8
  1

  0
LINE
  5
1961
330
13E3
100
AcDbEntity
  8
AM_5
100
AcDbLine
 10
0.0000000000000114
 20
-11.00000000000004
 30
0.0
 11
0.0000000000000098
 21
-36.95795830589557
 31
0.0
  0
LINE
  5
1962
330
13E3
100
AcDbEntity
  8
AM_5
100
AcDbLine
 10
-82.0
 20
-10.75000000000011
 30
0.0
 11
-82.0
 21
-36.95795830589557
 31
0.0
  0
LINE
  5
1963
330
13E3
100
AcDbEntity
  8
AM_5
100
AcDbLine
 10
-2.49999999999999
 20
-35.95795830589557
 30
0.0
 11
-79.5
 21
-35.95795830589557
 31
0.0
  0
INSERT
  5
1964
330
13E3
100
AcDbEntity
  8
AM_5
100
AcDbBlockReference
  2
_OPEN30
 10
0.0000000000000098
 20
-35.95795830589557
 30
0.0
 41
2.5
 42
2.5
 43
2.5
  0
INSERT
  5
1965
330
13E3
100
AcDbEntity
  8
AM_5
100
AcDbBlockReference
  2
_OPEN30
 10
-82.0
 20
-35.95795830589557
 30
0.0
 41
2.5
 42
2.5
 43
2.5
 50
180.0
  0
MTEXT
  5
1966
330
13E3
100
AcDbEntity
  8
AM_5
 62
     2
100
AcDbMText
 10
-40.99999999999999
 20
-32.85795830589557
 30
0.0
 40
3.2
 41
0.0
 71
     5
 72
     1
  1
82
  7
ASAMI
1001
ACAD
1000
MTEXTBEGIN
1070
    73
1070
     1
1070
    44
1040
1.0
1070
    74
1070
     0
1000
MTEXTEND
  0
POINT
  5
1967
330
13E3
100
AcDbEntity
  8
DEFPOINTS
 62
     0
100
AcDbPoint
 10
0.0000000000000114
 20
-10.00000000000004
 30
0.0
  0
POINT
  5
1968
330
13E3
100
AcDbEntity
  8
DEFPOINTS
 62
     0
100
AcDbPoint
 10
-82.0
 20
-9.750000000000117
 30
0.0
  0
POINT
  5
1969
330
13E3
100
AcDbEntity
  8
DEFPOINTS
 62
     0
100
AcDbPoint
 10
-82.0
 20
-35.95795830589557
 30
0.0
  0
ENDBLK
  5
13EE
330
13E3
100
AcDbEntity
  8
0
100
AcDbBlockEnd
  0
BLOCK
  5
13F9
330
13EF
100
AcDbEntity
  8
0
100
AcDbBlockBegin
  2
*D9
 70
     1
 10
0.0
 20
0.0
 30
0.0
  3
*D9
  1

  0
LINE
  5
191E
330
13EF
100
AcDbEntity
  8
AM_5
100
AcDbLine
 10
1.000000000000001
 20
-10.00000000000001
 30
0.0
 11
15.0000000000002
 21
-10.00000000000002
 31
0.0
  0
LINE
  5
191F
330
13EF
100
AcDbEntity
  8
AM_5
100
AcDbLine
 10
0.9999999999999994
 20
9.999999999999984
 30
0.0
 11
15.0000000000002
 21
9.999999999999978
 31
0.0
  0
LINE
  5
1920
330
13EF
100
AcDbEntity
  8
AM_5
100
AcDbLine
 10
14.0000000000002
 20
-7.500000000000019
 30
0.0
 11
14.0000000000002
 21
7.49999999999998
 31
0.0
  0
INSERT
  5
1921
330
13EF
100
AcDbEntity
  8
AM_5
100
AcDbBlockReference
  2
_OPEN30
 10
14.0000000000002
 20
-10.00000000000001
 30
0.0
 41
2.5
 42
2.5
 43
2.5
 50
270.0
  0
INSERT
  5
1922
330
13EF
100
AcDbEntity
  8
AM_5
100
AcDbBlockReference
  2
_OPEN30
 10
14.0000000000002
 20
9.99999999999998
 30
0.0
 41
2.5
 42
2.5
 43
2.5
 50
90.0
  0
MTEXT
  5
1923
330
13EF
100
AcDbEntity
  8
AM_5
 62
     2
100
AcDbMText
 10
10.9000000000002
 20
0.0000000000001699
 30
0.0
 40
3.2
 41
0.0
 71
     5
 72
     1
  1
%%c20
  7
ASAMI
 11
0.0000000000000001
 21
1.0
 31
0.0
1001
ACAD
1000
MTEXTBEGIN
1070
    73
1070
     1
1070
    44
1040
1.0
1070
    74
1070
     0
1000
MTEXTEND
  0
POINT
  5
1924
330
13EF
100
AcDbEntity
  8
DEFPOINTS
 62
     0
100
AcDbPoint
 10
0.0000000000000012
 20
-10.00000000000001
 30
0.0
  0
POINT
  5
1925
330
13EF
100
AcDbEntity
  8
DEFPOINTS
 62
     0
100
AcDbPoint
 10
-0.0000000000000006
 20
9.999999999999984
 30
0.0
  0
POINT
  5
1926
330
13EF
100
AcDbEntity
  8
DEFPOINTS
 62
     0
100
AcDbPoint
 10
14.0000000000002
 20
9.99999999999998
 30
0.0
  0
ENDBLK
  5
13FA
330
13EF
100
AcDbEntity
  8
0
100
AcDbBlockEnd
  0
BLOCK
  5
198A
330
1984
100
AcDbEntity
  8
0
100
AcDbBlockBegin
  2
*D10
 70
     1
 10
0.0
 20
0.0
 30
0.0
  3
*D10
  1

  0
LINE
  5
1A55
330
1984
100
AcDbEntity
  8
AM_5
100
AcDbLine
 10
11.81394747414219
 20
-21.76649078364259
 30
0.0
 11
1.333472479928933
 21
-11.3233727535495
 31
0.0
  0
MTEXT
  5
1A56
330
1984
100
AcDbEntity
  8
AM_5
 62
     2
100
AcDbMText
 10
9.647284011014182
 20
-15.23129458213534
 30
0.0
 40
3.2
 41
0.0
 71
     5
 72
     1
  1
R1.5
  7
ASAMI
 11
0.7083681199822282
 21
-0.7058431883873668
 31
0.0
  0
LINE
  5
1A57
330
1984
100
AcDbEntity
  8
AM_5
100
AcDbLine
 10
-1.499999999999983
 20
-8.50000000000003
 30
0.0
 11
-0.4374478200266374
 21
-9.558764782581082
 31
0.0
  0
INSERT
  5
1A58
330
1984
100
AcDbEntity
  8
AM_5
100
AcDbBlockReference
  2
_OPEN30
 10
-0.4374478200266374
 20
-9.558764782581082
 30
0.0
 41
2.5
 42
2.5
 43
2.5
 50
135.1022957243885
  0
POINT
  5
1A59
330
1984
100
AcDbEntity
  8
DEFPOINTS
 62
     0
100
AcDbPoint
 10
-0.4374478200266561
 20
-9.558764782581082
 30
0.0
  0
POINT
  5
1A5A
330
1984
100
AcDbEntity
  8
DEFPOINTS
 62
     0
100
AcDbPoint
 10
-1.5
 20
-8.500000000000026
 30
0.0
  0
ENDBLK
  5
198B
330
1984
100
AcDbEntity
  8
0
100
AcDbBlockEnd
  0
ENDSEC
  0
SECTION
  2
ENTITIES
  0
DIMENSION
  5
1363
330
1F
100
AcDbEntity
  8
AM_5
100
AcDbDimension
  2
*D5
 10
0.0000000000000091
 20
-47.95795830589541
 30
0.0
 11
-100.0
 21
-44.8579583058954
 31
0.0
 70
    32
  1
<>
  3
AM_JIS
100
AcDbAlignedDimension
 13
-200.0
 23
-9.500000000000154
 33
0.0
 14
0.0000000000000114
 24
-10.00000000000004
 34
0.0
 50
0.0000000000001132
100
AcDbRotatedDimension
1001
GENIUS_GENDTOL_13
1000

1000
h7
1000

1040
0.0
  0
TEXT
  5
1364
330
1F
100
AcDbEntity
  8
AM_6
100
AcDbText
 10
-135.8333333333332
 20
-70.4579583058954
 30
0.0
 40
5.0
  1
SSUPR4200ZX-R15
 72
     4
 11
-99.99999999999994
 21
-67.9579583058954
 31
0.0
100
AcDbText
  0
LINE
  5
1365
330
1F
100
AcDbEntity
  8
AM_0
100
AcDbLine
 10
-82.43301270189222
 20
9.99999999999988
 30
0.0
 11
-199.5
 21
9.99999999999974
 31
0.0
  0
LINE
  5
1366
330
1F
100
AcDbEntity
  8
AM_0
100
AcDbLine
 10
-199.5
 20
-10.00000000000021
 30
0.0
 11
-82.43301270189226
 21
-10.00000000000012
 31
0.0
  0
LINE
  5
1367
330
1F
100
AcDbEntity
  8
AM_7
100
AcDbLine
 10
-203.0
 20
-0.0000000000002349
 30
0.0
 11
3.0
 21
-0.000000000000036
 31
0.0
1001
GENIUS_GENODEF_13
1002
{
1000
HIER
1070
     0
1002
}
1002
{
1000
MANEDIT
1070
     0
1002
}
1002
{
1000
NOSEL
1070
     0
1002
}
1002
{
1000
BEHIND
1070
     0
1002
}
1002
{
1000
REACTOR
1002
}
1001
GENIUS_GENOBJ-N-CEN_13
1002
{
1000
OWNER
1000
GEN
1002
}
  0
DIMENSION
  5
1368
330
1F
100
AcDbEntity
  8
AM_5
100
AcDbDimension
  2
*D6
 10
-214.0
 20
9.999999999999737
 30
0.0
 11
-214.0
 21
-0.000000000000229
 31
0.0
 70
   160
  1
%%c<>
  3
AM_JIS
100
AcDbAlignedDimension
 13
-199.5
 23
-10.00000000000015
 33
0.0
 14
-199.5
 24
9.999999999999733
 34
0.0
 50
270.0
100
AcDbRotatedDimension
1001
GENIUS_GENDTOL_13
1000

1000
h7
1000

1040
0.0
  0
LINE
  5
1369
330
1F
100
AcDbEntity
  8
AM_0
100
AcDbLine
 10
-200.0
 20
9.49999999999974
 30
0.0
 11
-200.0
 21
-9.500000000000209
 31
0.0
  0
LINE
  5
136A
330
1F
100
AcDbEntity
  8
AM_0
100
AcDbLine
 10
-199.5
 20
-10.00000000000021
 30
0.0
 11
-199.5
 21
9.999999999999769
 31
0.0
  0
LINE
  5
136B
330
1F
100
AcDbEntity
  8
AM_0
100
AcDbLine
 10
-200.0
 20
-9.500000000000209
 30
0.0
 11
-199.5
 21
-10.00000000000021
 31
0.0
1001
GENIUS_GENFIL_13
1070
     0
1040
0.5
1040
0.5
1040
20.0
1040
0.0
1002
{
1002
}
1001
GENIUS_GENODEF_13
1002
{
1000
HIER
1070
     0
1002
}
1002
{
1000
MANEDIT
1070
     0
1002
}
1002
{
1000
NOSEL
1070
     0
1002
}
1002
{
1000
BEHIND
1070
     0
1002
}
1002
{
1000
REACTOR
1002
}
1001
GENIUS_GENOBJ-N-CHA_13
1002
{
1000
OWNER
1000
GEN
1002
}
  0
LINE
  5
136C
330
1F
100
AcDbEntity
  8
AM_0
100
AcDbLine
 10
-200.0
 20
9.49999999999974
 30
0.0
 11
-199.5
 21
9.99999999999974
 31
0.0
1001
GENIUS_GENFIL_13
1070
     0
1040
0.5
1040
0.5
1040
20.0
1040
0.0
1002
{
1002
}
1001
GENIUS_GENODEF_13
1002
{
1000
HIER
1070
     0
1002
}
1002
{
1000
MANEDIT
1070
     0
1002
}
1002
{
1000
NOSEL
1070
     0
1002
}
1002
{
1000
BEHIND
1070
     0
1002
}
1002
{
1000
REACTOR
1002
}
1001
GENIUS_GENOBJ-N-CHA_13
1002
{
1000
OWNER
1000
GEN
1002
}
  0
DIMENSION
  5
136D
330
1F
100
AcDbEntity
  8
AM_5
100
AcDbDimension
  2
*D7
 10
0.0000000000000106
 20
-23.95795830589541
 30
0.0
 11
-14.99999999999999
 21
-20.8579583058954
 31
0.0
 70
    32
  1
<>
  3
AM_JIS
100
AcDbAlignedDimension
 13
-29.99999999999999
 23
-10.00000000000003
 33
0.0
 14
0.0000000000000114
 24
-10.00000000000004
 34
0.0
 50
0.0000000000001132
100
AcDbRotatedDimension
1001
GENIUS_GENDTOL_13
1000

1000
h7
1000

1040
0.0
  0
DIMENSION
  5
136E
330
1F
100
AcDbEntity
  8
AM_5
100
AcDbDimension
  2
*D8
 10
-82.0
 20
-35.95795830589557
 30
0.0
 11
-40.99999999999999
 21
-32.85795830589557
 31
0.0
 70
    32
  1
<>
  3
AM_JIS
100
AcDbAlignedDimension
 13
0.0000000000000114
 23
-10.00000000000004
 33
0.0
 14
-82.0
 24
-9.750000000000117
 34
0.0
 50
0.0000000000001132
100
AcDbRotatedDimension
1001
GENIUS_GENDTOL_13
1000

1000
h7
1000

1040
0.0
  0
SPLINE
  5
136F
330
1F
100
AcDbEntity
  8
AM_0
100
AcDbSpline
210
0.0
220
0.0
230
1.0
 70
     8
 71
     3
 72
     8
 73
     4
 74
     0
 42
0.0000000001
 43
0.0000000001
 40
0.5179176998437139
 40
0.5179176998437139
 40
0.5179176998437139
 40
0.5179176998437139
 40
8.999068685365031
 40
8.999068685365031
 40
8.999068685365031
 40
8.999068685365031
 10
-25.66957382202371
 20
8.736507020911165
 30
0.0
 10
-20.13653736143851
 20
8.272920628810073
 30
0.0
 10
-15.56537376758615
 20
4.126072090678339
 30
0.0
 10
-10.99421017373288
 20
-0.0207764474536236
 30
0.0
  0
SPLINE
  5
1370
330
1F
100
AcDbEntity
  8
AM_0
100
AcDbSpline
210
0.0
220
0.0
230
1.0
 70
     8
 71
     3
 72
     8
 73
     4
 74
     0
 42
0.0000000001
 43
0.0000000001
 40
0.5179176998614976
 40
0.5179176998614976
 40
0.5179176998614976
 40
0.5179176998614976
 40
5.514523215700526
 40
5.514523215700526
 40
5.514523215700526
 40
5.514523215700526
 10
-9.969573821988888
 20
8.757283468361709
 30
0.0
 10
-6.709827527473861
 20
8.484165075837939
 30
0.0
 10
-3.783936483298475
 20
6.932627831549428
 30
0.0
 10
-0.9952124111637203
 20
4.855842466355501
 30
0.0
  0
SPLINE
  5
1371
330
1F
100
AcDbEntity
  8
AM_0
100
AcDbSpline
210
0.0
220
0.0
230
1.0
 70
     8
 71
     3
 72
     8
 73
     4
 74
     2
 42
0.0000000001
 43
0.0000000001
 44
0.0000000001
 12
0.9999878186055966
 22
0.0049358525525493
 32
0.0
 40
0.0
 40
0.0
 40
0.0
 40
0.0
 40
18.58057004743771
 40
18.58057004743771
 40
18.58057004743771
 40
18.58057004743771
 10
-16.100000000009
 20
9.937181858441691
 30
0.0
 10
-9.906552096613763
 20
9.967752176473847
 30
0.0
 10
-5.153276048311473
 20
4.983876088236861
 30
0.0
 10
-0.4000000000091858
 20
-0.0000000000001239
 30
0.0
 11
-16.100000000009
 21
9.937181858441691
 31
0.0
 11
-0.4000000000091858
 21
-0.0000000000001239
 31
0.0
  0
SPLINE
  5
1372
330
1F
100
AcDbEntity
  8
AM_0
100
AcDbSpline
210
0.0
220
0.0
230
1.0
 70
     8
 71
     3
 72
     8
 73
     4
 74
     0
 42
0.0000000001
 43
0.0000000001
 40
0.8291973398015029
 40
0.8291973398015029
 40
0.8291973398015029
 40
0.8291973398015029
 40
7.918446762666186
 40
7.918446762666186
 40
7.918446762666186
 40
7.918446762666186
 10
-12.32533651093444
 20
9.32295520197066
 30
0.0
 10
-7.774280785578866
 20
8.691639210990491
 30
0.0
 10
-3.936288668775886
 20
5.489556114222285
 30
0.0
 10
-0.2044618765771702
 20
1.904721295174671
 30
0.0
  0
SPLINE
  5
1373
330
1F
100
AcDbEntity
  8
AM_0
100
AcDbSpline
210
0.0
220
0.0
230
1.0
 70
     8
 71
     3
 72
     8
 73
     4
 74
     0
 42
0.0000000001
 43
0.0000000001
 40
0.829197339801526
 40
0.829197339801526
 40
0.829197339801526
 40
0.829197339801526
 40
9.158576263912857
 40
9.158576263912857
 40
9.158576263912857
 40
9.158576263912857
 10
-28.02533651093426
 20
9.30217875451682
 30
0.0
 10
-22.67816004977476
 20
8.560426024987451
 30
0.0
 10
-18.31534141577458
 20
4.269824788766858
 30
0.0
 10
-13.95252278177531
 20
-0.0207764474536236
 30
0.0
  0
SPLINE
  5
1374
330
1F
100
AcDbEntity
  8
AM_0
100
AcDbSpline
210
0.0
220
0.0
230
1.0
 70
     8
 71
     3
 72
     8
 73
     4
 74
     0
 42
0.0000000001
 43
0.0000000001
 40
0.3103723757368076
 40
0.3103723757368076
 40
0.3103723757368076
 40
0.3103723757368076
 40
2.57750390504933
 40
2.57750390504933
 40
2.57750390504933
 40
2.57750390504933
 10
-0.3351638097643049
 20
9.445069653472879
 30
0.0
 10
-0.4232476398507176
 20
8.158900305617844
 30
0.0
 10
-2.235035237460722
 20
7.343756016912462
 30
0.0
 10
-4.174045051156554
 20
6.916458734222249
 30
0.0
  0
SPLINE
  5
1375
330
1F
100
AcDbEntity
  8
AM_0
100
AcDbSpline
210
0.0
220
0.0
230
1.0
 70
     8
 71
     3
 72
     8
 73
     4
 74
     0
 42
0.0000000001
 43
0.0000000001
 40
0.348202566526921
 40
0.348202566526921
 40
0.348202566526921
 40
0.348202566526921
 40
3.514580779201212
 40
3.514580779201212
 40
3.514580779201212
 40
3.514580779201212
 10
-1.081811827470152
 20
9.94052721333403
 30
0.0
 10
-3.165191424819083
 20
9.825235275682549
 30
0.0
 10
-5.078955400502612
 20
9.149282622865595
 30
0.0
 10
-6.888713535679471
 20
8.111198387409205
 30
0.0
  0
SPLINE
  5
1376
330
1F
100
AcDbEntity
  8
AM_0
100
AcDbSpline
210
0.0
220
0.0
230
1.0
 70
     8
 71
     3
 72
     8
 73
     4
 74
     0
 42
0.0000000001
 43
0.0000000001
 40
0.0
 40
0.0
 40
0.0
 40
0.0
 40
3.514580779201212
 40
3.514580779201212
 40
3.514580779201212
 40
3.514580779201212
 10
-16.11981515422121
 20
9.957958305895306
 30
0.0
 10
-18.46284046535902
 20
9.969523274235474
 30
0.0
 10
-20.59975376482543
 20
9.263439419931149
 30
0.0
 10
-22.60852868989195
 20
8.111198387409205
 30
0.0
  0
SPLINE
  5
1377
330
1F
100
AcDbEntity
  8
AM_0
100
AcDbSpline
210
0.0
220
0.0
230
1.0
 70
     8
 71
     3
 72
     8
 73
     4
 74
     0
 42
0.0000000001
 43
0.0000000001
 40
0.0
 40
0.0
 40
0.0
 40
0.0
 40
0.0001935953510688
 40
0.0001935953510688
 40
0.0001935953510688
 40
0.0001935953510688
 10
-10.99421017373288
 20
8.800167544749898
 30
0.0
 10
-10.99408111016555
 20
8.800167544749898
 30
0.0
 10
-10.99395204712982
 20
8.800167542713541
 30
0.0
 10
-10.99382298462614
 20
8.800167538640936
 30
0.0
  0
SPLINE
  5
1378
330
1F
100
AcDbEntity
  8
AM_0
100
AcDbSpline
210
0.0
220
0.0
230
1.0
 70
     8
 71
     3
 72
     8
 73
     4
 74
     0
 42
0.0000000001
 43
0.0000000001
 40
0.0
 40
0.0
 40
0.0
 40
0.0
 40
0.0001935953510984
 40
0.0001935953510984
 40
0.0001935953510984
 40
0.0001935953510984
 10
-26.6942101737327
 20
8.779391097296286
 30
0.0
 10
-26.69408111016537
 20
8.779391097296286
 30
0.0
 10
-26.69395204712963
 20
8.779391095259926
 30
0.0
 10
-26.69382298462597
 20
8.779391091187324
 30
0.0
  0
SPLINE
  5
1379
330
1F
100
AcDbEntity
  8
AM_0
100
AcDbSpline
210
0.0
220
0.0
230
1.0
 70
     8
 71
     3
 72
     8
 73
     4
 74
     0
 42
0.0000000001
 43
0.0000000001
 40
0.0
 40
0.0
 40
0.0
 40
0.0
 40
2.142709433955016
 40
2.142709433955016
 40
2.142709433955016
 40
2.142709433955016
 10
-26.71402532794491
 20
-8.800167544750035
 30
0.0
 10
-25.28555237197497
 20
-8.800167544750035
 30
0.0
 10
-23.92222386568437
 20
-8.55071245164289
 30
0.0
 10
-22.60852868989195
 20
-8.111198387409226
 30
0.0
  0
SPLINE
  5
137A
330
1F
100
AcDbEntity
  8
AM_0
100
AcDbSpline
210
0.0
220
0.0
230
1.0
 70
     8
 71
     3
 72
     8
 73
     4
 74
     2
 42
0.0000000001
 43
0.0000000001
 44
0.0000000001
 12
-1.0
 22
0.0000000000000001
 32
0.0
 40
0.0
 40
0.0
 40
0.0
 40
0.0
 40
17.99813737073023
 40
17.99813737073023
 40
17.99813737073023
 40
17.99813737073023
 10
-11.01402532794509
 20
-8.820943992203421
 30
0.0
 10
-17.01340445152183
 20
-8.820943992203421
 30
0.0
 10
-21.8637148897336
 20
-4.420860219828521
 30
0.0
 10
-26.71402532794536
 20
-0.0207764474536236
 30
0.0
 11
-11.01402532794509
 21
-8.820943992203421
 31
0.0
 11
-26.71402532794536
 21
-0.0207764474536236
 31
0.0
  0
SPLINE
  5
137B
330
1F
100
AcDbEntity
  8
AM_0
100
AcDbSpline
210
0.0
220
0.0
230
1.0
 70
     8
 71
     3
 72
     8
 73
     4
 74
     2
 42
0.0000000001
 43
0.0000000001
 44
0.0000000001
 12
-1.0
 22
0.0000000000000001
 32
0.0
 40
0.0
 40
0.0
 40
0.0
 40
0.0
 40
18.31715252782545
 40
18.31715252782545
 40
18.31715252782545
 40
18.31715252782545
 10
-13.97233793598706
 20
-9.456245525757491
 30
0.0
 10
-20.07805544526222
 20
-9.456245525757491
 30
0.0
 10
-24.87519669062455
 20
-4.738510986605557
 30
0.0
 10
-29.67233793598688
 20
-0.0207764474536236
 30
0.0
 11
-13.97233793598706
 21
-9.456245525757491
 31
0.0
 11
-29.67233793598688
 21
-0.0207764474536236
 31
0.0
  0
SPLINE
  5
137C
330
1F
100
AcDbEntity
  8
AM_0
100
AcDbSpline
210
0.0
220
0.0
230
1.0
 70
     8
 71
     3
 72
     8
 73
     4
 74
     0
 42
0.0000000001
 43
0.0000000001
 40
0.0
 40
0.0
 40
0.0
 40
0.0
 40
8.399619336653909
 40
8.399619336653909
 40
8.399619336653909
 40
8.399619336653909
 10
-16.11981515422121
 20
-9.95795830589544
 30
0.0
 10
-21.71949316594009
 20
-9.985597827590947
 30
0.0
 10
-26.14190287181873
 20
-5.914178751136327
 30
0.0
 10
-30.45144709705845
 20
-1.449780252272385
 30
0.0
  0
SPLINE
  5
137D
330
1F
100
AcDbEntity
  8
AM_0
100
AcDbSpline
210
0.0
220
0.0
230
1.0
 70
     8
 71
     3
 72
     8
 73
     4
 74
     0
 42
0.0000000001
 43
0.0000000001
 40
0.0
 40
0.0
 40
0.0
 40
0.0
 40
2.142709433955016
 40
2.142709433955016
 40
2.142709433955016
 40
2.142709433955016
 10
-10.99421017373288
 20
-8.800167544749921
 30
0.0
 10
-9.565737217762944
 20
-8.800167544749921
 30
0.0
 10
-8.202408711471889
 20
-8.550712451642777
 30
0.0
 10
-6.888713535679471
 20
-8.111198387409226
 30
0.0
  0
SPLINE
  5
137E
330
1F
100
AcDbEntity
  8
AM_0
100
AcDbSpline
210
0.0
220
0.0
230
1.0
 70
     8
 71
     3
 72
     8
 73
     4
 74
     0
 42
0.0000000001
 43
0.0000000001
 40
2.924396646875711
 40
2.924396646875711
 40
2.924396646875711
 40
2.924396646875711
 40
8.999068685365031
 40
8.999068685365031
 40
8.999068685365031
 40
8.999068685365031
 10
-0.8184003985147681
 20
-7.57795415667318
 30
0.0
 10
-4.445966966096875
 20
-5.96118357036506
 30
0.0
 10
-7.720088569914878
 20
-2.990980008909342
 30
0.0
 10
-10.99421017373288
 20
-0.0207764474535099
 30
0.0
  0
SPLINE
  5
137F
330
1F
100
AcDbEntity
  8
AM_0
100
AcDbSpline
210
0.0
220
0.0
230
1.0
 70
     8
 71
     3
 72
     8
 73
     4
 74
     0
 42
0.0000000001
 43
0.0000000001
 40
1.045144398564957
 40
1.045144398564957
 40
1.045144398564957
 40
1.045144398564957
 40
9.158576263912857
 40
9.158576263912857
 40
9.158576263912857
 40
9.158576263912857
 10
-0.2936331669889114
 20
-9.278945433378007
 30
0.0
 10
-5.453105946418417
 20
-8.379503096491598
 30
0.0
 10
-9.702814364096866
 20
-4.20013977197244
 30
0.0
 10
-13.95252278177531
 20
-0.0207764474535099
 30
0.0
  0
SPLINE
  5
1380
330
1F
100
AcDbEntity
  8
AM_0
100
AcDbSpline
210
0.0
220
0.0
230
1.0
 70
     8
 71
     3
 72
     8
 73
     4
 74
     0
 42
0.0000000001
 43
0.0000000001
 40
0.8322477672392054
 40
0.8322477672392054
 40
0.8322477672392054
 40
0.8322477672392054
 40
18.60308852614862
 40
18.60308852614862
 40
18.60308852614862
 40
18.60308852614862
 10
-1.223652878781291
 20
-9.974324343078617
 30
0.0
 10
-7.025913506456483
 20
-9.582796810400802
 30
0.0
 10
-11.56295675323274
 20
-4.801786628927213
 30
0.0
 10
-16.100000000009
 20
-0.0207764474536236
 30
0.0
  0
SPLINE
  5
1381
330
1F
100
AcDbEntity
  8
AM_0
100
AcDbSpline
210
0.0
220
0.0
230
1.0
 70
     8
 71
     3
 72
     8
 73
     4
 74
     2
 42
0.0000000001
 43
0.0000000001
 44
0.0000000001
 12
0.2968072260726871
 22
-0.9549374170860815
 32
0.0
 13
-0.1104733016500219
 23
-0.9938790920542313
 33
0.0
 40
0.0
 40
0.0
 40
0.0
 40
0.0
 40
3.257964575726154
 40
3.257964575726154
 40
3.257964575726154
 40
3.257964575726154
 10
-0.8201050754928473
 20
-4.319990026919309
 30
0.0
 10
-0.4977759327047278
 20
-5.357040785886604
 30
0.0
 10
-0.6984276974016746
 20
-6.498613198517327
 30
0.0
 10
-0.8184003985147681
 20
-7.57795415667318
 30
0.0
 11
-0.8201050754928473
 21
-4.319990026919309
 31
0.0
 11
-0.8184003985147681
 21
-7.57795415667318
 31
0.0
  0
SPLINE
  5
1382
330
1F
100
AcDbEntity
  8
AM_0
100
AcDbSpline
210
0.0
220
0.0
230
1.0
 70
     8
 71
     3
 72
     8
 73
     4
 74
     0
 42
0.0000000001
 43
0.0000000001
 40
9.141233629465322
 40
9.141233629465322
 40
9.141233629465322
 40
9.141233629465322
 40
9.290285023718936
 40
9.290285023718936
 40
9.290285023718936
 40
9.290285023718936
 10
-0.1712123454353787
 20
-0.2398600955419953
 30
0.0
 10
-0.2474788619679202
 20
-0.1599205358807114
 30
0.0
 10
-0.323739430988553
 20
-0.0799602679403608
 30
0.0
 10
-0.4000000000091858
 20
-0.0000000000000102
 30
0.0
  0
SPLINE
  5
1383
330
1F
100
AcDbEntity
  8
AM_0
100
AcDbSpline
210
0.0
220
0.0
230
1.0
 70
     8
 71
     3
 72
     9
 73
     5
 74
     3
 42
0.0000000001
 43
0.0000000001
 44
0.0000000001
 12
-0.9959561288896111
 22
0.0898409112109892
 32
0.0
 13
0.5961652186767443
 23
-0.8028617764223861
 33
0.0
 40
0.0
 40
0.0
 40
0.0
 40
0.0
 40
1.314883040793369
 40
6.247442494759317
 40
6.247442494759317
 40
6.247442494759317
 40
6.247442494759317
 10
-2.790314505576588
 20
-0.0036021743384356
 30
0.0
 10
-3.22683644666031
 20
0.035774589168482
 30
0.0
 10
-5.714240232355862
 20
-1.29543254082445
 30
0.0
 10
-1.800311870675463
 20
-2.999935545104615
 30
0.0
 10
-0.8201050755055803
 20
-4.31999002694466
 30
0.0
 11
-2.790314505576588
 21
-0.0036021743384356
 31
0.0
 11
-3.990314505576861
 21
-0.5411125565315263
 31
0.0
 11
-0.8201050755055803
 21
-4.31999002694466
 31
0.0
  0
SPLINE
  5
1384
330
1F
100
AcDbEntity
  8
AM_0
100
AcDbSpline
210
0.0
220
0.0
230
1.0
 70
     8
 71
     3
 72
     8
 73
     4
 74
     0
 42
0.0000000001
 43
0.0000000001
 40
0.0
 40
0.0
 40
0.0
 40
0.0
 40
2.085529961854907
 40
2.085529961854907
 40
2.085529961854907
 40
2.085529961854907
 10
-13.95252278177485
 20
-9.43546907830399
 30
0.0
 10
-12.56216947387156
 20
-9.43546907830399
 30
0.0
 10
-11.23967024701459
 20
-9.190838673029826
 30
0.0
 10
-9.969573821989341
 20
-8.757283468361729
 30
0.0
  0
SPLINE
  5
1385
330
1F
100
AcDbEntity
  8
AM_0
100
AcDbSpline
210
0.0
220
0.0
230
1.0
 70
     8
 71
     3
 72
     8
 73
     4
 74
     0
 42
0.0000000001
 43
0.0000000001
 40
0.0
 40
0.0
 40
0.0
 40
0.0
 40
1.978364719412732
 40
1.978364719412732
 40
1.978364719412732
 40
1.978364719412732
 10
-16.100000000009
 20
-9.937181858441714
 30
0.0
 10
-14.78110625322779
 20
-9.94369180280854
 30
0.0
 10
-13.5275208938051
 20
-9.722808462733848
 30
0.0
 10
-12.32533651103176
 20
-9.322955202002969
 30
0.0
  0
SPLINE
  5
1386
330
1F
100
AcDbEntity
  8
AM_0
100
AcDbSpline
210
0.0
220
0.0
230
1.0
 70
     8
 71
     3
 72
     8
 73
     4
 74
     0
 42
0.0000000001
 43
0.0000000001
 40
0.0
 40
0.0
 40
0.0
 40
0.0
 40
1.690066516727341
 40
1.690066516727341
 40
1.690066516727341
 40
1.690066516727341
 10
-26.73384048215712
 20
-8.820943992203421
 30
0.0
 10
-27.86055149330923
 20
-8.820943992203421
 30
0.0
 10
-28.94673419845776
 20
-8.665750535245033
 30
0.0
 10
-30.0
 20
-8.384509666812743
 30
0.0
  0
SPLINE
  5
1387
330
1F
100
AcDbEntity
  8
AM_0
100
AcDbSpline
210
0.0
220
0.0
230
1.0
 70
     8
 71
     3
 72
     8
 73
     4
 74
     0
 42
0.0000000001
 43
0.0000000001
 40
8.950064817795073
 40
8.950064817795073
 40
8.950064817795073
 40
8.950064817795073
 40
9.158576263912857
 40
9.158576263912857
 40
9.158576263912857
 40
9.158576263912857
 10
-30.00000000000045
 20
0.3013909931270189
 30
0.0
 10
-29.89076901729867
 20
0.1940389611453281
 30
0.0
 10
-29.78155347664277
 20
0.0866312568458523
 30
0.0
 10
-29.67233793598688
 20
-0.0207764474536236
 30
0.0
  0
SPLINE
  5
1388
330
1F
100
AcDbEntity
  8
AM_0
100
AcDbSpline
210
0.0
220
0.0
230
1.0
 70
     8
 71
     3
 72
     8
 73
     4
 74
     0
 42
0.0000000001
 43
0.0000000001
 40
6.974934265298577
 40
6.974934265298577
 40
6.974934265298577
 40
6.974934265298577
 40
8.999068685365031
 40
8.999068685365031
 40
8.999068685365031
 40
8.999068685365031
 10
-30.00000000000409
 20
2.898246794096952
 30
0.0
 10
-28.89595784768652
 20
1.958619715912608
 30
0.0
 10
-27.80499158781594
 20
0.9689216342295491
 30
0.0
 10
-26.71402532794536
 20
-0.0207764474536236
 30
0.0
  0
SPLINE
  5
1389
330
1F
100
AcDbEntity
  8
AM_0
100
AcDbSpline
210
0.0
220
0.0
230
1.0
 70
     8
 71
     3
 72
     8
 73
     4
 74
     0
 42
0.0000000001
 43
0.0000000001
 40
0.9308799986946773
 40
0.9308799986946773
 40
0.9308799986946773
 40
0.9308799986946773
 40
9.304213052490601
 40
9.304213052490601
 40
9.304213052490601
 40
9.304213052490601
 10
-30.0
 20
9.821284244333689
 30
0.0
 10
-24.66490462250716
 20
8.989224577402929
 30
0.0
 10
-20.38245231126623
 20
4.494612288701395
 30
0.0
 10
-16.10000000002529
 20
-0.0000000000001381
 30
0.0
  0
SPLINE
  5
138A
330
1F
100
AcDbEntity
  8
AM_0
100
AcDbSpline
210
0.0
220
0.0
230
1.0
 70
     8
 71
     3
 72
     8
 73
     4
 74
     0
 42
0.0000000001
 43
0.0000000001
 40
1.015969964738205
 40
1.015969964738205
 40
1.015969964738205
 40
1.015969964738205
 40
2.085529961854907
 40
2.085529961854907
 40
2.085529961854907
 40
2.085529961854907
 10
-29.99999999999998
 20
-9.749999999999996
 30
0.0
 10
-29.02737470531126
 20
-9.574722539931665
 30
0.0
 10
-28.55605689127132
 20
-9.056947394056425
 30
0.0
 10
-27.9820063820403
 20
-8.757283468361745
 30
0.0
  0
LINE
  5
138B
330
1F
100
AcDbEntity
  8
AM_11
100
AcDbLine
 10
-29.99999999999999
 20
9.999999999999964
 30
0.0
 11
0.0000000000000001
 21
9.999999999999984
 31
0.0
  0
LINE
  5
138C
330
1F
100
AcDbEntity
  8
AM_11
100
AcDbLine
 10
0.0
 20
-10.00000000000001
 30
0.0
 11
-29.99999999999999
 21
-10.00000000000003
 31
0.0
  0
LINE
  5
138F
330
1F
100
AcDbEntity
  8
AM_0
100
AcDbLine
 10
-82.0
 20
9.749999999999889
 30
0.0
 11
-82.0
 21
-9.750000000000113
 31
0.0
  0
LINE
  5
1390
330
1F
100
AcDbEntity
  8
AM_0
100
AcDbLine
 10
-82.43301270189226
 20
-10.00000000000012
 30
0.0
 11
-82.43301270189229
 21
9.99999999999988
 31
0.0
  0
LINE
  5
1391
330
1F
100
AcDbEntity
  8
AM_0
100
AcDbLine
 10
-82.0
 20
-9.750000000000087
 30
0.0
 11
-82.43301270189226
 21
-10.00000000000012
 31
0.0
  0
LINE
  5
1392
330
1F
100
AcDbEntity
  8
AM_0
100
AcDbLine
 10
-82.0
 20
9.749999999999889
 30
0.0
 11
-82.4330127018922
 21
9.99999999999988
 31
0.0
  0
LINE
  5
1393
330
1F
100
AcDbEntity
  8
AM_11
100
AcDbLine
 10
-29.99999999999999
 20
9.999999999999964
 30
0.0
 11
-29.99999999999999
 21
-10.00000000000003
 31
0.0
  0
POLYLINE
  5
1394
330
1F
100
AcDbEntity
  8
AM_0
100
AcDb2dPolyline
 66
     1
 10
0.0
 20
0.0
 30
0.0
  0
VERTEX
  5
1395
330
1394
100
AcDbEntity
  8
AM_0
100
AcDbVertex
100
AcDb2dVertex
 10
-30.07128424433366
 20
9.750000000000003
 30
0.0
 42
0.0255590750219498
  0
VERTEX
  5
1396
330
1394
100
AcDbEntity
  8
AM_0
100
AcDbVertex
100
AcDb2dVertex
 10
-34.79860829670406
 20
8.83064371878034
 30
0.0
 42
0.0139461738785528
  0
VERTEX
  5
1397
330
1394
100
AcDbEntity
  8
AM_0
100
AcDbVertex
100
AcDb2dVertex
 10
-35.6420661199595
 20
8.596314234994526
 30
0.0
 42
0.0436287246585526
  0
VERTEX
  5
1398
330
1394
100
AcDbEntity
  8
AM_0
100
AcDbVertex
100
AcDb2dVertex
 10
-36.37582340792732
 20
8.298057685330224
 30
0.0
 42
0.2738540026404822
  0
VERTEX
  5
1399
330
1394
100
AcDbEntity
  8
AM_0
100
AcDbVertex
100
AcDb2dVertex
 10
-36.44807556566775
 20
8.183556560300603
 30
0.0
 42
0.1958299863149157
  0
VERTEX
  5
139A
330
1394
100
AcDbEntity
  8
AM_0
100
AcDbVertex
100
AcDb2dVertex
 10
-36.39196657291086
 20
8.033787409005601
 30
0.0
 42
0.028966137260715
  0
VERTEX
  5
139B
330
1394
100
AcDbEntity
  8
AM_0
100
AcDbVertex
100
AcDb2dVertex
 10
-35.6420661199595
 20
7.310025606840969
 30
0.0
 42
0.0057813111855378
  0
VERTEX
  5
139C
330
1394
100
AcDbEntity
  8
AM_0
100
AcDbVertex
100
AcDb2dVertex
 10
-34.75600835651539
 20
6.566455525535349
 30
0.0
 42
0.0022201051474406
  0
VERTEX
  5
139D
330
1394
100
AcDbEntity
  8
AM_0
100
AcDbVertex
100
AcDb2dVertex
 10
-32.41802833712745
 20
4.667370723739129
 30
0.0
 42
0.0115243051902067
  0
VERTEX
  5
139E
330
1394
100
AcDbEntity
  8
AM_0
100
AcDbVertex
100
AcDb2dVertex
 10
-31.62704891951716
 20
4.060185418909515
 30
0.0
 42
0.0057470741765196
  0
VERTEX
  5
139F
330
1394
100
AcDbEntity
  8
AM_0
100
AcDbVertex
100
AcDb2dVertex
 10
-29.99999999991178
 20
2.898246794029393
 30
0.0
  0
SEQEND
  5
13A0
330
1394
100
AcDbEntity
  8
AM_0
  0
POLYLINE
  5
13A1
330
1F
100
AcDbEntity
  8
AM_0
100
AcDb2dPolyline
 66
     1
 10
0.0
 20
0.0
 30
0.0
 70
     2
  0
VERTEX
  5
13A2
330
13A1
100
AcDbEntity
  8
AM_0
100
AcDbVertex
100
AcDb2dVertex
 10
-30.0
 20
-8.384509666812885
 30
0.0
 42
-0.0230041772467715
  0
VERTEX
  5
13A3
330
13A1
100
AcDbEntity
  8
AM_0
100
AcDbVertex
100
AcDb2dVertex
 10
-31.60281852941033
 20
-7.275463475650933
 30
0.0
 42
-0.0405369427811071
 70
     1
  0
VERTEX
  5
13A4
330
13A1
100
AcDbEntity
  8
AM_0
100
AcDbVertex
100
AcDb2dVertex
 10
-32.42624999999997
 20
-6.535109122124065
 30
0.0
 42
-0.0218730450044702
  0
VERTEX
  5
13A5
330
13A1
100
AcDbEntity
  8
AM_0
100
AcDbVertex
100
AcDb2dVertex
 10
-34.43336477134653
 20
-4.217403111648233
 30
0.0
 42
-0.0311955358087158
 70
     1
  0
VERTEX
  5
13A6
330
13A1
100
AcDbEntity
  8
AM_0
100
AcDbVertex
100
AcDb2dVertex
 10
-35.66125000000011
 20
-2.45153964295586
 30
0.0
 42
-0.0495171753539275
  0
VERTEX
  5
13A7
330
13A1
100
AcDbEntity
  8
AM_0
100
AcDbVertex
100
AcDb2dVertex
 10
-36.3477399422868
 20
-1.016761279025938
 30
0.0
 42
-0.0980887089957094
 70
     1
  0
VERTEX
  5
13A8
330
13A1
100
AcDbEntity
  8
AM_0
100
AcDbVertex
100
AcDb2dVertex
 10
-36.4699999999998
 20
-0.2173707084765897
 30
0.0
 42
-0.1602936925217278
  0
VERTEX
  5
13A9
330
13A1
100
AcDbEntity
  8
AM_0
100
AcDbVertex
100
AcDb2dVertex
 10
-36.25478630257112
 20
0.3515109756022707
 30
0.0
 42
-0.1317128335817564
 70
     1
  0
VERTEX
  5
13AA
330
13A1
100
AcDbEntity
  8
AM_0
100
AcDbVertex
100
AcDb2dVertex
 10
-35.66125000000011
 20
0.7836542393980221
 30
0.0
 42
-0.1572941928372058
  0
VERTEX
  5
13AB
330
13A1
100
AcDbEntity
  8
AM_0
100
AcDbVertex
100
AcDb2dVertex
 10
-34.83722566091409
 20
0.8293319432122711
 30
0.0
 42
-0.0493803804385245
 70
     1
  0
VERTEX
  5
13AC
330
13A1
100
AcDbEntity
  8
AM_0
100
AcDbVertex
100
AcDb2dVertex
 10
-32.42624999999997
 20
-0.0653522278526384
 30
0.0
 42
-0.0494001655057179
  0
VERTEX
  5
13AD
330
13A1
100
AcDbEntity
  8
AM_0
100
AcDbVertex
100
AcDb2dVertex
 10
-31.15288078488856
 20
-0.8508653646701237
 30
0.0
 42
-0.0470909004785133
 70
     1
  0
VERTEX
  5
13AE
330
13A1
100
AcDbEntity
  8
AM_0
100
AcDbVertex
100
AcDb2dVertex
 10
-30.0
 20
-1.91538364297791
 30
0.0
  0
SEQEND
  5
13AF
330
13A1
100
AcDbEntity
  8
AM_0
  0
LINE
  5
13B0
330
1F
100
AcDbEntity
  8
AM_0
100
AcDbLine
 10
-30.0
 20
-1.915383642780521
 30
0.0
 11
-30.0
 21
0.3013909931278147
 31
0.0
  0
LINE
  5
13B1
330
1F
100
AcDbEntity
  8
AM_0
100
AcDbLine
 10
-29.99999999999999
 20
9.821284244333687
 30
0.0
 11
-30.07128424433367
 21
9.750000000000008
 31
0.0
  0
DIMENSION
  5
13B2
330
1F
100
AcDbEntity
  8
AM_5
100
AcDbDimension
  2
*D9
 10
14.0000000000002
 20
9.99999999999998
 30
0.0
 11
14.0000000000002
 21
0.0000000000001696
 31
0.0
 70
   160
  1
%%c<>
  3
AM_JIS
100
AcDbAlignedDimension
 13
0.0000000000000012
 23
-10.00000000000001
 33
0.0
 14
-0.0000000000000006
 24
9.999999999999984
 34
0.0
 50
89.99999999999884
100
AcDbRotatedDimension
1001
GENIUS_GENDTOL_13
1000

1000
h7
1000

1040
0.0
  0
LINE
  5
13B3
330
1F
100
AcDbEntity
  8
AM_0
100
AcDbLine
 10
0.0
 20
8.499999999999927
 30
0.0
 11
0.0
 21
-8.500000000000015
 31
0.0
  0
LINE
  5
13B4
330
1F
100
AcDbEntity
  8
AM_0
100
AcDbLine
 10
-0.1974398576790008
 20
1.878514763874466
 30
0.0
 11
-0.9952124111619012
 21
4.855842466357319
 31
0.0
  0
LINE
  5
13B5
330
1F
100
AcDbEntity
  8
AM_0
100
AcDbLine
 10
-0.2289913335303026
 20
-9.296578288530982
 30
0.0
 11
-0.2289913335303026
 21
-3.132329098022078
 31
0.0
  0
LINE
  5
13B6
330
1F
100
AcDbEntity
  8
AM_0
100
AcDbLine
 10
-0.1974398576790008
 20
-3.068936129025824
 30
0.0
 11
-0.8201050755055803
 21
-4.319990026944661
 31
0.0
  0
LINE
  5
13B7
330
1F
100
AcDbEntity
  8
AM_0
100
AcDbLine
 10
-0.25175501974648
 20
-9.331795930064529
 30
0.0
 11
-0.3465136023874038
 21
-9.212209976824746
 31
0.0
  0
LINE
  5
13BA
330
1F
100
AcDbEntity
  8
AM_0
100
AcDbLine
 10
-0.3465136023874038
 20
-9.212209976824746
 30
0.0
 11
-0.8184003985147681
 21
-7.577954156673181
 31
0.0
  0
LINE
  5
13BB
330
1F
100
AcDbEntity
  8
AM_0
100
AcDbLine
 10
0.0
 20
-0.2553044235386426
 30
0.0
 11
-0.1974398576790008
 21
1.878514763874466
 31
0.0
  0
LINE
  5
13BC
330
1F
100
AcDbEntity
  8
AM_0
100
AcDbLine
 10
0.0
 20
-0.2553044235386426
 30
0.0
 11
-2.790314505576588
 21
-0.0036021743384356
 31
0.0
  0
LINE
  5
13BD
330
1F
100
AcDbEntity
  8
AM_0
100
AcDbLine
 10
-0.1974398576790008
 20
-3.068936129025824
 30
0.0
 11
0.0
 21
-2.456085842757498
 31
0.0
  0
LINE
  5
18E8
330
1F
100
AcDbEntity
  8
AM_0
100
AcDbLine
 10
-29.99999999999974
 20
-9.749999999999996
 30
0.0
 11
-82.0
 21
-9.750000000000138
 31
0.0
  0
LINE
  5
18E9
330
1F
100
AcDbEntity
  8
AM_0
100
AcDbLine
 10
-82.0
 20
9.7499999999999
 30
0.0
 11
-30.07128424433377
 21
9.750000000000003
 31
0.0
  0
ARC
  5
1956
330
1F
100
AcDbEntity
  8
AM_0
100
AcDbCircle
 10
-1.499999999999999
 20
-8.500000000000015
 30
0.0
 40
1.5
100
AcDbArc
 50
280.6163254750304
 51
0.0
  0
ARC
  5
1957
330
1F
100
AcDbEntity
  8
AM_0
100
AcDbCircle
 10
-1.500000000000032
 20
8.499999999999927
 30
0.0
 40
1.5
100
AcDbArc
 50
0.0000000000001357
 51
73.81187241220479
  0
LINE
  5
1979
330
1F
100
AcDbEntity
  8
AM_11
100
AcDbLine
 10
0.0
 20
-10.00000000000001
 30
0.0
 11
-0.0000000000000472
 21
9.999999999999984
 31
0.0
  0
DIMENSION
  5
1983
330
1F
100
AcDbEntity
  8
AM_5
100
AcDbDimension
  2
*D10
 10
-1.5
 20
-8.500000000000026
 30
0.0
 11
9.647284011014152
 21
-15.23129458213536
 31
0.0
 70
    36
  1
<>
 51
359.9999999999998
  3
AM_JIS$4
100
AcDbRadialDimension
 15
-0.4374478200266561
 25
-9.558764782581082
 35
0.0
 40
0.0
1001
GENIUS_GENDTOL_13
1000

1000
h7
1000

1040
0.0
1001
ACAD
1000
DSTYLE
1002
{
1070
   287
1070
     3
1070
   271
1070
     3
1070
   288
1070
     1
1070
   289
1070
     3
1070
   172
1070
     1
1070
    74
1070
     0
1002
}
  0
VIEWPORT
  5
110
330
101
100
AcDbEntity
 67
     1
  8
0
100
AcDbViewport
 10
420.5
 20
297.0
 30
0.0
 40
948.9782706766916
 41
628.452
 68
     1
 69
     1
1001
ACAD
1000
MVIEW
1002
{
1070
    16
1010
0.0
1020
0.0
1030
0.0
1010
0.0
1020
0.0
1030
1.0
1040
0.0
1040
628.452
1040
420.5
1040
297.0
1040
50.0
1040
0.0
1040
0.0
1070
     0
1070
   100
1070
     1
1070
     1
1070
     0
1070
     0
1070
     0
1070
     0
1040
0.0
1040
0.0
1040
0.0
1040
10.0
1040
10.0
1040
10.0
1040
10.0
1070
     0
1002
{
1002
}
1002
}
  0
ENDSEC
  0
SECTION
  2
OBJECTS
  0
DICTIONARY
  5
C
330
0
100
AcDbDictionary
  3
ACAD_GROUP
350
D
  3
ACAD_LAYOUT
350
1A
  3
ACAD_MLINESTYLE
350
17
  3
ACAD_PLOTSETTINGS
350
19
  3
ACAD_PLOTSTYLENAME
350
E
  3
ACDBVARIABLEDICTIONARY
350
34
  3
ACMDICTIONARY
350
43
  3
AMG
350
2B
  3
AMGSNAPSETTINGS
350
6E
  3
DWGPROPS
350
1A1F
  3
ACDBHEADERROUNDTRIPXREC
350
1A2B
  0
DICTIONARY
  5
74
330
1F
100
AcDbDictionary
280
     1
  3
ACAD_INDEX
360
1A21
  3
ACAD_LAYOUTSELFREF
360
1A4E
  0
DICTIONARY
  5
1A53
330
101
100
AcDbDictionary
280
     1
  3
ACAD_LAYOUTSELFREF
360
1A54
  0
DICTIONARY
  5
D
102
{ACAD_REACTORS
330
C
102
}
330
C
100
AcDbDictionary
  0
DICTIONARY
  5
1A
102
{ACAD_REACTORS
330
C
102
}
330
C
100
AcDbDictionary
  0
DICTIONARY
  5
17
102
{ACAD_REACTORS
330
C
102
}
330
C
100
AcDbDictionary
  3
STANDARD
350
18
  0
DICTIONARY
  5
19
102
{ACAD_REACTORS
330
C
102
}
330
C
100
AcDbDictionary
  0
ACDBDICTIONARYWDFLT
  5
E
102
{ACAD_REACTORS
330
C
102
}
330
C
100
AcDbDictionary
281
     1
  3
Normal
350
F
100
AcDbDictionaryWithDefault
340
F
  0
DICTIONARY
  5
34
102
{ACAD_REACTORS
330
C
102
}
330
C
100
AcDbDictionary
  3
INDEXCTL
350
35
  3
SORTENTS
350
B5E
  0
DICTIONARY
  5
43
102
{ACAD_REACTORS
330
C
102
}
330
C
100
AcDbDictionary
  3
ACMSTDDICTIONARY
350
260
  0
DICTIONARY
  5
2B
102
{ACAD_REACTORS
330
C
102
}
330
C
100
AcDbDictionary
  3
ACMGSETTINGS
350
2C
  0
DICTIONARY
  5
6E
102
{ACAD_REACTORS
330
C
102
}
330
C
100
AcDbDictionary
  0
XRECORD
  5
1A1F
102
{ACAD_REACTORS
330
C
102
}
330
C
100
AcDbXrecord
  1
DWGPROPS COOKIE
  2

  3

  4

  6

  7

  8

  9

300
AmdtFileType=82
301
=
302
=
303
=
304
=
305
=
306
=
307
=
308
=
309
=
 40
0.0349227546296296
 41
2452809.475734583
 42
2452844.564168646
  1

 90
        1
  0
DICTIONARY
  5
1A2B
102
{ACAD_REACTORS
330
C
102
}
330
C
100
AcDbDictionary
  3
TSTACKALIGN
350
1A2C
  3
TSTACKSIZE
350
1A2D
  3
HYPERLINKBASE
350
1A2E
  3
STYLESHEET
350
1A2F
  3
LAYOUTDICT
350
1A30
  3
PLOTSETDICT
350
1A31
  3
PLOTSTYLNAMDICT
350
1A32
  3
LWETCUNION
350
1A33
  3
INSUNITS
350
1A34
  3
CEPSNTYPE
350
1A35
  3
FINGERPRINTGUID
350
1A36
  3
VERSIONGUID
350
1A37
  3
PSVPSCALE
350
1A38
  3
DIMSTYLEDATA
350
1A39
  3
PUCSORTHOREF
350
1A3A
  3
PUCSORTHOVIEW
350
1A3B
  3
PUCSBASE
350
1A3C
  3
PUCSORGTOP
350
1A3D
  3
PUCSORGBOTTOM
350
1A3E
  3
PUCSORGLEFT
350
1A3F
  3
PUCSORGRIGHT
350
1A40
  3
PUCSORGFRONT
350
1A41
  3
PUCSORGBACK
350
1A42
  3
UCSORTHOREF
350
1A43
  3
UCSORTHOVIEW
350
1A44
  3
UCSBASE
350
1A45
  3
UCSORGTOP
350
1A46
  3
UCSORGBOTTOM
350
1A47
  3
UCSORGLEFT
350
1A48
  3
UCSORGRIGHT
350
1A49
  3
UCSORGFRONT
350
1A4A
  3
UCSORGBACK
350
1A4B
  0
DICTIONARY
  5
1A21
102
{ACAD_REACTORS
330
74
102
}
330
74
100
AcDbDictionary
  3
*A1
350
1A22
  0
XRECORD
  5
1A4E
102
{ACAD_REACTORS
330
74
102
}
330
74
100
AcDbXrecord
340
1F
  0
XRECORD
  5
1A54
102
{ACAD_REACTORS
330
1A53
102
}
330
1A53
100
AcDbXrecord
340
101
  0
MLINESTYLE
  5
18
102
{ACAD_REACTORS
330
17
102
}
330
17
100
AcDbMlineStyle
  2
STANDARD
 70
     0
  3

 62
   256
 51
90.0
 52
90.0
 71
     2
 49
0.5
 62
   256
  6
BYLAYER
 49
-0.5
 62
   256
  6
BYLAYER
  0
ACDBPLACEHOLDER
  5
F
102
{ACAD_REACTORS
330
E
102
}
330
E
100
AcDbPlaceHolder
280
     0
  0
DICTIONARYVAR
  5
35
102
{ACAD_REACTORS
330
34
102
}
330
34
100
DictionaryVariables
280
     0
  1
1
  0
DICTIONARYVAR
  5
B5E
102
{ACAD_REACTORS
330
34
102
}
330
34
100
DictionaryVariables
280
     0
  1
96
  0
DICTIONARY
  5
260
102
{ACAD_REACTORS
330
43
102
}
330
43
100
AcDbDictionary
  0
DICTIONARY
  5
2C
102
{ACAD_REACTORS
330
2B
102
}
330
2B
100
AcDbDictionary
  3
DWGSETTINGS
350
2D
  0
XRECORD
  5
1A2C
102
{ACAD_REACTORS
330
1A2B
102
}
330
1A2B
100
AcDbXrecord
 90
        1
  0
XRECORD
  5
1A2D
102
{ACAD_REACTORS
330
1A2B
102
}
330
1A2B
100
AcDbXrecord
 90
       70
  0
XRECORD
  5
1A2E
102
{ACAD_REACTORS
330
1A2B
102
}
330
1A2B
100
AcDbXrecord
  1

  0
XRECORD
  5
1A2F
102
{ACAD_REACTORS
330
1A2B
102
}
330
1A2B
100
AcDbXrecord
  1
ASAMI.ctb
  0
XRECORD
  5
1A30
102
{ACAD_REACTORS
330
1A2B
102
}
330
1A2B
100
AcDbXrecord
340
1A
  0
XRECORD
  5
1A31
102
{ACAD_REACTORS
330
1A2B
102
}
330
1A2B
100
AcDbXrecord
340
19
  0
XRECORD
  5
1A32
102
{ACAD_REACTORS
330
1A2B
102
}
330
1A2B
100
AcDbXrecord
340
E
  0
XRECORD
  5
1A33
102
{ACAD_REACTORS
330
1A2B
102
}
330
1A2B
100
AcDbXrecord
 90
    10781
  0
XRECORD
  5
1A34
102
{ACAD_REACTORS
330
1A2B
102
}
330
1A2B
100
AcDbXrecord
 90
        4
  0
XRECORD
  5
1A35
102
{ACAD_REACTORS
330
1A2B
102
}
330
1A2B
100
AcDbXrecord
 90
        0
  0
XRECORD
  5
1A36
102
{ACAD_REACTORS
330
1A2B
102
}
330
1A2B
100
AcDbXrecord
  1
{AFB28963-8C59-40AE-9337-C84526B81ACE}
  0
XRECORD
  5
1A37
102
{ACAD_REACTORS
330
1A2B
102
}
330
1A2B
100
AcDbXrecord
  1
{7666AB44-CEB8-460D-876F-5D93147FD147}
  0
XRECORD
  5
1A38
102
{ACAD_REACTORS
330
1A2B
102
}
330
1A2B
100
AcDbXrecord
 40
0.0
  0
XRECORD
  5
1A39
102
{ACAD_REACTORS
330
1A2B
102
}
330
1A2B
100
AcDbXrecord
1000
DSTYLE
1002
{
1070
    79
 70
     2
1070
   341
340
59
1070
   342
340
59
1070
   371
 70
    -1
1070
   372
 70
    -1
1002
}
  0
XRECORD
  5
1A3A
102
{ACAD_REACTORS
330
1A2B
102
}
330
1A2B
100
AcDbXrecord
340
0
  0
XRECORD
  5
1A3B
102
{ACAD_REACTORS
330
1A2B
102
}
330
1A2B
100
AcDbXrecord
 70
     0
  0
XRECORD
  5
1A3C
102
{ACAD_REACTORS
330
1A2B
102
}
330
1A2B
100
AcDbXrecord
340
0
  0
XRECORD
  5
1A3D
102
{ACAD_REACTORS
330
1A2B
102
}
330
1A2B
100
AcDbXrecord
 10
0.0
 20
0.0
 30
0.0
  0
XRECORD
  5
1A3E
102
{ACAD_REACTORS
330
1A2B
102
}
330
1A2B
100
AcDbXrecord
 10
0.0
 20
0.0
 30
0.0
  0
XRECORD
  5
1A3F
102
{ACAD_REACTORS
330
1A2B
102
}
330
1A2B
100
AcDbXrecord
 10
0.0
 20
0.0
 30
0.0
  0
XRECORD
  5
1A40
102
{ACAD_REACTORS
330
1A2B
102
}
330
1A2B
100
AcDbXrecord
 10
0.0
 20
0.0
 30
0.0
  0
XRECORD
  5
1A41
102
{ACAD_REACTORS
330
1A2B
102
}
330
1A2B
100
AcDbXrecord
 10
0.0
 20
0.0
 30
0.0
  0
XRECORD
  5
1A42
102
{ACAD_REACTORS
330
1A2B
102
}
330
1A2B
100
AcDbXrecord
 10
0.0
 20
0.0
 30
0.0
  0
XRECORD
  5
1A43
102
{ACAD_REACTORS
330
1A2B
102
}
330
1A2B
100
AcDbXrecord
340
0
  0
XRECORD
  5
1A44
102
{ACAD_REACTORS
330
1A2B
102
}
330
1A2B
100
AcDbXrecord
 70
     0
  0
XRECORD
  5
1A45
102
{ACAD_REACTORS
330
1A2B
102
}
330
1A2B
100
AcDbXrecord
340
0
  0
XRECORD
  5
1A46
102
{ACAD_REACTORS
330
1A2B
102
}
330
1A2B
100
AcDbXrecord
 10
0.0
 20
0.0
 30
0.0
  0
XRECORD
  5
1A47
102
{ACAD_REACTORS
330
1A2B
102
}
330
1A2B
100
AcDbXrecord
 10
0.0
 20
0.0
 30
0.0
  0
XRECORD
  5
1A48
102
{ACAD_REACTORS
330
1A2B
102
}
330
1A2B
100
AcDbXrecord
 10
0.0
 20
0.0
 30
0.0
  0
XRECORD
  5
1A49
102
{ACAD_REACTORS
330
1A2B
102
}
330
1A2B
100
AcDbXrecord
 10
0.0
 20
0.0
 30
0.0
  0
XRECORD
  5
1A4A
102
{ACAD_REACTORS
330
1A2B
102
}
330
1A2B
100
AcDbXrecord
 10
0.0
 20
0.0
 30
0.0
  0
XRECORD
  5
1A4B
102
{ACAD_REACTORS
330
1A2B
102
}
330
1A2B
100
AcDbXrecord
 10
0.0
 20
0.0
 30
0.0
  0
LAYER_INDEX
  5
1A22
102
{ACAD_REACTORS
330
1A21
102
}
330
1A21
100
AcDbIndex
 40
2452844.575214294
100
AcDbLayerIndex
  8
0
360
1A23
 90
        0
  8
AM_0
360
1A24
 90
       55
  8
AM_11
360
1A25
 90
        4
  8
AM_7
360
1A26
 90
        1
  8
AM_5
360
1A27
 90
        6
  8
Defpoints
360
1A28
 90
        0
  8
AM_6
360
1A29
 90
        1
  0
XRECORD
  5
2D
102
{ACAD_REACTORS
330
2C
102
}
330
2C
100
AcDbXrecord
  1
VERSION
140
15.0
  1
PRODUCT
  2
AutoCAD Mechanical 2000
  0
IDBUFFER
  5
1A23
330
0
100
AcDbIdBuffer
  0
IDBUFFER
  5
1A24
330
0
100
AcDbIdBuffer
330
13BB
330
13BC
330
13BD
330
18E8
330
18E9
330
1956
330
1957
330
1365
330
1366
330
1369
330
136A
330
136B
330
136C
330
136F
330
1370
330
1371
330
1372
330
1373
330
1374
330
1375
330
1376
330
1377
330
1378
330
1379
330
137A
330
137B
330
137C
330
137D
330
137E
330
137F
330
1380
330
1381
330
1382
330
1383
330
1384
330
1385
330
1386
330
1387
330
1388
330
1389
330
138A
330
138F
330
1390
330
1391
330
1392
330
1394
330
13A1
330
13B0
330
13B1
330
13B3
330
13B4
330
13B5
330
13B6
330
13B7
330
13BA
  0
IDBUFFER
  5
1A25
330
0
100
AcDbIdBuffer
330
138B
330
138C
330
1393
330
1979
  0
IDBUFFER
  5
1A26
330
0
100
AcDbIdBuffer
330
1367
  0
IDBUFFER
  5
1A27
330
0
100
AcDbIdBuffer
330
1363
330
1368
330
136D
330
136E
330
13B2
330
1983
  0
IDBUFFER
  5
1A28
330
0
100
AcDbIdBuffer
  0
IDBUFFER
  5
1A29
330
0
100
AcDbIdBuffer
330
1364
  0
ENDSEC
  0
EOF
