  0
SECTION
  2
HEADER
  9
$ACADVER
  1
AC1014
  9
$ACADMAINTVER
 70
     9
  9
$DWGCODEPAGE
  3
ANSI_932
  9
$INSBASE
 10
0.0
 20
0.0
 30
0.0
  9
$EXTMIN
 10
-57.66099700121461
 20
-27.25000100000011
 30
-0.00000001
  9
$EXTMAX
 10
12.05776903085517
 20
3.999999999999996
 30
0.00000001
  9
$LIMMIN
 10
-60.71435931714626
 20
-34.92577645780858
  9
$LIMMAX
 10
13.94654442377532
 20
13.17020708335411
  9
$ORTHOMODE
 70
     0
  9
$REGENMODE
 70
     1
  9
$FILLMODE
 70
     1
  9
$QTEXTMODE
 70
     0
  9
$MIRRTEXT
 70
     0
  9
$DRAGMODE
 70
     2
  9
$LTSCALE
 40
1.0
  9
$OSMODE
 70
    55
  9
$ATTMODE
 70
     1
  9
$TEXTSIZE
 40
2.5
  9
$TRACEWID
 40
1.0
  9
$TEXTSTYLE
  7
STANDARD
  9
$CLAYER
  8
AM_0
  9
$CELTYPE
  6
BYLAYER
  9
$CECOLOR
 62
   256
  9
$CELTSCALE
 40
1.0
  9
$DELOBJ
 70
     1
  9
$DISPSILH
 70
     0
  9
$DIMSCALE
 40
0.5
  9
$DIMASZ
 40
2.5
  9
$DIMEXO
 40
1.0
  9
$DIMDLI
 40
12.0
  9
$DIMRND
 40
0.0
  9
$DIMDLE
 40
0.0
  9
$DIMEXE
 40
1.0
  9
$DIMTP
 40
0.1
  9
$DIMTM
 40
0.1
  9
$DIMTXT
 40
3.2
  9
$DIMCEN
 40
0.0
  9
$DIMTSZ
 40
0.0
  9
$DIMTOL
 70
     0
  9
$DIMLIM
 70
     0
  9
$DIMTIH
 70
     0
  9
$DIMTOH
 70
     0
  9
$DIMSE1
 70
     0
  9
$DIMSE2
 70
     0
  9
$DIMTAD
 70
     3
  9
$DIMZIN
 70
     8
  9
$DIMBLK
  1
OPEN30
  9
$DIMASO
 70
     1
  9
$DIMSHO
 70
     1
  9
$DIMPOST
  1

  9
$DIMAPOST
  1
"
  9
$DIMALT
 70
     0
  9
$DIMALTD
 70
     2
  9
$DIMALTF
 40
0.0393701
  9
$DIMLFAC
 40
1.0
  9
$DIMTOFL
 70
     1
  9
$DIMTVP
 40
0.0
  9
$DIMTIX
 70
     0
  9
$DIMSOXD
 70
     0
  9
$DIMSAH
 70
     0
  9
$DIMBLK1
  1

  9
$DIMBLK2
  1

  9
$DIMSTYLE
  2
AM_JIS
  9
$DIMCLRD
 70
   256
  9
$DIMCLRE
 70
   256
  9
$DIMCLRT
 70
     2
  9
$DIMTFAC
 40
0.71
  9
$DIMGAP
 40
1.5
  9
$DIMJUST
 70
     0
  9
$DIMSD1
 70
     0
  9
$DIMSD2
 70
     0
  9
$DIMTOLJ
 70
     0
  9
$DIMTZIN
 70
     0
  9
$DIMALTZ
 70
     0
  9
$DIMALTTZ
 70
     0
  9
$DIMFIT
 70
     3
  9
$DIMUPT
 70
     0
  9
$DIMUNIT
 70
     2
  9
$DIMDEC
 70
     3
  9
$DIMTDEC
 70
     3
  9
$DIMALTU
 70
     2
  9
$DIMALTTD
 70
     2
  9
$DIMTXSTY
  7
ASAMI
  9
$DIMAUNIT
 70
     0
  9
$LUNITS
 70
     2
  9
$LUPREC
 70
     2
  9
$SKETCHINC
 40
1.0
  9
$FILLETRAD
 40
2.5
  9
$AUNITS
 70
     0
  9
$AUPREC
 70
     0
  9
$MENU
  1
.
  9
$ELEVATION
 40
0.0
  9
$PELEVATION
 40
0.0
  9
$THICKNESS
 40
0.0
  9
$LIMCHECK
 70
     0
  9
$BLIPMODE
 70
     0
  9
$CHAMFERA
 40
0.5
  9
$CHAMFERB
 40
0.5
  9
$CHAMFERC
 40
20.0
  9
$CHAMFERD
 40
0.0
  9
$SKPOLY
 70
     0
  9
$TDCREATE
 40
2452838.430434386
  9
$TDUPDATE
 40
2453151.731356677
  9
$TDINDWG
 40
0.5471638542
  9
$TDUSRTIMER
 40
0.5471638542
  9
$USRTIMER
 70
     1
  9
$ANGBASE
 50
0.0
  9
$ANGDIR
 70
     0
  9
$PDMODE
 70
     0
  9
$PDSIZE
 40
0.0
  9
$PLINEWID
 40
0.0
  9
$COORDS
 70
     1
  9
$SPLFRAME
 70
     0
  9
$SPLINETYPE
 70
     6
  9
$SPLINESEGS
 70
     8
  9
$ATTDIA
 70
     1
  9
$ATTREQ
 70
     1
  9
$HANDLING
 70
 12289
  9
$HANDSEED
  5
AAF3
  9
$SURFTAB1
 70
     6
  9
$SURFTAB2
 70
     6
  9
$SURFTYPE
 70
     6
  9
$SURFU
 70
     6
  9
$SURFV
 70
     6
  9
$UCSNAME
  2

  9
$UCSORG
 10
0.0
 20
0.0
 30
0.0
  9
$UCSXDIR
 10
1.0
 20
0.0
 30
0.0
  9
$UCSYDIR
 10
0.0
 20
1.0
 30
0.0
  9
$PUCSNAME
  2

  9
$PUCSORG
 10
0.0
 20
0.0
 30
0.0
  9
$PUCSXDIR
 10
1.0
 20
0.0
 30
0.0
  9
$PUCSYDIR
 10
0.0
 20
1.0
 30
0.0
  9
$USERI1
 70
     0
  9
$USERI2
 70
     0
  9
$USERI3
 70
     0
  9
$USERI4
 70
     0
  9
$USERI5
 70
     0
  9
$USERR1
 40
0.0
  9
$USERR2
 40
0.0
  9
$USERR3
 40
0.0
  9
$USERR4
 40
0.0
  9
$USERR5
 40
0.0
  9
$WORLDVIEW
 70
     1
  9
$SHADEDGE
 70
     3
  9
$SHADEDIF
 70
    70
  9
$TILEMODE
 70
     1
  9
$MAXACTVP
 70
    64
  9
$PINSBASE
 10
0.0
 20
0.0
 30
0.0
  9
$PLIMCHECK
 70
     0
  9
$PEXTMIN
 10
1.000000000000000E+20
 20
1.000000000000000E+20
 30
1.000000000000000E+20
  9
$PEXTMAX
 10
-1.000000000000000E+20
 20
-1.000000000000000E+20
 30
-1.000000000000000E+20
  9
$PLIMMIN
 10
0.0
 20
0.0
  9
$PLIMMAX
 10
841.0
 20
594.0
  9
$UNITMODE
 70
     0
  9
$VISRETAIN
 70
     1
  9
$PLINEGEN
 70
     0
  9
$PSLTSCALE
 70
     0
  9
$TREEDEPTH
 70
  3020
  9
$PICKSTYLE
 70
     0
  9
$CMLSTYLE
  2
STANDARD
  9
$CMLJUST
 70
     0
  9
$CMLSCALE
 40
20.0
  9
$PROXYGRAPHICS
 70
     1
  9
$MEASUREMENT
 70
     1
  0
ENDSEC
  0
SECTION
  2
CLASSES
  0
CLASS
  1
ACDBDICTIONARYWDFLT
  2
AcDbDictionaryWithDefault
  3
AutoCAD 2000
 90
        0
280
     0
281
     0
  0
CLASS
  1
ACDBPLACEHOLDER
  2
AcDbPlaceHolder
  3
AutoCAD 2000
 90
        0
280
     0
281
     0
  0
CLASS
  1
LAYOUT
  2
AcDbLayout
  3
AutoCAD 2000
 90
        0
280
     0
281
     0
  0
CLASS
  1
AMGSETTINGSOBJ
  2
AmgSettingsObj
  3
"AcadM|Product Description: AutoCAD Mechanical 2000|Company: Autodesk"
 90
        0
280
     0
281
     0
  0
CLASS
  1
ACME_DOCUMENT
  2
AcMeDbDoc
  3
AcMeServices
 90
        0
280
     0
281
     0
  0
CLASS
  1
ACMESCOPE
  2
AcMeScope
  3
AcMeServices
 90
        0
280
     0
281
     0
  0
CLASS
  1
ACMECOMMANDHISTORY
  2
AcMeCommandHistory
  3
AcMeServices
 90
        0
280
     0
281
     0
  0
CLASS
  1
DICTIONARYVAR
  2
AcDbDictionaryVar
  3
AutoCAD 2000
 90
        0
280
     0
281
     0
  0
CLASS
  1
ACIMSYSVARMAN
  2
AcImSysVarManager
  3
AcMeServices
 90
        0
280
     0
281
     0
  0
CLASS
  1
ACIMREALSYSVAR
  2
AcImRealSysVar
  3
AcMeServices
 90
        0
280
     0
281
     0
  0
CLASS
  1
ACIMINTSYSVAR
  2
AcImIntSysVar
  3
AcMeServices
 90
        0
280
     0
281
     0
  0
CLASS
  1
ACMEDRAWINGMAN
  2
AcMeDrawingMan
  3
AcMeServices
 90
        0
280
     0
281
     0
  0
CLASS
  1
ACMEVIEW
  2
AcMeView
  3
AcMeServices
 90
        0
280
     0
281
     0
  0
CLASS
  1
ACDBENTITYCACHE
  2
AcMeEntityCache
  3
AcMeServices
 90
        0
280
     0
281
     0
  0
CLASS
  1
GSMANAGER
  2
AcMeGSManager
  3
AcMeServices
 90
        0
280
     0
281
     0
  0
CLASS
  1
AmdtInternalReactor
  2
AmdtInternalReactor
  3
AcMeServices
 90
        0
280
     0
281
     0
  0
CLASS
  1
ACMESTATEMGR
  2
AcMeStateMgr
  3
AcMeServices
 90
        0
280
     0
281
     0
  0
CLASS
  1
ACME_DATABASE
  2
AcMeDbDatabase
  3
AcMeServices
 90
        0
280
     0
281
     0
  0
CLASS
  1
ACRFINSADJUSTERMGR
  2
AcRfInsAdjusterMgr
  3
AcMeServices
 90
        0
280
     0
281
     0
  0
CLASS
  1
ACMDATADICTIONARY
  2
AcmDataDictionary
  3
"AcmSymBB|Product Description: AutoCAD Mechanical 2000|Company: Autodesk"
 90
        0
280
     0
281
     0
  0
CLASS
  1
ACMDATAENTRYBLOCK
  2
AcmDataEntryBlock
  3
"AcmSymBB|Product Description: AutoCAD Mechanical 2000|Company: Autodesk"
 90
        0
280
     0
281
     0
  0
CLASS
  1
AMGOBJPROPCFG
  2
AmgObjPropCfg
  3
"AmgLay|Product Description: AutoCAD Mechanical 2000|Company: Autodesk"
 90
        1
280
     0
281
     0
  0
CLASS
  1
ACAMGFILTERDAT
  2
AcAmgFilterDat
  3
"AcadM|Product Description: AutoCAD Mechanical 2000|Company: Autodesk"
 90
        0
280
     0
281
     0
  0
CLASS
  1
LAYER_INDEX
  2
AcDbLayerIndex
  3
AutoCAD 2000
 90
        0
280
     0
281
     0
  0
CLASS
  1
IDBUFFER
  2
AcDbIdBuffer
  3
AutoCAD 2000
 90
        0
280
     0
281
     0
  0
CLASS
  1
ACIMSTRSYSVAR
  2
AcImStrSysVar
  3
AcMeServices
 90
        0
280
     0
281
     0
  0
CLASS
  1
ACMSTANDARDJIS
  2
AcmStandardJIS
  3
"AcmSymBB|Product Description: AutoCAD Mechanical 2000|Company: Autodesk"
 90
        0
280
     0
281
     0
  0
CLASS
  1
ACMSURFSTANDARDJIS
  2
AcmSurfTextStdJIS
  3
"AcmSymBB|Product Description: AutoCAD Mechanical 2000|Company: Autodesk"
 90
        0
280
     0
281
     0
  0
CLASS
  1
ACMFCFSTANDARDJIS
  2
AcmFCFStdJIS
  3
"AcmSymBB|Product Description: AutoCAD Mechanical 2000|Company: Autodesk"
 90
        0
280
     0
281
     0
  0
CLASS
  1
ACMWELDSTANDARDJIS
  2
AcmWeldingStdJIS
  3
"AcmSymBB|Product Description: AutoCAD Mechanical 2000|Company: Autodesk"
 90
        0
280
     0
281
     0
  0
CLASS
  1
ACMIDSTANDARDJIS
  2
AcmIdStdJIS
  3
"AcmSymBB|Product Description: AutoCAD Mechanical 2000|Company: Autodesk"
 90
        0
280
     0
281
     0
  0
CLASS
  1
ACMDATUMSTANDARDJIS
  2
AcmDatumStdJIS
  3
"AcmSymBB|Product Description: AutoCAD Mechanical 2000|Company: Autodesk"
 90
        0
280
     0
281
     0
  0
CLASS
  1
ACMBOMSTANDARDJIS
  2
AcmBOMStdJIS
  3
"AcmSymBB|Product Description: AutoCAD Mechanical 2000|Company: Autodesk"
 90
        0
280
     0
281
     0
  0
CLASS
  1
ACMSTANDARDANSI
  2
AcmStandardANSI
  3
"AcmSymBB|Product Description: AutoCAD Mechanical 2000|Company: Autodesk"
 90
        0
280
     0
281
     0
  0
CLASS
  1
ACMSURFSTANDARDANSI
  2
AcmSurfTextStdANSI
  3
"AcmSymBB|Product Description: AutoCAD Mechanical 2000|Company: Autodesk"
 90
        0
280
     0
281
     0
  0
CLASS
  1
ACMFCFSTANDARDANSI
  2
AcmFCFStdANSI
  3
"AcmSymBB|Product Description: AutoCAD Mechanical 2000|Company: Autodesk"
 90
        0
280
     0
281
     0
  0
CLASS
  1
ACMWELDSTANDARDANSI
  2
AcmWeldingStdANSI
  3
"AcmSymBB|Product Description: AutoCAD Mechanical 2000|Company: Autodesk"
 90
        0
280
     0
281
     0
  0
CLASS
  1
ACMIDSTANDARDANSI
  2
AcmIdStdANSI
  3
"AcmSymBB|Product Description: AutoCAD Mechanical 2000|Company: Autodesk"
 90
        0
280
     0
281
     0
  0
CLASS
  1
ACMDATUMSTANDARDANSI
  2
AcmDatumStdANSI
  3
"AcmSymBB|Product Description: AutoCAD Mechanical 2000|Company: Autodesk"
 90
        0
280
     0
281
     0
  0
CLASS
  1
ACMBOMSTANDARDANSI
  2
AcmBOMStdANSI
  3
"AcmSymBB|Product Description: AutoCAD Mechanical 2000|Company: Autodesk"
 90
        0
280
     0
281
     0
  0
CLASS
  1
ACMSTANDARDBSI
  2
AcmStandardBSI
  3
"AcmSymBB|Product Description: AutoCAD Mechanical 2000|Company: Autodesk"
 90
        0
280
     0
281
     0
  0
CLASS
  1
ACMSURFSTANDARDBSI
  2
AcmSurfTextStdBSI
  3
"AcmSymBB|Product Description: AutoCAD Mechanical 2000|Company: Autodesk"
 90
        0
280
     0
281
     0
  0
CLASS
  1
ACMFCFSTANDARDBSI
  2
AcmFCFStdBSI
  3
"AcmSymBB|Product Description: AutoCAD Mechanical 2000|Company: Autodesk"
 90
        0
280
     0
281
     0
  0
CLASS
  1
ACMWELDSTANDARDBSI
  2
AcmWeldingStdBSI
  3
"AcmSymBB|Product Description: AutoCAD Mechanical 2000|Company: Autodesk"
 90
        0
280
     0
281
     0
  0
CLASS
  1
ACMIDSTANDARDBSI
  2
AcmIdStdBSI
  3
"AcmSymBB|Product Description: AutoCAD Mechanical 2000|Company: Autodesk"
 90
        0
280
     0
281
     0
  0
CLASS
  1
ACMDATUMSTANDARDBSI
  2
AcmDatumStdBSI
  3
"AcmSymBB|Product Description: AutoCAD Mechanical 2000|Company: Autodesk"
 90
        0
280
     0
281
     0
  0
CLASS
  1
ACMBOMSTANDARDBSI
  2
AcmBOMStdBSI
  3
"AcmSymBB|Product Description: AutoCAD Mechanical 2000|Company: Autodesk"
 90
        0
280
     0
281
     0
  0
CLASS
  1
LONG_TRANSACTION
  2
AcDbLongTransaction
  3
AutoCAD 2000
 90
        0
280
     0
281
     0
  0
CLASS
  1
LWPOLYLINE
  2
AcDbPolyline
  3
AutoCAD 2000
 90
        0
280
     0
281
     1
  0
CLASS
  1
HATCH
  2
AcDbHatch
  3
AutoCAD 2000
 90
        0
280
     0
281
     1
  0
CLASS
  1
XRECORD
  2
AcDbXrecord
  3
AutoCAD 2000
 90
        0
280
     0
281
     0
  0
ENDSEC
  0
SECTION
  2
TABLES
  0
TABLE
  2
VPORT
  5
8
330
0
100
AcDbSymbolTable
 70
     3
  0
VPORT
  5
AABD
330
8
100
AcDbSymbolTableRecord
100
AcDbViewportTableRecord
  2
*ACTIVE
 70
     0
 10
0.0
 20
0.0
 11
1.0
 21
1.0
 12
-19.04666636864229
 22
-9.347380476641532
 13
0.0
 23
0.0
 14
2.5
 24
2.5
 15
10.0
 25
10.0
 16
0.0
 26
0.0
 36
1.0
 17
0.0
 27
0.0
 37
0.0
 40
52.47132906457719
 41
1.56570841889117
 42
50.0
 43
0.0
 44
0.0
 50
0.0
 51
0.0
 71
     0
 72
   100
 73
     1
 74
     3
 75
     0
 76
     0
 77
     0
 78
     0
  0
ENDTAB
  0
TABLE
  2
LTYPE
  5
5
330
0
100
AcDbSymbolTable
 70
    10
  0
LTYPE
  5
14
330
5
100
AcDbSymbolTableRecord
100
AcDbLinetypeTableRecord
  2
BYBLOCK
 70
     0
  3

 72
    65
 73
     0
 40
0.0
  0
LTYPE
  5
15
330
5
100
AcDbSymbolTableRecord
100
AcDbLinetypeTableRecord
  2
BYLAYER
 70
     0
  3

 72
    65
 73
     0
 40
0.0
  0
LTYPE
  5
16
330
5
100
AcDbSymbolTableRecord
100
AcDbLinetypeTableRecord
  2
CONTINUOUS
 70
     0
  3
Solid line
 72
    65
 73
     0
 40
0.0
  0
LTYPE
  5
4B
330
5
100
AcDbSymbolTableRecord
100
AcDbLinetypeTableRecord
  2
AM_ISO02W050
 70
     0
  3
__ __ __ __ __ __ __ __ __ __ __ __ __ __ __
 72
    65
 73
     2
 40
7.5
 49
6.0
 74
     0
 49
-1.5
 74
     0
  0
LTYPE
  5
4C
330
5
100
AcDbSymbolTableRecord
100
AcDbLinetypeTableRecord
  2
AM_ISO08W050
 70
     0
  3
____ . ____ . ____ . ____ . ____ . ____ . ____
 72
    65
 73
     4
 40
18.0
 49
12.0
 74
     0
 49
-1.5
 74
     0
 49
3.0
 74
     0
 49
-1.5
 74
     0
  0
LTYPE
  5
4D
330
5
100
AcDbSymbolTableRecord
100
AcDbLinetypeTableRecord
  2
AM_ISO09W050
 70
     0
  3
_____ . . _____ . . _____ . . ____ .. ____
 72
    65
 73
     6
 40
22.5
 49
12.0
 74
     0
 49
-1.5
 74
     0
 49
3.0
 74
     0
 49
-1.5
 74
     0
 49
3.0
 74
     0
 49
-1.5
 74
     0
  0
LTYPE
  5
4E
330
5
100
AcDbSymbolTableRecord
100
AcDbLinetypeTableRecord
  2
AMCONSTR
 70
     0
  3
_______________________
 72
    65
 73
     2
 40
9999.0
 49
9999.0
 74
     0
 49
0.0
 74
     0
  0
LTYPE
  5
4F
330
5
100
AcDbSymbolTableRecord
100
AcDbLinetypeTableRecord
  2
AM_ISO02W050X2
 70
     0
  3
 _ _ _ _ _ _ _ _ _ _ _ _
 72
    65
 73
     2
 40
3.75
 49
3.0
 74
     0
 49
-0.75
 74
     0
  0
LTYPE
  5
50
330
5
100
AcDbSymbolTableRecord
100
AcDbLinetypeTableRecord
  2
AM_ISO08W050X2
 70
     0
  3
__ . __ . __ . __ . __ . __
 72
    65
 73
     4
 40
9.0
 49
6.0
 74
     0
 49
-0.75
 74
     0
 49
1.5
 74
     0
 49
-0.75
 74
     0
  0
LTYPE
  5
53
330
5
100
AcDbSymbolTableRecord
100
AcDbLinetypeTableRecord
  2
AMZIGZAG
 70
     0
  3
/\/-/\/-/\/-/\/-/\/-/\/
 72
    65
 73
     2
 40
11.00009999999999
 49
0.0001
 74
     4
 75
   135
340
52
 46
0.04
 50
0.0
 44
0.0
 45
0.0
 49
-11.0
 74
     0
  0
LTYPE
  5
166
330
5
100
AcDbSymbolTableRecord
100
AcDbLinetypeTableRecord
  2
ACJISTGL
 70
     0
  3
_ _ _ _ _
 72
    65
 73
     2
 40
3.0
 49
2.0
 74
     0
 49
-1.0
 74
     0
  0
LTYPE
  5
26A
330
5
100
AcDbSymbolTableRecord
100
AcDbLinetypeTableRecord
  2
ACJISTGB
 70
     0
  3
__ . . __ . .
 72
    65
 73
     6
 40
9.0
 49
4.0
 74
     0
 49
-1.0
 74
     0
 49
1.0
 74
     0
 49
-1.0
 74
     0
 49
1.0
 74
     0
 49
-1.0
 74
     0
  0
ENDTAB
  0
TABLE
  2
LAYER
  5
2
330
0
100
AcDbSymbolTable
 70
     7
  0
LAYER
  5
10
330
2
100
AcDbSymbolTableRecord
100
AcDbLayerTableRecord
  2
0
 70
     0
 62
     7
  6
CONTINUOUS
  0
LAYER
  5
3F9
330
2
100
AcDbSymbolTableRecord
100
AcDbLayerTableRecord
  2
AM_0
 70
     0
 62
     7
  6
CONTINUOUS
  0
LAYER
  5
BDD
330
2
100
AcDbSymbolTableRecord
100
AcDbLayerTableRecord
  2
AM_11
 70
     0
 62
     3
  6
AM_ISO09W050
  0
LAYER
  5
BDE
330
2
100
AcDbSymbolTableRecord
100
AcDbLayerTableRecord
  2
AM_7
 70
     0
 62
     4
  6
AM_ISO08W050
  0
LAYER
  5
BDF
330
2
100
AcDbSymbolTableRecord
100
AcDbLayerTableRecord
  2
AM_5
 70
     0
 62
     3
  6
CONTINUOUS
  0
LAYER
  5
BE0
330
2
100
AcDbSymbolTableRecord
100
AcDbLayerTableRecord
  2
DEFPOINTS
 70
     0
 62
     7
  6
CONTINUOUS
  0
LAYER
  5
14FF
330
2
100
AcDbSymbolTableRecord
100
AcDbLayerTableRecord
  2
AM_6
 70
     0
 62
     2
  6
CONTINUOUS
  0
ENDTAB
  0
TABLE
  2
STYLE
  5
3
330
0
100
AcDbSymbolTable
 70
     5
  0
STYLE
  5
11
330
3
100
AcDbSymbolTableRecord
100
AcDbTextStyleTableRecord
  2
STANDARD
 70
     0
 40
0.0
 41
1.0
 50
0.0
 71
     0
 42
2.5
  3
simplex.shx
  4
EXTFONT.SHX
  0
STYLE
  5
52
330
3
100
AcDbSymbolTableRecord
100
AcDbTextStyleTableRecord
  2

 70
     1
 40
0.0
 41
1.0
 50
0.0
 71
     0
 42
2.5
  3
ltypeshp.shx
  4

  0
STYLE
  5
6B
330
3
100
AcDbSymbolTableRecord
100
AcDbTextStyleTableRecord
  2
ASAMI
 70
     0
 40
0.0
 41
1.0
 50
0.0
 71
     0
 42
2.5
  3
simplex.shx
  4
EXTFONT.SHX
  0
STYLE
  5
262
330
3
100
AcDbSymbolTableRecord
100
AcDbTextStyleTableRecord
  2
ACJISTS
 70
     0
 40
1.0
 41
1.0
 50
0.0
 71
     0
 42
2.5
  3
simplex.shx
  4
bigfont.shx
  0
STYLE
  5
269
330
3
100
AcDbSymbolTableRecord
100
AcDbTextStyleTableRecord
  2
ACJISGDT
 70
     0
 40
0.0
 41
1.0
 50
0.0
 71
     0
 42
2.5
  3
amgdtans.shx
  4

  0
ENDTAB
  0
TABLE
  2
VIEW
  5
6
330
0
100
AcDbSymbolTable
 70
     0
  0
ENDTAB
  0
TABLE
  2
UCS
  5
7
330
0
100
AcDbSymbolTable
 70
     0
  0
ENDTAB
  0
TABLE
  2
APPID
  5
9
330
0
100
AcDbSymbolTable
 70
    13
  0
APPID
  5
12
330
9
100
AcDbSymbolTableRecord
100
AcDbRegAppTableRecord
  2
ACAD
 70
     0
  0
APPID
  5
30
330
9
100
AcDbSymbolTableRecord
100
AcDbRegAppTableRecord
  2
MCAD_NO_VIS
 70
     0
  0
APPID
  5
31
330
9
100
AcDbSymbolTableRecord
100
AcDbRegAppTableRecord
  2
ACAD_TEMP_GRAPHIC
 70
     0
  0
APPID
  5
2C2
330
9
100
AcDbSymbolTableRecord
100
AcDbRegAppTableRecord
  2
GENIUS_GENDTOL_13
 70
     0
  0
APPID
  5
339
330
9
100
AcDbSymbolTableRecord
100
AcDbRegAppTableRecord
  2
GENIUS_GENODEF_13
 70
     0
  0
APPID
  5
33A
330
9
100
AcDbSymbolTableRecord
100
AcDbRegAppTableRecord
  2
GENIUS_GENOBJ-N-RSBK_13
 70
     0
  0
APPID
  5
33B
330
9
100
AcDbSymbolTableRecord
100
AcDbRegAppTableRecord
  2
GENIUS_GENOBJ-N-LIB_13
 70
     0
  0
APPID
  5
33C
330
9
100
AcDbSymbolTableRecord
100
AcDbRegAppTableRecord
  2
GENIUS_GENSCALE_13
 70
     0
  0
APPID
  5
378
330
9
100
AcDbSymbolTableRecord
100
AcDbRegAppTableRecord
  2
GENIUS_GENDIMSH_14
 70
     0
  0
APPID
  5
BE1
330
9
100
AcDbSymbolTableRecord
100
AcDbRegAppTableRecord
  2
GENIUS_GENFIL_13
 70
     0
  0
APPID
  5
BE2
330
9
100
AcDbSymbolTableRecord
100
AcDbRegAppTableRecord
  2
GENIUS_GENOBJ-N-CHA_13
 70
     0
  0
APPID
  5
151B
330
9
100
AcDbSymbolTableRecord
100
AcDbRegAppTableRecord
  2
DCO15
 70
     0
  0
APPID
  5
1860
330
9
100
AcDbSymbolTableRecord
100
AcDbRegAppTableRecord
  2
GENIUS_GENOBJ-N-CEN_13
 70
     0
  0
ENDTAB
  0
TABLE
  2
DIMSTYLE
  5
A
330
0
100
AcDbSymbolTable
 70
     8
  0
DIMSTYLE
105
58
102
{ACAD_REACTORS
330
A215
330
A2A1
330
A4B6
330
A391
102
}
330
A
100
AcDbSymbolTableRecord
100
AcDbDimStyleTableRecord
  2
AM_JIS
 70
     0
  3

  4
"
  5
OPEN30
  6

  7

 40
0.5
 41
2.5
 42
1.0
 43
12.0
 44
1.0
 45
0.0
 46
0.0
 47
0.1
 48
0.1
140
3.2
141
0.0
142
0.0
143
0.0393701
144
1.0
145
0.0
146
0.71
147
1.5
 71
     0
 72
     0
 73
     0
 74
     0
 75
     0
 76
     0
 77
     3
 78
     8
170
     0
171
     2
172
     1
173
     0
174
     0
175
     0
176
   256
177
   256
178
     2
270
     2
271
     3
272
     3
273
     2
274
     2
340
6B
275
     0
280
     0
281
     0
282
     0
283
     0
284
     0
285
     0
286
     0
287
     3
288
     0
  0
DIMSTYLE
105
5F
330
A
100
AcDbSymbolTableRecord
100
AcDbDimStyleTableRecord
  2
AM_JIS$3
 70
     0
  3

  4
"
  5
OPEN30
  6

  7

 40
0.5
 41
2.5
 42
1.0
 43
10.0
 44
1.0
 45
0.0
 46
0.0
 47
0.1
 48
0.1
140
3.2
141
0.0
142
0.0
143
0.0393701
144
1.0
145
0.0
146
0.71
147
1.5
 71
     0
 72
     0
 73
     0
 74
     1
 75
     0
 76
     0
 77
     3
 78
     8
170
     0
171
     2
172
     0
173
     0
174
     0
175
     0
176
   256
177
   256
178
     2
270
     2
271
     2
272
     3
273
     2
274
     2
340
6B
275
     0
280
     0
281
     0
282
     0
283
     0
284
     0
285
     0
286
     0
287
     0
288
     1
  0
DIMSTYLE
105
60
330
A
100
AcDbSymbolTableRecord
100
AcDbDimStyleTableRecord
  2
AM_JIS$4
 70
     0
  3

  4
"
  5
OPEN30
  6

  7

 40
0.5
 41
2.5
 42
1.0
 43
10.0
 44
1.0
 45
0.0
 46
0.0
 47
0.1
 48
0.1
140
3.2
141
0.0
142
0.0
143
0.0393701
144
1.0
145
0.0
146
0.71
147
1.5
 71
     0
 72
     0
 73
     0
 74
     1
 75
     0
 76
     0
 77
     3
 78
     8
170
     0
171
     2
172
     0
173
     0
174
     0
175
     0
176
   256
177
   256
178
     2
270
     2
271
     2
272
     3
273
     2
274
     2
340
6B
275
     0
280
     0
281
     0
282
     0
283
     0
284
     0
285
     0
286
     0
287
     0
288
     1
  0
DIMSTYLE
105
61
330
A
100
AcDbSymbolTableRecord
100
AcDbDimStyleTableRecord
  2
AM_JIS$6
 70
     0
  3

  4
"
  5
OPEN30
  6

  7

 40
0.5
 41
2.5
 42
1.0
 43
10.0
 44
1.0
 45
0.0
 46
0.0
 47
0.1
 48
0.1
140
3.2
141
0.0
142
0.0
143
0.0393701
144
1.0
145
0.0
146
0.71
147
1.5
 71
     0
 72
     0
 73
     0
 74
     0
 75
     0
 76
     0
 77
     0
 78
     8
170
     0
171
     2
172
     1
173
     0
174
     0
175
     0
176
   256
177
   256
178
     2
270
     2
271
     2
272
     2
273
     2
274
     2
340
6B
275
     0
280
     0
281
     0
282
     0
283
     0
284
     0
285
     0
286
     0
287
     3
288
     0
  0
DIMSTYLE
105
62
330
A
100
AcDbSymbolTableRecord
100
AcDbDimStyleTableRecord
  2
AM_JIS$7
 70
     0
  3

  4
"
  5
OPEN30
  6

  7

 40
0.5
 41
2.5
 42
1.0
 43
10.0
 44
1.0
 45
0.0
 46
0.0
 47
0.1
 48
0.1
140
3.2
141
0.0
142
0.0
143
0.0393701
144
1.0
145
0.0
146
0.71
147
1.5
 71
     0
 72
     0
 73
     0
 74
     0
 75
     0
 76
     0
 77
     3
 78
     8
170
     0
171
     2
172
     1
173
     0
174
     0
175
     0
176
   256
177
   256
178
     2
270
     2
271
     2
272
     3
273
     2
274
     2
340
6B
275
     0
280
     0
281
     0
282
     0
283
     0
284
     0
285
     0
286
     0
287
     3
288
     0
  0
DIMSTYLE
105
63
330
A
100
AcDbSymbolTableRecord
100
AcDbDimStyleTableRecord
  2
AM_JIS$SF
 70
     0
  3

  4
"
  5
OPEN30
  6

  7

 40
0.5
 41
2.5
 42
1.0
 43
10.0
 44
1.0
 45
0.0
 46
0.0
 47
0.1
 48
0.1
140
3.2
141
0.0
142
0.0
143
0.0393701
144
1.0
145
0.0
146
0.71
147
1.5
 71
     0
 72
     0
 73
     0
 74
     0
 75
     1
 76
     1
 77
     3
 78
     8
170
     0
171
     2
172
     1
173
     0
174
     0
175
     0
176
   256
177
   256
178
     2
270
     2
271
     2
272
     2
273
     2
274
     2
340
6B
275
     0
280
     0
281
     0
282
     0
283
     0
284
     0
285
     0
286
     0
287
     3
288
     0
  0
DIMSTYLE
105
68
330
A
100
AcDbSymbolTableRecord
100
AcDbDimStyleTableRecord
  2
AM_JIS$SH
 70
     0
  3

  4
"
  5

  6
GENAXEH
  7
OPEN30
 40
0.5
 41
2.5
 42
1.0
 43
10.0
 44
1.0
 45
0.0
 46
0.0
 47
0.1
 48
0.1
140
3.2
141
0.0
142
0.0
143
0.0393701
144
2.0
145
0.0
146
0.71
147
1.5
 71
     0
 72
     0
 73
     0
 74
     0
 75
     1
 76
     1
 77
     3
 78
     8
170
     0
171
     2
172
     1
173
     1
174
     0
175
     0
176
   256
177
   256
178
     2
270
     2
271
     2
272
     2
273
     2
274
     2
340
6B
275
     0
280
     0
281
     0
282
     0
283
     0
284
     0
285
     0
286
     0
287
     3
288
     0
  0
DIMSTYLE
105
B34
330
A
100
AcDbSymbolTableRecord
100
AcDbDimStyleTableRecord
  2
AM_JIS$2
 70
     0
  3

  4
"
  5
OPEN30
  6

  7

 40
0.5
 41
2.5
 42
1.0
 43
12.0
 44
1.0
 45
0.0
 46
0.0
 47
0.1
 48
0.1
140
3.2
141
0.0
142
0.0
143
0.0393701
144
1.0
145
0.0
146
0.71
147
1.5
 71
     0
 72
     0
 73
     0
 74
     0
 75
     0
 76
     0
 77
     3
 78
     8
170
     0
171
     2
172
     1
173
     0
174
     0
175
     0
176
   256
177
   256
178
     2
270
     2
271
     3
272
     3
273
     2
274
     2
340
6B
275
     0
280
     0
281
     0
282
     0
283
     0
284
     0
285
     0
286
     0
287
     3
288
     0
  0
ENDTAB
  0
TABLE
  2
BLOCK_RECORD
  5
1
330
0
100
AcDbSymbolTable
 70
     9
  0
BLOCK_RECORD
  5
1F
102
{ACAD_XDICTIONARY
360
74
102
}
330
1
100
AcDbSymbolTableRecord
100
AcDbBlockTableRecord
  2
*MODEL_SPACE
  0
BLOCK_RECORD
  5
101
102
{ACAD_XDICTIONARY
360
AAE6
102
}
330
1
100
AcDbSymbolTableRecord
100
AcDbBlockTableRecord
  2
*PAPER_SPACE
  0
BLOCK_RECORD
  5
59
330
1
100
AcDbSymbolTableRecord
100
AcDbBlockTableRecord
  2
_OPEN30
  0
BLOCK_RECORD
  5
64
330
1
100
AcDbSymbolTableRecord
100
AcDbBlockTableRecord
  2
GENAXEH
  0
BLOCK_RECORD
  5
A216
330
1
100
AcDbSymbolTableRecord
100
AcDbBlockTableRecord
  2
*D5
  0
BLOCK_RECORD
  5
A2A2
330
1
100
AcDbSymbolTableRecord
100
AcDbBlockTableRecord
  2
*D6
  0
BLOCK_RECORD
  5
A392
330
1
100
AcDbSymbolTableRecord
100
AcDbBlockTableRecord
  2
*D7
  0
BLOCK_RECORD
  5
A4B7
330
1
100
AcDbSymbolTableRecord
100
AcDbBlockTableRecord
  2
*D8
  0
ENDTAB
  0
ENDSEC
  0
SECTION
  2
BLOCKS
  0
BLOCK
  5
20
330
1F
100
AcDbEntity
  8
0
100
AcDbBlockBegin
  2
*MODEL_SPACE
 70
     0
 10
0.0
 20
0.0
 30
0.0
  3
*MODEL_SPACE
  1

  0
ENDBLK
  5
21
330
1F
100
AcDbEntity
  8
0
100
AcDbBlockEnd
  0
BLOCK
  5
103
330
101
100
AcDbEntity
 67
     1
  8
0
100
AcDbBlockBegin
  2
*PAPER_SPACE
 70
     0
 10
0.0
 20
0.0
 30
0.0
  3
*PAPER_SPACE
  1

  0
ENDBLK
  5
104
330
101
100
AcDbEntity
 67
     1
  8
0
100
AcDbBlockEnd
  0
BLOCK
  5
5D
330
59
100
AcDbEntity
  8
0
100
AcDbBlockBegin
  2
_OPEN30
 70
     0
 10
0.0
 20
0.0
 30
0.0
  3
_OPEN30
  1

  0
LINE
  5
5A
330
59
100
AcDbEntity
  8
0
 62
     0
100
AcDbLine
 10
-1.0
 20
0.26794919
 30
0.0
 11
0.0
 21
0.0
 31
0.0
  0
LINE
  5
5B
330
59
100
AcDbEntity
  8
0
 62
     0
100
AcDbLine
 10
0.0
 20
0.0
 30
0.0
 11
-1.0
 21
-0.26794919
 31
0.0
  0
LINE
  5
5C
330
59
100
AcDbEntity
  8
0
 62
     0
100
AcDbLine
 10
0.0
 20
0.0
 30
0.0
 11
-1.0
 21
0.0
 31
0.0
  0
ENDBLK
  5
5E
330
59
100
AcDbEntity
  8
0
100
AcDbBlockEnd
  0
BLOCK
  5
66
330
64
100
AcDbEntity
  8
0
100
AcDbBlockBegin
  2
GENAXEH
 70
     0
 10
0.0
 20
0.0
 30
0.0
  3
GENAXEH
  1

  0
LINE
  5
65
330
64
100
AcDbEntity
  8
0
100
AcDbLine
 10
-1.0
 20
0.0
 30
0.0
 11
1.0
 21
0.0
 31
0.0
  0
ENDBLK
  5
67
330
64
100
AcDbEntity
  8
0
100
AcDbBlockEnd
  0
BLOCK
  5
A220
330
A216
100
AcDbEntity
  8
0
100
AcDbBlockBegin
  2
*D5
 70
     1
 10
0.0
 20
0.0
 30
0.0
  3
*D5
  1

  0
LINE
  5
A656
330
A216
100
AcDbEntity
  8
AM_5
100
AcDbLine
 10
0.0000000000000061
 20
-3.000000000000015
 30
0.0
 11
0.0000000000000053
 21
-16.50000100000011
 31
0.0
  0
LINE
  5
A657
330
A216
100
AcDbEntity
  8
AM_5
100
AcDbLine
 10
-45.0
 20
-3.000000000000064
 30
0.0
 11
-45.0
 21
-16.50000100000011
 31
0.0
  0
LINE
  5
A658
330
A216
100
AcDbEntity
  8
AM_5
100
AcDbLine
 10
-1.249999999999994
 20
-16.00000100000011
 30
0.0
 11
-43.75
 21
-16.00000100000011
 31
0.0
  0
INSERT
  5
A659
330
A216
100
AcDbEntity
  8
AM_5
100
AcDbBlockReference
  2
_OPEN30
 10
0.0000000000000053
 20
-16.00000100000011
 30
0.0
 41
1.25
 42
1.25
 43
1.25
  0
INSERT
  5
A65A
330
A216
100
AcDbEntity
  8
AM_5
100
AcDbBlockReference
  2
_OPEN30
 10
-45.0
 20
-16.00000100000011
 30
0.0
 41
1.25
 42
1.25
 43
1.25
 50
180.0
  0
MTEXT
  5
A65B
330
A216
100
AcDbEntity
  8
AM_5
 62
     2
100
AcDbMText
 10
-22.49999999999999
 20
-14.45000100000011
 30
0.0
 40
1.6
 41
0.0
 71
     5
 72
     1
  1
45
  7
ASAMI
1001
ACAD
1000
MTEXTBEGIN
1070
    73
1070
     1
1070
    44
1040
1.0
1070
    74
1070
     0
1000
MTEXTEND
  0
POINT
  5
A65C
330
A216
100
AcDbEntity
  8
DEFPOINTS
 62
     0
100
AcDbPoint
 10
0.0000000000000061
 20
-2.500000000000015
 30
0.0
  0
POINT
  5
A65D
330
A216
100
AcDbEntity
  8
DEFPOINTS
 62
     0
100
AcDbPoint
 10
-45.0
 20
-2.500000000000064
 30
0.0
  0
POINT
  5
A65E
330
A216
100
AcDbEntity
  8
DEFPOINTS
 62
     0
100
AcDbPoint
 10
-45.0
 20
-16.00000100000011
 30
0.0
  0
ENDBLK
  5
A221
330
A216
100
AcDbEntity
  8
0
100
AcDbBlockEnd
  0
BLOCK
  5
A2AC
330
A2A2
100
AcDbEntity
  8
0
100
AcDbBlockBegin
  2
*D6
 70
     1
 10
0.0
 20
0.0
 30
0.0
  3
*D6
  1

  0
LINE
  5
A7A0
330
A2A2
100
AcDbEntity
  8
AM_5
100
AcDbLine
 10
0.0000000000000061
 20
-3.000000000000015
 30
0.0
 11
0.0000000000000057
 21
-10.50000100000001
 31
0.0
  0
LINE
  5
A7A1
330
A2A2
100
AcDbEntity
  8
AM_5
100
AcDbLine
 10
-10.0
 20
-2.000000000000016
 30
0.0
 11
-10.0
 21
-10.50000100000001
 31
0.0
  0
LINE
  5
A7A2
330
A2A2
100
AcDbEntity
  8
AM_5
100
AcDbLine
 10
-1.249999999999994
 20
-10.00000100000001
 30
0.0
 11
-8.75
 21
-10.00000100000001
 31
0.0
  0
INSERT
  5
A7A3
330
A2A2
100
AcDbEntity
  8
AM_5
100
AcDbBlockReference
  2
_OPEN30
 10
0.0000000000000057
 20
-10.00000100000001
 30
0.0
 41
1.25
 42
1.25
 43
1.25
  0
INSERT
  5
A7A4
330
A2A2
100
AcDbEntity
  8
AM_5
100
AcDbBlockReference
  2
_OPEN30
 10
-10.0
 20
-10.00000100000001
 30
0.0
 41
1.25
 42
1.25
 43
1.25
 50
180.0
  0
MTEXT
  5
A7A5
330
A2A2
100
AcDbEntity
  8
AM_5
 62
     2
100
AcDbMText
 10
-4.999999999999997
 20
-8.450001000000014
 30
0.0
 40
1.6
 41
0.0
 71
     5
 72
     1
  1
10
  7
ASAMI
1001
ACAD
1000
MTEXTBEGIN
1070
    73
1070
     1
1070
    44
1040
1.0
1070
    74
1070
     0
1000
MTEXTEND
  0
POINT
  5
A7A6
330
A2A2
100
AcDbEntity
  8
DEFPOINTS
 62
     0
100
AcDbPoint
 10
0.0000000000000061
 20
-2.500000000000015
 30
0.0
  0
POINT
  5
A7A7
330
A2A2
100
AcDbEntity
  8
DEFPOINTS
 62
     0
100
AcDbPoint
 10
-10.0
 20
-1.500000000000017
 30
0.0
  0
POINT
  5
A7A8
330
A2A2
100
AcDbEntity
  8
DEFPOINTS
 62
     0
100
AcDbPoint
 10
-10.0
 20
-10.00000100000001
 30
0.0
  0
ENDBLK
  5
A2AD
330
A2A2
100
AcDbEntity
  8
0
100
AcDbBlockEnd
  0
BLOCK
  5
A39C
330
A392
100
AcDbEntity
  8
0
100
AcDbBlockBegin
  2
*D7
 70
     1
 10
0.0
 20
0.0
 30
0.0
  3
*D7
  1

  0
LINE
  5
AAE8
330
A392
100
AcDbEntity
  8
AM_5
100
AcDbLine
 10
0.4999999999996039
 20
1.5
 30
0.0
 11
12.05776903085517
 21
1.499999999999996
 31
0.0
  0
LINE
  5
AAE9
330
A392
100
AcDbEntity
  8
AM_5
100
AcDbLine
 10
0.5000000000000037
 20
-1.500000000000009
 30
0.0
 11
12.05776903085517
 21
-1.500000000000012
 31
0.0
  0
LINE
  5
AAEA
330
A392
100
AcDbEntity
  8
AM_5
100
AcDbLine
 10
11.55776903085517
 20
2.749999999999996
 30
0.0
 11
11.55776903085517
 21
3.999999999999996
 31
0.0
  0
LINE
  5
AAEB
330
A392
100
AcDbEntity
  8
AM_5
100
AcDbLine
 10
11.55776903085517
 20
-2.750000000000012
 30
0.0
 11
11.55776903085517
 21
-4.000000000000012
 31
0.0
  0
MTEXT
  5
AAEC
330
A392
100
AcDbEntity
  8
AM_5
 62
     2
100
AcDbMText
 10
10.37374541467474
 20
-0.0009597890015556
 30
0.0
 40
1.6
 41
0.0
 71
     5
 72
     1
  1
%%c3
  7
ASAMI
 11
0.0000000000000001
 21
1.0
 31
0.0
  0
LINE
  5
AAED
330
A392
100
AcDbEntity
  8
AM_5
100
AcDbLine
 10
11.55776903085517
 20
1.499999999999996
 30
0.0
 11
11.55776903085517
 21
-1.500000000000012
 31
0.0
  0
INSERT
  5
AAEE
330
A392
100
AcDbEntity
  8
AM_5
100
AcDbBlockReference
  2
_OPEN30
 10
11.55776903085517
 20
1.499999999999996
 30
0.0
 41
1.25
 42
1.25
 43
1.25
 50
270.0
  0
INSERT
  5
AAEF
330
A392
100
AcDbEntity
  8
AM_5
100
AcDbBlockReference
  2
_OPEN30
 10
11.55776903085517
 20
-1.500000000000012
 30
0.0
 41
1.25
 42
1.25
 43
1.25
 50
90.0
  0
POINT
  5
AAF0
330
A392
100
AcDbEntity
  8
DEFPOINTS
 62
     0
100
AcDbPoint
 10
-0.0000000000003961
 20
1.5
 30
0.0
  0
POINT
  5
AAF1
330
A392
100
AcDbEntity
  8
DEFPOINTS
 62
     0
100
AcDbPoint
 10
0.0000000000000037
 20
-1.500000000000009
 30
0.0
  0
POINT
  5
AAF2
330
A392
100
AcDbEntity
  8
DEFPOINTS
 62
     0
100
AcDbPoint
 10
11.55776903085517
 20
-1.500000000000012
 30
0.0
  0
ENDBLK
  5
A39D
330
A392
100
AcDbEntity
  8
0
100
AcDbBlockEnd
  0
BLOCK
  5
A4C1
330
A4B7
100
AcDbEntity
  8
0
100
AcDbBlockBegin
  2
*D8
 70
     1
 10
0.0
 20
0.0
 30
0.0
  3
*D8
  1

  0
LINE
  5
A65F
330
A4B7
100
AcDbEntity
  8
AM_5
100
AcDbLine
 10
-45.0
 20
2.99999999999993
 30
0.0
 11
-55.81099700121462
 21
2.999999999999934
 31
0.0
  0
LINE
  5
A660
330
A4B7
100
AcDbEntity
  8
AM_5
100
AcDbLine
 10
-45.0
 20
-3.000000000000064
 30
0.0
 11
-55.81099700121462
 21
-3.000000000000061
 31
0.0
  0
LINE
  5
A661
330
A4B7
100
AcDbEntity
  8
AM_5
100
AcDbLine
 10
-55.31099700121462
 20
1.749999999999933
 30
0.0
 11
-55.31099700121462
 21
-1.750000000000061
 31
0.0
  0
INSERT
  5
A662
330
A4B7
100
AcDbEntity
  8
AM_5
100
AcDbBlockReference
  2
_OPEN30
 10
-55.31099700121462
 20
2.999999999999933
 30
0.0
 41
1.25
 42
1.25
 43
1.25
 50
90.0
  0
INSERT
  5
A663
330
A4B7
100
AcDbEntity
  8
AM_5
100
AcDbBlockReference
  2
_OPEN30
 10
-55.31099700121462
 20
-3.000000000000061
 30
0.0
 41
1.25
 42
1.25
 43
1.25
 50
270.0
  0
MTEXT
  5
A664
330
A4B7
100
AcDbEntity
  8
AM_5
 62
     2
100
AcDbMText
 10
-56.86099700121461
 20
-0.0000000000000728
 30
0.0
 40
1.6
 41
0.0
 71
     5
 72
     1
  1
%%c6
  7
ASAMI
 11
0.0000000000000001
 21
1.0
 31
0.0
1001
ACAD
1000
MTEXTBEGIN
1070
    73
1070
     1
1070
    44
1040
1.0
1070
    74
1070
     0
1000
MTEXTEND
  0
POINT
  5
A665
330
A4B7
100
AcDbEntity
  8
DEFPOINTS
 62
     0
100
AcDbPoint
 10
-44.5
 20
2.99999999999993
 30
0.0
  0
POINT
  5
A666
330
A4B7
100
AcDbEntity
  8
DEFPOINTS
 62
     0
100
AcDbPoint
 10
-44.5
 20
-3.000000000000064
 30
0.0
  0
POINT
  5
A667
330
A4B7
100
AcDbEntity
  8
DEFPOINTS
 62
     0
100
AcDbPoint
 10
-55.31099700121462
 20
-3.000000000000061
 30
0.0
  0
ENDBLK
  5
A4C2
330
A4B7
100
AcDbEntity
  8
0
100
AcDbBlockEnd
  0
ENDSEC
  0
SECTION
  2
ENTITIES
  0
TEXT
  5
1500
330
1F
100
AcDbEntity
  8
AM_6
100
AcDbText
 10
-33.2142857142857
 20
-27.25000100000011
 30
0.0
 40
2.5
  1
USM2030ZX
 72
     4
 11
-22.49999999999999
 21
-26.00000100000011
 31
0.0
100
AcDbText
  0
LINE
  5
9FF0
330
1F
100
AcDbEntity
  8
AM_7
  6
AM_ISO08W050X2
100
AcDbLine
 10
4.557768030855186
 20
0.0
 30
0.0
 11
-48.31099600121461
 21
-0.0000000000000622
 31
0.0
1001
GENIUS_GENODEF_13
1002
{
1000
HIER
1070
     0
1002
}
1002
{
1000
MANEDIT
1070
     0
1002
}
1002
{
1000
NOSEL
1070
     0
1002
}
1002
{
1000
BEHIND
1070
     0
1002
}
1002
{
1000
REACTOR
1002
}
1001
GENIUS_GENOBJ-N-CEN_13
1002
{
1000
OWNER
1000
GEN
1002
}
  0
DIMENSION
  5
A215
330
1F
100
AcDbEntity
  8
AM_5
100
AcDbDimension
  2
*D5
 10
-45.0
 20
-16.00000100000011
 30
0.0
 11
-22.49999999999999
 21
-14.45000100000011
 31
0.0
 70
    32
  1
<>
  3
AM_JIS
100
AcDbAlignedDimension
 13
0.0000000000000061
 23
-2.500000000000015
 33
0.0
 14
-45.0
 24
-2.500000000000064
 34
0.0
 50
0.0000000000001641
100
AcDbRotatedDimension
1001
GENIUS_GENDTOL_13
1000

1000
h7
1000

1040
0.0
  0
DIMENSION
  5
A2A1
330
1F
100
AcDbEntity
  8
AM_5
100
AcDbDimension
  2
*D6
 10
-10.0
 20
-10.00000100000001
 30
0.0
 11
-4.999999999999997
 21
-8.450001000000014
 31
0.0
 70
    32
  1
<>
  3
AM_JIS
100
AcDbAlignedDimension
 13
0.0000000000000061
 23
-2.500000000000015
 33
0.0
 14
-10.0
 24
-1.500000000000017
 34
0.0
 50
0.0000000000001641
100
AcDbRotatedDimension
1001
GENIUS_GENDTOL_13
1000

1000
h7
1000

1040
0.0
  0
DIMENSION
  5
A391
330
1F
100
AcDbEntity
  8
AM_5
100
AcDbDimension
  2
*D7
 10
11.55776903085517
 20
-1.500000000000012
 30
0.0
 11
10.37374541467474
 21
-0.0009597890015556
 31
0.0
 70
   160
  1
%%c<>
  3
AM_JIS
100
AcDbAlignedDimension
 13
-0.0000000000003961
 23
1.5
 33
0.0
 14
0.0000000000000037
 24
-1.500000000000009
 34
0.0
 50
90.00000000000003
100
AcDbRotatedDimension
1001
GENIUS_GENDTOL_13
1000

1000
h7
1000

1040
0.0
1001
ACAD
1000
DSTYLE
1002
{
1070
   287
1070
     5
1070
   279
1070
     2
1002
}
  0
LINE
  5
A4B1
330
1F
100
AcDbEntity
  8
AM_0
100
AcDbLine
 10
-20.5
 20
-3.000000000000037
 30
0.0
 11
-44.5
 21
-3.000000000000064
 31
0.0
  0
LINE
  5
A4B3
330
1F
100
AcDbEntity
  8
AM_0
100
AcDbLine
 10
-45.0
 20
2.49999999999993
 30
0.0
 11
-45.0
 21
-2.500000000000064
 31
0.0
  0
LINE
  5
A4B5
330
1F
100
AcDbEntity
  8
AM_0
100
AcDbLine
 10
-44.5
 20
2.99999999999993
 30
0.0
 11
-44.5
 21
-3.000000000000064
 31
0.0
  0
DIMENSION
  5
A4B6
330
1F
100
AcDbEntity
  8
AM_5
100
AcDbDimension
  2
*D8
 10
-55.31099700121462
 20
-3.000000000000061
 30
0.0
 11
-56.86099700121461
 21
-0.0000000000000728
 31
0.0
 70
    32
  1
%%c<>
  3
AM_JIS
100
AcDbAlignedDimension
 13
-44.5
 23
2.99999999999993
 33
0.0
 14
-44.5
 24
-3.000000000000064
 34
0.0
 50
270.0
100
AcDbRotatedDimension
1001
GENIUS_GENDTOL_13
1000

1000
h7
1000

1040
0.0
  0
LINE
  5
A4C3
330
1F
100
AcDbEntity
  8
AM_0
100
AcDbLine
 10
-20.5
 20
2.999999999999959
 30
0.0
 11
-44.50000000000001
 21
2.99999999999993
 31
0.0
  0
LINE
  5
A4CF
330
1F
100
AcDbEntity
  8
AM_0
100
AcDbLine
 10
-44.50000000000001
 20
2.99999999999993
 30
0.0
 11
-45.0
 21
2.49999999999993
 31
0.0
1001
GENIUS_GENFIL_13
1070
     0
1040
0.5
1040
0.5
1040
20.0
1040
0.0
1002
{
1002
}
1001
GENIUS_GENODEF_13
1002
{
1000
HIER
1070
     0
1002
}
1002
{
1000
MANEDIT
1070
     0
1002
}
1002
{
1000
NOSEL
1070
     0
1002
}
1002
{
1000
BEHIND
1070
     0
1002
}
1002
{
1000
REACTOR
1002
}
1001
GENIUS_GENOBJ-N-CHA_13
1002
{
1000
OWNER
1000
GEN
1002
}
  0
LINE
  5
A4D2
330
1F
100
AcDbEntity
  8
AM_0
100
AcDbLine
 10
-45.0
 20
-2.500000000000064
 30
0.0
 11
-44.5
 21
-3.000000000000064
 31
0.0
1001
GENIUS_GENFIL_13
1070
     0
1040
0.5
1040
0.5
1040
20.0
1040
0.0
1002
{
1002
}
1001
GENIUS_GENODEF_13
1002
{
1000
HIER
1070
     0
1002
}
1002
{
1000
MANEDIT
1070
     0
1002
}
1002
{
1000
NOSEL
1070
     0
1002
}
1002
{
1000
BEHIND
1070
     0
1002
}
1002
{
1000
REACTOR
1002
}
1001
GENIUS_GENOBJ-N-CHA_13
1002
{
1000
OWNER
1000
GEN
1002
}
  0
LINE
  5
A5FD
330
1F
100
AcDbEntity
  8
AM_0
100
AcDbLine
 10
-20.5
 20
2.999999999999959
 30
0.0
 11
-20.5
 21
-3.000000000000036
 31
0.0
  0
LINE
  5
A616
330
1F
100
AcDbEntity
  8
AM_0
100
AcDbLine
 10
-11.13835506914776
 20
1.499999999999981
 30
0.0
 11
-14.90192411077624
 21
1.500000084080262
 31
0.0
  0
LINE
  5
A617
330
1F
100
AcDbEntity
  8
AM_0
100
AcDbLine
 10
-11.12735879688189
 20
-1.500000000000017
 30
0.0
 11
-14.90192411077608
 21
-1.500000000000021
 31
0.0
  0
LINE
  5
A618
330
1F
100
AcDbEntity
  8
AM_0
100
AcDbLine
 10
-20.5
 20
-3.000000000000036
 30
0.0
 11
-14.90192378864662
 21
-1.500000000000021
 31
0.0
  0
LINE
  5
A619
330
1F
100
AcDbEntity
  8
AM_0
100
AcDbLine
 10
-14.90192411077608
 20
-1.500000086314351
 30
0.0
 11
-14.90192411077624
 21
1.50000008631432
 31
0.0
  0
LINE
  5
A61A
330
1F
100
AcDbEntity
  8
AM_0
100
AcDbLine
 10
-14.90192411077624
 20
1.50000008631432
 30
0.0
 11
-20.5
 21
2.999999999999959
 31
0.0
  0
LINE
  5
A6ED
330
1F
100
AcDbEntity
  8
AM_11
100
AcDbLine
 10
-0.000000000000288
 20
1.5
 30
0.0
 11
-10.0
 21
1.5
 31
0.0
  0
LINE
  5
A6EE
330
1F
100
AcDbEntity
  8
AM_0
100
AcDbLine
 10
-1.672310350705074
 20
1.113510624164769
 30
0.0
 11
-5.883730371564434
 21
1.27345098094845
 31
0.0
  0
LINE
  5
A6EF
330
1F
100
AcDbEntity
  8
AM_0
100
AcDbLine
 10
-0.0308403413307004
 20
-0.1399728256742264
 30
0.0
 11
-0.2637414062333907
 21
-0.268788336308944
 31
0.0
  0
LINE
  5
A6F0
330
1F
100
AcDbEntity
  8
AM_0
100
AcDbLine
 10
0.0
 20
-0.0825000000000273
 30
0.0
 11
-0.0308403413307004
 21
-0.1399728256742264
 31
0.0
  0
LINE
  5
A6F1
330
1F
100
AcDbEntity
  8
AM_0
100
AcDbLine
 10
-0.1101440761810537
 20
-1.223466055354015
 30
0.0
 11
-0.1101440761810537
 21
-1.207306629339768
 31
0.0
  0
LINE
  5
A6F2
330
1F
100
AcDbEntity
  8
AM_0
100
AcDbLine
 10
0.0
 20
-1.5
 30
0.0
 11
-0.0308403413307004
 21
-1.420032347286564
 31
0.0
  0
LINE
  5
A6F3
330
1F
100
AcDbEntity
  8
AM_0
100
AcDbLine
 10
-0.0308403413307004
 20
-1.420032347286564
 30
0.0
 11
-0.1101440761810537
 21
-1.223466055354015
 31
0.0
  0
LINE
  5
A6F4
330
1F
100
AcDbEntity
  8
AM_0
100
AcDbLine
 10
-0.0308403413307004
 20
-1.420032347286564
 30
0.0
 11
-0.0308403413307004
 21
-0.1399728256742264
 31
0.0
  0
LINE
  5
A6F5
330
1F
100
AcDbEntity
  8
AM_0
100
AcDbLine
 10
-10.0
 20
-0.9267147467501757
 30
0.0
 11
-10.0
 21
-1.080361914630274
 31
0.0
  0
LINE
  5
A6F7
330
1F
100
AcDbEntity
  8
AM_11
100
AcDbLine
 10
-10.0
 20
-1.5
 30
0.0
 11
0.0
 21
-1.5
 31
0.0
  0
LINE
  5
A6F8
330
1F
100
AcDbEntity
  8
AM_0
100
AcDbLine
 10
-2.97735867468679
 20
-1.160946952854351
 30
0.0
 11
-5.900859950368564
 21
-1.265221537933052
 31
0.0
  0
LINE
  5
A6FA
330
1F
100
AcDbEntity
  8
AM_0
100
AcDbLine
 10
0.0
 20
-1.5
 30
0.0
 11
0.0
 21
1.5
 31
0.0
  0
LINE
  5
A6FB
330
1F
100
AcDbEntity
  8
AM_0
100
AcDbLine
 10
-1.672310350705074
 20
1.113510624164769
 30
0.0
 11
0.0
 21
-0.0825000000000273
 31
0.0
  0
LINE
  5
A6FC
330
1F
100
AcDbEntity
  8
AM_0
100
AcDbLine
 10
-10.38586641314913
 20
1.220258266767723
 30
0.0
 11
-11.13835506914776
 21
1.499999962499782
 31
0.0
  0
LINE
  5
A6FE
330
1F
100
AcDbEntity
  8
AM_0
100
AcDbLine
 10
-10.36187796821358
 20
-1.090563049091639
 30
0.0
 11
-11.1273587968819
 21
-1.500000000000017
 31
0.0
  0
ELLIPSE
  5
A701
330
1F
100
AcDbEntity
  8
AM_0
100
AcDbEllipse
 10
-10.12011319678523
 20
-1.780070760733755
 30
0.0
 11
-0.0000000000000144
 21
0.732392155117267
 31
0.0
210
0.0
220
0.0
230
1.0
 40
0.9790584549426968
 41
-0.3737773998791798
 42
0.3439024785055136
  0
ELLIPSE
  5
A702
330
1F
100
AcDbEntity
  8
AM_0
100
AcDbEllipse
 10
-10.14410164172001
 20
1.909765978409587
 30
0.0
 11
-0.4815863728735978
 21
0.6424819739464698
 31
0.0
210
0.0
220
0.0
230
0.9999999999999998
 40
0.876782652518001
 41
2.101954459939717
 42
2.903169035495631
  0
ELLIPSE
  5
A703
330
1F
100
AcDbEntity
  8
AM_0
100
AcDbEllipse
 10
4.172777028278396
 20
0.0063111935125065
 30
0.0
 11
0.000000000000586
 21
4.539756116973479
 31
0.0
210
0.0
220
0.0
230
1.0
 40
0.9790584549427146
 41
1.631431340463122
 42
1.841418545974851
  0
SPLINE
  5
A704
330
1F
100
AcDbEntity
  8
AM_0
100
AcDbSpline
210
0.0
220
0.0
230
1.0
 70
     8
 71
     3
 72
     8
 73
     4
 74
     0
 42
0.0000000001
 43
0.0000000001
 40
0.0
 40
0.0
 40
0.0
 40
0.0
 40
3.325240547704682
 40
3.325240547704682
 40
3.325240547704682
 40
3.325240547704682
 10
-0.2637414062333907
 20
-0.268788336308944
 30
0.0
 10
-0.8732582956905122
 20
-0.0348752389999292
 30
0.0
 10
-2.309465927313158
 20
0.9765099869816026
 30
0.0
 10
-1.67231035070494
 20
1.113510624164769
 30
0.0
  0
SPLINE
  5
A705
330
1F
100
AcDbEntity
  8
AM_0
100
AcDbSpline
210
0.0
220
0.0
230
1.0
 70
     8
 71
     3
 72
     8
 73
     4
 74
     0
 42
0.0000000001
 43
0.0000000001
 40
0.0
 40
0.0
 40
0.0
 40
0.0
 40
2.821318814363394
 40
2.821318814363394
 40
2.821318814363394
 40
2.821318814363394
 10
-0.0587435072965086
 20
1.5
 30
0.0
 10
0.098970496685784
 20
0.9592186799871043
 30
0.0
 10
-1.12083501321883
 20
1.146965918151817
 30
0.0
 10
-1.672310350705074
 20
1.113510624164769
 30
0.0
  0
SPLINE
  5
A706
330
1F
100
AcDbEntity
  8
AM_0
100
AcDbSpline
210
0.0
220
0.0
230
1.0
 70
     8
 71
     3
 72
     8
 73
     4
 74
     0
 42
0.0000000001
 43
0.0000000001
 40
0.0
 40
0.0
 40
0.0
 40
0.0
 40
7.24499827467194
 40
7.24499827467194
 40
7.24499827467194
 40
7.24499827467194
 10
0.0
 20
-1.5
 30
0.0
 10
-1.418655363372566
 20
-1.499999999999999
 30
0.0
 10
-2.706606929769376
 20
-0.75
 30
0.0
 10
-3.994558496166186
 20
0.0
 30
0.0
  0
SPLINE
  5
A707
330
1F
100
AcDbEntity
  8
AM_0
100
AcDbSpline
210
0.0
220
0.0
230
1.0
 70
     8
 71
     3
 72
     8
 73
     4
 74
     0
 42
0.0000000001
 43
0.0000000001
 40
0.0
 40
0.0
 40
0.0
 40
0.0
 40
7.24499827467194
 40
7.24499827467194
 40
7.24499827467194
 40
7.24499827467194
 10
-7.989116992332373
 20
1.5
 30
0.0
 10
-6.570461628959805
 20
1.499999999999999
 30
0.0
 10
-5.282510062562996
 20
0.75
 30
0.0
 10
-3.994558496166186
 20
0.0
 30
0.0
  0
SPLINE
  5
A708
330
1F
100
AcDbEntity
  8
AM_0
100
AcDbSpline
210
0.0
220
0.0
230
1.0
 70
     8
 71
     3
 72
     8
 73
     4
 74
     0
 42
0.0000000001
 43
0.0000000001
 40
0.0
 40
0.0
 40
0.0
 40
0.0
 40
6.457542170879827
 40
6.457542170879827
 40
6.457542170879827
 40
6.457542170879827
 10
0.0
 20
1.5
 30
0.0
 10
-0.6322311260548267
 20
1.5
 30
0.0
 10
-1.238503360680507
 20
1.351043588462016
 30
0.0
 10
-1.830385418579188
 20
1.11951396332904
 30
0.0
  0
SPLINE
  5
A709
330
1F
100
AcDbEntity
  8
AM_0
100
AcDbSpline
210
0.0
220
0.0
230
1.0
 70
     8
 71
     3
 72
     8
 73
     4
 74
     0
 42
0.0000000001
 43
0.0000000001
 40
0.7142832446738512
 40
0.7142832446738512
 40
0.7142832446738512
 40
0.7142832446738512
 40
14.36247867694493
 40
14.36247867694493
 40
14.36247867694493
 40
14.36247867694493
 10
-6.677134205369577
 20
1.380179336947253
 30
0.0
 10
-5.351216780110086
 20
1.316342110642676
 30
0.0
 10
-4.121386456013772
 20
0.6581710553213043
 30
0.0
 10
-2.891556131917324
 20
0.0
 30
0.0
  0
SPLINE
  5
A70A
330
1F
100
AcDbEntity
  8
AM_0
100
AcDbSpline
210
0.0
220
0.0
230
1.0
 70
     8
 71
     3
 72
     8
 73
     4
 74
     0
 42
0.0000000001
 43
0.0000000001
 40
0.3581103616548037
 40
0.3581103616548037
 40
0.3581103616548037
 40
0.3581103616548037
 40
14.43901837670146
 40
14.43901837670146
 40
14.43901837670146
 40
14.43901837670146
 10
-7.371490282388085
 20
1.453753626855768
 30
0.0
 10
-5.998773539185832
 20
1.418996702415984
 30
0.0
 10
-4.740331559523824
 20
0.709498351207958
 30
0.0
 10
-3.481889579861817
 20
0.0
 30
0.0
  0
SPLINE
  5
A70B
330
1F
100
AcDbEntity
  8
AM_0
100
AcDbSpline
210
0.0
220
0.0
230
1.0
 70
     8
 71
     3
 72
     8
 73
     4
 74
     0
 42
0.0000000001
 43
0.0000000001
 40
1.870660592686466
 40
1.870660592686466
 40
1.870660592686466
 40
1.870660592686466
 40
14.43901837670146
 40
14.43901837670146
 40
14.43901837670146
 40
14.43901837670146
 10
-0.0308403413307004
 20
-1.420032347286564
 30
0.0
 10
-1.235365558269598
 20
-1.26657018363046
 30
0.0
 10
-2.358627569065708
 20
-0.6332850918152646
 30
0.0
 10
-3.481889579861817
 20
0.0
 30
0.0
  0
SPLINE
  5
A70C
330
1F
100
AcDbEntity
  8
AM_0
100
AcDbSpline
210
0.0
220
0.0
230
1.0
 70
     8
 71
     3
 72
     8
 73
     4
 74
     0
 42
0.0000000001
 43
0.0000000001
 40
4.219358800530717
 40
4.219358800530717
 40
4.219358800530717
 40
4.219358800530717
 40
14.36247867694493
 40
14.36247867694493
 40
14.36247867694493
 40
14.36247867694493
 10
-0.1101440761810537
 20
-1.223466055353947
 30
0.0
 10
-1.063575800471686
 20
-0.9782843375066249
 30
0.0
 10
-1.977565966194438
 20
-0.4891421687533466
 30
0.0
 10
-2.891556131917324
 20
0.0
 30
0.0
  0
SPLINE
  5
A70D
330
1F
100
AcDbEntity
  8
AM_0
100
AcDbSpline
210
0.0
220
0.0
230
1.0
 70
     8
 71
     3
 72
     8
 73
     4
 74
     0
 42
0.0000000001
 43
0.0000000001
 40
0.0
 40
0.0
 40
0.0
 40
0.0
 40
1.748655602797241
 40
1.748655602797241
 40
1.748655602797241
 40
1.748655602797241
 10
-6.890592493953827
 20
-1.373422386709762
 30
0.0
 10
-6.554899150239927
 20
-1.373422386709762
 30
0.0
 10
-6.22548858622051
 20
-1.334235035030974
 30
0.0
 10
-5.900859950368698
 20
-1.265221537933052
 30
0.0
  0
SPLINE
  5
A70E
330
1F
100
AcDbEntity
  8
AM_0
100
AcDbSpline
210
0.0
220
0.0
230
1.0
 70
     8
 71
     3
 72
     8
 73
     4
 74
     0
 42
0.0000000001
 43
0.0000000001
 40
0.0
 40
0.0
 40
0.0
 40
0.0
 40
1.389839699216864
 40
1.389839699216864
 40
1.389839699216864
 40
1.389839699216864
 10
-7.481311748351167
 20
-1.441216239480058
 30
0.0
 10
-7.214501099581831
 20
-1.441216239480058
 30
0.0
 10
-6.952004977838279
 20
-1.41550368966416
 30
0.0
 10
-6.693008385770245
 20
-1.368935590543287
 30
0.0
  0
SPLINE
  5
A70F
330
1F
100
AcDbEntity
  8
AM_0
100
AcDbSpline
210
0.0
220
0.0
230
1.0
 70
     8
 71
     3
 72
     8
 73
     4
 74
     0
 42
0.0000000001
 43
0.0000000001
 40
0.0
 40
0.0
 40
0.0
 40
0.0
 40
1.293721832890842
 40
1.293721832890842
 40
1.293721832890842
 40
1.293721832890842
 10
-8.171466507209345
 20
-1.500000037920062
 30
0.0
 10
-7.740205650916882
 20
-1.500000037919994
 30
0.0
 10
-7.495850021385144
 20
-1.477024296661079
 30
0.0
 10
-7.254796806899981
 20
-1.435094180738019
 30
0.0
  0
SPLINE
  5
A710
330
1F
100
AcDbEntity
  8
AM_0
100
AcDbSpline
210
0.0
220
0.0
230
1.0
 70
     8
 71
     3
 72
     8
 73
     4
 74
     0
 42
0.0000000001
 43
0.0000000001
 40
0.0
 40
0.0
 40
0.0
 40
0.0
 40
3.101397527050138
 40
3.101397527050138
 40
3.101397527050138
 40
3.101397527050138
 10
-7.481311748351167
 20
-1.441216239480058
 30
0.0
 10
-8.076693997649554
 20
-1.441216239480058
 30
0.0
 10
-8.682383287666151
 20
-1.28138946929872
 30
0.0
 10
-10.0
 20
-0.9310872556535141
 30
0.0
  0
SPLINE
  5
A711
330
1F
100
AcDbEntity
  8
AM_0
100
AcDbSpline
210
0.0
220
0.0
230
1.0
 70
     8
 71
     3
 72
     8
 73
     4
 74
     0
 42
0.0000000001
 43
0.0000000001
 40
0.0
 40
0.0
 40
0.0
 40
0.0
 40
2.86670689287766
 40
2.86670689287766
 40
2.86670689287766
 40
2.86670689287766
 10
-8.171466507209345
 20
-1.500000037920062
 30
0.0
 10
-8.808977888398587
 20
-1.500000037920062
 30
0.0
 10
-9.141796835031177
 20
-1.387188297770012
 30
0.0
 10
-9.858291691995958
 20
-1.098246818833177
 30
0.0
  0
SPLINE
  5
A712
330
1F
100
AcDbEntity
  8
AM_0
100
AcDbSpline
210
0.0
220
0.0
230
1.0
 70
     8
 71
     3
 72
     8
 73
     4
 74
     0
 42
0.0000000001
 43
0.0000000001
 40
0.0
 40
0.0
 40
0.0
 40
0.0
 40
4.646929528593759
 40
4.646929528593759
 40
4.646929528593759
 40
4.646929528593759
 10
-6.890592493953827
 20
-1.37342238670983
 30
0.0
 10
-7.782673992998885
 20
-1.37342238670983
 30
0.0
 10
-8.630386921517683
 20
-1.09668392678833
 30
0.0
 10
-10.287958369141
 20
-0.3326664329917577
 30
0.0
  0
SPLINE
  5
A714
330
1F
100
AcDbEntity
  8
AM_0
100
AcDbSpline
210
0.0
220
0.0
230
1.0
 70
     8
 71
     3
 72
     8
 73
     4
 74
     0
 42
0.0000000001
 43
0.0000000001
 40
4.071346735624547
 40
4.071346735624547
 40
4.071346735624547
 40
4.071346735624547
 40
6.91280490763674
 40
6.91280490763674
 40
6.91280490763674
 40
6.91280490763674
 10
-10.287958369141
 20
-0.5550726263590606
 30
0.0
 10
-10.50538383915633
 20
-0.470477388668769
 30
0.0
 10
-11.03721464157723
 20
-0.3553326421309322
 30
0.0
 10
-11.8463160100546
 20
0.2958892207052628
 30
0.0
  0
SPLINE
  5
A715
330
1F
100
AcDbEntity
  8
AM_0
100
AcDbSpline
210
0.0
220
0.0
230
1.0
 70
     8
 71
     3
 72
     8
 73
     4
 74
     0
 42
0.0000000001
 43
0.0000000001
 40
0.0
 40
0.0
 40
0.0
 40
0.0
 40
2.745882016847017
 40
2.745882016847017
 40
2.745882016847017
 40
2.745882016847017
 10
-7.98856433699782
 20
1.499999962499987
 30
0.0
 10
-8.515697475281331
 20
1.499999962499987
 30
0.0
 10
-9.083236462035767
 20
1.430237134970524
 30
0.0
 10
-9.809177860852837
 20
1.185736417737057
 30
0.0
  0
SPLINE
  5
A716
330
1F
100
AcDbEntity
  8
AM_0
100
AcDbSpline
210
0.0
220
0.0
230
1.0
 70
     8
 71
     3
 72
     8
 73
     4
 74
     0
 42
0.0000000001
 43
0.0000000001
 40
1.590776514610431
 40
1.590776514610431
 40
1.590776514610431
 40
1.590776514610431
 40
7.218994763998551
 40
7.218994763998551
 40
7.218994763998551
 40
7.218994763998551
 10
-10.78006226061572
 20
1.094472850562965
 30
0.0
 10
-9.36464201262147
 20
0.9150493998770798
 30
0.0
 10
-8.347313551221862
 20
0.4575246810835552
 30
0.0
 10
-7.329985089822255
 20
-0.0000000377100378
 30
0.0
  0
SPLINE
  5
A717
330
1F
100
AcDbEntity
  8
AM_0
100
AcDbSpline
210
0.0
220
0.0
230
1.0
 70
     8
 71
     3
 72
     9
 73
     5
 74
     0
 42
0.0000000001
 43
0.0000000001
 40
0.0
 40
0.0
 40
0.0
 40
0.0
 40
0.4149625668811378
 40
1.528874629660323
 40
1.528874629660323
 40
1.528874629660323
 40
1.528874629660323
 10
-11.13835506914776
 20
1.499999962499782
 30
0.0
 10
-11.2196095910657
 20
1.499999962499782
 30
0.0
 10
-11.62180433996335
 20
1.312971442006575
 30
0.0
 10
-10.99047745941551
 20
1.153151403149491
 30
0.0
 10
-10.78006226062729
 20
1.094472850562965
 30
0.0
  0
SPLINE
  5
A718
330
1F
100
AcDbEntity
  8
AM_0
100
AcDbSpline
210
0.0
220
0.0
230
1.0
 70
     8
 71
     3
 72
     8
 73
     4
 74
     0
 42
0.0000000001
 43
0.0000000001
 40
0.0
 40
0.0
 40
0.0
 40
0.0
 40
7.077445848048281
 40
7.077445848048281
 40
7.077445848048281
 40
7.077445848048281
 10
-3.334399982348609
 20
-1.173681797378617
 30
0.0
 10
-4.720246621734762
 20
-1.173681797378617
 30
0.0
 10
-6.025115855778575
 20
-0.5868409175442935
 30
0.0
 10
-7.329985089822387
 20
-0.0000000377099695
 30
0.0
  0
SPLINE
  5
A719
330
1F
100
AcDbEntity
  8
AM_0
100
AcDbSpline
210
0.0
220
0.0
230
1.0
 70
     8
 71
     3
 72
     8
 73
     4
 74
     0
 42
0.0000000001
 43
0.0000000001
 40
0.0
 40
0.0
 40
0.0
 40
0.0
 40
2.238610194515266
 40
2.238610194515266
 40
2.238610194515266
 40
2.238610194515266
 10
-3.334399982348609
 20
-1.173681797378617
 30
0.0
 10
-2.904648955178341
 20
-1.173681797378617
 30
0.0
 10
-2.482684877501405
 20
-1.117250002947707
 30
0.0
 10
-2.066093016368083
 20
-1.021885912899461
 30
0.0
  0
LINE
  5
A723
330
1F
100
AcDbEntity
  8
AM_11
100
AcDbLine
 10
-10.0
 20
1.499999999999982
 30
0.0
 11
-10.0
 21
-1.500000000000017
 31
0.0
  0
SPLINE
  5
A79B
330
1F
100
AcDbEntity
  8
AM_0
100
AcDbSpline
210
0.0
220
0.0
230
1.0
 70
     8
 71
     3
 72
     8
 73
     4
 74
     0
 42
0.0000000001
 43
0.0000000001
 40
2.751612693994736
 40
2.751612693994736
 40
2.751612693994736
 40
2.751612693994736
 40
3.172260675542282
 40
3.172260675542282
 40
3.172260675542282
 40
3.172260675542282
 10
-10.0
 20
-1.011402781305759
 30
0.0
 10
-10.09631155191363
 20
-0.976918859449907
 30
0.0
 10
-10.1843153972283
 20
-0.9224742182908832
 30
0.0
 10
-10.287958369141
 20
-0.8758288292866909
 30
0.0
  0
LINE
  5
AA8A
330
1F
100
AcDbEntity
  8
AM_0
100
AcDbLine
 10
-10.287958369141
 20
-0.8758288292866909
 30
0.0
 11
-10.287958369141
 21
-0.3326664329917577
 31
0.0
  0
SPLINE
  5
AA8C
330
1F
100
AcDbEntity
  8
AM_0
100
AcDbSpline
210
0.0
220
0.0
230
1.0
 70
     8
 71
     3
 72
    10
 73
     6
 74
     4
 42
0.0000000001
 43
0.0000000001
 44
0.0000000001
 40
0.0
 40
0.0
 40
0.0
 40
0.0
 40
0.3929248072958853
 40
1.634588509719922
 40
2.011642058523646
 40
2.011642058523646
 40
2.011642058523646
 40
2.011642058523646
 10
-11.8463160100546
 20
0.2958892207052628
 30
0.0
 10
-11.75630040242152
 20
0.3927132199440875
 30
0.0
 10
-11.38183059242121
 20
0.7955063082963148
 30
0.0
 10
-10.66006736990823
 20
0.9256841930358516
 30
0.0
 10
-10.12470407136406
 20
0.9462783381289849
 30
0.0
 10
-10.0
 20
0.9510754053660548
 30
0.0
 11
-11.8463160100546
 21
0.2958892207052628
 31
0.0
 11
-11.56401860437535
 21
0.5691987136528525
 31
0.0
 11
-10.3765766807227
 21
0.9321180268196798
 31
0.0
 11
-10.0
 21
0.9510754053660548
 31
0.0
  0
LINE
  5
AA91
330
1F
100
AcDbEntity
  8
AM_0
100
AcDbLine
 10
-10.0
 20
-0.9310872556535143
 30
0.0
 11
-10.0
 21
-1.058026919484132
 31
0.0
  0
VIEWPORT
  5
110
330
101
100
AcDbEntity
 67
     1
  8
0
100
AcDbViewport
 10
420.5
 20
297.0
 30
0.0
 40
948.9782706766916
 41
628.452
 68
     1
 69
     1
1001
ACAD
1000
MVIEW
1002
{
1070
    16
1010
0.0
1020
0.0
1030
0.0
1010
0.0
1020
0.0
1030
1.0
1040
0.0
1040
628.452
1040
420.5
1040
297.0
1040
50.0
1040
0.0
1040
0.0
1070
     0
1070
   100
1070
     1
1070
     1
1070
     0
1070
     0
1070
     0
1070
     0
1040
0.0
1040
0.0
1040
0.0
1040
10.0
1040
10.0
1040
10.0
1040
10.0
1070
     0
1002
{
1002
}
1002
}
  0
ENDSEC
  0
SECTION
  2
OBJECTS
  0
DICTIONARY
  5
C
330
0
100
AcDbDictionary
  3
ACAD_GROUP
350
D
  3
ACAD_LAYOUT
350
1A
  3
ACAD_MLINESTYLE
350
17
  3
ACAD_PLOTSETTINGS
350
19
  3
ACAD_PLOTSTYLENAME
350
E
  3
ACDBVARIABLEDICTIONARY
350
34
  3
ACMDICTIONARY
350
43
  3
AMG
350
2B
  3
AMGSNAPSETTINGS
350
6E
  3
ASE_INDEX_DICTIONARY
350
151A
  3
DWGPROPS
350
AAB2
  3
ACDBHEADERROUNDTRIPXREC
350
AABE
  0
DICTIONARY
  5
74
330
1F
100
AcDbDictionary
280
     1
  3
ACAD_INDEX
360
AAB4
  3
ACAD_LAYOUTSELFREF
360
AAE1
  0
DICTIONARY
  5
AAE6
330
101
100
AcDbDictionary
280
     1
  3
ACAD_LAYOUTSELFREF
360
AAE7
  0
DICTIONARY
  5
D
102
{ACAD_REACTORS
330
C
102
}
330
C
100
AcDbDictionary
  0
DICTIONARY
  5
1A
102
{ACAD_REACTORS
330
C
102
}
330
C
100
AcDbDictionary
  0
DICTIONARY
  5
17
102
{ACAD_REACTORS
330
C
102
}
330
C
100
AcDbDictionary
  3
STANDARD
350
18
  0
DICTIONARY
  5
19
102
{ACAD_REACTORS
330
C
102
}
330
C
100
AcDbDictionary
  0
ACDBDICTIONARYWDFLT
  5
E
102
{ACAD_REACTORS
330
C
102
}
330
C
100
AcDbDictionary
281
     1
  3
Normal
350
F
100
AcDbDictionaryWithDefault
340
F
  0
DICTIONARY
  5
34
102
{ACAD_REACTORS
330
C
102
}
330
C
100
AcDbDictionary
  3
INDEXCTL
350
35
  3
SORTENTS
350
B5E
  0
DICTIONARY
  5
43
102
{ACAD_REACTORS
330
C
102
}
330
C
100
AcDbDictionary
  3
ACMSTDDICTIONARY
350
260
  0
DICTIONARY
  5
2B
102
{ACAD_REACTORS
330
C
102
}
330
C
100
AcDbDictionary
  3
ACMGSETTINGS
350
2C
  0
DICTIONARY
  5
6E
102
{ACAD_REACTORS
330
C
102
}
330
C
100
AcDbDictionary
  0
DICTIONARY
  5
151A
102
{ACAD_REACTORS
330
C
102
}
330
C
100
AcDbDictionary
  3
ASEBLOCKHIERARCHYINDEXRECORD
350
151C
1001
DCO15
1040
1471862535.906
  0
XRECORD
  5
AAB2
102
{ACAD_REACTORS
330
C
102
}
330
C
100
AcDbXrecord
  1
DWGPROPS COOKIE
  2

  3

  4

  6

  7

  8

  9

300
AmdtFileType=82
301
=
302
=
303
=
304
=
305
=
306
=
307
=
308
=
309
=
 40
0.5469817476851852
 41
2452838.430434386
 42
2453054.44073419
  1

 90
        1
  0
DICTIONARY
  5
AABE
102
{ACAD_REACTORS
330
C
102
}
330
C
100
AcDbDictionary
  3
TSTACKALIGN
350
AABF
  3
TSTACKSIZE
350
AAC0
  3
HYPERLINKBASE
350
AAC1
  3
STYLESHEET
350
AAC2
  3
LAYOUTDICT
350
AAC3
  3
PLOTSETDICT
350
AAC4
  3
PLOTSTYLNAMDICT
350
AAC5
  3
LWETCUNION
350
AAC6
  3
INSUNITS
350
AAC7
  3
CEPSNTYPE
350
AAC8
  3
FINGERPRINTGUID
350
AAC9
  3
VERSIONGUID
350
AACA
  3
PSVPSCALE
350
AACB
  3
DIMSTYLEDATA
350
AACC
  3
PUCSORTHOREF
350
AACD
  3
PUCSORTHOVIEW
350
AACE
  3
PUCSBASE
350
AACF
  3
PUCSORGTOP
350
AAD0
  3
PUCSORGBOTTOM
350
AAD1
  3
PUCSORGLEFT
350
AAD2
  3
PUCSORGRIGHT
350
AAD3
  3
PUCSORGFRONT
350
AAD4
  3
PUCSORGBACK
350
AAD5
  3
UCSORTHOREF
350
AAD6
  3
UCSORTHOVIEW
350
AAD7
  3
UCSBASE
350
AAD8
  3
UCSORGTOP
350
AAD9
  3
UCSORGBOTTOM
350
AADA
  3
UCSORGLEFT
350
AADB
  3
UCSORGRIGHT
350
AADC
  3
UCSORGFRONT
350
AADD
  3
UCSORGBACK
350
AADE
  0
DICTIONARY
  5
AAB4
102
{ACAD_REACTORS
330
74
102
}
330
74
100
AcDbDictionary
  3
*A1
350
AAB5
  0
XRECORD
  5
AAE1
102
{ACAD_REACTORS
330
74
102
}
330
74
100
AcDbXrecord
340
1F
  0
XRECORD
  5
AAE7
102
{ACAD_REACTORS
330
AAE6
102
}
330
AAE6
100
AcDbXrecord
340
101
  0
MLINESTYLE
  5
18
102
{ACAD_REACTORS
330
17
102
}
330
17
100
AcDbMlineStyle
  2
STANDARD
 70
     0
  3

 62
   256
 51
90.0
 52
90.0
 71
     2
 49
0.5
 62
   256
  6
BYLAYER
 49
-0.5
 62
   256
  6
BYLAYER
  0
ACDBPLACEHOLDER
  5
F
102
{ACAD_REACTORS
330
E
102
}
330
E
100
AcDbPlaceHolder
280
     0
  0
DICTIONARYVAR
  5
35
102
{ACAD_REACTORS
330
34
102
}
330
34
100
DictionaryVariables
280
     0
  1
1
  0
DICTIONARYVAR
  5
B5E
102
{ACAD_REACTORS
330
34
102
}
330
34
100
DictionaryVariables
280
     0
  1
96
  0
DICTIONARY
  5
260
102
{ACAD_REACTORS
330
43
102
}
330
43
100
AcDbDictionary
  0
DICTIONARY
  5
2C
102
{ACAD_REACTORS
330
2B
102
}
330
2B
100
AcDbDictionary
  3
DWGSETTINGS
350
2D
  0
XRECORD
  5
151C
102
{ACAD_REACTORS
330
151A
102
}
330
151A
100
AcDbXrecord
330
0
330
0
330
0
330
0
330
0
330
0
330
0
330
0
  0
XRECORD
  5
AABF
102
{ACAD_REACTORS
330
AABE
102
}
330
AABE
100
AcDbXrecord
 90
        1
  0
XRECORD
  5
AAC0
102
{ACAD_REACTORS
330
AABE
102
}
330
AABE
100
AcDbXrecord
 90
       70
  0
XRECORD
  5
AAC1
102
{ACAD_REACTORS
330
AABE
102
}
330
AABE
100
AcDbXrecord
  1

  0
XRECORD
  5
AAC2
102
{ACAD_REACTORS
330
AABE
102
}
330
AABE
100
AcDbXrecord
  1
ASAMI.ctb
  0
XRECORD
  5
AAC3
102
{ACAD_REACTORS
330
AABE
102
}
330
AABE
100
AcDbXrecord
340
1A
  0
XRECORD
  5
AAC4
102
{ACAD_REACTORS
330
AABE
102
}
330
AABE
100
AcDbXrecord
340
19
  0
XRECORD
  5
AAC5
102
{ACAD_REACTORS
330
AABE
102
}
330
AABE
100
AcDbXrecord
340
E
  0
XRECORD
  5
AAC6
102
{ACAD_REACTORS
330
AABE
102
}
330
AABE
100
AcDbXrecord
 90
    10781
  0
XRECORD
  5
AAC7
102
{ACAD_REACTORS
330
AABE
102
}
330
AABE
100
AcDbXrecord
 90
        4
  0
XRECORD
  5
AAC8
102
{ACAD_REACTORS
330
AABE
102
}
330
AABE
100
AcDbXrecord
 90
        0
  0
XRECORD
  5
AAC9
102
{ACAD_REACTORS
330
AABE
102
}
330
AABE
100
AcDbXrecord
  1
{AFB28963-8C59-40AE-9337-C84526B81ACE}
  0
XRECORD
  5
AACA
102
{ACAD_REACTORS
330
AABE
102
}
330
AABE
100
AcDbXrecord
  1
{89C35B5C-3C7C-4CB2-98C9-0D6FD738E127}
  0
XRECORD
  5
AACB
102
{ACAD_REACTORS
330
AABE
102
}
330
AABE
100
AcDbXrecord
 40
0.0
  0
XRECORD
  5
AACC
102
{ACAD_REACTORS
330
AABE
102
}
330
AABE
100
AcDbXrecord
1000
DSTYLE
1002
{
1070
    79
 70
     2
1070
   341
340
59
1070
   342
340
59
1070
   371
 70
    -1
1070
   372
 70
    -1
1002
}
  0
XRECORD
  5
AACD
102
{ACAD_REACTORS
330
AABE
102
}
330
AABE
100
AcDbXrecord
340
0
  0
XRECORD
  5
AACE
102
{ACAD_REACTORS
330
AABE
102
}
330
AABE
100
AcDbXrecord
 70
     0
  0
XRECORD
  5
AACF
102
{ACAD_REACTORS
330
AABE
102
}
330
AABE
100
AcDbXrecord
340
0
  0
XRECORD
  5
AAD0
102
{ACAD_REACTORS
330
AABE
102
}
330
AABE
100
AcDbXrecord
 10
0.0
 20
0.0
 30
0.0
  0
XRECORD
  5
AAD1
102
{ACAD_REACTORS
330
AABE
102
}
330
AABE
100
AcDbXrecord
 10
0.0
 20
0.0
 30
0.0
  0
XRECORD
  5
AAD2
102
{ACAD_REACTORS
330
AABE
102
}
330
AABE
100
AcDbXrecord
 10
0.0
 20
0.0
 30
0.0
  0
XRECORD
  5
AAD3
102
{ACAD_REACTORS
330
AABE
102
}
330
AABE
100
AcDbXrecord
 10
0.0
 20
0.0
 30
0.0
  0
XRECORD
  5
AAD4
102
{ACAD_REACTORS
330
AABE
102
}
330
AABE
100
AcDbXrecord
 10
0.0
 20
0.0
 30
0.0
  0
XRECORD
  5
AAD5
102
{ACAD_REACTORS
330
AABE
102
}
330
AABE
100
AcDbXrecord
 10
0.0
 20
0.0
 30
0.0
  0
XRECORD
  5
AAD6
102
{ACAD_REACTORS
330
AABE
102
}
330
AABE
100
AcDbXrecord
340
0
  0
XRECORD
  5
AAD7
102
{ACAD_REACTORS
330
AABE
102
}
330
AABE
100
AcDbXrecord
 70
     0
  0
XRECORD
  5
AAD8
102
{ACAD_REACTORS
330
AABE
102
}
330
AABE
100
AcDbXrecord
340
0
  0
XRECORD
  5
AAD9
102
{ACAD_REACTORS
330
AABE
102
}
330
AABE
100
AcDbXrecord
 10
0.0
 20
0.0
 30
0.0
  0
XRECORD
  5
AADA
102
{ACAD_REACTORS
330
AABE
102
}
330
AABE
100
AcDbXrecord
 10
0.0
 20
0.0
 30
0.0
  0
XRECORD
  5
AADB
102
{ACAD_REACTORS
330
AABE
102
}
330
AABE
100
AcDbXrecord
 10
0.0
 20
0.0
 30
0.0
  0
XRECORD
  5
AADC
102
{ACAD_REACTORS
330
AABE
102
}
330
AABE
100
AcDbXrecord
 10
0.0
 20
0.0
 30
0.0
  0
XRECORD
  5
AADD
102
{ACAD_REACTORS
330
AABE
102
}
330
AABE
100
AcDbXrecord
 10
0.0
 20
0.0
 30
0.0
  0
XRECORD
  5
AADE
102
{ACAD_REACTORS
330
AABE
102
}
330
AABE
100
AcDbXrecord
 10
0.0
 20
0.0
 30
0.0
  0
LAYER_INDEX
  5
AAB5
102
{ACAD_REACTORS
330
AAB4
102
}
330
AAB4
100
AcDbIndex
 40
2453151.731356677
100
AcDbLayerIndex
  8
0
360
AAB6
 90
        0
  8
AM_0
360
AAB7
 90
       53
  8
AM_11
360
AAB8
 90
        3
  8
AM_7
360
AAB9
 90
        1
  8
AM_5
360
AABA
 90
        4
  8
Defpoints
360
AABB
 90
        0
  8
AM_6
360
AABC
 90
        1
  0
XRECORD
  5
2D
102
{ACAD_REACTORS
330
2C
102
}
330
2C
100
AcDbXrecord
  1
VERSION
140
15.0
  1
PRODUCT
  2
AutoCAD Mechanical 2000
  0
IDBUFFER
  5
AAB6
330
0
100
AcDbIdBuffer
  0
IDBUFFER
  5
AAB7
330
0
100
AcDbIdBuffer
330
A719
330
A79B
330
AA8A
330
AA8C
330
AA91
330
A4B1
330
A4B3
330
A4B5
330
A4C3
330
A4CF
330
A4D2
330
A5FD
330
A616
330
A617
330
A618
330
A619
330
A61A
330
A6EE
330
A6EF
330
A6F0
330
A6F1
330
A6F2
330
A6F3
330
A6F4
330
A6F5
330
A6F8
330
A6FA
330
A6FB
330
A6FC
330
A6FE
330
A701
330
A702
330
A703
330
A704
330
A705
330
A706
330
A707
330
A708
330
A709
330
A70A
330
A70B
330
A70C
330
A70D
330
A70E
330
A70F
330
A710
330
A711
330
A712
330
A714
330
A715
330
A716
330
A717
330
A718
  0
IDBUFFER
  5
AAB8
330
0
100
AcDbIdBuffer
330
A6ED
330
A6F7
330
A723
  0
IDBUFFER
  5
AAB9
330
0
100
AcDbIdBuffer
330
9FF0
  0
IDBUFFER
  5
AABA
330
0
100
AcDbIdBuffer
330
A215
330
A2A1
330
A391
330
A4B6
  0
IDBUFFER
  5
AABB
330
0
100
AcDbIdBuffer
  0
IDBUFFER
  5
AABC
330
0
100
AcDbIdBuffer
330
1500
  0
ENDSEC
  0
EOF
