  0
SECTION
  2
HEADER
  9
$ACADVER
  1
AC1015
  9
$ACADMAINTVER
 70
    20
  9
$DWGCODEPAGE
  3
ANSI_932
  9
$INSBASE
 10
0.0
 20
0.0
 30
0.0
  9
$EXTMIN
 10
-151.5999410872933
 20
-66.49675074436152
 30
0.0
  9
$EXTMAX
 10
19.30909799916294
 20
28.69675129629632
 30
0.0
  9
$LIMMIN
 10
-178.9185663966699
 20
-97.6073758690277
  9
$LIMMAX
 10
85.51159045364022
 20
76.71619059347825
  9
$ORTHOMODE
 70
     0
  9
$REGENMODE
 70
     1
  9
$FILLMODE
 70
     1
  9
$QTEXTMODE
 70
     0
  9
$MIRRTEXT
 70
     0
  9
$LTSCALE
 40
1.0
  9
$ATTMODE
 70
     1
  9
$TEXTSIZE
 40
2.5
  9
$TRACEWID
 40
1.0
  9
$TEXTSTYLE
  7
STANDARD
  9
$CLAYER
  8
AM_0
  9
$CELTYPE
  6
BYLAYER
  9
$CECOLOR
 62
   256
  9
$CELTSCALE
 40
1.0
  9
$DISPSILH
 70
     0
  9
$DIMSCALE
 40
0.5
  9
$DIMASZ
 40
2.5
  9
$DIMEXO
 40
1.0
  9
$DIMDLI
 40
12.0
  9
$DIMRND
 40
0.0
  9
$DIMDLE
 40
0.0
  9
$DIMEXE
 40
1.0
  9
$DIMTP
 40
0.1
  9
$DIMTM
 40
0.1
  9
$DIMTXT
 40
3.2
  9
$DIMCEN
 40
0.0
  9
$DIMTSZ
 40
0.0
  9
$DIMTOL
 70
     0
  9
$DIMLIM
 70
     0
  9
$DIMTIH
 70
     0
  9
$DIMTOH
 70
     0
  9
$DIMSE1
 70
     0
  9
$DIMSE2
 70
     0
  9
$DIMTAD
 70
     3
  9
$DIMZIN
 70
     8
  9
$DIMBLK
  1
Open30
  9
$DIMASO
 70
     1
  9
$DIMSHO
 70
     1
  9
$DIMPOST
  1

  9
$DIMAPOST
  1
"
  9
$DIMALT
 70
     0
  9
$DIMALTD
 70
     2
  9
$DIMALTF
 40
0.0393701
  9
$DIMLFAC
 40
1.0
  9
$DIMTOFL
 70
     1
  9
$DIMTVP
 40
0.0
  9
$DIMTIX
 70
     0
  9
$DIMSOXD
 70
     0
  9
$DIMSAH
 70
     0
  9
$DIMBLK1
  1

  9
$DIMBLK2
  1

  9
$DIMSTYLE
  2
AM_JIS
  9
$DIMCLRD
 70
   256
  9
$DIMCLRE
 70
   256
  9
$DIMCLRT
 70
     2
  9
$DIMTFAC
 40
0.71
  9
$DIMGAP
 40
1.5
  9
$DIMJUST
 70
     0
  9
$DIMSD1
 70
     0
  9
$DIMSD2
 70
     0
  9
$DIMTOLJ
 70
     0
  9
$DIMTZIN
 70
     0
  9
$DIMALTZ
 70
     0
  9
$DIMALTTZ
 70
     0
  9
$DIMUPT
 70
     0
  9
$DIMDEC
 70
     3
  9
$DIMTDEC
 70
     3
  9
$DIMALTU
 70
     2
  9
$DIMALTTD
 70
     2
  9
$DIMTXSTY
  7
ASAMI
  9
$DIMAUNIT
 70
     0
  9
$DIMADEC
 70
     0
  9
$DIMALTRND
 40
0.0
  9
$DIMAZIN
 70
     2
  9
$DIMDSEP
 70
    46
  9
$DIMATFIT
 70
     3
  9
$DIMFRAC
 70
     0
  9
$DIMLDRBLK
  1
Open30
  9
$DIMLUNIT
 70
     2
  9
$DIMLWD
 70
    -1
  9
$DIMLWE
 70
    -1
  9
$DIMTMOVE
 70
     0
  9
$LUNITS
 70
     2
  9
$LUPREC
 70
     2
  9
$SKETCHINC
 40
1.0
  9
$FILLETRAD
 40
0.4
  9
$AUNITS
 70
     0
  9
$AUPREC
 70
     0
  9
$MENU
  1
.
  9
$ELEVATION
 40
0.0
  9
$PELEVATION
 40
0.0
  9
$THICKNESS
 40
0.0
  9
$LIMCHECK
 70
     1
  9
$CHAMFERA
 40
1.0
  9
$CHAMFERB
 40
1.0
  9
$CHAMFERC
 40
20.0
  9
$CHAMFERD
 40
0.0
  9
$SKPOLY
 70
     0
  9
$TDCREATE
 40
2452802.716478762
  9
$TDUCREATE
 40
2452802.341478762
  9
$TDUPDATE
 40
2453691.772751366
  9
$TDUUPDATE
 40
2453691.397751366
  9
$TDINDWG
 40
0.9508240856
  9
$TDUSRTIMER
 40
0.9508239120
  9
$USRTIMER
 70
     1
  9
$ANGBASE
 50
0.0
  9
$ANGDIR
 70
     0
  9
$PDMODE
 70
     0
  9
$PDSIZE
 40
0.0
  9
$PLINEWID
 40
0.0
  9
$SPLFRAME
 70
     0
  9
$SPLINETYPE
 70
     6
  9
$SPLINESEGS
 70
     8
  9
$HANDSEED
  5
99FF
  9
$SURFTAB1
 70
     6
  9
$SURFTAB2
 70
     6
  9
$SURFTYPE
 70
     6
  9
$SURFU
 70
     6
  9
$SURFV
 70
     6
  9
$UCSBASE
  2

  9
$UCSNAME
  2

  9
$UCSORG
 10
-0.0000000000002682
 20
0.000000000000161
 30
0.0
  9
$UCSXDIR
 10
1.0
 20
0.000000000000002
 30
0.0
  9
$UCSYDIR
 10
-0.000000000000002
 20
1.0
 30
0.0
  9
$UCSORTHOREF
  2

  9
$UCSORTHOVIEW
 70
     0
  9
$UCSORGTOP
 10
0.0
 20
0.0
 30
0.0
  9
$UCSORGBOTTOM
 10
0.0
 20
0.0
 30
0.0
  9
$UCSORGLEFT
 10
0.0
 20
0.0
 30
0.0
  9
$UCSORGRIGHT
 10
0.0
 20
0.0
 30
0.0
  9
$UCSORGFRONT
 10
0.0
 20
0.0
 30
0.0
  9
$UCSORGBACK
 10
0.0
 20
0.0
 30
0.0
  9
$PUCSBASE
  2

  9
$PUCSNAME
  2

  9
$PUCSORG
 10
0.0
 20
0.0
 30
0.0
  9
$PUCSXDIR
 10
1.0
 20
0.0
 30
0.0
  9
$PUCSYDIR
 10
0.0
 20
1.0
 30
0.0
  9
$PUCSORTHOREF
  2

  9
$PUCSORTHOVIEW
 70
     0
  9
$PUCSORGTOP
 10
0.0
 20
0.0
 30
0.0
  9
$PUCSORGBOTTOM
 10
0.0
 20
0.0
 30
0.0
  9
$PUCSORGLEFT
 10
0.0
 20
0.0
 30
0.0
  9
$PUCSORGRIGHT
 10
0.0
 20
0.0
 30
0.0
  9
$PUCSORGFRONT
 10
0.0
 20
0.0
 30
0.0
  9
$PUCSORGBACK
 10
0.0
 20
0.0
 30
0.0
  9
$USERI1
 70
     0
  9
$USERI2
 70
     0
  9
$USERI3
 70
     0
  9
$USERI4
 70
     0
  9
$USERI5
 70
     0
  9
$USERR1
 40
0.0
  9
$USERR2
 40
0.0
  9
$USERR3
 40
0.0
  9
$USERR4
 40
0.0
  9
$USERR5
 40
0.0
  9
$WORLDVIEW
 70
     1
  9
$SHADEDGE
 70
     3
  9
$SHADEDIF
 70
    70
  9
$TILEMODE
 70
     1
  9
$MAXACTVP
 70
    64
  9
$PINSBASE
 10
0.0
 20
0.0
 30
0.0
  9
$PLIMCHECK
 70
     0
  9
$PEXTMIN
 10
1.000000000000000E+20
 20
1.000000000000000E+20
 30
1.000000000000000E+20
  9
$PEXTMAX
 10
-1.000000000000000E+20
 20
-1.000000000000000E+20
 30
-1.000000000000000E+20
  9
$PLIMMIN
 10
0.0
 20
0.0
  9
$PLIMMAX
 10
841.0
 20
594.0
  9
$UNITMODE
 70
     0
  9
$VISRETAIN
 70
     1
  9
$PLINEGEN
 70
     0
  9
$PSLTSCALE
 70
     0
  9
$TREEDEPTH
 70
  3020
  9
$CMLSTYLE
  2
STANDARD
  9
$CMLJUST
 70
     0
  9
$CMLSCALE
 40
20.0
  9
$PROXYGRAPHICS
 70
     1
  9
$MEASUREMENT
 70
     1
  9
$CELWEIGHT
370
    -1
  9
$ENDCAPS
280
     0
  9
$JOINSTYLE
280
     0
  9
$LWDISPLAY
290
     0
  9
$INSUNITS
 70
     4
  9
$HYPERLINKBASE
  1

  9
$STYLESHEET
  1
ASAMI.ctb
  9
$XEDIT
290
     1
  9
$CEPSNTYPE
380
     0
  9
$PSTYLEMODE
290
     1
  9
$FINGERPRINTGUID
  2
{AFB28963-8C59-40AE-9337-C84526B81ACE}
  9
$VERSIONGUID
  2
{3B0631E9-22BF-4FFE-86C8-7D70BC25BE79}
  9
$EXTNAMES
290
     1
  9
$PSVPSCALE
 40
0.0
  9
$OLESTARTUP
290
     0
  0
ENDSEC
  0
SECTION
  2
CLASSES
  0
CLASS
  1
ACDBDICTIONARYWDFLT
  2
AcDbDictionaryWithDefault
  3
ObjectDBX Classes
 90
        0
280
     0
281
     0
  0
CLASS
  1
ACDBPLACEHOLDER
  2
AcDbPlaceHolder
  3
ObjectDBX Classes
 90
        0
280
     0
281
     0
  0
CLASS
  1
LAYOUT
  2
AcDbLayout
  3
ObjectDBX Classes
 90
        0
280
     0
281
     0
  0
CLASS
  1
AMGSETTINGSOBJ
  2
AmgSettingsObj
  3
"AcadM|Product Description: AutoCAD Mechanical 2000|Company: Autodesk"
 90
        0
280
     0
281
     0
  0
CLASS
  1
ACME_DOCUMENT
  2
AcMeDbDoc
  3
AcMeServices
 90
        0
280
     0
281
     0
  0
CLASS
  1
ACMESCOPE
  2
AcMeScope
  3
AcMeServices
 90
        0
280
     0
281
     0
  0
CLASS
  1
ACMECOMMANDHISTORY
  2
AcMeCommandHistory
  3
AcMeServices
 90
        0
280
     0
281
     0
  0
CLASS
  1
DICTIONARYVAR
  2
AcDbDictionaryVar
  3
ObjectDBX Classes
 90
        0
280
     0
281
     0
  0
CLASS
  1
ACIMSYSVARMAN
  2
AcImSysVarManager
  3
AcMeServices
 90
        0
280
     0
281
     0
  0
CLASS
  1
ACIMREALSYSVAR
  2
AcImRealSysVar
  3
AcMeServices
 90
        0
280
     0
281
     0
  0
CLASS
  1
ACIMINTSYSVAR
  2
AcImIntSysVar
  3
AcMeServices
 90
        0
280
     0
281
     0
  0
CLASS
  1
ACMEDRAWINGMAN
  2
AcMeDrawingMan
  3
AcMeServices
 90
        0
280
     0
281
     0
  0
CLASS
  1
ACMEVIEW
  2
AcMeView
  3
AcMeServices
 90
        0
280
     0
281
     0
  0
CLASS
  1
ACDBENTITYCACHE
  2
AcMeEntityCache
  3
AcMeServices
 90
        0
280
     0
281
     0
  0
CLASS
  1
GSMANAGER
  2
AcMeGSManager
  3
AcMeServices
 90
        0
280
     0
281
     0
  0
CLASS
  1
AMDTINTERNALREACTOR
  2
AmdtInternalReactor
  3
AcMeServices
 90
        0
280
     0
281
     0
  0
CLASS
  1
ACMESTATEMGR
  2
AcMeStateMgr
  3
AcMeServices
 90
        0
280
     0
281
     0
  0
CLASS
  1
ACME_DATABASE
  2
AcMeDbDatabase
  3
AcMeServices
 90
        0
280
     0
281
     0
  0
CLASS
  1
ACRFINSADJUSTERMGR
  2
AcRfInsAdjusterMgr
  3
AcMeServices
 90
        0
280
     0
281
     0
  0
CLASS
  1
ACMDATADICTIONARY
  2
AcmDataDictionary
  3
"AcmSymBB|Product Description: AutoCAD Mechanical 2004 DX|Company: Autodesk"
 90
        0
280
     0
281
     0
  0
CLASS
  1
ACMDATAENTRYBLOCK
  2
AcmDataEntryBlock
  3
"AcmSymBB|Product Description: AutoCAD Mechanical 2004 DX|Company: Autodesk"
 90
    32768
280
     0
281
     0
  0
CLASS
  1
AMGOBJPROPCFG
  2
AmgObjPropCfg
  3
"AmgLay|Product Description: AutoCAD Mechanical 2000|Company: Autodesk"
 90
        1
280
     0
281
     0
  0
CLASS
  1
ACAMGFILTERDAT
  2
AcAmgFilterDat
  3
"AcadM|Product Description: AutoCAD Mechanical 2000|Company: Autodesk"
 90
    32768
280
     0
281
     0
  0
CLASS
  1
LAYER_INDEX
  2
AcDbLayerIndex
  3
ObjectDBX Classes
 90
        0
280
     0
281
     0
  0
CLASS
  1
IDBUFFER
  2
AcDbIdBuffer
  3
ObjectDBX Classes
 90
        0
280
     0
281
     0
  0
CLASS
  1
ACIMSTRSYSVAR
  2
AcImStrSysVar
  3
AcMeServices
 90
        0
280
     0
281
     0
  0
CLASS
  1
ACMSTANDARDJIS
  2
AcmStandardJIS
  3
"Amdt_StdImp|Product Description: AutoCAD Mechanical 2004 DX|Company: Autodesk"
 90
        0
280
     0
281
     0
  0
CLASS
  1
ACMSURFSTANDARDJIS
  2
AcmSurfTextStdJIS
  3
"Amdt_StdImp|Product Description: AutoCAD Mechanical 2004 DX|Company: Autodesk"
 90
        0
280
     0
281
     0
  0
CLASS
  1
ACMFCFSTANDARDJIS
  2
AcmFCFStdJIS
  3
"Amdt_StdImp|Product Description: AutoCAD Mechanical 2004 DX|Company: Autodesk"
 90
    32768
280
     0
281
     0
  0
CLASS
  1
ACMWELDSTANDARDJIS
  2
AcmWeldingStdJIS
  3
"Amdt_StdImp|Product Description: AutoCAD Mechanical 2004 DX|Company: Autodesk"
 90
        0
280
     0
281
     0
  0
CLASS
  1
ACMIDSTANDARDJIS
  2
AcmIdStdJIS
  3
"Amdt_StdImp|Product Description: AutoCAD Mechanical 2004 DX|Company: Autodesk"
 90
        0
280
     0
281
     0
  0
CLASS
  1
ACMDATUMSTANDARDJIS
  2
AcmDatumStdJIS
  3
"Amdt_StdImp|Product Description: AutoCAD Mechanical 2004 DX|Company: Autodesk"
 90
        0
280
     0
281
     0
  0
CLASS
  1
ACMBOMSTANDARDJIS
  2
AcmBOMStdJIS
  3
"Amdt_StdImp|Product Description: AutoCAD Mechanical 2004 DX|Company: Autodesk"
 90
        0
280
     0
281
     0
  0
CLASS
  1
ACMSTANDARDANSI
  2
AcmStandardANSI
  3
"Amdt_StdImp|Product Description: AutoCAD Mechanical 2004 DX|Company: Autodesk"
 90
    32768
280
     0
281
     0
  0
CLASS
  1
ACMSURFSTANDARDANSI
  2
AcmSurfTextStdANSI
  3
"Amdt_StdImp|Product Description: AutoCAD Mechanical 2004 DX|Company: Autodesk"
 90
    32768
280
     0
281
     0
  0
CLASS
  1
ACMFCFSTANDARDANSI
  2
AcmFCFStdANSI
  3
"Amdt_StdImp|Product Description: AutoCAD Mechanical 2004 DX|Company: Autodesk"
 90
    32768
280
     0
281
     0
  0
CLASS
  1
ACMWELDSTANDARDANSI
  2
AcmWeldingStdANSI
  3
"Amdt_StdImp|Product Description: AutoCAD Mechanical 2004 DX|Company: Autodesk"
 90
    32768
280
     0
281
     0
  0
CLASS
  1
ACMIDSTANDARDANSI
  2
AcmIdStdANSI
  3
"Amdt_StdImp|Product Description: AutoCAD Mechanical 2004 DX|Company: Autodesk"
 90
    32768
280
     0
281
     0
  0
CLASS
  1
ACMDATUMSTANDARDANSI
  2
AcmDatumStdANSI
  3
"Amdt_StdImp|Product Description: AutoCAD Mechanical 2004 DX|Company: Autodesk"
 90
    32768
280
     0
281
     0
  0
CLASS
  1
ACMBOMSTANDARDANSI
  2
AcmBOMStdANSI
  3
"Amdt_StdImp|Product Description: AutoCAD Mechanical 2004 DX|Company: Autodesk"
 90
    32768
280
     0
281
     0
  0
CLASS
  1
ACMSTANDARDBSI
  2
AcmStandardBSI
  3
"Amdt_StdImp|Product Description: AutoCAD Mechanical 2004 DX|Company: Autodesk"
 90
    32768
280
     0
281
     0
  0
CLASS
  1
ACMSURFSTANDARDBSI
  2
AcmSurfTextStdBSI
  3
"Amdt_StdImp|Product Description: AutoCAD Mechanical 2004 DX|Company: Autodesk"
 90
    32768
280
     0
281
     0
  0
CLASS
  1
ACMFCFSTANDARDBSI
  2
AcmFCFStdBSI
  3
"Amdt_StdImp|Product Description: AutoCAD Mechanical 2004 DX|Company: Autodesk"
 90
    32768
280
     0
281
     0
  0
CLASS
  1
ACMWELDSTANDARDBSI
  2
AcmWeldingStdBSI
  3
"Amdt_StdImp|Product Description: AutoCAD Mechanical 2004 DX|Company: Autodesk"
 90
    32768
280
     0
281
     0
  0
CLASS
  1
ACMIDSTANDARDBSI
  2
AcmIdStdBSI
  3
"Amdt_StdImp|Product Description: AutoCAD Mechanical 2004 DX|Company: Autodesk"
 90
    32768
280
     0
281
     0
  0
CLASS
  1
ACMDATUMSTANDARDBSI
  2
AcmDatumStdBSI
  3
"Amdt_StdImp|Product Description: AutoCAD Mechanical 2004 DX|Company: Autodesk"
 90
    32768
280
     0
281
     0
  0
CLASS
  1
ACMBOMSTANDARDBSI
  2
AcmBOMStdBSI
  3
"Amdt_StdImp|Product Description: AutoCAD Mechanical 2004 DX|Company: Autodesk"
 90
    32768
280
     0
281
     0
  0
CLASS
  1
STDPART2D
  2
AmgStdPart
  3
"AmgStdPart|Product Description: AutoCAD Mechanical 2000|Company: Autodesk"
 90
    33791
280
     0
281
     1
  0
CLASS
  1
PLOTSETTINGS
  2
AcDbPlotSettings
  3
ObjectDBX Classes
 90
        0
280
     0
281
     0
  0
CLASS
  1
TABLESTYLE
  2
AcDbTableStyle
  3
ObjectDBX Classes
 90
     2047
280
     0
281
     0
  0
CLASS
  1
ACGREFMASTER
  2
AcGrefMaster
  3
AcAttribServices
 90
        0
280
     0
281
     0
  0
CLASS
  1
AM_DRAWING_MGR
  2
AcDmDwgMgr
  3
AcMechDwgViewMgmt
 90
        0
280
     0
281
     0
  0
CLASS
  1
AM_DWG_DOCUMENT
  2
AcDmDwgDocument
  3
AcMechDwgViewMgmt
 90
        0
280
     0
281
     0
  0
CLASS
  1
AM_DWG_SHEET
  2
AcDmSheet
  3
AcMechDwgViewMgmt
 90
        0
280
     0
281
     0
  0
CLASS
  1
AM_VIEWDIMPARMAP
  2
AcDmViewDimParMap
  3
AcMechDwgViewMgmt
 90
        0
280
     0
281
     0
  0
CLASS
  1
AM_DWGMGR_NAME
  2
AcDmDwgMgrName
  3
AcMechDwgViewMgmt
 90
        0
280
     0
281
     0
  0
CLASS
  1
ACGREFACADMASTER
  2
AcGrefacadMaster
  3
AcGrefServices
 90
        0
280
     0
281
     0
  0
CLASS
  1
AMDTMENUSTATEMGR
  2
AmdtMenuStateMgr
  3
McadcomServices
 90
        0
280
     0
281
     0
  0
CLASS
  1
AMDTMCOMMENUSTATE
  2
AmdtMcomMenuState
  3
McadcomServices
 90
        0
280
     0
281
     0
  0
CLASS
  1
AMIMASTER
  2
AmiMaster
  3
AmiServices
 90
        0
280
     0
281
     0
  0
CLASS
  1
MAPIAMMOUDLE
  2
MApiAmModule
  3
MApiAmServices
 90
        0
280
     0
281
     0
  0
CLASS
  1
AMDTADMENUSTATE
  2
AmdtAdMenuState
  3
DesignerServices
 90
        0
280
     0
281
     0
  0
CLASS
  1
ADAPPL
  2
AcAdAppl
  3
DesignerServices
 90
        0
280
     0
281
     0
  0
CLASS
  1
DEPMGR
  2
AcAdDepMgr
  3
DesignerServices
 90
        0
280
     0
281
     0
  0
CLASS
  1
PARAMMGR
  2
AcAdParamMgr
  3
DesignerServices
 90
        0
280
     0
281
     0
  0
CLASS
  1
PARAMSCOPE
  2
AcAdParamScope
  3
DesignerServices
 90
        0
280
     0
281
     0
  0
CLASS
  1
NAMEDAPPL
  2
AcAdNamedAppl
  3
DesignerServices
 90
        0
280
     0
281
     0
  0
CLASS
  1
AMDTDMMENUSTATE
  2
AmdtDmMenuState
  3
AcMechDwgViewMgmt
 90
        0
280
     0
281
     0
  0
CLASS
  1
AMDTAMMENUSTATE
  2
AmdtAmMenuState
  3
DesignerAssemblies
 90
        0
280
     0
281
     0
  0
CLASS
  1
ACAMPROJECT
  2
AcAmProject
  3
DesignerAssemblies
 90
        0
280
     0
281
     0
  0
CLASS
  1
ACAMGRCOMPDEF
  2
AcAmGrCompDef
  3
DesignerAssemblies
 90
        0
280
     0
281
     0
  0
CLASS
  1
ACCMCONTEXT
  2
AcCmContext
  3
DesignerAssemblies
 90
        0
280
     0
281
     0
  0
CLASS
  1
ACAMCOMPDEF
  2
AcAmCompDef
  3
DesignerAssemblies
 90
        0
280
     0
281
     0
  0
CLASS
  1
ACAMCOMPDEFMGR
  2
AcAmCompDefMgr
  3
DesignerAssemblies
 90
        0
280
     0
281
     0
  0
CLASS
  1
AMCONTEXTMGR
  2
AcAmContextMgr
  3
DesignerAssemblies
 90
        0
280
     0
281
     0
  0
CLASS
  1
ACAMCONTEXTMODELER
  2
AcAmContextModeler
  3
DesignerAssemblies
 90
        0
280
     0
281
     0
  0
CLASS
  1
CATALOGSTATE
  2
AcAmCatalogState
  3
DesignerAssemblies
 90
        0
280
     0
281
     0
  0
CLASS
  1
ACAMGRCOMPDEFSET
  2
AcAmGrCompDefSet
  3
DesignerAssemblies
 90
        0
280
     0
281
     0
  0
CLASS
  1
AMDTBROWSERDBTAB
  2
AmdtBrowserDbTab
  3
McadcomServices
 90
        0
280
     0
281
     0
  0
CLASS
  1
CBROWSERAPPOBJECT
  2
CBrowserAppObject
  3
McadcomServices
 90
        0
280
     0
281
     0
  0
CLASS
  1
DM_PLACEHOLDER
  2
AcDmSelsetPlaceholder
  3
AcMechDwgViewMgmt
 90
        0
280
     0
281
     0
  0
CLASS
  1
ACMSTANDARDISO
  2
AcmStandardISO
  3
"Amdt_StdImp|Product Description: AutoCAD Mechanical 2004 DX|Company: Autodesk"
 90
        0
280
     0
281
     0
  0
CLASS
  1
AMDTEDGESTANDARDISO
  2
AmdtEdgeStdISO
  3
"Amdt_StdImp|Product Description: AutoCAD Mechanical 2004 DX|Company: Autodesk"
 90
        0
280
     0
281
     0
  0
CLASS
  1
ACMSURFSTANDARDISO
  2
AcmSurfTextStdISO
  3
"Amdt_StdImp|Product Description: AutoCAD Mechanical 2004 DX|Company: Autodesk"
 90
        0
280
     0
281
     0
  0
CLASS
  1
ACMFCFSTANDARDISO
  2
AcmFCFStdISO
  3
"Amdt_StdImp|Product Description: AutoCAD Mechanical 2004 DX|Company: Autodesk"
 90
        0
280
     0
281
     0
  0
CLASS
  1
ACMWELDSTANDARDISO
  2
AcmWeldingStdISO
  3
"Amdt_StdImp|Product Description: AutoCAD Mechanical 2004 DX|Company: Autodesk"
 90
        0
280
     0
281
     0
  0
CLASS
  1
ACMIDSTANDARDISO
  2
AcmIdStdISO
  3
"Amdt_StdImp|Product Description: AutoCAD Mechanical 2004 DX|Company: Autodesk"
 90
        0
280
     0
281
     0
  0
CLASS
  1
ACMDATUMSTANDARDISO
  2
AcmDatumStdISO
  3
"Amdt_StdImp|Product Description: AutoCAD Mechanical 2004 DX|Company: Autodesk"
 90
        0
280
     0
281
     0
  0
CLASS
  1
ACMBOMSTANDARDISO
  2
AcmBOMStdISO
  3
"Amdt_StdImp|Product Description: AutoCAD Mechanical 2004 DX|Company: Autodesk"
 90
        0
280
     0
281
     0
  0
CLASS
  1
ACMDETAILSTANDARDISO
  2
AmdtDetailSymStdISO
  3
"Amdt_StdImp|Product Description: AutoCAD Mechanical 2004 DX|Company: Autodesk"
 90
        0
280
     0
281
     0
  0
CLASS
  1
ACMSECTIONSTANDARDISO
  2
AmdtSectionSymStdISO
  3
"Amdt_StdImp|Product Description: AutoCAD Mechanical 2004 DX|Company: Autodesk"
 90
        0
280
     0
281
     0
  0
CLASS
  1
ACMCENTERLINESTANDARDISO
  2
AmdtCenterLineStdISO
  3
"Amdt_StdImp|Product Description: AutoCAD Mechanical 2004 DX|Company: Autodesk"
 90
        0
280
     0
281
     0
  0
CLASS
  1
ACMNOTESTANDARDISO
  2
AmdtNoteStdISO
  3
"Amdt_StdImp|Product Description: AutoCAD Mechanical 2004 DX|Company: Autodesk"
 90
        0
280
     0
281
     0
  0
CLASS
  1
AMDTNOTETEMPLATEDB
  2
AmdtNoteTemplateDB
  3
AMDT_STDIMP_MODULE_NAME
 90
        0
280
     0
281
     0
  0
CLASS
  1
ACAMGLAYSTD
  2
AcAmgLayStd
  3
"AcAmgLayStd|Product Description: AutoCAD Mechanical 2000|Company: Autodesk"
 90
        0
280
     0
281
     0
  0
CLASS
  1
ACAMGDIMSTD
  2
AcAmgDimStd
  3
"AcAmgDimStd|Product Description: AutoCAD Mechanical 2000|Company: Autodesk"
 90
        0
280
     0
281
     0
  0
CLASS
  1
ACAMGHOLECHARTSTDISO
  2
AcAmgHoleChartStdISO
  3
ACMSYMBB_MODULE_NAME
 90
        0
280
     0
281
     0
  0
CLASS
  1
ACAMGTITLESTD
  2
AcAmgTitleStd
  3
"TITLEAPP"
 90
        0
280
     0
281
     0
  0
CLASS
  1
ACMTHREADLINESTANDARDISO
  2
AmdtThreadLineStdISO
  3
"Amdt_StdImp|Product Description: AutoCAD Mechanical 2004 DX|Company: Autodesk"
 90
        0
280
     0
281
     0
  0
CLASS
  1
ACMFCFSTANDARDJIS98
  2
AcmFCFStdJIS98
  3
"Amdt_StdImp|Product Description: AutoCAD Mechanical 2004 DX|Company: Autodesk"
 90
        0
280
     0
281
     0
  0
CLASS
  1
ACMDETAILSTANDARDJIS
  2
AmdtDetailSymStdJIS
  3
"Amdt_StdImp|Product Description: AutoCAD Mechanical 2004 DX|Company: Autodesk"
 90
        0
280
     0
281
     0
  0
CLASS
  1
ACMSECTIONSTANDARDJIS
  2
AmdtSectionSymStdJIS
  3
"Amdt_StdImp|Product Description: AutoCAD Mechanical 2004 DX|Company: Autodesk"
 90
        0
280
     0
281
     0
  0
CLASS
  1
ACMCENTERLINESTANDARDJIS
  2
AmdtCenterLineStdJIS
  3
"Amdt_StdImp|Product Description: AutoCAD Mechanical 2004 DX|Company: Autodesk"
 90
        0
280
     0
281
     0
  0
CLASS
  1
ACMTHREADLINESTANDARDJIS
  2
AmdtThreadLineStdJIS
  3
"Amdt_StdImp|Product Description: AutoCAD Mechanical 2004 DX|Company: Autodesk"
 90
        0
280
     0
281
     0
  0
CLASS
  1
ACMNOTESTANDARDJIS
  2
AmdtNoteStdJIS
  3
"Amdt_StdImp|Product Description: AutoCAD Mechanical 2004 DX|Company: Autodesk"
 90
        0
280
     0
281
     0
  0
CLASS
  1
ACAMGHOLECHARTSTDJIS
  2
AcAmgHoleChartStdJIS
  3
ACMSYMBB_MODULE_NAME
 90
        0
280
     0
281
     0
  0
ENDSEC
  0
SECTION
  2
TABLES
  0
TABLE
  2
VPORT
  5
8
330
0
100
AcDbSymbolTable
 70
     3
  0
VPORT
  5
99F4
330
8
100
AcDbSymbolTableRecord
100
AcDbViewportTableRecord
  2
*Active
 70
     0
 10
0.0
 20
0.0
 11
1.0
 21
1.0
 12
-66.14154097689411
 22
-18.43606822600532
 13
0.0
 23
0.0
 14
2.5
 24
2.5
 15
10.0
 25
10.0
 16
0.0
 26
0.0
 36
1.0
 17
0.0
 27
0.0
 37
0.0
 40
110.5354988850406
 41
1.552631578947368
 42
50.0
 43
0.0
 44
0.0
 50
0.0
 51
0.0
 71
     0
 72
   100
 73
     1
 74
     3
 75
     0
 76
     0
 77
     0
 78
     0
281
     0
 65
     1
110
-0.0000000000002682
120
0.000000000000161
130
0.0
111
1.0
121
0.000000000000002
131
0.0
112
-0.000000000000002
122
1.0
132
0.0
 79
     0
146
0.0
  0
ENDTAB
  0
TABLE
  2
LTYPE
  5
5
330
0
100
AcDbSymbolTable
 70
    17
  0
LTYPE
  5
14
330
5
100
AcDbSymbolTableRecord
100
AcDbLinetypeTableRecord
  2
BYBLOCK
 70
     0
  3

 72
    65
 73
     0
 40
0.0
  0
LTYPE
  5
15
330
5
100
AcDbSymbolTableRecord
100
AcDbLinetypeTableRecord
  2
BYLAYER
 70
     0
  3

 72
    65
 73
     0
 40
0.0
  0
LTYPE
  5
16
330
5
100
AcDbSymbolTableRecord
100
AcDbLinetypeTableRecord
  2
CONTINUOUS
 70
     0
  3
Solid line
 72
    65
 73
     0
 40
0.0
  0
LTYPE
  5
4B
330
5
100
AcDbSymbolTableRecord
100
AcDbLinetypeTableRecord
  2
AM_ISO02W050
 70
     0
  3
__ __ __ __ __ __ __ __ __ __ __ __ __ __ __
 72
    65
 73
     2
 40
7.5
 49
6.0
 74
     0
 49
-1.5
 74
     0
  0
LTYPE
  5
4C
330
5
100
AcDbSymbolTableRecord
100
AcDbLinetypeTableRecord
  2
AM_ISO08W050
 70
     0
  3
____ . ____ . ____ . ____ . ____ . ____ . ____
 72
    65
 73
     4
 40
18.0
 49
12.0
 74
     0
 49
-1.5
 74
     0
 49
3.0
 74
     0
 49
-1.5
 74
     0
  0
LTYPE
  5
4D
330
5
100
AcDbSymbolTableRecord
100
AcDbLinetypeTableRecord
  2
AM_ISO09W050
 70
     0
  3
_____ . . _____ . . _____ . . ____ .. ____
 72
    65
 73
     6
 40
22.5
 49
12.0
 74
     0
 49
-1.5
 74
     0
 49
3.0
 74
     0
 49
-1.5
 74
     0
 49
3.0
 74
     0
 49
-1.5
 74
     0
  0
LTYPE
  5
4E
330
5
100
AcDbSymbolTableRecord
100
AcDbLinetypeTableRecord
  2
Amconstr
 70
     0
  3
_______________________
 72
    65
 73
     2
 40
9999.0
 49
9999.0
 74
     0
 49
0.0
 74
     0
  0
LTYPE
  5
4F
330
5
100
AcDbSymbolTableRecord
100
AcDbLinetypeTableRecord
  2
AM_ISO02W050x2
 70
     0
  3
 _ _ _ _ _ _ _ _ _ _ _ _
 72
    65
 73
     2
 40
3.75
 49
3.0
 74
     0
 49
-0.75
 74
     0
  0
LTYPE
  5
50
330
5
100
AcDbSymbolTableRecord
100
AcDbLinetypeTableRecord
  2
AM_ISO08W050x2
 70
     0
  3
__ . __ . __ . __ . __ . __
 72
    65
 73
     4
 40
9.0
 49
6.0
 74
     0
 49
-0.75
 74
     0
 49
1.5
 74
     0
 49
-0.75
 74
     0
  0
LTYPE
  5
53
330
5
100
AcDbSymbolTableRecord
100
AcDbLinetypeTableRecord
  2
Amzigzag
 70
     0
  3
/\/-/\/-/\/-/\/-/\/-/\/
 72
    65
 73
     2
 40
11.0001
 49
0.0001
 74
     4
 75
   135
340
52
 46
0.04
 50
0.0
 44
0.0
 45
0.0
 49
-11.0
 74
     0
  0
LTYPE
  5
166
330
5
100
AcDbSymbolTableRecord
100
AcDbLinetypeTableRecord
  2
ACJISTGL
 70
     0
  3
_ _ _ _ _
 72
    65
 73
     2
 40
3.0
 49
2.0
 74
     0
 49
-1.0
 74
     0
  0
LTYPE
  5
26A
330
5
100
AcDbSymbolTableRecord
100
AcDbLinetypeTableRecord
  2
ACJISTGB
 70
     0
  3
__ . . __ . .
 72
    65
 73
     6
 40
9.0
 49
4.0
 74
     0
 49
-1.0
 74
     0
 49
1.0
 74
     0
 49
-1.0
 74
     0
 49
1.0
 74
     0
 49
-1.0
 74
     0
  0
LTYPE
  5
996C
330
5
100
AcDbSymbolTableRecord
100
AcDbLinetypeTableRecord
  2
HIDDEN
 70
     0
  3
Hidden __ __ __ __ __ __ __ __ __ __ __ __ __ _
 72
    65
 73
     2
 40
9.524999999999998
 49
6.349999999999999
 74
     0
 49
-3.174999999999999
 74
     0
  0
LTYPE
  5
996D
330
5
100
AcDbSymbolTableRecord
100
AcDbLinetypeTableRecord
  2
PHANTOM2
 70
     0
  3
Phantom (.5x) ___ _ _ ___ _ _ ___ _ _ ___ _ _
 72
    65
 73
     6
 40
31.75
 49
15.875
 74
     0
 49
-3.174999999999999
 74
     0
 49
3.174999999999999
 74
     0
 49
-3.174999999999999
 74
     0
 49
3.174999999999999
 74
     0
 49
-3.174999999999999
 74
     0
  0
LTYPE
  5
996E
330
5
100
AcDbSymbolTableRecord
100
AcDbLinetypeTableRecord
  2
CENTER
 70
     0
  3
__ . __
 72
    65
 73
     4
 40
7.0
 49
4.0
 74
     0
 49
-1.0
 74
     0
 49
1.0
 74
     0
 49
-1.0
 74
     0
  0
LTYPE
  5
999F
330
5
100
AcDbSymbolTableRecord
100
AcDbLinetypeTableRecord
  2
ACISOWELD
 70
     0
  3
_ _ _ _ _
 72
    65
 73
     2
 40
2.0
 49
2.0
 74
     0
 49
-1.0
 74
     0
  0
LTYPE
  5
99A2
330
5
100
AcDbSymbolTableRecord
100
AcDbLinetypeTableRecord
  2
ACISOTGB
 70
     0
  3
__ . . __ . .
 72
    65
 73
     6
 40
9.0
 49
4.0
 74
     0
 49
-1.0
 74
     0
 49
1.0
 74
     0
 49
-1.0
 74
     0
 49
1.0
 74
     0
 49
-1.0
 74
     0
  0
LTYPE
  5
99A3
330
5
100
AcDbSymbolTableRecord
100
AcDbLinetypeTableRecord
  2
ACISOTGL
 70
     0
  3
_ _ _ _ _
 72
    65
 73
     2
 40
3.0
 49
2.0
 74
     0
 49
-1.0
 74
     0
  0
LTYPE
  5
99CC
330
5
100
AcDbSymbolTableRecord
100
AcDbLinetypeTableRecord
  2
ACJISWELD
 70
     0
  3
_ _ _ _ _
 72
    65
 73
     2
 40
2.0
 49
2.0
 74
     0
 49
-1.0
 74
     0
  0
ENDTAB
  0
TABLE
  2
LAYER
  5
2
330
0
100
AcDbSymbolTable
 70
     7
  0
LAYER
  5
10
330
2
100
AcDbSymbolTableRecord
100
AcDbLayerTableRecord
  2
0
 70
     0
 62
     7
  6
CONTINUOUS
370
    -3
390
F
  0
LAYER
  5
3F9
330
2
100
AcDbSymbolTableRecord
100
AcDbLayerTableRecord
  2
AM_0
 70
     0
 62
     7
  6
CONTINUOUS
370
    -3
390
F
  0
LAYER
  5
BA4
330
2
100
AcDbSymbolTableRecord
100
AcDbLayerTableRecord
  2
AM_5
 70
     0
 62
     3
  6
CONTINUOUS
370
    -3
390
F
  0
LAYER
  5
BA6
330
2
100
AcDbSymbolTableRecord
100
AcDbLayerTableRecord
  2
AM_7
 70
     0
 62
     4
  6
AM_ISO08W050
370
    -3
390
F
  0
LAYER
  5
E64
330
2
100
AcDbSymbolTableRecord
100
AcDbLayerTableRecord
  2
AM_6
 70
     0
 62
     2
  6
CONTINUOUS
370
    -3
390
F
  0
LAYER
  5
F4D
330
2
100
AcDbSymbolTableRecord
100
AcDbLayerTableRecord
  2
DEFPOINTS
 70
     0
 62
     7
  6
CONTINUOUS
290
     0
370
    -3
390
F
  0
LAYER
  5
4E80
330
2
100
AcDbSymbolTableRecord
100
AcDbLayerTableRecord
  2
AM_11
 70
     0
 62
     3
  6
AM_ISO09W050
370
    -3
390
F
  0
ENDTAB
  0
TABLE
  2
STYLE
  5
3
330
0
100
AcDbSymbolTable
 70
     7
  0
STYLE
  5
11
330
3
100
AcDbSymbolTableRecord
100
AcDbTextStyleTableRecord
  2
STANDARD
 70
     0
 40
0.0
 41
1.0
 50
0.0
 71
     0
 42
2.5
  3
simplex.shx
  4
EXTFONT.SHX
  0
STYLE
  5
52
330
3
100
AcDbSymbolTableRecord
100
AcDbTextStyleTableRecord
  2

 70
     1
 40
0.0
 41
1.0
 50
0.0
 71
     0
 42
2.5
  3
ltypeshp.shx
  4

  0
STYLE
  5
6B
330
3
100
AcDbSymbolTableRecord
100
AcDbTextStyleTableRecord
  2
ASAMI
 70
     0
 40
0.0
 41
1.0
 50
0.0
 71
     0
 42
2.5
  3
simplex.shx
  4
EXTFONT.SHX
  0
STYLE
  5
262
330
3
100
AcDbSymbolTableRecord
100
AcDbTextStyleTableRecord
  2
ACJISTS
 70
     0
 40
1.0
 41
1.0
 50
0.0
 71
     0
 42
1.0
  3
isocp.shx
  4
extfont.shx
  0
STYLE
  5
269
330
3
100
AcDbSymbolTableRecord
100
AcDbTextStyleTableRecord
  2
ACJISGDT
 70
     0
 40
0.0
 41
1.0
 50
0.0
 71
     0
 42
1.0
  3
amgdt.shx
  4

  0
STYLE
  5
9999
330
3
100
AcDbSymbolTableRecord
100
AcDbTextStyleTableRecord
  2
ACISOTS
 70
     0
 40
3.799999999999999
 41
1.0
 50
0.0
 71
     0
 42
3.799999999999999
  3
isocp.shx
  4
extfont.shx
  0
STYLE
  5
999D
330
3
100
AcDbSymbolTableRecord
100
AcDbTextStyleTableRecord
  2
ACISOGDT
 70
     0
 40
0.0
 41
1.0
 50
0.0
 71
     0
 42
2.5
  3
amgdt.shx
  4
extfont.shx
  0
ENDTAB
  0
TABLE
  2
VIEW
  5
6
330
0
100
AcDbSymbolTable
 70
     0
  0
ENDTAB
  0
TABLE
  2
UCS
  5
7
330
0
100
AcDbSymbolTable
 70
     0
  0
ENDTAB
  0
TABLE
  2
APPID
  5
9
330
0
100
AcDbSymbolTable
 70
    33
  0
APPID
  5
12
330
9
100
AcDbSymbolTableRecord
100
AcDbRegAppTableRecord
  2
ACAD
 70
     0
  0
APPID
  5
30
330
9
100
AcDbSymbolTableRecord
100
AcDbRegAppTableRecord
  2
MCAD_NO_VIS
 70
     0
  0
APPID
  5
31
330
9
100
AcDbSymbolTableRecord
100
AcDbRegAppTableRecord
  2
ACAD_TEMP_GRAPHIC
 70
     0
  0
APPID
  5
2C2
330
9
100
AcDbSymbolTableRecord
100
AcDbRegAppTableRecord
  2
GENIUS_GENDTOL_13
 70
     0
  0
APPID
  5
339
330
9
100
AcDbSymbolTableRecord
100
AcDbRegAppTableRecord
  2
GENIUS_GENODEF_13
 70
     0
  0
APPID
  5
33A
330
9
100
AcDbSymbolTableRecord
100
AcDbRegAppTableRecord
  2
GENIUS_GENOBJ-N-RSBK_13
 70
     0
  0
APPID
  5
33B
330
9
100
AcDbSymbolTableRecord
100
AcDbRegAppTableRecord
  2
GENIUS_GENOBJ-N-LIB_13
 70
     0
  0
APPID
  5
33C
330
9
100
AcDbSymbolTableRecord
100
AcDbRegAppTableRecord
  2
GENIUS_GENSCALE_13
 70
     0
  0
APPID
  5
378
330
9
100
AcDbSymbolTableRecord
100
AcDbRegAppTableRecord
  2
GENIUS_GENDIMSH_14
 70
     0
  0
APPID
  5
BB0
330
9
100
AcDbSymbolTableRecord
100
AcDbRegAppTableRecord
  2
GENIUS_GENOBJ-N-CEN_13
 70
     0
  0
APPID
  5
BB1
330
9
100
AcDbSymbolTableRecord
100
AcDbRegAppTableRecord
  2
GENIUS_GENFIL_13
 70
     0
  0
APPID
  5
BB2
330
9
100
AcDbSymbolTableRecord
100
AcDbRegAppTableRecord
  2
GENIUS_GENOBJ-N-CHA_13
 70
     0
  0
APPID
  5
1FAF
330
9
100
AcDbSymbolTableRecord
100
AcDbRegAppTableRecord
  2
GENIUS_GENOBJ-N-CRS_13
 70
     0
  0
APPID
  5
1FB0
330
9
100
AcDbSymbolTableRecord
100
AcDbRegAppTableRecord
  2
GENIUS_GENOENT_13
 70
     0
  0
APPID
  5
1FB1
330
9
100
AcDbSymbolTableRecord
100
AcDbRegAppTableRecord
  2
GENIUS_GENOREF_13
 70
     0
  0
APPID
  5
1FB2
330
9
100
AcDbSymbolTableRecord
100
AcDbRegAppTableRecord
  2
GENIUS_GENOLIS_13
 70
     0
  0
APPID
  5
1FB7
330
9
100
AcDbSymbolTableRecord
100
AcDbRegAppTableRecord
  2
GENIUS_GENOBJ-N-FIL_13
 70
     0
  0
APPID
  5
22A8
330
9
100
AcDbSymbolTableRecord
100
AcDbRegAppTableRecord
  2
GEVID1056506048
 70
     0
  0
APPID
  5
22A9
330
9
100
AcDbSymbolTableRecord
100
AcDbRegAppTableRecord
  2
GEVDC
 70
     0
  0
APPID
  5
22AC
330
9
100
AcDbSymbolTableRecord
100
AcDbRegAppTableRecord
  2
GENIUS_GENBH_13
 70
     0
  0
APPID
  5
22B8
330
9
100
AcDbSymbolTableRecord
100
AcDbRegAppTableRecord
  2
GENIUS_GENOBJ-NBEHI-BHF_13
 70
     0
  0
APPID
  5
22BA
330
9
100
AcDbSymbolTableRecord
100
AcDbRegAppTableRecord
  2
GENIUS_GENOBJ-NBEHI-BHB_13
 70
     0
  0
APPID
  5
35C9
330
9
100
AcDbSymbolTableRecord
100
AcDbRegAppTableRecord
  2
GENIUS_GENREC_14
 70
     0
  0
APPID
  5
35CA
330
9
100
AcDbSymbolTableRecord
100
AcDbRegAppTableRecord
  2
GENIUS_GENOBJ-N-REC_13
 70
     0
  0
APPID
  5
9935
330
9
100
AcDbSymbolTableRecord
100
AcDbRegAppTableRecord
  2
ACATTRIBSERVICES
 70
     0
  0
APPID
  5
9936
330
9
100
AcDbSymbolTableRecord
100
AcDbRegAppTableRecord
  2
AD_DRAW
 70
     0
  0
APPID
  5
9937
330
9
100
AcDbSymbolTableRecord
100
AcDbRegAppTableRecord
  2
DESIGNERASSEMBLIES
 70
     0
  0
APPID
  5
9938
330
9
100
AcDbSymbolTableRecord
100
AcDbRegAppTableRecord
  2
ACADM_DIM_EDIT
 70
     0
  0
APPID
  5
9939
330
9
100
AcDbSymbolTableRecord
100
AcDbRegAppTableRecord
  2
AMDT_DM_ADJ
 70
     0
  0
APPID
  5
993A
330
9
100
AcDbSymbolTableRecord
100
AcDbRegAppTableRecord
  2
ACAD_DSTYLE_DIMTEXT_FILL
 70
     0
  0
APPID
  5
993B
330
9
100
AcDbSymbolTableRecord
100
AcDbRegAppTableRecord
  2
ACAD_PSEXT
 70
     0
  0
APPID
  5
99EE
330
9
100
AcDbSymbolTableRecord
100
AcDbRegAppTableRecord
  2
GENIUS_GENSCREG_15
 70
     0
  0
APPID
  5
99EF
330
9
100
AcDbSymbolTableRecord
100
AcDbRegAppTableRecord
  2
GENIUS_GENOBJ-N-SDF_13
 70
     0
  0
ENDTAB
  0
TABLE
  2
DIMSTYLE
  5
A
330
0
100
AcDbSymbolTable
 70
    16
100
AcDbDimStyleTable
 71
     0
  0
DIMSTYLE
105
58
330
A
100
AcDbSymbolTableRecord
100
AcDbDimStyleTableRecord
  2
AM_JIS
 70
     0
  4
"
 41
2.5
 42
1.0
 43
10.0
 44
1.0
 47
0.1
 48
0.1000000001
 73
     0
 74
     0
 77
     3
 78
     8
 79
     2
140
3.799999999999999
141
0.0
143
0.0393701
146
0.71
147
1.5
172
     1
176
   256
177
   256
178
     2
271
     2
272
     2
275
     1
283
     0
284
     8
340
11
341
59
342
59
371
    -1
372
    -1
  0
DIMSTYLE
105
5F
330
A
100
AcDbSymbolTableRecord
100
AcDbDimStyleTableRecord
  2
AM_JIS$3
 70
     0
  4
"
 41
2.5
 42
1.0
 43
10.0
 44
1.0
 47
0.1
 48
0.1000000001
 73
     0
 77
     3
 78
     8
 79
     2
140
3.799999999999999
141
0.0
143
0.0393701
146
0.71
147
1.5
176
   256
177
   256
178
     2
271
     2
272
     2
275
     1
283
     0
284
     8
288
     1
289
     0
340
11
341
59
342
59
371
    -1
372
    -1
  0
DIMSTYLE
105
60
330
A
100
AcDbSymbolTableRecord
100
AcDbDimStyleTableRecord
  2
AM_JIS$4
 70
     0
  4
"
 41
2.5
 42
1.0
 43
10.0
 44
1.0
 47
0.1
 48
0.1000000001
 73
     0
 77
     3
 78
     8
 79
     2
140
3.799999999999999
141
0.0
143
0.0393701
146
0.71
147
1.5
176
   256
177
   256
178
     2
271
     2
272
     2
275
     1
283
     0
284
     8
288
     1
289
     0
340
11
341
59
342
59
371
    -1
372
    -1
  0
DIMSTYLE
105
61
330
A
100
AcDbSymbolTableRecord
100
AcDbDimStyleTableRecord
  2
AM_JIS$6
 70
     0
  4
"
 41
2.5
 42
1.0
 43
10.0
 44
1.0
 47
0.1
 48
0.1000000001
 73
     0
 74
     0
 78
     8
 79
     2
140
3.799999999999999
141
0.0
143
0.0393701
146
0.71
147
1.5
172
     1
176
   256
177
   256
178
     2
271
     2
272
     2
275
     1
283
     0
284
     8
340
11
341
59
342
59
371
    -1
372
    -1
  0
DIMSTYLE
105
62
330
A
100
AcDbSymbolTableRecord
100
AcDbDimStyleTableRecord
  2
AM_JIS$7
 70
     0
  4
"
 41
2.5
 42
1.0
 43
10.0
 44
1.0
 47
0.1
 48
0.1000000001
 73
     0
 74
     0
 77
     3
 78
     8
 79
     2
140
5.0
141
0.0
143
0.0393701
146
0.71
147
1.5
172
     1
176
   256
177
   256
178
     2
271
     2
272
     2
275
     1
283
     0
284
     8
340
11
341
59
342
59
371
    -1
372
    -1
  0
DIMSTYLE
105
63
330
A
100
AcDbSymbolTableRecord
100
AcDbDimStyleTableRecord
  2
AM_JIS$SF
 70
     0
  4
"
 41
2.5
 42
1.0
 43
10.0
 44
1.0
 47
0.1
 48
0.1
 73
     0
 74
     0
 75
     1
 76
     1
 77
     3
 78
     8
 79
     2
140
3.5
141
0.0
143
0.0393701
146
0.71
147
1.5
172
     1
176
   256
177
   256
178
     2
271
     2
272
     3
274
     4
283
     0
284
     8
340
11
341
59
342
59
343
59
344
59
371
    -1
372
    -1
  0
DIMSTYLE
105
68
330
A
100
AcDbSymbolTableRecord
100
AcDbDimStyleTableRecord
  2
AM_JIS$SH
 70
     0
  4
"
 41
2.5
 42
1.0
 43
10.0
 44
1.0
 47
0.1
 48
0.1
 73
     0
 74
     0
 75
     1
 76
     1
 77
     3
 78
     8
 79
     2
140
3.5
141
0.0
143
0.0393701
144
2.0
146
0.71
147
1.5
172
     1
173
     1
176
   256
177
   256
178
     2
271
     2
272
     3
274
     4
283
     0
284
     8
340
11
341
59
342
59
343
64
344
59
371
    -1
372
    -1
  0
DIMSTYLE
105
B34
330
A
100
AcDbSymbolTableRecord
100
AcDbDimStyleTableRecord
  2
AM_JIS$2
 70
     0
  4
"
 41
2.5
 42
1.0
 43
12.0
 44
1.0
 47
0.1
 48
0.1
 73
     0
 74
     0
 77
     3
 78
     8
140
3.2
141
0.0
143
0.0393701
146
0.71
147
1.5
172
     1
176
   256
177
   256
178
     2
271
     3
272
     3
283
     0
340
6B
341
59
342
59
  0
DIMSTYLE
105
3B48
102
{ACAD_REACTORS
330
9172
330
9249
330
9381
330
92F5
330
9428
330
94BD
330
956D
102
}
330
A
100
AcDbSymbolTableRecord
100
AcDbDimStyleTableRecord
  2
AM_JIS$0
 70
     0
  4
"
 41
2.5
 42
0.0
 43
10.0
 44
1.0
 47
0.1
 48
0.1000000001
 73
     0
 74
     0
 77
     3
 78
     1
140
3.799999999999998
141
0.0
143
0.0393701
146
0.71
147
1.5
172
     1
176
     3
177
     3
178
     2
271
     2
272
     2
275
     1
283
     0
284
     8
340
11
341
59
342
59
  0
DIMSTYLE
105
99B8
330
A
100
AcDbSymbolTableRecord
100
AcDbDimStyleTableRecord
  2
AM_ISO
 70
     0
  4
"
 41
2.5
 42
1.0
 43
10.0
 44
1.0
 47
0.1
 48
0.1
 73
     0
 74
     0
 77
     1
 78
     8
 79
     2
140
3.5
141
0.0
143
0.0393701
146
0.71
147
1.5
172
     1
176
   256
177
   256
178
     2
271
     2
272
     3
274
     4
283
     0
284
     8
340
11
371
    -1
372
    -1
  0
DIMSTYLE
105
99B9
330
A
100
AcDbSymbolTableRecord
100
AcDbDimStyleTableRecord
  2
AM_ISO$3
 70
     0
  4
"
 41
2.5
 42
1.0
 43
10.0
 44
1.0
 47
0.1
 48
0.1
 73
     0
 77
     1
 78
     8
 79
     2
140
3.5
141
0.0
143
0.0393701
146
0.71
147
1.5
176
   256
177
   256
178
     2
271
     2
272
     3
274
     4
283
     0
284
     8
288
     1
289
     0
340
11
371
    -1
372
    -1
  0
DIMSTYLE
105
99BA
330
A
100
AcDbSymbolTableRecord
100
AcDbDimStyleTableRecord
  2
AM_ISO$4
 70
     0
  4
"
 41
2.5
 42
1.0
 43
10.0
 44
1.0
 47
0.1
 48
0.1
 73
     0
 77
     1
 78
     8
 79
     2
140
3.5
141
0.0
143
0.0393701
146
0.71
147
1.5
176
   256
177
   256
178
     2
271
     2
272
     3
274
     4
283
     0
284
     8
288
     1
289
     0
340
11
371
    -1
372
    -1
  0
DIMSTYLE
105
99BB
330
A
100
AcDbSymbolTableRecord
100
AcDbDimStyleTableRecord
  2
AM_ISO$6
 70
     0
  4
"
 41
2.5
 42
1.0
 43
10.0
 44
1.0
 47
0.1
 48
0.1
 73
     0
 74
     0
 78
     8
 79
     2
140
3.5
141
0.0
143
0.0393701
146
0.71
147
1.5
172
     1
176
   256
177
   256
178
     2
271
     2
272
     3
274
     4
283
     0
284
     8
340
11
371
    -1
372
    -1
  0
DIMSTYLE
105
99BC
330
A
100
AcDbSymbolTableRecord
100
AcDbDimStyleTableRecord
  2
AM_ISO$7
 70
     0
  4
"
 41
2.5
 42
1.0
 43
10.0
 44
1.0
 47
0.1
 48
0.1
 73
     0
 74
     0
 77
     1
 78
     8
 79
     2
140
5.0
141
0.0
143
0.0393701
146
0.71
147
1.5
172
     1
176
   256
177
   256
178
     2
271
     2
272
     3
274
     4
283
     0
284
     8
340
11
371
    -1
372
    -1
  0
DIMSTYLE
105
99BD
330
A
100
AcDbSymbolTableRecord
100
AcDbDimStyleTableRecord
  2
AM_ISO$SF
 70
     0
  4
"
 41
2.5
 42
1.0
 43
10.0
 44
1.0
 47
0.1
 48
0.1
 73
     0
 74
     0
 75
     1
 76
     1
 77
     1
 78
     8
 79
     2
140
3.5
141
0.0
143
0.0393701
146
0.71
147
1.5
172
     1
176
   256
177
   256
178
     2
271
     2
272
     3
274
     4
283
     0
284
     8
340
11
371
    -1
372
    -1
  0
DIMSTYLE
105
99BE
330
A
100
AcDbSymbolTableRecord
100
AcDbDimStyleTableRecord
  2
AM_ISO$SH
 70
     0
  4
"
 41
2.5
 42
1.0
 43
10.0
 44
1.0
 47
0.1
 48
0.1
 73
     0
 74
     0
 75
     1
 76
     1
 77
     1
 78
     8
 79
     2
140
3.5
141
0.0
143
0.0393701
144
2.0
146
0.71
147
1.5
172
     1
173
     1
176
   256
177
   256
178
     2
271
     2
272
     3
274
     4
283
     0
284
     8
340
11
343
64
371
    -1
372
    -1
  0
ENDTAB
  0
TABLE
  2
BLOCK_RECORD
  5
1
330
0
100
AcDbSymbolTable
 70
    10
  0
BLOCK_RECORD
  5
1F
102
{ACAD_XDICTIONARY
360
74
102
}
330
1
100
AcDbSymbolTableRecord
100
AcDbBlockTableRecord
  2
*MODEL_SPACE
340
9930
  0
BLOCK_RECORD
  5
101
102
{ACAD_XDICTIONARY
360
98E5
102
}
330
1
100
AcDbSymbolTableRecord
100
AcDbBlockTableRecord
  2
*PAPER_SPACE
340
9931
  0
BLOCK_RECORD
  5
59
330
1
100
AcDbSymbolTableRecord
100
AcDbBlockTableRecord
  2
_Open30
340
0
  0
BLOCK_RECORD
  5
64
330
1
100
AcDbSymbolTableRecord
100
AcDbBlockTableRecord
  2
GENAXEH
340
0
  0
BLOCK_RECORD
  5
9173
330
1
100
AcDbSymbolTableRecord
100
AcDbBlockTableRecord
  2
*D2
340
0
  0
BLOCK_RECORD
  5
924A
330
1
100
AcDbSymbolTableRecord
100
AcDbBlockTableRecord
  2
*D3
340
0
  0
BLOCK_RECORD
  5
92F6
330
1
100
AcDbSymbolTableRecord
100
AcDbBlockTableRecord
  2
*D4
340
0
  0
BLOCK_RECORD
  5
9382
330
1
100
AcDbSymbolTableRecord
100
AcDbBlockTableRecord
  2
*D5
340
0
  0
BLOCK_RECORD
  5
9429
330
1
100
AcDbSymbolTableRecord
100
AcDbBlockTableRecord
  2
*D6
340
0
  0
BLOCK_RECORD
  5
94BE
330
1
100
AcDbSymbolTableRecord
100
AcDbBlockTableRecord
  2
*D7
340
0
  0
BLOCK_RECORD
  5
956E
330
1
100
AcDbSymbolTableRecord
100
AcDbBlockTableRecord
  2
*D8
340
0
  0
ENDTAB
  0
ENDSEC
  0
SECTION
  2
BLOCKS
  0
BLOCK
  5
20
330
1F
100
AcDbEntity
  8
0
100
AcDbBlockBegin
  2
*MODEL_SPACE
 70
     0
 10
0.0
 20
0.0
 30
0.0
  3
*MODEL_SPACE
  1

  0
ENDBLK
  5
21
330
1F
100
AcDbEntity
  8
0
100
AcDbBlockEnd
  0
BLOCK
  5
103
330
101
100
AcDbEntity
 67
     1
  8
0
100
AcDbBlockBegin
  2
*PAPER_SPACE
 70
     0
 10
0.0
 20
0.0
 30
0.0
  3
*PAPER_SPACE
  1

  0
ENDBLK
  5
104
330
101
100
AcDbEntity
 67
     1
  8
0
100
AcDbBlockEnd
  0
BLOCK
  5
99E0
330
59
100
AcDbEntity
  8
0
100
AcDbBlockBegin
  2
_Open30
 70
     0
 10
0.0
 20
0.0
 30
0.0
  3
_Open30
  1

  0
LINE
  5
99E1
330
59
100
AcDbEntity
  8
0
  6
ByBlock
 62
     0
370
    -2
100
AcDbLine
 10
-1.0
 20
0.26794919
 30
0.0
 11
0.0
 21
0.0
 31
0.0
  0
LINE
  5
99E2
330
59
100
AcDbEntity
  8
0
  6
ByBlock
 62
     0
370
    -2
100
AcDbLine
 10
0.0
 20
0.0
 30
0.0
 11
-1.0
 21
-0.26794919
 31
0.0
  0
LINE
  5
99E3
330
59
100
AcDbEntity
  8
0
  6
ByBlock
 62
     0
370
    -2
100
AcDbLine
 10
0.0
 20
0.0
 30
0.0
 11
-1.0
 21
0.0
 31
0.0
  0
ENDBLK
  5
99E4
330
59
100
AcDbEntity
  8
0
100
AcDbBlockEnd
  0
BLOCK
  5
99C0
330
64
100
AcDbEntity
  8
0
100
AcDbBlockBegin
  2
GENAXEH
 70
     0
 10
0.0
 20
0.0
 30
0.0
  3
GENAXEH
  1

  0
LINE
  5
99C1
330
64
100
AcDbEntity
  8
0
100
AcDbLine
 10
-1.0
 20
0.0
 30
0.0
 11
1.0
 21
0.0
 31
0.0
  0
ENDBLK
  5
99C2
330
64
100
AcDbEntity
  8
0
100
AcDbBlockEnd
  0
BLOCK
  5
917D
330
9173
100
AcDbEntity
  8
0
100
AcDbBlockBegin
  2
*D2
 70
     1
 10
0.0
 20
0.0
 30
0.0
  3
*D2
  1

  0
LINE
  5
98E7
330
9173
100
AcDbEntity
  8
AM_5
100
AcDbLine
 10
-129.9999999194236
 20
9.996750265638256
 30
0.0
 11
-147.8999410872933
 21
9.996750265638224
 31
0.0
  0
LINE
  5
98E8
330
9173
100
AcDbEntity
  8
AM_5
100
AcDbLine
 10
-129.9999999194235
 20
-9.996749734361737
 30
0.0
 11
-147.8999410872932
 21
-9.996749734361774
 31
0.0
  0
LINE
  5
98E9
330
9173
100
AcDbEntity
  8
AM_5
100
AcDbLine
 10
-146.8999410872933
 20
7.496750265638224
 30
0.0
 11
-146.8999410872932
 21
-7.496749734361771
 31
0.0
  0
INSERT
  5
98EA
330
9173
100
AcDbEntity
  8
AM_5
100
AcDbBlockReference
  2
_Open30
 10
-146.8999410872933
 20
9.996750265638226
 30
0.0
 41
2.5
 42
2.5
 43
2.5
 50
90.0000000000001
  0
INSERT
  5
98EB
330
9173
100
AcDbEntity
  8
AM_5
100
AcDbBlockReference
  2
_Open30
 10
-146.8999410872932
 20
-9.996749734361769
 30
0.0
 41
2.5
 42
2.5
 43
2.5
 50
270.0000000000001
  0
MTEXT
  5
98EC
330
9173
100
AcDbEntity
  8
AM_5
 62
     2
100
AcDbMText
 10
-149.9999410872933
 20
0.0000002656382271
 30
0.0
 40
3.2
 41
0.0
 71
     5
 72
     1
  1
%%c20
  7
ASAMI
 11
-0.000000000000002
 21
1.0
 31
0.0
 73
     1
 44
1.0
1001
ACAD
1000
MTEXTBEGIN
1070
    73
1070
     1
1070
    44
1040
1.0
1070
    74
1070
     0
1000
MTEXTEND
  0
POINT
  5
98ED
330
9173
100
AcDbEntity
  8
DEFPOINTS
 62
     0
100
AcDbPoint
 10
-128.9999999194236
 20
9.996750265638546
 30
0.0
  0
POINT
  5
98EE
330
9173
100
AcDbEntity
  8
DEFPOINTS
 62
     0
100
AcDbPoint
 10
-128.9999999194235
 20
-9.996749734361452
 30
0.0
  0
POINT
  5
98EF
330
9173
100
AcDbEntity
  8
DEFPOINTS
 62
     0
100
AcDbPoint
 10
-146.8999410872933
 20
-9.996749734361443
 30
0.0
  0
ENDBLK
  5
917E
330
9173
100
AcDbEntity
  8
0
100
AcDbBlockEnd
  0
BLOCK
  5
9254
330
924A
100
AcDbEntity
  8
0
100
AcDbBlockBegin
  2
*D3
 70
     1
 10
0.0
 20
0.0
 30
0.0
  3
*D3
  1

  0
LINE
  5
98F0
330
924A
100
AcDbEntity
  8
AM_5
100
AcDbLine
 10
0.0000000805763845
 20
1.000000099627512
 30
0.0
 11
0.0000000805763801
 21
24.99675129629632
 31
0.0
  0
LINE
  5
98F1
330
924A
100
AcDbEntity
  8
AM_5
100
AcDbLine
 10
-11.99999991942364
 20
8.667916474878698
 30
0.0
 11
-11.99999991942364
 21
24.99675129629632
 31
0.0
  0
LINE
  5
98F2
330
924A
100
AcDbEntity
  8
AM_5
100
AcDbLine
 10
-2.499999919423619
 20
23.99675129629632
 30
0.0
 11
-9.499999919423647
 21
23.99675129629632
 31
0.0
  0
INSERT
  5
98F3
330
924A
100
AcDbEntity
  8
AM_5
100
AcDbBlockReference
  2
_Open30
 10
0.0000000805763803
 20
23.99675129629632
 30
0.0
 41
2.5
 42
2.5
 43
2.5
  0
INSERT
  5
98F4
330
924A
100
AcDbEntity
  8
AM_5
100
AcDbBlockReference
  2
_Open30
 10
-11.99999991942364
 20
23.99675129629632
 30
0.0
 41
2.5
 42
2.5
 43
2.5
 50
180.0
  0
MTEXT
  5
98F5
330
924A
100
AcDbEntity
  8
AM_5
 62
     2
100
AcDbMText
 10
-5.999999919423633
 20
27.09675129629632
 30
0.0
 40
3.2
 41
0.0
 71
     5
 72
     1
  1
12
  7
ASAMI
 73
     1
 44
1.0
1001
ACAD
1000
MTEXTBEGIN
1070
    73
1070
     1
1070
    44
1040
1.0
1070
    74
1070
     0
1000
MTEXTEND
  0
POINT
  5
98F6
330
924A
100
AcDbEntity
  8
DEFPOINTS
 62
     0
100
AcDbPoint
 10
0.0000000805763847
 20
0.0000000996275134
 30
0.0
  0
POINT
  5
98F7
330
924A
100
AcDbEntity
  8
DEFPOINTS
 62
     0
100
AcDbPoint
 10
-11.99999991942362
 20
7.667916474878722
 30
0.0
  0
POINT
  5
98F8
330
924A
100
AcDbEntity
  8
DEFPOINTS
 62
     0
100
AcDbPoint
 10
-11.9999999194236
 20
23.99675129629634
 30
0.0
  0
ENDBLK
  5
9255
330
924A
100
AcDbEntity
  8
0
100
AcDbBlockEnd
  0
BLOCK
  5
9300
330
92F6
100
AcDbEntity
  8
0
100
AcDbBlockBegin
  2
*D4
 70
     1
 10
0.0
 20
0.0
 30
0.0
  3
*D4
  1

  0
LINE
  5
98F9
330
92F6
100
AcDbEntity
  8
AM_5
100
AcDbLine
 10
0.0000000078733839
 20
-0.9999997343610973
 30
0.0
 11
0.0000000078734701
 21
-44.99675074436129
 31
0.0
  0
LINE
  5
98FA
330
92F6
100
AcDbEntity
  8
AM_5
100
AcDbLine
 10
-129.9999999194235
 20
-9.996749734361726
 30
0.0
 11
-129.9999999194234
 21
-44.99675074436153
 31
0.0
  0
LINE
  5
98FB
330
92F6
100
AcDbEntity
  8
AM_5
100
AcDbLine
 10
-2.49999999212653
 20
-43.99675074436129
 30
0.0
 11
-127.4999999194234
 21
-43.99675074436154
 31
0.0
  0
INSERT
  5
98FC
330
92F6
100
AcDbEntity
  8
AM_5
100
AcDbBlockReference
  2
_Open30
 10
0.0000000078734682
 20
-43.99675074436128
 30
0.0
 41
2.5
 42
2.5
 43
2.5
 50
0.0000000000001018
  0
INSERT
  5
98FD
330
92F6
100
AcDbEntity
  8
AM_5
100
AcDbBlockReference
  2
_Open30
 10
-129.9999999194234
 20
-43.99675074436156
 30
0.0
 41
2.5
 42
2.5
 43
2.5
 50
180.0000000000001
  0
MTEXT
  5
98FE
330
92F6
100
AcDbEntity
  8
AM_5
 62
     2
100
AcDbMText
 10
-64.99999995577501
 20
-40.89675074436142
 30
0.0
 40
3.2
 41
0.0
 71
     5
 72
     1
  1
130
  7
ASAMI
 73
     1
 44
1.0
1001
ACAD
1000
MTEXTBEGIN
1070
    73
1070
     1
1070
    44
1040
1.0
1070
    74
1070
     0
1000
MTEXTEND
  0
POINT
  5
98FF
330
92F6
100
AcDbEntity
  8
DEFPOINTS
 62
     0
100
AcDbPoint
 10
0.0000000078733819
 20
0.0000002656389029
 30
0.0
  0
POINT
  5
9900
330
92F6
100
AcDbEntity
  8
DEFPOINTS
 62
     0
100
AcDbPoint
 10
-129.9999999194235
 20
-8.996749734361465
 30
0.0
  0
POINT
  5
9901
330
92F6
100
AcDbEntity
  8
DEFPOINTS
 62
     0
100
AcDbPoint
 10
-129.9999999194235
 20
-43.99675074436128
 30
0.0
  0
ENDBLK
  5
9301
330
92F6
100
AcDbEntity
  8
0
100
AcDbBlockEnd
  0
BLOCK
  5
938C
330
9382
100
AcDbEntity
  8
0
100
AcDbBlockBegin
  2
*D5
 70
     1
 10
0.0
 20
0.0
 30
0.0
  3
*D5
  1

  0
LINE
  5
9902
330
9382
100
AcDbEntity
  8
AM_5
100
AcDbLine
 10
-129.9999999194235
 20
-9.996749734361726
 30
0.0
 11
-129.9999999194234
 21
-34.99675074436155
 31
0.0
  0
LINE
  5
9903
330
9382
100
AcDbEntity
  8
AM_5
100
AcDbLine
 10
-49.99999999212656
 20
-10.9967497343614
 30
0.0
 11
-49.99999999212651
 21
-34.99675074436139
 31
0.0
  0
LINE
  5
9904
330
9382
100
AcDbEntity
  8
AM_5
100
AcDbLine
 10
-127.4999999194234
 20
-33.99675074436155
 30
0.0
 11
-52.49999999212651
 21
-33.9967507443614
 31
0.0
  0
INSERT
  5
9905
330
9382
100
AcDbEntity
  8
AM_5
100
AcDbBlockReference
  2
_Open30
 10
-129.9999999194234
 20
-33.99675074436155
 30
0.0
 41
2.5
 42
2.5
 43
2.5
 50
180.0000000000001
  0
INSERT
  5
9906
330
9382
100
AcDbEntity
  8
AM_5
100
AcDbBlockReference
  2
_Open30
 10
-49.99999999212651
 20
-33.99675074436139
 30
0.0
 41
2.5
 42
2.5
 43
2.5
 50
0.0000000000001018
  0
MTEXT
  5
9907
330
9382
100
AcDbEntity
  8
AM_5
 62
     2
100
AcDbMText
 10
-89.99999995577502
 20
-30.89675074436147
 30
0.0
 40
3.2
 41
0.0
 71
     5
 72
     1
  1
80
  7
ASAMI
 73
     1
 44
1.0
1001
ACAD
1000
MTEXTBEGIN
1070
    73
1070
     1
1070
    44
1040
1.0
1070
    74
1070
     0
1000
MTEXTEND
  0
POINT
  5
9908
330
9382
100
AcDbEntity
  8
DEFPOINTS
 62
     0
100
AcDbPoint
 10
-129.9999999194235
 20
-8.996749734361465
 30
0.0
  0
POINT
  5
9909
330
9382
100
AcDbEntity
  8
DEFPOINTS
 62
     0
100
AcDbPoint
 10
-49.99999999212658
 20
-9.9967497343613
 30
0.0
  0
POINT
  5
990A
330
9382
100
AcDbEntity
  8
DEFPOINTS
 62
     0
100
AcDbPoint
 10
-49.99999999212658
 20
-33.99675074436129
 30
0.0
  0
ENDBLK
  5
938D
330
9382
100
AcDbEntity
  8
0
100
AcDbBlockEnd
  0
BLOCK
  5
9433
330
9429
100
AcDbEntity
  8
0
100
AcDbBlockBegin
  2
*D6
 70
     1
 10
0.0
 20
0.0
 30
0.0
  3
*D6
  1

  0
LINE
  5
990B
330
9429
100
AcDbEntity
  8
AM_5
100
AcDbLine
 10
-49.99999999212656
 20
-10.99674973436134
 30
0.0
 11
-49.99999999212651
 21
-34.99675074436139
 31
0.0
  0
LINE
  5
990C
330
9429
100
AcDbEntity
  8
AM_5
100
AcDbLine
 10
0.0000000805763866
 20
-0.9999999003724866
 30
0.0
 11
0.0000000805764533
 21
-34.9967507443613
 31
0.0
  0
LINE
  5
990D
330
9429
100
AcDbEntity
  8
AM_5
100
AcDbLine
 10
-47.49999999212651
 20
-33.99675074436139
 30
0.0
 11
-2.499999919423548
 21
-33.9967507443613
 31
0.0
  0
INSERT
  5
990E
330
9429
100
AcDbEntity
  8
AM_5
100
AcDbBlockReference
  2
_Open30
 10
-49.99999999212651
 20
-33.99675074436139
 30
0.0
 41
2.5
 42
2.5
 43
2.5
 50
180.0000000000001
  0
INSERT
  5
990F
330
9429
100
AcDbEntity
  8
AM_5
100
AcDbBlockReference
  2
_Open30
 10
0.0000000805764513
 20
-33.99675074436129
 30
0.0
 41
2.5
 42
2.5
 43
2.5
 50
0.0000000000001018
  0
MTEXT
  5
9910
330
9429
100
AcDbEntity
  8
AM_5
 62
     2
100
AcDbMText
 10
-24.99999995577503
 20
-30.89675074436134
 30
0.0
 40
3.2
 41
0.0
 71
     5
 72
     1
  1
50
  7
ASAMI
 73
     1
 44
1.0
1001
ACAD
1000
MTEXTBEGIN
1070
    73
1070
     1
1070
    44
1040
1.0
1070
    74
1070
     0
1000
MTEXTEND
  0
POINT
  5
9911
330
9429
100
AcDbEntity
  8
DEFPOINTS
 62
     0
100
AcDbPoint
 10
-49.99999999212658
 20
-9.996749734361245
 30
0.0
  0
POINT
  5
9912
330
9429
100
AcDbEntity
  8
DEFPOINTS
 62
     0
100
AcDbPoint
 10
0.0000000805763847
 20
0.0000000996275134
 30
0.0
  0
POINT
  5
9913
330
9429
100
AcDbEntity
  8
DEFPOINTS
 62
     0
100
AcDbPoint
 10
0.0000000805763826
 20
-33.99675074436129
 30
0.0
  0
ENDBLK
  5
9434
330
9429
100
AcDbEntity
  8
0
100
AcDbBlockEnd
  0
BLOCK
  5
94C8
330
94BE
100
AcDbEntity
  8
0
100
AcDbBlockBegin
  2
*D7
 70
     1
 10
0.0
 20
0.0
 30
0.0
  3
*D7
  1

  0
LINE
  5
9914
330
94BE
100
AcDbEntity
  8
AM_5
100
AcDbLine
 10
-0.000000000000268
 20
-0.9999999999998577
 30
0.0
 11
-0.000000000000221
 21
-24.99675074436129
 31
0.0
  0
LINE
  5
9915
330
94BE
100
AcDbEntity
  8
AM_5
100
AcDbLine
 10
-25.49999999212656
 20
-7.999999734361217
 30
0.0
 11
-25.49999999212654
 21
-24.99675074436134
 31
0.0
  0
LINE
  5
9916
330
94BE
100
AcDbEntity
  8
AM_5
100
AcDbLine
 10
-2.500000000000221
 20
-23.99675074436129
 30
0.0
 11
-22.99999999212653
 21
-23.99675074436133
 31
0.0
  0
INSERT
  5
9917
330
94BE
100
AcDbEntity
  8
AM_5
100
AcDbBlockReference
  2
_Open30
 10
-0.000000000000223
 20
-23.99675074436129
 30
0.0
 41
2.5
 42
2.5
 43
2.5
 50
0.0000000000001018
  0
INSERT
  5
9918
330
94BE
100
AcDbEntity
  8
AM_5
100
AcDbBlockReference
  2
_Open30
 10
-25.49999999212654
 20
-23.99675074436134
 30
0.0
 41
2.5
 42
2.5
 43
2.5
 50
180.0000000000001
  0
MTEXT
  5
9919
330
94BE
100
AcDbEntity
  8
AM_5
 62
     2
100
AcDbMText
 10
-12.74999999606338
 20
-20.89675074436131
 30
0.0
 40
3.2
 41
0.0
 71
     5
 72
     1
  1
25.5
  7
ASAMI
 73
     1
 44
1.0
1001
ACAD
1000
MTEXTBEGIN
1070
    73
1070
     1
1070
    44
1040
1.0
1070
    74
1070
     0
1000
MTEXTEND
  0
POINT
  5
991A
330
94BE
100
AcDbEntity
  8
DEFPOINTS
 62
     0
100
AcDbPoint
 10
-0.00000000000027
 20
0.0000000000001421
 30
0.0
  0
POINT
  5
991B
330
94BE
100
AcDbEntity
  8
DEFPOINTS
 62
     0
100
AcDbPoint
 10
-25.49999999212658
 20
-6.999999734361168
 30
0.0
  0
POINT
  5
991C
330
94BE
100
AcDbEntity
  8
DEFPOINTS
 62
     0
100
AcDbPoint
 10
-25.49999999212658
 20
-23.99675074436129
 30
0.0
  0
ENDBLK
  5
94C9
330
94BE
100
AcDbEntity
  8
0
100
AcDbBlockEnd
  0
BLOCK
  5
9578
330
956E
100
AcDbEntity
  8
0
100
AcDbBlockBegin
  2
*D8
 70
     1
 10
0.0
 20
0.0
 30
0.0
  3
*D8
  1

  0
LINE
  5
991D
330
956E
100
AcDbEntity
  8
AM_5
100
AcDbLine
 10
-10.99999991942364
 20
7.667916474878697
 30
0.0
 11
19.30909799916292
 21
7.667916474878755
 31
0.0
  0
LINE
  5
991E
330
956E
100
AcDbEntity
  8
AM_5
100
AcDbLine
 10
-10.99999991942358
 20
-7.667915943601027
 30
0.0
 11
19.30909799916294
 21
-7.667915943600967
 31
0.0
  0
LINE
  5
991F
330
956E
100
AcDbEntity
  8
AM_5
100
AcDbLine
 10
18.30909799916292
 20
5.167916474878754
 30
0.0
 11
18.30909799916294
 21
-5.167915943600969
 31
0.0
  0
INSERT
  5
9920
330
956E
100
AcDbEntity
  8
AM_5
100
AcDbBlockReference
  2
_Open30
 10
18.30909799916292
 20
7.667916474878753
 30
0.0
 41
2.5
 42
2.5
 43
2.5
 50
90.0000000000001
  0
INSERT
  5
9921
330
956E
100
AcDbEntity
  8
AM_5
100
AcDbBlockReference
  2
_Open30
 10
18.30909799916295
 20
-7.667915943600969
 30
0.0
 41
2.5
 42
2.5
 43
2.5
 50
270.0000000000001
  0
MTEXT
  5
9922
330
956E
100
AcDbEntity
  8
AM_5
 62
     2
100
AcDbMText
 10
15.20909799916293
 20
0.0000002656388858
 30
0.0
 40
3.2
 41
0.0
 71
     5
 72
     1
  1
%%c16
  7
ASAMI
 11
-0.000000000000002
 21
1.0
 31
0.0
 73
     1
 44
1.0
1001
ACAD
1000
MTEXTBEGIN
1070
    73
1070
     1
1070
    44
1040
1.0
1070
    74
1070
     0
1000
MTEXTEND
  0
POINT
  5
9923
330
956E
100
AcDbEntity
  8
DEFPOINTS
 62
     0
100
AcDbPoint
 10
-11.99999991942362
 20
7.667916474878722
 30
0.0
  0
POINT
  5
9924
330
956E
100
AcDbEntity
  8
DEFPOINTS
 62
     0
100
AcDbPoint
 10
-11.9999999194236
 20
-7.667915943601002
 30
0.0
  0
POINT
  5
9925
330
956E
100
AcDbEntity
  8
DEFPOINTS
 62
     0
100
AcDbPoint
 10
18.30909799916293
 20
-7.667915943601012
 30
0.0
  0
ENDBLK
  5
9579
330
956E
100
AcDbEntity
  8
0
100
AcDbBlockEnd
  0
ENDSEC
  0
SECTION
  2
ENTITIES
  0
TEXT
  5
388D
330
1F
100
AcDbEntity
  8
AM_6
100
AcDbText
 10
-85.59523805101306
 20
-66.49675074436132
 30
0.0
 40
5.0
  1
WBMF1160S
 50
359.9999999999997
 51
359.9999999999998
 72
     4
 11
-64.99999995577495
 21
-63.99675074436142
 31
0.0
100
AcDbText
  0
SPLINE
  5
8EFD
330
1F
100
AcDbEntity
  8
AM_0
  6
Continuous
100
AcDbSpline
210
0.0
220
0.0
230
1.0
 70
     8
 71
     3
 72
    11
 73
     7
 74
     5
 42
0.0000000001
 43
0.0000000001
 44
0.0000000001
 40
0.0
 40
0.0
 40
0.0
 40
0.0
 40
0.3754410031749318
 40
0.5576725565184717
 40
0.7026347496758284
 40
0.8298320815385899
 40
0.8298320815385899
 40
0.8298320815385899
 40
0.8298320815385899
 10
-12.74999999212657
 20
-7.249999734361132
 30
0.0
 10
-12.6231194125813
 20
-7.2679339321344
 30
0.0
 10
-12.4346535375991
 20
-7.294573030785715
 30
0.0
 10
-12.24466046043699
 20
-7.438965979242623
 30
0.0
 10
-12.14194907598161
 20
-7.551464813027078
 30
0.0
 10
-12.09790402549396
 20
-7.631111710008417
 30
0.0
 10
-12.07731899212658
 20
-7.668335734361138
 30
0.0
 11
-12.74999999212657
 21
-7.249999734361132
 31
0.0
 11
-12.38643199212658
 21
-7.343670734361157
 31
0.0
 11
-12.23908499212656
 21
-7.450895734361129
 31
0.0
 11
-12.14289099212662
 21
-7.559342734361139
 31
0.0
 11
-12.07731899212658
 21
-7.668335734361138
 31
0.0
  0
SPLINE
  5
8EFE
330
1F
100
AcDbEntity
  8
AM_0
  6
Continuous
100
AcDbSpline
210
0.0
220
0.0
230
1.0
 70
     8
 71
     3
 72
    11
 73
     7
 74
     5
 42
0.0000000001
 43
0.0000000001
 44
0.0000000001
 40
0.0
 40
0.0
 40
0.0
 40
0.0
 40
0.0522135752942024
 40
0.1138109374779951
 40
0.1804881742608823
 40
0.2493268679876055
 40
0.2493268679876055
 40
0.2493268679876055
 40
0.2493268679876055
 10
-10.27428399212653
 20
-7.216048734361117
 30
0.0
 10
-10.29155517892466
 20
-7.218227930561728
 30
0.0
 10
-10.32920151801898
 20
-7.222977966565633
 30
0.0
 10
-10.38926830625054
 20
-7.226829489149928
 30
0.0
 10
-10.45490979511268
 20
-7.229733958923949
 30
0.0
 10
-10.50007977518864
 20
-7.230411540112313
 30
0.0
 10
-10.52302499212659
 20
-7.230755734361104
 30
0.0
 11
-10.27428399212653
 21
-7.216048734361117
 31
0.0
 11
-10.32614599212656
 21
-7.222097734361136
 31
0.0
 11
-10.38758399212657
 21
-7.226525734361153
 31
0.0
 11
-10.45419999212658
 21
-7.229382734361162
 31
0.0
 11
-10.52302499212659
 21
-7.230755734361104
 31
0.0
  0
SPLINE
  5
8EFF
330
1F
100
AcDbEntity
  8
AM_0
  6
Continuous
100
AcDbSpline
210
0.0
220
0.0
230
1.0
 70
     8
 71
     3
 72
    11
 73
     7
 74
     5
 42
0.0000000001
 43
0.0000000001
 44
0.0000000001
 40
0.0
 40
0.0
 40
0.0
 40
0.0
 40
0.5686116831458756
 40
1.137223642142473
 40
1.705834448277068
 40
2.274446696366208
 40
2.274446696366208
 40
2.274446696366208
 40
2.274446696366208
 10
-10.27428399212653
 20
-7.216048734361117
 30
0.0
 10
-10.08475655051703
 20
-7.214120900283027
 30
0.0
 10
-9.705701575352547
 20
-7.210265231191598
 30
0.0
 10
-9.137127399870699
 20
-7.203740744482615
 30
0.0
 10
-8.568558895185939
 20
-7.196724222088713
 30
0.0
 10
-8.189519786681968
 20
-7.191552565789456
 30
0.0
 10
-7.99999999212657
 20
-7.188966734361098
 30
0.0
 11
-10.27428399212653
 21
-7.216048734361117
 31
0.0
 11
-9.705702992126543
 21
-7.210141734361132
 31
0.0
 11
-9.137127992126588
 21
-7.20365873436113
 31
0.0
 11
-8.568560992126558
 21
-7.196600734361095
 31
0.0
 11
-7.99999999212657
 21
-7.188966734361098
 31
0.0
  0
SPLINE
  5
8F00
330
1F
100
AcDbEntity
  8
AM_0
  6
Continuous
100
AcDbSpline
210
0.0
220
0.0
230
1.0
 70
     8
 71
     3
 72
    11
 73
     7
 74
     5
 42
0.0000000001
 43
0.0000000001
 44
0.0000000001
 40
0.0
 40
0.0
 40
0.0
 40
0.0
 40
0.6265372910984094
 40
1.253073936386647
 40
1.879609329042152
 40
2.506146831391353
 40
2.506146831391353
 40
2.506146831391353
 40
2.506146831391353
 10
-13.02909699212654
 20
-7.249999734361133
 30
0.0
 10
-12.82025542407248
 20
-7.248674067766476
 30
0.0
 10
-12.4025725032301
 20
-7.246022735943606
 30
0.0
 10
-11.77605287210071
 20
-7.241421741413078
 30
0.0
 10
-11.14953639590571
 20
-7.236400722959552
 30
0.0
 10
-10.73186236112054
 20
-7.23263739933925
 30
0.0
 10
-10.52302499212659
 20
-7.230755734361104
 30
0.0
 11
-13.02909699212654
 21
-7.249999734361133
 31
0.0
 11
-12.40257299212659
 21
-7.245918734361144
 31
0.0
 11
-11.77605299212656
 21
-7.241351734361133
 31
0.0
 11
-11.14953799212657
 21
-7.236296734361158
 31
0.0
 11
-10.52302499212659
 21
-7.230755734361104
 31
0.0
  0
SPLINE
  5
8F01
330
1F
100
AcDbEntity
  8
AM_0
  6
Continuous
100
AcDbSpline
210
0.0
220
0.0
230
1.0
 70
     8
 71
     3
 72
    11
 73
     7
 74
     5
 42
0.0000000001
 43
0.0000000001
 44
0.0000000001
 40
0.0
 40
0.0
 40
0.0
 40
0.0
 40
1.019228664829442
 40
2.038552255877895
 40
3.057961520493988
 40
4.077444156016495
 40
4.077444156016495
 40
4.077444156016495
 40
4.077444156016495
 10
-7.999999992126597
 20
-7.636959734361092
 30
0.0
 10
-8.339726108382517
 20
-7.640341136386458
 30
0.0
 10
-9.019209981405289
 20
-7.64710425536525
 30
0.0
 10
-10.0384960772087
 20
-7.655525903538376
 30
0.0
 10
-11.05787565898766
 20
-7.662802511933653
 30
0.0
 10
-11.73749639554272
 20
-7.666491282637672
 30
0.0
 10
-12.07731899212658
 20
-7.668335734361138
 30
0.0
 11
-7.999999992126597
 21
-7.636959734361092
 31
0.0
 11
-9.019180992126601
 21
-7.646816734361109
 31
0.0
 11
-10.03846899212656
 21
-7.655334734361154
 31
0.0
 11
-11.05785299212662
 21
-7.662511734361114
 31
0.0
 11
-12.07731899212658
 21
-7.668335734361138
 31
0.0
  0
ELLIPSE
  5
8F04
330
1F
100
AcDbEntity
  8
AM_0
  6
Continuous
100
AcDbEllipse
 10
-18.36605999212659
 20
-10.10060473436118
 30
0.0
 11
19.37362464078302
 21
-11.69379555346995
 31
0.0
210
0.0
220
0.0
230
1.0
 40
0.7710745211735599
 41
1.77953050319057
 42
1.79818319831649
  0
SPLINE
  5
8F05
330
1F
100
AcDbEntity
  8
AM_0
  6
Continuous
100
AcDbSpline
210
0.0
220
0.0
230
1.0
 70
     8
 71
     3
 72
    11
 73
     7
 74
     5
 42
0.0000000001
 43
0.0000000001
 44
0.0000000001
 40
0.0
 40
0.0
 40
0.0
 40
0.0
 40
0.1817003845372816
 40
0.3670402611531789
 40
0.5558406664969997
 40
0.7468997004734393
 40
0.7468997004734393
 40
0.7468997004734393
 40
0.7468997004734393
 10
-12.11950199212663
 20
7.59383326563883
 30
0.0
 10
-12.1560041423621
 20
7.545088887524281
 30
0.0
 10
-12.22973958760731
 20
7.446623772447748
 30
0.0
 10
-12.38289598151752
 20
7.338066366350569
 30
0.0
 10
-12.55908451090008
 20
7.264192692824127
 30
0.0
 10
-12.6861097361262
 20
7.254749790403994
 30
0.0
 10
-12.74999999212662
 20
7.250000265638851
 30
0.0
 11
-12.11950199212663
 21
7.59383326563883
 31
0.0
 11
-12.23572299212662
 21
7.454163265638836
 31
0.0
 11
-12.38526499212662
 21
7.344673265638854
 31
0.0
 11
-12.56050799212659
 21
7.274420265638846
 31
0.0
 11
-12.74999999212662
 21
7.250000265638851
 31
0.0
  0
SPLINE
  5
8F06
330
1F
100
AcDbEntity
  8
AM_0
  6
Continuous
100
AcDbSpline
210
0.0
220
0.0
230
1.0
 70
     8
 71
     3
 72
    11
 73
     7
 74
     5
 42
0.0000000001
 43
0.0000000001
 44
0.0000000001
 40
0.0
 40
0.0
 40
0.0
 40
0.0
 40
0.0219348730792134
 40
0.0435063224509917
 40
0.0647362376651375
 40
0.085659416701821
 40
0.085659416701821
 40
0.085659416701821
 40
0.085659416701821
 10
-12.11950199212663
 20
7.59383326563883
 30
0.0
 10
-12.11559739243161
 20
7.600015633816901
 30
0.0
 10
-12.10785288564736
 20
7.612277938800138
 30
0.0
 10
-12.09698955850943
 20
7.63092721137755
 30
0.0
 10
-12.08676929296527
 20
7.649552696567926
 30
0.0
 10
-12.08045377365526
 20
7.662105523742809
 30
0.0
 10
-12.07731899212661
 20
7.668336265638854
 30
0.0
 11
-12.11950199212663
 21
7.59383326563883
 31
0.0
 11
-12.10790099212659
 21
7.612449265638838
 31
0.0
 11
-12.09701299212662
 21
7.631071265638833
 31
0.0
 11
-12.08683299212663
 21
7.649701265638833
 31
0.0
 11
-12.07731899212661
 21
7.668336265638854
 31
0.0
  0
SPLINE
  5
8F07
330
1F
100
AcDbEntity
  8
AM_0
  6
Continuous
100
AcDbSpline
210
0.0
220
0.0
230
1.0
 70
     8
 71
     3
 72
    11
 73
     7
 74
     5
 42
0.0000000001
 43
0.0000000001
 44
0.0000000001
 40
0.0
 40
0.0
 40
0.0
 40
0.0
 40
1.030031709178885
 40
2.059988085760477
 40
3.089856177851879
 40
4.119628326407068
 40
4.119628326407068
 40
4.119628326407068
 40
4.119628326407068
 10
-12.11950199212663
 20
7.59383326563883
 30
0.0
 10
-11.77616306815577
 20
7.591974141763248
 30
0.0
 10
-11.08951033071568
 20
7.588256029981329
 30
0.0
 10
-10.05958383780758
 20
7.58094151731962
 30
0.0
 10
-9.02975335222751
 20
7.572397524205142
 30
0.0
 10
-8.343240452292899
 20
7.565569912478158
 30
0.0
 10
-7.999999992126622
 20
7.562156265638851
 30
0.0
 11
-12.11950199212663
 21
7.59383326563883
 31
0.0
 11
-11.08948699212664
 21
7.587966265638842
 31
0.0
 11
-10.0595559921266
 21
7.58073626563887
 31
0.0
 11
-9.029723992126609
 21
7.572114265638857
 31
0.0
 11
-7.999999992126622
 21
7.562156265638851
 31
0.0
  0
SPLINE
  5
8F08
330
1F
100
AcDbEntity
  8
AM_0
  6
Continuous
100
AcDbSpline
210
0.0
220
0.0
230
1.0
 70
     8
 71
     3
 72
    11
 73
     7
 74
     5
 42
0.0000000001
 43
0.0000000001
 44
0.0000000001
 40
0.0
 40
0.0
 40
0.0
 40
0.0
 40
1.019228664829441
 40
2.038552255877891
 40
3.057961520493984
 40
4.077444156016501
 40
4.077444156016501
 40
4.077444156016501
 40
4.077444156016501
 10
-7.999999992126622
 20
7.636960265638851
 30
0.0
 10
-8.33972610838254
 20
7.640341667664215
 30
0.0
 10
-9.019209981405314
 20
7.647104786643006
 30
0.0
 10
-10.03849607720873
 20
7.655526434816084
 30
0.0
 10
-11.05787565898769
 20
7.662803043211385
 30
0.0
 10
-11.73749639554275
 20
7.666491813915395
 30
0.0
 10
-12.07731899212661
 20
7.668336265638854
 30
0.0
 11
-7.999999992126622
 21
7.636960265638851
 31
0.0
 11
-9.019180992126624
 21
7.646817265638857
 31
0.0
 11
-10.03846899212658
 21
7.655335265638876
 31
0.0
 11
-11.05785299212664
 21
7.66251226563884
 31
0.0
 11
-12.07731899212661
 21
7.668336265638854
 31
0.0
  0
ELLIPSE
  5
8F09
330
1F
100
AcDbEntity
  8
AM_0
  6
Continuous
100
AcDbEllipse
 10
-14.14336499212662
 20
0.0000002656388459
 30
0.0
 11
4.135522000000007
 21
0.0000000000000109
 31
0.0
210
0.0
220
0.0
230
1.0
 40
0.8386756581917314
 41
0.0
 42
6.283185307179585
  0
SPLINE
  5
8F0C
330
1F
100
AcDbEntity
  8
AM_0
  6
Continuous
100
AcDbSpline
210
0.0
220
0.0
230
1.0
 70
     8
 71
     3
 72
    11
 73
     7
 74
     5
 42
0.0000000001
 43
0.0000000001
 44
0.0000000001
 40
0.0
 40
0.0
 40
0.0
 40
0.0
 40
0.0520711131914846
 40
0.1040575804305543
 40
0.1559665978360123
 40
0.2078039776791421
 40
0.2078039776791421
 40
0.2078039776791421
 40
0.2078039776791421
 10
-3.427119992126613
 20
-5.138601734361102
 30
0.0
 10
-3.43661837437389
 20
-5.153129447230504
 30
0.0
 10
-3.455599698453167
 20
-5.182161256956187
 30
0.0
 10
-3.484665480605895
 20
-5.225267701102383
 30
0.0
 10
-3.514095275571197
 20
-5.26803192140044
 30
0.0
 10
-3.534105025562331
 20
-5.296237622114168
 30
0.0
 10
-3.544102992126617
 20
-5.310330734361102
 30
0.0
 11
-3.427119992126613
 21
-5.138601734361102
 31
0.0
 11
-3.4557179921266
 21
-5.182116734361114
 31
0.0
 11
-3.484747992126578
 21
-5.225242734361116
 31
0.0
 11
-3.514209992126601
 21
-5.267980734361102
 31
0.0
 11
-3.544102992126617
 21
-5.310330734361102
 31
0.0
  0
SPLINE
  5
8F0F
330
1F
100
AcDbEntity
  8
AM_0
  6
Continuous
100
AcDbSpline
210
0.0
220
0.0
230
1.0
 70
     8
 71
     3
 72
    11
 73
     7
 74
     5
 42
0.0000000001
 43
0.0000000001
 44
0.0000000001
 40
0.0
 40
0.0
 40
0.0
 40
0.0
 40
1.280184503829444
 40
2.546224941866439
 40
3.80040397618333
 40
5.04641204941759
 40
5.04641204941759
 40
5.04641204941759
 40
5.04641204941759
 10
-1.886036992126599
 20
-4.844729734361114
 30
0.0
 10
-1.624646713251617
 20
-4.505911350872796
 30
0.0
 10
-1.104754115237813
 20
-3.832018004858852
 30
0.0
 10
-0.5672855398915466
 20
-2.675631621069894
 30
0.0
 10
-0.2199295635158778
 20
-1.459745922695014
 30
0.0
 10
-0.1809093414089248
 20
-0.6247408259992806
 30
0.0
 10
-0.1614629921265791
 20
-0.2086027343611319
 30
0.0
 11
-1.886036992126599
 21
-4.844729734361114
 31
0.0
 11
-1.142259992126583
 21
-3.802775734361106
 31
0.0
 11
-0.5968959921266402
 21
-2.66021873436112
 31
0.0
 11
-0.2673819921266008
 21
-1.45010073436111
 31
0.0
 11
-0.1614629921265791
 21
-0.2086027343611319
 31
0.0
  0
SPLINE
  5
8F10
330
1F
100
AcDbEntity
  8
AM_0
  6
Continuous
100
AcDbSpline
210
0.0
220
0.0
230
1.0
 70
     8
 71
     3
 72
    11
 73
     7
 74
     5
 42
0.0000000001
 43
0.0000000001
 44
0.0000000001
 40
0.0
 40
0.0
 40
0.0
 40
0.0
 40
0.7233968001380368
 40
1.443282421066824
 40
2.160336523966307
 40
2.875294775181724
 40
2.875294775181724
 40
2.875294775181724
 40
2.875294775181724
 10
-0.5790769921266083
 20
-2.797666734361098
 30
0.0
 10
-0.4903611868673073
 20
-2.5731985330544
 30
0.0
 10
-0.3133601797062246
 20
-2.125351640487792
 30
0.0
 10
-0.1367013022502928
 20
-1.425639996701669
 30
0.0
 10
-0.0212241409455532
 20
-0.7160529421602014
 30
0.0
 10
-0.0070678021308341
 20
-0.2384511355839405
 30
0.0
 10
0.0000000078733891
 20
0.0000002656388796
 30
0.0
 11
-0.5790769921266083
 21
-2.797666734361098
 31
0.0
 11
-0.3277459921266185
 21
-2.11933373436113
 31
0.0
 11
-0.146607992126618
 21
-1.422609734361112
 31
0.0
 11
-0.0368299921266162
 21
-0.7140087343611249
 31
0.0
 11
0.0000000078733891
 21
0.0000002656388796
 31
0.0
  0
SPLINE
  5
8F11
330
1F
100
AcDbEntity
  8
AM_0
  6
Continuous
100
AcDbSpline
210
0.0
220
0.0
230
1.0
 70
     8
 71
     3
 72
    11
 73
     7
 74
     5
 42
0.0000000001
 43
0.0000000001
 44
0.0000000001
 40
0.0
 40
0.0
 40
0.0
 40
0.0
 40
0.0722968240312053
 40
0.1445440702071131
 40
0.2167499103102431
 40
0.288920533530511
 40
0.288920533530511
 40
0.288920533530511
 40
0.288920533530511
 10
-0.6981829921265947
 20
-3.060874734361119
 30
0.0
 10
-0.6878741541185338
 20
-3.039091767988813
 30
0.0
 10
-0.6672635474320245
 20
-2.995540773006258
 30
0.0
 10
-0.6371933309974293
 20
-2.929844006711687
 30
0.0
 10
-0.6077065849450973
 20
-2.863929371639395
 30
0.0
 10
-0.5886186377300286
 20
-2.819750688040285
 30
0.0
 10
-0.5790769921266083
 20
-2.797666734361098
 30
0.0
 11
-0.6981829921265947
 21
-3.060874734361119
 31
0.0
 11
-0.6673959921266199
 21
-2.995460734361114
 31
0.0
 11
-0.6372819921265941
 21
-2.929788734361109
 31
0.0
 11
-0.6078429921266267
 21
-2.863856734361104
 31
0.0
 11
-0.5790769921266083
 21
-2.797666734361098
 31
0.0
  0
SPLINE
  5
8F12
330
1F
100
AcDbEntity
  8
AM_0
  6
Continuous
100
AcDbSpline
210
0.0
220
0.0
230
1.0
 70
     8
 71
     3
 72
    11
 73
     7
 74
     5
 42
0.0000000001
 43
0.0000000001
 44
0.0000000001
 40
0.0
 40
0.0
 40
0.0
 40
0.0
 40
0.4883652270667928
 40
0.978748972380618
 40
1.471220188546589
 40
1.965815223802718
 40
1.965815223802718
 40
1.965815223802718
 40
1.965815223802718
 10
-0.6981829921265947
 20
-3.060874734361119
 30
0.0
 10
-0.7710609268367672
 20
-3.206513485675379
 30
0.0
 10
-0.9171180163949625
 20
-3.498392944505343
 30
0.0
 10
-1.173218178856241
 20
-3.917161937048064
 30
0.0
 10
-1.453398571283343
 20
-4.322710411766534
 30
0.0
 10
-1.662161124005029
 20
-4.57718677897713
 30
0.0
 10
-1.766766992126629
 20
-4.70469873436112
 30
0.0
 11
-0.6981829921265947
 21
-3.060874734361119
 31
0.0
 11
-0.9228709921266069
 21
-3.494482734361112
 31
0.0
 11
-1.176662992126636
 21
-3.914084734361112
 31
0.0
 11
-1.458366992126625
 21
-4.318028734361108
 31
0.0
 11
-1.766766992126629
 21
-4.70469873436112
 31
0.0
  0
SPLINE
  5
8F13
330
1F
100
AcDbEntity
  8
AM_0
  6
Continuous
100
AcDbSpline
210
0.0
220
0.0
230
1.0
 70
     8
 71
     3
 72
    11
 73
     7
 74
     5
 42
0.0000000001
 43
0.0000000001
 44
0.0000000001
 40
0.0
 40
0.0
 40
0.0
 40
0.0
 40
1.360068802040885
 40
2.720095039862067
 40
4.080443769390289
 40
5.442443428001835
 40
5.442443428001835
 40
5.442443428001835
 40
5.442443428001835
 10
-3.427119992126613
 20
-5.138601734361102
 30
0.0
 10
-3.124676818043335
 20
-4.799110038660779
 30
0.0
 10
-2.519799935028608
 20
-4.120137271869051
 30
0.0
 10
-1.876641998814115
 20
-2.906703170392876
 30
0.0
 10
-1.471266803415828
 20
-1.601640850387852
 30
0.0
 10
-1.328568441680402
 20
-0.704682755488394
 30
0.0
 10
-1.257175992126624
 20
-0.2559317343611143
 30
0.0
 11
-3.427119992126613
 21
-5.138601734361102
 31
0.0
 11
-2.563825992126623
 21
-4.087644734361128
 31
0.0
 11
-1.916346992126596
 21
-2.891633734361126
 31
0.0
 11
-1.5032989921266
 21
-1.595508734361106
 31
0.0
 11
-1.257175992126624
 21
-0.2559317343611143
 31
0.0
  0
SPLINE
  5
8F14
330
1F
100
AcDbEntity
  8
AM_0
  6
Continuous
100
AcDbSpline
210
0.0
220
0.0
230
1.0
 70
     8
 71
     3
 72
    11
 73
     7
 74
     5
 42
0.0000000001
 43
0.0000000001
 44
0.0000000001
 40
0.0
 40
0.0
 40
0.0
 40
0.0
 40
0.0213440616566082
 40
0.066210647006937
 40
0.1317147919139867
 40
0.2089191101481371
 40
0.2089191101481371
 40
0.2089191101481371
 40
0.2089191101481371
 10
-3.427133992126577
 20
-5.449729734361098
 30
0.0
 10
-3.427146726021845
 20
-5.45699572216642
 30
0.0
 10
-3.427186227380965
 20
-5.479535281950062
 30
0.0
 10
-3.458655341166399
 20
-5.514420273131273
 30
0.0
 10
-3.498763787922883
 20
-5.560699633867045
 30
0.0
 10
-3.53544415848501
 20
-5.59148958045254
 30
0.0
 10
-3.555287992126627
 20
-5.608146734361112
 30
0.0
 11
-3.427133992126577
 21
-5.449729734361098
 31
0.0
 11
-3.428811992126601
 21
-5.471007734361122
 31
0.0
 11
-3.453266992126591
 21
-5.508623734361107
 31
0.0
 11
-3.497560992126627
 21
-5.556881734361112
 31
0.0
 11
-3.555287992126627
 21
-5.608146734361112
 31
0.0
  0
SPLINE
  5
8F15
330
1F
100
AcDbEntity
  8
AM_0
  6
Continuous
100
AcDbSpline
210
0.0
220
0.0
230
1.0
 70
     8
 71
     3
 72
    11
 73
     7
 74
     5
 42
0.0000000001
 43
0.0000000001
 44
0.0000000001
 40
0.0
 40
0.0
 40
0.0
 40
0.0
 40
0.7770086650044373
 40
1.267406938255877
 40
1.759907352039485
 40
2.254554094033198
 40
2.254554094033198
 40
2.254554094033198
 40
2.254554094033198
 10
-0.5790769921266099
 20
2.797667265638894
 30
0.0
 10
-0.688245135629032
 20
3.032836890304426
 30
0.0
 10
-0.8663132431586857
 20
3.416430571291782
 30
0.0
 10
-1.172760755053727
 20
3.917449114886216
 30
0.0
 10
-1.452797338366778
 20
4.323110912309418
 30
0.0
 10
-1.661750333864604
 20
4.577475461802785
 30
0.0
 10
-1.766453992126617
 20
4.704934265638891
 30
0.0
 11
-0.5790769921266099
 21
2.797667265638894
 31
0.0
 11
-0.9226009921266157
 21
3.494613265638875
 31
0.0
 11
-1.176162992126606
 21
3.914371265638875
 31
0.0
 11
-1.45783199212663
 21
4.318375265638888
 31
0.0
 11
-1.766453992126617
 21
4.704934265638891
 31
0.0
  0
SPLINE
  5
8F17
330
1F
100
AcDbEntity
  8
AM_0
  6
Continuous
100
AcDbSpline
210
0.0
220
0.0
230
1.0
 70
     8
 71
     3
 72
    11
 73
     7
 74
     5
 42
0.0000000001
 43
0.0000000001
 44
0.0000000001
 40
0.0
 40
0.0
 40
0.0
 40
0.0
 40
0.2053124433759331
 40
0.4109946220934695
 40
0.6170446278808941
 40
0.8234579183251312
 40
0.8234579183251312
 40
0.8234579183251312
 40
0.8234579183251312
 10
-1.766453992126617
 20
4.704934265638891
 30
0.0
 10
-1.811253026865901
 20
4.756677438335538
 30
0.0
 10
-1.900931772343158
 20
4.86025696502519
 30
0.0
 10
-2.040803954051106
 20
5.011099875150413
 30
0.0
 10
-2.184303197726237
 20
5.159007201096268
 30
0.0
 10
-2.283316658015954
 20
5.254409901561908
 30
0.0
 10
-2.332866992126632
 20
5.302153265638885
 30
0.0
 11
-1.766453992126617
 21
4.704934265638891
 31
0.0
 11
-1.901720992126617
 21
4.859388265638878
 31
0.0
 11
-2.041281992126576
 21
5.010477265638892
 31
0.0
 11
-2.185032992126586
 21
5.158099265638874
 31
0.0
 11
-2.332866992126632
 21
5.302153265638885
 31
0.0
  0
SPLINE
  5
8F18
330
1F
100
AcDbEntity
  8
AM_0
  6
Continuous
100
AcDbSpline
210
0.0
220
0.0
230
1.0
 70
     8
 71
     3
 72
    11
 73
     7
 74
     5
 42
0.0000000001
 43
0.0000000001
 44
0.0000000001
 40
0.0
 40
0.0
 40
0.0
 40
0.0
 40
0.7086557656753911
 40
1.421252203573457
 40
2.137430912838846
 40
2.856718899673729
 40
2.856718899673729
 40
2.856718899673729
 40
2.856718899673729
 10
-2.419778992126616
 20
5.383420265638881
 30
0.0
 10
-2.597698987473063
 20
5.539066890763924
 30
0.0
 10
-2.95452835046416
 20
5.851225656207553
 30
0.0
 10
-3.541567868057642
 20
6.257113854366746
 30
0.0
 10
-4.160466022815553
 20
6.619483645140149
 30
0.0
 10
-4.597946135953935
 20
6.814128189548533
 30
0.0
 10
-4.81715999212662
 20
6.911661265638877
 30
0.0
 11
-2.419778992126616
 21
5.383420265638881
 31
0.0
 11
-2.961870992126587
 21
5.839851265638888
 31
0.0
 11
-3.545371992126602
 21
6.248899265638882
 31
0.0
 11
-4.165517992126637
 21
6.607132265638877
 31
0.0
 11
-4.81715999212662
 21
6.911661265638877
 31
0.0
  0
ELLIPSE
  5
8F1A
330
1F
100
AcDbEntity
  8
AM_0
  6
Continuous
100
AcDbEllipse
 10
-15.85274699212654
 20
-11.59705673436115
 30
0.0
 11
-20.0
 21
-0.0000000000000524
 31
0.0
210
0.0
220
0.0
230
1.0
 40
0.9510564999999999
 41
3.797266360059158
 42
4.576996221066848
  0
ELLIPSE
  5
8F1B
330
1F
100
AcDbEntity
  8
AM_0
  6
Continuous
100
AcDbEllipse
 10
-15.85274699212653
 20
-12.68001873436116
 30
0.0
 11
-0.0000064590950518
 21
19.764981999999
 31
0.0
210
0.0
220
0.0
230
1.0
 40
0.9494943633138699
 41
5.392129344595691
 42
6.160688373943959
  0
SPLINE
  5
8F1C
330
1F
100
AcDbEntity
  8
AM_0
  6
Continuous
100
AcDbSpline
210
0.0
220
0.0
230
1.0
 70
     8
 71
     3
 72
    11
 73
     7
 74
     5
 42
0.0000000001
 43
0.0000000001
 44
0.0000000001
 40
0.0
 40
0.0
 40
0.0
 40
0.0
 40
1.748450995694775
 40
3.489946112318703
 40
5.215054387068147
 40
6.917018160367976
 40
6.917018160367976
 40
6.917018160367976
 40
6.917018160367976
 10
-7.999999992126597
 20
-7.636959734361092
 30
0.0
 10
-7.416143058831233
 20
-7.597319637701937
 30
0.0
 10
-6.250751955779587
 20
-7.51819714495367
 30
0.0
 10
-4.593432046661904
 20
-6.9415180503126
 30
0.0
 10
-3.082722922798246
 20
-6.076363471373507
 30
0.0
 10
-2.283132308471068
 20
-5.253421752779813
 30
0.0
 10
-1.886036992126599
 20
-4.844729734361114
 30
0.0
 11
-7.999999992126597
 21
-7.636959734361092
 31
0.0
 11
-6.262560992126576
 21
-7.441034734361153
 31
0.0
 11
-4.610539992126588
 21
-6.890006734361126
 31
0.0
 11
-3.127167992126589
 21
-6.009321734361121
 31
0.0
 11
-1.886036992126599
 21
-4.844729734361114
 31
0.0
  0
SPLINE
  5
8F1D
330
1F
100
AcDbEntity
  8
AM_0
  6
Continuous
100
AcDbSpline
210
0.0
220
0.0
230
1.0
 70
     8
 71
     3
 72
    11
 73
     7
 74
     5
 42
0.0000000001
 43
0.0000000001
 44
0.0000000001
 40
0.0
 40
0.0
 40
0.0
 40
0.0
 40
1.202398161204504
 40
2.404054692388442
 40
3.606035159279623
 40
4.808156745052444
 40
4.808156745052444
 40
4.808156745052444
 40
4.808156745052444
 10
-7.99999999212657
 20
-7.188966734361098
 30
0.0
 10
-7.598640467551948
 20
-7.170778909322471
 30
0.0
 10
-6.796168973898104
 20
-7.134414477357068
 30
0.0
 10
-5.626119626523635
 20
-6.824582241555519
 30
0.0
 10
-4.525101943745557
 20
-6.323033939551921
 30
0.0
 10
-3.878571959598513
 20
-5.846451794422554
 30
0.0
 10
-3.555287992126627
 20
-5.608146734361112
 30
0.0
 11
-7.99999999212657
 21
-7.188966734361098
 31
0.0
 11
-6.80153199212658
 21
-7.091828734361116
 31
0.0
 11
-5.63771099212657
 21
-6.792664734361135
 31
0.0
 11
-4.547032992126603
 21
-6.28751273436112
 31
0.0
 11
-3.555287992126627
 21
-5.608146734361112
 31
0.0
  0
SPLINE
  5
8F1E
330
1F
100
AcDbEntity
  8
AM_0
  6
Continuous
100
AcDbSpline
210
0.0
220
0.0
230
1.0
 70
     8
 71
     3
 72
    11
 73
     7
 74
     5
 42
0.0000000001
 43
0.0000000001
 44
0.0000000001
 40
0.0
 40
0.0
 40
0.0
 40
0.0
 40
0.7753899539096692
 40
1.552741732873368
 40
2.331164217452257
 40
3.109723563671289
 40
3.109723563671289
 40
3.109723563671289
 40
3.109723563671289
 10
-4.963468992126593
 20
6.970912265638864
 30
0.0
 10
-5.206532432999325
 20
7.059393261313566
 30
0.0
 10
-5.693274292983312
 20
7.236579119677556
 30
0.0
 10
-6.450988015466816
 20
7.415156539703336
 30
0.0
 10
-7.221391273280933
 20
7.53394135877262
 30
0.0
 10
-7.740448543806966
 20
7.552750745556578
 30
0.0
 10
-7.999999992126622
 20
7.562156265638851
 30
0.0
 11
-4.963468992126593
 21
6.970912265638864
 31
0.0
 11
-5.697136992126619
 21
7.221832265638868
 31
0.0
 11
-6.452579992126633
 21
7.405085265638886
 31
0.0
 11
-7.222646992126617
 21
7.518832265638871
 31
0.0
 11
-7.999999992126622
 21
7.562156265638851
 31
0.0
  0
SPLINE
  5
8F1F
330
1F
100
AcDbEntity
  8
AM_0
  6
Continuous
100
AcDbSpline
210
0.0
220
0.0
230
1.0
 70
     8
 71
     3
 72
    11
 73
     7
 74
     5
 42
0.0000000001
 43
0.0000000001
 44
0.0000000001
 40
0.0
 40
0.0
 40
0.0
 40
0.0
 40
1.701963773299826
 40
3.427072048049296
 40
5.168567164673221
 40
6.917018160367976
 40
6.917018160367976
 40
6.917018160367976
 40
6.917018160367976
 10
-1.886036992126596
 20
4.844730265638881
 30
0.0
 10
-2.283132308471068
 20
5.253422284057576
 30
0.0
 10
-3.08272292279826
 20
6.076364002651263
 30
0.0
 10
-4.59343204666194
 20
6.941518581590344
 30
0.0
 10
-6.250751955779639
 20
7.518197676231352
 30
0.0
 10
-7.416143058831266
 20
7.59732016897967
 30
0.0
 10
-7.999999992126622
 20
7.636960265638851
 30
0.0
 11
-1.886036992126596
 21
4.844730265638881
 31
0.0
 11
-3.127167992126597
 21
6.009322265638872
 31
0.0
 11
-4.610539992126633
 21
6.890007265638865
 31
0.0
 11
-6.262560992126627
 21
7.441035265638859
 31
0.0
 11
-7.999999992126622
 21
7.636960265638851
 31
0.0
  0
LINE
  5
8F46
330
1F
100
AcDbEntity
  8
AM_0
  6
Continuous
100
AcDbLine
 10
-49.99999999212664
 20
9.996750265638743
 30
0.0
 11
-128.9999999194235
 21
9.996750265638532
 31
0.0
  0
LINE
  5
8F47
330
1F
100
AcDbEntity
  8
AM_0
  6
Continuous
100
AcDbLine
 10
-128.9999999194235
 20
-9.996749734361454
 30
0.0
 11
-49.99999999212658
 21
-9.996749734361239
 31
0.0
  0
LINE
  5
8F48
330
1F
100
AcDbEntity
  8
AM_7
100
AcDbLine
 10
4.309096999162939
 20
0.0000002656389029
 30
0.0
 11
-132.8999400872933
 21
0.0000002656385321
 31
0.0
1001
GENIUS_GENODEF_13
1002
{
1000
HIER
1070
     0
1002
}
1002
{
1000
MANEDIT
1070
     0
1002
}
1002
{
1000
NOSEL
1070
     0
1002
}
1002
{
1000
BEHIND
1070
     0
1002
}
1002
{
1000
REACTOR
1002
}
1001
GENIUS_GENOBJ-N-CEN_13
1002
{
1000
OWNER
1000
GEN
1002
}
  0
LINE
  5
8F83
330
1F
100
AcDbEntity
  8
AM_0
  6
Continuous
100
AcDbLine
 10
-20.99999999212662
 20
7.000000265638822
 30
0.0
 11
-25.49999999212662
 21
7.000000265638813
 31
0.0
  0
LINE
  5
8F84
330
1F
100
AcDbEntity
  8
AM_0
  6
Continuous
100
AcDbLine
 10
-25.49999999212657
 20
-6.999999734361185
 30
0.0
 11
-20.99999999212657
 21
-6.999999734361177
 31
0.0
  0
LINE
  5
8F87
330
1F
100
AcDbEntity
  8
AM_0
  6
Continuous
100
AcDbLine
 10
-3.890303992126627
 20
-4.897744734361112
 30
0.0
 11
-7.99999999212661
 21
0.0000002656388648
 31
0.0
  0
ARC
  5
8F8B
330
1F
100
AcDbEntity
  8
AM_0
  6
Continuous
100
AcDbCircle
 10
-7.99999999212661
 20
0.0000002656388648
 30
0.0
 40
6.772655999999998
100
AcDbArc
 50
270.0000000000001
 51
309.9999949056341
  0
LINE
  5
8F8C
330
1F
100
AcDbEntity
  8
AM_0
  6
Continuous
100
AcDbLine
 10
-4.81715999212662
 20
6.911661265638877
 30
0.0
 11
-4.963468992126593
 21
6.970912265638864
 31
0.0
  0
LINE
  5
8F8D
330
1F
100
AcDbEntity
  8
AM_0
  6
Continuous
100
AcDbLine
 10
-2.343526992126605
 20
5.312254265638876
 30
0.0
 11
-2.419778992126616
 21
5.383420265638881
 31
0.0
  0
LINE
  5
8F8E
330
1F
100
AcDbEntity
  8
AM_0
  6
Continuous
100
AcDbLine
 10
-2.332866992126632
 20
5.302153265638885
 30
0.0
 11
-2.343526992126605
 21
5.312254265638876
 31
0.0
  0
LINE
  5
8F8F
330
1F
100
AcDbEntity
  8
AM_0
  6
Continuous
100
AcDbLine
 10
-1.785653992126629
 20
4.726839265638895
 30
0.0
 11
-1.886037992126593
 21
4.844731265638879
 31
0.0
  0
LINE
  5
8F90
330
1F
100
AcDbEntity
  8
AM_0
  6
Continuous
100
AcDbLine
 10
-6.060718624848797
 20
-1.999999734361139
 30
0.0
 11
-3.427119992126613
 21
-5.138601734361102
 31
0.0
  0
LINE
  5
8F91
330
1F
100
AcDbEntity
  8
AM_0
  6
Continuous
100
AcDbLine
 10
-1.886037992126597
 20
-4.84473073436111
 30
0.0
 11
-1.766782992126588
 21
-4.704676734361118
 31
0.0
  0
LINE
  5
8F99
330
1F
100
AcDbEntity
  8
AM_0
  6
Continuous
100
AcDbLine
 10
-3.645970992126585
 20
-5.188928734361113
 30
0.0
 11
-3.890303992126627
 21
-4.897744734361112
 31
0.0
  0
LINE
  5
8F9A
330
1F
100
AcDbEntity
  8
AM_0
  6
Continuous
100
AcDbLine
 10
-3.555287992126627
 20
-5.608146734361112
 30
0.0
 11
-3.801727992126579
 21
-5.314449734361105
 31
0.0
  0
LINE
  5
8F9B
330
1F
100
AcDbEntity
  8
AM_0
  6
Continuous
100
AcDbLine
 10
-3.544102992126617
 20
-5.310330734361102
 30
0.0
 11
-3.427133992126577
 21
-5.449729734361098
 31
0.0
  0
LINE
  5
8F9C
330
1F
100
AcDbEntity
  8
AM_0
  6
Continuous
100
AcDbLine
 10
-3.544102992126617
 20
-5.310330734361102
 30
0.0
 11
-3.645970992126585
 21
-5.188928734361113
 31
0.0
  0
CIRCLE
  5
8F9E
330
1F
100
AcDbEntity
  8
AM_0
  6
Continuous
100
AcDbCircle
 10
-13.79999999212662
 20
0.0000002656388477
 30
0.0
 40
2.799999999999998
  0
LINE
  5
8F9F
330
1F
100
AcDbEntity
  8
AM_0
  6
Continuous
100
AcDbLine
 10
-13.68293299212661
 20
6.77265626563886
 30
0.0
 11
-20.99999999212661
 21
6.772656265638833
 31
0.0
  0
LINE
  5
8FA0
330
1F
100
AcDbEntity
  8
AM_0
  6
Continuous
100
AcDbLine
 10
-19.49999999212662
 20
7.25000026563883
 30
0.0
 11
-14.34455399212664
 21
7.250000265638843
 31
0.0
  0
LINE
  5
8FA1
330
1F
100
AcDbEntity
  8
AM_0
  6
Continuous
100
AcDbLine
 10
-13.3648269921266
 20
6.393551265638852
 30
0.0
 11
-13.94882099212663
 21
7.089529265638844
 31
0.0
  0
LINE
  5
8FA2
330
1F
100
AcDbEntity
  8
AM_0
  6
Continuous
100
AcDbLine
 10
-13.9440149921266
 20
6.772656265638858
 30
0.0
 11
-14.34455399212664
 21
7.250000265638843
 31
0.0
  0
LINE
  5
8FA3
330
1F
100
AcDbEntity
  8
AM_0
  6
Continuous
100
AcDbLine
 10
-13.55963399212664
 20
6.936859265638846
 30
0.0
 11
-9.417118261111925
 21
2.000000265638867
 31
0.0
  0
LINE
  5
8FA4
330
1F
100
AcDbEntity
  8
AM_0
  6
Continuous
100
AcDbLine
 10
-7.999999992126622
 20
7.562156265638851
 30
0.0
 11
-7.999999992126622
 21
7.636960265638851
 31
0.0
  0
LINE
  5
8FA5
330
1F
100
AcDbEntity
  8
AM_0
  6
Continuous
100
AcDbLine
 10
-14.08347199212659
 20
7.250000265638844
 30
0.0
 11
-13.15316299212663
 21
7.250000265638849
 31
0.0
  0
LINE
  5
8FA6
330
1F
100
AcDbEntity
  8
AM_0
  6
Continuous
100
AcDbLine
 10
-14.08347199212659
 20
7.250000265638844
 30
0.0
 11
-13.94882099212663
 21
7.089529265638844
 31
0.0
  0
LINE
  5
8FA7
330
1F
100
AcDbEntity
  8
AM_0
  6
Continuous
100
AcDbLine
 10
-14.34455399212664
 20
7.250000265638843
 30
0.0
 11
-14.08347199212659
 21
7.250000265638844
 31
0.0
  0
LINE
  5
8FA8
330
1F
100
AcDbEntity
  8
AM_0
  6
Continuous
100
AcDbLine
 10
-13.15316299212663
 20
7.250000265638849
 30
0.0
 11
-12.74999999212662
 21
7.250000265638851
 31
0.0
  0
LINE
  5
8FA9
330
1F
100
AcDbEntity
  8
AM_0
  6
Continuous
100
AcDbLine
 10
-13.3648269921266
 20
6.393551265638852
 30
0.0
 11
-8.000000265932245
 21
0.0000002656388697
 31
0.0
  0
LINE
  5
8FB2
330
1F
100
AcDbEntity
  8
AM_0
  6
Continuous
100
AcDbLine
 10
-20.99999999212661
 20
6.772656265638833
 30
0.0
 11
-20.99999999212662
 21
7.000000265638822
 31
0.0
  0
LINE
  5
8FB3
330
1F
100
AcDbEntity
  8
AM_0
  6
Continuous
100
AcDbLine
 10
-19.97734399212657
 20
6.772656265638838
 30
0.0
 11
-19.49999999212662
 21
7.25000026563883
 31
0.0
  0
LINE
  5
8FB4
330
1F
100
AcDbEntity
  8
AM_0
  6
Continuous
100
AcDbLine
 10
-20.99999999212661
 20
-6.772655734361188
 30
0.0
 11
-7.999999992126602
 21
-6.772655734361147
 31
0.0
  0
LINE
  5
8FB5
330
1F
100
AcDbEntity
  8
AM_0
  6
Continuous
100
AcDbLine
 10
-14.88725899212654
 20
-7.249999734361144
 30
0.0
 11
-19.49999999212657
 21
-7.249999734361169
 31
0.0
  0
LINE
  5
8FB6
330
1F
100
AcDbEntity
  8
AM_0
  6
Continuous
100
AcDbLine
 10
-7.999999992126597
 20
-7.636959734361092
 30
0.0
 11
-7.99999999212657
 21
-7.188966734361098
 31
0.0
  0
LINE
  5
8FB7
330
1F
100
AcDbEntity
  8
AM_0
  6
Continuous
100
AcDbLine
 10
-10.52302499212659
 20
-7.230755734361104
 30
0.0
 11
-10.9074169921266
 21
-6.772655734361148
 31
0.0
  0
LINE
  5
8FB8
330
1F
100
AcDbEntity
  8
AM_0
  6
Continuous
100
AcDbLine
 10
-10.27428399212653
 20
-7.216048734361117
 30
0.0
 11
-10.64633499212656
 21
-6.772655734361147
 31
0.0
  0
LINE
  5
8FB9
330
1F
100
AcDbEntity
  8
AM_0
  6
Continuous
100
AcDbLine
 10
-15.28779799212661
 20
-6.772655734361157
 30
0.0
 11
-14.88725899212654
 21
-7.249999734361144
 31
0.0
  0
LINE
  5
8FBA
330
1F
100
AcDbEntity
  8
AM_0
  6
Continuous
100
AcDbLine
 10
-15.02671699212661
 20
-6.77265573436117
 30
0.0
 11
-14.62617799212655
 21
-7.249999734361142
 31
0.0
  0
LINE
  5
8FBB
330
1F
100
AcDbEntity
  8
AM_0
  6
Continuous
100
AcDbLine
 10
-14.62617799212655
 20
-7.249999734361142
 30
0.0
 11
-14.88725899212654
 21
-7.249999734361144
 31
0.0
  0
LINE
  5
8FBC
330
1F
100
AcDbEntity
  8
AM_0
  6
Continuous
100
AcDbLine
 10
-13.02909699212654
 20
-7.249999734361133
 30
0.0
 11
-14.62617799212655
 21
-7.249999734361142
 31
0.0
  0
LINE
  5
8FBD
330
1F
100
AcDbEntity
  8
AM_0
  6
Continuous
100
AcDbLine
 10
-19.49999999212657
 20
-7.249999734361169
 30
0.0
 11
-19.97734399212655
 21
-6.772655734361182
 31
0.0
  0
LINE
  5
8FBE
330
1F
100
AcDbEntity
  8
AM_0
  6
Continuous
100
AcDbLine
 10
-20.99999999212657
 20
-6.999999734361177
 30
0.0
 11
-20.99999999212661
 21
-6.772655734361188
 31
0.0
  0
LINE
  5
8FBF
330
1F
100
AcDbEntity
  8
AM_0
  6
Continuous
100
AcDbLine
 10
-48.94310999212659
 20
-9.392153734361274
 30
0.0
 11
-25.49999999212657
 21
-6.999999734361185
 31
0.0
  0
LINE
  5
8FC0
330
1F
100
AcDbEntity
  8
AM_0
  6
Continuous
100
AcDbLine
 10
-25.49999999212662
 20
7.000000265638813
 30
0.0
 11
-48.94310999212662
 21
9.392154265638762
 31
0.0
  0
LINE
  5
8FC1
330
1F
100
AcDbEntity
  8
AM_0
  6
Continuous
100
AcDbLine
 10
-25.49999999212662
 20
7.000000265638813
 30
0.0
 11
-25.49999999212657
 21
-6.999999734361185
 31
0.0
  0
LINE
  5
8FC2
330
1F
100
AcDbEntity
  8
AM_0
  6
Continuous
100
AcDbLine
 10
-49.99999999212664
 20
9.996750265638743
 30
0.0
 11
-49.99999999212658
 21
-9.996749734361239
 31
0.0
  0
LINE
  5
8FC3
330
1F
100
AcDbEntity
  8
AM_0
  6
Continuous
100
AcDbLine
 10
-48.94310999212662
 20
9.392154265638762
 30
0.0
 11
-48.94310999212659
 21
-9.392153734361274
 31
0.0
  0
ARC
  5
8FC4
330
1F
100
AcDbEntity
  8
AM_0
  6
Continuous
100
AcDbCircle
 10
-48.79083999212661
 20
10.88440526563877
 30
0.0
 40
1.499999768208309
100
AcDbArc
 50
216.282720128639
 51
264.1736773581344
  0
ARC
  5
8FC5
330
1F
100
AcDbEntity
  8
AM_0
  6
Continuous
100
AcDbCircle
 10
-48.79083999212658
 20
-10.88440473436128
 30
0.0
 40
1.49999973330031
100
AcDbArc
 50
95.82632264186571
 51
143.7172798713615
  0
LINE
  5
8FCA
330
1F
100
AcDbEntity
  8
AM_0
  6
Continuous
100
AcDbLine
 10
-128.9999999194235
 20
9.996750265638537
 30
0.0
 11
-128.9999999194235
 21
-9.996749734361461
 31
0.0
  0
LINE
  5
8FCB
330
1F
100
AcDbEntity
  8
AM_0
  6
Continuous
100
AcDbLine
 10
-129.9999999194235
 20
8.996750265638544
 30
0.0
 11
-129.9999999194235
 21
-8.996749734361467
 31
0.0
  0
LINE
  5
8FCC
330
1F
100
AcDbEntity
  8
AM_0
  6
Continuous
100
AcDbLine
 10
-128.9999999194235
 20
9.996750265638537
 30
0.0
 11
-129.9999999194235
 21
8.996750265638544
 31
0.0
  0
LINE
  5
8FCD
330
1F
100
AcDbEntity
  8
AM_0
  6
Continuous
100
AcDbLine
 10
-129.9999999194235
 20
-8.996749734361467
 30
0.0
 11
-128.9999999194235
 21
-9.996749734361461
 31
0.0
  0
SPLINE
  5
914E
330
1F
100
AcDbEntity
  8
AM_0
  6
Continuous
100
AcDbSpline
210
0.0
220
0.0
230
1.0
 70
     8
 71
     3
 72
    11
 73
     7
 74
     5
 42
0.0000000001
 43
0.0000000001
 44
0.0000000001
 40
0.0
 40
0.0
 40
0.0
 40
0.0
 40
0.7233968001380637
 40
1.443282421066843
 40
2.160336523966327
 40
2.875294775181743
 40
2.875294775181743
 40
2.875294775181743
 40
2.875294775181743
 10
-0.5790769921266099
 20
2.797667265638894
 30
0.0
 10
-0.4903611868673041
 20
2.573199064332188
 30
0.0
 10
-0.313360179706216
 20
2.125352171765575
 30
0.0
 10
-0.1367013022503164
 20
1.425640527979437
 30
0.0
 10
-0.0212241409455588
 20
0.7160534734379752
 30
0.0
 10
-0.0070678021308359
 20
0.2384516668617141
 30
0.0
 10
0.0000000078733891
 20
0.0000002656388938
 30
0.0
 11
-0.5790769921266099
 21
2.797667265638894
 31
0.0
 11
-0.3277459921266129
 21
2.1193342656389
 31
0.0
 11
-0.1466079921266334
 21
1.422610265638884
 31
0.0
 11
-0.0368299921266239
 21
0.714009265638898
 31
0.0
 11
0.0000000078733891
 21
0.0000002656388938
 31
0.0
  0
LINE
  5
916A
330
1F
100
AcDbEntity
  8
AM_11
100
AcDbLine
 10
-11.99999991942364
 20
7.66791647487872
 30
0.0
 11
-11.99999991942358
 21
-7.667915943601004
 31
0.0
  0
DIMENSION
  5
9172
330
1F
100
AcDbEntity
  8
AM_5
100
AcDbDimension
  2
*D2
 10
-146.8999410872933
 20
-9.996749734361443
 30
0.0
 11
-149.9999410872933
 21
0.0000002656385303
 31
0.0
 70
    32
  1
%%c<>
 71
     5
 42
-1.0
 51
359.9999999999998
  3
AM_JIS$0
100
AcDbAlignedDimension
 13
-128.9999999194236
 23
9.996750265638546
 33
0.0
 14
-128.9999999194235
 24
-9.996749734361452
 34
0.0
 50
270.0
100
AcDbRotatedDimension
1001
GENIUS_GENDTOL_13
1000

1000
h7
1000

1040
0.0
1001
ACAD
1000
DSTYLE
1002
{
1070
   287
1070
     3
1070
    40
1040
1.0
1070
    42
1040
1.0
1070
    43
1040
12.0
1070
    48
1040
0.1
1070
    78
1070
     8
1070
   140
1040
3.2
1070
   176
1070
   256
1070
   177
1070
   256
1070
   271
1070
     1
1070
   272
1070
     3
1070
   275
1070
     0
1070
   284
1070
     0
1070
   289
1070
     3
1070
   340
1005
6B
1070
   371
1070
    -1
1070
   372
1070
    -1
1002
}
  0
DIMENSION
  5
9249
330
1F
100
AcDbEntity
  8
AM_5
100
AcDbDimension
  2
*D3
 10
-11.9999999194236
 20
23.99675129629634
 30
0.0
 11
-5.999999919423578
 21
27.09675129629633
 31
0.0
 70
    32
  1
<>
 71
     5
 42
-1.0
 51
359.9999999999998
  3
AM_JIS$0
100
AcDbAlignedDimension
 13
0.0000000805763847
 23
0.0000000996275134
 33
0.0
 14
-11.99999991942362
 24
7.667916474878722
 34
0.0
 50
180.0
100
AcDbRotatedDimension
1001
GENIUS_GENDTOL_13
1000

1000
h7
1000

1040
0.0
1001
ACAD
1000
DSTYLE
1002
{
1070
   287
1070
     3
1070
    40
1040
1.0
1070
    42
1040
1.0
1070
    43
1040
12.0
1070
    48
1040
0.1
1070
    78
1070
     8
1070
   140
1040
3.2
1070
   176
1070
   256
1070
   177
1070
   256
1070
   271
1070
     1
1070
   272
1070
     3
1070
   275
1070
     0
1070
   284
1070
     0
1070
   289
1070
     3
1070
   340
1005
6B
1070
   371
1070
    -1
1070
   372
1070
    -1
1002
}
  0
DIMENSION
  5
92F5
330
1F
100
AcDbEntity
  8
AM_5
100
AcDbDimension
  2
*D4
 10
-129.9999999194235
 20
-43.99675074436128
 30
0.0
 11
-64.99999995577508
 21
-40.89675074436128
 31
0.0
 70
    32
  1
<>
 71
     5
 42
-1.0
 51
359.9999999999998
  3
AM_JIS$0
100
AcDbAlignedDimension
 13
0.0000000078733819
 23
0.0000002656389029
 33
0.0
 14
-129.9999999194235
 24
-8.996749734361465
 34
0.0
100
AcDbRotatedDimension
1001
GENIUS_GENDTOL_13
1000

1000
h7
1000

1040
0.0
1001
ACAD
1000
DSTYLE
1002
{
1070
   287
1070
     3
1070
    40
1040
1.0
1070
    42
1040
1.0
1070
    43
1040
12.0
1070
    48
1040
0.1
1070
    78
1070
     8
1070
   140
1040
3.2
1070
   176
1070
   256
1070
   177
1070
   256
1070
   271
1070
     1
1070
   272
1070
     3
1070
   275
1070
     0
1070
   284
1070
     0
1070
   289
1070
     3
1070
   340
1005
6B
1070
   371
1070
    -1
1070
   372
1070
    -1
1002
}
  0
DIMENSION
  5
9381
330
1F
100
AcDbEntity
  8
AM_5
100
AcDbDimension
  2
*D5
 10
-49.99999999212658
 20
-33.99675074436129
 30
0.0
 11
-89.99999995577507
 21
-30.89675074436129
 31
0.0
 70
    32
  1
<>
 71
     5
 42
-1.0
 51
359.9999999999998
  3
AM_JIS$0
100
AcDbAlignedDimension
 13
-129.9999999194235
 23
-8.996749734361465
 33
0.0
 14
-49.99999999212658
 24
-9.9967497343613
 34
0.0
100
AcDbRotatedDimension
1001
GENIUS_GENDTOL_13
1000

1000
h7
1000

1040
0.0
1001
ACAD
1000
DSTYLE
1002
{
1070
   287
1070
     3
1070
    40
1040
1.0
1070
    42
1040
1.0
1070
    43
1040
12.0
1070
    48
1040
0.1
1070
    78
1070
     8
1070
   140
1040
3.2
1070
   176
1070
   256
1070
   177
1070
   256
1070
   271
1070
     1
1070
   272
1070
     3
1070
   275
1070
     0
1070
   284
1070
     0
1070
   289
1070
     3
1070
   340
1005
6B
1070
   371
1070
    -1
1070
   372
1070
    -1
1002
}
  0
DIMENSION
  5
9428
330
1F
100
AcDbEntity
  8
AM_5
100
AcDbDimension
  2
*D6
 10
0.0000000805763826
 20
-33.99675074436129
 30
0.0
 11
-24.9999999557751
 21
-30.89675074436129
 31
0.0
 70
    32
  1
<>
 71
     5
 42
-1.0
 51
359.9999999999998
  3
AM_JIS$0
100
AcDbAlignedDimension
 13
-49.99999999212658
 23
-9.996749734361245
 33
0.0
 14
0.0000000805763847
 24
0.0000000996275134
 34
0.0
100
AcDbRotatedDimension
1001
GENIUS_GENDTOL_13
1000

1000
h7
1000

1040
0.0
1001
ACAD
1000
DSTYLE
1002
{
1070
   287
1070
     3
1070
    40
1040
1.0
1070
    42
1040
1.0
1070
    43
1040
12.0
1070
    48
1040
0.1
1070
    78
1070
     8
1070
   140
1040
3.2
1070
   176
1070
   256
1070
   177
1070
   256
1070
   271
1070
     1
1070
   272
1070
     3
1070
   275
1070
     0
1070
   284
1070
     0
1070
   289
1070
     3
1070
   340
1005
6B
1070
   371
1070
    -1
1070
   372
1070
    -1
1002
}
  0
DIMENSION
  5
94BD
330
1F
100
AcDbEntity
  8
AM_5
100
AcDbDimension
  2
*D7
 10
-25.49999999212658
 20
-23.99675074436129
 30
0.0
 11
-12.74999999606342
 21
-20.89675074436129
 31
0.0
 70
    32
  1
<>
 71
     5
 42
-1.0
 51
359.9999999999998
  3
AM_JIS$0
100
AcDbAlignedDimension
 13
-0.00000000000027
 23
0.0000000000001421
 33
0.0
 14
-25.49999999212658
 24
-6.999999734361168
 34
0.0
100
AcDbRotatedDimension
1001
GENIUS_GENDTOL_13
1000

1000
h7
1000

1040
0.0
1001
ACAD
1000
DSTYLE
1002
{
1070
   287
1070
     3
1070
    40
1040
1.0
1070
    42
1040
1.0
1070
    43
1040
12.0
1070
    48
1040
0.1
1070
    78
1070
     8
1070
   140
1040
3.2
1070
   176
1070
   256
1070
   177
1070
   256
1070
   271
1070
     1
1070
   272
1070
     3
1070
   275
1070
     0
1070
   284
1070
     0
1070
   289
1070
     3
1070
   340
1005
6B
1070
   371
1070
    -1
1070
   372
1070
    -1
1002
}
  0
DIMENSION
  5
956D
330
1F
100
AcDbEntity
  8
AM_5
100
AcDbDimension
  2
*D8
 10
18.30909799916293
 20
-7.667915943601012
 30
0.0
 11
15.20909799916293
 21
0.0000002656388551
 31
0.0
 70
    32
  1
%%c16
 71
     5
 42
-1.0
 51
359.9999999999998
  3
AM_JIS$0
100
AcDbAlignedDimension
 13
-11.99999991942362
 23
7.667916474878722
 33
0.0
 14
-11.9999999194236
 24
-7.667915943601002
 34
0.0
 50
90.0
100
AcDbRotatedDimension
1001
GENIUS_GENDTOL_13
1000

1000
h7
1000

1040
0.0
1001
ACAD
1000
DSTYLE
1002
{
1070
   287
1070
     3
1070
    40
1040
1.0
1070
    42
1040
1.0
1070
    43
1040
12.0
1070
    48
1040
0.1
1070
    78
1070
     8
1070
   140
1040
3.2
1070
   176
1070
   256
1070
   177
1070
   256
1070
   271
1070
     1
1070
   272
1070
     3
1070
   275
1070
     0
1070
   284
1070
     0
1070
   289
1070
     3
1070
   340
1005
6B
1070
   371
1070
    -1
1070
   372
1070
    -1
1002
}
  0
ELLIPSE
  5
96FF
330
1F
100
AcDbEntity
  8
AM_0
  6
Continuous
100
AcDbEllipse
 10
-6.64997499212663
 20
-1.433038734361146
 30
0.0
 11
-0.1056545685609999
 21
-0.2265769453020001
 31
0.0
210
0.0
220
0.0
230
1.0
 40
0.844556
 41
0.712895523366816
 42
2.637112540252458
  0
ELLIPSE
  5
9700
330
1F
100
AcDbEntity
  8
AM_0
  6
Continuous
100
AcDbEllipse
 10
-5.989162992126607
 20
-1.741180734361145
 30
0.0
 11
-0.26827892612
 21
0.1251004155419999
 31
0.0
210
0.0
220
0.0
230
1.0
 40
0.84455750254212
 41
2.07527645293939
 42
4.20790857044512
  0
ELLIPSE
  5
9701
330
1F
100
AcDbEntity
  8
AM_0
  6
Continuous
100
AcDbEllipse
 10
-9.054899992126633
 20
1.433039265638859
 30
0.0
 11
0.2265769107740001
 21
-0.1056546426049999
 31
0.0
210
0.0
220
0.0
230
1.0
 40
0.9589680000000001
 41
1.150294872883879
 42
1.991298117740839
  0
ELLIPSE
  5
9702
330
1F
100
AcDbEntity
  8
AM_0
  6
Continuous
100
AcDbEllipse
 10
-8.911211992126638
 20
1.741181265638864
 30
0.0
 11
-0.1101753162409998
 21
-0.2362717196370001
 31
0.0
210
0.0
220
0.0
230
1.0
 40
0.9589676904605699
 41
2.7210920251843
 42
3.562092965962758
  0
LINE
  5
9706
330
1F
100
AcDbEntity
  8
AM_0
  6
Continuous
100
AcDbLine
 10
-6.64997499212663
 20
-1.433038734361146
 30
0.0
 11
-9.054899992126633
 21
1.433039265638859
 31
0.0
  0
LINE
  5
9707
330
1F
100
AcDbEntity
  8
AM_0
  6
Continuous
100
AcDbLine
 10
-8.869914992126595
 20
1.588261265638841
 30
0.0
 11
-6.464988992126649
 21
-1.277817734361133
 31
0.0
  0
LINE
  5
9708
330
1F
100
AcDbEntity
  8
AM_0
  6
Continuous
100
AcDbLine
 10
-5.766996992126648
 20
-1.60329673436113
 30
0.0
 11
-8.718140992126661
 21
1.913740265638843
 31
0.0
  0
LINE
  5
970A
330
1F
100
AcDbEntity
  8
AM_0
  6
Continuous
100
AcDbLine
 10
-9.120282992126632
 20
1.633039265638848
 30
0.0
 11
-9.428198992126665
 21
2.000000265638867
 31
0.0
  0
LINE
  5
970B
330
1F
100
AcDbEntity
  8
AM_0
  6
Continuous
100
AcDbLine
 10
-8.90312699212664
 20
2.000000265638852
 30
0.0
 11
-9.428198992126665
 21
2.000000265638867
 31
0.0
  0
LINE
  5
970C
330
1F
100
AcDbEntity
  8
AM_0
  6
Continuous
100
AcDbLine
 10
-9.574904992126658
 20
1.876899265638874
 30
0.0
 11
-9.428198992126665
 21
2.000000265638867
 31
0.0
  0
LINE
  5
970D
330
1F
100
AcDbEntity
  8
AM_0
  6
Continuous
100
AcDbLine
 10
-9.266988992126625
 20
1.509938265638855
 30
0.0
 11
-9.120282992126632
 21
1.633039265638848
 31
0.0
  0
LINE
  5
970E
330
1F
100
AcDbEntity
  8
AM_0
  6
Continuous
100
AcDbLine
 10
-9.054899992126633
 20
1.433039265638859
 30
0.0
 11
-8.869914992126595
 21
1.588261265638841
 31
0.0
  0
LINE
  5
970F
330
1F
100
AcDbEntity
  8
AM_0
  6
Continuous
100
AcDbLine
 10
-9.054899992126635
 20
1.67452126563885
 30
0.0
 11
-9.054899992126633
 21
1.433039265638859
 31
0.0
  0
LINE
  5
9710
330
1F
100
AcDbEntity
  8
AM_0
  6
Continuous
100
AcDbLine
 10
-9.054899992126633
 20
1.433039265638859
 30
0.0
 11
-9.202462992126624
 21
1.433039265638858
 31
0.0
  0
LINE
  5
9711
330
1F
100
AcDbEntity
  8
AM_0
  6
Continuous
100
AcDbLine
 10
-8.718140992126661
 20
1.913740265638843
 30
0.0
 11
-8.869914992126595
 21
1.588261265638841
 31
0.0
  0
LINE
  5
9712
330
1F
100
AcDbEntity
  8
AM_0
  6
Continuous
100
AcDbLine
 10
-9.155089992126631
 20
1.674521265638849
 30
0.0
 11
-9.054899992126635
 21
1.67452126563885
 31
0.0
  0
LINE
  5
9713
330
1F
100
AcDbEntity
  8
AM_0
  6
Continuous
100
AcDbLine
 10
-9.054899992126635
 20
1.67452126563885
 30
0.0
 11
-8.90312699212664
 21
2.000000265638852
 31
0.0
  0
LINE
  5
9715
330
1F
100
AcDbEntity
  8
AM_0
  6
Continuous
100
AcDbLine
 10
-6.797536992126625
 20
-1.433038734361147
 30
0.0
 11
-6.64997499212663
 21
-1.433038734361146
 31
0.0
  0
LINE
  5
9716
330
1F
100
AcDbEntity
  8
AM_0
  6
Continuous
100
AcDbLine
 10
-6.64997499212663
 20
-1.433038734361146
 30
0.0
 11
-6.464988992126649
 21
-1.277817734361133
 31
0.0
  0
LINE
  5
9717
330
1F
100
AcDbEntity
  8
AM_0
  6
Continuous
100
AcDbLine
 10
-6.64997499212663
 20
-1.433038734361146
 30
0.0
 11
-6.649974992126629
 21
-1.608896734361151
 31
0.0
  0
LINE
  5
9718
330
1F
100
AcDbEntity
  8
AM_0
  6
Continuous
100
AcDbLine
 10
-6.464988992126649
 20
-1.277817734361133
 30
0.0
 11
-5.766996992126648
 21
-1.60329673436113
 31
0.0
  0
LINE
  5
9719
330
1F
100
AcDbEntity
  8
AM_0
  6
Continuous
100
AcDbLine
 10
-5.951981992126606
 20
-1.999999734361134
 30
0.0
 11
-6.321800992126614
 21
-1.999999734361151
 31
0.0
  0
LINE
  5
971A
330
1F
100
AcDbEntity
  8
AM_0
  6
Continuous
100
AcDbLine
 10
-5.951981992126606
 20
-1.999999734361134
 30
0.0
 11
-6.559514992126621
 21
-1.716702734361132
 31
0.0
  0
VIEWPORT
  5
110
102
{ACAD_XDICTIONARY
360
99F7
102
}
330
101
100
AcDbEntity
 67
     1
  8
0
100
AcDbViewport
 10
420.5
 20
297.0
 30
0.0
 40
948.9782706766916
 41
628.452
 68
     1
 69
     1
 12
420.5
 22
297.0
 13
0.0
 23
0.0
 14
10.0
 24
10.0
 15
10.0
 25
10.0
 16
0.0
 26
0.0
 36
1.0
 17
0.0
 27
0.0
 37
0.0
 42
50.0
 43
0.0
 44
0.0
 45
628.452
 50
0.0
 51
0.0
 72
   100
 90
    32800
  1

281
     0
 71
     1
 74
     0
110
-0.0000000000002682
120
0.000000000000161
130
0.0
111
1.0
121
0.000000000000002
131
0.0
112
-0.000000000000002
122
1.0
132
0.0
 79
     0
146
0.0
1001
GENIUS_GENSCREG_15
1000
PF
1040
1.0
1000
DF
1040
1.0
1000
MIN
1011
-53.98913533834582
1021
-17.226
1031
0.0
1000
MAX
1011
894.9891353383458
1021
611.226
1031
0.0
1000
FLAGS
1070
     4
1001
GENIUS_GENODEF_13
1002
{
1000
HIER
1070
     0
1002
}
1002
{
1000
MANEDIT
1070
     0
1002
}
1002
{
1000
NOSEL
1070
     0
1002
}
1002
{
1000
BEHIND
1070
     0
1002
}
1002
{
1000
OTHER
1070
     0
1002
}
1002
{
1000
REACTOR
1002
}
1001
GENIUS_GENOBJ-N-SDF_13
1002
{
1000
OWNER
1000
GEN
1002
}
  0
ENDSEC
  0
SECTION
  2
OBJECTS
  0
DICTIONARY
  5
C
330
0
100
AcDbDictionary
281
     1
  3
ACAD_COLOR
350
992D
  3
ACAD_GROUP
350
D
  3
ACAD_LAYOUT
350
1A
  3
ACAD_MATERIAL
350
992C
  3
ACAD_MLINESTYLE
350
17
  3
ACAD_PLOTSETTINGS
350
19
  3
ACAD_PLOTSTYLENAME
350
E
  3
ACAD_TABLESTYLE
350
992E
  3
ACDBHEADERROUNDTRIPXREC
350
99F6
  3
ACDBVARIABLEDICTIONARY
350
34
  3
ACMDICTIONARY
350
43
  3
AMG
350
2B
  3
AMGSNAPSETTINGS
350
6E
  3
DWGPROPS
350
99F5
  0
DICTIONARY
  5
74
330
1F
100
AcDbDictionary
280
     1
281
     1
  3
ACAD_INDEX
360
98B3
  3
ACAD_LAYOUTSELFREF
360
98E0
  0
DICTIONARY
  5
98E5
330
101
100
AcDbDictionary
280
     1
281
     1
  3
ACAD_LAYOUTSELFREF
360
98E6
  0
DICTIONARY
  5
99F7
330
110
100
AcDbDictionary
280
     1
281
     1
  3
ACAD_XREC_ROUNDTRIP
360
99F8
  0
DICTIONARY
  5
992D
102
{ACAD_REACTORS
330
C
102
}
330
C
100
AcDbDictionary
281
     1
  0
DICTIONARY
  5
D
102
{ACAD_REACTORS
330
C
102
}
330
C
100
AcDbDictionary
281
     1
  0
DICTIONARY
  5
1A
102
{ACAD_REACTORS
330
C
102
}
330
C
100
AcDbDictionary
281
     1
  3
Model
350
9930
  3
レイアウト1
350
9931
  0
DICTIONARY
  5
992C
102
{ACAD_REACTORS
330
C
102
}
330
C
100
AcDbDictionary
281
     1
  0
DICTIONARY
  5
17
102
{ACAD_REACTORS
330
C
102
}
330
C
100
AcDbDictionary
281
     1
  3
STANDARD
350
18
  0
DICTIONARY
  5
19
102
{ACAD_REACTORS
330
C
102
}
330
C
100
AcDbDictionary
281
     1
  3
ASAMI
350
399D
  0
ACDBDICTIONARYWDFLT
  5
E
102
{ACAD_REACTORS
330
C
102
}
330
C
100
AcDbDictionary
281
     1
  3
Normal
350
F
100
AcDbDictionaryWithDefault
340
F
  0
DICTIONARY
  5
992E
102
{ACAD_REACTORS
330
C
102
}
330
C
100
AcDbDictionary
281
     1
  3
Standard
350
992F
  0
DICTIONARY
  5
99F6
102
{ACAD_REACTORS
330
C
102
}
330
C
100
AcDbDictionary
281
     1
  0
DICTIONARY
  5
34
102
{ACAD_REACTORS
330
C
102
}
330
C
100
AcDbDictionary
281
     1
  3
CTABLESTYLE
350
99F1
  3
DIMASSOC
350
99F2
  3
INDEXCTL
350
35
  3
PROJECTNAME
350
99F3
  3
SORTENTS
350
B5E
  0
DICTIONARY
  5
43
102
{ACAD_REACTORS
330
C
102
}
330
C
100
AcDbDictionary
281
     1
  3
ACMSTDDICTIONARY
350
260
  0
DICTIONARY
  5
2B
102
{ACAD_REACTORS
330
C
102
}
330
C
100
AcDbDictionary
281
     1
  0
DICTIONARY
  5
6E
102
{ACAD_REACTORS
330
C
102
}
330
C
100
AcDbDictionary
281
     1
  0
XRECORD
  5
99F5
102
{ACAD_REACTORS
330
C
102
}
330
C
100
AcDbXrecord
280
     1
  1
DWGPROPS COOKIE
  2

  3

  4

  6

  7

  8

  9

300
AmdtFileType=82
301
=
302
=
303
=
304
=
305
=
306
=
307
=
308
=
309
=
 40
0.9508226388888887
 41
2452802.716478762
 42
2453691.772751366
  1

 90
        1
  0
DICTIONARY
  5
98B3
102
{ACAD_REACTORS
330
74
102
}
330
74
100
AcDbDictionary
281
     1
  3
*A1
350
98B4
  0
XRECORD
  5
98E0
102
{ACAD_REACTORS
330
74
102
}
330
74
100
AcDbXrecord
280
     1
340
1F
  0
XRECORD
  5
98E6
102
{ACAD_REACTORS
330
98E5
102
}
330
98E5
100
AcDbXrecord
280
     1
340
101
  0
XRECORD
  5
99F8
102
{ACAD_REACTORS
330
99F7
102
}
330
99F7
100
AcDbXrecord
280
     1
102
SHADEPLOT
 70
     0
  0
LAYOUT
  5
9930
102
{ACAD_XDICTIONARY
360
99FB
102
}
102
{ACAD_REACTORS
330
1A
102
}
330
1A
100
AcDbPlotSettings
  1

  2
Canon LBP-1710 LIPS4
  4

  6

 40
0.0
 41
0.0
 42
0.0
 43
0.0
 44
0.0
 45
0.0
 46
0.0
 47
0.0
 48
0.0
 49
0.0
140
0.0
141
0.0
142
1.0
143
1.0
 70
  1712
 72
     0
 73
     0
 74
     0
  7
sei_cad.ctb
 75
     0
147
1.0
148
0.0
149
0.0
100
AcDbLayout
  1
Model
 70
     1
 71
     0
 10
0.0
 20
0.0
 11
12.0
 21
9.0
 12
0.0
 22
0.0
 32
0.0
 14
0.0
 24
0.0
 34
0.0
 15
0.0
 25
0.0
 35
0.0
146
0.0
 13
0.0
 23
0.0
 33
0.0
 16
1.0
 26
0.0
 36
0.0
 17
0.0
 27
1.0
 37
0.0
 76
     0
330
1F
  0
LAYOUT
  5
9931
102
{ACAD_XDICTIONARY
360
99FD
102
}
102
{ACAD_REACTORS
330
1A
102
}
330
1A
100
AcDbPlotSettings
  1

  2
Canon LBP-1710 LIPS4
  4

  6

 40
0.0
 41
0.0
 42
0.0
 43
0.0
 44
0.0
 45
0.0
 46
0.0
 47
0.0
 48
0.0
 49
0.0
140
0.0
141
0.0
142
1.0
143
1.0
 70
   688
 72
     0
 73
     0
 74
     5
  7
sei_cad.ctb
 75
    16
147
1.0
148
0.0
149
0.0
100
AcDbLayout
  1
レイアウト1
 70
     0
 71
     1
 10
0.0
 20
0.0
 11
841.0
 21
594.0
 12
0.0
 22
0.0
 32
0.0
 14
1.000000000000000E+20
 24
1.000000000000000E+20
 34
1.000000000000000E+20
 15
-1.000000000000000E+20
 25
-1.000000000000000E+20
 35
-1.000000000000000E+20
146
0.0
 13
0.0
 23
0.0
 33
0.0
 16
1.0
 26
0.0
 36
0.0
 17
0.0
 27
1.0
 37
0.0
 76
     0
330
101
331
110
  0
MLINESTYLE
  5
18
102
{ACAD_REACTORS
330
17
102
}
330
17
100
AcDbMlineStyle
  2
STANDARD
 70
     0
  3

 62
   256
 51
90.0
 52
90.0
 71
     2
 49
0.5
 62
   256
  6
BYLAYER
 49
-0.5
 62
   256
  6
BYLAYER
  0
PLOTSETTINGS
  5
399D
102
{ACAD_XDICTIONARY
360
99F9
102
}
102
{ACAD_REACTORS
330
19
102
}
330
19
100
AcDbPlotSettings
  1
asami
  2
RICOH imagio MF1540
  4
A4
  6

 40
5.831416606903076
 41
7.651742935180664
 42
4.90008544921875
 43
5.789077758789062
 44
296.9683227539062
 45
209.9733276367186
 46
0.0
 47
0.0
 48
-156.6707931774246
 49
-74.57609991074048
140
58.59973180214831
141
60.61068161925597
142
1.0
143
1.095343097833084
 70
  1712
 72
     1
 73
     1
 74
     4
  7
asami.ctb
 75
     0
147
0.9129559514076438
148
156.6707931774246
149
74.57609991074048
  0
ACDBPLACEHOLDER
  5
F
102
{ACAD_REACTORS
330
E
102
}
330
E
  0
TABLESTYLE
  5
992F
102
{ACAD_REACTORS
330
992E
102
}
330
992E
100
AcDbTableStyle
  3
Standard
 70
     0
 71
     0
 40
1.5
 41
1.5
280
     0
281
     0
  7
STANDARD
140
4.5
170
     2
 62
     0
 63
     7
283
     0
274
    -2
284
     1
 64
     0
275
    -2
285
     1
 65
     0
276
    -2
286
     1
 66
     0
277
    -2
287
     1
 67
     0
278
    -2
288
     1
 68
     0
279
    -2
289
     1
 69
     0
  7
STANDARD
140
6.0
170
     5
 62
     0
 63
     7
283
     0
274
    -2
284
     1
 64
     0
275
    -2
285
     1
 65
     0
276
    -2
286
     1
 66
     0
277
    -2
287
     1
 67
     0
278
    -2
288
     1
 68
     0
279
    -2
289
     1
 69
     0
  7
STANDARD
140
4.5
170
     5
 62
     0
 63
     7
283
     0
274
    -2
284
     1
 64
     0
275
    -2
285
     1
 65
     0
276
    -2
286
     1
 66
     0
277
    -2
287
     1
 67
     0
278
    -2
288
     1
 68
     0
279
    -2
289
     1
 69
     0
  0
DICTIONARYVAR
  5
99F1
102
{ACAD_REACTORS
330
34
102
}
330
34
100
DictionaryVariables
280
     0
  1
STANDARD
  0
DICTIONARYVAR
  5
99F2
102
{ACAD_REACTORS
330
34
102
}
330
34
100
DictionaryVariables
280
     0
  1
1
  0
DICTIONARYVAR
  5
35
102
{ACAD_REACTORS
330
34
102
}
330
34
100
DictionaryVariables
280
     0
  1
1
  0
DICTIONARYVAR
  5
99F3
102
{ACAD_REACTORS
330
34
102
}
330
34
100
DictionaryVariables
280
     0
  1

  0
DICTIONARYVAR
  5
B5E
102
{ACAD_REACTORS
330
34
102
}
330
34
100
DictionaryVariables
280
     0
  1
96
  0
DICTIONARY
  5
260
102
{ACAD_REACTORS
330
43
102
}
330
43
100
AcDbDictionary
281
     1
  0
LAYER_INDEX
  5
98B4
102
{ACAD_REACTORS
330
98B3
102
}
330
98B3
100
AcDbIndex
 40
2453691.772751366
100
AcDbLayerIndex
  8
0
360
98B5
 90
        0
  8
AM_0
360
98B6
 90
      103
  8
AM_5
360
98B7
 90
        7
  8
AM_7
360
98B8
 90
        1
  8
AM_6
360
98B9
 90
        1
  8
DEFPOINTS
360
98BA
 90
        0
  8
AM_11
360
98BB
 90
        1
  0
DICTIONARY
  5
99FB
330
9930
100
AcDbDictionary
280
     1
281
     1
  3
ACAD_XREC_ROUNDTRIP
360
99FC
  0
DICTIONARY
  5
99FD
330
9931
100
AcDbDictionary
280
     1
281
     1
  3
ACAD_XREC_ROUNDTRIP
360
99FE
  0
DICTIONARY
  5
99F9
330
399D
100
AcDbDictionary
280
     1
281
     1
  3
ACAD_XREC_ROUNDTRIP
360
99FA
  0
IDBUFFER
  5
98B5
330
0
100
AcDbIdBuffer
  0
IDBUFFER
  5
98B6
330
0
100
AcDbIdBuffer
330
8EFD
330
8EFE
330
8EFF
330
8F00
330
8F01
330
8F04
330
8F05
330
8F06
330
8F07
330
8F08
330
8F09
330
8F0C
330
8F0F
330
8F10
330
8F11
330
8F12
330
8F13
330
8F14
330
8F15
330
8F17
330
8F18
330
8F1A
330
8F1B
330
8F1C
330
8F1D
330
8F1E
330
8F1F
330
8F46
330
8F47
330
8F83
330
8F84
330
8F87
330
8F8B
330
8F8C
330
8F8D
330
8F8E
330
8F8F
330
8F90
330
8F91
330
8F99
330
8F9A
330
8F9B
330
8F9C
330
8F9E
330
8F9F
330
8FA0
330
8FA1
330
8FA2
330
8FA3
330
8FA4
330
8FA5
330
8FA6
330
8FA7
330
8FA8
330
8FA9
330
8FB2
330
8FB3
330
8FB4
330
8FB5
330
8FB6
330
8FB7
330
8FB8
330
8FB9
330
8FBA
330
8FBB
330
8FBC
330
8FBD
330
8FBE
330
8FBF
330
8FC0
330
8FC1
330
8FC2
330
8FC3
330
8FC4
330
8FC5
330
8FCA
330
8FCB
330
8FCC
330
8FCD
330
914E
330
96FF
330
9700
330
9701
330
9702
330
9706
330
9707
330
9708
330
970A
330
970B
330
970C
330
970D
330
970E
330
970F
330
9710
330
9711
330
9712
330
9713
330
9715
330
9716
330
9717
330
9718
330
9719
330
971A
  0
IDBUFFER
  5
98B7
330
0
100
AcDbIdBuffer
330
9172
330
9249
330
92F5
330
9381
330
9428
330
94BD
330
956D
  0
IDBUFFER
  5
98B8
330
0
100
AcDbIdBuffer
330
8F48
  0
IDBUFFER
  5
98B9
330
0
100
AcDbIdBuffer
330
388D
  0
IDBUFFER
  5
98BA
330
0
100
AcDbIdBuffer
  0
IDBUFFER
  5
98BB
330
0
100
AcDbIdBuffer
330
916A
  0
XRECORD
  5
99FC
102
{ACAD_REACTORS
330
99FB
102
}
330
99FB
100
AcDbXrecord
280
     1
102
SHADEPLOT
 70
     0
102
SHADEPLOTRESLEVEL
 70
     2
102
SHADEPLOTCUSTOMDPI
 70
   300
  0
XRECORD
  5
99FE
102
{ACAD_REACTORS
330
99FD
102
}
330
99FD
100
AcDbXrecord
280
     1
102
SHADEPLOT
 70
     0
102
SHADEPLOTRESLEVEL
 70
     2
102
SHADEPLOTCUSTOMDPI
 70
   300
  0
XRECORD
  5
99FA
102
{ACAD_REACTORS
330
99F9
102
}
330
99F9
100
AcDbXrecord
280
     1
102
SHADEPLOT
 70
     0
102
SHADEPLOTRESLEVEL
 70
     2
102
SHADEPLOTCUSTOMDPI
 70
   300
  0
ENDSEC
  0
EOF
