  0
SECTION
  2
HEADER
  9
$ACADVER
  1
AC1015
  9
$ACADMAINTVER
 70
    20
  9
$DWGCODEPAGE
  3
ANSI_932
  9
$INSBASE
 10
0.0
 20
0.0
 30
0.0
  9
$EXTMIN
 10
-264.7001736227168
 20
-72.49600101000026
 30
0.0
  9
$EXTMAX
 10
21.71203571980608
 20
34.69600112235227
 30
0.0
  9
$LIMMIN
 10
-281.6605799187653
 20
-108.4337446170739
  9
$LIMMAX
 10
106.301158034307
 20
92.023682891959
  9
$ORTHOMODE
 70
     0
  9
$REGENMODE
 70
     1
  9
$FILLMODE
 70
     1
  9
$QTEXTMODE
 70
     0
  9
$MIRRTEXT
 70
     0
  9
$LTSCALE
 40
1.0
  9
$ATTMODE
 70
     1
  9
$TEXTSIZE
 40
2.5
  9
$TRACEWID
 40
1.0
  9
$TEXTSTYLE
  7
STANDARD
  9
$CLAYER
  8
AM_0
  9
$CELTYPE
  6
BYLAYER
  9
$CECOLOR
 62
   256
  9
$CELTSCALE
 40
1.0
  9
$DISPSILH
 70
     0
  9
$DIMSCALE
 40
0.5
  9
$DIMASZ
 40
2.5
  9
$DIMEXO
 40
1.0
  9
$DIMDLI
 40
12.0
  9
$DIMRND
 40
0.0
  9
$DIMDLE
 40
0.0
  9
$DIMEXE
 40
1.0
  9
$DIMTP
 40
0.1
  9
$DIMTM
 40
0.1
  9
$DIMTXT
 40
3.2
  9
$DIMCEN
 40
0.0
  9
$DIMTSZ
 40
0.0
  9
$DIMTOL
 70
     0
  9
$DIMLIM
 70
     0
  9
$DIMTIH
 70
     0
  9
$DIMTOH
 70
     0
  9
$DIMSE1
 70
     0
  9
$DIMSE2
 70
     0
  9
$DIMTAD
 70
     3
  9
$DIMZIN
 70
     8
  9
$DIMBLK
  1
Open30
  9
$DIMASO
 70
     1
  9
$DIMSHO
 70
     1
  9
$DIMPOST
  1

  9
$DIMAPOST
  1
"
  9
$DIMALT
 70
     0
  9
$DIMALTD
 70
     2
  9
$DIMALTF
 40
0.0393701
  9
$DIMLFAC
 40
1.0
  9
$DIMTOFL
 70
     1
  9
$DIMTVP
 40
0.0
  9
$DIMTIX
 70
     0
  9
$DIMSOXD
 70
     0
  9
$DIMSAH
 70
     0
  9
$DIMBLK1
  1

  9
$DIMBLK2
  1

  9
$DIMSTYLE
  2
AM_JIS
  9
$DIMCLRD
 70
   256
  9
$DIMCLRE
 70
   256
  9
$DIMCLRT
 70
     2
  9
$DIMTFAC
 40
0.71
  9
$DIMGAP
 40
1.5
  9
$DIMJUST
 70
     0
  9
$DIMSD1
 70
     0
  9
$DIMSD2
 70
     0
  9
$DIMTOLJ
 70
     0
  9
$DIMTZIN
 70
     0
  9
$DIMALTZ
 70
     0
  9
$DIMALTTZ
 70
     0
  9
$DIMUPT
 70
     0
  9
$DIMDEC
 70
     3
  9
$DIMTDEC
 70
     3
  9
$DIMALTU
 70
     2
  9
$DIMALTTD
 70
     2
  9
$DIMTXSTY
  7
ASAMI
  9
$DIMAUNIT
 70
     0
  9
$DIMADEC
 70
     0
  9
$DIMALTRND
 40
0.0
  9
$DIMAZIN
 70
     2
  9
$DIMDSEP
 70
    46
  9
$DIMATFIT
 70
     3
  9
$DIMFRAC
 70
     0
  9
$DIMLDRBLK
  1
Open30
  9
$DIMLUNIT
 70
     2
  9
$DIMLWD
 70
    -1
  9
$DIMLWE
 70
    -1
  9
$DIMTMOVE
 70
     0
  9
$LUNITS
 70
     2
  9
$LUPREC
 70
     2
  9
$SKETCHINC
 40
1.0
  9
$FILLETRAD
 40
0.4
  9
$AUNITS
 70
     0
  9
$AUPREC
 70
     0
  9
$MENU
  1
.
  9
$ELEVATION
 40
0.0
  9
$PELEVATION
 40
0.0
  9
$THICKNESS
 40
0.0
  9
$LIMCHECK
 70
     1
  9
$CHAMFERA
 40
1.0
  9
$CHAMFERB
 40
1.0
  9
$CHAMFERC
 40
20.0
  9
$CHAMFERD
 40
0.0
  9
$SKPOLY
 70
     0
  9
$TDCREATE
 40
2452802.716478762
  9
$TDUCREATE
 40
2452802.341478762
  9
$TDUPDATE
 40
2453691.770972223
  9
$TDUUPDATE
 40
2453691.395972222
  9
$TDINDWG
 40
0.9694574306
  9
$TDUSRTIMER
 40
0.9694572454
  9
$USRTIMER
 70
     1
  9
$ANGBASE
 50
0.0
  9
$ANGDIR
 70
     0
  9
$PDMODE
 70
     0
  9
$PDSIZE
 40
0.0
  9
$PLINEWID
 40
0.0
  9
$SPLFRAME
 70
     0
  9
$SPLINETYPE
 70
     6
  9
$SPLINESEGS
 70
     8
  9
$HANDSEED
  5
9186
  9
$SURFTAB1
 70
     6
  9
$SURFTAB2
 70
     6
  9
$SURFTYPE
 70
     6
  9
$SURFU
 70
     6
  9
$SURFV
 70
     6
  9
$UCSBASE
  2

  9
$UCSNAME
  2

  9
$UCSORG
 10
-0.0000000000002682
 20
0.000000000000161
 30
0.0
  9
$UCSXDIR
 10
1.0
 20
0.000000000000002
 30
0.0
  9
$UCSYDIR
 10
-0.000000000000002
 20
1.0
 30
0.0
  9
$UCSORTHOREF
  2

  9
$UCSORTHOVIEW
 70
     0
  9
$UCSORGTOP
 10
0.0
 20
0.0
 30
0.0
  9
$UCSORGBOTTOM
 10
0.0
 20
0.0
 30
0.0
  9
$UCSORGLEFT
 10
0.0
 20
0.0
 30
0.0
  9
$UCSORGRIGHT
 10
0.0
 20
0.0
 30
0.0
  9
$UCSORGFRONT
 10
0.0
 20
0.0
 30
0.0
  9
$UCSORGBACK
 10
0.0
 20
0.0
 30
0.0
  9
$PUCSBASE
  2

  9
$PUCSNAME
  2

  9
$PUCSORG
 10
0.0
 20
0.0
 30
0.0
  9
$PUCSXDIR
 10
1.0
 20
0.0
 30
0.0
  9
$PUCSYDIR
 10
0.0
 20
1.0
 30
0.0
  9
$PUCSORTHOREF
  2

  9
$PUCSORTHOVIEW
 70
     0
  9
$PUCSORGTOP
 10
0.0
 20
0.0
 30
0.0
  9
$PUCSORGBOTTOM
 10
0.0
 20
0.0
 30
0.0
  9
$PUCSORGLEFT
 10
0.0
 20
0.0
 30
0.0
  9
$PUCSORGRIGHT
 10
0.0
 20
0.0
 30
0.0
  9
$PUCSORGFRONT
 10
0.0
 20
0.0
 30
0.0
  9
$PUCSORGBACK
 10
0.0
 20
0.0
 30
0.0
  9
$USERI1
 70
     0
  9
$USERI2
 70
     0
  9
$USERI3
 70
     0
  9
$USERI4
 70
     0
  9
$USERI5
 70
     0
  9
$USERR1
 40
0.0
  9
$USERR2
 40
0.0
  9
$USERR3
 40
0.0
  9
$USERR4
 40
0.0
  9
$USERR5
 40
0.0
  9
$WORLDVIEW
 70
     1
  9
$SHADEDGE
 70
     3
  9
$SHADEDIF
 70
    70
  9
$TILEMODE
 70
     1
  9
$MAXACTVP
 70
    64
  9
$PINSBASE
 10
0.0
 20
0.0
 30
0.0
  9
$PLIMCHECK
 70
     0
  9
$PEXTMIN
 10
1.000000000000000E+20
 20
1.000000000000000E+20
 30
1.000000000000000E+20
  9
$PEXTMAX
 10
-1.000000000000000E+20
 20
-1.000000000000000E+20
 30
-1.000000000000000E+20
  9
$PLIMMIN
 10
0.0
 20
0.0
  9
$PLIMMAX
 10
841.0
 20
594.0
  9
$UNITMODE
 70
     0
  9
$VISRETAIN
 70
     1
  9
$PLINEGEN
 70
     0
  9
$PSLTSCALE
 70
     0
  9
$TREEDEPTH
 70
  3020
  9
$CMLSTYLE
  2
STANDARD
  9
$CMLJUST
 70
     0
  9
$CMLSCALE
 40
20.0
  9
$PROXYGRAPHICS
 70
     1
  9
$MEASUREMENT
 70
     1
  9
$CELWEIGHT
370
    -1
  9
$ENDCAPS
280
     0
  9
$JOINSTYLE
280
     0
  9
$LWDISPLAY
290
     0
  9
$INSUNITS
 70
     4
  9
$HYPERLINKBASE
  1

  9
$STYLESHEET
  1
ASAMI.ctb
  9
$XEDIT
290
     1
  9
$CEPSNTYPE
380
     0
  9
$PSTYLEMODE
290
     1
  9
$FINGERPRINTGUID
  2
{AFB28963-8C59-40AE-9337-C84526B81ACE}
  9
$VERSIONGUID
  2
{37C0C992-AACA-4944-866B-FA9E173FE30B}
  9
$EXTNAMES
290
     1
  9
$PSVPSCALE
 40
0.0
  9
$OLESTARTUP
290
     0
  0
ENDSEC
  0
SECTION
  2
CLASSES
  0
CLASS
  1
ACDBDICTIONARYWDFLT
  2
AcDbDictionaryWithDefault
  3
ObjectDBX Classes
 90
        0
280
     0
281
     0
  0
CLASS
  1
ACDBPLACEHOLDER
  2
AcDbPlaceHolder
  3
ObjectDBX Classes
 90
        0
280
     0
281
     0
  0
CLASS
  1
LAYOUT
  2
AcDbLayout
  3
ObjectDBX Classes
 90
        0
280
     0
281
     0
  0
CLASS
  1
AMGSETTINGSOBJ
  2
AmgSettingsObj
  3
"AcadM|Product Description: AutoCAD Mechanical 2000|Company: Autodesk"
 90
        0
280
     0
281
     0
  0
CLASS
  1
ACME_DOCUMENT
  2
AcMeDbDoc
  3
AcMeServices
 90
        0
280
     0
281
     0
  0
CLASS
  1
ACMESCOPE
  2
AcMeScope
  3
AcMeServices
 90
        0
280
     0
281
     0
  0
CLASS
  1
ACMECOMMANDHISTORY
  2
AcMeCommandHistory
  3
AcMeServices
 90
        0
280
     0
281
     0
  0
CLASS
  1
DICTIONARYVAR
  2
AcDbDictionaryVar
  3
ObjectDBX Classes
 90
        0
280
     0
281
     0
  0
CLASS
  1
ACIMSYSVARMAN
  2
AcImSysVarManager
  3
AcMeServices
 90
        0
280
     0
281
     0
  0
CLASS
  1
ACIMREALSYSVAR
  2
AcImRealSysVar
  3
AcMeServices
 90
        0
280
     0
281
     0
  0
CLASS
  1
ACIMINTSYSVAR
  2
AcImIntSysVar
  3
AcMeServices
 90
        0
280
     0
281
     0
  0
CLASS
  1
ACMEDRAWINGMAN
  2
AcMeDrawingMan
  3
AcMeServices
 90
        0
280
     0
281
     0
  0
CLASS
  1
ACMEVIEW
  2
AcMeView
  3
AcMeServices
 90
        0
280
     0
281
     0
  0
CLASS
  1
ACDBENTITYCACHE
  2
AcMeEntityCache
  3
AcMeServices
 90
        0
280
     0
281
     0
  0
CLASS
  1
GSMANAGER
  2
AcMeGSManager
  3
AcMeServices
 90
        0
280
     0
281
     0
  0
CLASS
  1
AMDTINTERNALREACTOR
  2
AmdtInternalReactor
  3
AcMeServices
 90
        0
280
     0
281
     0
  0
CLASS
  1
ACMESTATEMGR
  2
AcMeStateMgr
  3
AcMeServices
 90
        0
280
     0
281
     0
  0
CLASS
  1
ACME_DATABASE
  2
AcMeDbDatabase
  3
AcMeServices
 90
        0
280
     0
281
     0
  0
CLASS
  1
ACRFINSADJUSTERMGR
  2
AcRfInsAdjusterMgr
  3
AcMeServices
 90
        0
280
     0
281
     0
  0
CLASS
  1
ACMDATADICTIONARY
  2
AcmDataDictionary
  3
"AcmSymBB|Product Description: AutoCAD Mechanical 2004 DX|Company: Autodesk"
 90
        0
280
     0
281
     0
  0
CLASS
  1
ACMDATAENTRYBLOCK
  2
AcmDataEntryBlock
  3
"AcmSymBB|Product Description: AutoCAD Mechanical 2004 DX|Company: Autodesk"
 90
    32768
280
     0
281
     0
  0
CLASS
  1
AMGOBJPROPCFG
  2
AmgObjPropCfg
  3
"AmgLay|Product Description: AutoCAD Mechanical 2000|Company: Autodesk"
 90
        1
280
     0
281
     0
  0
CLASS
  1
ACAMGFILTERDAT
  2
AcAmgFilterDat
  3
"AcadM|Product Description: AutoCAD Mechanical 2000|Company: Autodesk"
 90
    32768
280
     0
281
     0
  0
CLASS
  1
LAYER_INDEX
  2
AcDbLayerIndex
  3
ObjectDBX Classes
 90
        0
280
     0
281
     0
  0
CLASS
  1
IDBUFFER
  2
AcDbIdBuffer
  3
ObjectDBX Classes
 90
        0
280
     0
281
     0
  0
CLASS
  1
ACIMSTRSYSVAR
  2
AcImStrSysVar
  3
AcMeServices
 90
        0
280
     0
281
     0
  0
CLASS
  1
ACMSTANDARDJIS
  2
AcmStandardJIS
  3
"Amdt_StdImp|Product Description: AutoCAD Mechanical 2004 DX|Company: Autodesk"
 90
        0
280
     0
281
     0
  0
CLASS
  1
ACMSURFSTANDARDJIS
  2
AcmSurfTextStdJIS
  3
"Amdt_StdImp|Product Description: AutoCAD Mechanical 2004 DX|Company: Autodesk"
 90
        0
280
     0
281
     0
  0
CLASS
  1
ACMFCFSTANDARDJIS
  2
AcmFCFStdJIS
  3
"Amdt_StdImp|Product Description: AutoCAD Mechanical 2004 DX|Company: Autodesk"
 90
    32768
280
     0
281
     0
  0
CLASS
  1
ACMWELDSTANDARDJIS
  2
AcmWeldingStdJIS
  3
"Amdt_StdImp|Product Description: AutoCAD Mechanical 2004 DX|Company: Autodesk"
 90
        0
280
     0
281
     0
  0
CLASS
  1
ACMIDSTANDARDJIS
  2
AcmIdStdJIS
  3
"Amdt_StdImp|Product Description: AutoCAD Mechanical 2004 DX|Company: Autodesk"
 90
        0
280
     0
281
     0
  0
CLASS
  1
ACMDATUMSTANDARDJIS
  2
AcmDatumStdJIS
  3
"Amdt_StdImp|Product Description: AutoCAD Mechanical 2004 DX|Company: Autodesk"
 90
        0
280
     0
281
     0
  0
CLASS
  1
ACMBOMSTANDARDJIS
  2
AcmBOMStdJIS
  3
"Amdt_StdImp|Product Description: AutoCAD Mechanical 2004 DX|Company: Autodesk"
 90
        0
280
     0
281
     0
  0
CLASS
  1
ACMSTANDARDANSI
  2
AcmStandardANSI
  3
"Amdt_StdImp|Product Description: AutoCAD Mechanical 2004 DX|Company: Autodesk"
 90
    32768
280
     0
281
     0
  0
CLASS
  1
ACMSURFSTANDARDANSI
  2
AcmSurfTextStdANSI
  3
"Amdt_StdImp|Product Description: AutoCAD Mechanical 2004 DX|Company: Autodesk"
 90
    32768
280
     0
281
     0
  0
CLASS
  1
ACMFCFSTANDARDANSI
  2
AcmFCFStdANSI
  3
"Amdt_StdImp|Product Description: AutoCAD Mechanical 2004 DX|Company: Autodesk"
 90
    32768
280
     0
281
     0
  0
CLASS
  1
ACMWELDSTANDARDANSI
  2
AcmWeldingStdANSI
  3
"Amdt_StdImp|Product Description: AutoCAD Mechanical 2004 DX|Company: Autodesk"
 90
    32768
280
     0
281
     0
  0
CLASS
  1
ACMIDSTANDARDANSI
  2
AcmIdStdANSI
  3
"Amdt_StdImp|Product Description: AutoCAD Mechanical 2004 DX|Company: Autodesk"
 90
    32768
280
     0
281
     0
  0
CLASS
  1
ACMDATUMSTANDARDANSI
  2
AcmDatumStdANSI
  3
"Amdt_StdImp|Product Description: AutoCAD Mechanical 2004 DX|Company: Autodesk"
 90
    32768
280
     0
281
     0
  0
CLASS
  1
ACMBOMSTANDARDANSI
  2
AcmBOMStdANSI
  3
"Amdt_StdImp|Product Description: AutoCAD Mechanical 2004 DX|Company: Autodesk"
 90
    32768
280
     0
281
     0
  0
CLASS
  1
ACMSTANDARDBSI
  2
AcmStandardBSI
  3
"Amdt_StdImp|Product Description: AutoCAD Mechanical 2004 DX|Company: Autodesk"
 90
    32768
280
     0
281
     0
  0
CLASS
  1
ACMSURFSTANDARDBSI
  2
AcmSurfTextStdBSI
  3
"Amdt_StdImp|Product Description: AutoCAD Mechanical 2004 DX|Company: Autodesk"
 90
    32768
280
     0
281
     0
  0
CLASS
  1
ACMFCFSTANDARDBSI
  2
AcmFCFStdBSI
  3
"Amdt_StdImp|Product Description: AutoCAD Mechanical 2004 DX|Company: Autodesk"
 90
    32768
280
     0
281
     0
  0
CLASS
  1
ACMWELDSTANDARDBSI
  2
AcmWeldingStdBSI
  3
"Amdt_StdImp|Product Description: AutoCAD Mechanical 2004 DX|Company: Autodesk"
 90
    32768
280
     0
281
     0
  0
CLASS
  1
ACMIDSTANDARDBSI
  2
AcmIdStdBSI
  3
"Amdt_StdImp|Product Description: AutoCAD Mechanical 2004 DX|Company: Autodesk"
 90
    32768
280
     0
281
     0
  0
CLASS
  1
ACMDATUMSTANDARDBSI
  2
AcmDatumStdBSI
  3
"Amdt_StdImp|Product Description: AutoCAD Mechanical 2004 DX|Company: Autodesk"
 90
    32768
280
     0
281
     0
  0
CLASS
  1
ACMBOMSTANDARDBSI
  2
AcmBOMStdBSI
  3
"Amdt_StdImp|Product Description: AutoCAD Mechanical 2004 DX|Company: Autodesk"
 90
    32768
280
     0
281
     0
  0
CLASS
  1
STDPART2D
  2
AmgStdPart
  3
"AmgStdPart|Product Description: AutoCAD Mechanical 2000|Company: Autodesk"
 90
    33791
280
     0
281
     1
  0
CLASS
  1
PLOTSETTINGS
  2
AcDbPlotSettings
  3
ObjectDBX Classes
 90
        0
280
     0
281
     0
  0
CLASS
  1
TABLESTYLE
  2
AcDbTableStyle
  3
ObjectDBX Classes
 90
     2047
280
     0
281
     0
  0
CLASS
  1
ACGREFMASTER
  2
AcGrefMaster
  3
AcAttribServices
 90
        0
280
     0
281
     0
  0
CLASS
  1
AM_DRAWING_MGR
  2
AcDmDwgMgr
  3
AcMechDwgViewMgmt
 90
        0
280
     0
281
     0
  0
CLASS
  1
AM_DWG_DOCUMENT
  2
AcDmDwgDocument
  3
AcMechDwgViewMgmt
 90
        0
280
     0
281
     0
  0
CLASS
  1
AM_DWG_SHEET
  2
AcDmSheet
  3
AcMechDwgViewMgmt
 90
        0
280
     0
281
     0
  0
CLASS
  1
AM_VIEWDIMPARMAP
  2
AcDmViewDimParMap
  3
AcMechDwgViewMgmt
 90
        0
280
     0
281
     0
  0
CLASS
  1
AM_DWGMGR_NAME
  2
AcDmDwgMgrName
  3
AcMechDwgViewMgmt
 90
        0
280
     0
281
     0
  0
CLASS
  1
ACGREFACADMASTER
  2
AcGrefacadMaster
  3
AcGrefServices
 90
        0
280
     0
281
     0
  0
CLASS
  1
AMDTMENUSTATEMGR
  2
AmdtMenuStateMgr
  3
McadcomServices
 90
        0
280
     0
281
     0
  0
CLASS
  1
AMDTMCOMMENUSTATE
  2
AmdtMcomMenuState
  3
McadcomServices
 90
        0
280
     0
281
     0
  0
CLASS
  1
AMIMASTER
  2
AmiMaster
  3
AmiServices
 90
        0
280
     0
281
     0
  0
CLASS
  1
MAPIAMMOUDLE
  2
MApiAmModule
  3
MApiAmServices
 90
        0
280
     0
281
     0
  0
CLASS
  1
AMDTADMENUSTATE
  2
AmdtAdMenuState
  3
DesignerServices
 90
        0
280
     0
281
     0
  0
CLASS
  1
ADAPPL
  2
AcAdAppl
  3
DesignerServices
 90
        0
280
     0
281
     0
  0
CLASS
  1
DEPMGR
  2
AcAdDepMgr
  3
DesignerServices
 90
        0
280
     0
281
     0
  0
CLASS
  1
PARAMMGR
  2
AcAdParamMgr
  3
DesignerServices
 90
        0
280
     0
281
     0
  0
CLASS
  1
PARAMSCOPE
  2
AcAdParamScope
  3
DesignerServices
 90
        0
280
     0
281
     0
  0
CLASS
  1
NAMEDAPPL
  2
AcAdNamedAppl
  3
DesignerServices
 90
        0
280
     0
281
     0
  0
CLASS
  1
AMDTDMMENUSTATE
  2
AmdtDmMenuState
  3
AcMechDwgViewMgmt
 90
        0
280
     0
281
     0
  0
CLASS
  1
AMDTAMMENUSTATE
  2
AmdtAmMenuState
  3
DesignerAssemblies
 90
        0
280
     0
281
     0
  0
CLASS
  1
ACAMPROJECT
  2
AcAmProject
  3
DesignerAssemblies
 90
        0
280
     0
281
     0
  0
CLASS
  1
ACAMGRCOMPDEF
  2
AcAmGrCompDef
  3
DesignerAssemblies
 90
        0
280
     0
281
     0
  0
CLASS
  1
ACCMCONTEXT
  2
AcCmContext
  3
DesignerAssemblies
 90
        0
280
     0
281
     0
  0
CLASS
  1
ACAMCOMPDEF
  2
AcAmCompDef
  3
DesignerAssemblies
 90
        0
280
     0
281
     0
  0
CLASS
  1
ACAMCOMPDEFMGR
  2
AcAmCompDefMgr
  3
DesignerAssemblies
 90
        0
280
     0
281
     0
  0
CLASS
  1
AMCONTEXTMGR
  2
AcAmContextMgr
  3
DesignerAssemblies
 90
        0
280
     0
281
     0
  0
CLASS
  1
ACAMCONTEXTMODELER
  2
AcAmContextModeler
  3
DesignerAssemblies
 90
        0
280
     0
281
     0
  0
CLASS
  1
CATALOGSTATE
  2
AcAmCatalogState
  3
DesignerAssemblies
 90
        0
280
     0
281
     0
  0
CLASS
  1
ACAMGRCOMPDEFSET
  2
AcAmGrCompDefSet
  3
DesignerAssemblies
 90
        0
280
     0
281
     0
  0
CLASS
  1
AMDTBROWSERDBTAB
  2
AmdtBrowserDbTab
  3
McadcomServices
 90
        0
280
     0
281
     0
  0
CLASS
  1
CBROWSERAPPOBJECT
  2
CBrowserAppObject
  3
McadcomServices
 90
        0
280
     0
281
     0
  0
CLASS
  1
DM_PLACEHOLDER
  2
AcDmSelsetPlaceholder
  3
AcMechDwgViewMgmt
 90
        0
280
     0
281
     0
  0
CLASS
  1
ACMSTANDARDISO
  2
AcmStandardISO
  3
"Amdt_StdImp|Product Description: AutoCAD Mechanical 2004 DX|Company: Autodesk"
 90
        0
280
     0
281
     0
  0
CLASS
  1
AMDTEDGESTANDARDISO
  2
AmdtEdgeStdISO
  3
"Amdt_StdImp|Product Description: AutoCAD Mechanical 2004 DX|Company: Autodesk"
 90
        0
280
     0
281
     0
  0
CLASS
  1
ACMSURFSTANDARDISO
  2
AcmSurfTextStdISO
  3
"Amdt_StdImp|Product Description: AutoCAD Mechanical 2004 DX|Company: Autodesk"
 90
        0
280
     0
281
     0
  0
CLASS
  1
ACMFCFSTANDARDISO
  2
AcmFCFStdISO
  3
"Amdt_StdImp|Product Description: AutoCAD Mechanical 2004 DX|Company: Autodesk"
 90
        0
280
     0
281
     0
  0
CLASS
  1
ACMWELDSTANDARDISO
  2
AcmWeldingStdISO
  3
"Amdt_StdImp|Product Description: AutoCAD Mechanical 2004 DX|Company: Autodesk"
 90
        0
280
     0
281
     0
  0
CLASS
  1
ACMIDSTANDARDISO
  2
AcmIdStdISO
  3
"Amdt_StdImp|Product Description: AutoCAD Mechanical 2004 DX|Company: Autodesk"
 90
        0
280
     0
281
     0
  0
CLASS
  1
ACMDATUMSTANDARDISO
  2
AcmDatumStdISO
  3
"Amdt_StdImp|Product Description: AutoCAD Mechanical 2004 DX|Company: Autodesk"
 90
        0
280
     0
281
     0
  0
CLASS
  1
ACMBOMSTANDARDISO
  2
AcmBOMStdISO
  3
"Amdt_StdImp|Product Description: AutoCAD Mechanical 2004 DX|Company: Autodesk"
 90
        0
280
     0
281
     0
  0
CLASS
  1
ACMDETAILSTANDARDISO
  2
AmdtDetailSymStdISO
  3
"Amdt_StdImp|Product Description: AutoCAD Mechanical 2004 DX|Company: Autodesk"
 90
        0
280
     0
281
     0
  0
CLASS
  1
ACMSECTIONSTANDARDISO
  2
AmdtSectionSymStdISO
  3
"Amdt_StdImp|Product Description: AutoCAD Mechanical 2004 DX|Company: Autodesk"
 90
        0
280
     0
281
     0
  0
CLASS
  1
ACMCENTERLINESTANDARDISO
  2
AmdtCenterLineStdISO
  3
"Amdt_StdImp|Product Description: AutoCAD Mechanical 2004 DX|Company: Autodesk"
 90
        0
280
     0
281
     0
  0
CLASS
  1
ACMNOTESTANDARDISO
  2
AmdtNoteStdISO
  3
"Amdt_StdImp|Product Description: AutoCAD Mechanical 2004 DX|Company: Autodesk"
 90
        0
280
     0
281
     0
  0
CLASS
  1
AMDTNOTETEMPLATEDB
  2
AmdtNoteTemplateDB
  3
AMDT_STDIMP_MODULE_NAME
 90
        0
280
     0
281
     0
  0
CLASS
  1
ACAMGLAYSTD
  2
AcAmgLayStd
  3
"AcAmgLayStd|Product Description: AutoCAD Mechanical 2000|Company: Autodesk"
 90
        0
280
     0
281
     0
  0
CLASS
  1
ACAMGDIMSTD
  2
AcAmgDimStd
  3
"AcAmgDimStd|Product Description: AutoCAD Mechanical 2000|Company: Autodesk"
 90
        0
280
     0
281
     0
  0
CLASS
  1
ACAMGHOLECHARTSTDISO
  2
AcAmgHoleChartStdISO
  3
ACMSYMBB_MODULE_NAME
 90
        0
280
     0
281
     0
  0
CLASS
  1
ACAMGTITLESTD
  2
AcAmgTitleStd
  3
"TITLEAPP"
 90
        0
280
     0
281
     0
  0
CLASS
  1
ACMTHREADLINESTANDARDISO
  2
AmdtThreadLineStdISO
  3
"Amdt_StdImp|Product Description: AutoCAD Mechanical 2004 DX|Company: Autodesk"
 90
        0
280
     0
281
     0
  0
CLASS
  1
ACMFCFSTANDARDJIS98
  2
AcmFCFStdJIS98
  3
"Amdt_StdImp|Product Description: AutoCAD Mechanical 2004 DX|Company: Autodesk"
 90
        0
280
     0
281
     0
  0
CLASS
  1
ACMDETAILSTANDARDJIS
  2
AmdtDetailSymStdJIS
  3
"Amdt_StdImp|Product Description: AutoCAD Mechanical 2004 DX|Company: Autodesk"
 90
        0
280
     0
281
     0
  0
CLASS
  1
ACMSECTIONSTANDARDJIS
  2
AmdtSectionSymStdJIS
  3
"Amdt_StdImp|Product Description: AutoCAD Mechanical 2004 DX|Company: Autodesk"
 90
        0
280
     0
281
     0
  0
CLASS
  1
ACMCENTERLINESTANDARDJIS
  2
AmdtCenterLineStdJIS
  3
"Amdt_StdImp|Product Description: AutoCAD Mechanical 2004 DX|Company: Autodesk"
 90
        0
280
     0
281
     0
  0
CLASS
  1
ACMTHREADLINESTANDARDJIS
  2
AmdtThreadLineStdJIS
  3
"Amdt_StdImp|Product Description: AutoCAD Mechanical 2004 DX|Company: Autodesk"
 90
        0
280
     0
281
     0
  0
CLASS
  1
ACMNOTESTANDARDJIS
  2
AmdtNoteStdJIS
  3
"Amdt_StdImp|Product Description: AutoCAD Mechanical 2004 DX|Company: Autodesk"
 90
        0
280
     0
281
     0
  0
CLASS
  1
ACAMGHOLECHARTSTDJIS
  2
AcAmgHoleChartStdJIS
  3
ACMSYMBB_MODULE_NAME
 90
        0
280
     0
281
     0
  0
ENDSEC
  0
SECTION
  2
TABLES
  0
TABLE
  2
VPORT
  5
8
330
0
100
AcDbSymbolTable
 70
     3
  0
VPORT
  5
917B
330
8
100
AcDbSymbolTableRecord
100
AcDbViewportTableRecord
  2
*Active
 70
     0
 10
0.0
 20
0.0
 11
1.0
 21
1.0
 12
-121.4967179527071
 22
-18.12189579189255
 13
0.0
 23
0.0
 14
2.5
 24
2.5
 15
10.0
 25
10.0
 16
0.0
 26
0.0
 36
1.0
 17
0.0
 27
0.0
 37
0.0
 40
185.2791695644497
 41
1.552631578947368
 42
50.0
 43
0.0
 44
0.0
 50
0.0
 51
0.0
 71
     0
 72
   100
 73
     1
 74
     3
 75
     0
 76
     0
 77
     0
 78
     0
281
     0
 65
     1
110
-0.0000000000002682
120
0.000000000000161
130
0.0
111
1.0
121
0.000000000000002
131
0.0
112
-0.000000000000002
122
1.0
132
0.0
 79
     0
146
0.0
  0
ENDTAB
  0
TABLE
  2
LTYPE
  5
5
330
0
100
AcDbSymbolTable
 70
    17
  0
LTYPE
  5
14
330
5
100
AcDbSymbolTableRecord
100
AcDbLinetypeTableRecord
  2
BYBLOCK
 70
     0
  3

 72
    65
 73
     0
 40
0.0
  0
LTYPE
  5
15
330
5
100
AcDbSymbolTableRecord
100
AcDbLinetypeTableRecord
  2
BYLAYER
 70
     0
  3

 72
    65
 73
     0
 40
0.0
  0
LTYPE
  5
16
330
5
100
AcDbSymbolTableRecord
100
AcDbLinetypeTableRecord
  2
CONTINUOUS
 70
     0
  3
Solid line
 72
    65
 73
     0
 40
0.0
  0
LTYPE
  5
4B
330
5
100
AcDbSymbolTableRecord
100
AcDbLinetypeTableRecord
  2
AM_ISO02W050
 70
     0
  3
__ __ __ __ __ __ __ __ __ __ __ __ __ __ __
 72
    65
 73
     2
 40
7.5
 49
6.0
 74
     0
 49
-1.5
 74
     0
  0
LTYPE
  5
4C
330
5
100
AcDbSymbolTableRecord
100
AcDbLinetypeTableRecord
  2
AM_ISO08W050
 70
     0
  3
____ . ____ . ____ . ____ . ____ . ____ . ____
 72
    65
 73
     4
 40
18.0
 49
12.0
 74
     0
 49
-1.5
 74
     0
 49
3.0
 74
     0
 49
-1.5
 74
     0
  0
LTYPE
  5
4D
330
5
100
AcDbSymbolTableRecord
100
AcDbLinetypeTableRecord
  2
AM_ISO09W050
 70
     0
  3
_____ . . _____ . . _____ . . ____ .. ____
 72
    65
 73
     6
 40
22.5
 49
12.0
 74
     0
 49
-1.5
 74
     0
 49
3.0
 74
     0
 49
-1.5
 74
     0
 49
3.0
 74
     0
 49
-1.5
 74
     0
  0
LTYPE
  5
4E
330
5
100
AcDbSymbolTableRecord
100
AcDbLinetypeTableRecord
  2
Amconstr
 70
     0
  3
_______________________
 72
    65
 73
     2
 40
9999.0
 49
9999.0
 74
     0
 49
0.0
 74
     0
  0
LTYPE
  5
4F
330
5
100
AcDbSymbolTableRecord
100
AcDbLinetypeTableRecord
  2
AM_ISO02W050x2
 70
     0
  3
 _ _ _ _ _ _ _ _ _ _ _ _
 72
    65
 73
     2
 40
3.75
 49
3.0
 74
     0
 49
-0.75
 74
     0
  0
LTYPE
  5
50
330
5
100
AcDbSymbolTableRecord
100
AcDbLinetypeTableRecord
  2
AM_ISO08W050x2
 70
     0
  3
__ . __ . __ . __ . __ . __
 72
    65
 73
     4
 40
9.0
 49
6.0
 74
     0
 49
-0.75
 74
     0
 49
1.5
 74
     0
 49
-0.75
 74
     0
  0
LTYPE
  5
53
330
5
100
AcDbSymbolTableRecord
100
AcDbLinetypeTableRecord
  2
Amzigzag
 70
     0
  3
/\/-/\/-/\/-/\/-/\/-/\/
 72
    65
 73
     2
 40
11.0001
 49
0.0001
 74
     4
 75
   135
340
52
 46
0.04
 50
0.0
 44
0.0
 45
0.0
 49
-11.0
 74
     0
  0
LTYPE
  5
166
330
5
100
AcDbSymbolTableRecord
100
AcDbLinetypeTableRecord
  2
ACJISTGL
 70
     0
  3
_ _ _ _ _
 72
    65
 73
     2
 40
3.0
 49
2.0
 74
     0
 49
-1.0
 74
     0
  0
LTYPE
  5
26A
330
5
100
AcDbSymbolTableRecord
100
AcDbLinetypeTableRecord
  2
ACJISTGB
 70
     0
  3
__ . . __ . .
 72
    65
 73
     6
 40
9.0
 49
4.0
 74
     0
 49
-1.0
 74
     0
 49
1.0
 74
     0
 49
-1.0
 74
     0
 49
1.0
 74
     0
 49
-1.0
 74
     0
  0
LTYPE
  5
90F3
330
5
100
AcDbSymbolTableRecord
100
AcDbLinetypeTableRecord
  2
HIDDEN
 70
     0
  3
Hidden __ __ __ __ __ __ __ __ __ __ __ __ __ _
 72
    65
 73
     2
 40
9.524999999999998
 49
6.349999999999999
 74
     0
 49
-3.174999999999999
 74
     0
  0
LTYPE
  5
90F4
330
5
100
AcDbSymbolTableRecord
100
AcDbLinetypeTableRecord
  2
PHANTOM2
 70
     0
  3
Phantom (.5x) ___ _ _ ___ _ _ ___ _ _ ___ _ _
 72
    65
 73
     6
 40
31.75
 49
15.875
 74
     0
 49
-3.174999999999999
 74
     0
 49
3.174999999999999
 74
     0
 49
-3.174999999999999
 74
     0
 49
3.174999999999999
 74
     0
 49
-3.174999999999999
 74
     0
  0
LTYPE
  5
90F5
330
5
100
AcDbSymbolTableRecord
100
AcDbLinetypeTableRecord
  2
CENTER
 70
     0
  3
__ . __
 72
    65
 73
     4
 40
7.0
 49
4.0
 74
     0
 49
-1.0
 74
     0
 49
1.0
 74
     0
 49
-1.0
 74
     0
  0
LTYPE
  5
9126
330
5
100
AcDbSymbolTableRecord
100
AcDbLinetypeTableRecord
  2
ACISOWELD
 70
     0
  3
_ _ _ _ _
 72
    65
 73
     2
 40
2.0
 49
2.0
 74
     0
 49
-1.0
 74
     0
  0
LTYPE
  5
9129
330
5
100
AcDbSymbolTableRecord
100
AcDbLinetypeTableRecord
  2
ACISOTGB
 70
     0
  3
__ . . __ . .
 72
    65
 73
     6
 40
9.0
 49
4.0
 74
     0
 49
-1.0
 74
     0
 49
1.0
 74
     0
 49
-1.0
 74
     0
 49
1.0
 74
     0
 49
-1.0
 74
     0
  0
LTYPE
  5
912A
330
5
100
AcDbSymbolTableRecord
100
AcDbLinetypeTableRecord
  2
ACISOTGL
 70
     0
  3
_ _ _ _ _
 72
    65
 73
     2
 40
3.0
 49
2.0
 74
     0
 49
-1.0
 74
     0
  0
LTYPE
  5
9153
330
5
100
AcDbSymbolTableRecord
100
AcDbLinetypeTableRecord
  2
ACJISWELD
 70
     0
  3
_ _ _ _ _
 72
    65
 73
     2
 40
2.0
 49
2.0
 74
     0
 49
-1.0
 74
     0
  0
ENDTAB
  0
TABLE
  2
LAYER
  5
2
330
0
100
AcDbSymbolTable
 70
    12
  0
LAYER
  5
10
330
2
100
AcDbSymbolTableRecord
100
AcDbLayerTableRecord
  2
0
 70
     0
 62
     7
  6
CONTINUOUS
370
    -3
390
F
  0
LAYER
  5
3F9
330
2
100
AcDbSymbolTableRecord
100
AcDbLayerTableRecord
  2
AM_0
 70
     0
 62
     7
  6
CONTINUOUS
370
    -3
390
F
  0
LAYER
  5
BA4
330
2
100
AcDbSymbolTableRecord
100
AcDbLayerTableRecord
  2
AM_5
 70
     0
 62
     3
  6
CONTINUOUS
370
    -3
390
F
  0
LAYER
  5
BA6
330
2
100
AcDbSymbolTableRecord
100
AcDbLayerTableRecord
  2
AM_7
 70
     0
 62
     4
  6
AM_ISO08W050
370
    -3
390
F
  0
LAYER
  5
E64
330
2
100
AcDbSymbolTableRecord
100
AcDbLayerTableRecord
  2
AM_6
 70
     0
 62
     2
  6
CONTINUOUS
370
    -3
390
F
  0
LAYER
  5
F4D
330
2
100
AcDbSymbolTableRecord
100
AcDbLayerTableRecord
  2
DEFPOINTS
 70
     0
 62
     7
  6
CONTINUOUS
290
     0
370
    -3
390
F
  0
LAYER
  5
2382
330
2
100
AcDbSymbolTableRecord
100
AcDbLayerTableRecord
  2
AM_3
 70
     0
 62
     6
  6
ACJISTGL
370
    -3
390
F
  0
LAYER
  5
4E80
330
2
100
AcDbSymbolTableRecord
100
AcDbLayerTableRecord
  2
AM_11
 70
     0
 62
     3
  6
AM_ISO09W050
370
    -3
390
F
  0
LAYER
  5
502A
330
2
100
AcDbSymbolTableRecord
100
AcDbLayerTableRecord
  2
PV0001_1
 70
     0
 62
     7
  6
CONTINUOUS
370
    -3
390
F
  0
LAYER
  5
78BD
330
2
100
AcDbSymbolTableRecord
100
AcDbLayerTableRecord
  2
2
 70
     0
 62
     7
  6
CONTINUOUS
370
    -3
390
F
  0
LAYER
  5
78BE
330
2
100
AcDbSymbolTableRecord
100
AcDbLayerTableRecord
  2
1
 70
     0
 62
     7
  6
CONTINUOUS
370
    -3
390
F
  0
LAYER
  5
78BF
330
2
100
AcDbSymbolTableRecord
100
AcDbLayerTableRecord
  2
AM_4
 70
     0
 62
     3
  6
CONTINUOUS
370
    -3
390
F
  0
ENDTAB
  0
TABLE
  2
STYLE
  5
3
330
0
100
AcDbSymbolTable
 70
     7
  0
STYLE
  5
11
330
3
100
AcDbSymbolTableRecord
100
AcDbTextStyleTableRecord
  2
STANDARD
 70
     0
 40
0.0
 41
1.0
 50
0.0
 71
     0
 42
2.5
  3
simplex.shx
  4
EXTFONT.SHX
  0
STYLE
  5
52
330
3
100
AcDbSymbolTableRecord
100
AcDbTextStyleTableRecord
  2

 70
     1
 40
0.0
 41
1.0
 50
0.0
 71
     0
 42
2.5
  3
ltypeshp.shx
  4

  0
STYLE
  5
6B
330
3
100
AcDbSymbolTableRecord
100
AcDbTextStyleTableRecord
  2
ASAMI
 70
     0
 40
0.0
 41
1.0
 50
0.0
 71
     0
 42
2.5
  3
simplex.shx
  4
EXTFONT.SHX
  0
STYLE
  5
262
330
3
100
AcDbSymbolTableRecord
100
AcDbTextStyleTableRecord
  2
ACJISTS
 70
     0
 40
1.0
 41
1.0
 50
0.0
 71
     0
 42
1.0
  3
isocp.shx
  4
extfont.shx
  0
STYLE
  5
269
330
3
100
AcDbSymbolTableRecord
100
AcDbTextStyleTableRecord
  2
ACJISGDT
 70
     0
 40
0.0
 41
1.0
 50
0.0
 71
     0
 42
1.0
  3
amgdt.shx
  4

  0
STYLE
  5
9120
330
3
100
AcDbSymbolTableRecord
100
AcDbTextStyleTableRecord
  2
ACISOTS
 70
     0
 40
3.799999999999999
 41
1.0
 50
0.0
 71
     0
 42
3.799999999999999
  3
isocp.shx
  4
extfont.shx
  0
STYLE
  5
9124
330
3
100
AcDbSymbolTableRecord
100
AcDbTextStyleTableRecord
  2
ACISOGDT
 70
     0
 40
0.0
 41
1.0
 50
0.0
 71
     0
 42
2.5
  3
amgdt.shx
  4
extfont.shx
  0
ENDTAB
  0
TABLE
  2
VIEW
  5
6
330
0
100
AcDbSymbolTable
 70
     0
  0
ENDTAB
  0
TABLE
  2
UCS
  5
7
330
0
100
AcDbSymbolTable
 70
     0
  0
ENDTAB
  0
TABLE
  2
APPID
  5
9
330
0
100
AcDbSymbolTable
 70
    33
  0
APPID
  5
12
330
9
100
AcDbSymbolTableRecord
100
AcDbRegAppTableRecord
  2
ACAD
 70
     0
  0
APPID
  5
30
330
9
100
AcDbSymbolTableRecord
100
AcDbRegAppTableRecord
  2
MCAD_NO_VIS
 70
     0
  0
APPID
  5
31
330
9
100
AcDbSymbolTableRecord
100
AcDbRegAppTableRecord
  2
ACAD_TEMP_GRAPHIC
 70
     0
  0
APPID
  5
2C2
330
9
100
AcDbSymbolTableRecord
100
AcDbRegAppTableRecord
  2
GENIUS_GENDTOL_13
 70
     0
  0
APPID
  5
339
330
9
100
AcDbSymbolTableRecord
100
AcDbRegAppTableRecord
  2
GENIUS_GENODEF_13
 70
     0
  0
APPID
  5
33A
330
9
100
AcDbSymbolTableRecord
100
AcDbRegAppTableRecord
  2
GENIUS_GENOBJ-N-RSBK_13
 70
     0
  0
APPID
  5
33B
330
9
100
AcDbSymbolTableRecord
100
AcDbRegAppTableRecord
  2
GENIUS_GENOBJ-N-LIB_13
 70
     0
  0
APPID
  5
33C
330
9
100
AcDbSymbolTableRecord
100
AcDbRegAppTableRecord
  2
GENIUS_GENSCALE_13
 70
     0
  0
APPID
  5
378
330
9
100
AcDbSymbolTableRecord
100
AcDbRegAppTableRecord
  2
GENIUS_GENDIMSH_14
 70
     0
  0
APPID
  5
BB0
330
9
100
AcDbSymbolTableRecord
100
AcDbRegAppTableRecord
  2
GENIUS_GENOBJ-N-CEN_13
 70
     0
  0
APPID
  5
BB1
330
9
100
AcDbSymbolTableRecord
100
AcDbRegAppTableRecord
  2
GENIUS_GENFIL_13
 70
     0
  0
APPID
  5
BB2
330
9
100
AcDbSymbolTableRecord
100
AcDbRegAppTableRecord
  2
GENIUS_GENOBJ-N-CHA_13
 70
     0
  0
APPID
  5
1FAF
330
9
100
AcDbSymbolTableRecord
100
AcDbRegAppTableRecord
  2
GENIUS_GENOBJ-N-CRS_13
 70
     0
  0
APPID
  5
1FB0
330
9
100
AcDbSymbolTableRecord
100
AcDbRegAppTableRecord
  2
GENIUS_GENOENT_13
 70
     0
  0
APPID
  5
1FB1
330
9
100
AcDbSymbolTableRecord
100
AcDbRegAppTableRecord
  2
GENIUS_GENOREF_13
 70
     0
  0
APPID
  5
1FB2
330
9
100
AcDbSymbolTableRecord
100
AcDbRegAppTableRecord
  2
GENIUS_GENOLIS_13
 70
     0
  0
APPID
  5
1FB7
330
9
100
AcDbSymbolTableRecord
100
AcDbRegAppTableRecord
  2
GENIUS_GENOBJ-N-FIL_13
 70
     0
  0
APPID
  5
22A8
330
9
100
AcDbSymbolTableRecord
100
AcDbRegAppTableRecord
  2
GEVID1056506048
 70
     0
  0
APPID
  5
22A9
330
9
100
AcDbSymbolTableRecord
100
AcDbRegAppTableRecord
  2
GEVDC
 70
     0
  0
APPID
  5
22AC
330
9
100
AcDbSymbolTableRecord
100
AcDbRegAppTableRecord
  2
GENIUS_GENBH_13
 70
     0
  0
APPID
  5
22B8
330
9
100
AcDbSymbolTableRecord
100
AcDbRegAppTableRecord
  2
GENIUS_GENOBJ-NBEHI-BHF_13
 70
     0
  0
APPID
  5
22BA
330
9
100
AcDbSymbolTableRecord
100
AcDbRegAppTableRecord
  2
GENIUS_GENOBJ-NBEHI-BHB_13
 70
     0
  0
APPID
  5
35C9
330
9
100
AcDbSymbolTableRecord
100
AcDbRegAppTableRecord
  2
GENIUS_GENREC_14
 70
     0
  0
APPID
  5
35CA
330
9
100
AcDbSymbolTableRecord
100
AcDbRegAppTableRecord
  2
GENIUS_GENOBJ-N-REC_13
 70
     0
  0
APPID
  5
90BC
330
9
100
AcDbSymbolTableRecord
100
AcDbRegAppTableRecord
  2
ACATTRIBSERVICES
 70
     0
  0
APPID
  5
90BD
330
9
100
AcDbSymbolTableRecord
100
AcDbRegAppTableRecord
  2
AD_DRAW
 70
     0
  0
APPID
  5
90BE
330
9
100
AcDbSymbolTableRecord
100
AcDbRegAppTableRecord
  2
DESIGNERASSEMBLIES
 70
     0
  0
APPID
  5
90BF
330
9
100
AcDbSymbolTableRecord
100
AcDbRegAppTableRecord
  2
ACADM_DIM_EDIT
 70
     0
  0
APPID
  5
90C0
330
9
100
AcDbSymbolTableRecord
100
AcDbRegAppTableRecord
  2
AMDT_DM_ADJ
 70
     0
  0
APPID
  5
90C1
330
9
100
AcDbSymbolTableRecord
100
AcDbRegAppTableRecord
  2
ACAD_DSTYLE_DIMTEXT_FILL
 70
     0
  0
APPID
  5
90C2
330
9
100
AcDbSymbolTableRecord
100
AcDbRegAppTableRecord
  2
ACAD_PSEXT
 70
     0
  0
APPID
  5
9175
330
9
100
AcDbSymbolTableRecord
100
AcDbRegAppTableRecord
  2
GENIUS_GENSCREG_15
 70
     0
  0
APPID
  5
9176
330
9
100
AcDbSymbolTableRecord
100
AcDbRegAppTableRecord
  2
GENIUS_GENOBJ-N-SDF_13
 70
     0
  0
ENDTAB
  0
TABLE
  2
DIMSTYLE
  5
A
330
0
100
AcDbSymbolTable
 70
    19
100
AcDbDimStyleTable
 71
     0
  0
DIMSTYLE
105
58
330
A
100
AcDbSymbolTableRecord
100
AcDbDimStyleTableRecord
  2
AM_JIS
 70
     0
  4
"
 41
2.5
 42
1.0
 43
10.0
 44
1.0
 47
0.1
 48
0.1000000001
 73
     0
 74
     0
 77
     3
 78
     8
 79
     2
140
3.799999999999999
141
0.0
143
0.0393701
146
0.71
147
1.5
172
     1
176
   256
177
   256
178
     2
271
     2
272
     2
275
     1
283
     0
284
     8
340
11
341
59
342
59
371
    -1
372
    -1
  0
DIMSTYLE
105
5F
330
A
100
AcDbSymbolTableRecord
100
AcDbDimStyleTableRecord
  2
AM_JIS$3
 70
     0
  4
"
 41
2.5
 42
1.0
 43
10.0
 44
1.0
 47
0.1
 48
0.1000000001
 73
     0
 77
     3
 78
     8
 79
     2
140
3.799999999999999
141
0.0
143
0.0393701
146
0.71
147
1.5
176
   256
177
   256
178
     2
271
     2
272
     2
275
     1
283
     0
284
     8
288
     1
289
     0
340
11
341
59
342
59
371
    -1
372
    -1
  0
DIMSTYLE
105
60
330
A
100
AcDbSymbolTableRecord
100
AcDbDimStyleTableRecord
  2
AM_JIS$4
 70
     0
  4
"
 41
2.5
 42
1.0
 43
10.0
 44
1.0
 47
0.1
 48
0.1000000001
 73
     0
 77
     3
 78
     8
 79
     2
140
3.799999999999999
141
0.0
143
0.0393701
146
0.71
147
1.5
176
   256
177
   256
178
     2
271
     2
272
     2
275
     1
283
     0
284
     8
288
     1
289
     0
340
11
341
59
342
59
371
    -1
372
    -1
  0
DIMSTYLE
105
61
330
A
100
AcDbSymbolTableRecord
100
AcDbDimStyleTableRecord
  2
AM_JIS$6
 70
     0
  4
"
 41
2.5
 42
1.0
 43
10.0
 44
1.0
 47
0.1
 48
0.1000000001
 73
     0
 74
     0
 78
     8
 79
     2
140
3.799999999999999
141
0.0
143
0.0393701
146
0.71
147
1.5
172
     1
176
   256
177
   256
178
     2
271
     2
272
     2
275
     1
283
     0
284
     8
340
11
341
59
342
59
371
    -1
372
    -1
  0
DIMSTYLE
105
62
330
A
100
AcDbSymbolTableRecord
100
AcDbDimStyleTableRecord
  2
AM_JIS$7
 70
     0
  4
"
 41
2.5
 42
1.0
 43
10.0
 44
1.0
 47
0.1
 48
0.1000000001
 73
     0
 74
     0
 77
     3
 78
     8
 79
     2
140
5.0
141
0.0
143
0.0393701
146
0.71
147
1.5
172
     1
176
   256
177
   256
178
     2
271
     2
272
     2
275
     1
283
     0
284
     8
340
11
341
59
342
59
371
    -1
372
    -1
  0
DIMSTYLE
105
63
330
A
100
AcDbSymbolTableRecord
100
AcDbDimStyleTableRecord
  2
AM_JIS$SF
 70
     0
  4
"
 41
2.5
 42
1.0
 43
10.0
 44
1.0
 47
0.1
 48
0.1
 73
     0
 74
     0
 75
     1
 76
     1
 77
     3
 78
     8
 79
     2
140
3.5
141
0.0
143
0.0393701
146
0.71
147
1.5
172
     1
176
   256
177
   256
178
     2
271
     2
272
     3
274
     4
283
     0
284
     8
340
11
341
59
342
59
343
59
344
59
371
    -1
372
    -1
  0
DIMSTYLE
105
68
330
A
100
AcDbSymbolTableRecord
100
AcDbDimStyleTableRecord
  2
AM_JIS$SH
 70
     0
  4
"
 41
2.5
 42
1.0
 43
10.0
 44
1.0
 47
0.1
 48
0.1
 73
     0
 74
     0
 75
     1
 76
     1
 77
     3
 78
     8
 79
     2
140
3.5
141
0.0
143
0.0393701
144
2.0
146
0.71
147
1.5
172
     1
173
     1
176
   256
177
   256
178
     2
271
     2
272
     3
274
     4
283
     0
284
     8
340
11
341
59
342
59
343
64
344
59
371
    -1
372
    -1
  0
DIMSTYLE
105
B34
330
A
100
AcDbSymbolTableRecord
100
AcDbDimStyleTableRecord
  2
AM_JIS$2
 70
     0
  4
"
 41
2.5
 42
1.0
 43
12.0
 44
1.0
 47
0.1
 48
0.1
 73
     0
 74
     0
 77
     3
 78
     8
140
3.2
141
0.0
143
0.0393701
146
0.71
147
1.5
172
     1
176
   256
177
   256
178
     2
271
     3
272
     3
283
     0
340
6B
341
59
342
59
  0
DIMSTYLE
105
3B48
102
{ACAD_REACTORS
330
8919
330
89C3
330
8A58
330
8AF8
330
8B8D
330
8C2F
330
8D74
102
}
330
A
100
AcDbSymbolTableRecord
100
AcDbDimStyleTableRecord
  2
AM_JIS$0
 70
     0
  4
"
 41
2.5
 42
0.0
 43
10.0
 44
1.0
 47
0.1
 48
0.1000000001
 73
     0
 74
     0
 77
     3
 78
     1
140
3.799999999999998
141
0.0
143
0.0393701
146
0.71
147
1.5
172
     1
176
     3
177
     3
178
     2
271
     2
272
     2
275
     1
283
     0
284
     8
340
11
341
59
342
59
  0
DIMSTYLE
105
502B
330
A
100
AcDbSymbolTableRecord
100
AcDbDimStyleTableRecord
  2
AM_JISORG-1P0$2
 70
     0
  4
"
 41
2.5
 42
0.0
 43
10.0
 44
1.0
 47
0.1
 48
0.1000000001
 73
     0
 74
     0
 77
     3
 78
     1
140
3.799999999999998
141
0.0
143
0.0393701
144
-1.000000047579402
146
0.71
147
1.5
172
     1
176
     3
177
     3
178
     2
271
     2
272
     2
275
     1
283
     0
284
     8
340
11
341
59
342
59
  0
DIMSTYLE
105
502C
330
A
100
AcDbSymbolTableRecord
100
AcDbDimStyleTableRecord
  2
AM_JISORG0P5$0
 70
     0
  4
"
 41
2.5
 42
0.0
 43
10.0
 44
1.0
 47
0.1
 48
0.1000000001
 73
     0
 74
     0
 77
     3
 78
     1
140
3.799999999999998
141
0.0
143
0.0393701
144
0.5000003785514307
146
0.71
147
1.5
172
     1
176
     3
177
     3
178
     2
271
     2
272
     2
275
     1
283
     0
284
     8
340
11
341
59
342
59
  0
DIMSTYLE
105
502D
330
A
100
AcDbSymbolTableRecord
100
AcDbDimStyleTableRecord
  2
AM_JISORG0P2$4
 70
     0
  4
"
 41
2.5
 42
0.0
 43
10.0
 44
1.0
 47
0.1
 48
0.1000000001
 73
     0
 74
     0
 77
     3
 78
     1
140
3.799999999999998
141
0.0
143
0.0393701
144
0.2
146
0.71
147
1.5
172
     1
176
     3
177
     3
178
     2
271
     2
272
     2
275
     1
283
     0
284
     8
288
     1
340
11
341
59
342
59
  0
DIMSTYLE
105
78C0
330
A
100
AcDbSymbolTableRecord
100
AcDbDimStyleTableRecord
  2
AM_ISO
 70
     0
  4
"
 41
2.5
 42
1.0
 43
10.0
 44
1.0
 47
0.1
 48
0.1
 73
     0
 74
     0
 77
     1
 78
     8
 79
     2
140
3.5
141
0.0
143
0.0393701
146
0.71
147
1.5
172
     1
176
   256
177
   256
178
     2
271
     2
272
     3
274
     4
283
     0
284
     8
340
11
371
    -1
372
    -1
  0
DIMSTYLE
105
9140
330
A
100
AcDbSymbolTableRecord
100
AcDbDimStyleTableRecord
  2
AM_ISO$3
 70
     0
  4
"
 41
2.5
 42
1.0
 43
10.0
 44
1.0
 47
0.1
 48
0.1
 73
     0
 77
     1
 78
     8
 79
     2
140
3.5
141
0.0
143
0.0393701
146
0.71
147
1.5
176
   256
177
   256
178
     2
271
     2
272
     3
274
     4
283
     0
284
     8
288
     1
289
     0
340
11
371
    -1
372
    -1
  0
DIMSTYLE
105
9141
330
A
100
AcDbSymbolTableRecord
100
AcDbDimStyleTableRecord
  2
AM_ISO$4
 70
     0
  4
"
 41
2.5
 42
1.0
 43
10.0
 44
1.0
 47
0.1
 48
0.1
 73
     0
 77
     1
 78
     8
 79
     2
140
3.5
141
0.0
143
0.0393701
146
0.71
147
1.5
176
   256
177
   256
178
     2
271
     2
272
     3
274
     4
283
     0
284
     8
288
     1
289
     0
340
11
371
    -1
372
    -1
  0
DIMSTYLE
105
9142
330
A
100
AcDbSymbolTableRecord
100
AcDbDimStyleTableRecord
  2
AM_ISO$6
 70
     0
  4
"
 41
2.5
 42
1.0
 43
10.0
 44
1.0
 47
0.1
 48
0.1
 73
     0
 74
     0
 78
     8
 79
     2
140
3.5
141
0.0
143
0.0393701
146
0.71
147
1.5
172
     1
176
   256
177
   256
178
     2
271
     2
272
     3
274
     4
283
     0
284
     8
340
11
371
    -1
372
    -1
  0
DIMSTYLE
105
9143
330
A
100
AcDbSymbolTableRecord
100
AcDbDimStyleTableRecord
  2
AM_ISO$7
 70
     0
  4
"
 41
2.5
 42
1.0
 43
10.0
 44
1.0
 47
0.1
 48
0.1
 73
     0
 74
     0
 77
     1
 78
     8
 79
     2
140
5.0
141
0.0
143
0.0393701
146
0.71
147
1.5
172
     1
176
   256
177
   256
178
     2
271
     2
272
     3
274
     4
283
     0
284
     8
340
11
371
    -1
372
    -1
  0
DIMSTYLE
105
9144
330
A
100
AcDbSymbolTableRecord
100
AcDbDimStyleTableRecord
  2
AM_ISO$SF
 70
     0
  4
"
 41
2.5
 42
1.0
 43
10.0
 44
1.0
 47
0.1
 48
0.1
 73
     0
 74
     0
 75
     1
 76
     1
 77
     1
 78
     8
 79
     2
140
3.5
141
0.0
143
0.0393701
146
0.71
147
1.5
172
     1
176
   256
177
   256
178
     2
271
     2
272
     3
274
     4
283
     0
284
     8
340
11
371
    -1
372
    -1
  0
DIMSTYLE
105
9145
330
A
100
AcDbSymbolTableRecord
100
AcDbDimStyleTableRecord
  2
AM_ISO$SH
 70
     0
  4
"
 41
2.5
 42
1.0
 43
10.0
 44
1.0
 47
0.1
 48
0.1
 73
     0
 74
     0
 75
     1
 76
     1
 77
     1
 78
     8
 79
     2
140
3.5
141
0.0
143
0.0393701
144
2.0
146
0.71
147
1.5
172
     1
173
     1
176
   256
177
   256
178
     2
271
     2
272
     3
274
     4
283
     0
284
     8
340
11
343
64
371
    -1
372
    -1
  0
ENDTAB
  0
TABLE
  2
BLOCK_RECORD
  5
1
330
0
100
AcDbSymbolTable
 70
    10
  0
BLOCK_RECORD
  5
1F
102
{ACAD_XDICTIONARY
360
74
102
}
330
1
100
AcDbSymbolTableRecord
100
AcDbBlockTableRecord
  2
*MODEL_SPACE
340
90B7
  0
BLOCK_RECORD
  5
101
102
{ACAD_XDICTIONARY
360
906C
102
}
330
1
100
AcDbSymbolTableRecord
100
AcDbBlockTableRecord
  2
*PAPER_SPACE
340
90B8
  0
BLOCK_RECORD
  5
59
330
1
100
AcDbSymbolTableRecord
100
AcDbBlockTableRecord
  2
_Open30
340
0
  0
BLOCK_RECORD
  5
64
330
1
100
AcDbSymbolTableRecord
100
AcDbBlockTableRecord
  2
GENAXEH
340
0
  0
BLOCK_RECORD
  5
891A
330
1
100
AcDbSymbolTableRecord
100
AcDbBlockTableRecord
  2
*D2
340
0
  0
BLOCK_RECORD
  5
89C4
330
1
100
AcDbSymbolTableRecord
100
AcDbBlockTableRecord
  2
*D3
340
0
  0
BLOCK_RECORD
  5
8A59
330
1
100
AcDbSymbolTableRecord
100
AcDbBlockTableRecord
  2
*D4
340
0
  0
BLOCK_RECORD
  5
8AF9
330
1
100
AcDbSymbolTableRecord
100
AcDbBlockTableRecord
  2
*D5
340
0
  0
BLOCK_RECORD
  5
8B8E
330
1
100
AcDbSymbolTableRecord
100
AcDbBlockTableRecord
  2
*D6
340
0
  0
BLOCK_RECORD
  5
8C30
330
1
100
AcDbSymbolTableRecord
100
AcDbBlockTableRecord
  2
*D7
340
0
  0
BLOCK_RECORD
  5
8D75
330
1
100
AcDbSymbolTableRecord
100
AcDbBlockTableRecord
  2
*D8
340
0
  0
ENDTAB
  0
ENDSEC
  0
SECTION
  2
BLOCKS
  0
BLOCK
  5
20
330
1F
100
AcDbEntity
  8
0
100
AcDbBlockBegin
  2
*MODEL_SPACE
 70
     0
 10
0.0
 20
0.0
 30
0.0
  3
*MODEL_SPACE
  1

  0
ENDBLK
  5
21
330
1F
100
AcDbEntity
  8
0
100
AcDbBlockEnd
  0
BLOCK
  5
103
330
101
100
AcDbEntity
 67
     1
  8
0
100
AcDbBlockBegin
  2
*PAPER_SPACE
 70
     0
 10
0.0
 20
0.0
 30
0.0
  3
*PAPER_SPACE
  1

  0
ENDBLK
  5
104
330
101
100
AcDbEntity
 67
     1
  8
0
100
AcDbBlockEnd
  0
BLOCK
  5
9167
330
59
100
AcDbEntity
  8
0
100
AcDbBlockBegin
  2
_Open30
 70
     0
 10
0.0
 20
0.0
 30
0.0
  3
_Open30
  1

  0
LINE
  5
9168
330
59
100
AcDbEntity
  8
0
  6
ByBlock
 62
     0
370
    -2
100
AcDbLine
 10
-1.0
 20
0.26794919
 30
0.0
 11
0.0
 21
0.0
 31
0.0
  0
LINE
  5
9169
330
59
100
AcDbEntity
  8
0
  6
ByBlock
 62
     0
370
    -2
100
AcDbLine
 10
0.0
 20
0.0
 30
0.0
 11
-1.0
 21
-0.26794919
 31
0.0
  0
LINE
  5
916A
330
59
100
AcDbEntity
  8
0
  6
ByBlock
 62
     0
370
    -2
100
AcDbLine
 10
0.0
 20
0.0
 30
0.0
 11
-1.0
 21
0.0
 31
0.0
  0
ENDBLK
  5
916B
330
59
100
AcDbEntity
  8
0
100
AcDbBlockEnd
  0
BLOCK
  5
9147
330
64
100
AcDbEntity
  8
0
100
AcDbBlockBegin
  2
GENAXEH
 70
     0
 10
0.0
 20
0.0
 30
0.0
  3
GENAXEH
  1

  0
LINE
  5
9148
330
64
100
AcDbEntity
  8
0
100
AcDbLine
 10
-1.0
 20
0.0
 30
0.0
 11
1.0
 21
0.0
 31
0.0
  0
ENDBLK
  5
9149
330
64
100
AcDbEntity
  8
0
100
AcDbBlockEnd
  0
BLOCK
  5
8924
330
891A
100
AcDbEntity
  8
0
100
AcDbBlockBegin
  2
*D2
 70
     1
 10
0.0
 20
0.0
 30
0.0
  3
*D2
  1

  0
LINE
  5
906E
330
891A
100
AcDbEntity
  8
AM_5
100
AcDbLine
 10
-0.0000000000002683
 20
0.9627919999999788
 30
0.0
 11
-0.0000000000002739
 21
30.99600112235227
 31
0.0
  0
LINE
  5
906F
330
891A
100
AcDbEntity
  8
AM_5
100
AcDbLine
 10
-22.50000000000032
 20
15.49240599999995
 30
0.0
 11
-22.50000000000033
 21
30.99600112235226
 31
0.0
  0
LINE
  5
9070
330
891A
100
AcDbEntity
  8
AM_5
100
AcDbLine
 10
-2.500000000000274
 20
29.99600112235227
 30
0.0
 11
-20.00000000000033
 21
29.99600112235226
 31
0.0
  0
INSERT
  5
9071
330
891A
100
AcDbEntity
  8
AM_5
100
AcDbBlockReference
  2
_Open30
 10
-0.0000000000002737
 20
29.99600112235227
 30
0.0
 41
2.5
 42
2.5
 43
2.5
  0
INSERT
  5
9072
330
891A
100
AcDbEntity
  8
AM_5
100
AcDbBlockReference
  2
_Open30
 10
-22.50000000000033
 20
29.99600112235226
 30
0.0
 41
2.5
 42
2.5
 43
2.5
 50
180.0
  0
MTEXT
  5
9073
330
891A
100
AcDbEntity
  8
AM_5
 62
     2
100
AcDbMText
 10
-11.2500000000003
 20
33.09600112235226
 30
0.0
 40
3.2
 41
0.0
 71
     5
 72
     1
  1
22.5
  7
ASAMI
 73
     1
 44
1.0
1001
ACAD
1000
MTEXTBEGIN
1070
    73
1070
     1
1070
    44
1040
1.0
1070
    74
1070
     0
1000
MTEXTEND
  0
POINT
  5
9074
330
891A
100
AcDbEntity
  8
DEFPOINTS
 62
     0
100
AcDbPoint
 10
-0.0000000000002682
 20
-0.037208000000021
 30
0.0
  0
POINT
  5
9075
330
891A
100
AcDbEntity
  8
DEFPOINTS
 62
     0
100
AcDbPoint
 10
-22.50000000000029
 20
14.492406
 30
0.0
  0
POINT
  5
9076
330
891A
100
AcDbEntity
  8
DEFPOINTS
 62
     0
100
AcDbPoint
 10
-22.50000000000027
 20
29.99600112235231
 30
0.0
  0
ENDBLK
  5
8925
330
891A
100
AcDbEntity
  8
0
100
AcDbBlockEnd
  0
BLOCK
  5
89CE
330
89C4
100
AcDbEntity
  8
0
100
AcDbBlockBegin
  2
*D3
 70
     1
 10
0.0
 20
0.0
 30
0.0
  3
*D3
  1

  0
LINE
  5
9077
330
89C4
100
AcDbEntity
  8
AM_5
100
AcDbLine
 10
-0.0000000000002662
 20
-1.037208000000021
 30
0.0
 11
-0.0000000000002075
 21
-30.99600100999996
 31
0.0
  0
LINE
  5
9078
330
89C4
100
AcDbEntity
  8
AM_5
100
AcDbLine
 10
-42.96271800000015
 20
-13.99999999999991
 30
0.0
 11
-42.9627180000001
 21
-30.99600101000005
 31
0.0
  0
LINE
  5
9079
330
89C4
100
AcDbEntity
  8
AM_5
100
AcDbLine
 10
-2.500000000000208
 20
-29.99600100999997
 30
0.0
 11
-40.46271800000011
 21
-29.99600101000006
 31
0.0
  0
INSERT
  5
907A
330
89C4
100
AcDbEntity
  8
AM_5
100
AcDbBlockReference
  2
_Open30
 10
-0.0000000000002094
 20
-29.99600100999996
 30
0.0
 41
2.5
 42
2.5
 43
2.5
 50
0.0000000000001018
  0
INSERT
  5
907B
330
89C4
100
AcDbEntity
  8
AM_5
100
AcDbBlockReference
  2
_Open30
 10
-42.9627180000001
 20
-29.99600101000006
 30
0.0
 41
2.5
 42
2.5
 43
2.5
 50
180.0000000000001
  0
MTEXT
  5
907C
330
89C4
100
AcDbEntity
  8
AM_5
 62
     2
100
AcDbMText
 10
-21.48135900000017
 20
-26.89600101000001
 30
0.0
 40
3.2
 41
0.0
 71
     5
 72
     1
  1
43
  7
ASAMI
 73
     1
 44
1.0
1001
ACAD
1000
MTEXTBEGIN
1070
    73
1070
     1
1070
    44
1040
1.0
1070
    74
1070
     0
1000
MTEXTEND
  0
POINT
  5
907D
330
89C4
100
AcDbEntity
  8
DEFPOINTS
 62
     0
100
AcDbPoint
 10
-0.0000000000002682
 20
-0.037208000000021
 30
0.0
  0
POINT
  5
907E
330
89C4
100
AcDbEntity
  8
DEFPOINTS
 62
     0
100
AcDbPoint
 10
-42.96271800000018
 20
-12.99999999999982
 30
0.0
  0
POINT
  5
907F
330
89C4
100
AcDbEntity
  8
DEFPOINTS
 62
     0
100
AcDbPoint
 10
-42.96271800000018
 20
-29.99600100999996
 30
0.0
  0
ENDBLK
  5
89CF
330
89C4
100
AcDbEntity
  8
0
100
AcDbBlockEnd
  0
BLOCK
  5
8A63
330
8A59
100
AcDbEntity
  8
0
100
AcDbBlockBegin
  2
*D4
 70
     1
 10
0.0
 20
0.0
 30
0.0
  3
*D4
  1

  0
LINE
  5
9080
330
8A59
100
AcDbEntity
  8
AM_5
100
AcDbLine
 10
-0.0000000000002662
 20
-1.037207999999792
 30
0.0
 11
-0.0000000000001879
 21
-40.99600100999996
 31
0.0
  0
LINE
  5
9081
330
8A59
100
AcDbEntity
  8
AM_5
100
AcDbLine
 10
-84.96271800000014
 20
-16.99600000000006
 30
0.0
 11
-84.96271800000011
 21
-40.99600101000013
 31
0.0
  0
LINE
  5
9082
330
8A59
100
AcDbEntity
  8
AM_5
100
AcDbLine
 10
-2.500000000000189
 20
-39.99600100999998
 30
0.0
 11
-82.46271800000011
 21
-39.99600101000014
 31
0.0
  0
INSERT
  5
9083
330
8A59
100
AcDbEntity
  8
AM_5
100
AcDbBlockReference
  2
_Open30
 10
-0.0000000000001898
 20
-39.99600100999997
 30
0.0
 41
2.5
 42
2.5
 43
2.5
 50
0.0000000000001018
  0
INSERT
  5
9084
330
8A59
100
AcDbEntity
  8
AM_5
100
AcDbBlockReference
  2
_Open30
 10
-84.96271800000011
 20
-39.99600101000014
 30
0.0
 41
2.5
 42
2.5
 43
2.5
 50
180.0000000000001
  0
MTEXT
  5
9085
330
8A59
100
AcDbEntity
  8
AM_5
 62
     2
100
AcDbMText
 10
-42.48135900000015
 20
-36.89600101000005
 30
0.0
 40
3.2
 41
0.0
 71
     5
 72
     1
  1
85
  7
ASAMI
 73
     1
 44
1.0
1001
ACAD
1000
MTEXTBEGIN
1070
    73
1070
     1
1070
    44
1040
1.0
1070
    74
1070
     0
1000
MTEXTEND
  0
POINT
  5
9086
330
8A59
100
AcDbEntity
  8
DEFPOINTS
 62
     0
100
AcDbPoint
 10
-0.0000000000002682
 20
-0.0372079999997936
 30
0.0
  0
POINT
  5
9087
330
8A59
100
AcDbEntity
  8
DEFPOINTS
 62
     0
100
AcDbPoint
 10
-84.9627180000002
 20
-15.99599999999989
 30
0.0
  0
POINT
  5
9088
330
8A59
100
AcDbEntity
  8
DEFPOINTS
 62
     0
100
AcDbPoint
 10
-84.9627180000002
 20
-39.99600100999997
 30
0.0
  0
ENDBLK
  5
8A64
330
8A59
100
AcDbEntity
  8
0
100
AcDbBlockEnd
  0
BLOCK
  5
8B03
330
8AF9
100
AcDbEntity
  8
0
100
AcDbBlockBegin
  2
*D5
 70
     1
 10
0.0
 20
0.0
 30
0.0
  3
*D5
  1

  0
LINE
  5
9089
330
8AF9
100
AcDbEntity
  8
AM_5
100
AcDbLine
 10
-0.0000000000002662
 20
-1.037208000000021
 30
0.0
 11
-0.0000000000001683
 21
-50.99600100999997
 31
0.0
  0
LINE
  5
908A
330
8AF9
100
AcDbEntity
  8
AM_5
100
AcDbLine
 10
-239.9627180000001
 20
-15.24600000000042
 30
0.0
 11
-239.962718
 21
-50.99600101000046
 31
0.0
  0
LINE
  5
908B
330
8AF9
100
AcDbEntity
  8
AM_5
100
AcDbLine
 10
-2.50000000000017
 20
-49.99600100999998
 30
0.0
 11
-237.462718
 21
-49.99600101000045
 31
0.0
  0
INSERT
  5
908C
330
8AF9
100
AcDbEntity
  8
AM_5
100
AcDbBlockReference
  2
_Open30
 10
-0.0000000000001702
 20
-49.99600100999997
 30
0.0
 41
2.5
 42
2.5
 43
2.5
 50
0.0000000000001018
  0
INSERT
  5
908D
330
8AF9
100
AcDbEntity
  8
AM_5
100
AcDbBlockReference
  2
_Open30
 10
-239.962718
 20
-49.99600101000045
 30
0.0
 41
2.5
 42
2.5
 43
2.5
 50
180.0000000000001
  0
MTEXT
  5
908E
330
8AF9
100
AcDbEntity
  8
AM_5
 62
     2
100
AcDbMText
 10
-119.9813590000001
 20
-46.89600101000021
 30
0.0
 40
3.2
 41
0.0
 71
     5
 72
     1
  1
240
  7
ASAMI
 73
     1
 44
1.0
1001
ACAD
1000
MTEXTBEGIN
1070
    73
1070
     1
1070
    44
1040
1.0
1070
    74
1070
     0
1000
MTEXTEND
  0
POINT
  5
908F
330
8AF9
100
AcDbEntity
  8
DEFPOINTS
 62
     0
100
AcDbPoint
 10
-0.0000000000002682
 20
-0.037208000000021
 30
0.0
  0
POINT
  5
9090
330
8AF9
100
AcDbEntity
  8
DEFPOINTS
 62
     0
100
AcDbPoint
 10
-239.9627180000001
 20
-14.24599999999993
 30
0.0
  0
POINT
  5
9091
330
8AF9
100
AcDbEntity
  8
DEFPOINTS
 62
     0
100
AcDbPoint
 10
-239.9627180000001
 20
-49.99600100999997
 30
0.0
  0
ENDBLK
  5
8B04
330
8AF9
100
AcDbEntity
  8
0
100
AcDbBlockEnd
  0
BLOCK
  5
8B98
330
8B8E
100
AcDbEntity
  8
0
100
AcDbBlockBegin
  2
*D6
 70
     1
 10
0.0
 20
0.0
 30
0.0
  3
*D6
  1

  0
LINE
  5
9092
330
8B8E
100
AcDbEntity
  8
AM_5
100
AcDbLine
 10
-84.96271800000014
 20
-16.99600000000006
 30
0.0
 11
-84.96271800000011
 21
-40.99600101000013
 31
0.0
  0
LINE
  5
9093
330
8B8E
100
AcDbEntity
  8
AM_5
100
AcDbLine
 10
-239.9627180000001
 20
-15.24600000000042
 30
0.0
 11
-239.962718
 21
-40.99600101000045
 31
0.0
  0
LINE
  5
9094
330
8B8E
100
AcDbEntity
  8
AM_5
100
AcDbLine
 10
-87.46271800000011
 20
-39.99600101000014
 30
0.0
 11
-237.462718
 21
-39.99600101000046
 31
0.0
  0
INSERT
  5
9095
330
8B8E
100
AcDbEntity
  8
AM_5
100
AcDbBlockReference
  2
_Open30
 10
-84.96271800000011
 20
-39.99600101000014
 30
0.0
 41
2.5
 42
2.5
 43
2.5
 50
0.0000000000001018
  0
INSERT
  5
9096
330
8B8E
100
AcDbEntity
  8
AM_5
100
AcDbBlockReference
  2
_Open30
 10
-239.962718
 20
-39.99600101000046
 30
0.0
 41
2.5
 42
2.5
 43
2.5
 50
180.0000000000001
  0
MTEXT
  5
9097
330
8B8E
100
AcDbEntity
  8
AM_5
 62
     2
100
AcDbMText
 10
-162.462718
 20
-36.8960010100003
 30
0.0
 40
3.2
 41
0.0
 71
     5
 72
     1
  1
155
  7
ASAMI
 73
     1
 44
1.0
1001
ACAD
1000
MTEXTBEGIN
1070
    73
1070
     1
1070
    44
1040
1.0
1070
    74
1070
     0
1000
MTEXTEND
  0
POINT
  5
9098
330
8B8E
100
AcDbEntity
  8
DEFPOINTS
 62
     0
100
AcDbPoint
 10
-84.9627180000002
 20
-15.99599999999989
 30
0.0
  0
POINT
  5
9099
330
8B8E
100
AcDbEntity
  8
DEFPOINTS
 62
     0
100
AcDbPoint
 10
-239.9627180000001
 20
-14.24599999999993
 30
0.0
  0
POINT
  5
909A
330
8B8E
100
AcDbEntity
  8
DEFPOINTS
 62
     0
100
AcDbPoint
 10
-239.9627180000001
 20
-39.99600100999997
 30
0.0
  0
ENDBLK
  5
8B99
330
8B8E
100
AcDbEntity
  8
0
100
AcDbBlockEnd
  0
BLOCK
  5
8C3A
330
8C30
100
AcDbEntity
  8
0
100
AcDbBlockBegin
  2
*D7
 70
     1
 10
0.0
 20
0.0
 30
0.0
  3
*D7
  1

  0
LINE
  5
909B
330
8C30
100
AcDbEntity
  8
AM_5
100
AcDbLine
 10
-239.2127180000001
 20
15.99599999999952
 30
0.0
 11
-261.0001736227169
 21
15.99599999999947
 31
0.0
  0
LINE
  5
909C
330
8C30
100
AcDbEntity
  8
AM_5
100
AcDbLine
 10
-239.2127180000001
 20
-15.99600000000046
 30
0.0
 11
-261.0001736227167
 21
-15.99600000000051
 31
0.0
  0
LINE
  5
909D
330
8C30
100
AcDbEntity
  8
AM_5
100
AcDbLine
 10
-260.0001736227168
 20
13.49599999999948
 30
0.0
 11
-260.0001736227168
 21
-13.49600000000051
 31
0.0
  0
INSERT
  5
909E
330
8C30
100
AcDbEntity
  8
AM_5
100
AcDbBlockReference
  2
_Open30
 10
-260.0001736227168
 20
15.99599999999948
 30
0.0
 41
2.5
 42
2.5
 43
2.5
 50
90.0000000000001
  0
INSERT
  5
909F
330
8C30
100
AcDbEntity
  8
AM_5
100
AcDbBlockReference
  2
_Open30
 10
-260.0001736227167
 20
-15.99600000000051
 30
0.0
 41
2.5
 42
2.5
 43
2.5
 50
270.0000000000001
  0
MTEXT
  5
90A0
330
8C30
100
AcDbEntity
  8
AM_5
 62
     2
100
AcDbMText
 10
-263.1001736227168
 20
-0.0000000000005102
 30
0.0
 40
3.2
 41
0.0
 71
     5
 72
     1
  1
%%c32
  7
ASAMI
 11
-0.000000000000002
 21
1.0
 31
0.0
 73
     1
 44
1.0
1001
ACAD
1000
MTEXTBEGIN
1070
    73
1070
     1
1070
    44
1040
1.0
1070
    74
1070
     0
1000
MTEXTEND
  0
POINT
  5
90A1
330
8C30
100
AcDbEntity
  8
DEFPOINTS
 62
     0
100
AcDbPoint
 10
-238.2127180000001
 20
15.99600000000005
 30
0.0
  0
POINT
  5
90A2
330
8C30
100
AcDbEntity
  8
DEFPOINTS
 62
     0
100
AcDbPoint
 10
-238.2127180000001
 20
-15.99599999999993
 30
0.0
  0
POINT
  5
90A3
330
8C30
100
AcDbEntity
  8
DEFPOINTS
 62
     0
100
AcDbPoint
 10
-260.0001736227168
 20
-15.99599999999993
 30
0.0
  0
ENDBLK
  5
8C3B
330
8C30
100
AcDbEntity
  8
0
100
AcDbBlockEnd
  0
BLOCK
  5
8D7F
330
8D75
100
AcDbEntity
  8
0
100
AcDbBlockBegin
  2
*D8
 70
     1
 10
0.0
 20
0.0
 30
0.0
  3
*D8
  1

  0
LINE
  5
90A4
330
8D75
100
AcDbEntity
  8
AM_5
100
AcDbLine
 10
-21.50000000000032
 20
14.57749700000004
 30
0.0
 11
21.71203571980602
 21
14.57749700000012
 31
0.0
  0
LINE
  5
90A5
330
8D75
100
AcDbEntity
  8
AM_5
100
AcDbLine
 10
-21.50000000000021
 20
-14.57749699999981
 30
0.0
 11
21.71203571980608
 21
-14.57749699999973
 31
0.0
  0
LINE
  5
90A6
330
8D75
100
AcDbEntity
  8
AM_5
100
AcDbLine
 10
20.71203571980603
 20
12.07749700000012
 30
0.0
 11
20.71203571980607
 21
-12.07749699999973
 31
0.0
  0
INSERT
  5
90A7
330
8D75
100
AcDbEntity
  8
AM_5
100
AcDbBlockReference
  2
_Open30
 10
20.71203571980602
 20
14.57749700000012
 30
0.0
 41
2.5
 42
2.5
 43
2.5
 50
90.0000000000001
  0
INSERT
  5
90A8
330
8D75
100
AcDbEntity
  8
AM_5
100
AcDbBlockReference
  2
_Open30
 10
20.71203571980608
 20
-14.57749699999973
 30
0.0
 41
2.5
 42
2.5
 43
2.5
 50
270.0000000000001
  0
MTEXT
  5
90A9
330
8D75
100
AcDbEntity
  8
AM_5
 62
     2
100
AcDbMText
 10
17.61203571980605
 20
0.000000000000191
 30
0.0
 40
3.2
 41
0.0
 71
     5
 72
     1
  1
%%c30
  7
ASAMI
 11
-0.000000000000002
 21
1.0
 31
0.0
 73
     1
 44
1.0
1001
ACAD
1000
MTEXTBEGIN
1070
    73
1070
     1
1070
    44
1040
1.0
1070
    74
1070
     0
1000
MTEXTEND
  0
POINT
  5
90AA
330
8D75
100
AcDbEntity
  8
DEFPOINTS
 62
     0
100
AcDbPoint
 10
-22.50000000000029
 20
14.57749700000009
 30
0.0
  0
POINT
  5
90AB
330
8D75
100
AcDbEntity
  8
DEFPOINTS
 62
     0
100
AcDbPoint
 10
-22.50000000000024
 20
-14.57749699999976
 30
0.0
  0
POINT
  5
90AC
330
8D75
100
AcDbEntity
  8
DEFPOINTS
 62
     0
100
AcDbPoint
 10
20.71203571980605
 20
-14.57749699999977
 30
0.0
  0
ENDBLK
  5
8D80
330
8D75
100
AcDbEntity
  8
0
100
AcDbBlockEnd
  0
ENDSEC
  0
SECTION
  2
ENTITIES
  0
TEXT
  5
388D
330
1F
100
AcDbEntity
  8
AM_6
100
AcDbText
 10
-141.2908828095238
 20
-72.49600101000021
 30
0.0
 40
5.0
  1
WBMF1300M
 51
359.9999999999998
 72
     4
 11
-119.981359
 21
-69.99600101000021
 31
0.0
100
AcDbText
  0
SPLINE
  5
858D
330
1F
100
AcDbEntity
  8
AM_0
  6
Continuous
100
AcDbSpline
210
0.0
220
0.0
230
1.0
 70
     8
 71
     3
 72
    11
 73
     7
 74
     5
 42
0.0000000001
 43
0.0000000001
 44
0.0000000001
 40
0.0
 40
0.0
 40
0.0
 40
0.0
 40
0.7854388897508418
 40
1.201206635633091
 40
1.532612415968813
 40
1.826623644109845
 40
1.826623644109845
 40
1.826623644109845
 40
1.826623644109845
 10
-23.7127180000002
 20
-13.49999999999978
 30
0.0
 10
-23.44722645904915
 20
-13.54011776721332
 30
0.0
 10
-23.04119843464611
 20
-13.60147165331766
 30
0.0
 10
-22.6378396176949
 20
-13.93425476296637
 30
0.0
 10
-22.42164219808632
 20
-14.20924343637361
 30
0.0
 10
-22.33972270593067
 20
-14.40185736359767
 30
0.0
 10
-22.30121200000018
 20
-14.49240599999971
 30
0.0
 11
-23.7127180000002
 21
-13.49999999999978
 31
0.0
 11
-22.95467600000018
 21
-13.7056369999998
 31
0.0
 11
-22.62848600000021
 21
-13.96344099999985
 31
0.0
 11
-22.42734000000023
 21
-14.22682299999974
 31
0.0
 11
-22.30121200000018
 21
-14.49240599999971
 31
0.0
  0
SPLINE
  5
858E
330
1F
100
AcDbEntity
  8
AM_0
  6
Continuous
100
AcDbSpline
210
0.0
220
0.0
230
1.0
 70
     8
 71
     3
 72
    11
 73
     7
 74
     5
 42
0.0000000001
 43
0.0000000001
 44
0.0000000001
 40
0.0
 40
0.0
 40
0.0
 40
0.0
 40
0.0746866759871043
 40
0.1471961893628897
 40
0.2153705890229087
 40
0.276596858025691
 40
0.276596858025691
 40
0.276596858025691
 40
0.276596858025691
 10
-23.84282300000018
 20
-13.4133739999999
 30
0.0
 10
-23.86772166433158
 20
-13.41331163197583
 30
0.0
 10
-23.91679318159178
 20
-13.413188713994
 30
0.0
 10
-23.98851849118603
 20
-13.40986093754719
 30
0.0
 10
-24.05566800264876
 20
-13.40480721706624
 30
0.0
 10
-24.09838319407585
 20
-13.39873913099252
 30
0.0
 10
-24.11859400000017
 20
-13.39586799999976
 30
0.0
 11
-23.84282300000018
 21
-13.4133739999999
 31
0.0
 11
-23.9175060000002
 21
-13.41263299999989
 31
0.0
 11
-23.98994500000015
 21
-13.40943599999989
 31
0.0
 11
-24.05789000000018
 21
-13.4038479999999
 31
0.0
 11
-24.11859400000017
 21
-13.39586799999976
 31
0.0
  0
SPLINE
  5
858F
330
1F
100
AcDbEntity
  8
AM_0
  6
Continuous
100
AcDbSpline
210
0.0
220
0.0
230
1.0
 70
    24
 71
     3
 72
    11
 73
     7
 74
     5
 42
0.0000000001
 43
0.0000000001
 44
0.0000000001
 40
0.0
 40
0.0
 40
0.0
 40
0.0
 40
2.286611999999994
 40
4.573224000000042
 40
6.859834999999954
 40
9.146446999999994
 40
9.146446999999994
 40
9.146446999999994
 40
9.146446999999994
 10
-32.85916500000019
 20
-13.49999999999976
 30
0.0
 10
-32.09696100000019
 20
-13.49999999999975
 30
0.0
 10
-30.57255300000019
 20
-13.49999999999974
 30
0.0
 10
-28.28594133333353
 20
-13.4999999999998
 30
0.0
 10
-25.99932966666687
 20
-13.49999999999978
 30
0.0
 10
-24.47492200000021
 20
-13.49999999999978
 30
0.0
 10
-23.7127180000002
 20
-13.49999999999978
 30
0.0
 11
-32.85916500000019
 21
-13.49999999999976
 31
0.0
 11
-30.5725530000002
 21
-13.49999999999975
 31
0.0
 11
-28.28594100000015
 21
-13.49999999999978
 31
0.0
 11
-25.99933000000024
 21
-13.49999999999978
 31
0.0
 11
-23.7127180000002
 21
-13.49999999999978
 31
0.0
  0
SPLINE
  5
8590
330
1F
100
AcDbEntity
  8
AM_0
  6
Continuous
100
AcDbSpline
210
0.0
220
0.0
230
1.0
 70
     8
 71
     3
 72
    11
 73
     7
 74
     5
 42
0.0000000001
 43
0.0000000001
 44
0.0000000001
 40
0.0
 40
0.0
 40
0.0
 40
0.0
 40
2.195724751633561
 40
4.391449503267132
 40
6.587174247838849
 40
8.782898999472415
 40
8.782898999472415
 40
8.782898999472415
 40
8.782898999472415
 10
-32.90127400000026
 20
-13.45789099999978
 30
0.0
 10
-32.16938399979007
 20
-13.45272236309349
 30
0.0
 10
-30.70560399936971
 20
-13.44238508928091
 30
0.0
 10
-28.50993400487599
 20
-13.42687864289138
 30
0.0
 10
-26.31426399525048
 20
-13.41137433925208
 30
0.0
 10
-24.85048399920157
 20
-13.40103677975607
 30
0.0
 10
-24.11859400000017
 20
-13.39586799999976
 30
0.0
 11
-32.90127400000026
 21
-13.45789099999978
 31
0.0
 11
-30.7056040000002
 21
-13.4423849999997
 31
0.0
 11
-28.50993400000013
 21
-13.4268789999998
 31
0.0
 11
-26.31426400000024
 21
-13.41137399999986
 31
0.0
 11
-24.11859400000017
 21
-13.39586799999976
 31
0.0
  0
SPLINE
  5
8591
330
1F
100
AcDbEntity
  8
AM_0
  6
Continuous
100
AcDbSpline
210
0.0
220
0.0
230
1.0
 70
     8
 71
     3
 72
    11
 73
     7
 74
     5
 42
0.0000000001
 43
0.0000000001
 44
0.0000000001
 40
0.0
 40
0.0
 40
0.0
 40
0.0
 40
1.025459010485574
 40
2.044246902471462
 40
3.055681598681267
 40
4.061684478964004
 40
4.061684478964004
 40
4.061684478964004
 40
4.061684478964004
 10
-25.40365400000013
 20
-5.870207999999891
 30
0.0
 10
-25.74259884753586
 20
-5.821506610188728
 30
0.0
 10
-26.41828353858505
 20
-5.724420657215937
 30
0.0
 10
-27.38966870416009
 20
-5.404864880867479
 30
0.0
 10
-28.31040837726226
 20
-4.973357977672534
 30
0.0
 10
-28.85579092778437
 20
-4.577572784157902
 30
0.0
 10
-29.12774800000024
 20
-4.380212999999816
 30
0.0
 11
-25.40365400000013
 21
-5.870207999999891
 31
0.0
 11
-26.41398900000017
 21
-5.694738999999928
 31
0.0
 11
-27.38452000000019
 21
-5.384902999999911
 31
0.0
 11
-28.29536400000019
 21
-4.945171999999888
 31
0.0
 11
-29.12774800000024
 21
-4.380212999999816
 31
0.0
  0
SPLINE
  5
8592
330
1F
100
AcDbEntity
  8
AM_0
  6
Continuous
100
AcDbSpline
210
0.0
220
0.0
230
1.0
 70
     8
 71
     3
 72
    11
 73
     7
 74
     5
 42
0.0000000001
 43
0.0000000001
 44
0.0000000001
 40
0.0
 40
0.0
 40
0.0
 40
0.0
 40
0.4575226584334268
 40
0.9218364510219265
 40
1.393970014447648
 40
1.871725376525352
 40
1.871725376525352
 40
1.871725376525352
 40
1.871725376525352
 10
-22.28782400000028
 20
14.53130300000017
 30
0.0
 10
-22.34870796269317
 20
14.39004294351727
 30
0.0
 10
-22.47137960541603
 20
14.10542606883565
 30
0.0
 10
-22.8108039950764
 20
13.77406986770818
 30
0.0
 10
-23.23444768669806
 20
13.54453424650109
 30
0.0
 10
-23.55266678227719
 20
13.51490320470389
 30
0.0
 10
-23.71271800000022
 20
13.50000000000018
 30
0.0
 11
-22.28782400000028
 21
14.53130300000017
 31
0.0
 11
-22.49555000000026
 21
14.12365500000016
 31
0.0
 11
-22.82180800000022
 21
13.79328700000026
 31
0.0
 11
-23.2410810000002
 21
13.57621500000005
 31
0.0
 11
-23.71271800000022
 21
13.50000000000018
 31
0.0
  0
SPLINE
  5
8593
330
1F
100
AcDbEntity
  8
AM_0
  6
Continuous
100
AcDbSpline
210
0.0
220
0.0
230
1.0
 70
     8
 71
     3
 72
    11
 73
     7
 74
     5
 42
0.0000000001
 43
0.0000000001
 44
0.0000000001
 40
0.0
 40
0.0
 40
0.0
 40
0.0
 40
0.0120507212230431
 40
0.0241306701054295
 40
0.0362399657084172
 40
0.0483806540332615
 40
0.0483806540332615
 40
0.0483806540332615
 40
0.0483806540332615
 10
-22.27345000000022
 20
14.57749700000007
 30
0.0
 10
-22.27459041419848
 20
14.57364535203404
 30
0.0
 10
-22.27687400854047
 20
14.56593271436613
 30
0.0
 10
-22.28042253668346
 20
14.55438550056432
 30
0.0
 10
-22.28406019179743
 20
14.5428346043347
 30
0.0
 10
-22.28656831497232
 20
14.53515018405708
 30
0.0
 10
-22.28782400000028
 20
14.53130300000017
 30
0.0
 11
-22.27345000000022
 21
14.57749700000007
 31
0.0
 11
-22.27689100000014
 21
14.56594800000023
 31
0.0
 11
-22.28043300000026
 21
14.55439900000023
 31
0.0
 11
-22.28407700000024
 21
14.5428510000002
 31
0.0
 11
-22.28782400000028
 21
14.53130300000017
 31
0.0
  0
SPLINE
  5
8594
330
1F
100
AcDbEntity
  8
AM_0
  6
Continuous
100
AcDbSpline
210
0.0
220
0.0
230
1.0
 70
     8
 71
     3
 72
    11
 73
     7
 74
     5
 42
0.0000000001
 43
0.0000000001
 44
0.0000000001
 40
0.0
 40
0.0
 40
0.0
 40
0.0
 40
3.486306371767397
 40
7.010168819419034
 40
10.49206375716563
 40
14.01851238242756
 40
14.01851238242756
 40
14.01851238242756
 40
14.01851238242756
 10
-29.12774800000024
 20
-4.380212999999816
 30
0.0
 10
-29.93948463805808
 20
-3.490568856921796
 30
0.0
 10
-31.57170230996864
 20
-1.701696919937481
 30
0.0
 10
-31.30658304332824
 20
2.157045729423239
 30
0.0
 10
-28.88014117963468
 20
5.026621524221049
 30
0.0
 10
-26.5630072482456
 20
5.588278978584103
 30
0.0
 10
-25.39707500000019
 20
5.870893000000092
 30
0.0
 11
-29.12774800000024
 21
-4.380212999999816
 31
0.0
 11
-31.11545300000024
 21
-1.516061999999825
 31
0.0
 11
-30.94196000000018
 21
2.003527000000084
 31
0.0
 11
-28.71699900000018
 21
4.681799000000164
 31
0.0
 11
-25.39707500000019
 21
5.870893000000092
 31
0.0
  0
SPLINE
  5
8595
330
1F
100
AcDbEntity
  8
AM_0
  6
Continuous
100
AcDbSpline
210
0.0
220
0.0
230
1.0
 70
     8
 71
     3
 72
    11
 73
     7
 74
     5
 42
0.0000000001
 43
0.0000000001
 44
0.0000000001
 40
0.0
 40
0.0
 40
0.0
 40
0.0
 40
0.0503364783233638
 40
0.1105637027738242
 40
0.1760648350769997
 40
0.2437084882308348
 40
0.2437084882308348
 40
0.2437084882308348
 40
0.2437084882308348
 10
-16.68785700000023
 20
-13.32791799999972
 30
0.0
 10
-16.7042970898411
 20
-13.33132237454252
 30
0.0
 10
-16.74040762572453
 20
-13.33880005807577
 30
0.0
 10
-16.79888473143916
 20
-13.34462200977471
 30
0.0
 10
-16.8631966827503
 20
-13.34895443594328
 30
0.0
 10
-16.90757684406886
 20
-13.34987388018566
 30
0.0
 10
-16.9301240000002
 20
-13.35034099999973
 30
0.0
 11
-16.68785700000023
 21
-13.32791799999972
 31
0.0
 11
-16.73730400000019
 21
-13.33733899999985
 31
0.0
 11
-16.79714600000023
 21
-13.34413999999996
 31
0.0
 11
-16.86250800000022
 21
-13.34840699999984
 31
0.0
 11
-16.9301240000002
 21
-13.35034099999973
 31
0.0
  0
ELLIPSE
  5
8596
330
1F
100
AcDbEntity
  8
AM_0
  6
Continuous
100
AcDbEllipse
 10
-10.85413200000013
 20
-4.241180999999728
 30
0.0
 11
-0.2682789261200001
 21
0.1251004155419999
 31
0.0
210
0.0
220
0.0
230
1.0
 40
0.84455750254212
 41
2.07527645293939
 42
4.20790857044512
  0
ELLIPSE
  5
8597
330
1F
100
AcDbEntity
  8
AM_0
  6
Continuous
100
AcDbEllipse
 10
-11.51494400000018
 20
-3.933038999999867
 30
0.0
 11
-0.1056545685609999
 21
-0.2265769453020001
 31
0.0
210
0.0
220
0.0
230
1.0
 40
0.844556
 41
0.712895523366816
 42
2.637112540252458
  0
SPLINE
  5
8598
330
1F
100
AcDbEntity
  8
AM_0
  6
Continuous
100
AcDbSpline
210
0.0
220
0.0
230
1.0
 70
     8
 71
     3
 72
    11
 73
     7
 74
     5
 42
0.0000000001
 43
0.0000000001
 44
0.0000000001
 40
0.0
 40
0.0
 40
0.0
 40
0.0
 40
0.023909873316271
 40
0.0694405285938154
 40
0.1352138362877105
 40
0.2127943716364207
 40
0.2127943716364207
 40
0.2127943716364207
 40
0.2127943716364207
 10
-6.439571000000204
 20
-10.1574909999999
 30
0.0
 10
-6.438601615236672
 20
-10.16561885649123
 30
0.0
 10
-6.435786268224997
 20
-10.1892242785538
 30
0.0
 10
-6.466226132563672
 20
-10.22722991645215
 30
0.0
 10
-6.505543569717687
 20
-10.27454918642523
 30
0.0
 10
-6.542343523396271
 20
-10.30561093652181
 30
0.0
 10
-6.562259000000156
 20
-10.32242099999981
 30
0.0
 11
-6.439571000000204
 21
-10.1574909999999
 31
0.0
 11
-6.438850000000118
 21
-10.18138999999989
 31
0.0
 11
-6.461353000000175
 21
-10.2209709999999
 31
0.0
 11
-6.504551000000193
 21
-10.27056999999984
 31
0.0
 11
-6.562259000000156
 21
-10.32242099999981
 31
0.0
  0
SPLINE
  5
8599
330
1F
100
AcDbEntity
  8
AM_0
  6
Continuous
100
AcDbSpline
210
0.0
220
0.0
230
1.0
 70
     8
 71
     3
 72
    11
 73
     7
 74
     5
 42
0.0000000001
 43
0.0000000001
 44
0.0000000001
 40
0.0
 40
0.0
 40
0.0
 40
0.0
 40
0.0801498660074541
 40
0.1603407815589864
 40
0.2405720578668551
 40
0.3208437167821004
 40
0.3208437167821004
 40
0.3208437167821004
 40
0.3208437167821004
 10
-0.0361070000002554
 20
0.0922700000001353
 30
0.0
 10
-0.0549873473705602
 20
0.0733673438790999
 30
0.0
 10
-0.0927577118672181
 20
0.0355523504553343
 30
0.0
 10
-0.1493913205762254
 20
-0.0212207165337505
 30
0.0
 10
-0.20603066856461
 20
-0.0780453925996986
 30
0.0
 10
-0.2437750573535596
 20
-0.1159626175364683
 30
0.0
 10
-0.2626520000002425
 20
-0.1349259999998856
 30
0.0
 11
-0.0361070000002554
 21
0.0922700000001353
 31
0.0
 11
-0.0927420000002554
 21
0.035556000000022
 31
0.0
 11
-0.1493780000002527
 21
-0.021214999999919
 31
0.0
 11
-0.2060150000001907
 21
-0.078041999999889
 31
0.0
 11
-0.2626520000002425
 21
-0.1349259999998856
 31
0.0
  0
SPLINE
  5
859A
330
1F
100
AcDbEntity
  8
AM_0
  6
Continuous
100
AcDbSpline
210
0.0
220
0.0
230
1.0
 70
     8
 71
     3
 72
    11
 73
     7
 74
     5
 42
0.0000000001
 43
0.0000000001
 44
0.0000000001
 40
0.0
 40
0.0
 40
0.0
 40
0.0
 40
0.384553010808681
 40
0.7691353070132773
 40
1.153865506794836
 40
1.53885512786146
 40
1.53885512786146
 40
1.53885512786146
 40
1.53885512786146
 10
-0.2626520000002425
 20
-0.1349259999998856
 30
0.0
 10
-0.3893656150458749
 20
-0.1155324785153969
 30
0.0
 10
-0.6428024949338655
 20
-0.076743958644825
 30
0.0
 10
-1.024392604119503
 20
-0.0282844799702733
 30
0.0
 10
-1.406873456088534
 20
0.013869227365934
 30
0.0
 10
-1.662516431956241
 20
0.0357992787355443
 30
0.0
 10
-1.790381000000235
 20
0.0467680000001915
 30
0.0
 11
-0.2626520000002425
 21
-0.1349259999998856
 31
0.0
 11
-0.6430230000002676
 21
-0.0783669999998646
 31
0.0
 11
-1.024468000000252
 21
-0.029343999999746
 31
0.0
 11
-1.406936000000212
 21
0.012316000000119
 31
0.0
 11
-1.790381000000235
 21
0.0467680000001915
 31
0.0
  0
SPLINE
  5
859B
330
1F
100
AcDbEntity
  8
AM_0
  6
Continuous
100
AcDbSpline
210
0.0
220
0.0
230
1.0
 70
     8
 71
     3
 72
    11
 73
     7
 74
     5
 42
0.0000000001
 43
0.0000000001
 44
0.0000000001
 40
0.0
 40
0.0
 40
0.0
 40
0.0
 40
2.794909075323403
 40
5.586489124759655
 40
8.377928400617518
 40
11.16903129527638
 40
11.16903129527638
 40
11.16903129527638
 40
11.16903129527638
 10
-1.790381000000235
 20
0.0467680000001915
 30
0.0
 10
-1.911845496943706
 20
-0.8791387043284409
 30
0.0
 10
-2.154629814047326
 20
-2.729849262300861
 30
0.0
 10
-3.090973220421149
 20
-5.380038740196097
 30
0.0
 10
-4.49259540605869
 20
-7.826044679018373
 30
0.0
 10
-5.808574900536878
 20
-9.151524182333812
 30
0.0
 10
-6.46652500000022
 20
-9.814223999999905
 30
0.0
 11
-1.790381000000235
 21
0.0467680000001915
 31
0.0
 11
-2.250283000000204
 21
-2.710042999999835
 31
0.0
 11
-3.168614000000196
 21
-5.346249999999934
 31
0.0
 11
-4.588063000000181
 21
-7.749850999999917
 31
0.0
 11
-6.46652500000022
 21
-9.814223999999905
 31
0.0
  0
SPLINE
  5
859C
330
1F
100
AcDbEntity
  8
AM_0
  6
Continuous
100
AcDbSpline
210
0.0
220
0.0
230
1.0
 70
     8
 71
     3
 72
    11
 73
     7
 74
     5
 42
0.0000000001
 43
0.0000000001
 44
0.0000000001
 40
0.0
 40
0.0
 40
0.0
 40
0.0
 40
3.458209680169795
 40
6.881148393209558
 40
10.27049510855705
 40
13.6346142057688
 40
13.6346142057688
 40
13.6346142057688
 40
13.6346142057688
 10
-6.273621000000163
 20
-11.67300299999985
 30
0.0
 10
-5.367189915841178
 20
-10.95128646513289
 30
0.0
 10
-3.563572618115741
 20
-9.515214325629587
 30
0.0
 10
-1.609179626219195
 20
-6.654903294692454
 30
0.0
 10
-0.3014292235832288
 20
-3.47669726644843
 30
0.0
 10
-0.1260974234782978
 20
-1.219817558910017
 30
0.0
 10
-0.0387590000002954
 20
-0.095592999999801
 30
0.0
 11
-6.273621000000163
 21
-11.67300299999985
 31
0.0
 11
-3.679145000000179
 21
-9.386540999999814
 31
0.0
 11
-1.709050000000139
 21
-6.587391999999788
 31
0.0
 11
-0.4726190000002172
 21
-3.431617999999779
 31
0.0
 11
-0.0387590000002954
 21
-0.095592999999801
 31
0.0
  0
SPLINE
  5
859D
330
1F
100
AcDbEntity
  8
AM_0
  6
Continuous
100
AcDbSpline
210
0.0
220
0.0
230
1.0
 70
     8
 71
     3
 72
    11
 73
     7
 74
     5
 42
0.0000000001
 43
0.0000000001
 44
0.0000000001
 40
0.0
 40
0.0
 40
0.0
 40
0.0
 40
3.460138318190253
 40
6.884339398942499
 40
10.27456108947565
 40
13.63982140898209
 40
13.63982140898209
 40
13.63982140898209
 40
13.63982140898209
 10
-6.390751000000138
 20
-11.75426899999981
 30
0.0
 10
-5.484505306162811
 20
-11.03093794894097
 30
0.0
 10
-3.681426249349437
 20
-9.591788413471695
 30
0.0
 10
-1.744253718009966
 20
-6.716298411155596
 30
0.0
 10
-0.469428735502769
 20
-3.521683591154806
 30
0.0
 10
-0.3314075833681024
 20
-1.261060878469032
 30
0.0
 10
-0.2626520000002425
 20
-0.1349259999998856
 30
0.0
 11
-6.390751000000138
 21
-11.75426899999981
 31
0.0
 11
-3.79961100000023
 21
-9.461115999999828
 31
0.0
 11
-1.84677800000012
 21
-6.648359999999932
 31
0.0
 11
-0.6446090000002111
 21
-3.478439999999827
 31
0.0
 11
-0.2626520000002425
 21
-0.1349259999998856
 31
0.0
  0
SPLINE
  5
859E
330
1F
100
AcDbEntity
  8
AM_0
  6
Continuous
100
AcDbSpline
210
0.0
220
0.0
230
1.0
 70
     8
 71
     3
 72
    11
 73
     7
 74
     5
 42
0.0000000001
 43
0.0000000001
 44
0.0000000001
 40
0.0
 40
0.0
 40
0.0
 40
0.0
 40
2.284845304543784
 40
4.568117930523001
 40
6.845393382976256
 40
9.112752605633794
 40
9.112752605633794
 40
9.112752605633794
 40
9.112752605633794
 10
-14.96271800000019
 20
-14.44709199999974
 30
0.0
 10
-14.20037729252625
 20
-14.41044052509597
 30
0.0
 10
-12.67622060320736
 20
-14.33716280281206
 30
0.0
 10
-10.44904619207686
 20
-13.79242839295712
 30
0.0
 10
-8.315494825526846
 20
-12.96812875606787
 30
0.0
 10
-7.031398324345341
 20
-12.15829991286299
 30
0.0
 10
-6.390751000000138
 20
-11.75426899999981
 30
0.0
 11
-14.96271800000019
 21
-14.44709199999974
 31
0.0
 11
-12.68517800000023
 21
-14.26452799999984
 31
0.0
 11
-10.46181700000022
 21
-13.74491299999985
 31
0.0
 11
-8.346542000000196
 21
-12.9013519999998
 31
0.0
 11
-6.390751000000138
 21
-11.75426899999981
 31
0.0
  0
SPLINE
  5
859F
330
1F
100
AcDbEntity
  8
AM_0
  6
Continuous
100
AcDbSpline
210
0.0
220
0.0
230
1.0
 70
     8
 71
     3
 72
    11
 73
     7
 74
     5
 42
0.0000000001
 43
0.0000000001
 44
0.0000000001
 40
0.0
 40
0.0
 40
0.0
 40
0.0
 40
2.269919156892002
 40
4.539736562179093
 40
6.809462537195372
 40
9.079578738158666
 40
9.079578738158666
 40
9.079578738158666
 40
9.079578738158666
 10
-6.562259000000156
 20
-10.32242099999981
 30
0.0
 10
-7.174299435533733
 20
-10.77070206777686
 30
0.0
 10
-8.39835287122003
 20
-11.66724410864257
 30
0.0
 10
-10.48634025544239
 20
-12.5920374509709
 30
0.0
 10
-12.68854349205848
 20
-13.20139309226074
 30
0.0
 10
-14.20461639224648
 20
-13.2704697182403
 30
0.0
 10
-14.96271800000019
 20
-13.30501099999978
 30
0.0
 11
-6.562259000000156
 21
-10.32242099999981
 31
0.0
 11
-8.44037400000022
 21
-11.59726099999983
 31
0.0
 11
-10.50539400000022
 21
-12.53947299999995
 31
0.0
 11
-12.70039400000019
 21
-13.11708099999972
 31
0.0
 11
-14.96271800000019
 21
-13.30501099999978
 31
0.0
  0
ELLIPSE
  5
85A0
330
1F
100
AcDbEntity
  8
AM_0
  6
Continuous
100
AcDbEllipse
 10
-17.97167900000018
 20
4.241181000000173
 30
0.0
 11
-0.1101753162409999
 21
-0.2362717196370001
 31
0.0
210
0.0
220
0.0
230
1.0
 40
0.9589676904605699
 41
2.7210920251843
 42
3.562092965962758
  0
ELLIPSE
  5
85A1
330
1F
100
AcDbEntity
  8
AM_0
  6
Continuous
100
AcDbEllipse
 10
-18.1153670000002
 20
3.933039000000112
 30
0.0
 11
0.226576910774
 21
-0.1056546426049999
 31
0.0
210
0.0
220
0.0
230
1.0
 40
0.9589680000000001
 41
1.150294872883879
 42
1.991298117740839
  0
SPLINE
  5
85A2
330
1F
100
AcDbEntity
  8
AM_0
  6
Continuous
100
AcDbSpline
210
0.0
220
0.0
230
1.0
 70
     8
 71
     3
 72
    11
 73
     7
 74
     5
 42
0.0000000001
 43
0.0000000001
 44
0.0000000001
 40
0.0
 40
0.0
 40
0.0
 40
0.0
 40
1.417307499668992
 40
2.834724912905155
 40
4.251180375668397
 40
5.665640939171303
 40
5.665640939171303
 40
5.665640939171303
 40
5.665640939171303
 10
-14.96271800000021
 20
14.48591600000022
 30
0.0
 10
-14.49019318898515
 20
14.46979173732771
 30
0.0
 10
-13.54510692219899
 20
14.43754196153052
 30
0.0
 10
-12.14152664181973
 20
14.22507462774304
 30
0.0
 10
-10.75958393740909
 20
13.90447493704032
 30
0.0
 10
-9.870724524340339
 20
13.58546737924698
 30
0.0
 10
-9.426608000000209
 20
13.42607600000033
 30
0.0
 11
-14.96271800000021
 21
14.48591600000022
 31
0.0
 11
-13.54743500000022
 21
14.41018900000022
 31
0.0
 11
-12.1446630000002
 21
14.20695800000014
 31
0.0
 11
-10.76694900000028
 21
13.87794400000007
 31
0.0
 11
-9.426608000000209
 21
13.42607600000033
 31
0.0
  0
SPLINE
  5
85A3
330
1F
100
AcDbEntity
  8
AM_0
  6
Continuous
100
AcDbSpline
210
0.0
220
0.0
230
1.0
 70
     8
 71
     3
 72
    11
 73
     7
 74
     5
 42
0.0000000001
 43
0.0000000001
 44
0.0000000001
 40
0.0
 40
0.0
 40
0.0
 40
0.0
 40
0.539840733258566
 40
1.080492386595547
 40
1.621931353083914
 40
2.164129133575358
 40
2.164129133575358
 40
2.164129133575358
 40
2.164129133575358
 10
-4.550255000000213
 20
10.37419900000006
 30
0.0
 10
-4.683163286663411
 20
10.49554238058849
 30
0.0
 10
-4.949179507759237
 20
10.7384114173471
 30
0.0
 10
-5.365029283618137
 20
11.08414212405498
 30
0.0
 10
-5.791955501200074
 20
11.417373330972
 30
0.0
 10
-6.086667043386033
 20
11.62630167646834
 30
0.0
 10
-6.234126000000223
 20
11.73083900000003
 30
0.0
 11
-4.550255000000213
 21
10.37419900000006
 31
0.0
 11
-4.951729000000278
 21
10.73509600000019
 31
0.0
 11
-5.366569000000276
 21
11.08181200000021
 31
0.0
 11
-5.794225000000288
 21
11.41387600000018
 31
0.0
 11
-6.234126000000223
 21
11.73083900000003
 31
0.0
  0
SPLINE
  5
85A4
330
1F
100
AcDbEntity
  8
AM_0
  6
Continuous
100
AcDbSpline
210
0.0
220
0.0
230
1.0
 70
     8
 71
     3
 72
    11
 73
     7
 74
     5
 42
0.0000000001
 43
0.0000000001
 44
0.0000000001
 40
0.0
 40
0.0
 40
0.0
 40
0.0
 40
2.585823448772356
 40
5.151679937115338
 40
7.699002348818303
 40
10.23129504993202
 40
10.23129504993202
 40
10.23129504993202
 40
10.23129504993202
 10
-4.550255000000213
 20
10.37419900000006
 30
0.0
 10
-3.947964483464761
 20
9.754085417941896
 30
0.0
 10
-2.748034158823453
 20
8.518646586671936
 30
0.0
 10
-1.40842363023787
 20
6.309460470924536
 30
0.0
 10
-0.4329461963731612
 20
3.935045018052118
 30
0.0
 10
-0.1683604441588728
 20
2.257330983248378
 30
0.0
 10
-0.0364590000001636
 20
1.420956000000139
 30
0.0
 11
-4.550255000000213
 21
10.37419900000006
 31
0.0
 11
-2.819860000000252
 21
8.452685000000037
 31
0.0
 11
-1.464954000000193
 21
6.273729000000122
 31
0.0
 11
-0.5274760000001653
 21
3.905188000000301
 31
0.0
 11
-0.0364590000001636
 21
1.420956000000139
 31
0.0
  0
SPLINE
  5
85A5
330
1F
100
AcDbEntity
  8
AM_0
  6
Continuous
100
AcDbSpline
210
0.0
220
0.0
230
1.0
 70
     8
 71
     3
 72
    11
 73
     7
 74
     5
 42
0.0000000001
 43
0.0000000001
 44
0.0000000001
 40
0.0
 40
0.0
 40
0.0
 40
0.0
 40
0.9030432684126166
 40
1.807942400230509
 40
2.714506884878475
 40
3.622523744909158
 40
3.622523744909158
 40
3.622523744909158
 40
3.622523744909158
 10
-6.234126000000223
 20
11.73083900000003
 30
0.0
 10
-6.484421210968542
 20
11.89823608646693
 30
0.0
 10
-6.985526019910545
 20
12.23337428070934
 30
0.0
 10
-7.77430762412006
 20
12.67811909099366
 30
0.0
 10
-8.586043791003218
 20
13.0831408353798
 30
0.0
 10
-9.146269796967271
 20
13.31170396513553
 30
0.0
 10
-9.426607000000238
 20
13.42607700000013
 30
0.0
 11
-6.234126000000223
 21
11.73083900000003
 31
0.0
 11
-6.991061000000279
 21
12.22331900000029
 31
0.0
 11
-7.777399000000224
 21
12.67110800000014
 31
0.0
 11
-8.590251000000245
 21
13.07251900000014
 31
0.0
 11
-9.426607000000238
 21
13.42607700000013
 31
0.0
  0
SPLINE
  5
85A6
330
1F
100
AcDbEntity
  8
AM_0
  6
Continuous
100
AcDbSpline
210
0.0
220
0.0
230
1.0
 70
     8
 71
     3
 72
    11
 73
     7
 74
     5
 42
0.0000000001
 43
0.0000000001
 44
0.0000000001
 40
0.0
 40
0.0
 40
0.0
 40
0.0
 40
2.284846381248877
 40
4.568121182324084
 40
6.845397005203062
 40
9.112757090445867
 40
9.112757090445867
 40
9.112757090445867
 40
9.112757090445867
 10
-14.96271800000021
 20
14.5322990000003
 30
0.0
 10
-14.20037696399886
 20
14.49564714314953
 30
0.0
 10
-12.67621925112489
 20
14.42236863960306
 30
0.0
 10
-10.44904365405427
 20
13.87763382281929
 30
0.0
 10
-8.315491844410965
 20
13.05333232542966
 30
0.0
 10
-7.031394710120009
 20
12.24350379894068
 30
0.0
 10
-6.390747000000311
 20
11.83947300000019
 30
0.0
 11
-14.96271800000021
 21
14.5322990000003
 31
0.0
 11
-12.6851770000002
 21
14.3497340000002
 31
0.0
 11
-10.46181400000022
 21
13.83011800000008
 31
0.0
 11
-8.346539000000202
 21
12.98655600000006
 31
0.0
 11
-6.390747000000311
 21
11.83947300000019
 31
0.0
  0
SPLINE
  5
85A7
330
1F
100
AcDbEntity
  8
AM_0
  6
Continuous
100
AcDbSpline
210
0.0
220
0.0
230
1.0
 70
     8
 71
     3
 72
    11
 73
     7
 74
     5
 42
0.0000000001
 43
0.0000000001
 44
0.0000000001
 40
0.0
 40
0.0
 40
0.0
 40
0.0
 40
0.3340982762391955
 40
0.6767013654867968
 40
1.02714937699495
 40
1.384389475238308
 40
1.384389475238308
 40
1.384389475238308
 40
1.384389475238308
 10
-0.0364910000002534
 20
1.420952000000234
 30
0.0
 10
-0.0308517504646048
 20
1.309726718096039
 30
0.0
 10
-0.0194296985341062
 20
1.08444480108508
 30
0.0
 10
-0.0083365930262597
 20
0.7422258574229601
 30
0.0
 10
-0.0012333740289301
 20
0.3921876659902547
 30
0.0
 10
-0.0004137468198774
 20
0.1562892392806725
 30
0.0
 10
-0.0000000000002682
 20
0.0372080000003134
 30
0.0
 11
-0.0364910000002534
 21
1.420952000000234
 31
0.0
 11
-0.0205760000002463
 21
1.087233000000232
 31
0.0
 11
-0.0091050000001889
 21
0.7448220000002347
 31
0.0
 11
-0.0022520000002104
 21
0.3944410000002075
 31
0.0
 11
-0.0000000000002682
 21
0.0372080000003134
 31
0.0
  0
ELLIPSE
  5
85A8
330
1F
100
AcDbEntity
  8
AM_0
  6
Continuous
100
AcDbEllipse
 10
-29.68661900000023
 20
-22.18435799999987
 30
0.0
 11
-37.5
 21
-0.0000000000000144
 31
0.0
210
0.0
220
0.0
230
1.0
 40
0.97029573333333
 41
3.80047004805254
 42
4.515676018928418
  0
ELLIPSE
  5
85A9
330
1F
100
AcDbEntity
  8
AM_0
  6
Continuous
100
AcDbEllipse
 10
-29.68661900000023
 20
-23.01426899999986
 30
0.0
 11
-0.0000120515500142
 21
36.87802299999801
 31
0.0
210
0.0
220
0.0
230
1.0
 40
0.9693576035787
 41
5.38794686584341
 42
6.14261559270051
  0
SPLINE
  5
85AA
330
1F
100
AcDbEntity
  8
AM_0
  6
Continuous
100
AcDbSpline
210
0.0
220
0.0
230
1.0
 70
     8
 71
     3
 72
    11
 73
     7
 74
     5
 42
0.0000000001
 43
0.0000000001
 44
0.0000000001
 40
0.0
 40
0.0
 40
0.0
 40
0.0
 40
1.831535980067309
 40
3.662935646081303
 40
5.49417893440016
 40
7.325251307804638
 40
7.325251307804638
 40
7.325251307804638
 40
7.325251307804638
 10
-22.28782400000028
 20
14.53130300000017
 30
0.0
 10
-21.67731800052899
 20
14.52858446529333
 30
0.0
 10
-20.45635143915806
 20
14.52314759820954
 30
0.0
 10
-18.62498843037493
 20
14.51259653185483
 30
0.0
 10
-16.79379012131192
 20
14.50041318006087
 30
0.0
 10
-15.5730563838182
 20
14.49074824300428
 30
0.0
 10
-14.96271800000021
 20
14.48591600000022
 30
0.0
 11
-22.28782400000028
 21
14.53130300000017
 31
0.0
 11
-20.45630800000025
 21
14.52274800000017
 31
0.0
 11
-18.6249380000002
 21
14.51232400000011
 31
0.0
 11
-16.79373600000024
 21
14.50002700000006
 31
0.0
 11
-14.96271800000021
 21
14.48591600000022
 31
0.0
  0
SPLINE
  5
85AB
330
1F
100
AcDbEntity
  8
AM_0
  6
Continuous
100
AcDbSpline
210
0.0
220
0.0
230
1.0
 70
     8
 71
     3
 72
    11
 73
     7
 74
     5
 42
0.0000000001
 43
0.0000000001
 44
0.0000000001
 40
0.0
 40
0.0
 40
0.0
 40
0.0
 40
1.82747924120225
 40
3.655131087501748
 40
5.482936527380949
 40
7.310876406596049
 40
7.310876406596049
 40
7.310876406596049
 40
7.310876406596049
 10
-14.96271800000021
 20
14.5322990000003
 30
0.0
 10
-15.57185868509555
 20
14.53712565434864
 30
0.0
 10
-16.79019758851824
 20
14.54677941892199
 30
0.0
 10
-18.61780357725224
 20
14.55886058943733
 30
0.0
 10
-20.44557282686621
 20
14.56936907602367
 30
0.0
 10
-21.66414267139779
 20
14.57478762558589
 30
0.0
 10
-22.27345000000022
 20
14.57749700000007
 30
0.0
 11
-14.96271800000021
 21
14.5322990000003
 31
0.0
 11
-16.79014300000025
 21
14.54637900000019
 31
0.0
 11
-18.61775400000025
 21
14.55859800000018
 31
0.0
 11
-20.44553000000025
 21
14.56897200000007
 31
0.0
 11
-22.27345000000022
 21
14.57749700000007
 31
0.0
  0
SPLINE
  5
85AC
330
1F
100
AcDbEntity
  8
AM_0
  6
Continuous
100
AcDbSpline
210
0.0
220
0.0
230
1.0
 70
     8
 71
     3
 72
    11
 73
     7
 74
     5
 42
0.0000000001
 43
0.0000000001
 44
0.0000000001
 40
0.0
 40
0.0
 40
0.0
 40
0.0
 40
1.834418428182893
 40
3.669010360092005
 40
5.503756807455712
 40
7.338638648646923
 40
7.338638648646923
 40
7.338638648646923
 40
7.338638648646923
 10
-14.96271800000019
 20
-14.44709199999974
 30
0.0
 10
-15.57417167763288
 20
-14.45193671422277
 30
0.0
 10
-16.79713686566415
 20
-14.4616266008936
 30
0.0
 10
-18.63168287270988
 20
-14.47374287723859
 30
0.0
 10
-20.46639313660834
 20
-14.48427275627512
 30
0.0
 10
-21.68959066859062
 20
-14.48969485207401
 30
0.0
 10
-22.30121200000018
 20
-14.49240599999971
 30
0.0
 11
-14.96271800000019
 21
-14.44709199999974
 31
0.0
 11
-16.79708200000018
 21
-14.46122299999985
 31
0.0
 11
-18.63163300000018
 21
-14.47347799999986
 31
0.0
 11
-20.46635000000012
 21
-14.48387299999991
 31
0.0
 11
-22.30121200000018
 21
-14.49240599999971
 31
0.0
  0
SPLINE
  5
85AD
330
1F
100
AcDbEntity
  8
AM_0
  6
Continuous
100
AcDbSpline
210
0.0
220
0.0
230
1.0
 70
     8
 71
     3
 72
    11
 73
     7
 74
     5
 42
0.0000000001
 43
0.0000000001
 44
0.0000000001
 40
0.0
 40
0.0
 40
0.0
 40
0.0
 40
1.728248513620663
 40
3.45649758446917
 40
5.1847462554573
 40
6.912995309606888
 40
6.912995309606888
 40
6.912995309606888
 40
6.912995309606888
 10
-23.84282300000018
 20
-13.4133739999999
 30
0.0
 10
-23.2667543134487
 20
-13.40933430304775
 30
0.0
 10
-22.11461675460768
 20
-13.40125490784097
 30
0.0
 10
-20.38642281469098
 20
-13.38742635994108
 30
0.0
 10
-18.65825460614964
 20
-13.37058965794113
 30
0.0
 10
-17.50616757795393
 20
-13.35709055314567
 30
0.0
 10
-16.9301240000002
 20
-13.35034099999973
 30
0.0
 11
-23.84282300000018
 21
-13.4133739999999
 31
0.0
 11
-22.11461900000017
 21
-13.40096999999981
 31
0.0
 11
-20.38642700000025
 21
-13.38692499999991
 31
0.0
 11
-18.65826100000018
 21
-13.37002099999987
 31
0.0
 11
-16.9301240000002
 21
-13.35034099999973
 31
0.0
  0
SPLINE
  5
85AE
330
1F
100
AcDbEntity
  8
AM_0
  6
Continuous
100
AcDbSpline
210
0.0
220
0.0
230
1.0
 70
     8
 71
     3
 72
    11
 73
     7
 74
     5
 42
0.0000000001
 43
0.0000000001
 44
0.0000000001
 40
0.0
 40
0.0
 40
0.0
 40
0.0
 40
5.261208925509102
 40
10.41813807820134
 40
15.57503157625506
 40
20.83645127683726
 40
20.83645127683726
 40
20.83645127683726
 40
20.83645127683726
 10
-25.39707500000019
 20
5.870893000000092
 30
0.0
 10
-23.56818452010345
 20
5.708102890609136
 30
0.0
 10
-19.94665307756937
 20
5.385749252612071
 30
0.0
 10
-16.84914011946274
 20
-0.0039785089958086
 30
0.0
 10
-19.95295709070119
 20
-5.389642396412892
 30
0.0
 10
-23.57464299038542
 20
-5.708951596565818
 30
0.0
 10
-25.40365400000013
 20
-5.870207999999891
 30
0.0
 11
-25.39707500000019
 21
5.870893000000092
 31
0.0
 11
-20.30559900000021
 21
4.545302000000123
 31
0.0
 11
-17.87576700000018
 21
-0.0033059999997613
 31
0.0
 11
-20.31079700000013
 21
-4.549092999999753
 31
0.0
 11
-25.40365400000013
 21
-5.870207999999891
 31
0.0
  0
LINE
  5
85CA
330
1F
100
AcDbEntity
  8
AM_0
  6
Continuous
100
AcDbLine
 10
-84.96271800000021
 20
15.99600000000011
 30
0.0
 11
-238.2127180000001
 21
15.99600000000002
 31
0.0
  0
LINE
  5
85CB
330
1F
100
AcDbEntity
  8
AM_0
  6
Continuous
100
AcDbLine
 10
-238.2127180000001
 20
-15.99599999999996
 30
0.0
 11
-84.96271800000018
 21
-15.99599999999988
 31
0.0
  0
LINE
  5
8606
330
1F
100
AcDbEntity
  8
AM_0
  6
Continuous
100
AcDbLine
 10
-26.0294820000002
 20
13.50000000000012
 30
0.0
 11
-18.47758500000024
 21
4.500000000000104
 31
0.0
  0
LINE
  5
8607
330
1F
100
AcDbEntity
  8
AM_0
  6
Continuous
100
AcDbLine
 10
-14.96271800000019
 20
-12.64446999999975
 30
0.0
 11
-34.9627180000002
 21
-12.64446999999977
 31
0.0
  0
LINE
  5
8608
330
1F
100
AcDbEntity
  8
AM_0
  6
Continuous
100
AcDbLine
 10
-25.31429700000029
 20
12.33653100000013
 30
0.0
 11
-14.9627180000002
 21
0.0000000000001368
 31
0.0
  0
ARC
  5
8609
330
1F
100
AcDbEntity
  8
AM_0
  6
Continuous
100
AcDbCircle
 10
-24.16271800000022
 20
0.0000000000001001
 30
0.0
 40
5.99999958474166
100
AcDbArc
 50
44.90864035678117
 51
179.9999999999999
  0
ARC
  5
860A
330
1F
100
AcDbEntity
  8
AM_0
  6
Continuous
100
AcDbCircle
 10
-24.16271800000022
 20
0.0000000000001001
 30
0.0
 40
6.0
100
AcDbArc
 50
179.9999999999999
 51
315.0994017189066
  0
CIRCLE
  5
860B
330
1F
100
AcDbEntity
  8
AM_0
  6
Continuous
100
AcDbCircle
 10
-24.16271800000022
 20
0.0000000000001001
 30
0.0
 40
5.400000000000008
  0
LINE
  5
860D
330
1F
100
AcDbEntity
  8
AM_7
100
AcDbLine
 10
6.712034719805999
 20
0.0000000000001563
 30
0.0
 11
-246.0001726227168
 21
0.0000000000000426
 31
0.0
1001
GENIUS_GENODEF_13
1002
{
1000
HIER
1070
     0
1002
}
1002
{
1000
MANEDIT
1070
     0
1002
}
1002
{
1000
NOSEL
1070
     0
1002
}
1002
{
1000
BEHIND
1070
     0
1002
}
1002
{
1000
REACTOR
1002
}
1001
GENIUS_GENOBJ-N-CEN_13
1002
{
1000
OWNER
1000
GEN
1002
}
  0
LINE
  5
860F
330
1F
100
AcDbEntity
  8
AM_0
  6
Continuous
100
AcDbLine
 10
-17.7786090000002
 20
4.41374000000018
 30
0.0
 11
-10.63196600000017
 21
-4.103296999999799
 31
0.0
  0
LINE
  5
8610
330
1F
100
AcDbEntity
  8
AM_0
  6
Continuous
100
AcDbLine
 10
-17.93038200000016
 20
4.088261000000093
 30
0.0
 11
-11.32995800000014
 21
-3.777817999999884
 31
0.0
  0
LINE
  5
8611
330
1F
100
AcDbEntity
  8
AM_0
  6
Continuous
100
AcDbLine
 10
-11.51494400000018
 20
-3.933038999999867
 30
0.0
 11
-18.1153670000002
 21
3.933039000000112
 31
0.0
  0
LINE
  5
8612
330
1F
100
AcDbEntity
  8
AM_0
  6
Continuous
100
AcDbLine
 10
-14.96271800000021
 20
14.48591600000013
 30
0.0
 11
-14.96271800000021
 21
14.53229900000018
 31
0.0
  0
LINE
  5
8613
330
1F
100
AcDbEntity
  8
AM_0
  6
Continuous
100
AcDbLine
 10
-17.96359400000024
 20
4.500000000000105
 30
0.0
 11
-18.47758500000024
 21
4.500000000000104
 31
0.0
  0
LINE
  5
8614
330
1F
100
AcDbEntity
  8
AM_0
  6
Continuous
100
AcDbLine
 10
-17.7786090000002
 20
4.41374000000018
 30
0.0
 11
-17.93038200000016
 21
4.088261000000093
 31
0.0
  0
LINE
  5
8615
330
1F
100
AcDbEntity
  8
AM_0
  6
Continuous
100
AcDbLine
 10
-18.1153670000002
 20
4.174521000000132
 30
0.0
 11
-17.96359400000024
 21
4.500000000000105
 31
0.0
  0
LINE
  5
8616
330
1F
100
AcDbEntity
  8
AM_0
  6
Continuous
100
AcDbLine
 10
-18.46555700000014
 20
4.174521000000131
 30
0.0
 11
-18.1153670000002
 21
4.174521000000132
 31
0.0
  0
LINE
  5
8617
330
1F
100
AcDbEntity
  8
AM_0
  6
Continuous
100
AcDbLine
 10
-18.47758500000024
 20
4.500000000000104
 30
0.0
 11
-18.69369900000016
 21
4.446410000000118
 31
0.0
  0
LINE
  5
8618
330
1F
100
AcDbEntity
  8
AM_0
  6
Continuous
100
AcDbLine
 10
-18.1153670000002
 20
3.933039000000112
 30
0.0
 11
-18.26293000000019
 21
3.933039000000112
 31
0.0
  0
LINE
  5
8619
330
1F
100
AcDbEntity
  8
AM_0
  6
Continuous
100
AcDbLine
 10
-18.1153670000002
 20
3.933039000000112
 30
0.0
 11
-18.1153670000002
 21
4.174521000000132
 31
0.0
  0
LINE
  5
861A
330
1F
100
AcDbEntity
  8
AM_0
  6
Continuous
100
AcDbLine
 10
-18.1153670000002
 20
3.933039000000112
 30
0.0
 11
-17.93038200000016
 21
4.088261000000093
 31
0.0
  0
LINE
  5
861B
330
1F
100
AcDbEntity
  8
AM_0
  6
Continuous
100
AcDbLine
 10
-10.92568800000012
 20
-4.499999999999859
 30
0.0
 11
-6.46652500000022
 21
-9.814223999999793
 31
0.0
  0
LINE
  5
861C
330
1F
100
AcDbEntity
  8
AM_0
  6
Continuous
100
AcDbLine
 10
-7.032949000000232
 20
-9.45033099999989
 30
0.0
 11
-14.9627180000002
 21
0.0000000000001368
 31
0.0
  0
ARC
  5
861D
330
1F
100
AcDbEntity
  8
AM_0
  6
Continuous
100
AcDbCircle
 10
-14.9627180000002
 20
0.0000000000001368
 30
0.0
 40
12.64447
100
AcDbArc
 50
270.0000000000001
 51
310.0000011659665
  0
LINE
  5
861E
330
1F
100
AcDbEntity
  8
AM_0
  6
Continuous
100
AcDbLine
 10
-0.0387590000002102
 20
-0.0955929999998863
 30
0.0
 11
-0.0000000000002682
 21
0.0372080000001145
 31
0.0
  0
LINE
  5
861F
330
1F
100
AcDbEntity
  8
AM_0
  6
Continuous
100
AcDbLine
 10
-0.0364910000002534
 20
1.420953000000118
 30
0.0
 11
-0.0361070000002554
 21
0.0922700000001069
 31
0.0
  0
LINE
  5
8620
330
1F
100
AcDbEntity
  8
AM_0
  6
Continuous
100
AcDbLine
 10
-6.584503000000156
 20
-9.984767999999856
 30
0.0
 11
-6.834360000000232
 21
-9.686999999999866
 31
0.0
  0
LINE
  5
8621
330
1F
100
AcDbEntity
  8
AM_0
  6
Continuous
100
AcDbLine
 10
-6.834360000000232
 20
-9.686999999999866
 30
0.0
 11
-7.032949000000232
 21
-9.45033099999989
 31
0.0
  0
LINE
  5
8622
330
1F
100
AcDbEntity
  8
AM_0
  6
Continuous
100
AcDbLine
 10
-6.562259000000156
 20
-10.32242099999981
 30
0.0
 11
-6.98923500000021
 21
-9.813571999999906
 31
0.0
  0
LINE
  5
8623
330
1F
100
AcDbEntity
  8
AM_0
  6
Continuous
100
AcDbLine
 10
-6.584503000000156
 20
-9.984767999999856
 30
0.0
 11
-6.439571000000204
 21
-10.1574909999999
 31
0.0
  0
LINE
  5
8624
330
1F
100
AcDbEntity
  8
AM_0
  6
Continuous
100
AcDbLine
 10
-6.46652500000022
 20
-9.814223999999793
 30
0.0
 11
-6.584503000000156
 21
-9.984767999999856
 31
0.0
  0
LINE
  5
8625
330
1F
100
AcDbEntity
  8
AM_0
  6
Continuous
100
AcDbLine
 10
-6.390753000000189
 20
-11.75427099999984
 30
0.0
 11
-6.273643000000137
 21
-11.67301799999984
 31
0.0
  0
LINE
  5
8626
330
1F
100
AcDbEntity
  8
AM_0
  6
Continuous
100
AcDbLine
 10
-10.81695100000019
 20
-4.499999999999859
 30
0.0
 11
-10.92568800000012
 21
-4.499999999999859
 31
0.0
  0
LINE
  5
8627
330
1F
100
AcDbEntity
  8
AM_0
  6
Continuous
100
AcDbLine
 10
-11.23173700000018
 20
-4.446409999999873
 30
0.0
 11
-10.92568800000012
 21
-4.499999999999859
 31
0.0
  0
LINE
  5
8628
330
1F
100
AcDbEntity
  8
AM_0
  6
Continuous
100
AcDbLine
 10
-10.81695100000019
 20
-4.499999999999859
 30
0.0
 11
-11.42448400000015
 21
-4.216702999999911
 31
0.0
  0
LINE
  5
8629
330
1F
100
AcDbEntity
  8
AM_0
  6
Continuous
100
AcDbLine
 10
-11.32995800000014
 20
-3.777817999999884
 30
0.0
 11
-10.63196600000017
 21
-4.103296999999799
 31
0.0
  0
LINE
  5
862A
330
1F
100
AcDbEntity
  8
AM_0
  6
Continuous
100
AcDbLine
 10
-11.66250600000021
 20
-3.933038999999867
 30
0.0
 11
-11.51494400000018
 21
-3.933038999999867
 31
0.0
  0
LINE
  5
862B
330
1F
100
AcDbEntity
  8
AM_0
  6
Continuous
100
AcDbLine
 10
-11.51494400000018
 20
-3.933038999999867
 30
0.0
 11
-11.51494400000018
 21
-4.108896999999845
 31
0.0
  0
LINE
  5
862C
330
1F
100
AcDbEntity
  8
AM_0
  6
Continuous
100
AcDbLine
 10
-11.51494400000018
 20
-3.933038999999867
 30
0.0
 11
-11.32995800000014
 21
-3.777817999999884
 31
0.0
  0
LINE
  5
862D
330
1F
100
AcDbEntity
  8
AM_0
  6
Continuous
100
AcDbLine
 10
-14.96271800000019
 20
-14.44709199999982
 30
0.0
 11
-14.96271800000019
 21
-13.30501099999987
 31
0.0
  0
LINE
  5
862E
330
1F
100
AcDbEntity
  8
AM_0
  6
Continuous
100
AcDbLine
 10
-16.9301240000002
 20
-13.35034099999982
 30
0.0
 11
-17.52242000000021
 21
-12.64446999999979
 31
0.0
  0
LINE
  5
862F
330
1F
100
AcDbEntity
  8
AM_0
  6
Continuous
100
AcDbLine
 10
-17.26133900000019
 20
-12.64446999999979
 30
0.0
 11
-16.68785700000023
 21
-13.32791799999982
 31
0.0
  0
LINE
  5
8630
330
1F
100
AcDbEntity
  8
AM_0
  6
Continuous
100
AcDbLine
 10
-16.68785700000023
 20
-13.32791799999982
 30
0.0
 11
-14.96271800000019
 21
-13.30501099999987
 31
0.0
  0
LINE
  5
8631
330
1F
100
AcDbEntity
  8
AM_0
  6
Continuous
100
AcDbLine
 10
-83.22474200000021
 20
-15.15689399999979
 30
0.0
 11
-42.96271800000019
 21
-12.99999999999988
 31
0.0
  0
LINE
  5
8632
330
1F
100
AcDbEntity
  8
AM_0
  6
Continuous
100
AcDbLine
 10
-42.96271800000019
 20
13.00000000000011
 30
0.0
 11
-83.22474200000025
 21
15.15689400000012
 31
0.0
  0
LINE
  5
8633
330
1F
100
AcDbEntity
  8
AM_0
  6
Continuous
100
AcDbLine
 10
-42.96271800000019
 20
13.00000000000011
 30
0.0
 11
-42.96271800000019
 21
-12.99999999999988
 31
0.0
  0
LINE
  5
8634
330
1F
100
AcDbEntity
  8
AM_0
  6
Continuous
100
AcDbLine
 10
-34.9627180000002
 20
12.64447000000012
 30
0.0
 11
-25.57268800000019
 21
12.6444700000001
 31
0.0
  0
LINE
  5
8635
330
1F
100
AcDbEntity
  8
AM_0
  6
Continuous
100
AcDbLine
 10
-32.85916500000022
 20
13.50000000000012
 30
0.0
 11
-26.5516440000002
 21
13.50000000000012
 31
0.0
  0
LINE
  5
8636
330
1F
100
AcDbEntity
  8
AM_0
  6
Continuous
100
AcDbLine
 10
-26.0294820000002
 20
13.50000000000012
 30
0.0
 11
-24.67805500000022
 21
13.50000000000009
 31
0.0
  0
LINE
  5
8637
330
1F
100
AcDbEntity
  8
AM_0
  6
Continuous
100
AcDbLine
 10
-24.67805500000022
 20
13.50000000000009
 30
0.0
 11
-22.35735900000028
 21
13.50000000000013
 31
0.0
  0
LINE
  5
8638
330
1F
100
AcDbEntity
  8
AM_0
  6
Continuous
100
AcDbLine
 10
-25.31429700000029
 20
12.33653100000013
 30
0.0
 11
-25.57333700000026
 21
12.64524400000011
 31
0.0
  0
LINE
  5
8639
330
1F
100
AcDbEntity
  8
AM_0
  6
Continuous
100
AcDbLine
 10
-25.57333700000026
 20
12.64524400000011
 30
0.0
 11
-26.29056300000021
 21
13.50000000000012
 31
0.0
  0
LINE
  5
863A
330
1F
100
AcDbEntity
  8
AM_0
  6
Continuous
100
AcDbLine
 10
-26.29056300000021
 20
13.50000000000012
 30
0.0
 11
-26.0294820000002
 21
13.50000000000012
 31
0.0
  0
LINE
  5
863B
330
1F
100
AcDbEntity
  8
AM_0
  6
Continuous
100
AcDbLine
 10
-25.83377000000026
 20
12.6444700000001
 30
0.0
 11
-26.5516440000002
 21
13.50000000000012
 31
0.0
  0
LINE
  5
863C
330
1F
100
AcDbEntity
  8
AM_0
  6
Continuous
100
AcDbLine
 10
-26.5516440000002
 20
13.50000000000012
 30
0.0
 11
-26.29056300000021
 21
13.50000000000012
 31
0.0
  0
LINE
  5
863D
330
1F
100
AcDbEntity
  8
AM_0
  6
Continuous
100
AcDbLine
 10
-32.85916500000022
 20
13.50000000000012
 30
0.0
 11
-33.71469500000018
 21
12.64447000000012
 31
0.0
  0
LINE
  5
863E
330
1F
100
AcDbEntity
  8
AM_0
  6
Continuous
100
AcDbLine
 10
-34.9627180000002
 20
13.00000000000011
 30
0.0
 11
-42.96271800000019
 21
13.00000000000011
 31
0.0
  0
LINE
  5
863F
330
1F
100
AcDbEntity
  8
AM_0
  6
Continuous
100
AcDbLine
 10
-34.9627180000002
 20
12.64447000000012
 30
0.0
 11
-34.9627180000002
 21
13.00000000000011
 31
0.0
  0
LINE
  5
8640
330
1F
100
AcDbEntity
  8
AM_0
  6
Continuous
100
AcDbLine
 10
-24.11859400000017
 20
-13.39586799999978
 30
0.0
 11
-24.74909200000016
 21
-12.6444699999998
 31
0.0
  0
LINE
  5
8641
330
1F
100
AcDbEntity
  8
AM_0
  6
Continuous
100
AcDbLine
 10
-24.48801100000026
 20
-12.64446999999979
 30
0.0
 11
-23.84282300000021
 21
-13.41337399999981
 31
0.0
  0
LINE
  5
8642
330
1F
100
AcDbEntity
  8
AM_0
  6
Continuous
100
AcDbLine
 10
-33.71469500000018
 20
-12.64446999999977
 30
0.0
 11
-32.90127400000026
 21
-13.45789099999989
 31
0.0
  0
LINE
  5
8643
330
1F
100
AcDbEntity
  8
AM_0
  6
Continuous
100
AcDbLine
 10
-32.90127400000026
 20
-13.45789099999989
 30
0.0
 11
-32.85916500000019
 21
-13.49999999999987
 31
0.0
  0
LINE
  5
8644
330
1F
100
AcDbEntity
  8
AM_0
  6
Continuous
100
AcDbLine
 10
-42.96271800000019
 20
-12.99999999999988
 30
0.0
 11
-34.9627180000002
 21
-12.99999999999987
 31
0.0
  0
LINE
  5
8645
330
1F
100
AcDbEntity
  8
AM_0
  6
Continuous
100
AcDbLine
 10
-34.9627180000002
 20
-12.99999999999987
 30
0.0
 11
-34.9627180000002
 21
-12.64446999999977
 31
0.0
  0
LINE
  5
8646
330
1F
100
AcDbEntity
  8
AM_0
  6
Continuous
100
AcDbLine
 10
-84.96271800000021
 20
15.99600000000011
 30
0.0
 11
-84.96271800000018
 21
-15.99599999999988
 31
0.0
  0
LINE
  5
8647
330
1F
100
AcDbEntity
  8
AM_0
  6
Continuous
100
AcDbLine
 10
-83.22474200000025
 20
15.15689400000012
 30
0.0
 11
-83.22474200000021
 21
-15.15689399999979
 31
0.0
  0
ARC
  5
8648
330
1F
100
AcDbEntity
  8
AM_0
  6
Continuous
100
AcDbCircle
 10
-83.0910050000002
 20
17.65331400000015
 30
0.0
 40
2.499999849792998
100
AcDbArc
 50
221.5233822523991
 51
266.9335095948398
  0
ARC
  5
8649
330
1F
100
AcDbEntity
  8
AM_0
  6
Continuous
100
AcDbCircle
 10
-83.09100500000019
 20
-17.65331399999992
 30
0.0
 40
2.499999680313779
100
AcDbArc
 50
93.06649040516042
 51
138.4766177476009
  0
LINE
  5
864E
330
1F
100
AcDbEntity
  8
AM_0
  6
Continuous
100
AcDbLine
 10
-238.2127180000001
 20
15.99600000000002
 30
0.0
 11
-238.2127180000001
 21
-15.99599999999996
 31
0.0
  0
LINE
  5
864F
330
1F
100
AcDbEntity
  8
AM_0
  6
Continuous
100
AcDbLine
 10
-239.9627180000001
 20
14.24600000000002
 30
0.0
 11
-239.9627180000001
 21
-14.24599999999996
 31
0.0
  0
LINE
  5
8650
330
1F
100
AcDbEntity
  8
AM_0
  6
Continuous
100
AcDbLine
 10
-238.2127180000001
 20
15.99600000000002
 30
0.0
 11
-239.9627180000001
 21
14.24600000000002
 31
0.0
  0
LINE
  5
8651
330
1F
100
AcDbEntity
  8
AM_0
  6
Continuous
100
AcDbLine
 10
-239.9627180000001
 20
-14.24599999999996
 30
0.0
 11
-238.2127180000001
 21
-15.99599999999996
 31
0.0
  0
LINE
  5
8910
330
1F
100
AcDbEntity
  8
AM_11
100
AcDbLine
 10
-22.50000000000025
 20
14.57749700000007
 30
0.0
 11
-22.50000000000028
 21
-14.57749699999978
 31
0.0
  0
DIMENSION
  5
8919
330
1F
100
AcDbEntity
  8
AM_5
100
AcDbDimension
  2
*D2
 10
-22.50000000000027
 20
29.99600112235231
 30
0.0
 11
-11.25000000000023
 21
33.09600112235229
 31
0.0
 70
    32
  1
<>
 71
     5
 42
-1.0
 51
359.9999999999998
  3
AM_JIS$0
100
AcDbAlignedDimension
 13
-0.0000000000002682
 23
-0.037208000000021
 33
0.0
 14
-22.50000000000029
 24
14.492406
 34
0.0
 50
180.0
100
AcDbRotatedDimension
1001
GENIUS_GENDTOL_13
1000

1000
h7
1000

1040
0.0
1001
ACAD
1000
DSTYLE
1002
{
1070
   287
1070
     3
1070
    40
1040
1.0
1070
    42
1040
1.0
1070
    43
1040
12.0
1070
    48
1040
0.1
1070
    78
1070
     8
1070
   140
1040
3.2
1070
   176
1070
   256
1070
   177
1070
   256
1070
   271
1070
     1
1070
   272
1070
     3
1070
   275
1070
     0
1070
   284
1070
     0
1070
   289
1070
     3
1070
   340
1005
6B
1070
   371
1070
    -1
1070
   372
1070
    -1
1002
}
  0
DIMENSION
  5
89C3
330
1F
100
AcDbEntity
  8
AM_5
100
AcDbDimension
  2
*D3
 10
-42.96271800000018
 20
-29.99600100999996
 30
0.0
 11
-21.48135900000022
 21
-26.89600100999996
 31
0.0
 70
    32
  1
<>
 71
     5
 42
-1.0
 51
359.9999999999998
  3
AM_JIS$0
100
AcDbAlignedDimension
 13
-0.0000000000002682
 23
-0.037208000000021
 33
0.0
 14
-42.96271800000018
 24
-12.99999999999982
 34
0.0
100
AcDbRotatedDimension
1001
GENIUS_GENDTOL_13
1000

1000
h7
1000

1040
0.0
1001
ACAD
1000
DSTYLE
1002
{
1070
   287
1070
     3
1070
    40
1040
1.0
1070
    42
1040
1.0
1070
    43
1040
12.0
1070
    48
1040
0.1
1070
    78
1070
     8
1070
   140
1040
3.2
1070
   176
1070
   256
1070
   177
1070
   256
1070
   271
1070
     1
1070
   272
1070
     3
1070
   275
1070
     0
1070
   284
1070
     0
1070
   289
1070
     3
1070
   340
1005
6B
1070
   371
1070
    -1
1070
   372
1070
    -1
1002
}
  0
DIMENSION
  5
8A58
330
1F
100
AcDbEntity
  8
AM_5
100
AcDbDimension
  2
*D4
 10
-84.9627180000002
 20
-39.99600100999997
 30
0.0
 11
-42.48135900000023
 21
-36.89600100999996
 31
0.0
 70
    32
  1
<>
 71
     5
 42
-1.0
 51
359.9999999999998
  3
AM_JIS$0
100
AcDbAlignedDimension
 13
-0.0000000000002682
 23
-0.0372079999997936
 33
0.0
 14
-84.9627180000002
 24
-15.99599999999989
 34
0.0
100
AcDbRotatedDimension
1001
GENIUS_GENDTOL_13
1000

1000
h7
1000

1040
0.0
1001
ACAD
1000
DSTYLE
1002
{
1070
   287
1070
     3
1070
    40
1040
1.0
1070
    42
1040
1.0
1070
    43
1040
12.0
1070
    48
1040
0.1
1070
    78
1070
     8
1070
   140
1040
3.2
1070
   176
1070
   256
1070
   177
1070
   256
1070
   271
1070
     1
1070
   272
1070
     3
1070
   275
1070
     0
1070
   284
1070
     0
1070
   289
1070
     3
1070
   340
1005
6B
1070
   371
1070
    -1
1070
   372
1070
    -1
1002
}
  0
DIMENSION
  5
8AF8
330
1F
100
AcDbEntity
  8
AM_5
100
AcDbDimension
  2
*D5
 10
-239.9627180000001
 20
-49.99600100999997
 30
0.0
 11
-119.9813590000002
 21
-46.89600100999997
 31
0.0
 70
    32
  1
<>
 71
     5
 42
-1.0
 51
359.9999999999998
  3
AM_JIS$0
100
AcDbAlignedDimension
 13
-0.0000000000002682
 23
-0.037208000000021
 33
0.0
 14
-239.9627180000001
 24
-14.24599999999993
 34
0.0
100
AcDbRotatedDimension
1001
GENIUS_GENDTOL_13
1000

1000
h7
1000

1040
0.0
1001
ACAD
1000
DSTYLE
1002
{
1070
   287
1070
     3
1070
    40
1040
1.0
1070
    42
1040
1.0
1070
    43
1040
12.0
1070
    48
1040
0.1
1070
    78
1070
     8
1070
   140
1040
3.2
1070
   176
1070
   256
1070
   177
1070
   256
1070
   271
1070
     1
1070
   272
1070
     3
1070
   275
1070
     0
1070
   284
1070
     0
1070
   289
1070
     3
1070
   340
1005
6B
1070
   371
1070
    -1
1070
   372
1070
    -1
1002
}
  0
DIMENSION
  5
8B8D
330
1F
100
AcDbEntity
  8
AM_5
100
AcDbDimension
  2
*D6
 10
-239.9627180000001
 20
-39.99600100999997
 30
0.0
 11
-162.4627180000001
 21
-36.89600100999996
 31
0.0
 70
    32
  1
<>
 71
     5
 42
-1.0
 51
359.9999999999998
  3
AM_JIS$0
100
AcDbAlignedDimension
 13
-84.9627180000002
 23
-15.99599999999989
 33
0.0
 14
-239.9627180000001
 24
-14.24599999999993
 34
0.0
100
AcDbRotatedDimension
1001
GENIUS_GENDTOL_13
1000

1000
h7
1000

1040
0.0
1001
ACAD
1000
DSTYLE
1002
{
1070
   287
1070
     3
1070
    40
1040
1.0
1070
    42
1040
1.0
1070
    43
1040
12.0
1070
    48
1040
0.1
1070
    78
1070
     8
1070
   140
1040
3.2
1070
   176
1070
   256
1070
   177
1070
   256
1070
   271
1070
     1
1070
   272
1070
     3
1070
   275
1070
     0
1070
   284
1070
     0
1070
   289
1070
     3
1070
   340
1005
6B
1070
   371
1070
    -1
1070
   372
1070
    -1
1002
}
  0
DIMENSION
  5
8C2F
330
1F
100
AcDbEntity
  8
AM_5
100
AcDbDimension
  2
*D7
 10
-260.0001736227168
 20
-15.99599999999993
 30
0.0
 11
-263.1001736227168
 21
0.0000000000000216
 31
0.0
 70
    32
  1
%%c<>
 71
     5
 42
-1.0
 51
359.9999999999998
  3
AM_JIS$0
100
AcDbAlignedDimension
 13
-238.2127180000001
 23
15.99600000000005
 33
0.0
 14
-238.2127180000001
 24
-15.99599999999993
 34
0.0
 50
270.0
100
AcDbRotatedDimension
1001
GENIUS_GENDTOL_13
1000

1000
h7
1000

1040
0.0
1001
ACAD
1000
DSTYLE
1002
{
1070
   287
1070
     3
1070
    40
1040
1.0
1070
    42
1040
1.0
1070
    43
1040
12.0
1070
    48
1040
0.1
1070
    78
1070
     8
1070
   140
1040
3.2
1070
   176
1070
   256
1070
   177
1070
   256
1070
   271
1070
     1
1070
   272
1070
     3
1070
   275
1070
     0
1070
   284
1070
     0
1070
   289
1070
     3
1070
   340
1005
6B
1070
   371
1070
    -1
1070
   372
1070
    -1
1002
}
  0
SPLINE
  5
8D65
330
1F
100
AcDbEntity
  8
AM_11
  6
Continuous
100
AcDbSpline
210
0.0
220
0.0
230
1.0
 70
     8
 71
     3
 72
    11
 73
     7
 74
     5
 42
0.0000000001
 43
0.0000000001
 44
0.0000000001
 40
0.0
 40
0.0
 40
0.0
 40
0.0
 40
2.585823448772345
 40
5.151679937115329
 40
7.699002348818295
 40
10.23129504993201
 40
10.23129504993201
 40
10.23129504993201
 40
10.23129504993201
 10
-4.550255000000204
 20
-10.37419899999976
 30
0.0
 10
-3.947964483464753
 20
-9.754085417941604
 30
0.0
 10
-2.748034158823442
 20
-8.51864658667165
 30
0.0
 10
-1.408423630237866
 20
-6.309460470924251
 30
0.0
 10
-0.4329461963731576
 20
-3.935045018051834
 30
0.0
 10
-0.1683604441588699
 20
-2.257330983248092
 30
0.0
 10
-0.036459000000161
 20
-1.420955999999853
 30
0.0
 11
-4.550255000000204
 21
-10.37419899999976
 31
0.0
 11
-2.819860000000246
 21
-8.452684999999753
 31
0.0
 11
-1.464954000000189
 21
-6.273728999999838
 31
0.0
 11
-0.5274760000001617
 21
-3.905188000000015
 31
0.0
 11
-0.036459000000161
 21
-1.420955999999853
 31
0.0
  0
SPLINE
  5
8D66
330
1F
100
AcDbEntity
  8
AM_11
  6
Continuous
100
AcDbSpline
210
0.0
220
0.0
230
1.0
 70
     8
 71
     3
 72
    11
 73
     7
 74
     5
 42
0.0000000001
 43
0.0000000001
 44
0.0000000001
 40
0.0
 40
0.0
 40
0.0
 40
0.0
 40
0.3340982762391953
 40
0.6767013654867969
 40
1.02714937699495
 40
1.384389475238308
 40
1.384389475238308
 40
1.384389475238308
 40
1.384389475238308
 10
-0.0364910000002508
 20
-1.420951999999934
 30
0.0
 10
-0.0308517504646025
 20
-1.309726718095739
 30
0.0
 10
-0.0194296985341043
 20
-1.084444801084779
 30
0.0
 10
-0.0083365930262584
 20
-0.7422258574226596
 30
0.0
 10
-0.0012333740289294
 20
-0.3921876659899543
 30
0.0
 10
-0.0004137468198771
 20
-0.156289239280372
 30
0.0
 10
-0.0000000000002682
 20
-0.0372080000000129
 30
0.0
 11
-0.0364910000002508
 21
-1.420951999999934
 31
0.0
 11
-0.0205760000002443
 21
-1.087232999999932
 31
0.0
 11
-0.0091050000001875
 21
-0.7448219999999343
 31
0.0
 11
-0.0022520000002096
 21
-0.394440999999907
 31
0.0
 11
-0.0000000000002682
 21
-0.0372080000000129
 31
0.0
  0
SPLINE
  5
8D67
330
1F
100
AcDbEntity
  8
AM_11
  6
Continuous
100
AcDbSpline
210
0.0
220
0.0
230
1.0
 70
     8
 71
     3
 72
    11
 73
     7
 74
     5
 42
0.0000000001
 43
0.0000000001
 44
0.0000000001
 40
0.0
 40
0.0
 40
0.0
 40
0.0
 40
1.827479241202236
 40
3.655131087501734
 40
5.482936527380934
 40
7.310876406596038
 40
7.310876406596038
 40
7.310876406596038
 40
7.310876406596038
 10
-14.96271800000021
 20
-14.53229900000003
 30
0.0
 10
-15.57185868509554
 20
-14.53712565434837
 30
0.0
 10
-16.79019758851822
 20
-14.54677941892171
 30
0.0
 10
-18.61780357725223
 20
-14.55886058943703
 30
0.0
 10
-20.44557282686618
 20
-14.56936907602339
 30
0.0
 10
-21.66414267139776
 20
-14.57478762558561
 30
0.0
 10
-22.27345000000021
 20
-14.57749699999978
 30
0.0
 11
-14.96271800000021
 21
-14.53229900000003
 31
0.0
 11
-16.79014300000023
 21
-14.54637899999991
 31
0.0
 11
-18.61775400000022
 21
-14.55859799999989
 31
0.0
 11
-20.44553000000023
 21
-14.56897199999979
 31
0.0
 11
-22.27345000000021
 21
-14.57749699999978
 31
0.0
  0
SPLINE
  5
8D68
330
1F
100
AcDbEntity
  8
AM_11
  6
Continuous
100
AcDbSpline
210
0.0
220
0.0
230
1.0
 70
     8
 71
     3
 72
    11
 73
     7
 74
     5
 42
0.0000000001
 43
0.0000000001
 44
0.0000000001
 40
0.0
 40
0.0
 40
0.0
 40
0.0
 40
2.284846381248886
 40
4.568121182324095
 40
6.845397005203066
 40
9.112757090445876
 40
9.112757090445876
 40
9.112757090445876
 40
9.112757090445876
 10
-14.96271800000021
 20
-14.53229900000003
 30
0.0
 10
-14.20037696399885
 20
-14.49564714314925
 30
0.0
 10
-12.67621925112488
 20
-14.42236863960277
 30
0.0
 10
-10.44904365405425
 20
-13.87763382281902
 30
0.0
 10
-8.315491844410951
 20
-13.05333232542938
 30
0.0
 10
-7.03139471012
 20
-12.2435037989404
 30
0.0
 10
-6.390747000000301
 20
-11.8394729999999
 30
0.0
 11
-14.96271800000021
 21
-14.53229900000003
 31
0.0
 11
-12.68517700000019
 21
-14.34973399999992
 31
0.0
 11
-10.46181400000021
 21
-13.8301179999998
 31
0.0
 11
-8.346539000000191
 21
-12.98655599999978
 31
0.0
 11
-6.390747000000301
 21
-11.8394729999999
 31
0.0
  0
SPLINE
  5
8D69
330
1F
100
AcDbEntity
  8
AM_11
  6
Continuous
100
AcDbSpline
210
0.0
220
0.0
230
1.0
 70
     8
 71
     3
 72
    11
 73
     7
 74
     5
 42
0.0000000001
 43
0.0000000001
 44
0.0000000001
 40
0.0
 40
0.0
 40
0.0
 40
0.0
 40
0.5398407332585745
 40
1.080492386595549
 40
1.621931353083924
 40
2.16412913357536
 40
2.16412913357536
 40
2.16412913357536
 40
2.16412913357536
 10
-4.550255000000204
 20
-10.37419899999976
 30
0.0
 10
-4.6831632866634
 20
-10.4955423805882
 30
0.0
 10
-4.949179507759219
 20
-10.73841141734681
 30
0.0
 10
-5.365029283618137
 20
-11.08414212405469
 30
0.0
 10
-5.791955501200058
 20
-11.41737333097172
 30
0.0
 10
-6.086667043386026
 20
-11.62630167646804
 30
0.0
 10
-6.234126000000217
 20
-11.73083899999973
 30
0.0
 11
-4.550255000000204
 21
-10.37419899999976
 31
0.0
 11
-4.95172900000027
 21
-10.73509599999991
 31
0.0
 11
-5.366569000000268
 21
-11.08181199999992
 31
0.0
 11
-5.794225000000282
 21
-11.4138759999999
 31
0.0
 11
-6.234126000000217
 21
-11.73083899999973
 31
0.0
  0
DIMENSION
  5
8D74
330
1F
100
AcDbEntity
  8
AM_5
100
AcDbDimension
  2
*D8
 10
20.71203571980605
 20
-14.57749699999977
 30
0.0
 11
17.61203571980605
 21
0.0000000000001554
 31
0.0
 70
    32
  1
%%c30
 71
     5
 42
-1.0
 51
359.9999999999998
  3
AM_JIS$0
100
AcDbAlignedDimension
 13
-22.50000000000029
 23
14.57749700000009
 33
0.0
 14
-22.50000000000024
 24
-14.57749699999976
 34
0.0
 50
90.0000000000001
100
AcDbRotatedDimension
1001
GENIUS_GENDTOL_13
1000

1000
h7
1000

1040
0.0
1001
ACAD
1000
DSTYLE
1002
{
1070
   287
1070
     3
1070
    40
1040
1.0
1070
    42
1040
1.0
1070
    43
1040
12.0
1070
    48
1040
0.1
1070
    78
1070
     8
1070
   140
1040
3.2
1070
   176
1070
   256
1070
   177
1070
   256
1070
   271
1070
     1
1070
   272
1070
     3
1070
   275
1070
     0
1070
   284
1070
     0
1070
   289
1070
     3
1070
   340
1005
6B
1070
   371
1070
    -1
1070
   372
1070
    -1
1002
}
  0
VIEWPORT
  5
110
102
{ACAD_XDICTIONARY
360
917E
102
}
330
101
100
AcDbEntity
 67
     1
  8
0
100
AcDbViewport
 10
420.5
 20
297.0
 30
0.0
 40
948.9782706766916
 41
628.452
 68
     1
 69
     1
 12
420.5
 22
297.0
 13
0.0
 23
0.0
 14
10.0
 24
10.0
 15
10.0
 25
10.0
 16
0.0
 26
0.0
 36
1.0
 17
0.0
 27
0.0
 37
0.0
 42
50.0
 43
0.0
 44
0.0
 45
628.452
 50
0.0
 51
0.0
 72
   100
 90
    32800
  1

281
     0
 71
     1
 74
     0
110
-0.0000000000002682
120
0.000000000000161
130
0.0
111
1.0
121
0.000000000000002
131
0.0
112
-0.000000000000002
122
1.0
132
0.0
 79
     0
146
0.0
1001
GENIUS_GENSCREG_15
1000
PF
1040
1.0
1000
DF
1040
1.0
1000
MIN
1011
-53.98913533834582
1021
-17.226
1031
0.0
1000
MAX
1011
894.9891353383458
1021
611.226
1031
0.0
1000
FLAGS
1070
     4
1001
GENIUS_GENODEF_13
1002
{
1000
HIER
1070
     0
1002
}
1002
{
1000
MANEDIT
1070
     0
1002
}
1002
{
1000
NOSEL
1070
     0
1002
}
1002
{
1000
BEHIND
1070
     0
1002
}
1002
{
1000
OTHER
1070
     0
1002
}
1002
{
1000
REACTOR
1002
}
1001
GENIUS_GENOBJ-N-SDF_13
1002
{
1000
OWNER
1000
GEN
1002
}
  0
ENDSEC
  0
SECTION
  2
OBJECTS
  0
DICTIONARY
  5
C
330
0
100
AcDbDictionary
281
     1
  3
ACAD_COLOR
350
90B4
  3
ACAD_GROUP
350
D
  3
ACAD_LAYOUT
350
1A
  3
ACAD_MATERIAL
350
90B3
  3
ACAD_MLINESTYLE
350
17
  3
ACAD_PLOTSETTINGS
350
19
  3
ACAD_PLOTSTYLENAME
350
E
  3
ACAD_TABLESTYLE
350
90B5
  3
ACDBHEADERROUNDTRIPXREC
350
917D
  3
ACDBVARIABLEDICTIONARY
350
34
  3
ACMDICTIONARY
350
43
  3
AMG
350
2B
  3
AMGSNAPSETTINGS
350
6E
  3
DWGPROPS
350
917C
  0
DICTIONARY
  5
74
330
1F
100
AcDbDictionary
280
     1
281
     1
  3
ACAD_INDEX
360
9035
  3
ACAD_LAYOUTSELFREF
360
9067
  0
DICTIONARY
  5
906C
330
101
100
AcDbDictionary
280
     1
281
     1
  3
ACAD_LAYOUTSELFREF
360
906D
  0
DICTIONARY
  5
917E
330
110
100
AcDbDictionary
280
     1
281
     1
  3
ACAD_XREC_ROUNDTRIP
360
917F
  0
DICTIONARY
  5
90B4
102
{ACAD_REACTORS
330
C
102
}
330
C
100
AcDbDictionary
281
     1
  0
DICTIONARY
  5
D
102
{ACAD_REACTORS
330
C
102
}
330
C
100
AcDbDictionary
281
     1
  0
DICTIONARY
  5
1A
102
{ACAD_REACTORS
330
C
102
}
330
C
100
AcDbDictionary
281
     1
  3
Model
350
90B7
  3
レイアウト1
350
90B8
  0
DICTIONARY
  5
90B3
102
{ACAD_REACTORS
330
C
102
}
330
C
100
AcDbDictionary
281
     1
  0
DICTIONARY
  5
17
102
{ACAD_REACTORS
330
C
102
}
330
C
100
AcDbDictionary
281
     1
  3
STANDARD
350
18
  0
DICTIONARY
  5
19
102
{ACAD_REACTORS
330
C
102
}
330
C
100
AcDbDictionary
281
     1
  3
ASAMI
350
399D
  0
ACDBDICTIONARYWDFLT
  5
E
102
{ACAD_REACTORS
330
C
102
}
330
C
100
AcDbDictionary
281
     1
  3
Normal
350
F
100
AcDbDictionaryWithDefault
340
F
  0
DICTIONARY
  5
90B5
102
{ACAD_REACTORS
330
C
102
}
330
C
100
AcDbDictionary
281
     1
  3
Standard
350
90B6
  0
DICTIONARY
  5
917D
102
{ACAD_REACTORS
330
C
102
}
330
C
100
AcDbDictionary
281
     1
  0
DICTIONARY
  5
34
102
{ACAD_REACTORS
330
C
102
}
330
C
100
AcDbDictionary
281
     1
  3
CTABLESTYLE
350
9178
  3
DIMASSOC
350
9179
  3
INDEXCTL
350
35
  3
PROJECTNAME
350
917A
  3
SORTENTS
350
B5E
  0
DICTIONARY
  5
43
102
{ACAD_REACTORS
330
C
102
}
330
C
100
AcDbDictionary
281
     1
  3
ACMSTDDICTIONARY
350
260
  0
DICTIONARY
  5
2B
102
{ACAD_REACTORS
330
C
102
}
330
C
100
AcDbDictionary
281
     1
  0
DICTIONARY
  5
6E
102
{ACAD_REACTORS
330
C
102
}
330
C
100
AcDbDictionary
281
     1
  0
XRECORD
  5
917C
102
{ACAD_REACTORS
330
C
102
}
330
C
100
AcDbXrecord
280
     1
  1
DWGPROPS COOKIE
  2

  3

  4

  6

  7

  8

  9

300
AmdtFileType=82
301
=
302
=
303
=
304
=
305
=
306
=
307
=
308
=
309
=
 40
0.9694552662037036
 41
2452802.716478762
 42
2453691.770972223
  1

 90
        1
  0
DICTIONARY
  5
9035
102
{ACAD_REACTORS
330
74
102
}
330
74
100
AcDbDictionary
281
     1
  3
*A1
350
9036
  0
XRECORD
  5
9067
102
{ACAD_REACTORS
330
74
102
}
330
74
100
AcDbXrecord
280
     1
340
1F
  0
XRECORD
  5
906D
102
{ACAD_REACTORS
330
906C
102
}
330
906C
100
AcDbXrecord
280
     1
340
101
  0
XRECORD
  5
917F
102
{ACAD_REACTORS
330
917E
102
}
330
917E
100
AcDbXrecord
280
     1
102
SHADEPLOT
 70
     0
  0
LAYOUT
  5
90B7
102
{ACAD_XDICTIONARY
360
9182
102
}
102
{ACAD_REACTORS
330
1A
102
}
330
1A
100
AcDbPlotSettings
  1

  2
Canon LBP-1710 LIPS4
  4

  6

 40
0.0
 41
0.0
 42
0.0
 43
0.0
 44
0.0
 45
0.0
 46
0.0
 47
0.0
 48
0.0
 49
0.0
140
0.0
141
0.0
142
1.0
143
1.0
 70
  1712
 72
     0
 73
     0
 74
     0
  7
sei_cad.ctb
 75
     0
147
1.0
148
0.0
149
0.0
100
AcDbLayout
  1
Model
 70
     1
 71
     0
 10
0.0
 20
0.0
 11
12.0
 21
9.0
 12
0.0
 22
0.0
 32
0.0
 14
0.0
 24
0.0
 34
0.0
 15
0.0
 25
0.0
 35
0.0
146
0.0
 13
0.0
 23
0.0
 33
0.0
 16
1.0
 26
0.0
 36
0.0
 17
0.0
 27
1.0
 37
0.0
 76
     0
330
1F
  0
LAYOUT
  5
90B8
102
{ACAD_XDICTIONARY
360
9184
102
}
102
{ACAD_REACTORS
330
1A
102
}
330
1A
100
AcDbPlotSettings
  1

  2
Canon LBP-1710 LIPS4
  4

  6

 40
0.0
 41
0.0
 42
0.0
 43
0.0
 44
0.0
 45
0.0
 46
0.0
 47
0.0
 48
0.0
 49
0.0
140
0.0
141
0.0
142
1.0
143
1.0
 70
   688
 72
     0
 73
     0
 74
     5
  7
sei_cad.ctb
 75
    16
147
1.0
148
0.0
149
0.0
100
AcDbLayout
  1
レイアウト1
 70
     0
 71
     1
 10
0.0
 20
0.0
 11
841.0
 21
594.0
 12
0.0
 22
0.0
 32
0.0
 14
1.000000000000000E+20
 24
1.000000000000000E+20
 34
1.000000000000000E+20
 15
-1.000000000000000E+20
 25
-1.000000000000000E+20
 35
-1.000000000000000E+20
146
0.0
 13
0.0
 23
0.0
 33
0.0
 16
1.0
 26
0.0
 36
0.0
 17
0.0
 27
1.0
 37
0.0
 76
     0
330
101
331
110
  0
MLINESTYLE
  5
18
102
{ACAD_REACTORS
330
17
102
}
330
17
100
AcDbMlineStyle
  2
STANDARD
 70
     0
  3

 62
   256
 51
90.0
 52
90.0
 71
     2
 49
0.5
 62
   256
  6
BYLAYER
 49
-0.5
 62
   256
  6
BYLAYER
  0
PLOTSETTINGS
  5
399D
102
{ACAD_XDICTIONARY
360
9180
102
}
102
{ACAD_REACTORS
330
19
102
}
330
19
100
AcDbPlotSettings
  1
asami
  2
RICOH imagio MF1540
  4
A4
  6

 40
5.831416606903076
 41
7.651742935180664
 42
4.90008544921875
 43
5.789077758789062
 44
296.9683227539062
 45
209.9733276367186
 46
0.0
 47
0.0
 48
-156.6707931774246
 49
-74.57609991074048
140
58.59973180214831
141
60.61068161925597
142
1.0
143
1.095343097833084
 70
  1712
 72
     1
 73
     1
 74
     4
  7
asami.ctb
 75
     0
147
0.9129559514076438
148
156.6707931774246
149
74.57609991074048
  0
ACDBPLACEHOLDER
  5
F
102
{ACAD_REACTORS
330
E
102
}
330
E
  0
TABLESTYLE
  5
90B6
102
{ACAD_REACTORS
330
90B5
102
}
330
90B5
100
AcDbTableStyle
  3
Standard
 70
     0
 71
     0
 40
1.5
 41
1.5
280
     0
281
     0
  7
STANDARD
140
4.5
170
     2
 62
     0
 63
     7
283
     0
274
    -2
284
     1
 64
     0
275
    -2
285
     1
 65
     0
276
    -2
286
     1
 66
     0
277
    -2
287
     1
 67
     0
278
    -2
288
     1
 68
     0
279
    -2
289
     1
 69
     0
  7
STANDARD
140
6.0
170
     5
 62
     0
 63
     7
283
     0
274
    -2
284
     1
 64
     0
275
    -2
285
     1
 65
     0
276
    -2
286
     1
 66
     0
277
    -2
287
     1
 67
     0
278
    -2
288
     1
 68
     0
279
    -2
289
     1
 69
     0
  7
STANDARD
140
4.5
170
     5
 62
     0
 63
     7
283
     0
274
    -2
284
     1
 64
     0
275
    -2
285
     1
 65
     0
276
    -2
286
     1
 66
     0
277
    -2
287
     1
 67
     0
278
    -2
288
     1
 68
     0
279
    -2
289
     1
 69
     0
  0
DICTIONARYVAR
  5
9178
102
{ACAD_REACTORS
330
34
102
}
330
34
100
DictionaryVariables
280
     0
  1
STANDARD
  0
DICTIONARYVAR
  5
9179
102
{ACAD_REACTORS
330
34
102
}
330
34
100
DictionaryVariables
280
     0
  1
1
  0
DICTIONARYVAR
  5
35
102
{ACAD_REACTORS
330
34
102
}
330
34
100
DictionaryVariables
280
     0
  1
1
  0
DICTIONARYVAR
  5
917A
102
{ACAD_REACTORS
330
34
102
}
330
34
100
DictionaryVariables
280
     0
  1

  0
DICTIONARYVAR
  5
B5E
102
{ACAD_REACTORS
330
34
102
}
330
34
100
DictionaryVariables
280
     0
  1
96
  0
DICTIONARY
  5
260
102
{ACAD_REACTORS
330
43
102
}
330
43
100
AcDbDictionary
281
     1
  0
LAYER_INDEX
  5
9036
102
{ACAD_REACTORS
330
9035
102
}
330
9035
100
AcDbIndex
 40
2453691.770972223
100
AcDbLayerIndex
  8
0
360
9037
 90
        0
  8
AM_0
360
9038
 90
      105
  8
AM_5
360
9039
 90
        7
  8
AM_7
360
903A
 90
        1
  8
AM_6
360
903B
 90
        1
  8
DEFPOINTS
360
903C
 90
        0
  8
AM_3
360
903D
 90
        0
  8
AM_11
360
903E
 90
        6
  8
PV0001_1
360
903F
 90
        0
  8
2
360
9040
 90
        0
  8
1
360
9041
 90
        0
  8
AM_4
360
9042
 90
        0
  0
DICTIONARY
  5
9182
330
90B7
100
AcDbDictionary
280
     1
281
     1
  3
ACAD_XREC_ROUNDTRIP
360
9183
  0
DICTIONARY
  5
9184
330
90B8
100
AcDbDictionary
280
     1
281
     1
  3
ACAD_XREC_ROUNDTRIP
360
9185
  0
DICTIONARY
  5
9180
330
399D
100
AcDbDictionary
280
     1
281
     1
  3
ACAD_XREC_ROUNDTRIP
360
9181
  0
IDBUFFER
  5
9037
330
0
100
AcDbIdBuffer
  0
IDBUFFER
  5
9038
330
0
100
AcDbIdBuffer
330
858D
330
858E
330
858F
330
8590
330
8591
330
8592
330
8593
330
8594
330
8595
330
8596
330
8597
330
8598
330
8599
330
859A
330
859B
330
859C
330
859D
330
859E
330
859F
330
85A0
330
85A1
330
85A2
330
85A3
330
85A4
330
85A5
330
85A6
330
85A7
330
85A8
330
85A9
330
85AA
330
85AB
330
85AC
330
85AD
330
85AE
330
85CA
330
85CB
330
8606
330
8607
330
8608
330
8609
330
860A
330
860B
330
860F
330
8610
330
8611
330
8612
330
8613
330
8614
330
8615
330
8616
330
8617
330
8618
330
8619
330
861A
330
861B
330
861C
330
861D
330
861E
330
861F
330
8620
330
8621
330
8622
330
8623
330
8624
330
8625
330
8626
330
8627
330
8628
330
8629
330
862A
330
862B
330
862C
330
862D
330
862E
330
862F
330
8630
330
8631
330
8632
330
8633
330
8634
330
8635
330
8636
330
8637
330
8638
330
8639
330
863A
330
863B
330
863C
330
863D
330
863E
330
863F
330
8640
330
8641
330
8642
330
8643
330
8644
330
8645
330
8646
330
8647
330
8648
330
8649
330
864E
330
864F
330
8650
330
8651
  0
IDBUFFER
  5
9039
330
0
100
AcDbIdBuffer
330
8919
330
89C3
330
8A58
330
8AF8
330
8B8D
330
8C2F
330
8D74
  0
IDBUFFER
  5
903A
330
0
100
AcDbIdBuffer
330
860D
  0
IDBUFFER
  5
903B
330
0
100
AcDbIdBuffer
330
388D
  0
IDBUFFER
  5
903C
330
0
100
AcDbIdBuffer
  0
IDBUFFER
  5
903D
330
0
100
AcDbIdBuffer
  0
IDBUFFER
  5
903E
330
0
100
AcDbIdBuffer
330
8910
330
8D65
330
8D66
330
8D67
330
8D68
330
8D69
  0
IDBUFFER
  5
903F
330
0
100
AcDbIdBuffer
  0
IDBUFFER
  5
9040
330
0
100
AcDbIdBuffer
  0
IDBUFFER
  5
9041
330
0
100
AcDbIdBuffer
  0
IDBUFFER
  5
9042
330
0
100
AcDbIdBuffer
  0
XRECORD
  5
9183
102
{ACAD_REACTORS
330
9182
102
}
330
9182
100
AcDbXrecord
280
     1
102
SHADEPLOT
 70
     0
102
SHADEPLOTRESLEVEL
 70
     2
102
SHADEPLOTCUSTOMDPI
 70
   300
  0
XRECORD
  5
9185
102
{ACAD_REACTORS
330
9184
102
}
330
9184
100
AcDbXrecord
280
     1
102
SHADEPLOT
 70
     0
102
SHADEPLOTRESLEVEL
 70
     2
102
SHADEPLOTCUSTOMDPI
 70
   300
  0
XRECORD
  5
9181
102
{ACAD_REACTORS
330
9180
102
}
330
9180
100
AcDbXrecord
280
     1
102
SHADEPLOT
 70
     0
102
SHADEPLOTRESLEVEL
 70
     2
102
SHADEPLOTCUSTOMDPI
 70
   300
  0
ENDSEC
  0
EOF
