  0
SECTION
  2
HEADER
  9
$ACADVER
  1
AC1014
  9
$ACADMAINTVER
 70
     9
  9
$DWGCODEPAGE
  3
ANSI_932
  9
$INSBASE
 10
0.0
 20
0.0
 30
0.0
  9
$EXTMIN
 10
-265.5212676853273
 20
-60.75700138373379
 30
-0.00000001
  9
$EXTMAX
 10
15.51073602861445
 20
25.82287547337046
 30
0.00000001
  9
$LIMMIN
 10
-275.0222015316316
 20
-115.4617149536899
  9
$LIMMAX
 10
65.71911369295242
 20
87.4641882804981
  9
$ORTHOMODE
 70
     0
  9
$REGENMODE
 70
     1
  9
$FILLMODE
 70
     1
  9
$QTEXTMODE
 70
     0
  9
$MIRRTEXT
 70
     0
  9
$DRAGMODE
 70
     2
  9
$LTSCALE
 40
1.0
  9
$OSMODE
 70
    55
  9
$ATTMODE
 70
     1
  9
$TEXTSIZE
 40
2.5
  9
$TRACEWID
 40
1.0
  9
$TEXTSTYLE
  7
STANDARD
  9
$CLAYER
  8
AM_0
  9
$CELTYPE
  6
BYLAYER
  9
$CECOLOR
 62
   256
  9
$CELTSCALE
 40
1.0
  9
$DELOBJ
 70
     1
  9
$DISPSILH
 70
     0
  9
$DIMSCALE
 40
0.5
  9
$DIMASZ
 40
2.5
  9
$DIMEXO
 40
1.0
  9
$DIMDLI
 40
12.0
  9
$DIMRND
 40
0.0
  9
$DIMDLE
 40
0.0
  9
$DIMEXE
 40
1.0
  9
$DIMTP
 40
0.1
  9
$DIMTM
 40
0.1
  9
$DIMTXT
 40
3.2
  9
$DIMCEN
 40
0.0
  9
$DIMTSZ
 40
0.0
  9
$DIMTOL
 70
     0
  9
$DIMLIM
 70
     0
  9
$DIMTIH
 70
     0
  9
$DIMTOH
 70
     0
  9
$DIMSE1
 70
     0
  9
$DIMSE2
 70
     0
  9
$DIMTAD
 70
     3
  9
$DIMZIN
 70
     8
  9
$DIMBLK
  1
OPEN30
  9
$DIMASO
 70
     1
  9
$DIMSHO
 70
     1
  9
$DIMPOST
  1

  9
$DIMAPOST
  1
"
  9
$DIMALT
 70
     0
  9
$DIMALTD
 70
     2
  9
$DIMALTF
 40
0.0393701
  9
$DIMLFAC
 40
1.0
  9
$DIMTOFL
 70
     1
  9
$DIMTVP
 40
0.0
  9
$DIMTIX
 70
     0
  9
$DIMSOXD
 70
     0
  9
$DIMSAH
 70
     0
  9
$DIMBLK1
  1

  9
$DIMBLK2
  1

  9
$DIMSTYLE
  2
AM_JIS
  9
$DIMCLRD
 70
   256
  9
$DIMCLRE
 70
   256
  9
$DIMCLRT
 70
     2
  9
$DIMTFAC
 40
0.71
  9
$DIMGAP
 40
1.5
  9
$DIMJUST
 70
     0
  9
$DIMSD1
 70
     0
  9
$DIMSD2
 70
     0
  9
$DIMTOLJ
 70
     0
  9
$DIMTZIN
 70
     0
  9
$DIMALTZ
 70
     0
  9
$DIMALTTZ
 70
     0
  9
$DIMFIT
 70
     3
  9
$DIMUPT
 70
     0
  9
$DIMUNIT
 70
     2
  9
$DIMDEC
 70
     3
  9
$DIMTDEC
 70
     3
  9
$DIMALTU
 70
     2
  9
$DIMALTTD
 70
     2
  9
$DIMTXSTY
  7
ASAMI
  9
$DIMAUNIT
 70
     0
  9
$LUNITS
 70
     2
  9
$LUPREC
 70
     2
  9
$SKETCHINC
 40
1.0
  9
$FILLETRAD
 40
0.4
  9
$AUNITS
 70
     0
  9
$AUPREC
 70
     0
  9
$MENU
  1
.
  9
$ELEVATION
 40
0.0
  9
$PELEVATION
 40
0.0
  9
$THICKNESS
 40
0.0
  9
$LIMCHECK
 70
     1
  9
$BLIPMODE
 70
     0
  9
$CHAMFERA
 40
1.0
  9
$CHAMFERB
 40
1.0
  9
$CHAMFERC
 40
20.0
  9
$CHAMFERD
 40
0.0
  9
$SKPOLY
 70
     0
  9
$TDCREATE
 40
2452802.716478761
  9
$TDUPDATE
 40
2453152.414948368
  9
$TDINDWG
 40
0.9495295833
  9
$TDUSRTIMER
 40
0.9495295833
  9
$USRTIMER
 70
     1
  9
$ANGBASE
 50
0.0
  9
$ANGDIR
 70
     0
  9
$PDMODE
 70
     0
  9
$PDSIZE
 40
0.0
  9
$PLINEWID
 40
0.0
  9
$COORDS
 70
     1
  9
$SPLFRAME
 70
     0
  9
$SPLINETYPE
 70
     6
  9
$SPLINESEGS
 70
     8
  9
$ATTDIA
 70
     1
  9
$ATTREQ
 70
     1
  9
$HANDLING
 70
 12289
  9
$HANDSEED
  5
91EE
  9
$SURFTAB1
 70
     6
  9
$SURFTAB2
 70
     6
  9
$SURFTYPE
 70
     6
  9
$SURFU
 70
     6
  9
$SURFV
 70
     6
  9
$UCSNAME
  2

  9
$UCSORG
 10
-0.0000000000002682
 20
0.000000000000161
 30
0.0
  9
$UCSXDIR
 10
1.0
 20
0.000000000000002
 30
0.0
  9
$UCSYDIR
 10
-0.000000000000002
 20
1.0
 30
0.0
  9
$PUCSNAME
  2

  9
$PUCSORG
 10
0.0
 20
0.0
 30
0.0
  9
$PUCSXDIR
 10
1.0
 20
0.0
 30
0.0
  9
$PUCSYDIR
 10
0.0
 20
1.0
 30
0.0
  9
$USERI1
 70
     0
  9
$USERI2
 70
     0
  9
$USERI3
 70
     0
  9
$USERI4
 70
     0
  9
$USERI5
 70
     0
  9
$USERR1
 40
0.0
  9
$USERR2
 40
0.0
  9
$USERR3
 40
0.0
  9
$USERR4
 40
0.0
  9
$USERR5
 40
0.0
  9
$WORLDVIEW
 70
     1
  9
$SHADEDGE
 70
     3
  9
$SHADEDIF
 70
    70
  9
$TILEMODE
 70
     1
  9
$MAXACTVP
 70
    64
  9
$PINSBASE
 10
0.0
 20
0.0
 30
0.0
  9
$PLIMCHECK
 70
     0
  9
$PEXTMIN
 10
1.000000000000000E+20
 20
1.000000000000000E+20
 30
1.000000000000000E+20
  9
$PEXTMAX
 10
-1.000000000000000E+20
 20
-1.000000000000000E+20
 30
-1.000000000000000E+20
  9
$PLIMMIN
 10
0.0
 20
0.0
  9
$PLIMMAX
 10
841.0
 20
594.0
  9
$UNITMODE
 70
     0
  9
$VISRETAIN
 70
     1
  9
$PLINEGEN
 70
     0
  9
$PSLTSCALE
 70
     0
  9
$TREEDEPTH
 70
  3020
  9
$PICKSTYLE
 70
     0
  9
$CMLSTYLE
  2
STANDARD
  9
$CMLJUST
 70
     0
  9
$CMLSCALE
 40
20.0
  9
$PROXYGRAPHICS
 70
     1
  9
$MEASUREMENT
 70
     1
  0
ENDSEC
  0
SECTION
  2
CLASSES
  0
CLASS
  1
ACDBDICTIONARYWDFLT
  2
AcDbDictionaryWithDefault
  3
AutoCAD 2000
 90
        0
280
     0
281
     0
  0
CLASS
  1
ACDBPLACEHOLDER
  2
AcDbPlaceHolder
  3
AutoCAD 2000
 90
        0
280
     0
281
     0
  0
CLASS
  1
LAYOUT
  2
AcDbLayout
  3
AutoCAD 2000
 90
        0
280
     0
281
     0
  0
CLASS
  1
AMGSETTINGSOBJ
  2
AmgSettingsObj
  3
"AcadM|Product Description: AutoCAD Mechanical 2000|Company: Autodesk"
 90
        0
280
     0
281
     0
  0
CLASS
  1
ACME_DOCUMENT
  2
AcMeDbDoc
  3
AcMeServices
 90
        0
280
     0
281
     0
  0
CLASS
  1
ACMESCOPE
  2
AcMeScope
  3
AcMeServices
 90
        0
280
     0
281
     0
  0
CLASS
  1
ACMECOMMANDHISTORY
  2
AcMeCommandHistory
  3
AcMeServices
 90
        0
280
     0
281
     0
  0
CLASS
  1
DICTIONARYVAR
  2
AcDbDictionaryVar
  3
AutoCAD 2000
 90
        0
280
     0
281
     0
  0
CLASS
  1
ACIMSYSVARMAN
  2
AcImSysVarManager
  3
AcMeServices
 90
        0
280
     0
281
     0
  0
CLASS
  1
ACIMREALSYSVAR
  2
AcImRealSysVar
  3
AcMeServices
 90
        0
280
     0
281
     0
  0
CLASS
  1
ACIMINTSYSVAR
  2
AcImIntSysVar
  3
AcMeServices
 90
        0
280
     0
281
     0
  0
CLASS
  1
ACMEDRAWINGMAN
  2
AcMeDrawingMan
  3
AcMeServices
 90
        0
280
     0
281
     0
  0
CLASS
  1
ACMEVIEW
  2
AcMeView
  3
AcMeServices
 90
        0
280
     0
281
     0
  0
CLASS
  1
ACDBENTITYCACHE
  2
AcMeEntityCache
  3
AcMeServices
 90
        0
280
     0
281
     0
  0
CLASS
  1
GSMANAGER
  2
AcMeGSManager
  3
AcMeServices
 90
        0
280
     0
281
     0
  0
CLASS
  1
AmdtInternalReactor
  2
AmdtInternalReactor
  3
AcMeServices
 90
        0
280
     0
281
     0
  0
CLASS
  1
ACMESTATEMGR
  2
AcMeStateMgr
  3
AcMeServices
 90
        0
280
     0
281
     0
  0
CLASS
  1
ACME_DATABASE
  2
AcMeDbDatabase
  3
AcMeServices
 90
        0
280
     0
281
     0
  0
CLASS
  1
ACRFINSADJUSTERMGR
  2
AcRfInsAdjusterMgr
  3
AcMeServices
 90
        0
280
     0
281
     0
  0
CLASS
  1
ACMDATADICTIONARY
  2
AcmDataDictionary
  3
"AcmSymBB|Product Description: AutoCAD Mechanical 2000|Company: Autodesk"
 90
        0
280
     0
281
     0
  0
CLASS
  1
ACMDATAENTRYBLOCK
  2
AcmDataEntryBlock
  3
"AcmSymBB|Product Description: AutoCAD Mechanical 2000|Company: Autodesk"
 90
        0
280
     0
281
     0
  0
CLASS
  1
AMGOBJPROPCFG
  2
AmgObjPropCfg
  3
"AmgLay|Product Description: AutoCAD Mechanical 2000|Company: Autodesk"
 90
        1
280
     0
281
     0
  0
CLASS
  1
ACAMGFILTERDAT
  2
AcAmgFilterDat
  3
"AcadM|Product Description: AutoCAD Mechanical 2000|Company: Autodesk"
 90
        0
280
     0
281
     0
  0
CLASS
  1
LAYER_INDEX
  2
AcDbLayerIndex
  3
AutoCAD 2000
 90
        0
280
     0
281
     0
  0
CLASS
  1
IDBUFFER
  2
AcDbIdBuffer
  3
AutoCAD 2000
 90
        0
280
     0
281
     0
  0
CLASS
  1
ACIMSTRSYSVAR
  2
AcImStrSysVar
  3
AcMeServices
 90
        0
280
     0
281
     0
  0
CLASS
  1
ACMSTANDARDJIS
  2
AcmStandardJIS
  3
"AcmSymBB|Product Description: AutoCAD Mechanical 2000|Company: Autodesk"
 90
        0
280
     0
281
     0
  0
CLASS
  1
ACMSURFSTANDARDJIS
  2
AcmSurfTextStdJIS
  3
"AcmSymBB|Product Description: AutoCAD Mechanical 2000|Company: Autodesk"
 90
        0
280
     0
281
     0
  0
CLASS
  1
ACMFCFSTANDARDJIS
  2
AcmFCFStdJIS
  3
"AcmSymBB|Product Description: AutoCAD Mechanical 2000|Company: Autodesk"
 90
        0
280
     0
281
     0
  0
CLASS
  1
ACMWELDSTANDARDJIS
  2
AcmWeldingStdJIS
  3
"AcmSymBB|Product Description: AutoCAD Mechanical 2000|Company: Autodesk"
 90
        0
280
     0
281
     0
  0
CLASS
  1
ACMIDSTANDARDJIS
  2
AcmIdStdJIS
  3
"AcmSymBB|Product Description: AutoCAD Mechanical 2000|Company: Autodesk"
 90
        0
280
     0
281
     0
  0
CLASS
  1
ACMDATUMSTANDARDJIS
  2
AcmDatumStdJIS
  3
"AcmSymBB|Product Description: AutoCAD Mechanical 2000|Company: Autodesk"
 90
        0
280
     0
281
     0
  0
CLASS
  1
ACMBOMSTANDARDJIS
  2
AcmBOMStdJIS
  3
"AcmSymBB|Product Description: AutoCAD Mechanical 2000|Company: Autodesk"
 90
        0
280
     0
281
     0
  0
CLASS
  1
ACMSTANDARDANSI
  2
AcmStandardANSI
  3
"AcmSymBB|Product Description: AutoCAD Mechanical 2000|Company: Autodesk"
 90
        0
280
     0
281
     0
  0
CLASS
  1
ACMSURFSTANDARDANSI
  2
AcmSurfTextStdANSI
  3
"AcmSymBB|Product Description: AutoCAD Mechanical 2000|Company: Autodesk"
 90
        0
280
     0
281
     0
  0
CLASS
  1
ACMFCFSTANDARDANSI
  2
AcmFCFStdANSI
  3
"AcmSymBB|Product Description: AutoCAD Mechanical 2000|Company: Autodesk"
 90
        0
280
     0
281
     0
  0
CLASS
  1
ACMWELDSTANDARDANSI
  2
AcmWeldingStdANSI
  3
"AcmSymBB|Product Description: AutoCAD Mechanical 2000|Company: Autodesk"
 90
        0
280
     0
281
     0
  0
CLASS
  1
ACMIDSTANDARDANSI
  2
AcmIdStdANSI
  3
"AcmSymBB|Product Description: AutoCAD Mechanical 2000|Company: Autodesk"
 90
        0
280
     0
281
     0
  0
CLASS
  1
ACMDATUMSTANDARDANSI
  2
AcmDatumStdANSI
  3
"AcmSymBB|Product Description: AutoCAD Mechanical 2000|Company: Autodesk"
 90
        0
280
     0
281
     0
  0
CLASS
  1
ACMBOMSTANDARDANSI
  2
AcmBOMStdANSI
  3
"AcmSymBB|Product Description: AutoCAD Mechanical 2000|Company: Autodesk"
 90
        0
280
     0
281
     0
  0
CLASS
  1
ACMSTANDARDBSI
  2
AcmStandardBSI
  3
"AcmSymBB|Product Description: AutoCAD Mechanical 2000|Company: Autodesk"
 90
        0
280
     0
281
     0
  0
CLASS
  1
ACMSURFSTANDARDBSI
  2
AcmSurfTextStdBSI
  3
"AcmSymBB|Product Description: AutoCAD Mechanical 2000|Company: Autodesk"
 90
        0
280
     0
281
     0
  0
CLASS
  1
ACMFCFSTANDARDBSI
  2
AcmFCFStdBSI
  3
"AcmSymBB|Product Description: AutoCAD Mechanical 2000|Company: Autodesk"
 90
        0
280
     0
281
     0
  0
CLASS
  1
ACMWELDSTANDARDBSI
  2
AcmWeldingStdBSI
  3
"AcmSymBB|Product Description: AutoCAD Mechanical 2000|Company: Autodesk"
 90
        0
280
     0
281
     0
  0
CLASS
  1
ACMIDSTANDARDBSI
  2
AcmIdStdBSI
  3
"AcmSymBB|Product Description: AutoCAD Mechanical 2000|Company: Autodesk"
 90
        0
280
     0
281
     0
  0
CLASS
  1
ACMDATUMSTANDARDBSI
  2
AcmDatumStdBSI
  3
"AcmSymBB|Product Description: AutoCAD Mechanical 2000|Company: Autodesk"
 90
        0
280
     0
281
     0
  0
CLASS
  1
ACMBOMSTANDARDBSI
  2
AcmBOMStdBSI
  3
"AcmSymBB|Product Description: AutoCAD Mechanical 2000|Company: Autodesk"
 90
        0
280
     0
281
     0
  0
CLASS
  1
STDPART2D
  2
AmgStdPart
  3
"AmgStdPart|Product Description: AutoCAD Mechanical 2000|Company: Autodesk"
 90
     1023
280
     0
281
     1
  0
CLASS
  1
PLOTSETTINGS
  2
AcDbPlotSettings
  3
AutoCAD 2000
 90
        0
280
     0
281
     0
  0
CLASS
  1
LONG_TRANSACTION
  2
AcDbLongTransaction
  3
AutoCAD 2000
 90
        0
280
     0
281
     0
  0
CLASS
  1
LWPOLYLINE
  2
AcDbPolyline
  3
AutoCAD 2000
 90
        0
280
     0
281
     1
  0
CLASS
  1
HATCH
  2
AcDbHatch
  3
AutoCAD 2000
 90
        0
280
     0
281
     1
  0
CLASS
  1
XRECORD
  2
AcDbXrecord
  3
AutoCAD 2000
 90
        0
280
     0
281
     0
  0
ENDSEC
  0
SECTION
  2
TABLES
  0
TABLE
  2
VPORT
  5
8
330
0
100
AcDbSymbolTable
 70
     3
  0
VPORT
  5
9184
330
8
100
AcDbSymbolTableRecord
100
AcDbViewportTableRecord
  2
*ACTIVE
 70
     0
 10
0.0
 20
0.0
 11
1.0
 21
1.0
 12
-103.790402100441
 22
-16.725791799692
 13
0.0
 23
0.0
 14
2.5
 24
2.5
 15
10.0
 25
10.0
 16
0.0
 26
0.0
 36
1.0
 17
0.0
 27
0.0
 37
0.0
 40
207.4264502558163
 41
1.56570841889117
 42
50.0
 43
0.0
 44
0.0
 50
0.0
 51
0.0
 71
     0
 72
   100
 73
     1
 74
     3
 75
     0
 76
     0
 77
     0
 78
     0
  0
ENDTAB
  0
TABLE
  2
LTYPE
  5
5
330
0
100
AcDbSymbolTable
 70
    10
  0
LTYPE
  5
14
330
5
100
AcDbSymbolTableRecord
100
AcDbLinetypeTableRecord
  2
BYBLOCK
 70
     0
  3

 72
    65
 73
     0
 40
0.0
  0
LTYPE
  5
15
330
5
100
AcDbSymbolTableRecord
100
AcDbLinetypeTableRecord
  2
BYLAYER
 70
     0
  3

 72
    65
 73
     0
 40
0.0
  0
LTYPE
  5
16
330
5
100
AcDbSymbolTableRecord
100
AcDbLinetypeTableRecord
  2
CONTINUOUS
 70
     0
  3
Solid line
 72
    65
 73
     0
 40
0.0
  0
LTYPE
  5
4B
330
5
100
AcDbSymbolTableRecord
100
AcDbLinetypeTableRecord
  2
AM_ISO02W050
 70
     0
  3
__ __ __ __ __ __ __ __ __ __ __ __ __ __ __
 72
    65
 73
     2
 40
7.5
 49
6.0
 74
     0
 49
-1.5
 74
     0
  0
LTYPE
  5
4C
330
5
100
AcDbSymbolTableRecord
100
AcDbLinetypeTableRecord
  2
AM_ISO08W050
 70
     0
  3
____ . ____ . ____ . ____ . ____ . ____ . ____
 72
    65
 73
     4
 40
18.0
 49
12.0
 74
     0
 49
-1.5
 74
     0
 49
3.0
 74
     0
 49
-1.5
 74
     0
  0
LTYPE
  5
4D
330
5
100
AcDbSymbolTableRecord
100
AcDbLinetypeTableRecord
  2
AM_ISO09W050
 70
     0
  3
_____ . . _____ . . _____ . . ____ .. ____
 72
    65
 73
     6
 40
22.5
 49
12.0
 74
     0
 49
-1.5
 74
     0
 49
3.0
 74
     0
 49
-1.5
 74
     0
 49
3.0
 74
     0
 49
-1.5
 74
     0
  0
LTYPE
  5
4E
330
5
100
AcDbSymbolTableRecord
100
AcDbLinetypeTableRecord
  2
AMCONSTR
 70
     0
  3
_______________________
 72
    65
 73
     2
 40
9999.0
 49
9999.0
 74
     0
 49
0.0
 74
     0
  0
LTYPE
  5
4F
330
5
100
AcDbSymbolTableRecord
100
AcDbLinetypeTableRecord
  2
AM_ISO02W050X2
 70
     0
  3
 _ _ _ _ _ _ _ _ _ _ _ _
 72
    65
 73
     2
 40
3.75
 49
3.0
 74
     0
 49
-0.75
 74
     0
  0
LTYPE
  5
50
330
5
100
AcDbSymbolTableRecord
100
AcDbLinetypeTableRecord
  2
AM_ISO08W050X2
 70
     0
  3
__ . __ . __ . __ . __ . __
 72
    65
 73
     4
 40
9.0
 49
6.0
 74
     0
 49
-0.75
 74
     0
 49
1.5
 74
     0
 49
-0.75
 74
     0
  0
LTYPE
  5
53
330
5
100
AcDbSymbolTableRecord
100
AcDbLinetypeTableRecord
  2
AMZIGZAG
 70
     0
  3
/\/-/\/-/\/-/\/-/\/-/\/
 72
    65
 73
     2
 40
11.00009999999999
 49
0.0001
 74
     4
 75
   135
340
52
 46
0.04
 50
0.0
 44
0.0
 45
0.0
 49
-11.0
 74
     0
  0
LTYPE
  5
166
330
5
100
AcDbSymbolTableRecord
100
AcDbLinetypeTableRecord
  2
ACJISTGL
 70
     0
  3
_ _ _ _ _
 72
    65
 73
     2
 40
3.0
 49
2.0
 74
     0
 49
-1.0
 74
     0
  0
LTYPE
  5
26A
330
5
100
AcDbSymbolTableRecord
100
AcDbLinetypeTableRecord
  2
ACJISTGB
 70
     0
  3
__ . . __ . .
 72
    65
 73
     6
 40
9.0
 49
4.0
 74
     0
 49
-1.0
 74
     0
 49
1.0
 74
     0
 49
-1.0
 74
     0
 49
1.0
 74
     0
 49
-1.0
 74
     0
  0
ENDTAB
  0
TABLE
  2
LAYER
  5
2
330
0
100
AcDbSymbolTable
 70
    12
  0
LAYER
  5
10
330
2
100
AcDbSymbolTableRecord
100
AcDbLayerTableRecord
  2
0
 70
     0
 62
     7
  6
CONTINUOUS
  0
LAYER
  5
3F9
330
2
100
AcDbSymbolTableRecord
100
AcDbLayerTableRecord
  2
AM_0
 70
     0
 62
     7
  6
CONTINUOUS
  0
LAYER
  5
BA4
330
2
100
AcDbSymbolTableRecord
100
AcDbLayerTableRecord
  2
AM_5
 70
     0
 62
     3
  6
CONTINUOUS
  0
LAYER
  5
BA6
330
2
100
AcDbSymbolTableRecord
100
AcDbLayerTableRecord
  2
AM_7
 70
     0
 62
     4
  6
AM_ISO08W050
  0
LAYER
  5
E64
330
2
100
AcDbSymbolTableRecord
100
AcDbLayerTableRecord
  2
AM_6
 70
     0
 62
     2
  6
CONTINUOUS
  0
LAYER
  5
F4D
330
2
100
AcDbSymbolTableRecord
100
AcDbLayerTableRecord
  2
DEFPOINTS
 70
     0
 62
     7
  6
CONTINUOUS
  0
LAYER
  5
2382
330
2
100
AcDbSymbolTableRecord
100
AcDbLayerTableRecord
  2
AM_3
 70
     0
 62
     6
  6
ACJISTGL
  0
LAYER
  5
4E80
330
2
100
AcDbSymbolTableRecord
100
AcDbLayerTableRecord
  2
AM_11
 70
     0
 62
     3
  6
AM_ISO09W050
  0
LAYER
  5
502A
330
2
100
AcDbSymbolTableRecord
100
AcDbLayerTableRecord
  2
PV0001_1
 70
     0
 62
     7
  6
CONTINUOUS
  0
LAYER
  5
78BD
330
2
100
AcDbSymbolTableRecord
100
AcDbLayerTableRecord
  2
2
 70
     0
 62
     7
  6
CONTINUOUS
  0
LAYER
  5
78BE
330
2
100
AcDbSymbolTableRecord
100
AcDbLayerTableRecord
  2
1
 70
     0
 62
     7
  6
CONTINUOUS
  0
LAYER
  5
78BF
330
2
100
AcDbSymbolTableRecord
100
AcDbLayerTableRecord
  2
AM_4
 70
     0
 62
     3
  6
CONTINUOUS
  0
ENDTAB
  0
TABLE
  2
STYLE
  5
3
330
0
100
AcDbSymbolTable
 70
     5
  0
STYLE
  5
11
330
3
100
AcDbSymbolTableRecord
100
AcDbTextStyleTableRecord
  2
STANDARD
 70
     0
 40
0.0
 41
1.0
 50
0.0
 71
     0
 42
2.5
  3
simplex.shx
  4
EXTFONT.SHX
  0
STYLE
  5
52
330
3
100
AcDbSymbolTableRecord
100
AcDbTextStyleTableRecord
  2

 70
     1
 40
0.0
 41
1.0
 50
0.0
 71
     0
 42
2.5
  3
ltypeshp.shx
  4

  0
STYLE
  5
6B
330
3
100
AcDbSymbolTableRecord
100
AcDbTextStyleTableRecord
  2
ASAMI
 70
     0
 40
0.0
 41
1.0
 50
0.0
 71
     0
 42
2.5
  3
simplex.shx
  4
EXTFONT.SHX
  0
STYLE
  5
262
330
3
100
AcDbSymbolTableRecord
100
AcDbTextStyleTableRecord
  2
ACJISTS
 70
     0
 40
1.0
 41
1.0
 50
0.0
 71
     0
 42
2.5
  3
simplex.shx
  4
bigfont.shx
  0
STYLE
  5
269
330
3
100
AcDbSymbolTableRecord
100
AcDbTextStyleTableRecord
  2
ACJISGDT
 70
     0
 40
0.0
 41
1.0
 50
0.0
 71
     0
 42
2.5
  3
amgdtans.shx
  4

  0
ENDTAB
  0
TABLE
  2
VIEW
  5
6
330
0
100
AcDbSymbolTable
 70
     0
  0
ENDTAB
  0
TABLE
  2
UCS
  5
7
330
0
100
AcDbSymbolTable
 70
     0
  0
ENDTAB
  0
TABLE
  2
APPID
  5
9
330
0
100
AcDbSymbolTable
 70
    24
  0
APPID
  5
12
330
9
100
AcDbSymbolTableRecord
100
AcDbRegAppTableRecord
  2
ACAD
 70
     0
  0
APPID
  5
30
330
9
100
AcDbSymbolTableRecord
100
AcDbRegAppTableRecord
  2
MCAD_NO_VIS
 70
     0
  0
APPID
  5
31
330
9
100
AcDbSymbolTableRecord
100
AcDbRegAppTableRecord
  2
ACAD_TEMP_GRAPHIC
 70
     0
  0
APPID
  5
2C2
330
9
100
AcDbSymbolTableRecord
100
AcDbRegAppTableRecord
  2
GENIUS_GENDTOL_13
 70
     0
  0
APPID
  5
339
330
9
100
AcDbSymbolTableRecord
100
AcDbRegAppTableRecord
  2
GENIUS_GENODEF_13
 70
     0
  0
APPID
  5
33A
330
9
100
AcDbSymbolTableRecord
100
AcDbRegAppTableRecord
  2
GENIUS_GENOBJ-N-RSBK_13
 70
     0
  0
APPID
  5
33B
330
9
100
AcDbSymbolTableRecord
100
AcDbRegAppTableRecord
  2
GENIUS_GENOBJ-N-LIB_13
 70
     0
  0
APPID
  5
33C
330
9
100
AcDbSymbolTableRecord
100
AcDbRegAppTableRecord
  2
GENIUS_GENSCALE_13
 70
     0
  0
APPID
  5
378
330
9
100
AcDbSymbolTableRecord
100
AcDbRegAppTableRecord
  2
GENIUS_GENDIMSH_14
 70
     0
  0
APPID
  5
BB0
330
9
100
AcDbSymbolTableRecord
100
AcDbRegAppTableRecord
  2
GENIUS_GENOBJ-N-CEN_13
 70
     0
  0
APPID
  5
BB1
330
9
100
AcDbSymbolTableRecord
100
AcDbRegAppTableRecord
  2
GENIUS_GENFIL_13
 70
     0
  0
APPID
  5
BB2
330
9
100
AcDbSymbolTableRecord
100
AcDbRegAppTableRecord
  2
GENIUS_GENOBJ-N-CHA_13
 70
     0
  0
APPID
  5
1FAF
330
9
100
AcDbSymbolTableRecord
100
AcDbRegAppTableRecord
  2
GENIUS_GENOBJ-N-CRS_13
 70
     0
  0
APPID
  5
1FB0
330
9
100
AcDbSymbolTableRecord
100
AcDbRegAppTableRecord
  2
GENIUS_GENOENT_13
 70
     0
  0
APPID
  5
1FB1
330
9
100
AcDbSymbolTableRecord
100
AcDbRegAppTableRecord
  2
GENIUS_GENOREF_13
 70
     0
  0
APPID
  5
1FB2
330
9
100
AcDbSymbolTableRecord
100
AcDbRegAppTableRecord
  2
GENIUS_GENOLIS_13
 70
     0
  0
APPID
  5
1FB7
330
9
100
AcDbSymbolTableRecord
100
AcDbRegAppTableRecord
  2
GENIUS_GENOBJ-N-FIL_13
 70
     0
  0
APPID
  5
22A8
330
9
100
AcDbSymbolTableRecord
100
AcDbRegAppTableRecord
  2
GEVID1056506048
 70
     0
  0
APPID
  5
22A9
330
9
100
AcDbSymbolTableRecord
100
AcDbRegAppTableRecord
  2
GEVDC
 70
     0
  0
APPID
  5
22AC
330
9
100
AcDbSymbolTableRecord
100
AcDbRegAppTableRecord
  2
GENIUS_GENBH_13
 70
     0
  0
APPID
  5
22B8
330
9
100
AcDbSymbolTableRecord
100
AcDbRegAppTableRecord
  2
GENIUS_GENOBJ-NBEHI-BHF_13
 70
     0
  0
APPID
  5
22BA
330
9
100
AcDbSymbolTableRecord
100
AcDbRegAppTableRecord
  2
GENIUS_GENOBJ-NBEHI-BHB_13
 70
     0
  0
APPID
  5
35C9
330
9
100
AcDbSymbolTableRecord
100
AcDbRegAppTableRecord
  2
GENIUS_GENREC_14
 70
     0
  0
APPID
  5
35CA
330
9
100
AcDbSymbolTableRecord
100
AcDbRegAppTableRecord
  2
GENIUS_GENOBJ-N-REC_13
 70
     0
  0
ENDTAB
  0
TABLE
  2
DIMSTYLE
  5
A
330
0
100
AcDbSymbolTable
 70
    13
  0
DIMSTYLE
105
58
330
A
100
AcDbSymbolTableRecord
100
AcDbDimStyleTableRecord
  2
AM_JIS
 70
     0
  3

  4
"
  5
OPEN30
  6

  7

 40
0.5
 41
2.5
 42
1.0
 43
12.0
 44
1.0
 45
0.0
 46
0.0
 47
0.1
 48
0.1
140
3.2
141
0.0
142
0.0
143
0.0393701
144
1.0
145
0.0
146
0.71
147
1.5
 71
     0
 72
     0
 73
     0
 74
     0
 75
     0
 76
     0
 77
     3
 78
     8
170
     0
171
     2
172
     1
173
     0
174
     0
175
     0
176
   256
177
   256
178
     2
270
     2
271
     3
272
     3
273
     2
274
     2
340
6B
275
     0
280
     0
281
     0
282
     0
283
     0
284
     0
285
     0
286
     0
287
     3
288
     0
  0
DIMSTYLE
105
5F
330
A
100
AcDbSymbolTableRecord
100
AcDbDimStyleTableRecord
  2
AM_JIS$3
 70
     0
  3

  4
"
  5
OPEN30
  6

  7

 40
0.5
 41
2.5
 42
1.0
 43
10.0
 44
1.0
 45
0.0
 46
0.0
 47
0.1
 48
0.1
140
3.2
141
0.0
142
0.0
143
0.0393701
144
1.0
145
0.0
146
0.71
147
1.5
 71
     0
 72
     0
 73
     0
 74
     1
 75
     0
 76
     0
 77
     3
 78
     8
170
     0
171
     2
172
     0
173
     0
174
     0
175
     0
176
   256
177
   256
178
     2
270
     2
271
     2
272
     3
273
     2
274
     2
340
6B
275
     0
280
     0
281
     0
282
     0
283
     0
284
     0
285
     0
286
     0
287
     0
288
     1
  0
DIMSTYLE
105
60
330
A
100
AcDbSymbolTableRecord
100
AcDbDimStyleTableRecord
  2
AM_JIS$4
 70
     0
  3

  4
"
  5
OPEN30
  6

  7

 40
0.5
 41
2.5
 42
1.0
 43
10.0
 44
1.0
 45
0.0
 46
0.0
 47
0.1
 48
0.1
140
3.2
141
0.0
142
0.0
143
0.0393701
144
1.0
145
0.0
146
0.71
147
1.5
 71
     0
 72
     0
 73
     0
 74
     1
 75
     0
 76
     0
 77
     3
 78
     8
170
     0
171
     2
172
     0
173
     0
174
     0
175
     0
176
   256
177
   256
178
     2
270
     2
271
     2
272
     3
273
     2
274
     2
340
6B
275
     0
280
     0
281
     0
282
     0
283
     0
284
     0
285
     0
286
     0
287
     0
288
     1
  0
DIMSTYLE
105
61
330
A
100
AcDbSymbolTableRecord
100
AcDbDimStyleTableRecord
  2
AM_JIS$6
 70
     0
  3

  4
"
  5
OPEN30
  6

  7

 40
0.5
 41
2.5
 42
1.0
 43
10.0
 44
1.0
 45
0.0
 46
0.0
 47
0.1
 48
0.1
140
3.2
141
0.0
142
0.0
143
0.0393701
144
1.0
145
0.0
146
0.71
147
1.5
 71
     0
 72
     0
 73
     0
 74
     0
 75
     0
 76
     0
 77
     0
 78
     8
170
     0
171
     2
172
     1
173
     0
174
     0
175
     0
176
   256
177
   256
178
     2
270
     2
271
     2
272
     2
273
     2
274
     2
340
6B
275
     0
280
     0
281
     0
282
     0
283
     0
284
     0
285
     0
286
     0
287
     3
288
     0
  0
DIMSTYLE
105
62
330
A
100
AcDbSymbolTableRecord
100
AcDbDimStyleTableRecord
  2
AM_JIS$7
 70
     0
  3

  4
"
  5
OPEN30
  6

  7

 40
0.5
 41
2.5
 42
1.0
 43
10.0
 44
1.0
 45
0.0
 46
0.0
 47
0.1
 48
0.1
140
3.2
141
0.0
142
0.0
143
0.0393701
144
1.0
145
0.0
146
0.71
147
1.5
 71
     0
 72
     0
 73
     0
 74
     0
 75
     0
 76
     0
 77
     3
 78
     8
170
     0
171
     2
172
     1
173
     0
174
     0
175
     0
176
   256
177
   256
178
     2
270
     2
271
     2
272
     3
273
     2
274
     2
340
6B
275
     0
280
     0
281
     0
282
     0
283
     0
284
     0
285
     0
286
     0
287
     3
288
     0
  0
DIMSTYLE
105
63
330
A
100
AcDbSymbolTableRecord
100
AcDbDimStyleTableRecord
  2
AM_JIS$SF
 70
     0
  3

  4
"
  5
OPEN30
  6

  7

 40
0.5
 41
2.5
 42
1.0
 43
10.0
 44
1.0
 45
0.0
 46
0.0
 47
0.1
 48
0.1
140
3.2
141
0.0
142
0.0
143
0.0393701
144
1.0
145
0.0
146
0.71
147
1.5
 71
     0
 72
     0
 73
     0
 74
     0
 75
     1
 76
     1
 77
     3
 78
     8
170
     0
171
     2
172
     1
173
     0
174
     0
175
     0
176
   256
177
   256
178
     2
270
     2
271
     2
272
     2
273
     2
274
     2
340
6B
275
     0
280
     0
281
     0
282
     0
283
     0
284
     0
285
     0
286
     0
287
     3
288
     0
  0
DIMSTYLE
105
68
330
A
100
AcDbSymbolTableRecord
100
AcDbDimStyleTableRecord
  2
AM_JIS$SH
 70
     0
  3

  4
"
  5

  6
GENAXEH
  7
OPEN30
 40
0.5
 41
2.5
 42
1.0
 43
10.0
 44
1.0
 45
0.0
 46
0.0
 47
0.1
 48
0.1
140
3.2
141
0.0
142
0.0
143
0.0393701
144
2.0
145
0.0
146
0.71
147
1.5
 71
     0
 72
     0
 73
     0
 74
     0
 75
     1
 76
     1
 77
     3
 78
     8
170
     0
171
     2
172
     1
173
     1
174
     0
175
     0
176
   256
177
   256
178
     2
270
     2
271
     2
272
     2
273
     2
274
     2
340
6B
275
     0
280
     0
281
     0
282
     0
283
     0
284
     0
285
     0
286
     0
287
     3
288
     0
  0
DIMSTYLE
105
B34
330
A
100
AcDbSymbolTableRecord
100
AcDbDimStyleTableRecord
  2
AM_JIS$2
 70
     0
  3

  4
"
  5
OPEN30
  6

  7

 40
0.5
 41
2.5
 42
1.0
 43
12.0
 44
1.0
 45
0.0
 46
0.0
 47
0.1
 48
0.1
140
3.2
141
0.0
142
0.0
143
0.0393701
144
1.0
145
0.0
146
0.71
147
1.5
 71
     0
 72
     0
 73
     0
 74
     0
 75
     0
 76
     0
 77
     3
 78
     8
170
     0
171
     2
172
     1
173
     0
174
     0
175
     0
176
   256
177
   256
178
     2
270
     2
271
     3
272
     3
273
     2
274
     2
340
6B
275
     0
280
     0
281
     0
282
     0
283
     0
284
     0
285
     0
286
     0
287
     3
288
     0
  0
DIMSTYLE
105
3B48
102
{ACAD_REACTORS
330
8981
330
8A58
330
8B23
330
8BC1
330
8C51
330
8CEF
330
8D84
102
}
330
A
100
AcDbSymbolTableRecord
100
AcDbDimStyleTableRecord
  2
AM_JIS$0
 70
     0
  3

  4
"
  5
OPEN30
  6

  7

 40
1.0
 41
2.5
 42
0.0
 43
10.0
 44
1.0
 45
0.0
 46
0.0
 47
0.1
 48
0.1000000001
140
3.799999999999999
141
0.0
142
0.0
143
0.0393701
144
1.0
145
0.0
146
0.71
147
1.5
 71
     0
 72
     0
 73
     0
 74
     0
 75
     0
 76
     0
 77
     3
 78
     1
170
     0
171
     2
172
     1
173
     0
174
     0
175
     0
176
     3
177
     3
178
     2
270
     2
271
     2
272
     2
273
     2
274
     2
340
11
275
     1
280
     0
281
     0
282
     0
283
     0
284
     8
285
     0
286
     0
287
     0
288
     0
  0
DIMSTYLE
105
502B
330
A
100
AcDbSymbolTableRecord
100
AcDbDimStyleTableRecord
  2
AM_JISORG-1P0$2
 70
     0
  3

  4
"
  5
OPEN30
  6

  7

 40
1.0
 41
2.5
 42
0.0
 43
10.0
 44
1.0
 45
0.0
 46
0.0
 47
0.1
 48
0.1000000001
140
3.799999999999999
141
0.0
142
0.0
143
0.0393701
144
-1.000000047579403
145
0.0
146
0.71
147
1.5
 71
     0
 72
     0
 73
     0
 74
     0
 75
     0
 76
     0
 77
     3
 78
     1
170
     0
171
     2
172
     1
173
     0
174
     0
175
     0
176
     3
177
     3
178
     2
270
     2
271
     2
272
     2
273
     2
274
     2
340
11
275
     1
280
     0
281
     0
282
     0
283
     0
284
     8
285
     0
286
     0
287
     0
288
     0
  0
DIMSTYLE
105
502C
330
A
100
AcDbSymbolTableRecord
100
AcDbDimStyleTableRecord
  2
AM_JISORG0P5$0
 70
     0
  3

  4
"
  5
OPEN30
  6

  7

 40
1.0
 41
2.5
 42
0.0
 43
10.0
 44
1.0
 45
0.0
 46
0.0
 47
0.1
 48
0.1000000001
140
3.799999999999999
141
0.0
142
0.0
143
0.0393701
144
0.5000003785514306
145
0.0
146
0.71
147
1.5
 71
     0
 72
     0
 73
     0
 74
     0
 75
     0
 76
     0
 77
     3
 78
     1
170
     0
171
     2
172
     1
173
     0
174
     0
175
     0
176
     3
177
     3
178
     2
270
     2
271
     2
272
     2
273
     2
274
     2
340
11
275
     1
280
     0
281
     0
282
     0
283
     0
284
     8
285
     0
286
     0
287
     0
288
     0
  0
DIMSTYLE
105
502D
330
A
100
AcDbSymbolTableRecord
100
AcDbDimStyleTableRecord
  2
AM_JISORG0P2$4
 70
     0
  3

  4
"
  5
OPEN30
  6

  7

 40
1.0
 41
2.5
 42
0.0
 43
10.0
 44
1.0
 45
0.0
 46
0.0
 47
0.1
 48
0.1000000001
140
3.799999999999999
141
0.0
142
0.0
143
0.0393701
144
0.2
145
0.0
146
0.71
147
1.5
 71
     0
 72
     0
 73
     0
 74
     0
 75
     0
 76
     0
 77
     3
 78
     1
170
     0
171
     2
172
     1
173
     0
174
     0
175
     0
176
     3
177
     3
178
     2
270
     2
271
     2
272
     2
273
     2
274
     2
340
11
275
     1
280
     0
281
     0
282
     0
283
     0
284
     8
285
     0
286
     0
287
     0
288
     1
  0
DIMSTYLE
105
78C0
330
A
100
AcDbSymbolTableRecord
100
AcDbDimStyleTableRecord
  2
AM_ISO
 70
     0
  3

  4
"
  5

  6

  7

 40
1.0
 41
2.5
 42
1.0
 43
10.0
 44
1.0
 45
0.0
 46
0.0
 47
0.1
 48
0.1
140
3.5
141
0.0
142
0.0
143
0.0393701
144
1.0
145
0.0
146
0.71
147
1.5
 71
     0
 72
     0
 73
     0
 74
     0
 75
     0
 76
     0
 77
     1
 78
     8
170
     0
171
     2
172
     1
173
     0
174
     0
175
     0
176
   256
177
   256
178
     2
270
     2
271
     2
272
     3
273
     2
274
     4
340
11
275
     0
280
     0
281
     0
282
     0
283
     0
284
     8
285
     0
286
     0
287
     3
288
     0
  0
ENDTAB
  0
TABLE
  2
BLOCK_RECORD
  5
1
330
0
100
AcDbSymbolTable
 70
    12
  0
BLOCK_RECORD
  5
1F
102
{ACAD_XDICTIONARY
360
74
102
}
330
1
100
AcDbSymbolTableRecord
100
AcDbBlockTableRecord
  2
*MODEL_SPACE
  0
BLOCK_RECORD
  5
101
102
{ACAD_XDICTIONARY
360
91AD
102
}
330
1
100
AcDbSymbolTableRecord
100
AcDbBlockTableRecord
  2
*PAPER_SPACE
  0
BLOCK_RECORD
  5
59
330
1
100
AcDbSymbolTableRecord
100
AcDbBlockTableRecord
  2
_OPEN30
  0
BLOCK_RECORD
  5
64
330
1
100
AcDbSymbolTableRecord
100
AcDbBlockTableRecord
  2
GENAXEH
  0
BLOCK_RECORD
  5
8982
330
1
100
AcDbSymbolTableRecord
100
AcDbBlockTableRecord
  2
*D5
  0
BLOCK_RECORD
  5
8A59
330
1
100
AcDbSymbolTableRecord
100
AcDbBlockTableRecord
  2
*D6
  0
BLOCK_RECORD
  5
8B24
330
1
100
AcDbSymbolTableRecord
100
AcDbBlockTableRecord
  2
*D7
  0
BLOCK_RECORD
  5
8BC2
330
1
100
AcDbSymbolTableRecord
100
AcDbBlockTableRecord
  2
*D8
  0
BLOCK_RECORD
  5
8C52
330
1
100
AcDbSymbolTableRecord
100
AcDbBlockTableRecord
  2
*D9
  0
BLOCK_RECORD
  5
8CF0
330
1
100
AcDbSymbolTableRecord
100
AcDbBlockTableRecord
  2
*D10
  0
BLOCK_RECORD
  5
8D85
330
1
100
AcDbSymbolTableRecord
100
AcDbBlockTableRecord
  2
*D11
  0
ENDTAB
  0
ENDSEC
  0
SECTION
  2
BLOCKS
  0
BLOCK
  5
20
330
1F
100
AcDbEntity
  8
0
100
AcDbBlockBegin
  2
*MODEL_SPACE
 70
     0
 10
0.0
 20
0.0
 30
0.0
  3
*MODEL_SPACE
  1

  0
ENDBLK
  5
21
330
1F
100
AcDbEntity
  8
0
100
AcDbBlockEnd
  0
BLOCK
  5
103
330
101
100
AcDbEntity
 67
     1
  8
0
100
AcDbBlockBegin
  2
*PAPER_SPACE
 70
     0
 10
0.0
 20
0.0
 30
0.0
  3
*PAPER_SPACE
  1

  0
ENDBLK
  5
104
330
101
100
AcDbEntity
 67
     1
  8
0
100
AcDbBlockEnd
  0
BLOCK
  5
5D
330
59
100
AcDbEntity
  8
0
100
AcDbBlockBegin
  2
_OPEN30
 70
     0
 10
0.0
 20
0.0
 30
0.0
  3
_OPEN30
  1

  0
LINE
  5
5A
330
59
100
AcDbEntity
  8
0
 62
     0
100
AcDbLine
 10
-1.0
 20
0.26794919
 30
0.0
 11
0.0
 21
0.0
 31
0.0
  0
LINE
  5
5B
330
59
100
AcDbEntity
  8
0
 62
     0
100
AcDbLine
 10
0.0
 20
0.0
 30
0.0
 11
-1.0
 21
-0.26794919
 31
0.0
  0
LINE
  5
5C
330
59
100
AcDbEntity
  8
0
 62
     0
100
AcDbLine
 10
0.0
 20
0.0
 30
0.0
 11
-1.0
 21
0.0
 31
0.0
  0
ENDBLK
  5
5E
330
59
100
AcDbEntity
  8
0
100
AcDbBlockEnd
  0
BLOCK
  5
66
330
64
100
AcDbEntity
  8
0
100
AcDbBlockBegin
  2
GENAXEH
 70
     0
 10
0.0
 20
0.0
 30
0.0
  3
GENAXEH
  1

  0
LINE
  5
65
330
64
100
AcDbEntity
  8
0
100
AcDbLine
 10
-1.0
 20
0.0
 30
0.0
 11
1.0
 21
0.0
 31
0.0
  0
ENDBLK
  5
67
330
64
100
AcDbEntity
  8
0
100
AcDbBlockEnd
  0
BLOCK
  5
898C
330
8982
100
AcDbEntity
  8
0
100
AcDbBlockBegin
  2
*D5
 70
     1
 10
0.0
 20
0.0
 30
0.0
  3
*D5
  1

  0
LINE
  5
91AF
330
8982
100
AcDbEntity
  8
AM_5
100
AcDbLine
 10
-0.000000000000256
 20
1.00000000000017
 30
0.0
 11
-0.00000000000026
 21
22.62287547337046
 31
0.0
  0
LINE
  5
91B0
330
8982
100
AcDbEntity
  8
AM_5
100
AcDbLine
 10
-20.50000762940033
 20
11.00000000000008
 30
0.0
 11
-20.50000762940034
 21
22.62287547337046
 31
0.0
  0
LINE
  5
91B1
330
8982
100
AcDbEntity
  8
AM_5
100
AcDbLine
 10
-2.500000000000259
 20
21.62287547337046
 30
0.0
 11
-18.00000762940033
 21
21.62287547337045
 31
0.0
  0
INSERT
  5
91B2
330
8982
100
AcDbEntity
  8
AM_5
100
AcDbBlockReference
  2
_OPEN30
 10
-0.0000000000002598
 20
21.62287547337046
 30
0.0
 41
2.5
 42
2.5
 43
2.5
  0
INSERT
  5
91B3
330
8982
100
AcDbEntity
  8
AM_5
100
AcDbBlockReference
  2
_OPEN30
 10
-20.50000762940033
 20
21.62287547337045
 30
0.0
 41
2.5
 42
2.5
 43
2.5
 50
180.0
  0
MTEXT
  5
91B4
330
8982
100
AcDbEntity
  8
AM_5
 62
     2
100
AcDbMText
 10
-10.2500038147003
 20
24.22287547337046
 30
0.0
 40
3.2
 41
0.0
 71
     5
 72
     1
  1
20
  7
ASAMI
  0
POINT
  5
91B5
330
8982
100
AcDbEntity
  8
DEFPOINTS
 62
     0
100
AcDbPoint
 10
-0.0000000000002558
 20
0.0000000000001705
 30
0.0
  0
POINT
  5
91B6
330
8982
100
AcDbEntity
  8
DEFPOINTS
 62
     0
100
AcDbPoint
 10
-20.50000762940031
 20
10.00000000000012
 30
0.0
  0
POINT
  5
91B7
330
8982
100
AcDbEntity
  8
DEFPOINTS
 62
     0
100
AcDbPoint
 10
-20.50000762940029
 20
21.62287547337049
 30
0.0
  0
ENDBLK
  5
898D
330
8982
100
AcDbEntity
  8
0
100
AcDbBlockEnd
  0
BLOCK
  5
8A63
330
8A59
100
AcDbEntity
  8
0
100
AcDbBlockBegin
  2
*D6
 70
     1
 10
0.0
 20
0.0
 30
0.0
  3
*D6
  1

  0
LINE
  5
91B8
330
8A59
100
AcDbEntity
  8
AM_5
100
AcDbLine
 10
-9.000000000000305
 20
10.00000000000012
 30
0.0
 11
15.51073602861441
 21
10.00000000000016
 31
0.0
  0
LINE
  5
91B9
330
8A59
100
AcDbEntity
  8
AM_5
100
AcDbLine
 10
-9.000000437114202
 20
-9.999999999999863
 30
0.0
 11
15.51073602861445
 21
-9.999999999999817
 31
0.0
  0
LINE
  5
91BA
330
8A59
100
AcDbEntity
  8
AM_5
100
AcDbLine
 10
14.51073602861441
 20
7.500000000000167
 30
0.0
 11
14.51073602861444
 21
-7.499999999999817
 31
0.0
  0
INSERT
  5
91BB
330
8A59
100
AcDbEntity
  8
AM_5
100
AcDbBlockReference
  2
_OPEN30
 10
14.51073602861441
 20
10.00000000000016
 30
0.0
 41
2.5
 42
2.5
 43
2.5
 50
90.0000000000001
  0
INSERT
  5
91BC
330
8A59
100
AcDbEntity
  8
AM_5
100
AcDbBlockReference
  2
_OPEN30
 10
14.51073602861445
 20
-9.999999999999818
 30
0.0
 41
2.5
 42
2.5
 43
2.5
 50
270.0000000000001
  0
MTEXT
  5
91BD
330
8A59
100
AcDbEntity
  8
AM_5
 62
     2
100
AcDbMText
 10
11.91073602861443
 20
0.0000000000001692
 30
0.0
 40
3.2
 41
0.0
 71
     5
 72
     1
  1
%%c20
  7
ASAMI
 11
-0.000000000000002
 21
1.0
 31
0.0
  0
POINT
  5
91BE
330
8A59
100
AcDbEntity
  8
DEFPOINTS
 62
     0
100
AcDbPoint
 10
-10.00000000000028
 20
10.00000000000014
 30
0.0
  0
POINT
  5
91BF
330
8A59
100
AcDbEntity
  8
DEFPOINTS
 62
     0
100
AcDbPoint
 10
-10.00000043711422
 20
-9.999999999999843
 30
0.0
  0
POINT
  5
91C0
330
8A59
100
AcDbEntity
  8
DEFPOINTS
 62
     0
100
AcDbPoint
 10
14.51073602861443
 20
-9.99999999999985
 30
0.0
  0
ENDBLK
  5
8A64
330
8A59
100
AcDbEntity
  8
0
100
AcDbBlockEnd
  0
BLOCK
  5
8B2E
330
8B24
100
AcDbEntity
  8
0
100
AcDbBlockBegin
  2
*D7
 70
     1
 10
0.0
 20
0.0
 30
0.0
  3
*D7
  1

  0
LINE
  5
91C1
330
8B24
100
AcDbEntity
  8
AM_5
100
AcDbLine
 10
-248.0000000000002
 20
12.49999999999914
 30
0.0
 11
-262.3212676853273
 21
12.49999999999912
 31
0.0
  0
LINE
  5
91C2
330
8B24
100
AcDbEntity
  8
AM_5
100
AcDbLine
 10
-248.0000152587801
 20
-12.50003051758087
 30
0.0
 11
-262.3212676853273
 21
-12.50003051758089
 31
0.0
  0
LINE
  5
91C3
330
8B24
100
AcDbEntity
  8
AM_5
100
AcDbLine
 10
-261.3212676853273
 20
9.999999999999118
 30
0.0
 11
-261.3212676853273
 21
-10.00003051758089
 31
0.0
  0
INSERT
  5
91C4
330
8B24
100
AcDbEntity
  8
AM_5
100
AcDbBlockReference
  2
_OPEN30
 10
-261.3212676853273
 20
12.49999999999912
 30
0.0
 41
2.5
 42
2.5
 43
2.5
 50
90.0000000000001
  0
INSERT
  5
91C5
330
8B24
100
AcDbEntity
  8
AM_5
100
AcDbBlockReference
  2
_OPEN30
 10
-261.3212676853273
 20
-12.50003051758089
 30
0.0
 41
2.5
 42
2.5
 43
2.5
 50
270.0000000000001
  0
MTEXT
  5
91C6
330
8B24
100
AcDbEntity
  8
AM_5
 62
     2
100
AcDbMText
 10
-263.9212676853273
 20
-0.0000152587908835
 30
0.0
 40
3.2
 41
0.0
 71
     5
 72
     1
  1
%%c25
  7
ASAMI
 11
-0.000000000000002
 21
1.0
 31
0.0
  0
POINT
  5
91C7
330
8B24
100
AcDbEntity
  8
DEFPOINTS
 62
     0
100
AcDbPoint
 10
-247.0000000000002
 20
12.49999999999969
 30
0.0
  0
POINT
  5
91C8
330
8B24
100
AcDbEntity
  8
DEFPOINTS
 62
     0
100
AcDbPoint
 10
-247.0000152587802
 20
-12.50003051758032
 30
0.0
  0
POINT
  5
91C9
330
8B24
100
AcDbEntity
  8
DEFPOINTS
 62
     0
100
AcDbPoint
 10
-261.3212676853273
 20
-12.50003051758031
 30
0.0
  0
ENDBLK
  5
8B2F
330
8B24
100
AcDbEntity
  8
0
100
AcDbBlockEnd
  0
BLOCK
  5
8BCC
330
8BC2
100
AcDbEntity
  8
0
100
AcDbBlockBegin
  2
*D8
 70
     1
 10
0.0
 20
0.0
 30
0.0
  3
*D8
  1

  0
LINE
  5
91CA
330
8BC2
100
AcDbEntity
  8
AM_5
100
AcDbLine
 10
-0.000000000000268
 20
-0.9999999999998436
 30
0.0
 11
-0.0000000000002275
 21
-21.66931786875571
 31
0.0
  0
LINE
  5
91CB
330
8BC2
100
AcDbEntity
  8
AM_5
100
AcDbLine
 10
-40.01630401611024
 20
-9.999999999999996
 30
0.0
 11
-40.01630401611023
 21
-21.66931786875579
 31
0.0
  0
LINE
  5
91CC
330
8BC2
100
AcDbEntity
  8
AM_5
100
AcDbLine
 10
-2.500000000000229
 20
-20.66931786875571
 30
0.0
 11
-37.51630401611022
 21
-20.66931786875578
 31
0.0
  0
INSERT
  5
91CD
330
8BC2
100
AcDbEntity
  8
AM_5
100
AcDbBlockReference
  2
_OPEN30
 10
-0.0000000000002295
 20
-20.66931786875571
 30
0.0
 41
2.5
 42
2.5
 43
2.5
 50
0.0000000000001018
  0
INSERT
  5
91CE
330
8BC2
100
AcDbEntity
  8
AM_5
100
AcDbBlockReference
  2
_OPEN30
 10
-40.01630401611023
 20
-20.66931786875579
 30
0.0
 41
2.5
 42
2.5
 43
2.5
 50
180.0000000000001
  0
MTEXT
  5
91CF
330
8BC2
100
AcDbEntity
  8
AM_5
 62
     2
100
AcDbMText
 10
-20.00815200805523
 20
-18.06931786875574
 30
0.0
 40
3.2
 41
0.0
 71
     5
 72
     1
  1
40
  7
ASAMI
  0
POINT
  5
91D0
330
8BC2
100
AcDbEntity
  8
DEFPOINTS
 62
     0
100
AcDbPoint
 10
-0.00000000000027
 20
0.0000000000001563
 30
0.0
  0
POINT
  5
91D1
330
8BC2
100
AcDbEntity
  8
DEFPOINTS
 62
     0
100
AcDbPoint
 10
-40.01630401611026
 20
-8.999999999999914
 30
0.0
  0
POINT
  5
91D2
330
8BC2
100
AcDbEntity
  8
DEFPOINTS
 62
     0
100
AcDbPoint
 10
-40.01630401611026
 20
-20.66931786875571
 30
0.0
  0
ENDBLK
  5
8BCD
330
8BC2
100
AcDbEntity
  8
0
100
AcDbBlockEnd
  0
BLOCK
  5
8C5C
330
8C52
100
AcDbEntity
  8
0
100
AcDbBlockBegin
  2
*D9
 70
     1
 10
0.0
 20
0.0
 30
0.0
  3
*D9
  1

  0
LINE
  5
91D3
330
8C52
100
AcDbEntity
  8
AM_5
100
AcDbLine
 10
-0.000000000000268
 20
-0.9999999999998436
 30
0.0
 11
-0.0000000000002103
 21
-30.46315962624461
 31
0.0
  0
LINE
  5
91D4
330
8C52
100
AcDbEntity
  8
AM_5
100
AcDbLine
 10
-80.00000038978871
 20
-13.50000029234155
 30
0.0
 11
-80.00000038978868
 21
-30.46315962624478
 31
0.0
  0
LINE
  5
91D5
330
8C52
100
AcDbEntity
  8
AM_5
100
AcDbLine
 10
-2.500000000000212
 20
-29.46315962624462
 30
0.0
 11
-77.50000038978868
 21
-29.46315962624477
 31
0.0
  0
INSERT
  5
91D6
330
8C52
100
AcDbEntity
  8
AM_5
100
AcDbBlockReference
  2
_OPEN30
 10
-0.0000000000002123
 20
-29.46315962624462
 30
0.0
 41
2.5
 42
2.5
 43
2.5
 50
0.0000000000001018
  0
INSERT
  5
91D7
330
8C52
100
AcDbEntity
  8
AM_5
100
AcDbBlockReference
  2
_OPEN30
 10
-80.00000038978868
 20
-29.46315962624478
 30
0.0
 41
2.5
 42
2.5
 43
2.5
 50
180.0000000000001
  0
MTEXT
  5
91D8
330
8C52
100
AcDbEntity
  8
AM_5
 62
     2
100
AcDbMText
 10
-40.00000019489444
 20
-26.86315962624469
 30
0.0
 40
3.2
 41
0.0
 71
     5
 72
     1
  1
80
  7
ASAMI
  0
POINT
  5
91D9
330
8C52
100
AcDbEntity
  8
DEFPOINTS
 62
     0
100
AcDbPoint
 10
-0.00000000000027
 20
0.0000000000001563
 30
0.0
  0
POINT
  5
91DA
330
8C52
100
AcDbEntity
  8
DEFPOINTS
 62
     0
100
AcDbPoint
 10
-80.00000038978873
 20
-12.50000029234139
 30
0.0
  0
POINT
  5
91DB
330
8C52
100
AcDbEntity
  8
DEFPOINTS
 62
     0
100
AcDbPoint
 10
-80.00000038978873
 20
-29.46315962624462
 30
0.0
  0
ENDBLK
  5
8C5D
330
8C52
100
AcDbEntity
  8
0
100
AcDbBlockEnd
  0
BLOCK
  5
8CFA
330
8CF0
100
AcDbEntity
  8
0
100
AcDbBlockBegin
  2
*D10
 70
     1
 10
0.0
 20
0.0
 30
0.0
  3
*D10
  1

  0
LINE
  5
91DC
330
8CF0
100
AcDbEntity
  8
AM_5
100
AcDbLine
 10
-0.000000000000268
 20
-0.9999999999998436
 30
0.0
 11
-0.0000000000001931
 21
-39.25700138373354
 31
0.0
  0
LINE
  5
91DD
330
8CF0
100
AcDbEntity
  8
AM_5
100
AcDbLine
 10
-250.0000000000002
 20
-11.16149902344082
 30
0.0
 11
-250.0000000000001
 21
-39.25700138373404
 31
0.0
  0
LINE
  5
91DE
330
8CF0
100
AcDbEntity
  8
AM_5
100
AcDbLine
 10
-2.500000000000194
 20
-38.25700138373354
 30
0.0
 11
-247.5000000000001
 21
-38.25700138373403
 31
0.0
  0
INSERT
  5
91DF
330
8CF0
100
AcDbEntity
  8
AM_5
100
AcDbBlockReference
  2
_OPEN30
 10
-0.000000000000195
 20
-38.25700138373353
 30
0.0
 41
2.5
 42
2.5
 43
2.5
 50
0.0000000000001018
  0
INSERT
  5
91E0
330
8CF0
100
AcDbEntity
  8
AM_5
100
AcDbBlockReference
  2
_OPEN30
 10
-250.0000000000001
 20
-38.25700138373404
 30
0.0
 41
2.5
 42
2.5
 43
2.5
 50
180.0000000000001
  0
MTEXT
  5
91E1
330
8CF0
100
AcDbEntity
  8
AM_5
 62
     2
100
AcDbMText
 10
-125.0000000000001
 20
-35.65700138373379
 30
0.0
 40
3.2
 41
0.0
 71
     5
 72
     1
  1
250
  7
ASAMI
  0
POINT
  5
91E2
330
8CF0
100
AcDbEntity
  8
DEFPOINTS
 62
     0
100
AcDbPoint
 10
-0.00000000000027
 20
0.0000000000001563
 30
0.0
  0
POINT
  5
91E3
330
8CF0
100
AcDbEntity
  8
DEFPOINTS
 62
     0
100
AcDbPoint
 10
-250.0000000000002
 20
-10.16149902344031
 30
0.0
  0
POINT
  5
91E4
330
8CF0
100
AcDbEntity
  8
DEFPOINTS
 62
     0
100
AcDbPoint
 10
-250.0000000000002
 20
-38.25700138373353
 30
0.0
  0
ENDBLK
  5
8CFB
330
8CF0
100
AcDbEntity
  8
0
100
AcDbBlockEnd
  0
BLOCK
  5
8D8F
330
8D85
100
AcDbEntity
  8
0
100
AcDbBlockBegin
  2
*D11
 70
     1
 10
0.0
 20
0.0
 30
0.0
  3
*D11
  1

  0
LINE
  5
91E5
330
8D85
100
AcDbEntity
  8
AM_5
100
AcDbLine
 10
-80.00000000000019
 20
-13.50000000000014
 30
0.0
 11
-80.00000000000017
 21
-30.46315962624506
 31
0.0
  0
LINE
  5
91E6
330
8D85
100
AcDbEntity
  8
AM_5
100
AcDbLine
 10
-250.0000000000002
 20
-11.16149902344082
 30
0.0
 11
-250.0000000000001
 21
-30.4631596262454
 31
0.0
  0
LINE
  5
91E7
330
8D85
100
AcDbEntity
  8
AM_5
100
AcDbLine
 10
-82.50000000000017
 20
-29.46315962624506
 30
0.0
 11
-247.5000000000001
 21
-29.4631596262454
 31
0.0
  0
INSERT
  5
91E8
330
8D85
100
AcDbEntity
  8
AM_5
100
AcDbBlockReference
  2
_OPEN30
 10
-80.00000000000017
 20
-29.46315962624506
 30
0.0
 41
2.5
 42
2.5
 43
2.5
 50
0.0000000000001018
  0
INSERT
  5
91E9
330
8D85
100
AcDbEntity
  8
AM_5
100
AcDbBlockReference
  2
_OPEN30
 10
-250.0000000000001
 20
-29.4631596262454
 30
0.0
 41
2.5
 42
2.5
 43
2.5
 50
180.0000000000001
  0
MTEXT
  5
91EA
330
8D85
100
AcDbEntity
  8
AM_5
 62
     2
100
AcDbMText
 10
-165.0000000000001
 20
-26.86315962624523
 30
0.0
 40
3.2
 41
0.0
 71
     5
 72
     1
  1
170
  7
ASAMI
  0
POINT
  5
91EB
330
8D85
100
AcDbEntity
  8
DEFPOINTS
 62
     0
100
AcDbPoint
 10
-80.00000000000023
 20
-12.49999999999998
 30
0.0
  0
POINT
  5
91EC
330
8D85
100
AcDbEntity
  8
DEFPOINTS
 62
     0
100
AcDbPoint
 10
-250.0000000000002
 20
-10.16149902344031
 30
0.0
  0
POINT
  5
91ED
330
8D85
100
AcDbEntity
  8
DEFPOINTS
 62
     0
100
AcDbPoint
 10
-250.0000000000002
 20
-29.4631596262449
 30
0.0
  0
ENDBLK
  5
8D90
330
8D85
100
AcDbEntity
  8
0
100
AcDbBlockEnd
  0
ENDSEC
  0
SECTION
  2
ENTITIES
  0
TEXT
  5
388D
330
1F
100
AcDbEntity
  8
AM_6
100
AcDbText
 10
-146.6666666666668
 20
-60.75700138373375
 30
0.0
 40
5.0
  1
WBMR2200L
 50
359.9999999999998
 51
359.9999999999998
 72
     4
 11
-125.0000000000001
 21
-58.25700138373379
 31
0.0
100
AcDbText
  0
SPLINE
  5
8681
330
1F
100
AcDbEntity
  8
AM_0
100
AcDbSpline
210
0.0
220
0.0
230
1.0
 70
     8
 71
     3
 72
    11
 73
     7
 74
     5
 42
0.0000000001
 43
0.0000000001
 44
0.0000000001
 40
0.0
 40
0.0
 40
0.0
 40
0.0
 40
0.1564211178517634
 40
0.3115953582160524
 40
0.4641984933262048
 40
0.6144772769986968
 40
0.6144772769986968
 40
0.6144772769986968
 40
0.6144772769986968
 10
-0.8739013671902711
 20
-2.554504394529828
 30
0.0
 10
-0.8782742942746056
 20
-2.501854495709081
 30
0.0
 10
-0.8869852905902511
 20
-2.396974385475903
 30
0.0
 10
-0.9721026086167904
 20
-2.261962623916209
 30
0.0
 10
-1.096776972665628
 20
-2.164742853031851
 30
0.0
 10
-1.198009688046769
 20
-2.1490105966023
 30
0.0
 10
-1.248237609860282
 20
-2.141204833979827
 30
0.0
 11
-0.8739013671902711
 21
-2.554504394529828
 31
0.0
 11
-0.8992233276402856
 21
-2.400146484369827
 31
0.0
 11
-0.9795227050802708
 21
-2.267364501949828
 31
0.0
 11
-1.102180480960285
 21
-2.176574707029828
 31
0.0
 11
-1.248237609860282
 21
-2.141204833979827
 31
0.0
  0
SPLINE
  5
8682
330
1F
100
AcDbEntity
  8
AM_0
100
AcDbSpline
210
0.0
220
0.0
230
1.0
 70
     8
 71
     3
 72
    11
 73
     7
 74
     5
 42
0.0000000001
 43
0.0000000001
 44
0.0000000001
 40
0.0
 40
0.0
 40
0.0
 40
0.0
 40
0.0344950736792935
 40
0.0691368803882598
 40
0.1039583472378789
 40
0.1389315125722828
 40
0.1389315125722828
 40
0.1389315125722828
 40
0.1389315125722828
 10
-0.8878479003902697
 20
-3.398925781249829
 30
0.0
 10
-0.8875474739998843
 20
-3.387431273894459
 30
0.0
 10
-0.886945343283752
 20
-3.364393364553011
 30
0.0
 10
-0.8864147155724436
 20
-3.32974408529797
 30
0.0
 10
-0.886145928863147
 20
-3.294932440792079
 30
0.0
 10
-0.8862124131467652
 20
-3.27166751276779
 30
0.0
 10
-0.8862457275402988
 20
-3.260009765619827
 30
0.0
 11
-0.8878479003902697
 21
-3.398925781249829
 31
0.0
 11
-0.8870086669902974
 21
-3.36444091796983
 31
0.0
 11
-0.8864593505903002
 21
-3.32980346679983
 31
0.0
 11
-0.8862075805702858
 21
-3.294982910149826
 31
0.0
 11
-0.8862457275402988
 21
-3.260009765619827
 31
0.0
  0
SPLINE
  5
8683
330
1F
100
AcDbEntity
  8
AM_0
100
AcDbSpline
210
0.0
220
0.0
230
1.0
 70
     8
 71
     3
 72
    11
 73
     7
 74
     5
 42
0.0000000001
 43
0.0000000001
 44
0.0000000001
 40
0.0
 40
0.0
 40
0.0
 40
0.0
 40
0.36371278392346
 40
0.7282219908597183
 40
1.094244447870479
 40
1.462291418191269
 40
1.462291418191269
 40
1.462291418191269
 40
1.462291418191269
 10
-1.281723022460298
 20
-4.792327880859829
 30
0.0
 10
-1.224340485264989
 20
-4.685318938702679
 30
0.0
 10
-1.109449760154422
 20
-4.471066736575324
 30
0.0
 10
-0.9914425743568024
 20
-4.124567965373199
 30
0.0
 10
-0.9110442141853853
 20
-3.766089332848584
 30
0.0
 10
-0.8955942083420328
 20
-3.521538449989715
 30
0.0
 10
-0.8878479003902697
 20
-3.398925781249829
 30
0.0
 11
-1.281723022460298
 21
-4.792327880859829
 31
0.0
 11
-1.118644714360286
 21
-4.467224121089827
 31
0.0
 11
-0.9979095459002991
 21
-4.123291015619827
 31
0.0
 11
-0.9207077026402856
 21
-3.76550292968983
 31
0.0
 11
-0.8878479003902697
 21
-3.398925781249829
 31
0.0
  0
SPLINE
  5
8684
330
1F
100
AcDbEntity
  8
AM_0
100
AcDbSpline
210
0.0
220
0.0
230
1.0
 70
     8
 71
     3
 72
    11
 73
     7
 74
     5
 42
0.0000000001
 43
0.0000000001
 44
0.0000000001
 40
0.0
 40
0.0
 40
0.0
 40
0.0
 40
0.1026001895566995
 40
0.2060266956514516
 40
0.3101031613297401
 40
0.4145922972582511
 40
0.4145922972582511
 40
0.4145922972582511
 40
0.4145922972582511
 10
-0.8862457275402988
 20
-3.260009765619827
 30
0.0
 10
-0.8863517274159665
 20
-3.22580964596884
 30
0.0
 10
-0.886564580864071
 20
-3.157133967366089
 30
0.0
 10
-0.8857884289820654
 20
-3.053767662166311
 30
0.0
 10
-0.884302284145947
 20
-2.949779483455037
 30
0.0
 10
-0.8825879760186436
 20
-2.880278322658279
 30
0.0
 10
-0.8817291259802999
 20
-2.845458984369827
 30
0.0
 11
-0.8862457275402988
 21
-3.260009765619827
 31
0.0
 11
-0.8863830566402697
 21
-3.15740966796983
 31
0.0
 11
-0.8856735229502845
 21
-3.053985595699828
 31
0.0
 11
-0.8841247558602702
 21
-2.94992065429983
 31
0.0
 11
-0.8817291259802999
 21
-2.845458984369827
 31
0.0
  0
SPLINE
  5
8685
330
1F
100
AcDbEntity
  8
AM_0
100
AcDbSpline
210
0.0
220
0.0
230
1.0
 70
     8
 71
     3
 72
    11
 73
     7
 74
     5
 42
0.0000000001
 43
0.0000000001
 44
0.0000000001
 40
0.0
 40
0.0
 40
0.0
 40
0.0
 40
2.469093284742831
 40
4.900796972283922
 40
7.290243007555501
 40
9.648464605008085
 40
9.648464605008085
 40
9.648464605008085
 40
9.648464605008085
 10
-9.319686889650299
 20
-9.355895996089856
 30
0.0
 10
-8.494042241782864
 20
-9.29255897518982
 30
0.0
 10
-6.855255722272082
 20
-9.166844048913668
 30
0.0
 10
-4.588109484002131
 20
-8.197783975129572
 30
0.0
 10
-2.633165350276052
 20
-6.755445315747271
 30
0.0
 10
-1.730224312296395
 20
-5.443824939613183
 30
0.0
 10
-1.281723022460298
 20
-4.792327880859829
 30
0.0
 11
-9.319686889650299
 21
-9.355895996089856
 31
0.0
 11
-6.871871948240297
 21
-9.032440185549845
 31
0.0
 11
-4.622413635250282
 21
-8.108795166009841
 31
0.0
 11
-2.723411560060284
 21
-6.658538818359829
 31
0.0
 11
-1.281723022460298
 21
-4.792327880859829
 31
0.0
  0
SPLINE
  5
8686
330
1F
100
AcDbEntity
  8
AM_0
100
AcDbSpline
210
0.0
220
0.0
230
1.0
 70
     8
 71
     3
 72
    11
 73
     7
 74
     5
 42
0.0000000001
 43
0.0000000001
 44
0.0000000001
 40
0.0
 40
0.0
 40
0.0
 40
0.0
 40
0.1000584388873065
 40
0.2000689576725762
 40
0.3000572447766933
 40
0.4000252059747837
 40
0.4000252059747837
 40
0.4000252059747837
 40
0.4000252059747837
 10
-9.719642639160284
 20
-9.349945068359858
 30
0.0
 10
-9.686306645120437
 20
-9.351014747658414
 30
0.0
 10
-9.61965062235315
 20
-9.353153593963492
 30
0.0
 10
-9.519647494770515
 20
-9.355052306913007
 30
0.0
 10
-9.419662382347201
 20
-9.356152624349835
 30
0.0
 10
-9.353009795431514
 20
-9.355981533045937
 30
0.0
 10
-9.319686889650299
 20
-9.355895996089856
 30
0.0
 11
-9.719642639160284
 21
-9.349945068359858
 31
0.0
 11
-9.61962890625027
 21
-9.352935791009855
 31
0.0
 11
-9.519638061520296
 21
-9.354919433589856
 31
0.0
 11
-9.419654846190283
 21
-9.355926513669857
 31
0.0
 11
-9.319686889650299
 21
-9.355895996089856
 31
0.0
  0
SPLINE
  5
8687
330
1F
100
AcDbEntity
  8
AM_0
100
AcDbSpline
210
0.0
220
0.0
230
1.0
 70
     8
 71
     3
 72
    11
 73
     7
 74
     5
 42
0.0000000001
 43
0.0000000001
 44
0.0000000001
 40
0.0
 40
0.0
 40
0.0
 40
0.0
 40
3.545109602436877
 40
8.100342677407489
 40
12.87463399591943
 40
17.6597930587913
 40
17.6597930587913
 40
17.6597930587913
 40
17.6597930587913
 10
-26.01166534424031
 20
8.002197265630115
 30
0.0
 10
-25.27677429521466
 20
7.075195076747863
 30
0.0
 10
-23.59759649953372
 20
4.957055940092843
 30
0.0
 10
-20.37773391045001
 20
2.07900097077157
 30
0.0
 10
-16.09000802365781
 20
-0.1137905790285436
 30
0.0
 10
-12.88810386280971
 20
-0.3759859439885898
 30
0.0
 10
-11.28533172608028
 20
-0.5072326660098554
 30
0.0
 11
-26.01166534424031
 21
8.002197265630115
 31
0.0
 11
-23.74059295654031
 21
5.280059814450112
 31
0.0
 11
-20.31311798096031
 21
2.279632568360128
 31
0.0
 11
-16.01898956299028
 21
0.1929321289101438
 31
0.0
 11
-11.28533172608028
 21
-0.5072326660098554
 31
0.0
  0
SPLINE
  5
8688
330
1F
100
AcDbEntity
  8
AM_0
100
AcDbSpline
210
0.0
220
0.0
230
1.0
 70
     8
 71
     3
 72
    11
 73
     7
 74
     5
 42
0.0000000001
 43
0.0000000001
 44
0.0000000001
 40
0.0
 40
0.0
 40
0.0
 40
0.0
 40
0.5545551870997714
 40
1.151501296071922
 40
1.78626234456379
 40
2.4439432290305
 40
2.4439432290305
 40
2.4439432290305
 40
2.4439432290305
 10
-11.03543090820026
 20
-5.351593017579858
 30
0.0
 10
-11.07179836414373
 20
-5.168484756972122
 30
0.0
 10
-11.14731325180124
 20
-4.78827120146651
 30
0.0
 10
-11.50039627788172
 20
-4.291393591058664
 30
0.0
 10
-12.0171501318713
 20
-3.897753634413115
 30
0.0
 10
-12.44872222142122
 20
-3.828752518686769
 30
0.0
 10
-12.66833496094027
 20
-3.793640136719858
 30
0.0
 11
-11.03543090820026
 21
-5.351593017579858
 31
0.0
 11
-11.17980957031026
 21
-4.816162109369855
 31
0.0
 11
-11.51486206055027
 21
-4.322113037109858
 31
0.0
 11
-12.02971649170028
 21
-3.950836181639857
 31
0.0
 11
-12.66833496094027
 21
-3.793640136719858
 31
0.0
  0
SPLINE
  5
8689
330
1F
100
AcDbEntity
  8
AM_0
100
AcDbSpline
210
0.0
220
0.0
230
1.0
 70
     8
 71
     3
 72
    11
 73
     7
 74
     5
 42
0.0000000001
 43
0.0000000001
 44
0.0000000001
 40
0.0
 40
0.0
 40
0.0
 40
0.0
 40
0.6197406151052001
 40
1.216522765455185
 40
1.773360177527889
 40
2.29383258478434
 40
2.29383258478434
 40
2.29383258478434
 40
2.29383258478434
 10
-12.66833496094027
 20
-3.793640136719858
 30
0.0
 10
-12.87765731192803
 20
-3.81068038103521
 30
0.0
 10
-13.28854760875323
 20
-3.844129609040099
 30
0.0
 10
-13.78942668744911
 20
-4.204499629269778
 30
0.0
 10
-14.08480427499944
 20
-4.704716485489059
 30
0.0
 10
-14.09070735533787
 20
-5.068857059351187
 30
0.0
 10
-14.09355926514028
 20
-5.244781494139857
 30
0.0
 11
-12.66833496094027
 21
-3.793640136719858
 31
0.0
 11
-13.27883911133027
 21
-3.900238037109858
 31
0.0
 11
-13.76798248291028
 21
-4.242126464839856
 31
0.0
 11
-14.04201507568028
 21
-4.726867675779857
 31
0.0
 11
-14.09355926514028
 21
-5.244781494139857
 31
0.0
  0
SPLINE
  5
86A5
330
1F
100
AcDbEntity
  8
AM_0
100
AcDbSpline
210
0.0
220
0.0
230
1.0
 70
     8
 71
     3
 72
    11
 73
     7
 74
     5
 42
0.0000000001
 43
0.0000000001
 44
0.0000000001
 40
0.0
 40
0.0
 40
0.0
 40
0.0
 40
0.0595954857384754
 40
0.1175511406754102
 40
0.1717149867545086
 40
0.2164278551639607
 40
0.2164278551639607
 40
0.2164278551639607
 40
0.2164278551639607
 10
-17.77869415283031
 20
7.222778320310126
 30
0.0
 10
-17.77456493764422
 20
7.203345863335453
 30
0.0
 10
-17.76642012685522
 20
7.165015653333929
 30
0.0
 10
-17.75520206131309
 20
7.10890064700777
 30
0.0
 10
-17.74534066815152
 20
7.05751294800096
 30
0.0
 10
-17.74211339246749
 20
7.024696876704484
 30
0.0
 10
-17.74065399170031
 20
7.00985717774013
 30
0.0
 11
-17.77869415283031
 21
7.222778320310126
 31
0.0
 11
-17.76642608643031
 21
7.164459228520129
 31
0.0
 11
-17.75502777100031
 21
7.107635498050129
 31
0.0
 11
-17.74564361572031
 21
7.05429077149013
 31
0.0
 11
-17.74065399170031
 21
7.00985717774013
 31
0.0
  0
SPLINE
  5
86A6
330
1F
100
AcDbEntity
  8
AM_0
100
AcDbSpline
210
0.0
220
0.0
230
1.0
 70
     8
 71
     3
 72
    11
 73
     7
 74
     5
 42
0.0000000001
 43
0.0000000001
 44
0.0000000001
 40
0.0
 40
0.0
 40
0.0
 40
0.0
 40
0.164820763718237
 40
0.3288197866809266
 40
0.4916400300925213
 40
0.6530119254909174
 40
0.6530119254909174
 40
0.6530119254909174
 40
0.6530119254909174
 10
-17.77701568604031
 20
8.444183349610128
 30
0.0
 10
-17.76902317997612
 20
8.389824112980569
 30
0.0
 10
-17.75307801578816
 20
8.281376656547072
 30
0.0
 10
-17.7239154337148
 20
8.120088822429234
 30
0.0
 10
-17.69156847965978
 20
7.960584378619438
 30
0.0
 10
-17.66677028054135
 20
7.855397850999152
 30
0.0
 10
-17.65442657471031
 20
7.803039550780127
 30
0.0
 11
-17.77701568604031
 21
8.444183349610128
 31
0.0
 11
-17.75214385986031
 21
8.281250000000127
 31
0.0
 11
-17.72327423096031
 21
8.119812011720128
 31
0.0
 11
-17.69063568115031
 21
7.960296630860128
 31
0.0
 11
-17.65442657471031
 21
7.803039550780127
 31
0.0
  0
SPLINE
  5
86A7
330
1F
100
AcDbEntity
  8
AM_0
100
AcDbSpline
210
0.0
220
0.0
230
1.0
 70
     8
 71
     3
 72
    11
 73
     7
 74
     5
 42
0.0000000001
 43
0.0000000001
 44
0.0000000001
 40
0.0
 40
0.0
 40
0.0
 40
0.0
 40
3.433998255093329
 40
6.921617768731503
 40
10.3856923661937
 40
13.74560484413452
 40
13.74560484413452
 40
13.74560484413452
 40
13.74560484413452
 10
-17.65442657471031
 20
7.803039550780127
 30
0.0
 10
-17.27739861385177
 20
6.710779600086326
 30
0.0
 10
-16.51745546905943
 20
4.509204258112095
 30
0.0
 10
-14.13546969354856
 20
1.893482378718293
 30
0.0
 10
-11.11809542408383
 20
0.0627006525944902
 30
0.0
 10
-8.828870022406473
 20
-0.1642142953112408
 30
0.0
 10
-7.701728820800283
 20
-0.2759399413998551
 30
0.0
 11
-17.65442657471031
 21
7.803039550780127
 31
0.0
 11
-16.31964874268031
 21
4.639068603520129
 31
0.0
 11
-14.01937103272031
 21
2.017578125000142
 31
0.0
 11
-11.01226806641027
 21
0.2979431152401446
 31
0.0
 11
-7.701728820800283
 21
-0.2759399413998551
 31
0.0
  0
SPLINE
  5
86A8
330
1F
100
AcDbEntity
  8
AM_0
100
AcDbSpline
210
0.0
220
0.0
230
1.0
 70
     8
 71
     3
 72
    11
 73
     7
 74
     5
 42
0.0000000001
 43
0.0000000001
 44
0.0000000001
 40
0.0
 40
0.0
 40
0.0
 40
0.0
 40
0.548143478686248
 40
1.102336455303978
 40
1.658741802684068
 40
2.212497974842773
 40
2.212497974842773
 40
2.212497974842773
 40
2.212497974842773
 10
-11.07286834717031
 20
4.304016113280141
 30
0.0
 10
-11.03488290250564
 20
4.124427397587296
 30
0.0
 10
-10.95849279288478
 20
3.763267964031836
 30
0.0
 10
-10.69364616861903
 20
3.2711248940434
 30
0.0
 10
-10.33676369669935
 20
2.837976306140888
 30
0.0
 10
-10.02685892804912
 20
2.632372340551028
 30
0.0
 10
-9.872276306150311
 20
2.529815673830142
 30
0.0
 11
-11.07286834717031
 21
4.304016113280141
 31
0.0
 11
-10.93428039551032
 21
3.773681640630144
 31
0.0
 11
-10.67885589600031
 21
3.28186035156014
 31
0.0
 11
-10.31814575195029
 21
2.858215332030141
 31
0.0
 11
-9.872276306150311
 21
2.529815673830142
 31
0.0
  0
SPLINE
  5
86A9
330
1F
100
AcDbEntity
  8
AM_0
100
AcDbSpline
210
0.0
220
0.0
230
1.0
 70
     8
 71
     3
 72
    11
 73
     7
 74
     5
 42
0.0000000001
 43
0.0000000001
 44
0.0000000001
 40
0.0
 40
0.0
 40
0.0
 40
0.0
 40
0.1640949644689871
 40
0.3268791990027122
 40
0.4878701841299551
 40
0.6467631659407676
 40
0.6467631659407676
 40
0.6467631659407676
 40
0.6467631659407676
 10
-0.0162963867202706
 20
0.7434387207001692
 30
0.0
 10
-0.0226294309760357
 20
0.7977694112751683
 30
0.0
 10
-0.0352449334704128
 20
0.9059968189466347
 30
0.0
 10
-0.0554629189093087
 20
1.067360171612948
 30
0.0
 10
-0.0764382721270514
 20
1.226878168487842
 30
0.0
 10
-0.0912772460580283
 20
1.332469042214305
 30
0.0
 10
-0.0986480712902989
 20
1.38491821289017
 30
0.0
 11
-0.0162963867202706
 21
0.7434387207001692
 31
0.0
 11
-0.0355300903302833
 21
0.9064025878901702
 31
0.0
 11
-0.055702209470283
 21
1.067932128910172
 31
0.0
 11
-0.0767669677702969
 21
1.22753906250017
 31
0.0
 11
-0.0986480712902989
 21
1.38491821289017
 31
0.0
  0
SPLINE
  5
86AA
330
1F
100
AcDbEntity
  8
AM_0
100
AcDbSpline
210
0.0
220
0.0
230
1.0
 70
     8
 71
     3
 72
    11
 73
     7
 74
     5
 42
0.0000000001
 43
0.0000000001
 44
0.0000000001
 40
0.0
 40
0.0
 40
0.0
 40
0.0
 40
3.33187642204909
 40
6.698413017345441
 40
10.13062540640077
 40
13.61234642841919
 40
13.61234642841919
 40
13.61234642841919
 40
13.61234642841919
 10
-0.0986480712902989
 20
1.38491821289017
 30
0.0
 10
-0.3670287492217879
 20
2.475890052045471
 30
0.0
 10
-0.9065819615689273
 20
4.669182672562564
 30
0.0
 10
-3.136618476866636
 20
7.336215441134792
 30
0.0
 10
-6.158569537560198
 20
9.15296109011145
 30
0.0
 10
-8.480409804856259
 20
9.362092671270499
 30
0.0
 10
-9.649642944340328
 20
9.46740722656014
 30
0.0
 11
-0.0986480712902989
 21
1.38491821289017
 31
0.0
 11
-1.135116577150327
 21
4.551483154300171
 31
0.0
 11
-3.245223999020325
 21
7.174652099610156
 31
0.0
 11
-6.215354919430311
 21
8.894653320310155
 31
0.0
 11
-9.649642944340328
 21
9.46740722656014
 31
0.0
  0
SPLINE
  5
86AB
330
1F
100
AcDbEntity
  8
AM_0
100
AcDbSpline
210
0.0
220
0.0
230
1.0
 70
     8
 71
     3
 72
    11
 73
     7
 74
     5
 42
0.0000000001
 43
0.0000000001
 44
0.0000000001
 40
0.0
 40
0.0
 40
0.0
 40
0.0
 40
1.096742218298919
 40
2.204046615344019
 40
3.328384523453265
 40
4.459017078513451
 40
4.459017078513451
 40
4.459017078513451
 40
4.459017078513451
 10
-6.496955871580311
 20
4.885528564450154
 30
0.0
 10
-6.573020783565207
 20
5.251692485874905
 30
0.0
 10
-6.725883150864954
 20
5.9875466713088
 30
0.0
 10
-7.603171626086037
 20
6.770018076657269
 30
0.0
 10
-8.745040678107821
 20
7.069898980251648
 30
0.0
 10
-9.467223455927426
 20
6.811910482682566
 30
0.0
 10
-9.829322814940312
 20
6.682556152350144
 30
0.0
 11
-6.496955871580311
 21
4.885528564450154
 31
0.0
 11
-6.8311462402403
 21
5.930114746100159
 31
0.0
 11
-7.640457153320326
 21
6.685852050780155
 31
0.0
 11
-8.732055664060297
 21
6.955200195310155
 31
0.0
 11
-9.829322814940312
 21
6.682556152350144
 31
0.0
  0
SPLINE
  5
86AC
330
1F
100
AcDbEntity
  8
AM_0
100
AcDbSpline
210
0.0
220
0.0
230
1.0
 70
     8
 71
     3
 72
    11
 73
     7
 74
     5
 42
0.0000000001
 43
0.0000000001
 44
0.0000000001
 40
0.0
 40
0.0
 40
0.0
 40
0.0
 40
0.1471506608037432
 40
0.2936981318032352
 40
0.4393870489216967
 40
0.584073143151468
 40
0.584073143151468
 40
0.584073143151468
 40
0.584073143151468
 10
-11.07940673828029
 20
4.886444091800143
 30
0.0
 10
-11.08444583092369
 20
4.837632299231644
 30
0.0
 10
-11.09450336031068
 20
4.740208800016408
 30
0.0
 10
-11.09688903714115
 20
4.59362075239338
 30
0.0
 10
-11.09091280282291
 20
4.447967593638241
 30
0.0
 10
-11.07886930146708
 20
4.351889336568939
 30
0.0
 10
-11.07286834717031
 20
4.304016113280141
 30
0.0
 11
-11.07940673828029
 21
4.886444091800143
 31
0.0
 11
-11.09239959717031
 21
4.73986816406014
 31
0.0
 11
-11.09548950195029
 21
4.593353271490144
 31
0.0
 11
-11.08886718750029
 21
4.447814941410143
 31
0.0
 11
-11.07286834717031
 21
4.304016113280141
 31
0.0
  0
SPLINE
  5
86AD
330
1F
100
AcDbEntity
  8
AM_0
100
AcDbSpline
210
0.0
220
0.0
230
1.0
 70
     8
 71
     3
 72
    11
 73
     7
 74
     5
 42
0.0000000001
 43
0.0000000001
 44
0.0000000001
 40
0.0
 40
0.0
 40
0.0
 40
0.0
 40
0.4203784824899754
 40
0.8416503745536555
 40
1.263687631964179
 40
1.686356635443255
 40
1.686356635443255
 40
1.686356635443255
 40
1.686356635443255
 10
-10.3138732910203
 20
6.350677490240144
 30
0.0
 10
-10.41387048821304
 20
6.251901349483999
 30
0.0
 10
-10.61407740169033
 20
6.054139143930682
 30
0.0
 10
-10.83925628899012
 20
5.694595711505797
 30
0.0
 10
-11.00618208335873
 20
5.303806466786195
 30
0.0
 10
-11.05498635325628
 20
5.025634230731006
 30
0.0
 10
-11.07940673828029
 20
4.886444091800143
 30
0.0
 11
-10.3138732910203
 21
6.350677490240144
 31
0.0
 11
-10.60133361816032
 21
6.043945312500142
 31
0.0
 11
-10.82936859131031
 21
5.68972778320014
 31
0.0
 11
-10.9904785156303
 21
5.299652099610142
 31
0.0
 11
-11.07940673828029
 21
4.886444091800143
 31
0.0
  0
SPLINE
  5
86AE
330
1F
100
AcDbEntity
  8
AM_0
100
AcDbSpline
210
0.0
220
0.0
230
1.0
 70
     8
 71
     3
 72
    11
 73
     7
 74
     5
 42
0.0000000001
 43
0.0000000001
 44
0.0000000001
 40
0.0
 40
0.0
 40
0.0
 40
0.0
 40
0.3117598545324014
 40
0.6232111287951745
 40
0.9347208752405281
 40
1.24658045255475
 40
1.24658045255475
 40
1.24658045255475
 40
1.24658045255475
 10
-17.00942230225031
 20
9.403198242190129
 30
0.0
 10
-17.11402094893732
 20
9.390353698525366
 30
0.0
 10
-17.32311471044817
 20
9.364677324740227
 30
0.0
 10
-17.58560744539051
 20
9.177769975106755
 30
0.0
 10
-17.76680003196898
 20
8.911043826473591
 30
0.0
 10
-17.78698356413357
 20
8.701242494538854
 30
0.0
 10
-17.79708099365031
 20
8.59628295899013
 30
0.0
 11
-17.00942230225031
 21
9.403198242190129
 31
0.0
 11
-17.31468963623031
 21
9.339904785160129
 31
0.0
 11
-17.57204437256031
 21
9.16448974610013
 31
0.0
 11
-17.74160003662031
 21
8.903167724610128
 31
0.0
 11
-17.79708099365031
 21
8.59628295899013
 31
0.0
  0
SPLINE
  5
86AF
330
1F
100
AcDbEntity
  8
AM_0
100
AcDbSpline
210
0.0
220
0.0
230
1.0
 70
     8
 71
     3
 72
    11
 73
     7
 74
     5
 42
0.0000000001
 43
0.0000000001
 44
0.0000000001
 40
0.0
 40
0.0
 40
0.0
 40
0.0
 40
0.0013362552937747
 40
0.0023882268013863
 40
0.003346498193178
 40
0.0044301945316577
 40
0.0044301945316577
 40
0.0044301945316577
 40
0.0044301945316577
 10
-17.76299285889031
 20
9.221099853520129
 30
0.0
 10
-17.76254737542976
 20
9.221075025041812
 30
0.0
 10
-17.76175118360547
 20
9.221030650259816
 30
0.0
 10
-17.76067551742705
 20
9.220618885841398
 30
0.0
 10
-17.76001060690444
 20
9.219747344303241
 30
0.0
 10
-17.75996519938565
 20
9.219055914692733
 30
0.0
 10
-17.75994110108031
 20
9.21868896485013
 30
0.0
 11
-17.76299285889031
 21
9.221099853520129
 31
0.0
 11
-17.76166534424031
 21
9.22094726563013
 31
0.0
 11
-17.76070404053031
 21
9.220520019530127
 31
0.0
 11
-17.76012420654031
 21
9.219757080080128
 31
0.0
 11
-17.75994110108031
 21
9.21868896485013
 31
0.0
  0
SPLINE
  5
86B0
330
1F
100
AcDbEntity
  8
AM_0
100
AcDbSpline
210
0.0
220
0.0
230
1.0
 70
     8
 71
     3
 72
    11
 73
     7
 74
     5
 42
0.0000000001
 43
0.0000000001
 44
0.0000000001
 40
0.0
 40
0.0
 40
0.0
 40
0.0
 40
0.0346055072592233
 40
0.0692246699407258
 40
0.1038574230126015
 40
0.1385038476394506
 40
0.1385038476394506
 40
0.1385038476394506
 40
0.1385038476394506
 10
-9.829322814940312
 20
6.682556152350144
 30
0.0
 10
-9.839541883846424
 20
6.677204934968695
 30
0.0
 10
-9.859984054129553
 20
6.66650038860164
 30
0.0
 10
-9.890364713327111
 20
6.64989921173482
 30
0.0
 10
-9.920557518706726
 20
6.632930828821713
 30
0.0
 10
-9.940482583911466
 20
6.6212560312223
 30
0.0
 10
-9.950447082520312
 20
6.615417480470142
 30
0.0
 11
-9.829322814940312
 21
6.682556152350144
 31
0.0
 11
-9.859931945800312
 21
6.666412353520144
 31
0.0
 11
-9.890327453610311
 21
6.649841308600144
 31
0.0
 11
-9.9205017089903
 21
6.632843017580142
 31
0.0
 11
-9.950447082520312
 21
6.615417480470142
 31
0.0
  0
SPLINE
  5
86B1
330
1F
100
AcDbEntity
  8
AM_0
100
AcDbSpline
210
0.0
220
0.0
230
1.0
 70
     8
 71
     3
 72
    11
 73
     7
 74
     5
 42
0.0000000001
 43
0.0000000001
 44
0.0000000001
 40
0.0
 40
0.0
 40
0.0
 40
0.0
 40
0.5719274398493238
 40
1.132635022532443
 40
1.682399564468354
 40
2.224489475503883
 40
2.224489475503883
 40
2.224489475503883
 40
2.224489475503883
 10
-9.872276306150311
 20
2.529815673830142
 30
0.0
 10
-9.699274008065943
 20
2.447016107664702
 30
0.0
 10
-9.356663305840188
 20
2.283041306046199
 30
0.0
 10
-8.792209615893176
 20
2.213617886407688
 30
0.0
 10
-8.236062068566852
 20
2.272784189266133
 30
0.0
 10
-7.904917508037507
 20
2.429287098995037
 30
0.0
 10
-7.740509033200297
 20
2.506988525390156
 30
0.0
 11
-9.872276306150311
 21
2.529815673830142
 31
0.0
 11
-9.343734741210326
 21
2.31130981445014
 31
0.0
 11
-8.788246154790314
 21
2.234985351560155
 31
0.0
 11
-8.242683410650315
 21
2.302825927740158
 31
0.0
 11
-7.740509033200297
 21
2.506988525390156
 31
0.0
  0
SPLINE
  5
86B2
330
1F
100
AcDbEntity
  8
AM_0
100
AcDbSpline
210
0.0
220
0.0
230
1.0
 70
     8
 71
     3
 72
    11
 73
     7
 74
     5
 42
0.0000000001
 43
0.0000000001
 44
0.0000000001
 40
0.0
 40
0.0
 40
0.0
 40
0.0
 40
0.1127477243949036
 40
0.2255013430852427
 40
0.3380799163373251
 40
0.4502795146962031
 40
0.4502795146962031
 40
0.4502795146962031
 40
0.4502795146962031
 10
-9.950447082520312
 20
6.615417480470142
 30
0.0
 10
-9.982536414573141
 20
6.595838930027611
 30
0.0
 10
-10.04671675626479
 20
6.556680805602948
 30
0.0
 10
-10.13923031967672
 20
6.49223573548488
 30
0.0
 10
-10.22887932681259
 20
6.424154822119529
 30
0.0
 10
-10.28557383183673
 20
6.375142389292942
 30
0.0
 10
-10.3138732910203
 20
6.350677490240144
 30
0.0
 11
-9.950447082520312
 21
6.615417480470142
 31
0.0
 11
-10.04609680176032
 21
6.555725097660143
 31
0.0
 11
-10.13882446289029
 21
6.491577148440143
 31
0.0
 11
-10.22822570801032
 21
6.423156738280141
 31
0.0
 11
-10.3138732910203
 21
6.350677490240144
 31
0.0
  0
SPLINE
  5
86B3
330
1F
100
AcDbEntity
  8
AM_0
100
AcDbSpline
210
0.0
220
0.0
230
1.0
 70
     8
 71
     3
 72
    11
 73
     7
 74
     5
 42
0.0000000001
 43
0.0000000001
 44
0.0000000001
 40
0.0
 40
0.0
 40
0.0
 40
0.0
 40
0.4196056819564981
 40
0.8406670813054841
 40
1.262881224559072
 40
1.685752922759101
 40
1.685752922759101
 40
1.685752922759101
 40
1.685752922759101
 10
-7.282005310060313
 20
2.838653564450154
 30
0.0
 10
-7.182400844430033
 20
2.937452931640231
 30
0.0
 10
-6.982846360286796
 20
3.135394425814565
 30
0.0
 10
-6.758149658583472
 20
3.494877998540829
 30
0.0
 10
-6.590944851214585
 20
3.885540625383135
 30
0.0
 10
-6.541309066008967
 20
4.163679032865823
 30
0.0
 10
-6.516471862790311
 20
4.302856445310155
 30
0.0
 11
-7.282005310060313
 21
2.838653564450154
 31
0.0
 11
-6.995643615720311
 21
3.145355224610156
 31
0.0
 11
-6.767997741700312
 21
3.499572753910157
 31
0.0
 11
-6.606498718260311
 21
3.889678955080157
 31
0.0
 11
-6.516471862790311
 21
4.302856445310155
 31
0.0
  0
SPLINE
  5
86B4
330
1F
100
AcDbEntity
  8
AM_0
100
AcDbSpline
210
0.0
220
0.0
230
1.0
 70
     8
 71
     3
 72
    11
 73
     7
 74
     5
 42
0.0000000001
 43
0.0000000001
 44
0.0000000001
 40
0.0
 40
0.0
 40
0.0
 40
0.0
 40
0.1380119884095027
 40
0.2786594145258711
 40
0.4217374891851103
 40
0.5668833577490052
 40
0.5668833577490052
 40
0.5668833577490052
 40
0.5668833577490052
 10
-7.740509033200297
 20
2.506988525390156
 30
0.0
 10
-7.700882778162469
 20
2.530382883440595
 30
0.0
 10
-7.620873576382624
 20
2.577618331553995
 30
0.0
 10
-7.505040536691325
 20
2.657437128920894
 30
0.0
 10
-7.391088136358549
 20
2.743895009929747
 30
0.0
 10
-7.318539745865091
 20
2.806916668326705
 30
0.0
 10
-7.282005310060313
 20
2.838653564450154
 30
0.0
 11
-7.740509033200297
 21
2.506988525390156
 31
0.0
 11
-7.622482299810329
 21
2.578521728520158
 31
0.0
 11
-7.506332397460326
 21
2.657836914060155
 31
0.0
 11
-7.392631530760311
 21
2.744689941410157
 31
0.0
 11
-7.282005310060313
 21
2.838653564450154
 31
0.0
  0
SPLINE
  5
86B5
330
1F
100
AcDbEntity
  8
AM_0
100
AcDbSpline
210
0.0
220
0.0
230
1.0
 70
     8
 71
     3
 72
    11
 73
     7
 74
     5
 42
0.0000000001
 43
0.0000000001
 44
0.0000000001
 40
0.0
 40
0.0
 40
0.0
 40
0.0
 40
0.1473850031513646
 40
0.2941979464287463
 40
0.439804603666603
 40
0.5837966228424028
 40
0.5837966228424028
 40
0.5837966228424028
 40
0.5837966228424028
 10
-6.516471862790311
 20
4.302856445310155
 30
0.0
 10
-6.510947204225796
 20
4.351682995635591
 30
0.0
 10
-6.499919330496124
 20
4.449146581005876
 30
0.0
 10
-6.492039957308833
 20
4.595602829469161
 30
0.0
 10
-6.490056231053626
 20
4.741132237438609
 30
0.0
 10
-6.494664555873747
 20
4.837575693460394
 30
0.0
 10
-6.496955871580311
 20
4.885528564450154
 30
0.0
 11
-6.516471862790311
 21
4.302856445310155
 31
0.0
 11
-6.501342773440299
 21
4.449462890630158
 31
0.0
 11
-6.493003845220314
 21
4.596038818360156
 31
0.0
 11
-6.491546630860298
 21
4.741638183600159
 31
0.0
 11
-6.496955871580311
 21
4.885528564450154
 31
0.0
  0
SPLINE
  5
86B6
330
1F
100
AcDbEntity
  8
AM_0
100
AcDbSpline
210
0.0
220
0.0
230
1.0
 70
     8
 71
     3
 72
    11
 73
     7
 74
     5
 42
0.0000000001
 43
0.0000000001
 44
0.0000000001
 40
0.0
 40
0.0
 40
0.0
 40
0.0
 40
0.3018428350448674
 40
0.6081149217325615
 40
0.9189156096414548
 40
1.231541126715018
 40
1.231541126715018
 40
1.231541126715018
 40
1.231541126715018
 10
-0.7740173339902725
 20
-0.2154846191398292
 30
0.0
 10
-0.672754064604249
 20
-0.2024989000085648
 30
0.0
 10
-0.4687415853021931
 20
-0.1763369088783925
 30
0.0
 10
-0.2134003762159094
 20
0.0117111395922467
 30
0.0
 10
-0.0352847384417923
 20
0.2771117038772073
 30
0.0
 10
-0.0117845086338925
 20
0.4863517967018914
 30
0.0
 10
-0.00000000000027
 20
0.5912780761701697
 30
0.0
 11
-0.7740173339902725
 21
-0.2154846191398292
 31
0.0
 11
-0.4788589477502825
 21
-0.1523132324198286
 31
0.0
 11
-0.227775573730284
 21
0.0230712890601694
 31
0.0
 11
-0.059478759770272
 21
0.2843627929701711
 31
0.0
 11
-0.00000000000027
 21
0.5912780761701697
 31
0.0
  0
SPLINE
  5
86B7
330
1F
100
AcDbEntity
  8
AM_0
100
AcDbSpline
210
0.0
220
0.0
230
1.0
 70
     8
 71
     3
 72
    11
 73
     7
 74
     5
 42
0.0000000001
 43
0.0000000001
 44
0.0000000001
 40
0.0
 40
0.0
 40
0.0
 40
0.0
 40
0.0045491924288887
 40
0.0081529811810204
 40
0.0105673922491681
 40
0.0121820144132618
 40
0.0121820144132618
 40
0.0121820144132618
 40
0.0121820144132618
 10
-17.74065399170031
 20
7.00985717774013
 30
0.0
 10
-17.74066748093328
 20
7.008329438294009
 30
0.0
 10
-17.74069165609497
 20
7.005591451025186
 30
0.0
 10
-17.74112623304488
 20
7.002192924658844
 30
0.0
 10
-17.74180958921726
 20
6.999487353102818
 30
0.0
 10
-17.74308701407126
 20
6.99891650834756
 30
0.0
 10
-17.74359893799031
 20
6.998687744140127
 30
0.0
 11
-17.74065399170031
 21
7.00985717774013
 31
0.0
 11
-17.74079132080031
 21
7.00531005860013
 31
0.0
 11
-17.74127960205031
 21
7.001739501950126
 31
0.0
 11
-17.74221038818031
 21
6.999511718750127
 31
0.0
 11
-17.74359893799031
 21
6.998687744140127
 31
0.0
  0
SPLINE
  5
86B8
330
1F
100
AcDbEntity
  8
AM_0
100
AcDbSpline
210
0.0
220
0.0
230
1.0
 70
     8
 71
     3
 72
    11
 73
     7
 74
     5
 42
0.0000000001
 43
0.0000000001
 44
0.0000000001
 40
0.0
 40
0.0
 40
0.0
 40
0.0
 40
0.0072490811733218
 40
0.0203691999016678
 40
0.038785698629165
 40
0.0614827819164895
 40
0.0614827819164895
 40
0.0614827819164895
 40
0.0614827819164895
 10
-17.75994110108031
 20
9.21868896485013
 30
0.0
 10
-17.76070952796091
 20
9.216384145057199
 30
0.0
 10
-17.76286873136429
 20
9.209907829786745
 30
0.0
 10
-17.77109131183116
 20
9.199674178789962
 30
0.0
 10
-17.78211067229616
 20
9.185450873718558
 30
0.0
 10
-17.7908516552109
 20
9.174875232788091
 30
0.0
 10
-17.79567718506031
 20
9.16903686524013
 30
0.0
 11
-17.75994110108031
 21
9.21868896485013
 31
0.0
 11
-17.76251983643031
 21
9.211914062500127
 31
0.0
 11
-17.76992034912031
 21
9.201080322270129
 31
0.0
 11
-17.78131866455031
 21
9.18661499024013
 31
0.0
 11
-17.79567718506031
 21
9.16903686524013
 31
0.0
  0
ELLIPSE
  5
86CC
330
1F
100
AcDbEntity
  8
AM_0
100
AcDbEllipse
 10
-4.215873718260283
 20
-3.143737792969844
 30
0.0
 11
0.1046983562899951
 21
2.998168907269985
 31
0.0
210
0.0
220
0.0
230
1.0
 40
0.9848083473941001
 41
4.17118901757482
 42
4.71238518059159
  0
ELLIPSE
  5
86CD
330
1F
100
AcDbEntity
  8
AM_0
100
AcDbEllipse
 10
-4.319999694830286
 20
-3.140106201169842
 30
0.0
 11
0.0837593298099885
 21
2.398528996070013
 31
0.0
210
0.0
220
0.0
230
1.0
 40
0.9848129778075
 41
4.171188835386557
 42
4.476931316079177
  0
ELLIPSE
  5
86CE
330
1F
100
AcDbEntity
  8
AM_0
100
AcDbEllipse
 10
-4.330467224120283
 20
-3.137176513669842
 30
0.0
 11
-0.0092430252700145
 21
2.405822641369979
 31
0.0
210
0.0
220
0.0
230
0.9999999999999998
 40
0.9867935489125999
 41
4.438249875148908
 42
4.442881437511941
  0
ELLIPSE
  5
86CF
330
1F
100
AcDbEntity
  8
AM_0
100
AcDbEllipse
 10
-10.08604431152029
 20
0.6590576171901433
 30
0.0
 11
0.5855792841899714
 21
9.370422168229996
 31
0.0
210
0.0
220
0.0
230
0.9999999999999998
 40
0.9844855647675998
 41
4.12238518507174
 42
4.1257752243432
  0
ELLIPSE
  5
86D0
330
1F
100
AcDbEntity
  8
AM_0
100
AcDbEllipse
 10
-10.09944915772028
 20
0.6694030761701413
 30
0.0
 11
0.3280523337799749
 21
9.39428685435999
 31
0.0
210
0.0
220
0.0
230
1.0
 40
0.9848062643736
 41
4.098261801473643
 42
4.171299795781912
  0
ELLIPSE
  5
86D1
330
1F
100
AcDbEntity
  8
AM_0
100
AcDbEllipse
 10
-9.995323181150283
 20
0.6657714843801444
 30
0.0
 11
0.3489909635199753
 21
9.99389695893001
 31
0.0
210
0.0
220
0.0
230
0.9999999999999998
 40
0.9848096673695
 41
3.141592564818521
 42
4.171299217144858
  0
ELLIPSE
  5
86D2
330
1F
100
AcDbEntity
  8
AM_0
100
AcDbEllipse
 10
-9.820625305180286
 20
-0.6937561035098554
 30
0.0
 11
8.863079275049994
 21
1.222137420610028
 31
0.0
210
0.0
220
0.0
230
1.0
 40
0.6963647798072001
 41
5.807983857312109
 42
5.856433132798977
  0
ELLIPSE
  5
86D3
330
1F
100
AcDbEntity
  8
AM_0
100
AcDbEllipse
 10
-10.04773712158028
 20
0.0045776367201427
 30
0.0
 11
0.3129803346399847
 21
8.962615540349988
 31
0.0
210
0.0
220
0.0
230
1.0
 40
0.9848069570825
 41
4.31368350820979
 42
4.471740848610584
  0
ELLIPSE
  5
86D4
330
1F
100
AcDbEntity
  8
AM_0
100
AcDbEllipse
 10
-10.04773712158028
 20
0.0045776367201427
 30
0.0
 11
0.3129803346399847
 21
8.962615540349988
 31
0.0
210
0.0
220
0.0
230
1.0
 40
0.9848069570825
 41
4.153740558726555
 42
4.31116276463014
  0
ELLIPSE
  5
86D5
330
1F
100
AcDbEntity
  8
AM_0
100
AcDbEllipse
 10
-9.868171691900286
 20
-0.1197204589798559
 30
0.0
 11
2.47974778153998
 21
8.483215409049993
 31
0.0
210
0.0
220
0.0
230
1.0
 40
0.9767493930159998
 41
4.396674272370541
 42
4.399812312561191
  0
ELLIPSE
  5
86D6
330
1F
100
AcDbEntity
  8
AM_0
100
AcDbEllipse
 10
-10.04773712158028
 20
0.0045776367201427
 30
0.0
 11
0.3129803346399847
 21
8.962615540349988
 31
0.0
210
0.0
220
0.0
230
1.0
 40
0.9848069570825
 41
3.191824917634772
 42
4.147154891259001
  0
ELLIPSE
  5
86D7
330
1F
100
AcDbEntity
  8
AM_0
100
AcDbEllipse
 10
-5.737174987790311
 20
3.542449951170155
 30
0.0
 11
-3.947151311000007
 21
4.656524502870005
 31
0.0
210
0.0
220
0.0
230
1.0
 40
0.5601380371297
 41
2.071373138814347
 42
3.389390288874761
  0
ELLIPSE
  5
86D8
330
1F
100
AcDbEntity
  8
AM_0
100
AcDbEllipse
 10
-12.29819488525028
 20
-5.307495117189859
 30
0.0
 11
0.0523491781399882
 21
1.499084453640023
 31
0.0
210
0.0
220
0.0
230
1.0
 40
0.9848105726368
 41
3.141592564818602
 42
4.295384145675738
  0
ELLIPSE
  5
86D9
330
1F
100
AcDbEntity
  8
AM_0
100
AcDbEllipse
 10
-12.29819488525028
 20
-5.307495117189859
 30
0.0
 11
0.0523491781399882
 21
1.499084453640023
 31
0.0
210
0.0
220
0.0
230
1.0
 40
0.9848105726368
 41
1.570802826763602
 42
3.141592742360983
  0
ELLIPSE
  5
86DA
330
1F
100
AcDbEntity
  8
AM_0
100
AcDbEllipse
 10
-5.737174987790311
 20
3.542480468750156
 30
0.0
 11
-3.947150876190017
 21
4.656555501219989
 31
0.0
210
0.0
220
0.0
230
1.0
 40
0.5601358931565001
 41
2.017937929348319
 42
2.071374740452257
  0
ELLIPSE
  5
86DB
330
1F
100
AcDbEntity
  8
AM_0
100
AcDbEllipse
 10
-11.56380462647031
 20
2.690460205080142
 30
0.0
 11
-0.0261802359100105
 21
2.999877895590003
 31
0.0
210
0.0
220
0.0
230
1.0
 40
0.9848105509080999
 41
2.356195513092846
 42
3.141592742360985
  0
ELLIPSE
  5
86DC
330
1F
100
AcDbEntity
  8
AM_0
100
AcDbEllipse
 10
-6.203681945800283
 20
1.037170410160157
 30
0.0
 11
-0.0130881510900055
 21
1.499938964959994
 31
0.0
210
0.0
220
0.0
230
1.0
 40
0.9848091998658999
 41
2.619194701210167
 42
3.141592742361106
  0
ELLIPSE
  5
86DD
330
1F
100
AcDbEntity
  8
AM_0
100
AcDbEllipse
 10
-14.79808807373031
 20
5.701660156250142
 30
0.0
 11
-0.0261841696600189
 21
2.999877861259987
 31
0.0
210
0.0
220
0.0
230
0.9999999999999998
 40
0.9848118224771999
 41
1.570796604639859
 42
2.033990804687615
  0
ELLIPSE
  5
86DE
330
1F
100
AcDbEntity
  8
AM_0
100
AcDbEllipse
 10
-15.05855560303031
 20
5.699371337890141
 30
0.0
 11
-0.0235670398900023
 21
2.699890040050007
 31
0.0
210
0.0
220
0.0
230
1.0
 40
0.9848111953889
 41
1.570790499910206
 42
2.181179638693532
  0
ELLIPSE
  5
86DF
330
1F
100
AcDbEntity
  8
AM_0
100
AcDbEllipse
 10
-3.283363342290286
 20
1.06265258789017
 30
0.0
 11
-0.013088151080001
 21
1.499938964959994
 31
0.0
210
0.0
220
0.0
230
1.0
 40
0.9848142861422999
 41
3.141592564818937
 42
3.663896826538403
  0
ELLIPSE
  5
86E0
330
1F
100
AcDbEntity
  8
AM_0
100
AcDbEllipse
 10
-3.706489562990284
 20
1.058959960940157
 30
0.0
 11
-0.013088151080001
 21
1.499938964959994
 31
0.0
210
0.0
220
0.0
230
1.0
 40
0.9848091998658999
 41
3.141592564818479
 42
3.663900260977336
  0
ELLIPSE
  5
86E1
330
1F
100
AcDbEntity
  8
AM_0
100
AcDbEllipse
 10
-12.03900909424031
 20
2.68630981445014
 30
0.0
 11
-0.023563499520014
 21
2.699890070960009
 31
0.0
210
0.0
220
0.0
230
1.0
 40
0.9848126082433999
 41
2.543422887842464
 42
3.141592742360799
  0
ELLIPSE
  5
870B
330
1F
100
AcDbEntity
  8
AM_0
100
AcDbEllipse
 10
-12.11635589600028
 20
-5.313842773439859
 30
0.0
 11
0.0331535473399906
 21
0.9494324010000243
 31
0.0
210
0.0
220
0.0
230
1.0
 40
0.9847924599874
 41
0.0
 42
6.283185307179586
  0
ELLIPSE
  5
870C
330
1F
100
AcDbEntity
  8
AM_0
100
AcDbEllipse
 10
-9.928268432620328
 20
9.704986572270144
 30
0.0
 11
-0.0872654226500258
 21
9.999633535709989
 31
0.0
210
0.0
220
0.0
230
1.0
 40
0.8111587364786998
 41
1.674951775085262
 42
1.814619517221458
  0
ELLIPSE
  5
870D
330
1F
100
AcDbEntity
  8
AM_0
100
AcDbEllipse
 10
-17.33760833740031
 20
8.600280761720128
 30
0.0
 11
-0.0069809260600111
 21
0.7999572739900032
 31
0.0
210
0.0
220
0.0
230
1.0
 40
0.8111721231955
 41
0.773028558334352
 42
1.570813284621581
  0
ELLIPSE
  5
870E
330
1F
100
AcDbEntity
  8
AM_0
100
AcDbEllipse
 10
-17.52858734131031
 20
8.598632812500127
 30
0.0
 11
-0.0069809260600111
 21
0.7999572739900032
 31
0.0
210
0.0
220
0.0
230
1.0
 40
0.8111721231955
 41
0.517080467752807
 42
0.6757876064967507
  0
ELLIPSE
  5
870F
330
1F
100
AcDbEntity
  8
AM_0
100
AcDbEllipse
 10
-17.58069610596031
 20
8.598175048830128
 30
0.0
 11
0.6074676620999913
 21
0.6181640657599996
 31
0.0
210
0.0
220
0.0
230
1.0
 40
0.8390994988504999
 41
0.6989690369085589
 42
1.214828744351358
  0
ELLIPSE
  5
8712
330
1F
100
AcDbEntity
  8
AM_0
100
AcDbEllipse
 10
-1.701728820800283
 20
-2.52560424804983
 30
0.0
 11
-0.4631004421400037
 21
0.016174344700004
 31
0.0
210
0.0
220
0.0
230
0.9999999999999998
 40
0.8632028446131
 41
3.141592552312547
 42
3.926998053682399
  0
ELLIPSE
  5
8713
330
1F
100
AcDbEntity
  8
AM_0
100
AcDbEllipse
 10
-1.701728820800283
 20
-2.52560424804983
 30
0.0
 11
0.3169250459999938
 21
0.2955322191900229
 31
0.0
210
0.0
220
0.0
230
1.0
 40
0.8391047132913
 41
6.196891801779217
 42
6.441544204617656
  0
ELLIPSE
  5
8714
330
1F
100
AcDbEntity
  8
AM_0
100
AcDbEllipse
 10
-17.75110626221028
 20
-0.0030212402298559
 30
0.0
 11
-0.1541598552400281
 21
9.002380409929997
 31
0.0
210
0.0
220
0.0
230
1.0
 40
0.7000118312936001
 41
0.0051458518789336
 42
0.013446255115514
  0
ELLIPSE
  5
8715
330
1F
100
AcDbEntity
  8
AM_0
100
AcDbEllipse
 10
-17.95156097412028
 20
0.0000000000001421
 30
0.0
 11
-0.0810621622600146
 21
9.00000020499999
 31
0.0
210
0.0
220
0.0
230
1.0
 40
0.1763195297051
 41
6.223345531756525
 42
6.255714350032429
  0
ELLIPSE
  5
8716
330
1F
100
AcDbEntity
  8
AM_0
100
AcDbEllipse
 10
-17.95156097412028
 20
0.000122070310141
 30
0.0
 11
-0.0810618608400269
 21
8.999847613639985
 31
0.0
210
0.0
220
0.0
230
0.9999999999999998
 40
0.1763208236118
 41
6.207263296397534
 42
6.223340232432815
  0
ELLIPSE
  5
8717
330
1F
100
AcDbEntity
  8
AM_0
100
AcDbEllipse
 10
-9.703987121580283
 20
0.0000000000001421
 30
0.0
 11
-51.04353514161999
 21
0.0142827976499249
 31
0.0
210
0.0
220
0.0
230
1.0
 40
0.1763200691859
 41
4.874601930479445
 42
4.956814573513722
  0
ELLIPSE
  5
8718
330
1F
100
AcDbEntity
  8
AM_0
100
AcDbEllipse
 10
-13.41152191162028
 20
0.0000000000001421
 30
0.0
 11
-9.405556354410027
 21
8.964110074739988
 31
0.0
210
0.0
220
0.0
230
1.0
 40
0.0853623276112
 41
5.816569271661339
 42
5.951277307087497
  0
ELLIPSE
  5
8719
330
1F
100
AcDbEntity
  8
AM_0
100
AcDbEllipse
 10
-2.581764221190283
 20
0.0000000000001705
 30
0.0
 11
-51.04353895631001
 21
0.0142827987098841
 31
0.0
210
0.0
220
0.0
230
0.9999999999999998
 40
0.1763200560088
 41
5.091430459949917
 42
5.189328146630046
  0
ELLIPSE
  5
871A
330
1F
100
AcDbEntity
  8
AM_0
100
AcDbEllipse
 10
-14.28063201904028
 20
0.0000000000001421
 30
0.0
 11
51.073610745512
 21
0.0571594221901123
 31
0.0
210
0.0
220
0.0
230
1.0
 40
0.1762126634286
 41
4.706402794603924
 42
4.797749474750244
  0
ELLIPSE
  5
871B
330
1F
100
AcDbEntity
  8
AM_0
100
AcDbEllipse
 10
-9.571861267090284
 20
0.0000000000001421
 30
0.0
 11
0.3243641307299859
 21
8.999816718919987
 31
0.0
210
0.0
220
0.0
230
1.0
 40
0.1762129387547
 41
2.213951410518653
 42
2.414129143352035
  0
ELLIPSE
  5
871C
330
1F
100
AcDbEntity
  8
AM_0
100
AcDbEllipse
 10
-12.61999511719027
 20
0.0000000000001421
 30
0.0
 11
0.3243641307299859
 21
8.999816718919987
 31
0.0
210
0.0
220
0.0
230
1.0
 40
0.1762129387547
 41
2.199278950376991
 42
2.490027857885591
  0
ELLIPSE
  5
871D
330
1F
100
AcDbEntity
  8
AM_0
100
AcDbEllipse
 10
-44.82071685791029
 20
0.0000000000000853
 30
0.0
 11
51.07361837492001
 21
0.0571594247900734
 31
0.0
210
0.0
220
0.0
230
1.0
 40
0.1762126371059
 41
5.363972336667377
 42
5.439450530547274
  0
ELLIPSE
  5
8724
330
1F
100
AcDbEntity
  8
AM_0
100
AcDbEllipse
 10
-8.444374084470311
 20
9.717956542970156
 30
0.0
 11
-0.0872654226600303
 21
9.999633535709989
 31
0.0
210
0.0
220
0.0
230
1.0
 40
0.9848062732606999
 41
1.892468921801274
 42
3.14159274236137
  0
ELLIPSE
  5
8725
330
1F
100
AcDbEntity
  8
AM_0
100
AcDbEllipse
 10
-23.31516265869031
 20
3.284149169920127
 30
0.0
 11
-71.00316669239008
 21
37.12188195809986
 31
0.0
210
0.0
220
0.0
230
1.0
 40
0.0827711530095
 41
4.582522904048317
 42
4.675905357308312
  0
ELLIPSE
  5
8726
330
1F
100
AcDbEntity
  8
AM_0
100
AcDbEllipse
 10
-23.31516265869031
 20
3.284149169920127
 30
0.0
 11
-71.00317345350008
 21
37.12188549293987
 31
0.0
210
0.0
220
0.0
230
0.9999999999999996
 40
0.0827711867877
 41
4.461701428836268
 42
4.534696658871509
  0
ELLIPSE
  5
8727
330
1F
100
AcDbEntity
  8
AM_0
100
AcDbEllipse
 10
-22.07161712647031
 20
5.662658691410129
 30
0.0
 11
-71.00317345349006
 21
37.12188549293986
 31
0.0
210
0.0
220
0.0
230
1.0
 40
0.0827711213221
 41
4.441311491537417
 42
4.534696796472662
  0
ELLIPSE
  5
8728
330
1F
100
AcDbEntity
  8
AM_0
100
AcDbEllipse
 10
-22.07161712647031
 20
5.662658691410129
 30
0.0
 11
-71.00317345349006
 21
37.12188549293986
 31
0.0
210
0.0
220
0.0
230
1.0
 40
0.0827711213221
 41
4.582523020918167
 42
4.655540490489408
  0
ELLIPSE
  5
8729
330
1F
100
AcDbEntity
  8
AM_0
100
AcDbEllipse
 10
-23.07614898682031
 20
3.741271972660129
 30
0.0
 11
-70.94276973337007
 21
37.09030521457984
 31
0.0
210
0.0
220
0.0
230
1.0
 40
0.0827710714972
 41
4.585885417236084
 42
4.680944393709289
  0
ELLIPSE
  5
872A
330
1F
100
AcDbEntity
  8
AM_0
100
AcDbEllipse
 10
-22.31063079834031
 20
5.20550537110013
 30
0.0
 11
-70.94276973338008
 21
37.09030521457984
 31
0.0
210
0.0
220
0.0
230
1.0
 40
0.0827711370185
 41
4.585885383432316
 42
4.667614679330817
  0
ELLIPSE
  5
872B
330
1F
100
AcDbEntity
  8
AM_0
100
AcDbEllipse
 10
-8.966407775880313
 20
4.593200683600159
 30
0.0
 11
-0.0196343717900094
 21
2.249908369109988
 31
0.0
210
0.0
220
0.0
230
1.0
 40
0.9848101531403999
 41
3.704585891087394
 42
4.712394337669096
  0
ELLIPSE
  5
872C
330
1F
100
AcDbEntity
  8
AM_0
100
AcDbEllipse
 10
-8.966407775880313
 20
4.593200683600159
 30
0.0
 11
-0.0196343717900094
 21
2.249908369109988
 31
0.0
210
0.0
220
0.0
230
1.0
 40
0.9848101531403999
 41
4.712394337669096
 42
6.758681789685365
  0
ELLIPSE
  5
872D
330
1F
100
AcDbEntity
  8
AM_0
100
AcDbEllipse
 10
-23.07616424561031
 20
3.741271972660129
 30
0.0
 11
-70.94276973337007
 21
37.09030521457984
 31
0.0
210
0.0
220
0.0
230
1.0
 40
0.0827711370185
 41
4.449600543462847
 42
4.531336022719772
  0
ELLIPSE
  5
872E
330
1F
100
AcDbEntity
  8
AM_0
100
AcDbEllipse
 10
-22.31063079834031
 20
5.20550537110013
 30
0.0
 11
-70.94276973338008
 21
37.09030521457984
 31
0.0
210
0.0
220
0.0
230
1.0
 40
0.0827711370185
 41
4.436271945889649
 42
4.531336022719772
  0
ELLIPSE
  5
872F
330
1F
100
AcDbEntity
  8
AM_0
100
AcDbEllipse
 10
-9.078323364260327
 20
4.39221191406014
 30
0.0
 11
-0.0187606290300025
 21
2.149932786459999
 31
0.0
210
0.0
220
0.0
230
1.0
 40
0.9848010854070999
 41
3.186536942657149
 42
6.283185307179586
  0
ELLIPSE
  5
8730
330
1F
100
AcDbEntity
  8
AM_0
100
AcDbEllipse
 10
-9.074806213380313
 20
4.392242431640141
 30
0.0
 11
-0.0148353783800024
 21
1.699920651259986
 31
0.0
210
0.0
220
0.0
230
1.0
 40
0.9848145694077999
 41
0.0
 42
6.283185307179586
  0
ELLIPSE
  5
8731
330
1F
100
AcDbEntity
  8
AM_0
100
AcDbEllipse
 10
-9.161621093750298
 20
4.391479492190143
 30
0.0
 11
-0.0187606290300025
 21
2.149932786459999
 31
0.0
210
0.0
220
0.0
230
1.0
 40
0.9848010854070999
 41
0.0
 42
0.8550497602965565
  0
ELLIPSE
  5
8732
330
1F
100
AcDbEntity
  8
AM_0
100
AcDbEllipse
 10
-9.078323364260327
 20
4.39221191406014
 30
0.0
 11
-0.0187606290300025
 21
2.149932786459999
 31
0.0
210
0.0
220
0.0
230
1.0
 40
0.9848010854070999
 41
0.0
 42
1.093395060981135
  0
ELLIPSE
  5
8733
330
1F
100
AcDbEntity
  8
AM_0
100
AcDbEllipse
 10
-9.074806213380313
 20
4.392242431640141
 30
0.0
 11
-0.0122185227800059
 21
1.399932827659995
 31
0.0
210
0.0
220
0.0
230
1.0
 40
0.9848140337969999
 41
3.141592564818914
 42
6.283185307179586
  0
ELLIPSE
  5
8734
330
1F
100
AcDbEntity
  8
AM_0
100
AcDbEllipse
 10
-9.074806213380313
 20
4.392242431640141
 30
0.0
 11
-0.0122185227800059
 21
1.399932827659995
 31
0.0
210
0.0
220
0.0
230
1.0
 40
0.9848140337969999
 41
0.0
 42
3.141592742360671
  0
ELLIPSE
  5
8735
330
1F
100
AcDbEntity
  8
AM_0
100
AcDbEllipse
 10
-9.283164978030313
 20
4.39041137695014
 30
0.0
 11
-0.0122185227800059
 21
1.399932827659995
 31
0.0
210
0.0
220
0.0
230
1.0
 40
0.9848194834184999
 41
3.226845935834066
 42
6.196779628739031
  0
LINE
  5
8739
330
1F
100
AcDbEntity
  8
AM_0
100
AcDbLine
 10
-247.0000000000002
 20
-12.50000000000035
 30
0.0
 11
-80.00000000000023
 21
-12.49999999999998
 31
0.0
  0
LINE
  5
873A
330
1F
100
AcDbEntity
  8
AM_0
100
AcDbLine
 10
-80.00000000000026
 20
12.5
 30
0.0
 11
-247.0000000000001
 21
12.4999999999997
 31
0.0
  0
LINE
  5
873D
330
1F
100
AcDbEntity
  8
AM_0
100
AcDbLine
 10
-248.5176391601502
 20
-12.09335327148031
 30
0.0
 11
-248.5176391601502
 21
12.09335327148969
 31
0.0
  0
LINE
  5
873E
330
1F
100
AcDbEntity
  8
AM_0
100
AcDbLine
 10
-247.0000000000002
 20
-12.50000000000031
 30
0.0
 11
-247.0000000000002
 21
12.49999999999969
 31
0.0
  0
LINE
  5
873F
330
1F
100
AcDbEntity
  8
AM_0
100
AcDbLine
 10
-250.0000000000002
 20
-10.16149902344031
 30
0.0
 11
-250.0000000000002
 21
10.16149902343968
 31
0.0
  0
LINE
  5
8742
330
1F
100
AcDbEntity
  8
AM_0
100
AcDbLine
 10
-248.5176544189402
 20
-12.09338378906031
 30
0.0
 11
-247.0000152587802
 21
-12.50003051758032
 31
0.0
  0
ARC
  5
8743
330
1F
100
AcDbEntity
  8
AM_0
100
AcDbCircle
 10
-248.0000000000002
 20
-10.16149902344031
 30
0.0
 40
2.0
100
AcDbArc
 50
180.0000086514213
 51
255.0000004932057
  0
LINE
  5
8744
330
1F
100
AcDbEntity
  8
AM_0
100
AcDbLine
 10
-247.0000152587802
 20
12.49998474120969
 30
0.0
 11
-248.5176544189402
 21
12.09333801269969
 31
0.0
  0
ARC
  5
8745
330
1F
100
AcDbEntity
  8
AM_0
100
AcDbCircle
 10
-248.0000000000002
 20
10.16149902343969
 30
0.0
 40
2.000000238418599
100
AcDbArc
 50
104.9999926766061
 51
180.0000050089569
  0
ARC
  5
8747
330
1F
100
AcDbEntity
  8
AM_11
100
AcDbCircle
 10
-10.00000000000027
 20
0.0000000000001421
 30
0.0
 40
10.0
100
AcDbArc
 50
269.9999974955215
 51
90.00000250447845
  0
LINE
  5
874A
330
1F
100
AcDbEntity
  8
AM_11
100
AcDbLine
 10
-20.50000762940031
 20
10.00000000000012
 30
0.0
 11
-20.50000762940028
 21
-9.999999999999872
 31
0.0
  0
LINE
  5
874C
330
1F
100
AcDbEntity
  8
AM_0
100
AcDbLine
 10
-80.00000000000023
 20
-12.49999999999998
 30
0.0
 11
-80.00000000000028
 21
12.5
 31
0.0
  0
LINE
  5
874D
330
1F
100
AcDbEntity
  8
AM_0
100
AcDbLine
 10
-77.00000000000023
 20
-11.49999999999998
 30
0.0
 11
-77.00000000000028
 21
11.50000000000001
 31
0.0
  0
LINE
  5
874E
330
1F
100
AcDbEntity
  8
AM_0
100
AcDbLine
 10
-70.00000000000023
 20
-11.49999999999996
 30
0.0
 11
-70.00000000000028
 21
11.50000000000003
 31
0.0
  0
LINE
  5
8756
330
1F
100
AcDbEntity
  8
AM_7
100
AcDbLine
 10
2.41439819335973
 20
0.0000000000001705
 30
0.0
 11
-253.0224861707011
 21
-0.0000000000003032
 31
0.0
  0
LINE
  5
8757
330
1F
100
AcDbEntity
  8
AM_0
100
AcDbLine
 10
-40.01628875733027
 20
-8.999999999999914
 30
0.0
 11
-14.57848358154028
 21
-8.999999999999857
 31
0.0
  0
LINE
  5
8758
330
1F
100
AcDbEntity
  8
AM_0
100
AcDbLine
 10
-17.93770599365031
 20
9.000000000000127
 30
0.0
 11
-40.01628875733032
 21
9.000000000000085
 31
0.0
  0
LINE
  5
8759
330
1F
100
AcDbEntity
  8
AM_0
100
AcDbLine
 10
-21.46660614014031
 20
8.366485595700126
 30
0.0
 11
-13.63431549072028
 21
0.5509948730501435
 31
0.0
  0
LINE
  5
8761
330
1F
100
AcDbEntity
  8
AM_0
100
AcDbLine
 10
-77.00000000000023
 20
-11.49999999999998
 30
0.0
 11
-70.00000000000023
 21
-11.49999999999996
 31
0.0
  0
ARC
  5
8762
330
1F
100
AcDbEntity
  8
AM_0
100
AcDbCircle
 10
-77.00000000000023
 20
-16.49999999999997
 30
0.0
 40
5.0
100
AcDbArc
 50
90.00000250447845
 51
126.8699032291534
  0
LINE
  5
8763
330
1F
100
AcDbEntity
  8
AM_0
100
AcDbLine
 10
-40.01628875733027
 20
-8.999999999999914
 30
0.0
 11
-40.01628875733032
 21
9.000000000000085
 31
0.0
  0
LINE
  5
8764
330
1F
100
AcDbEntity
  8
AM_0
100
AcDbLine
 10
-1.270484924320285
 20
-0.4197998046898306
 30
0.0
 11
-6.382499694830286
 21
-0.4644165038998409
 31
0.0
  0
LINE
  5
8765
330
1F
100
AcDbEntity
  8
AM_0
100
AcDbLine
 10
-2.722801208500285
 20
-0.2325134277298275
 30
0.0
 11
-1.682403564450268
 21
-0.2234191894498281
 31
0.0
  0
LINE
  5
8766
330
1F
100
AcDbEntity
  8
AM_0
100
AcDbLine
 10
-2.338470458990272
 20
-4.446197509759826
 30
0.0
 11
-1.738960266110282
 21
-4.776367187499829
 31
0.0
  0
LINE
  5
8767
330
1F
100
AcDbEntity
  8
AM_11
100
AcDbLine
 10
-20.50000762940028
 20
-9.999999999999872
 30
0.0
 11
-10.00000000000027
 21
-9.999999999999857
 31
0.0
  0
LINE
  5
8768
330
1F
100
AcDbEntity
  8
AM_0
100
AcDbLine
 10
-10.34432220459028
 20
-9.328155517579858
 30
0.0
 11
-14.11405181885028
 21
-9.196502685549859
 31
0.0
  0
LINE
  5
8769
330
1F
100
AcDbEntity
  8
AM_0
100
AcDbLine
 10
-12.01544952393028
 20
-0.0135803222598554
 30
0.0
 11
-10.75374603272028
 21
-0.0025939941398576
 31
0.0
  0
LINE
  5
876A
330
1F
100
AcDbEntity
  8
AM_0
100
AcDbLine
 10
-14.47087860108028
 20
-9.184020996089856
 30
0.0
 11
-17.64640045166028
 21
-9.073120117189859
 31
0.0
  0
LINE
  5
876B
330
1F
100
AcDbEntity
  8
AM_0
100
AcDbLine
 10
-18.21770477295028
 20
-9.053192138669871
 30
0.0
 11
-17.64640045166028
 21
-9.073120117189859
 31
0.0
  0
LINE
  5
876C
330
1F
100
AcDbEntity
  8
AM_0
100
AcDbLine
 10
-18.39157867432028
 20
-8.999999999999872
 30
0.0
 11
-18.38503265381028
 21
-9.047332763669871
 31
0.0
  0
LINE
  5
876D
330
1F
100
AcDbEntity
  8
AM_0
100
AcDbLine
 10
-18.38501739502028
 20
-9.047332763669871
 30
0.0
 11
-19.74065399170028
 21
-8.999999999999872
 31
0.0
  0
LINE
  5
876E
330
1F
100
AcDbEntity
  8
AM_0
100
AcDbLine
 10
-18.21125030518028
 20
-8.999999999999872
 30
0.0
 11
-18.21770477295028
 21
-9.053192138669871
 31
0.0
  0
LINE
  5
876F
330
1F
100
AcDbEntity
  8
AM_0
100
AcDbLine
 10
-18.21770477295028
 20
-9.053222656249872
 30
0.0
 11
-18.38501739502028
 21
-9.047363281249872
 31
0.0
  0
LINE
  5
8770
330
1F
100
AcDbEntity
  8
AM_0
100
AcDbLine
 10
-17.64640045166028
 20
-9.073120117189859
 30
0.0
 11
-17.63751983643028
 21
-8.999999999999857
 31
0.0
  0
LINE
  5
8771
330
1F
100
AcDbEntity
  8
AM_0
100
AcDbLine
 10
-14.47087860108028
 20
-9.184020996089856
 30
0.0
 11
-14.11405181885028
 21
-9.196472167969858
 31
0.0
  0
LINE
  5
8772
330
1F
100
AcDbEntity
  8
AM_0
100
AcDbLine
 10
-14.11403656006028
 20
-9.196502685549859
 30
0.0
 11
-14.14112091065028
 21
-8.999633789059856
 31
0.0
  0
LINE
  5
8773
330
1F
100
AcDbEntity
  8
AM_0
100
AcDbLine
 10
-14.48027801514028
 20
-8.999969482419857
 30
0.0
 11
-14.47087860108028
 21
-9.184051513669857
 31
0.0
  0
LINE
  5
8774
330
1F
100
AcDbEntity
  8
AM_0
100
AcDbLine
 10
-17.79706573486031
 20
8.59628295899013
 30
0.0
 11
-17.77701568604031
 21
8.444168090820127
 31
0.0
  0
LINE
  5
8775
330
1F
100
AcDbEntity
  8
AM_0
100
AcDbLine
 10
-17.98650360108031
 20
8.594619750980129
 30
0.0
 11
-17.79706573486031
 21
8.596267700200129
 31
0.0
  0
LINE
  5
8776
330
1F
100
AcDbEntity
  8
AM_0
100
AcDbLine
 10
-17.76395416260031
 20
6.998504638670127
 30
0.0
 11
-17.74361419678031
 21
6.998687744140127
 31
0.0
  0
LINE
  5
8777
330
1F
100
AcDbEntity
  8
AM_0
100
AcDbLine
 10
-17.76299285889031
 20
9.221099853520129
 30
0.0
 11
-17.93962860108031
 21
9.219573974610128
 31
0.0
  0
LINE
  5
8778
330
1F
100
AcDbEntity
  8
AM_0
100
AcDbLine
 10
-17.74359893799031
 20
6.998687744140127
 30
0.0
 11
-17.74391937256031
 21
7.034225463870129
 31
0.0
  0
LINE
  5
8779
330
1F
100
AcDbEntity
  8
AM_0
100
AcDbLine
 10
-17.76291656494031
 20
9.211608886720128
 30
0.0
 11
-17.76300811768031
 21
9.221099853520129
 31
0.0
  0
LINE
  5
877A
330
1F
100
AcDbEntity
  8
AM_0
100
AcDbLine
 10
-17.93961334229031
 20
9.219558715820127
 30
0.0
 11
-17.93756866455031
 21
8.984741210940129
 31
0.0
  0
LINE
  5
877B
330
1F
100
AcDbEntity
  8
AM_0
100
AcDbLine
 10
-17.75240325928031
 20
5.675857543950129
 30
0.0
 11
-17.76534271240031
 21
7.159072875980129
 31
0.0
  0
LINE
  5
877C
330
1F
100
AcDbEntity
  8
AM_0
100
AcDbLine
 10
-17.71743011475031
 20
5.676177978520129
 30
0.0
 11
-17.75240325928031
 21
5.67587280274013
 31
0.0
  0
LINE
  5
877D
330
1F
100
AcDbEntity
  8
AM_0
100
AcDbLine
 10
-17.72348785400031
 20
6.370666503910129
 30
0.0
 11
-17.71743011475031
 21
5.676177978520129
 31
0.0
  0
LINE
  5
877E
330
1F
100
AcDbEntity
  8
AM_0
100
AcDbLine
 10
-13.77451324463028
 20
-5.255920410149855
 30
0.0
 11
-14.09355926514028
 21
-5.244781494139857
 31
0.0
  0
LINE
  5
877F
330
1F
100
AcDbEntity
  8
AM_0
100
AcDbLine
 10
-13.83963775635028
 20
-7.121368408199856
 30
0.0
 11
-13.77451324463028
 21
-5.255920410149855
 31
0.0
  0
LINE
  5
8780
330
1F
100
AcDbEntity
  8
AM_0
100
AcDbLine
 10
-12.01544952393028
 20
-0.0135803222598554
 30
0.0
 11
-11.96653747559029
 21
-0.2814331054698584
 31
0.0
  0
LINE
  5
8781
330
1F
100
AcDbEntity
  8
AM_0
100
AcDbLine
 10
-10.39377593994028
 20
-8.969512939449856
 30
0.0
 11
-10.34432983399027
 21
-9.328124999999857
 31
0.0
  0
LINE
  5
8782
330
1F
100
AcDbEntity
  8
AM_0
100
AcDbLine
 10
-10.34432220459028
 20
-9.328124999999857
 30
0.0
 11
-9.719635009770271
 21
-9.349945068359858
 31
0.0
  0
LINE
  5
8783
330
1F
100
AcDbEntity
  8
AM_0
100
AcDbLine
 10
-6.382492065430298
 20
-0.4644470214798418
 30
0.0
 11
-9.916297912600285
 21
-0.4953002929698585
 31
0.0
  0
LINE
  5
8784
330
1F
100
AcDbEntity
  8
AM_0
100
AcDbLine
 10
-7.701728820800283
 20
-0.2759399413998551
 30
0.0
 11
-2.722808837890269
 21
-0.2325134277298275
 31
0.0
  0
LINE
  5
8785
330
1F
100
AcDbEntity
  8
AM_0
100
AcDbLine
 10
-9.916297912600285
 20
-8.962188720699856
 30
0.0
 11
-9.916297912600285
 21
-0.4953002929698585
 31
0.0
  0
LINE
  5
8786
330
1F
100
AcDbEntity
  8
AM_0
100
AcDbLine
 10
-11.28532409668029
 20
-0.5072326660098554
 30
0.0
 11
-9.916290283200268
 21
-0.4953002929698585
 31
0.0
  0
LINE
  5
8787
330
1F
100
AcDbEntity
  8
AM_0
100
AcDbLine
 10
-9.097084045410312
 20
6.542098999030145
 30
0.0
 11
-9.180389404300299
 21
6.541397094730143
 31
0.0
  0
LINE
  5
8788
330
1F
100
AcDbEntity
  8
AM_0
100
AcDbLine
 10
-11.53762817383027
 20
-0.3094177246098582
 30
0.0
 11
-7.701728820800283
 21
-0.2759399413998551
 31
0.0
  0
LINE
  5
8789
330
1F
100
AcDbEntity
  8
AM_0
100
AcDbLine
 10
-6.650184631350285
 20
-0.2667541503898434
 30
0.0
 11
-6.625816345220286
 21
-0.4001770019498423
 31
0.0
  0
LINE
  5
878A
330
1F
100
AcDbEntity
  8
AM_0
100
AcDbLine
 10
-3.729873657230299
 20
-0.2413024902298417
 30
0.0
 11
-3.693397521970283
 21
-0.4409790038998409
 31
0.0
  0
LINE
  5
878B
330
1F
100
AcDbEntity
  8
AM_0
100
AcDbLine
 10
-0.8817291259802999
 20
-2.845458984369827
 30
0.0
 11
-0.8738937377902828
 21
-2.554504394529828
 31
0.0
  0
LINE
  5
878C
330
1F
100
AcDbEntity
  8
AM_0
100
AcDbLine
 10
0.0000076293897138
 20
0.5912780761701697
 30
0.0
 11
-0.0162887573302868
 21
0.7434387207001692
 31
0.0
  0
LINE
  5
878D
330
1F
100
AcDbEntity
  8
AM_0
100
AcDbLine
 10
-1.270484924320285
 20
-2.140411376949828
 30
0.0
 11
-1.270484924320285
 21
-0.4287719726498267
 31
0.0
  0
LINE
  5
878E
330
1F
100
AcDbEntity
  8
AM_0
100
AcDbLine
 10
-1.270484924320285
 20
-2.140411376949828
 30
0.0
 11
-1.400177001950268
 21
-2.135894775389829
 31
0.0
  0
LINE
  5
878F
330
1F
100
AcDbEntity
  8
AM_0
100
AcDbLine
 10
-1.270484924320285
 20
-0.4287719726498267
 30
0.0
 11
-1.270484924320285
 21
-0.419830322259827
 31
0.0
  0
LINE
  5
8790
330
1F
100
AcDbEntity
  8
AM_0
100
AcDbLine
 10
-1.682403564450268
 20
-0.2234191894498281
 30
0.0
 11
-0.7740173339902725
 21
-0.2154846191398292
 31
0.0
  0
LINE
  5
8791
330
1F
100
AcDbEntity
  8
AM_0
100
AcDbLine
 10
-1.812744140630272
 20
-3.227691650389829
 30
0.0
 11
-1.263252258300283
 21
-3.246856689449828
 31
0.0
  0
LINE
  5
8792
330
1F
100
AcDbEntity
  8
AM_0
100
AcDbLine
 10
-1.364410400390269
 20
-2.254364013669828
 30
0.0
 11
-1.524475097660271
 21
-2.383087158199828
 31
0.0
  0
LINE
  5
8793
330
1F
100
AcDbEntity
  8
AM_0
100
AcDbLine
 10
-1.238624572750282
 20
-2.541748046869827
 30
0.0
 11
-1.263252258300283
 21
-3.24679565429983
 31
0.0
  0
LINE
  5
8794
330
1F
100
AcDbEntity
  8
AM_0
100
AcDbLine
 10
-1.238624572750282
 20
-2.541778564449828
 30
0.0
 11
-0.8739013671902711
 21
-2.554504394529828
 31
0.0
  0
LINE
  5
8795
330
1F
100
AcDbEntity
  8
AM_0
100
AcDbLine
 10
-1.270484924320285
 20
-2.140411376949828
 30
0.0
 11
-1.248237609860282
 21
-2.141204833979827
 31
0.0
  0
LINE
  5
8796
330
1F
100
AcDbEntity
  8
AM_0
100
AcDbLine
 10
-1.738967895510299
 20
-4.776367187499829
 30
0.0
 11
-1.281723022460298
 21
-4.792327880859829
 31
0.0
  0
LINE
  5
8797
330
1F
100
AcDbEntity
  8
AM_0
100
AcDbLine
 10
-1.263252258300283
 20
-3.246826171869827
 30
0.0
 11
-0.8862457275402988
 21
-3.260009765619827
 31
0.0
  0
LINE
  5
8798
330
1F
100
AcDbEntity
  8
AM_0
100
AcDbLine
 10
-1.270484924320285
 20
-0.2198181152298275
 30
0.0
 11
-1.270484924320285
 21
-0.419830322259827
 31
0.0
  0
LINE
  5
87D7
330
1F
100
AcDbEntity
  8
AM_0
100
AcDbLine
 10
-70.00000000000028
 20
11.50000000000003
 30
0.0
 11
-77.00000000000028
 21
11.50000000000001
 31
0.0
  0
ARC
  5
87D8
330
1F
100
AcDbEntity
  8
AM_0
100
AcDbCircle
 10
-77.00000000000028
 20
16.50000000000002
 30
0.0
 40
5.0
100
AcDbArc
 50
233.1300967708468
 51
269.9999974955215
  0
LINE
  5
87DA
330
1F
100
AcDbEntity
  8
AM_11
100
AcDbLine
 10
-20.50000762940031
 20
10.00000000000012
 30
0.0
 11
-10.00000000000029
 21
10.00000000000014
 31
0.0
  0
LINE
  5
87DB
330
1F
100
AcDbEntity
  8
AM_0
100
AcDbLine
 10
-14.96970367432031
 20
9.420974731450144
 30
0.0
 11
-9.649642944340328
 21
9.467391967780145
 31
0.0
  0
LINE
  5
87DC
330
1F
100
AcDbEntity
  8
AM_0
100
AcDbLine
 10
-17.00940704346031
 20
9.403198242190129
 30
0.0
 11
-16.06815338135031
 21
9.41140747070014
 31
0.0
  0
LINE
  5
87DD
330
1F
100
AcDbEntity
  8
AM_0
100
AcDbLine
 10
-17.44875335693031
 20
9.39933776856013
 30
0.0
 11
-17.00940704346031
 21
9.403182983400128
 31
0.0
  0
LINE
  5
87DE
330
1F
100
AcDbEntity
  8
AM_0
100
AcDbLine
 10
-16.06813812256031
 20
9.411392211920144
 30
0.0
 11
-14.96968841553031
 21
9.420974731450144
 31
0.0
  0
DIMENSION
  5
8981
330
1F
100
AcDbEntity
  8
AM_5
100
AcDbDimension
  2
*D5
 10
-20.50000762940029
 20
21.62287547337049
 30
0.0
 11
-10.25000381470025
 21
24.22287547337048
 31
0.0
 70
    32
  1
20
 51
359.9999999999998
  3
AM_JIS$0
100
AcDbAlignedDimension
 13
-0.0000000000002558
 23
0.0000000000001705
 33
0.0
 14
-20.50000762940031
 24
10.00000000000012
 34
0.0
 50
180.0
100
AcDbRotatedDimension
1001
GENIUS_GENDTOL_13
1000

1000
h7
1000

1040
0.0
1001
ACAD
1000
DSTYLE
1002
{
1070
   287
1070
     3
1070
   147
1040
1.0
1070
    40
1040
1.0
1070
    42
1040
1.0
1070
    43
1040
12.0
1070
    48
1040
0.1
1070
    78
1070
     8
1070
   140
1040
3.2
1070
   176
1070
   256
1070
   177
1070
   256
1070
   271
1070
     0
1070
   272
1070
     3
1070
   275
1070
     0
1070
   284
1070
     0
1070
   289
1070
     3
1070
   340
1005
6B
1070
   371
1070
    -1
1070
   372
1070
    -1
1002
}
  0
DIMENSION
  5
8A58
330
1F
100
AcDbEntity
  8
AM_5
100
AcDbDimension
  2
*D6
 10
14.51073602861443
 20
-9.99999999999985
 30
0.0
 11
11.91073602861443
 21
0.0000000000001451
 31
0.0
 70
    32
  1
%%c<>
 51
359.9999999999998
  3
AM_JIS$0
100
AcDbAlignedDimension
 13
-10.00000000000028
 23
10.00000000000014
 33
0.0
 14
-10.00000043711422
 24
-9.999999999999843
 34
0.0
 50
90.0
100
AcDbRotatedDimension
1001
GENIUS_GENDTOL_13
1000

1000
h7
1000

1040
0.0
1001
ACAD
1000
DSTYLE
1002
{
1070
   287
1070
     3
1070
   147
1040
1.0
1070
    40
1040
1.0
1070
    42
1040
1.0
1070
    43
1040
12.0
1070
    48
1040
0.1
1070
    78
1070
     8
1070
   140
1040
3.2
1070
   176
1070
   256
1070
   177
1070
   256
1070
   271
1070
     1
1070
   272
1070
     3
1070
   275
1070
     0
1070
   284
1070
     0
1070
   289
1070
     3
1070
   340
1005
6B
1070
   371
1070
    -1
1070
   372
1070
    -1
1002
}
  0
DIMENSION
  5
8B23
330
1F
100
AcDbEntity
  8
AM_5
100
AcDbDimension
  2
*D7
 10
-261.3212676853273
 20
-12.50003051758031
 30
0.0
 11
-263.9212676853273
 21
-0.00001525879035
 31
0.0
 70
    32
  1
%%c<>
 51
359.9999999999998
  3
AM_JIS$0
100
AcDbAlignedDimension
 13
-247.0000000000002
 23
12.49999999999969
 33
0.0
 14
-247.0000152587802
 24
-12.50003051758032
 34
0.0
 50
270.0
100
AcDbRotatedDimension
1001
GENIUS_GENDTOL_13
1000

1000
h7
1000

1040
0.0
1001
ACAD
1000
DSTYLE
1002
{
1070
   287
1070
     3
1070
   147
1040
1.0
1070
    40
1040
1.0
1070
    42
1040
1.0
1070
    43
1040
12.0
1070
    48
1040
0.1
1070
    78
1070
     8
1070
   140
1040
3.2
1070
   176
1070
   256
1070
   177
1070
   256
1070
   271
1070
     1
1070
   272
1070
     3
1070
   275
1070
     0
1070
   284
1070
     0
1070
   289
1070
     3
1070
   340
1005
6B
1070
   371
1070
    -1
1070
   372
1070
    -1
1002
}
  0
DIMENSION
  5
8BC1
330
1F
100
AcDbEntity
  8
AM_5
100
AcDbDimension
  2
*D8
 10
-40.01630401611026
 20
-20.66931786875571
 30
0.0
 11
-20.00815200805527
 21
-18.06931786875571
 31
0.0
 70
    32
  1
<>
 51
359.9999999999998
  3
AM_JIS$0
100
AcDbAlignedDimension
 13
-0.00000000000027
 23
0.0000000000001563
 33
0.0
 14
-40.01630401611026
 24
-8.999999999999914
 34
0.0
100
AcDbRotatedDimension
1001
GENIUS_GENDTOL_13
1000

1000
h7
1000

1040
0.0
1001
ACAD
1000
DSTYLE
1002
{
1070
   287
1070
     3
1070
   147
1040
1.0
1070
    40
1040
1.0
1070
    42
1040
1.0
1070
    43
1040
12.0
1070
    48
1040
0.1
1070
    78
1070
     8
1070
   140
1040
3.2
1070
   176
1070
   256
1070
   177
1070
   256
1070
   271
1070
     1
1070
   272
1070
     3
1070
   275
1070
     0
1070
   284
1070
     0
1070
   289
1070
     3
1070
   340
1005
6B
1070
   371
1070
    -1
1070
   372
1070
    -1
1002
}
  0
DIMENSION
  5
8C51
330
1F
100
AcDbEntity
  8
AM_5
100
AcDbDimension
  2
*D9
 10
-80.00000038978873
 20
-29.46315962624462
 30
0.0
 11
-40.0000001948945
 21
-26.86315962624461
 31
0.0
 70
    32
  1
<>
 51
359.9999999999998
  3
AM_JIS$0
100
AcDbAlignedDimension
 13
-0.00000000000027
 23
0.0000000000001563
 33
0.0
 14
-80.00000038978873
 24
-12.50000029234139
 34
0.0
100
AcDbRotatedDimension
1001
GENIUS_GENDTOL_13
1000

1000
h7
1000

1040
0.0
1001
ACAD
1000
DSTYLE
1002
{
1070
   287
1070
     3
1070
   147
1040
1.0
1070
    40
1040
1.0
1070
    42
1040
1.0
1070
    43
1040
12.0
1070
    48
1040
0.1
1070
    78
1070
     8
1070
   140
1040
3.2
1070
   176
1070
   256
1070
   177
1070
   256
1070
   271
1070
     1
1070
   272
1070
     3
1070
   275
1070
     0
1070
   284
1070
     0
1070
   289
1070
     3
1070
   340
1005
6B
1070
   371
1070
    -1
1070
   372
1070
    -1
1002
}
  0
DIMENSION
  5
8CEF
330
1F
100
AcDbEntity
  8
AM_5
100
AcDbDimension
  2
*D10
 10
-250.0000000000002
 20
-38.25700138373353
 30
0.0
 11
-125.0000000000002
 21
-35.65700138373353
 31
0.0
 70
    32
  1
<>
 51
359.9999999999998
  3
AM_JIS$0
100
AcDbAlignedDimension
 13
-0.00000000000027
 23
0.0000000000001563
 33
0.0
 14
-250.0000000000002
 24
-10.16149902344031
 34
0.0
100
AcDbRotatedDimension
1001
GENIUS_GENDTOL_13
1000

1000
h7
1000

1040
0.0
1001
ACAD
1000
DSTYLE
1002
{
1070
   287
1070
     3
1070
   147
1040
1.0
1070
    40
1040
1.0
1070
    42
1040
1.0
1070
    43
1040
12.0
1070
    48
1040
0.1
1070
    78
1070
     8
1070
   140
1040
3.2
1070
   176
1070
   256
1070
   177
1070
   256
1070
   271
1070
     1
1070
   272
1070
     3
1070
   275
1070
     0
1070
   284
1070
     0
1070
   289
1070
     3
1070
   340
1005
6B
1070
   371
1070
    -1
1070
   372
1070
    -1
1002
}
  0
DIMENSION
  5
8D84
330
1F
100
AcDbEntity
  8
AM_5
100
AcDbDimension
  2
*D11
 10
-250.0000000000002
 20
-29.4631596262449
 30
0.0
 11
-165.0000000000002
 21
-26.8631596262449
 31
0.0
 70
    32
  1
<>
 51
359.9999999999998
  3
AM_JIS$0
100
AcDbAlignedDimension
 13
-80.00000000000023
 23
-12.49999999999998
 33
0.0
 14
-250.0000000000002
 24
-10.16149902344031
 34
0.0
100
AcDbRotatedDimension
1001
GENIUS_GENDTOL_13
1000

1000
h7
1000

1040
0.0
1001
ACAD
1000
DSTYLE
1002
{
1070
   287
1070
     3
1070
   147
1040
1.0
1070
    40
1040
1.0
1070
    42
1040
1.0
1070
    43
1040
12.0
1070
    48
1040
0.1
1070
    78
1070
     8
1070
   140
1040
3.2
1070
   176
1070
   256
1070
   177
1070
   256
1070
   271
1070
     1
1070
   272
1070
     3
1070
   275
1070
     0
1070
   284
1070
     0
1070
   289
1070
     3
1070
   340
1005
6B
1070
   371
1070
    -1
1070
   372
1070
    -1
1002
}
  0
LINE
  5
8ED1
330
1F
100
AcDbEntity
  8
AM_0
100
AcDbLine
 10
-40.01628875733032
 20
9.000000000000085
 30
0.0
 11
-70.00000000000028
 21
11.50000000000003
 31
0.0
  0
LINE
  5
8ED2
330
1F
100
AcDbEntity
  8
AM_0
100
AcDbLine
 10
-40.01628875733027
 20
-8.999999999999914
 30
0.0
 11
-70.00000000000023
 21
-11.49999999999996
 31
0.0
  0
VIEWPORT
  5
110
330
101
100
AcDbEntity
 67
     1
  8
0
100
AcDbViewport
 10
420.5
 20
297.0
 30
0.0
 40
948.9782706766916
 41
628.452
 68
     1
 69
     1
1001
ACAD
1000
MVIEW
1002
{
1070
    16
1010
0.0
1020
0.0
1030
0.0
1010
0.0
1020
0.0
1030
1.0
1040
0.0
1040
628.452
1040
420.5
1040
297.0
1040
50.0
1040
0.0
1040
0.0
1070
     0
1070
   100
1070
     1
1070
     1
1070
     0
1070
     0
1070
     0
1070
     0
1040
0.0
1040
0.0
1040
0.0
1040
10.0
1040
10.0
1040
10.0
1040
10.0
1070
     0
1002
{
1002
}
1002
}
  0
ENDSEC
  0
SECTION
  2
OBJECTS
  0
DICTIONARY
  5
C
330
0
100
AcDbDictionary
  3
ACAD_GROUP
350
D
  3
ACAD_LAYOUT
350
1A
  3
ACAD_MLINESTYLE
350
17
  3
ACAD_PLOTSETTINGS
350
19
  3
ACAD_PLOTSTYLENAME
350
E
  3
ACDBVARIABLEDICTIONARY
350
34
  3
ACMDICTIONARY
350
43
  3
AMG
350
2B
  3
AMGSNAPSETTINGS
350
6E
  3
DWGPROPS
350
9174
  3
ACDBHEADERROUNDTRIPXREC
350
9185
  0
DICTIONARY
  5
74
330
1F
100
AcDbDictionary
280
     1
  3
ACAD_INDEX
360
9176
  3
ACAD_LAYOUTSELFREF
360
91A8
  0
DICTIONARY
  5
91AD
330
101
100
AcDbDictionary
280
     1
  3
ACAD_LAYOUTSELFREF
360
91AE
  0
DICTIONARY
  5
D
102
{ACAD_REACTORS
330
C
102
}
330
C
100
AcDbDictionary
  0
DICTIONARY
  5
1A
102
{ACAD_REACTORS
330
C
102
}
330
C
100
AcDbDictionary
  0
DICTIONARY
  5
17
102
{ACAD_REACTORS
330
C
102
}
330
C
100
AcDbDictionary
  3
STANDARD
350
18
  0
DICTIONARY
  5
19
102
{ACAD_REACTORS
330
C
102
}
330
C
100
AcDbDictionary
  3
ASAMI
350
399D
  0
ACDBDICTIONARYWDFLT
  5
E
102
{ACAD_REACTORS
330
C
102
}
330
C
100
AcDbDictionary
281
     1
  3
Normal
350
F
100
AcDbDictionaryWithDefault
340
F
  0
DICTIONARY
  5
34
102
{ACAD_REACTORS
330
C
102
}
330
C
100
AcDbDictionary
  3
INDEXCTL
350
35
  3
SORTENTS
350
B5E
  0
DICTIONARY
  5
43
102
{ACAD_REACTORS
330
C
102
}
330
C
100
AcDbDictionary
  3
ACMSTDDICTIONARY
350
260
  0
DICTIONARY
  5
2B
102
{ACAD_REACTORS
330
C
102
}
330
C
100
AcDbDictionary
  3
ACMGSETTINGS
350
2C
  0
DICTIONARY
  5
6E
102
{ACAD_REACTORS
330
C
102
}
330
C
100
AcDbDictionary
  0
XRECORD
  5
9174
102
{ACAD_REACTORS
330
C
102
}
330
C
100
AcDbXrecord
  1
DWGPROPS COOKIE
  2

  3

  4

  6

  7

  8

  9

300
AmdtFileType=82
301
=
302
=
303
=
304
=
305
=
306
=
307
=
308
=
309
=
 40
0.9494246874999999
 41
2452802.716478761
 42
2453075.659211331
  1

 90
        1
  0
DICTIONARY
  5
9185
102
{ACAD_REACTORS
330
C
102
}
330
C
100
AcDbDictionary
  3
TSTACKALIGN
350
9186
  3
TSTACKSIZE
350
9187
  3
HYPERLINKBASE
350
9188
  3
STYLESHEET
350
9189
  3
LAYOUTDICT
350
918A
  3
PLOTSETDICT
350
918B
  3
PLOTSTYLNAMDICT
350
918C
  3
LWETCUNION
350
918D
  3
INSUNITS
350
918E
  3
CEPSNTYPE
350
918F
  3
FINGERPRINTGUID
350
9190
  3
VERSIONGUID
350
9191
  3
PSVPSCALE
350
9192
  3
DIMSTYLEDATA
350
9193
  3
PUCSORTHOREF
350
9194
  3
PUCSORTHOVIEW
350
9195
  3
PUCSBASE
350
9196
  3
PUCSORGTOP
350
9197
  3
PUCSORGBOTTOM
350
9198
  3
PUCSORGLEFT
350
9199
  3
PUCSORGRIGHT
350
919A
  3
PUCSORGFRONT
350
919B
  3
PUCSORGBACK
350
919C
  3
UCSORTHOREF
350
919D
  3
UCSORTHOVIEW
350
919E
  3
UCSBASE
350
919F
  3
UCSORGTOP
350
91A0
  3
UCSORGBOTTOM
350
91A1
  3
UCSORGLEFT
350
91A2
  3
UCSORGRIGHT
350
91A3
  3
UCSORGFRONT
350
91A4
  3
UCSORGBACK
350
91A5
  0
DICTIONARY
  5
9176
102
{ACAD_REACTORS
330
74
102
}
330
74
100
AcDbDictionary
  3
*A1
350
9177
  0
XRECORD
  5
91A8
102
{ACAD_REACTORS
330
74
102
}
330
74
100
AcDbXrecord
340
1F
  0
XRECORD
  5
91AE
102
{ACAD_REACTORS
330
91AD
102
}
330
91AD
100
AcDbXrecord
340
101
  0
MLINESTYLE
  5
18
102
{ACAD_REACTORS
330
17
102
}
330
17
100
AcDbMlineStyle
  2
STANDARD
 70
     0
  3

 62
   256
 51
90.0
 52
90.0
 71
     2
 49
0.5
 62
   256
  6
BYLAYER
 49
-0.5
 62
   256
  6
BYLAYER
  0
PLOTSETTINGS
  5
399D
102
{ACAD_REACTORS
330
19
102
}
330
19
100
AcDbPlotSettings
  1
asami
  2
RICOH imagio MF1540
  4
A4
  6

 40
5.831416606903076
 41
7.651742935180664
 42
4.90008544921875
 43
5.789077758789062
 44
296.9683227539062
 45
209.9733276367187
 46
0.0
 47
0.0
 48
-156.6707931774246
 49
-74.57609991074048
140
58.59973180214831
141
60.61068161925596
142
1.0
143
1.095343097833084
 70
  1712
 72
     1
 73
     1
 74
     4
  7
asami.ctb
 75
     0
147
0.9129559514076438
148
156.6707931774246
149
74.57609991074048
  0
ACDBPLACEHOLDER
  5
F
102
{ACAD_REACTORS
330
E
102
}
330
E
100
AcDbPlaceHolder
280
     0
  0
DICTIONARYVAR
  5
35
102
{ACAD_REACTORS
330
34
102
}
330
34
100
DictionaryVariables
280
     0
  1
1
  0
DICTIONARYVAR
  5
B5E
102
{ACAD_REACTORS
330
34
102
}
330
34
100
DictionaryVariables
280
     0
  1
96
  0
DICTIONARY
  5
260
102
{ACAD_REACTORS
330
43
102
}
330
43
100
AcDbDictionary
  0
DICTIONARY
  5
2C
102
{ACAD_REACTORS
330
2B
102
}
330
2B
100
AcDbDictionary
  3
DWGSETTINGS
350
2D
  0
XRECORD
  5
9186
102
{ACAD_REACTORS
330
9185
102
}
330
9185
100
AcDbXrecord
 90
        1
  0
XRECORD
  5
9187
102
{ACAD_REACTORS
330
9185
102
}
330
9185
100
AcDbXrecord
 90
       70
  0
XRECORD
  5
9188
102
{ACAD_REACTORS
330
9185
102
}
330
9185
100
AcDbXrecord
  1

  0
XRECORD
  5
9189
102
{ACAD_REACTORS
330
9185
102
}
330
9185
100
AcDbXrecord
  1
ASAMI.ctb
  0
XRECORD
  5
918A
102
{ACAD_REACTORS
330
9185
102
}
330
9185
100
AcDbXrecord
340
1A
  0
XRECORD
  5
918B
102
{ACAD_REACTORS
330
9185
102
}
330
9185
100
AcDbXrecord
340
19
  0
XRECORD
  5
918C
102
{ACAD_REACTORS
330
9185
102
}
330
9185
100
AcDbXrecord
340
E
  0
XRECORD
  5
918D
102
{ACAD_REACTORS
330
9185
102
}
330
9185
100
AcDbXrecord
 90
    10781
  0
XRECORD
  5
918E
102
{ACAD_REACTORS
330
9185
102
}
330
9185
100
AcDbXrecord
 90
        4
  0
XRECORD
  5
918F
102
{ACAD_REACTORS
330
9185
102
}
330
9185
100
AcDbXrecord
 90
        0
  0
XRECORD
  5
9190
102
{ACAD_REACTORS
330
9185
102
}
330
9185
100
AcDbXrecord
  1
{AFB28963-8C59-40AE-9337-C84526B81ACE}
  0
XRECORD
  5
9191
102
{ACAD_REACTORS
330
9185
102
}
330
9185
100
AcDbXrecord
  1
{C8FA41F8-BD53-4FC5-BADB-A6E815E1EDB3}
  0
XRECORD
  5
9192
102
{ACAD_REACTORS
330
9185
102
}
330
9185
100
AcDbXrecord
 40
0.0
  0
XRECORD
  5
9193
102
{ACAD_REACTORS
330
9185
102
}
330
9185
100
AcDbXrecord
1000
DSTYLE
1002
{
1070
    79
 70
     2
1070
   341
340
59
1070
   342
340
59
1070
   371
 70
    -1
1070
   372
 70
    -1
1002
}
  0
XRECORD
  5
9194
102
{ACAD_REACTORS
330
9185
102
}
330
9185
100
AcDbXrecord
340
0
  0
XRECORD
  5
9195
102
{ACAD_REACTORS
330
9185
102
}
330
9185
100
AcDbXrecord
 70
     0
  0
XRECORD
  5
9196
102
{ACAD_REACTORS
330
9185
102
}
330
9185
100
AcDbXrecord
340
0
  0
XRECORD
  5
9197
102
{ACAD_REACTORS
330
9185
102
}
330
9185
100
AcDbXrecord
 10
0.0
 20
0.0
 30
0.0
  0
XRECORD
  5
9198
102
{ACAD_REACTORS
330
9185
102
}
330
9185
100
AcDbXrecord
 10
0.0
 20
0.0
 30
0.0
  0
XRECORD
  5
9199
102
{ACAD_REACTORS
330
9185
102
}
330
9185
100
AcDbXrecord
 10
0.0
 20
0.0
 30
0.0
  0
XRECORD
  5
919A
102
{ACAD_REACTORS
330
9185
102
}
330
9185
100
AcDbXrecord
 10
0.0
 20
0.0
 30
0.0
  0
XRECORD
  5
919B
102
{ACAD_REACTORS
330
9185
102
}
330
9185
100
AcDbXrecord
 10
0.0
 20
0.0
 30
0.0
  0
XRECORD
  5
919C
102
{ACAD_REACTORS
330
9185
102
}
330
9185
100
AcDbXrecord
 10
0.0
 20
0.0
 30
0.0
  0
XRECORD
  5
919D
102
{ACAD_REACTORS
330
9185
102
}
330
9185
100
AcDbXrecord
340
0
  0
XRECORD
  5
919E
102
{ACAD_REACTORS
330
9185
102
}
330
9185
100
AcDbXrecord
 70
     0
  0
XRECORD
  5
919F
102
{ACAD_REACTORS
330
9185
102
}
330
9185
100
AcDbXrecord
340
0
  0
XRECORD
  5
91A0
102
{ACAD_REACTORS
330
9185
102
}
330
9185
100
AcDbXrecord
 10
0.0
 20
0.0
 30
0.0
  0
XRECORD
  5
91A1
102
{ACAD_REACTORS
330
9185
102
}
330
9185
100
AcDbXrecord
 10
0.0
 20
0.0
 30
0.0
  0
XRECORD
  5
91A2
102
{ACAD_REACTORS
330
9185
102
}
330
9185
100
AcDbXrecord
 10
0.0
 20
0.0
 30
0.0
  0
XRECORD
  5
91A3
102
{ACAD_REACTORS
330
9185
102
}
330
9185
100
AcDbXrecord
 10
0.0
 20
0.0
 30
0.0
  0
XRECORD
  5
91A4
102
{ACAD_REACTORS
330
9185
102
}
330
9185
100
AcDbXrecord
 10
0.0
 20
0.0
 30
0.0
  0
XRECORD
  5
91A5
102
{ACAD_REACTORS
330
9185
102
}
330
9185
100
AcDbXrecord
 10
0.0
 20
0.0
 30
0.0
  0
LAYER_INDEX
  5
9177
102
{ACAD_REACTORS
330
9176
102
}
330
9176
100
AcDbIndex
 40
2453152.414948368
100
AcDbLayerIndex
  8
0
360
9178
 90
        0
  8
AM_0
360
9179
 90
      164
  8
AM_5
360
917A
 90
        7
  8
AM_7
360
917B
 90
        1
  8
AM_6
360
917C
 90
        1
  8
Defpoints
360
917D
 90
        0
  8
AM_3
360
917E
 90
        0
  8
AM_11
360
917F
 90
        4
  8
PV0001_1
360
9180
 90
        0
  8
2
360
9181
 90
        0
  8
1
360
9182
 90
        0
  8
AM_4
360
9183
 90
        0
  0
XRECORD
  5
2D
102
{ACAD_REACTORS
330
2C
102
}
330
2C
100
AcDbXrecord
  1
VERSION
140
15.0
  1
PRODUCT
  2
AutoCAD Mechanical 2000
  0
IDBUFFER
  5
9178
330
0
100
AcDbIdBuffer
  0
IDBUFFER
  5
9179
330
0
100
AcDbIdBuffer
330
876D
330
876E
330
876F
330
8770
330
8771
330
8772
330
8773
330
8774
330
8775
330
8776
330
8777
330
8778
330
8779
330
877A
330
877B
330
877C
330
877D
330
877E
330
877F
330
8780
330
8781
330
8782
330
8783
330
8784
330
8785
330
8786
330
8787
330
8788
330
8789
330
878A
330
878B
330
878C
330
878D
330
878E
330
878F
330
8790
330
8791
330
8792
330
8793
330
8794
330
8795
330
8796
330
8797
330
8798
330
87D7
330
87D8
330
87DB
330
87DC
330
87DD
330
87DE
330
8ED1
330
8ED2
330
8681
330
8682
330
8683
330
8684
330
8685
330
8686
330
8687
330
8688
330
8689
330
86A5
330
86A6
330
86A7
330
86A8
330
86A9
330
86AA
330
86AB
330
86AC
330
86AD
330
86AE
330
86AF
330
86B0
330
86B1
330
86B2
330
86B3
330
86B4
330
86B5
330
86B6
330
86B7
330
86B8
330
86CC
330
86CD
330
86CE
330
86CF
330
86D0
330
86D1
330
86D2
330
86D3
330
86D4
330
86D5
330
86D6
330
86D7
330
86D8
330
86D9
330
86DA
330
86DB
330
86DC
330
86DD
330
86DE
330
86DF
330
86E0
330
86E1
330
870B
330
870C
330
870D
330
870E
330
870F
330
8712
330
8713
330
8714
330
8715
330
8716
330
8717
330
8718
330
8719
330
871A
330
871B
330
871C
330
871D
330
8724
330
8725
330
8726
330
8727
330
8728
330
8729
330
872A
330
872B
330
872C
330
872D
330
872E
330
872F
330
8730
330
8731
330
8732
330
8733
330
8734
330
8735
330
8739
330
873A
330
873D
330
873E
330
873F
330
8742
330
8743
330
8744
330
8745
330
874C
330
874D
330
874E
330
8757
330
8758
330
8759
330
8761
330
8762
330
8763
330
8764
330
8765
330
8766
330
8768
330
8769
330
876A
330
876B
330
876C
  0
IDBUFFER
  5
917A
330
0
100
AcDbIdBuffer
330
8981
330
8A58
330
8B23
330
8BC1
330
8C51
330
8CEF
330
8D84
  0
IDBUFFER
  5
917B
330
0
100
AcDbIdBuffer
330
8756
  0
IDBUFFER
  5
917C
330
0
100
AcDbIdBuffer
330
388D
  0
IDBUFFER
  5
917D
330
0
100
AcDbIdBuffer
  0
IDBUFFER
  5
917E
330
0
100
AcDbIdBuffer
  0
IDBUFFER
  5
917F
330
0
100
AcDbIdBuffer
330
8747
330
874A
330
8767
330
87DA
  0
IDBUFFER
  5
9180
330
0
100
AcDbIdBuffer
  0
IDBUFFER
  5
9181
330
0
100
AcDbIdBuffer
  0
IDBUFFER
  5
9182
330
0
100
AcDbIdBuffer
  0
IDBUFFER
  5
9183
330
0
100
AcDbIdBuffer
  0
ENDSEC
  0
EOF
