  0
SECTION
  2
HEADER
  9
$ACADVER
  1
AC1014
  9
$ACADMAINTVER
 70
     9
  9
$DWGCODEPAGE
  3
ANSI_932
  9
$INSBASE
 10
0.0
 20
0.0
 30
0.0
  9
$EXTMIN
 10
-323.5337565173255
 20
-72.50000130234181
 30
-0.00000001
  9
$EXTMAX
 10
17.14741303749975
 20
33.95001625878954
 30
0.00000001
  9
$LIMMIN
 10
-352.6609924201646
 20
-98.31058687974474
  9
$LIMMAX
 10
91.31103859672611
 20
50.62312871327458
  9
$ORTHOMODE
 70
     0
  9
$REGENMODE
 70
     1
  9
$FILLMODE
 70
     1
  9
$QTEXTMODE
 70
     0
  9
$MIRRTEXT
 70
     0
  9
$DRAGMODE
 70
     2
  9
$LTSCALE
 40
1.0
  9
$OSMODE
 70
    55
  9
$ATTMODE
 70
     1
  9
$TEXTSIZE
 40
2.5
  9
$TRACEWID
 40
1.0
  9
$TEXTSTYLE
  7
STANDARD
  9
$CLAYER
  8
AM_0
  9
$CELTYPE
  6
BYLAYER
  9
$CECOLOR
 62
   256
  9
$CELTSCALE
 40
1.0
  9
$DELOBJ
 70
     1
  9
$DISPSILH
 70
     0
  9
$DIMSCALE
 40
0.5
  9
$DIMASZ
 40
2.5
  9
$DIMEXO
 40
1.0
  9
$DIMDLI
 40
12.0
  9
$DIMRND
 40
0.0
  9
$DIMDLE
 40
0.0
  9
$DIMEXE
 40
1.0
  9
$DIMTP
 40
0.1
  9
$DIMTM
 40
0.1
  9
$DIMTXT
 40
3.2
  9
$DIMCEN
 40
0.0
  9
$DIMTSZ
 40
0.0
  9
$DIMTOL
 70
     0
  9
$DIMLIM
 70
     0
  9
$DIMTIH
 70
     0
  9
$DIMTOH
 70
     0
  9
$DIMSE1
 70
     0
  9
$DIMSE2
 70
     0
  9
$DIMTAD
 70
     3
  9
$DIMZIN
 70
     8
  9
$DIMBLK
  1
OPEN30
  9
$DIMASO
 70
     1
  9
$DIMSHO
 70
     1
  9
$DIMPOST
  1

  9
$DIMAPOST
  1
"
  9
$DIMALT
 70
     0
  9
$DIMALTD
 70
     2
  9
$DIMALTF
 40
0.0393701
  9
$DIMLFAC
 40
1.0
  9
$DIMTOFL
 70
     1
  9
$DIMTVP
 40
0.0
  9
$DIMTIX
 70
     0
  9
$DIMSOXD
 70
     0
  9
$DIMSAH
 70
     0
  9
$DIMBLK1
  1

  9
$DIMBLK2
  1

  9
$DIMSTYLE
  2
AM_JIS
  9
$DIMCLRD
 70
   256
  9
$DIMCLRE
 70
   256
  9
$DIMCLRT
 70
     2
  9
$DIMTFAC
 40
0.71
  9
$DIMGAP
 40
1.5
  9
$DIMJUST
 70
     0
  9
$DIMSD1
 70
     0
  9
$DIMSD2
 70
     0
  9
$DIMTOLJ
 70
     0
  9
$DIMTZIN
 70
     0
  9
$DIMALTZ
 70
     0
  9
$DIMALTTZ
 70
     0
  9
$DIMFIT
 70
     3
  9
$DIMUPT
 70
     0
  9
$DIMUNIT
 70
     2
  9
$DIMDEC
 70
     3
  9
$DIMTDEC
 70
     3
  9
$DIMALTU
 70
     2
  9
$DIMALTTD
 70
     2
  9
$DIMTXSTY
  7
ASAMI
  9
$DIMAUNIT
 70
     0
  9
$LUNITS
 70
     2
  9
$LUPREC
 70
     2
  9
$SKETCHINC
 40
1.0
  9
$FILLETRAD
 40
0.4
  9
$AUNITS
 70
     0
  9
$AUPREC
 70
     0
  9
$MENU
  1
.
  9
$ELEVATION
 40
0.0
  9
$PELEVATION
 40
0.0
  9
$THICKNESS
 40
0.0
  9
$LIMCHECK
 70
     1
  9
$BLIPMODE
 70
     0
  9
$CHAMFERA
 40
1.0
  9
$CHAMFERB
 40
1.0
  9
$CHAMFERC
 40
20.0
  9
$CHAMFERD
 40
0.0
  9
$SKPOLY
 70
     0
  9
$TDCREATE
 40
2452802.716478761
  9
$TDUPDATE
 40
2453152.415358356
  9
$TDINDWG
 40
0.9580668519
  9
$TDUSRTIMER
 40
0.9580668519
  9
$USRTIMER
 70
     1
  9
$ANGBASE
 50
0.0
  9
$ANGDIR
 70
     0
  9
$PDMODE
 70
     0
  9
$PDSIZE
 40
0.0
  9
$PLINEWID
 40
0.0
  9
$COORDS
 70
     1
  9
$SPLFRAME
 70
     0
  9
$SPLINETYPE
 70
     6
  9
$SPLINESEGS
 70
     8
  9
$ATTDIA
 70
     1
  9
$ATTREQ
 70
     1
  9
$HANDLING
 70
 12289
  9
$HANDSEED
  5
9B49
  9
$SURFTAB1
 70
     6
  9
$SURFTAB2
 70
     6
  9
$SURFTYPE
 70
     6
  9
$SURFU
 70
     6
  9
$SURFV
 70
     6
  9
$UCSNAME
  2

  9
$UCSORG
 10
-0.0000000000002682
 20
0.000000000000161
 30
0.0
  9
$UCSXDIR
 10
1.0
 20
0.000000000000002
 30
0.0
  9
$UCSYDIR
 10
-0.000000000000002
 20
1.0
 30
0.0
  9
$PUCSNAME
  2

  9
$PUCSORG
 10
0.0
 20
0.0
 30
0.0
  9
$PUCSXDIR
 10
1.0
 20
0.0
 30
0.0
  9
$PUCSYDIR
 10
0.0
 20
1.0
 30
0.0
  9
$USERI1
 70
     0
  9
$USERI2
 70
     0
  9
$USERI3
 70
     0
  9
$USERI4
 70
     0
  9
$USERI5
 70
     0
  9
$USERR1
 40
0.0
  9
$USERR2
 40
0.0
  9
$USERR3
 40
0.0
  9
$USERR4
 40
0.0
  9
$USERR5
 40
0.0
  9
$WORLDVIEW
 70
     1
  9
$SHADEDGE
 70
     3
  9
$SHADEDIF
 70
    70
  9
$TILEMODE
 70
     1
  9
$MAXACTVP
 70
    64
  9
$PINSBASE
 10
0.0
 20
0.0
 30
0.0
  9
$PLIMCHECK
 70
     0
  9
$PEXTMIN
 10
1.000000000000000E+20
 20
1.000000000000000E+20
 30
1.000000000000000E+20
  9
$PEXTMAX
 10
-1.000000000000000E+20
 20
-1.000000000000000E+20
 30
-1.000000000000000E+20
  9
$PLIMMIN
 10
0.0
 20
0.0
  9
$PLIMMAX
 10
841.0
 20
594.0
  9
$UNITMODE
 70
     0
  9
$VISRETAIN
 70
     1
  9
$PLINEGEN
 70
     0
  9
$PSLTSCALE
 70
     0
  9
$TREEDEPTH
 70
  3020
  9
$PICKSTYLE
 70
     0
  9
$CMLSTYLE
  2
STANDARD
  9
$CMLJUST
 70
     0
  9
$CMLSCALE
 40
20.0
  9
$PROXYGRAPHICS
 70
     1
  9
$MEASUREMENT
 70
     1
  0
ENDSEC
  0
SECTION
  2
CLASSES
  0
CLASS
  1
ACDBDICTIONARYWDFLT
  2
AcDbDictionaryWithDefault
  3
AutoCAD 2000
 90
        0
280
     0
281
     0
  0
CLASS
  1
ACDBPLACEHOLDER
  2
AcDbPlaceHolder
  3
AutoCAD 2000
 90
        0
280
     0
281
     0
  0
CLASS
  1
LAYOUT
  2
AcDbLayout
  3
AutoCAD 2000
 90
        0
280
     0
281
     0
  0
CLASS
  1
AMGSETTINGSOBJ
  2
AmgSettingsObj
  3
"AcadM|Product Description: AutoCAD Mechanical 2000|Company: Autodesk"
 90
        0
280
     0
281
     0
  0
CLASS
  1
ACME_DOCUMENT
  2
AcMeDbDoc
  3
AcMeServices
 90
        0
280
     0
281
     0
  0
CLASS
  1
ACMESCOPE
  2
AcMeScope
  3
AcMeServices
 90
        0
280
     0
281
     0
  0
CLASS
  1
ACMECOMMANDHISTORY
  2
AcMeCommandHistory
  3
AcMeServices
 90
        0
280
     0
281
     0
  0
CLASS
  1
DICTIONARYVAR
  2
AcDbDictionaryVar
  3
AutoCAD 2000
 90
        0
280
     0
281
     0
  0
CLASS
  1
ACIMSYSVARMAN
  2
AcImSysVarManager
  3
AcMeServices
 90
        0
280
     0
281
     0
  0
CLASS
  1
ACIMREALSYSVAR
  2
AcImRealSysVar
  3
AcMeServices
 90
        0
280
     0
281
     0
  0
CLASS
  1
ACIMINTSYSVAR
  2
AcImIntSysVar
  3
AcMeServices
 90
        0
280
     0
281
     0
  0
CLASS
  1
ACMEDRAWINGMAN
  2
AcMeDrawingMan
  3
AcMeServices
 90
        0
280
     0
281
     0
  0
CLASS
  1
ACMEVIEW
  2
AcMeView
  3
AcMeServices
 90
        0
280
     0
281
     0
  0
CLASS
  1
ACDBENTITYCACHE
  2
AcMeEntityCache
  3
AcMeServices
 90
        0
280
     0
281
     0
  0
CLASS
  1
GSMANAGER
  2
AcMeGSManager
  3
AcMeServices
 90
        0
280
     0
281
     0
  0
CLASS
  1
AmdtInternalReactor
  2
AmdtInternalReactor
  3
AcMeServices
 90
        0
280
     0
281
     0
  0
CLASS
  1
ACMESTATEMGR
  2
AcMeStateMgr
  3
AcMeServices
 90
        0
280
     0
281
     0
  0
CLASS
  1
ACME_DATABASE
  2
AcMeDbDatabase
  3
AcMeServices
 90
        0
280
     0
281
     0
  0
CLASS
  1
ACRFINSADJUSTERMGR
  2
AcRfInsAdjusterMgr
  3
AcMeServices
 90
        0
280
     0
281
     0
  0
CLASS
  1
ACMDATADICTIONARY
  2
AcmDataDictionary
  3
"AcmSymBB|Product Description: AutoCAD Mechanical 2000|Company: Autodesk"
 90
        0
280
     0
281
     0
  0
CLASS
  1
ACMDATAENTRYBLOCK
  2
AcmDataEntryBlock
  3
"AcmSymBB|Product Description: AutoCAD Mechanical 2000|Company: Autodesk"
 90
        0
280
     0
281
     0
  0
CLASS
  1
AMGOBJPROPCFG
  2
AmgObjPropCfg
  3
"AmgLay|Product Description: AutoCAD Mechanical 2000|Company: Autodesk"
 90
        1
280
     0
281
     0
  0
CLASS
  1
ACAMGFILTERDAT
  2
AcAmgFilterDat
  3
"AcadM|Product Description: AutoCAD Mechanical 2000|Company: Autodesk"
 90
        0
280
     0
281
     0
  0
CLASS
  1
LAYER_INDEX
  2
AcDbLayerIndex
  3
AutoCAD 2000
 90
        0
280
     0
281
     0
  0
CLASS
  1
IDBUFFER
  2
AcDbIdBuffer
  3
AutoCAD 2000
 90
        0
280
     0
281
     0
  0
CLASS
  1
ACIMSTRSYSVAR
  2
AcImStrSysVar
  3
AcMeServices
 90
        0
280
     0
281
     0
  0
CLASS
  1
ACMSTANDARDJIS
  2
AcmStandardJIS
  3
"AcmSymBB|Product Description: AutoCAD Mechanical 2000|Company: Autodesk"
 90
        0
280
     0
281
     0
  0
CLASS
  1
ACMSURFSTANDARDJIS
  2
AcmSurfTextStdJIS
  3
"AcmSymBB|Product Description: AutoCAD Mechanical 2000|Company: Autodesk"
 90
        0
280
     0
281
     0
  0
CLASS
  1
ACMFCFSTANDARDJIS
  2
AcmFCFStdJIS
  3
"AcmSymBB|Product Description: AutoCAD Mechanical 2000|Company: Autodesk"
 90
        0
280
     0
281
     0
  0
CLASS
  1
ACMWELDSTANDARDJIS
  2
AcmWeldingStdJIS
  3
"AcmSymBB|Product Description: AutoCAD Mechanical 2000|Company: Autodesk"
 90
        0
280
     0
281
     0
  0
CLASS
  1
ACMIDSTANDARDJIS
  2
AcmIdStdJIS
  3
"AcmSymBB|Product Description: AutoCAD Mechanical 2000|Company: Autodesk"
 90
        0
280
     0
281
     0
  0
CLASS
  1
ACMDATUMSTANDARDJIS
  2
AcmDatumStdJIS
  3
"AcmSymBB|Product Description: AutoCAD Mechanical 2000|Company: Autodesk"
 90
        0
280
     0
281
     0
  0
CLASS
  1
ACMBOMSTANDARDJIS
  2
AcmBOMStdJIS
  3
"AcmSymBB|Product Description: AutoCAD Mechanical 2000|Company: Autodesk"
 90
        0
280
     0
281
     0
  0
CLASS
  1
ACMSTANDARDANSI
  2
AcmStandardANSI
  3
"AcmSymBB|Product Description: AutoCAD Mechanical 2000|Company: Autodesk"
 90
        0
280
     0
281
     0
  0
CLASS
  1
ACMSURFSTANDARDANSI
  2
AcmSurfTextStdANSI
  3
"AcmSymBB|Product Description: AutoCAD Mechanical 2000|Company: Autodesk"
 90
        0
280
     0
281
     0
  0
CLASS
  1
ACMFCFSTANDARDANSI
  2
AcmFCFStdANSI
  3
"AcmSymBB|Product Description: AutoCAD Mechanical 2000|Company: Autodesk"
 90
        0
280
     0
281
     0
  0
CLASS
  1
ACMWELDSTANDARDANSI
  2
AcmWeldingStdANSI
  3
"AcmSymBB|Product Description: AutoCAD Mechanical 2000|Company: Autodesk"
 90
        0
280
     0
281
     0
  0
CLASS
  1
ACMIDSTANDARDANSI
  2
AcmIdStdANSI
  3
"AcmSymBB|Product Description: AutoCAD Mechanical 2000|Company: Autodesk"
 90
        0
280
     0
281
     0
  0
CLASS
  1
ACMDATUMSTANDARDANSI
  2
AcmDatumStdANSI
  3
"AcmSymBB|Product Description: AutoCAD Mechanical 2000|Company: Autodesk"
 90
        0
280
     0
281
     0
  0
CLASS
  1
ACMBOMSTANDARDANSI
  2
AcmBOMStdANSI
  3
"AcmSymBB|Product Description: AutoCAD Mechanical 2000|Company: Autodesk"
 90
        0
280
     0
281
     0
  0
CLASS
  1
ACMSTANDARDBSI
  2
AcmStandardBSI
  3
"AcmSymBB|Product Description: AutoCAD Mechanical 2000|Company: Autodesk"
 90
        0
280
     0
281
     0
  0
CLASS
  1
ACMSURFSTANDARDBSI
  2
AcmSurfTextStdBSI
  3
"AcmSymBB|Product Description: AutoCAD Mechanical 2000|Company: Autodesk"
 90
        0
280
     0
281
     0
  0
CLASS
  1
ACMFCFSTANDARDBSI
  2
AcmFCFStdBSI
  3
"AcmSymBB|Product Description: AutoCAD Mechanical 2000|Company: Autodesk"
 90
        0
280
     0
281
     0
  0
CLASS
  1
ACMWELDSTANDARDBSI
  2
AcmWeldingStdBSI
  3
"AcmSymBB|Product Description: AutoCAD Mechanical 2000|Company: Autodesk"
 90
        0
280
     0
281
     0
  0
CLASS
  1
ACMIDSTANDARDBSI
  2
AcmIdStdBSI
  3
"AcmSymBB|Product Description: AutoCAD Mechanical 2000|Company: Autodesk"
 90
        0
280
     0
281
     0
  0
CLASS
  1
ACMDATUMSTANDARDBSI
  2
AcmDatumStdBSI
  3
"AcmSymBB|Product Description: AutoCAD Mechanical 2000|Company: Autodesk"
 90
        0
280
     0
281
     0
  0
CLASS
  1
ACMBOMSTANDARDBSI
  2
AcmBOMStdBSI
  3
"AcmSymBB|Product Description: AutoCAD Mechanical 2000|Company: Autodesk"
 90
        0
280
     0
281
     0
  0
CLASS
  1
STDPART2D
  2
AmgStdPart
  3
"AmgStdPart|Product Description: AutoCAD Mechanical 2000|Company: Autodesk"
 90
     1023
280
     0
281
     1
  0
CLASS
  1
PLOTSETTINGS
  2
AcDbPlotSettings
  3
AutoCAD 2000
 90
        0
280
     0
281
     0
  0
CLASS
  1
LONG_TRANSACTION
  2
AcDbLongTransaction
  3
AutoCAD 2000
 90
        0
280
     0
281
     0
  0
CLASS
  1
LWPOLYLINE
  2
AcDbPolyline
  3
AutoCAD 2000
 90
        0
280
     0
281
     1
  0
CLASS
  1
HATCH
  2
AcDbHatch
  3
AutoCAD 2000
 90
        0
280
     0
281
     1
  0
CLASS
  1
XRECORD
  2
AcDbXrecord
  3
AutoCAD 2000
 90
        0
280
     0
281
     0
  0
ENDSEC
  0
SECTION
  2
TABLES
  0
TABLE
  2
VPORT
  5
8
330
0
100
AcDbSymbolTable
 70
     3
  0
VPORT
  5
9ADF
330
8
100
AcDbSymbolTableRecord
100
AcDbViewportTableRecord
  2
*ACTIVE
 70
     0
 10
0.0
 20
0.0
 11
1.0
 21
1.0
 12
-147.7606636317843
 22
-21.04284961760977
 13
0.0
 23
0.0
 14
2.5
 24
2.5
 15
10.0
 25
10.0
 16
0.0
 26
0.0
 36
1.0
 17
0.0
 27
0.0
 37
0.0
 40
250.6270143119946
 41
1.56570841889117
 42
50.0
 43
0.0
 44
0.0
 50
0.0
 51
0.0
 71
     0
 72
   100
 73
     1
 74
     3
 75
     0
 76
     0
 77
     0
 78
     0
  0
ENDTAB
  0
TABLE
  2
LTYPE
  5
5
330
0
100
AcDbSymbolTable
 70
    10
  0
LTYPE
  5
14
330
5
100
AcDbSymbolTableRecord
100
AcDbLinetypeTableRecord
  2
BYBLOCK
 70
     0
  3

 72
    65
 73
     0
 40
0.0
  0
LTYPE
  5
15
330
5
100
AcDbSymbolTableRecord
100
AcDbLinetypeTableRecord
  2
BYLAYER
 70
     0
  3

 72
    65
 73
     0
 40
0.0
  0
LTYPE
  5
16
330
5
100
AcDbSymbolTableRecord
100
AcDbLinetypeTableRecord
  2
CONTINUOUS
 70
     0
  3
Solid line
 72
    65
 73
     0
 40
0.0
  0
LTYPE
  5
4B
330
5
100
AcDbSymbolTableRecord
100
AcDbLinetypeTableRecord
  2
AM_ISO02W050
 70
     0
  3
__ __ __ __ __ __ __ __ __ __ __ __ __ __ __
 72
    65
 73
     2
 40
7.5
 49
6.0
 74
     0
 49
-1.5
 74
     0
  0
LTYPE
  5
4C
330
5
100
AcDbSymbolTableRecord
100
AcDbLinetypeTableRecord
  2
AM_ISO08W050
 70
     0
  3
____ . ____ . ____ . ____ . ____ . ____ . ____
 72
    65
 73
     4
 40
18.0
 49
12.0
 74
     0
 49
-1.5
 74
     0
 49
3.0
 74
     0
 49
-1.5
 74
     0
  0
LTYPE
  5
4D
330
5
100
AcDbSymbolTableRecord
100
AcDbLinetypeTableRecord
  2
AM_ISO09W050
 70
     0
  3
_____ . . _____ . . _____ . . ____ .. ____
 72
    65
 73
     6
 40
22.5
 49
12.0
 74
     0
 49
-1.5
 74
     0
 49
3.0
 74
     0
 49
-1.5
 74
     0
 49
3.0
 74
     0
 49
-1.5
 74
     0
  0
LTYPE
  5
4E
330
5
100
AcDbSymbolTableRecord
100
AcDbLinetypeTableRecord
  2
AMCONSTR
 70
     0
  3
_______________________
 72
    65
 73
     2
 40
9999.0
 49
9999.0
 74
     0
 49
0.0
 74
     0
  0
LTYPE
  5
4F
330
5
100
AcDbSymbolTableRecord
100
AcDbLinetypeTableRecord
  2
AM_ISO02W050X2
 70
     0
  3
 _ _ _ _ _ _ _ _ _ _ _ _
 72
    65
 73
     2
 40
3.75
 49
3.0
 74
     0
 49
-0.75
 74
     0
  0
LTYPE
  5
50
330
5
100
AcDbSymbolTableRecord
100
AcDbLinetypeTableRecord
  2
AM_ISO08W050X2
 70
     0
  3
__ . __ . __ . __ . __ . __
 72
    65
 73
     4
 40
9.0
 49
6.0
 74
     0
 49
-0.75
 74
     0
 49
1.5
 74
     0
 49
-0.75
 74
     0
  0
LTYPE
  5
53
330
5
100
AcDbSymbolTableRecord
100
AcDbLinetypeTableRecord
  2
AMZIGZAG
 70
     0
  3
/\/-/\/-/\/-/\/-/\/-/\/
 72
    65
 73
     2
 40
11.00009999999999
 49
0.0001
 74
     4
 75
   135
340
52
 46
0.04
 50
0.0
 44
0.0
 45
0.0
 49
-11.0
 74
     0
  0
LTYPE
  5
166
330
5
100
AcDbSymbolTableRecord
100
AcDbLinetypeTableRecord
  2
ACJISTGL
 70
     0
  3
_ _ _ _ _
 72
    65
 73
     2
 40
3.0
 49
2.0
 74
     0
 49
-1.0
 74
     0
  0
LTYPE
  5
26A
330
5
100
AcDbSymbolTableRecord
100
AcDbLinetypeTableRecord
  2
ACJISTGB
 70
     0
  3
__ . . __ . .
 72
    65
 73
     6
 40
9.0
 49
4.0
 74
     0
 49
-1.0
 74
     0
 49
1.0
 74
     0
 49
-1.0
 74
     0
 49
1.0
 74
     0
 49
-1.0
 74
     0
  0
ENDTAB
  0
TABLE
  2
LAYER
  5
2
330
0
100
AcDbSymbolTable
 70
     7
  0
LAYER
  5
10
330
2
100
AcDbSymbolTableRecord
100
AcDbLayerTableRecord
  2
0
 70
     0
 62
     7
  6
CONTINUOUS
  0
LAYER
  5
3F9
330
2
100
AcDbSymbolTableRecord
100
AcDbLayerTableRecord
  2
AM_0
 70
     0
 62
     7
  6
CONTINUOUS
  0
LAYER
  5
BA4
330
2
100
AcDbSymbolTableRecord
100
AcDbLayerTableRecord
  2
AM_5
 70
     0
 62
     3
  6
CONTINUOUS
  0
LAYER
  5
BA6
330
2
100
AcDbSymbolTableRecord
100
AcDbLayerTableRecord
  2
AM_7
 70
     0
 62
     4
  6
AM_ISO08W050
  0
LAYER
  5
E64
330
2
100
AcDbSymbolTableRecord
100
AcDbLayerTableRecord
  2
AM_6
 70
     0
 62
     2
  6
CONTINUOUS
  0
LAYER
  5
F4D
330
2
100
AcDbSymbolTableRecord
100
AcDbLayerTableRecord
  2
DEFPOINTS
 70
     0
 62
     7
  6
CONTINUOUS
  0
LAYER
  5
4E80
330
2
100
AcDbSymbolTableRecord
100
AcDbLayerTableRecord
  2
AM_11
 70
     0
 62
     3
  6
AM_ISO09W050
  0
ENDTAB
  0
TABLE
  2
STYLE
  5
3
330
0
100
AcDbSymbolTable
 70
     5
  0
STYLE
  5
11
330
3
100
AcDbSymbolTableRecord
100
AcDbTextStyleTableRecord
  2
STANDARD
 70
     0
 40
0.0
 41
1.0
 50
0.0
 71
     0
 42
2.5
  3
simplex.shx
  4
EXTFONT.SHX
  0
STYLE
  5
52
330
3
100
AcDbSymbolTableRecord
100
AcDbTextStyleTableRecord
  2

 70
     1
 40
0.0
 41
1.0
 50
0.0
 71
     0
 42
2.5
  3
ltypeshp.shx
  4

  0
STYLE
  5
6B
330
3
100
AcDbSymbolTableRecord
100
AcDbTextStyleTableRecord
  2
ASAMI
 70
     0
 40
0.0
 41
1.0
 50
0.0
 71
     0
 42
2.5
  3
simplex.shx
  4
EXTFONT.SHX
  0
STYLE
  5
262
330
3
100
AcDbSymbolTableRecord
100
AcDbTextStyleTableRecord
  2
ACJISTS
 70
     0
 40
1.0
 41
1.0
 50
0.0
 71
     0
 42
2.5
  3
simplex.shx
  4
bigfont.shx
  0
STYLE
  5
269
330
3
100
AcDbSymbolTableRecord
100
AcDbTextStyleTableRecord
  2
ACJISGDT
 70
     0
 40
0.0
 41
1.0
 50
0.0
 71
     0
 42
2.5
  3
amgdtans.shx
  4

  0
ENDTAB
  0
TABLE
  2
VIEW
  5
6
330
0
100
AcDbSymbolTable
 70
     0
  0
ENDTAB
  0
TABLE
  2
UCS
  5
7
330
0
100
AcDbSymbolTable
 70
     0
  0
ENDTAB
  0
TABLE
  2
APPID
  5
9
330
0
100
AcDbSymbolTable
 70
    24
  0
APPID
  5
12
330
9
100
AcDbSymbolTableRecord
100
AcDbRegAppTableRecord
  2
ACAD
 70
     0
  0
APPID
  5
30
330
9
100
AcDbSymbolTableRecord
100
AcDbRegAppTableRecord
  2
MCAD_NO_VIS
 70
     0
  0
APPID
  5
31
330
9
100
AcDbSymbolTableRecord
100
AcDbRegAppTableRecord
  2
ACAD_TEMP_GRAPHIC
 70
     0
  0
APPID
  5
2C2
330
9
100
AcDbSymbolTableRecord
100
AcDbRegAppTableRecord
  2
GENIUS_GENDTOL_13
 70
     0
  0
APPID
  5
339
330
9
100
AcDbSymbolTableRecord
100
AcDbRegAppTableRecord
  2
GENIUS_GENODEF_13
 70
     0
  0
APPID
  5
33A
330
9
100
AcDbSymbolTableRecord
100
AcDbRegAppTableRecord
  2
GENIUS_GENOBJ-N-RSBK_13
 70
     0
  0
APPID
  5
33B
330
9
100
AcDbSymbolTableRecord
100
AcDbRegAppTableRecord
  2
GENIUS_GENOBJ-N-LIB_13
 70
     0
  0
APPID
  5
33C
330
9
100
AcDbSymbolTableRecord
100
AcDbRegAppTableRecord
  2
GENIUS_GENSCALE_13
 70
     0
  0
APPID
  5
378
330
9
100
AcDbSymbolTableRecord
100
AcDbRegAppTableRecord
  2
GENIUS_GENDIMSH_14
 70
     0
  0
APPID
  5
BB0
330
9
100
AcDbSymbolTableRecord
100
AcDbRegAppTableRecord
  2
GENIUS_GENOBJ-N-CEN_13
 70
     0
  0
APPID
  5
BB1
330
9
100
AcDbSymbolTableRecord
100
AcDbRegAppTableRecord
  2
GENIUS_GENFIL_13
 70
     0
  0
APPID
  5
BB2
330
9
100
AcDbSymbolTableRecord
100
AcDbRegAppTableRecord
  2
GENIUS_GENOBJ-N-CHA_13
 70
     0
  0
APPID
  5
1FAF
330
9
100
AcDbSymbolTableRecord
100
AcDbRegAppTableRecord
  2
GENIUS_GENOBJ-N-CRS_13
 70
     0
  0
APPID
  5
1FB0
330
9
100
AcDbSymbolTableRecord
100
AcDbRegAppTableRecord
  2
GENIUS_GENOENT_13
 70
     0
  0
APPID
  5
1FB1
330
9
100
AcDbSymbolTableRecord
100
AcDbRegAppTableRecord
  2
GENIUS_GENOREF_13
 70
     0
  0
APPID
  5
1FB2
330
9
100
AcDbSymbolTableRecord
100
AcDbRegAppTableRecord
  2
GENIUS_GENOLIS_13
 70
     0
  0
APPID
  5
1FB7
330
9
100
AcDbSymbolTableRecord
100
AcDbRegAppTableRecord
  2
GENIUS_GENOBJ-N-FIL_13
 70
     0
  0
APPID
  5
22A8
330
9
100
AcDbSymbolTableRecord
100
AcDbRegAppTableRecord
  2
GEVID1056506048
 70
     0
  0
APPID
  5
22A9
330
9
100
AcDbSymbolTableRecord
100
AcDbRegAppTableRecord
  2
GEVDC
 70
     0
  0
APPID
  5
22AC
330
9
100
AcDbSymbolTableRecord
100
AcDbRegAppTableRecord
  2
GENIUS_GENBH_13
 70
     0
  0
APPID
  5
22B8
330
9
100
AcDbSymbolTableRecord
100
AcDbRegAppTableRecord
  2
GENIUS_GENOBJ-NBEHI-BHF_13
 70
     0
  0
APPID
  5
22BA
330
9
100
AcDbSymbolTableRecord
100
AcDbRegAppTableRecord
  2
GENIUS_GENOBJ-NBEHI-BHB_13
 70
     0
  0
APPID
  5
35C9
330
9
100
AcDbSymbolTableRecord
100
AcDbRegAppTableRecord
  2
GENIUS_GENREC_14
 70
     0
  0
APPID
  5
35CA
330
9
100
AcDbSymbolTableRecord
100
AcDbRegAppTableRecord
  2
GENIUS_GENOBJ-N-REC_13
 70
     0
  0
ENDTAB
  0
TABLE
  2
DIMSTYLE
  5
A
330
0
100
AcDbSymbolTable
 70
     9
  0
DIMSTYLE
105
58
330
A
100
AcDbSymbolTableRecord
100
AcDbDimStyleTableRecord
  2
AM_JIS
 70
     0
  3

  4
"
  5
OPEN30
  6

  7

 40
1.0
 41
2.5
 42
1.0
 43
12.0
 44
1.0
 45
0.0
 46
0.0
 47
0.1
 48
0.1
140
3.2
141
0.0
142
0.0
143
0.0393701
144
1.0
145
0.0
146
0.71
147
1.5
 71
     0
 72
     0
 73
     0
 74
     0
 75
     0
 76
     0
 77
     3
 78
     8
170
     0
171
     2
172
     1
173
     0
174
     0
175
     0
176
   256
177
   256
178
     2
270
     2
271
     3
272
     3
273
     2
274
     2
340
6B
275
     0
280
     0
281
     0
282
     0
283
     0
284
     0
285
     0
286
     0
287
     3
288
     0
  0
DIMSTYLE
105
5F
330
A
100
AcDbSymbolTableRecord
100
AcDbDimStyleTableRecord
  2
AM_JIS$3
 70
     0
  3

  4
"
  5
OPEN30
  6

  7

 40
1.0
 41
2.5
 42
1.0
 43
10.0
 44
1.0
 45
0.0
 46
0.0
 47
0.1
 48
0.1
140
3.2
141
0.0
142
0.0
143
0.0393701
144
1.0
145
0.0
146
0.71
147
1.5
 71
     0
 72
     0
 73
     0
 74
     1
 75
     0
 76
     0
 77
     3
 78
     8
170
     0
171
     2
172
     0
173
     0
174
     0
175
     0
176
   256
177
   256
178
     2
270
     2
271
     2
272
     3
273
     2
274
     2
340
6B
275
     0
280
     0
281
     0
282
     0
283
     0
284
     0
285
     0
286
     0
287
     0
288
     1
  0
DIMSTYLE
105
60
330
A
100
AcDbSymbolTableRecord
100
AcDbDimStyleTableRecord
  2
AM_JIS$4
 70
     0
  3

  4
"
  5
OPEN30
  6

  7

 40
1.0
 41
2.5
 42
1.0
 43
10.0
 44
1.0
 45
0.0
 46
0.0
 47
0.1
 48
0.1
140
3.2
141
0.0
142
0.0
143
0.0393701
144
1.0
145
0.0
146
0.71
147
1.5
 71
     0
 72
     0
 73
     0
 74
     1
 75
     0
 76
     0
 77
     3
 78
     8
170
     0
171
     2
172
     0
173
     0
174
     0
175
     0
176
   256
177
   256
178
     2
270
     2
271
     2
272
     3
273
     2
274
     2
340
6B
275
     0
280
     0
281
     0
282
     0
283
     0
284
     0
285
     0
286
     0
287
     0
288
     1
  0
DIMSTYLE
105
61
330
A
100
AcDbSymbolTableRecord
100
AcDbDimStyleTableRecord
  2
AM_JIS$6
 70
     0
  3

  4
"
  5
OPEN30
  6

  7

 40
1.0
 41
2.5
 42
1.0
 43
10.0
 44
1.0
 45
0.0
 46
0.0
 47
0.1
 48
0.1
140
3.2
141
0.0
142
0.0
143
0.0393701
144
1.0
145
0.0
146
0.71
147
1.5
 71
     0
 72
     0
 73
     0
 74
     0
 75
     0
 76
     0
 77
     0
 78
     8
170
     0
171
     2
172
     1
173
     0
174
     0
175
     0
176
   256
177
   256
178
     2
270
     2
271
     2
272
     2
273
     2
274
     2
340
6B
275
     0
280
     0
281
     0
282
     0
283
     0
284
     0
285
     0
286
     0
287
     3
288
     0
  0
DIMSTYLE
105
62
330
A
100
AcDbSymbolTableRecord
100
AcDbDimStyleTableRecord
  2
AM_JIS$7
 70
     0
  3

  4
"
  5
OPEN30
  6

  7

 40
1.0
 41
2.5
 42
1.0
 43
10.0
 44
1.0
 45
0.0
 46
0.0
 47
0.1
 48
0.1
140
3.2
141
0.0
142
0.0
143
0.0393701
144
1.0
145
0.0
146
0.71
147
1.5
 71
     0
 72
     0
 73
     0
 74
     0
 75
     0
 76
     0
 77
     3
 78
     8
170
     0
171
     2
172
     1
173
     0
174
     0
175
     0
176
   256
177
   256
178
     2
270
     2
271
     2
272
     3
273
     2
274
     2
340
6B
275
     0
280
     0
281
     0
282
     0
283
     0
284
     0
285
     0
286
     0
287
     3
288
     0
  0
DIMSTYLE
105
63
330
A
100
AcDbSymbolTableRecord
100
AcDbDimStyleTableRecord
  2
AM_JIS$SF
 70
     0
  3

  4
"
  5
OPEN30
  6

  7

 40
1.0
 41
2.5
 42
1.0
 43
10.0
 44
1.0
 45
0.0
 46
0.0
 47
0.1
 48
0.1
140
3.2
141
0.0
142
0.0
143
0.0393701
144
1.0
145
0.0
146
0.71
147
1.5
 71
     0
 72
     0
 73
     0
 74
     0
 75
     1
 76
     1
 77
     3
 78
     8
170
     0
171
     2
172
     1
173
     0
174
     0
175
     0
176
   256
177
   256
178
     2
270
     2
271
     2
272
     2
273
     2
274
     2
340
6B
275
     0
280
     0
281
     0
282
     0
283
     0
284
     0
285
     0
286
     0
287
     3
288
     0
  0
DIMSTYLE
105
68
330
A
100
AcDbSymbolTableRecord
100
AcDbDimStyleTableRecord
  2
AM_JIS$SH
 70
     0
  3

  4
"
  5

  6
GENAXEH
  7
OPEN30
 40
1.0
 41
2.5
 42
1.0
 43
10.0
 44
1.0
 45
0.0
 46
0.0
 47
0.1
 48
0.1
140
3.2
141
0.0
142
0.0
143
0.0393701
144
2.0
145
0.0
146
0.71
147
1.5
 71
     0
 72
     0
 73
     0
 74
     0
 75
     1
 76
     1
 77
     3
 78
     8
170
     0
171
     2
172
     1
173
     1
174
     0
175
     0
176
   256
177
   256
178
     2
270
     2
271
     2
272
     2
273
     2
274
     2
340
6B
275
     0
280
     0
281
     0
282
     0
283
     0
284
     0
285
     0
286
     0
287
     3
288
     0
  0
DIMSTYLE
105
B34
330
A
100
AcDbSymbolTableRecord
100
AcDbDimStyleTableRecord
  2
AM_JIS$2
 70
     0
  3

  4
"
  5
OPEN30
  6

  7

 40
1.0
 41
2.5
 42
1.0
 43
12.0
 44
1.0
 45
0.0
 46
0.0
 47
0.1
 48
0.1
140
3.2
141
0.0
142
0.0
143
0.0393701
144
1.0
145
0.0
146
0.71
147
1.5
 71
     0
 72
     0
 73
     0
 74
     0
 75
     0
 76
     0
 77
     3
 78
     8
170
     0
171
     2
172
     1
173
     0
174
     0
175
     0
176
   256
177
   256
178
     2
270
     2
271
     3
272
     3
273
     2
274
     2
340
6B
275
     0
280
     0
281
     0
282
     0
283
     0
284
     0
285
     0
286
     0
287
     3
288
     0
  0
DIMSTYLE
105
3B48
102
{ACAD_REACTORS
330
9345
330
93DA
330
9466
330
9599
330
9637
330
96D5
330
94F2
102
}
330
A
100
AcDbSymbolTableRecord
100
AcDbDimStyleTableRecord
  2
AM_JIS$0
 70
     0
  3

  4
"
  5
OPEN30
  6

  7

 40
1.0
 41
2.5
 42
0.0
 43
10.0
 44
1.0
 45
0.0
 46
0.0
 47
0.1
 48
0.1000000001
140
3.799999999999999
141
0.0
142
0.0
143
0.0393701
144
1.0
145
0.0
146
0.71
147
1.5
 71
     0
 72
     0
 73
     0
 74
     0
 75
     0
 76
     0
 77
     3
 78
     1
170
     0
171
     2
172
     1
173
     0
174
     0
175
     0
176
     3
177
     3
178
     2
270
     2
271
     2
272
     2
273
     2
274
     2
340
11
275
     1
280
     0
281
     0
282
     0
283
     0
284
     8
285
     0
286
     0
287
     0
288
     0
  0
ENDTAB
  0
TABLE
  2
BLOCK_RECORD
  5
1
330
0
100
AcDbSymbolTable
 70
    12
  0
BLOCK_RECORD
  5
1F
102
{ACAD_XDICTIONARY
360
74
102
}
330
1
100
AcDbSymbolTableRecord
100
AcDbBlockTableRecord
  2
*MODEL_SPACE
  0
BLOCK_RECORD
  5
101
102
{ACAD_XDICTIONARY
360
9B08
102
}
330
1
100
AcDbSymbolTableRecord
100
AcDbBlockTableRecord
  2
*PAPER_SPACE
  0
BLOCK_RECORD
  5
59
330
1
100
AcDbSymbolTableRecord
100
AcDbBlockTableRecord
  2
_OPEN30
  0
BLOCK_RECORD
  5
64
330
1
100
AcDbSymbolTableRecord
100
AcDbBlockTableRecord
  2
GENAXEH
  0
BLOCK_RECORD
  5
9346
330
1
100
AcDbSymbolTableRecord
100
AcDbBlockTableRecord
  2
*D5
  0
BLOCK_RECORD
  5
93DB
330
1
100
AcDbSymbolTableRecord
100
AcDbBlockTableRecord
  2
*D6
  0
BLOCK_RECORD
  5
9467
330
1
100
AcDbSymbolTableRecord
100
AcDbBlockTableRecord
  2
*D7
  0
BLOCK_RECORD
  5
94F3
330
1
100
AcDbSymbolTableRecord
100
AcDbBlockTableRecord
  2
*D8
  0
BLOCK_RECORD
  5
959A
330
1
100
AcDbSymbolTableRecord
100
AcDbBlockTableRecord
  2
*D9
  0
BLOCK_RECORD
  5
9638
330
1
100
AcDbSymbolTableRecord
100
AcDbBlockTableRecord
  2
*D10
  0
BLOCK_RECORD
  5
96D6
330
1
100
AcDbSymbolTableRecord
100
AcDbBlockTableRecord
  2
*D11
  0
ENDTAB
  0
ENDSEC
  0
SECTION
  2
BLOCKS
  0
BLOCK
  5
20
330
1F
100
AcDbEntity
  8
0
100
AcDbBlockBegin
  2
*MODEL_SPACE
 70
     0
 10
0.0
 20
0.0
 30
0.0
  3
*MODEL_SPACE
  1

  0
ENDBLK
  5
21
330
1F
100
AcDbEntity
  8
0
100
AcDbBlockEnd
  0
BLOCK
  5
103
330
101
100
AcDbEntity
 67
     1
  8
0
100
AcDbBlockBegin
  2
*PAPER_SPACE
 70
     0
 10
0.0
 20
0.0
 30
0.0
  3
*PAPER_SPACE
  1

  0
ENDBLK
  5
104
330
101
100
AcDbEntity
 67
     1
  8
0
100
AcDbBlockEnd
  0
BLOCK
  5
5D
330
59
100
AcDbEntity
  8
0
100
AcDbBlockBegin
  2
_OPEN30
 70
     0
 10
0.0
 20
0.0
 30
0.0
  3
_OPEN30
  1

  0
LINE
  5
5A
330
59
100
AcDbEntity
  8
0
 62
     0
100
AcDbLine
 10
-1.0
 20
0.26794919
 30
0.0
 11
0.0
 21
0.0
 31
0.0
  0
LINE
  5
5B
330
59
100
AcDbEntity
  8
0
 62
     0
100
AcDbLine
 10
0.0
 20
0.0
 30
0.0
 11
-1.0
 21
-0.26794919
 31
0.0
  0
LINE
  5
5C
330
59
100
AcDbEntity
  8
0
 62
     0
100
AcDbLine
 10
0.0
 20
0.0
 30
0.0
 11
-1.0
 21
0.0
 31
0.0
  0
ENDBLK
  5
5E
330
59
100
AcDbEntity
  8
0
100
AcDbBlockEnd
  0
BLOCK
  5
66
330
64
100
AcDbEntity
  8
0
100
AcDbBlockBegin
  2
GENAXEH
 70
     0
 10
0.0
 20
0.0
 30
0.0
  3
GENAXEH
  1

  0
LINE
  5
65
330
64
100
AcDbEntity
  8
0
100
AcDbLine
 10
-1.0
 20
0.0
 30
0.0
 11
1.0
 21
0.0
 31
0.0
  0
ENDBLK
  5
67
330
64
100
AcDbEntity
  8
0
100
AcDbBlockEnd
  0
BLOCK
  5
9350
330
9346
100
AcDbEntity
  8
0
100
AcDbBlockBegin
  2
*D5
 70
     1
 10
0.0
 20
0.0
 30
0.0
  3
*D5
  1

  0
LINE
  5
9B0A
330
9346
100
AcDbEntity
  8
AM_5
100
AcDbLine
 10
-0.0000000000002701
 20
0.5000000000001279
 30
0.0
 11
-0.0000000000002756
 21
30.50001625878953
 31
0.0
  0
LINE
  5
9B0B
330
9346
100
AcDbEntity
  8
AM_5
100
AcDbLine
 10
-23.00000000000032
 20
13.00000000000006
 30
0.0
 11
-23.00000000000032
 21
30.50001625878953
 31
0.0
  0
LINE
  5
9B0C
330
9346
100
AcDbEntity
  8
AM_5
100
AcDbLine
 10
-2.500000000000275
 20
30.00001625878953
 30
0.0
 11
-20.50000000000032
 21
30.00001625878953
 31
0.0
  0
INSERT
  5
9B0D
330
9346
100
AcDbEntity
  8
AM_5
100
AcDbBlockReference
  2
_OPEN30
 10
-0.0000000000002755
 20
30.00001625878953
 30
0.0
 41
2.5
 42
2.5
 43
2.5
  0
INSERT
  5
9B0E
330
9346
100
AcDbEntity
  8
AM_5
100
AcDbBlockReference
  2
_OPEN30
 10
-23.00000000000032
 20
30.00001625878953
 30
0.0
 41
2.5
 42
2.5
 43
2.5
 50
180.0
  0
MTEXT
  5
9B0F
330
9346
100
AcDbEntity
  8
AM_5
 62
     2
100
AcDbMText
 10
-11.5000000000003
 20
32.35001625878954
 30
0.0
 40
3.2
 41
0.0
 71
     5
 72
     1
  1
23
  7
ASAMI
  0
POINT
  5
9B10
330
9346
100
AcDbEntity
  8
DEFPOINTS
 62
     0
100
AcDbPoint
 10
-0.00000000000027
 20
0.0000000000001279
 30
0.0
  0
POINT
  5
9B11
330
9346
100
AcDbEntity
  8
DEFPOINTS
 62
     0
100
AcDbPoint
 10
-23.0000000000003
 20
12.50000000000011
 30
0.0
  0
POINT
  5
9B12
330
9346
100
AcDbEntity
  8
DEFPOINTS
 62
     0
100
AcDbPoint
 10
-23.00000000000026
 20
30.00001625878958
 30
0.0
  0
ENDBLK
  5
9351
330
9346
100
AcDbEntity
  8
0
100
AcDbBlockEnd
  0
BLOCK
  5
93E5
330
93DB
100
AcDbEntity
  8
0
100
AcDbBlockBegin
  2
*D6
 70
     1
 10
0.0
 20
0.0
 30
0.0
  3
*D6
  1

  0
LINE
  5
9B13
330
93DB
100
AcDbEntity
  8
AM_5
100
AcDbLine
 10
-0.0000000000002832
 20
-0.4999999999998437
 30
0.0
 11
-0.0000000000002244
 21
-30.50000130234145
 31
0.0
  0
LINE
  5
9B14
330
93DB
100
AcDbEntity
  8
AM_5
100
AcDbLine
 10
-50.00000000000022
 20
-12.00000000000003
 30
0.0
 11
-50.00000000000017
 21
-30.50000130234154
 31
0.0
  0
LINE
  5
9B15
330
93DB
100
AcDbEntity
  8
AM_5
100
AcDbLine
 10
-2.500000000000225
 20
-30.00000130234145
 30
0.0
 11
-47.50000000000017
 21
-30.00000130234154
 31
0.0
  0
INSERT
  5
9B16
330
93DB
100
AcDbEntity
  8
AM_5
100
AcDbBlockReference
  2
_OPEN30
 10
-0.0000000000002254
 20
-30.00000130234145
 30
0.0
 41
2.5
 42
2.5
 43
2.5
 50
0.0000000000001018
  0
INSERT
  5
9B17
330
93DB
100
AcDbEntity
  8
AM_5
100
AcDbBlockReference
  2
_OPEN30
 10
-50.00000000000017
 20
-30.00000130234155
 30
0.0
 41
2.5
 42
2.5
 43
2.5
 50
180.0000000000001
  0
MTEXT
  5
9B18
330
93DB
100
AcDbEntity
  8
AM_5
 62
     2
100
AcDbMText
 10
-25.0000000000002
 20
-27.65000130234149
 30
0.0
 40
3.2
 41
0.0
 71
     5
 72
     1
  1
50
  7
ASAMI
  0
POINT
  5
9B19
330
93DB
100
AcDbEntity
  8
DEFPOINTS
 62
     0
100
AcDbPoint
 10
-0.0000000000002842
 20
0.0000000000001563
 30
0.0
  0
POINT
  5
9B1A
330
93DB
100
AcDbEntity
  8
DEFPOINTS
 62
     0
100
AcDbPoint
 10
-50.00000000000024
 20
-11.49999999999993
 30
0.0
  0
POINT
  5
9B1B
330
93DB
100
AcDbEntity
  8
DEFPOINTS
 62
     0
100
AcDbPoint
 10
-50.00000000000024
 20
-30.00000130234145
 30
0.0
  0
ENDBLK
  5
93E6
330
93DB
100
AcDbEntity
  8
0
100
AcDbBlockEnd
  0
BLOCK
  5
9471
330
9467
100
AcDbEntity
  8
0
100
AcDbBlockBegin
  2
*D7
 70
     1
 10
0.0
 20
0.0
 30
0.0
  3
*D7
  1

  0
LINE
  5
9B1C
330
9467
100
AcDbEntity
  8
AM_5
100
AcDbLine
 10
-0.0000000000002832
 20
-0.4999999999998437
 30
0.0
 11
-0.0000000000002048
 21
-40.50000130234145
 31
0.0
  0
LINE
  5
9B1D
330
9467
100
AcDbEntity
  8
AM_5
100
AcDbLine
 10
-100.0000003897886
 20
-16.50000029234164
 30
0.0
 11
-100.0000003897886
 21
-40.50000130234164
 31
0.0
  0
LINE
  5
9B1E
330
9467
100
AcDbEntity
  8
AM_5
100
AcDbLine
 10
-2.500000000000206
 20
-40.00000130234145
 30
0.0
 11
-97.50000038978864
 21
-40.00000130234164
 31
0.0
  0
INSERT
  5
9B1F
330
9467
100
AcDbEntity
  8
AM_5
100
AcDbBlockReference
  2
_OPEN30
 10
-0.0000000000002058
 20
-40.00000130234144
 30
0.0
 41
2.5
 42
2.5
 43
2.5
 50
0.0000000000001018
  0
INSERT
  5
9B20
330
9467
100
AcDbEntity
  8
AM_5
100
AcDbBlockReference
  2
_OPEN30
 10
-100.0000003897886
 20
-40.00000130234164
 30
0.0
 41
2.5
 42
2.5
 43
2.5
 50
180.0000000000001
  0
MTEXT
  5
9B21
330
9467
100
AcDbEntity
  8
AM_5
 62
     2
100
AcDbMText
 10
-50.00000019489442
 20
-37.65000130234154
 30
0.0
 40
3.2
 41
0.0
 71
     5
 72
     1
  1
100
  7
ASAMI
  0
POINT
  5
9B22
330
9467
100
AcDbEntity
  8
DEFPOINTS
 62
     0
100
AcDbPoint
 10
-0.0000000000002842
 20
0.0000000000001563
 30
0.0
  0
POINT
  5
9B23
330
9467
100
AcDbEntity
  8
DEFPOINTS
 62
     0
100
AcDbPoint
 10
-100.0000003897887
 20
-16.00000029234144
 30
0.0
  0
POINT
  5
9B24
330
9467
100
AcDbEntity
  8
DEFPOINTS
 62
     0
100
AcDbPoint
 10
-100.0000003897887
 20
-40.00000130234144
 30
0.0
  0
ENDBLK
  5
9472
330
9467
100
AcDbEntity
  8
0
100
AcDbBlockEnd
  0
BLOCK
  5
94FD
330
94F3
100
AcDbEntity
  8
0
100
AcDbBlockBegin
  2
*D8
 70
     1
 10
0.0
 20
0.0
 30
0.0
  3
*D8
  1

  0
LINE
  5
9B25
330
94F3
100
AcDbEntity
  8
AM_5
100
AcDbLine
 10
-0.0000000000002832
 20
-0.4999999999998721
 30
0.0
 11
-0.0000000000001852
 21
-50.50000130234145
 31
0.0
  0
LINE
  5
9B26
330
94F3
100
AcDbEntity
  8
AM_5
100
AcDbLine
 10
-300.0000000000002
 20
-14.16149902343104
 30
0.0
 11
-300.0000000000001
 21
-50.50000130234205
 31
0.0
  0
LINE
  5
9B27
330
94F3
100
AcDbEntity
  8
AM_5
100
AcDbLine
 10
-2.500000000000186
 20
-50.00000130234145
 30
0.0
 11
-297.5000000000001
 21
-50.00000130234205
 31
0.0
  0
INSERT
  5
9B28
330
94F3
100
AcDbEntity
  8
AM_5
100
AcDbBlockReference
  2
_OPEN30
 10
-0.0000000000001862
 20
-50.00000130234145
 30
0.0
 41
2.5
 42
2.5
 43
2.5
 50
0.0000000000001018
  0
INSERT
  5
9B29
330
94F3
100
AcDbEntity
  8
AM_5
100
AcDbBlockReference
  2
_OPEN30
 10
-300.0000000000001
 20
-50.00000130234205
 30
0.0
 41
2.5
 42
2.5
 43
2.5
 50
180.0000000000001
  0
MTEXT
  5
9B2A
330
94F3
100
AcDbEntity
  8
AM_5
 62
     2
100
AcDbMText
 10
-150.0000000000001
 20
-47.65000130234175
 30
0.0
 40
3.2
 41
0.0
 71
     5
 72
     1
  1
300
  7
ASAMI
  0
POINT
  5
9B2B
330
94F3
100
AcDbEntity
  8
DEFPOINTS
 62
     0
100
AcDbPoint
 10
-0.0000000000002842
 20
0.0000000000001279
 30
0.0
  0
POINT
  5
9B2C
330
94F3
100
AcDbEntity
  8
DEFPOINTS
 62
     0
100
AcDbPoint
 10
-300.0000000000003
 20
-13.66149902343043
 30
0.0
  0
POINT
  5
9B2D
330
94F3
100
AcDbEntity
  8
DEFPOINTS
 62
     0
100
AcDbPoint
 10
-300.0000000000003
 20
-50.00000130234145
 30
0.0
  0
ENDBLK
  5
94FE
330
94F3
100
AcDbEntity
  8
0
100
AcDbBlockEnd
  0
BLOCK
  5
95A4
330
959A
100
AcDbEntity
  8
0
100
AcDbBlockBegin
  2
*D9
 70
     1
 10
0.0
 20
0.0
 30
0.0
  3
*D9
  1

  0
LINE
  5
9B2E
330
959A
100
AcDbEntity
  8
AM_5
100
AcDbLine
 10
-100.0000000000001
 20
-16.50000000000023
 30
0.0
 11
-100.0000000000001
 21
-40.50000130234184
 31
0.0
  0
LINE
  5
9B2F
330
959A
100
AcDbEntity
  8
AM_5
100
AcDbLine
 10
-300.0000000000002
 20
-14.16149902343104
 30
0.0
 11
-300.0000000000002
 21
-40.50000130234225
 31
0.0
  0
LINE
  5
9B30
330
959A
100
AcDbEntity
  8
AM_5
100
AcDbLine
 10
-102.5000000000001
 20
-40.00000130234185
 30
0.0
 11
-297.5000000000002
 21
-40.00000130234225
 31
0.0
  0
INSERT
  5
9B31
330
959A
100
AcDbEntity
  8
AM_5
100
AcDbBlockReference
  2
_OPEN30
 10
-100.0000000000001
 20
-40.00000130234184
 30
0.0
 41
2.5
 42
2.5
 43
2.5
 50
0.0000000000001018
  0
INSERT
  5
9B32
330
959A
100
AcDbEntity
  8
AM_5
100
AcDbBlockReference
  2
_OPEN30
 10
-300.0000000000002
 20
-40.00000130234225
 30
0.0
 41
2.5
 42
2.5
 43
2.5
 50
180.0000000000001
  0
MTEXT
  5
9B33
330
959A
100
AcDbEntity
  8
AM_5
 62
     2
100
AcDbMText
 10
-200.0000000000001
 20
-37.65000130234204
 30
0.0
 40
3.2
 41
0.0
 71
     5
 72
     1
  1
200
  7
ASAMI
  0
POINT
  5
9B34
330
959A
100
AcDbEntity
  8
DEFPOINTS
 62
     0
100
AcDbPoint
 10
-100.0000000000002
 20
-16.00000000000003
 30
0.0
  0
POINT
  5
9B35
330
959A
100
AcDbEntity
  8
DEFPOINTS
 62
     0
100
AcDbPoint
 10
-300.0000000000003
 20
-13.66149902343043
 30
0.0
  0
POINT
  5
9B36
330
959A
100
AcDbEntity
  8
DEFPOINTS
 62
     0
100
AcDbPoint
 10
-300.0000000000003
 20
-40.00000130234164
 30
0.0
  0
ENDBLK
  5
95A5
330
959A
100
AcDbEntity
  8
0
100
AcDbBlockEnd
  0
BLOCK
  5
9642
330
9638
100
AcDbEntity
  8
0
100
AcDbBlockBegin
  2
*D10
 70
     1
 10
0.0
 20
0.0
 30
0.0
  3
*D10
  1

  0
LINE
  5
9B37
330
9638
100
AcDbEntity
  8
AM_5
100
AcDbLine
 10
-297.5000000000004
 20
15.99999999999891
 30
0.0
 11
-320.0837565173256
 21
15.99999999999887
 31
0.0
  0
LINE
  5
9B38
330
9638
100
AcDbEntity
  8
AM_5
100
AcDbLine
 10
-297.5000000000002
 20
-16.00000000000109
 30
0.0
 11
-320.0837565173255
 21
-16.00000000000114
 31
0.0
  0
LINE
  5
9B39
330
9638
100
AcDbEntity
  8
AM_5
100
AcDbLine
 10
-319.5837565173255
 20
13.49999999999887
 30
0.0
 11
-319.5837565173255
 21
-13.50000000000114
 31
0.0
  0
INSERT
  5
9B3A
330
9638
100
AcDbEntity
  8
AM_5
100
AcDbBlockReference
  2
_OPEN30
 10
-319.5837565173256
 20
15.99999999999887
 30
0.0
 41
2.5
 42
2.5
 43
2.5
 50
90.0000000000001
  0
INSERT
  5
9B3B
330
9638
100
AcDbEntity
  8
AM_5
100
AcDbBlockReference
  2
_OPEN30
 10
-319.5837565173255
 20
-16.00000000000114
 30
0.0
 41
2.5
 42
2.5
 43
2.5
 50
270.0000000000001
  0
MTEXT
  5
9B3C
330
9638
100
AcDbEntity
  8
AM_5
 62
     2
100
AcDbMText
 10
-321.9337565173256
 20
-0.0000000000011274
 30
0.0
 40
3.2
 41
0.0
 71
     5
 72
     1
  1
%%c32
  7
ASAMI
 11
-0.000000000000002
 21
1.0
 31
0.0
  0
POINT
  5
9B3D
330
9638
100
AcDbEntity
  8
DEFPOINTS
 62
     0
100
AcDbPoint
 10
-297.0000000000003
 20
15.99999999999957
 30
0.0
  0
POINT
  5
9B3E
330
9638
100
AcDbEntity
  8
DEFPOINTS
 62
     0
100
AcDbPoint
 10
-297.0000000000002
 20
-16.00000000000043
 30
0.0
  0
POINT
  5
9B3F
330
9638
100
AcDbEntity
  8
DEFPOINTS
 62
     0
100
AcDbPoint
 10
-319.5837565173255
 20
-16.00000000000043
 30
0.0
  0
ENDBLK
  5
9643
330
9638
100
AcDbEntity
  8
0
100
AcDbBlockEnd
  0
BLOCK
  5
96E0
330
96D6
100
AcDbEntity
  8
0
100
AcDbBlockBegin
  2
*D11
 70
     1
 10
0.0
 20
0.0
 30
0.0
  3
*D11
  1

  0
LINE
  5
9B40
330
96D6
100
AcDbEntity
  8
AM_5
100
AcDbLine
 10
-12.00000054639345
 20
12.50000000000009
 30
0.0
 11
16.9775400624997
 21
12.50000000000015
 31
0.0
  0
LINE
  5
9B41
330
96D6
100
AcDbEntity
  8
AM_5
100
AcDbLine
 10
-12.00000000000021
 20
-12.49999999999988
 30
0.0
 11
16.97754006249975
 21
-12.49999999999983
 31
0.0
  0
LINE
  5
9B42
330
96D6
100
AcDbEntity
  8
AM_5
100
AcDbLine
 10
16.47754006249971
 20
10.00000000000015
 30
0.0
 11
16.47754006249975
 21
-9.999999999999829
 31
0.0
  0
INSERT
  5
9B43
330
96D6
100
AcDbEntity
  8
AM_5
100
AcDbBlockReference
  2
_OPEN30
 10
16.4775400624997
 20
12.50000000000015
 30
0.0
 41
2.5
 42
2.5
 43
2.5
 50
90.0000000000001
  0
INSERT
  5
9B44
330
96D6
100
AcDbEntity
  8
AM_5
100
AcDbBlockReference
  2
_OPEN30
 10
16.47754006249975
 20
-12.49999999999983
 30
0.0
 41
2.5
 42
2.5
 43
2.5
 50
270.0000000000001
  0
MTEXT
  5
9B45
330
96D6
100
AcDbEntity
  8
AM_5
 62
     2
100
AcDbMText
 10
14.12754006249973
 20
0.0000000000001575
 30
0.0
 40
3.2
 41
0.0
 71
     5
 72
     1
  1
%%c25
  7
ASAMI
 11
-0.000000000000002
 21
1.0
 31
0.0
  0
POINT
  5
9B46
330
96D6
100
AcDbEntity
  8
DEFPOINTS
 62
     0
100
AcDbPoint
 10
-12.50000054639342
 20
12.50000000000012
 30
0.0
  0
POINT
  5
9B47
330
96D6
100
AcDbEntity
  8
DEFPOINTS
 62
     0
100
AcDbPoint
 10
-12.50000000000024
 20
-12.49999999999985
 30
0.0
  0
POINT
  5
9B48
330
96D6
100
AcDbEntity
  8
DEFPOINTS
 62
     0
100
AcDbPoint
 10
16.47754006249972
 20
-12.49999999999986
 30
0.0
  0
ENDBLK
  5
96E1
330
96D6
100
AcDbEntity
  8
0
100
AcDbBlockEnd
  0
ENDSEC
  0
SECTION
  2
ENTITIES
  0
TEXT
  5
388D
330
1F
100
AcDbEntity
  8
AM_6
100
AcDbText
 10
-171.6666666666667
 20
-72.50000130234171
 30
0.0
 40
5.0
  1
WBMR2250L
 50
359.9999999999998
 51
359.9999999999998
 72
     4
 11
-150.0000000000001
 21
-70.00000130234176
 31
0.0
100
AcDbText
  0
SPLINE
  5
90C0
330
1F
100
AcDbEntity
  8
AM_0
100
AcDbSpline
210
0.0
220
0.0
230
1.0
 70
     8
 71
     3
 72
    11
 73
     7
 74
     5
 42
0.0000000001
 43
0.0000000001
 44
0.0000000001
 40
0.0
 40
0.0
 40
0.0
 40
0.0
 40
0.1484046698878107
 40
0.2958452093528472
 40
0.4411714704449513
 40
0.5843889851963941
 40
0.5843889851963941
 40
0.5843889851963941
 40
0.5843889851963941
 10
-0.8725585937502415
 20
-3.108581542959839
 30
0.0
 10
-0.8770734921692239
 20
-3.058725798500197
 30
0.0
 10
-0.8860739573768247
 20
-2.959338203970623
 30
0.0
 10
-0.9646332024953798
 20
-2.830122111030744
 30
0.0
 10
-1.079461471628446
 20
-2.733756412307939
 30
0.0
 10
-1.174586728394627
 20
-2.712632970729081
 30
0.0
 10
-1.22180175781024
 20
-2.702148437499843
 30
0.0
 11
-0.8725585937502415
 21
-3.108581542959839
 31
0.0
 11
-0.8970947265602404
 21
-2.962219238279843
 31
0.0
 11
-0.9713439941402413
 21
-2.83483886717984
 31
0.0
 11
-1.084869384760239
 21
-2.744110107419842
 31
0.0
 11
-1.22180175781024
 21
-2.702148437499843
 31
0.0
  0
SPLINE
  5
90C1
330
1F
100
AcDbEntity
  8
AM_0
100
AcDbSpline
210
0.0
220
0.0
230
1.0
 70
     8
 71
     3
 72
    11
 73
     7
 74
     5
 42
0.0000000001
 43
0.0000000001
 44
0.0000000001
 40
0.0
 40
0.0
 40
0.0
 40
0.0
 40
0.0797044362042242
 40
0.160172721866035
 40
0.2413356939759812
 40
0.3231234922660191
 40
0.3231234922660191
 40
0.3231234922660191
 40
0.3231234922660191
 10
-0.8878479003902413
 20
-4.029418945309842
 30
0.0
 10
-0.8863280505895406
 20
-4.00289359356019
 30
0.0
 10
-0.8832737854695666
 20
-3.949588683689057
 30
0.0
 10
-0.8804187294755585
 20
-3.869189126484172
 30
0.0
 10
-0.8786830895540727
 20
-3.788063464020513
 30
0.0
 10
-0.8786488015367178
 20
-3.733745203906289
 30
0.0
 10
-0.8786315917902385
 20
-3.706481933589842
 30
0.0
 11
-0.8878479003902413
 21
-4.029418945309842
 31
0.0
 11
-0.8835754394502401
 21
-3.949829101559842
 31
0.0
 11
-0.8806152343702393
 21
-3.869415283199842
 31
0.0
 11
-0.8789672851502388
 21
-3.788269042959839
 31
0.0
 11
-0.8786315917902385
 21
-3.706481933589842
 31
0.0
  0
SPLINE
  5
90C2
330
1F
100
AcDbEntity
  8
AM_0
100
AcDbSpline
210
0.0
220
0.0
230
1.0
 70
     8
 71
     3
 72
    11
 73
     7
 74
     5
 42
0.0000000001
 43
0.0000000001
 44
0.0000000001
 40
0.0
 40
0.0
 40
0.0
 40
0.0
 40
0.3296797566173182
 40
0.659895945064857
 40
0.9910428026250226
 40
1.323375717041126
 40
1.323375717041126
 40
1.323375717041126
 40
1.323375717041126
 10
-1.218292236320237
 20
-5.302825927729841
 30
0.0
 10
-1.173286377828266
 20
-5.202461995088386
 30
0.0
 10
-1.083201430460726
 20
-5.001570824637371
 30
0.0
 10
-0.9868859775927736
 20
-4.68484411424318
 30
0.0
 10
-0.9173052365666601
 20
-4.360332069435418
 30
0.0
 10
-0.897678707444839
 20
-4.139854697396514
 30
0.0
 10
-0.8878479003902413
 20
-4.029418945309842
 30
0.0
 11
-1.218292236320237
 21
-5.302825927729841
 31
0.0
 11
-1.089752197260239
 21
-4.99923706053984
 31
0.0
 11
-0.9914550781202393
 21
-4.683990478509841
 31
0.0
 11
-0.9240722656202393
 21
-4.359771728509841
 31
0.0
 11
-0.8878479003902413
 21
-4.029418945309842
 31
0.0
  0
SPLINE
  5
90C3
330
1F
100
AcDbEntity
  8
AM_0
100
AcDbSpline
210
0.0
220
0.0
230
1.0
 70
     8
 71
     3
 72
    11
 73
     7
 74
     5
 42
0.0000000001
 43
0.0000000001
 44
0.0000000001
 40
0.0
 40
0.0
 40
0.0
 40
0.0
 40
0.0600892353220796
 40
0.1203616452709985
 40
0.1807574435813669
 40
0.2413389024729939
 40
0.2413389024729939
 40
0.2413389024729939
 40
0.2413389024729939
 10
-0.8786315917902385
 20
-3.706481933589842
 30
0.0
 10
-0.8786918520003453
 20
-3.686452239837751
 30
0.0
 10
-0.8788125561163813
 20
-3.646331794281175
 30
0.0
 10
-0.8786400706455337
 20
-3.586079286363379
 30
0.0
 10
-0.8782316284129128
 20
-3.525663845484404
 30
0.0
 10
-0.8777254176405355
 20
-3.485341193049024
 30
0.0
 10
-0.8774719238202379
 20
-3.465148925779843
 30
0.0
 11
-0.8786315917902385
 21
-3.706481933589842
 31
0.0
 11
-0.8787536621102418
 21
-3.646392822259841
 31
0.0
 11
-0.8786010742202421
 21
-3.586120605459839
 31
0.0
 11
-0.8781738281202393
 21
-3.525726318359843
 31
0.0
 11
-0.8774719238202379
 21
-3.465148925779843
 31
0.0
  0
SPLINE
  5
90C4
330
1F
100
AcDbEntity
  8
AM_0
100
AcDbSpline
210
0.0
220
0.0
230
1.0
 70
     8
 71
     3
 72
    11
 73
     7
 74
     5
 42
0.0000000001
 43
0.0000000001
 44
0.0000000001
 40
0.0
 40
0.0
 40
0.0
 40
0.0
 40
2.949403268516169
 40
5.855670483642931
 40
8.717005976498382
 40
11.54739306342878
 40
11.54739306342878
 40
11.54739306342878
 40
11.54739306342878
 10
-10.25885009765023
 20
-11.74456787108985
 30
0.0
 10
-9.288999003467383
 20
-11.55217628075754
 30
0.0
 10
-7.363481226241724
 20
-11.17020689432745
 30
0.0
 10
-4.795984793877138
 20
-9.727340529003933
 30
0.0
 10
-2.638161744666288
 20
-7.781744677434757
 30
0.0
 10
-1.689863300143146
 20
-6.126131411126415
 30
0.0
 10
-1.218292236320237
 20
-5.302825927729841
 30
0.0
 11
-10.25885009765023
 21
-11.74456787108985
 31
0.0
 11
-7.400238037110241
 21
-11.01840209960985
 31
0.0
 11
-4.846557617180238
 21
-9.630920410149855
 31
0.0
 11
-2.75173950195024
 21
-7.681823730459854
 31
0.0
 11
-1.218292236320237
 21
-5.302825927729841
 31
0.0
  0
SPLINE
  5
90C5
330
1F
100
AcDbEntity
  8
AM_0
100
AcDbSpline
210
0.0
220
0.0
230
1.0
 70
     8
 71
     3
 72
    11
 73
     7
 74
     5
 42
0.0000000001
 43
0.0000000001
 44
0.0000000001
 40
0.0
 40
0.0
 40
0.0
 40
0.0
 40
0.4628933451769689
 40
0.9253104731651674
 40
1.38724448981139
 40
1.8485729456493
 40
1.8485729456493
 40
1.8485729456493
 40
1.8485729456493
 10
-12.10333251953024
 20
-11.84066772460985
 30
0.0
 10
-11.94902483434629
 20
-11.84241599955118
 30
0.0
 10
-11.64056821322983
 20
-11.84591075083685
 30
0.0
 10
-11.17831798580316
 20
-11.8292366553312
 30
0.0
 10
-10.71734805696526
 20
-11.79791394922045
 30
0.0
 10
-10.41161590829437
 20
-11.76234212003631
 30
0.0
 10
-10.25885009765023
 20
-11.74456787108985
 30
0.0
 11
-12.10333251953024
 21
-11.84066772460985
 31
0.0
 11
-11.64044189453024
 21
-11.84225463866985
 31
0.0
 11
-11.17828369140023
 21
-11.82678222655985
 31
0.0
 11
-10.71749877929023
 21
-11.79421997069985
 31
0.0
 11
-10.25885009765023
 21
-11.74456787108985
 31
0.0
  0
SPLINE
  5
90C6
330
1F
100
AcDbEntity
  8
AM_0
100
AcDbSpline
210
0.0
220
0.0
230
1.0
 70
     8
 71
     3
 72
    11
 73
     7
 74
     5
 42
0.0000000001
 43
0.0000000001
 44
0.0000000001
 40
0.0
 40
0.0
 40
0.0
 40
0.0
 40
4.283682490640117
 40
8.633563741357495
 40
12.95351399602457
 40
17.14354545412804
 40
17.14354545412804
 40
17.14354545412804
 40
17.14354545412804
 10
-22.12280273437027
 20
9.653656005860113
 30
0.0
 10
-21.63701500253087
 20
8.296636430652622
 30
0.0
 10
-20.65793231916931
 20
5.561626301768625
 30
0.0
 10
-17.65319390399937
 20
2.330863889567259
 30
0.0
 10
-13.86811047843251
 20
0.0853024511707376
 30
0.0
 10
-11.01099601483649
 20
-0.1719922157252192
 30
0.0
 10
-9.604248046870267
 20
-0.2986755371098582
 30
0.0
 11
-22.12280273437027
 21
9.653656005860113
 31
0.0
 11
-20.41345214843026
 21
5.725799560550115
 31
0.0
 11
-17.51013183593026
 21
2.486633300790131
 31
0.0
 11
-13.73907470703026
 21
0.3792419433601282
 31
0.0
 11
-9.604248046870267
 21
-0.2986755371098582
 31
0.0
  0
SPLINE
  5
90C7
330
1F
100
AcDbEntity
  8
AM_0
100
AcDbSpline
210
0.0
220
0.0
230
1.0
 70
     8
 71
     3
 72
    11
 73
     7
 74
     5
 42
0.0000000001
 43
0.0000000001
 44
0.0000000001
 40
0.0
 40
0.0
 40
0.0
 40
0.0
 40
0.7431155381868392
 40
1.496458557266238
 40
2.265229707443633
 40
3.050060843762985
 40
3.050060843762985
 40
3.050060843762985
 40
3.050060843762985
 10
-9.53158569336027
 20
3.066314697270144
 30
0.0
 10
-9.75245754619114
 20
2.95053304622975
 30
0.0
 10
-10.19724110573622
 20
2.717376244130628
 30
0.0
 10
-10.95752194304296
 20
2.612806503360746
 30
0.0
 10
-11.73418272710966
 20
2.691207602472466
 30
0.0
 10
-12.20680346875697
 20
2.910940149340052
 30
0.0
 10
-12.44555664062026
 20
3.021942138680131
 30
0.0
 11
-9.53158569336027
 21
3.066314697270144
 31
0.0
 11
-10.20837402343026
 21
2.759429931640141
 31
0.0
 11
-10.95272827148026
 21
2.643402099610142
 31
0.0
 11
-11.71643066406026
 21
2.731536865240144
 31
0.0
 11
-12.44555664062026
 21
3.021942138680131
 31
0.0
  0
SPLINE
  5
90C8
330
1F
100
AcDbEntity
  8
AM_0
100
AcDbSpline
210
0.0
220
0.0
230
1.0
 70
     8
 71
     3
 72
    11
 73
     7
 74
     5
 42
0.0000000001
 43
0.0000000001
 44
0.0000000001
 40
0.0
 40
0.0
 40
0.0
 40
0.0
 40
0.0619656624525957
 40
0.1223721615257459
 40
0.1793088766378162
 40
0.2269593264576243
 40
0.2269593264576243
 40
0.2269593264576243
 40
0.2269593264576243
 10
-22.24169921875027
 20
9.086975097660115
 30
0.0
 10
-22.23739976478783
 20
9.066771076772441
 30
0.0
 10
-22.22890903857046
 20
9.02687140315195
 30
0.0
 10
-22.21727933693885
 20
8.968256741831265
 30
0.0
 10
-22.20683150082972
 20
8.914213126995209
 30
0.0
 10
-22.20327878969894
 20
8.879516470916719
 30
0.0
 10
-22.20166015625026
 20
8.863708496100116
 30
0.0
 11
-22.24169921875027
 21
9.086975097660115
 31
0.0
 11
-22.22894287109026
 21
9.026336669930117
 31
0.0
 11
-22.21710205078026
 21
8.967102050790117
 31
0.0
 11
-22.20715332031026
 21
8.911041259770115
 31
0.0
 11
-22.20166015625026
 21
8.863708496100116
 31
0.0
  0
SPLINE
  5
90C9
330
1F
100
AcDbEntity
  8
AM_0
100
AcDbSpline
210
0.0
220
0.0
230
1.0
 70
     8
 71
     3
 72
    11
 73
     7
 74
     5
 42
0.0000000001
 43
0.0000000001
 44
0.0000000001
 40
0.0
 40
0.0
 40
0.0
 40
0.0
 40
0.1473067563931275
 40
0.2946197306671751
 40
0.4419502191852875
 40
0.5893058770385417
 40
0.5893058770385417
 40
0.5893058770385417
 40
0.5893058770385417
 10
-22.33978271484026
 20
10.88076782227011
 30
0.0
 10
-22.33392511697776
 20
10.83201552431237
 30
0.0
 10
-22.32220967400107
 20
10.73450887054162
 30
0.0
 10
-22.30240623721379
 20
10.58852515208251
 30
0.0
 10
-22.28126856806892
 20
10.44271176341471
 30
0.0
 10
-22.26563163454337
 20
10.34573415607179
 30
0.0
 10
-22.25781250000026
 20
10.29724121094011
 30
0.0
 11
-22.33978271484026
 21
10.88076782227011
 31
0.0
 11
-22.32183837890026
 21
10.73455810547011
 31
0.0
 11
-22.30218505859026
 21
10.58856201172011
 31
0.0
 11
-22.28088378906027
 21
10.44277954102011
 31
0.0
 11
-22.25781250000026
 21
10.29724121094011
 31
0.0
  0
SPLINE
  5
90CA
330
1F
100
AcDbEntity
  8
AM_0
100
AcDbSpline
210
0.0
220
0.0
230
1.0
 70
     8
 71
     3
 72
    11
 73
     7
 74
     5
 42
0.0000000001
 43
0.0000000001
 44
0.0000000001
 40
0.0
 40
0.0
 40
0.0
 40
0.0
 40
0.1660015577022966
 40
0.3312113806482879
 40
0.4952597565762003
 40
0.6577867625748631
 40
0.6577867625748631
 40
0.6577867625748631
 40
0.6577867625748631
 10
-22.25781250000026
 20
10.29724121094011
 30
0.0
 10
-22.24845745169359
 20
10.24270161544787
 30
0.0
 10
-22.229791973438
 20
10.13388254788597
 30
0.0
 10
-22.19745599126576
 20
9.971975884402292
 30
0.0
 10
-22.16213273469368
 20
9.811881478070489
 30
0.0
 10
-22.13587195536836
 20
9.706233774658509
 30
0.0
 10
-22.12280273437027
 20
9.653656005860113
 30
0.0
 11
-22.25781250000026
 21
10.29724121094011
 31
0.0
 11
-22.22900390625027
 21
10.13375854493011
 31
0.0
 11
-22.19683837890026
 21
9.971710205080114
 31
0.0
 11
-22.16131591797027
 21
9.811553955080114
 31
0.0
 11
-22.12280273437027
 21
9.653656005860113
 31
0.0
  0
SPLINE
  5
90CB
330
1F
100
AcDbEntity
  8
AM_0
100
AcDbSpline
210
0.0
220
0.0
230
1.0
 70
     8
 71
     3
 72
    11
 73
     7
 74
     5
 42
0.0000000001
 43
0.0000000001
 44
0.0000000001
 40
0.0
 40
0.0
 40
0.0
 40
0.0
 40
0.1470086570149387
 40
0.2939452402995839
 40
0.4408625857055078
 40
0.5877499283001998
 40
0.5877499283001998
 40
0.5877499283001998
 40
0.5877499283001998
 10
0.0000305175797308
 20
0.6690979003901561
 30
0.0
 10
-0.0046530646966321
 20
0.7178770377241034
 30
0.0
 10
-0.0140179330359741
 20
0.8154113975120203
 30
0.0
 10
-0.0301834690983339
 20
0.9614778751131179
 30
0.0
 10
-0.0477953416706208
 20
1.107336494848672
 30
0.0
 10
-0.0609761745381095
 20
1.204381581593444
 30
0.0
 10
-0.0675659179702706
 20
1.252899169930159
 30
0.0
 11
0.0000305175797308
 21
0.6690979003901561
 31
0.0
 11
-0.014373779290267
 21
0.8153991699301599
 31
0.0
 11
-0.0304260253902697
 21
0.9614562988301571
 31
0.0
 11
-0.0481567382802695
 21
1.107299804690157
 31
0.0
 11
-0.0675659179702706
 21
1.252899169930159
 31
0.0
  0
SPLINE
  5
90CC
330
1F
100
AcDbEntity
  8
AM_0
100
AcDbSpline
210
0.0
220
0.0
230
1.0
 70
     8
 71
     3
 72
    11
 73
     7
 74
     5
 42
0.0000000001
 43
0.0000000001
 44
0.0000000001
 40
0.0
 40
0.0
 40
0.0
 40
0.0
 40
0.1651932487075755
 40
0.3290529135960206
 40
0.4911887279246681
 40
0.6511973491337861
 40
0.6511973491337861
 40
0.6511973491337861
 40
0.6511973491337861
 10
-0.0675659179702706
 20
1.252899169930159
 30
0.0
 10
-0.0752155558374655
 20
1.30742970718343
 30
0.0
 10
-0.0904530770306637
 20
1.416050563686521
 30
0.0
 10
-0.1139234643442353
 20
1.578089677898135
 30
0.0
 10
-0.1377325901282321
 20
1.738332492592385
 30
0.0
 10
-0.1540400189792253
 20
1.844468630766609
 30
0.0
 10
-0.1621398925702664
 20
1.897186279300157
 30
0.0
 11
-0.0675659179702706
 21
1.252899169930159
 31
0.0
 11
-0.0906372070302695
 21
1.416473388680159
 31
0.0
 11
-0.1141052246102703
 21
1.578643798830157
 31
0.0
 11
-0.1379699707002686
 21
1.739013671880158
 31
0.0
 11
-0.1621398925702664
 21
1.897186279300157
 31
0.0
  0
SPLINE
  5
90CD
330
1F
100
AcDbEntity
  8
AM_0
100
AcDbSpline
210
0.0
220
0.0
230
1.0
 70
     8
 71
     3
 72
    11
 73
     7
 74
     5
 42
0.0000000001
 43
0.0000000001
 44
0.0000000001
 40
0.0
 40
0.0
 40
0.0
 40
0.0
 40
4.155701359058431
 40
8.354951978514961
 40
12.63594896650595
 40
16.97837530297727
 40
16.97837530297727
 40
16.97837530297727
 40
16.97837530297727
 10
-0.1621398925702664
 20
1.897186279300157
 30
0.0
 10
-0.5127426354367586
 20
3.253845950730168
 30
0.0
 10
-1.217622227855031
 20
5.981382274118379
 30
0.0
 10
-4.034771016431456
 20
9.277219399045772
 30
0.0
 10
-7.825991644167372
 20
11.50500135327292
 30
0.0
 10
-10.72397495886212
 20
11.73989922550359
 30
0.0
 10
-12.18328857422027
 20
11.85818481446013
 30
0.0
 11
-0.1621398925702664
 21
1.897186279300157
 31
0.0
 11
-1.500396728510267
 21
5.831512451180159
 31
0.0
 11
-4.167755126950268
 21
9.074798583990158
 31
0.0
 11
-7.893676757810268
 21
11.18298339844014
 31
0.0
 11
-12.18328857422027
 21
11.85818481446013
 31
0.0
  0
SPLINE
  5
90CE
330
1F
100
AcDbEntity
  8
AM_0
100
AcDbSpline
210
0.0
220
0.0
230
1.0
 70
     8
 71
     3
 72
    11
 73
     7
 74
     5
 42
0.0000000001
 43
0.0000000001
 44
0.0000000001
 40
0.0
 40
0.0
 40
0.0
 40
0.0
 40
1.552342676146341
 40
3.096489732173504
 40
4.616262946431888
 40
6.121820512332632
 40
6.121820512332632
 40
6.121820512332632
 40
6.121820512332632
 10
-12.52777099609026
 20
8.488464355470128
 30
0.0
 10
-12.03674973036213
 20
8.684076826492148
 30
0.0
 10
-11.05729955420612
 20
9.074269029098109
 30
0.0
 10
-9.476813673385574
 20
8.689396503675613
 30
0.0
 10
-8.268079290446355
 20
7.610375081445308
 30
0.0
 10
-8.078727897572234
 20
6.594771274850954
 30
0.0
 10
-7.984497070310268
 20
6.089355468750142
 30
0.0
 11
-12.52777099609026
 21
8.488464355470128
 31
0.0
 11
-11.03442382812026
 21
8.912353515630144
 31
0.0
 11
-9.529052734370267
 21
8.568481445320145
 31
0.0
 11
-8.418487548820266
 21
7.531005859380144
 31
0.0
 11
-7.984497070310268
 21
6.089355468750142
 31
0.0
  0
SPLINE
  5
90CF
330
1F
100
AcDbEntity
  8
AM_0
100
AcDbSpline
210
0.0
220
0.0
230
1.0
 70
     8
 71
     3
 72
    11
 73
     7
 74
     5
 42
0.0000000001
 43
0.0000000001
 44
0.0000000001
 40
0.0
 40
0.0
 40
0.0
 40
0.0
 40
0.1442404379476455
 40
0.2896203538698072
 40
0.4359550049580465
 40
0.5829016562354492
 40
0.5829016562354492
 40
0.5829016562354492
 40
0.5829016562354492
 10
-14.07482910156026
 20
5.46542358399013
 30
0.0
 10
-14.07992147020038
 20
5.513244792361957
 30
0.0
 10
-14.09014643643435
 20
5.609264989528561
 30
0.0
 10
-14.09616642423169
 20
5.754538540676771
 30
0.0
 10
-14.09580317961999
 20
5.900844357444186
 30
0.0
 10
-14.08902732249161
 20
5.998394750906823
 30
0.0
 10
-14.08563232422027
 20
6.047271728520129
 30
0.0
 11
-14.07482910156026
 21
5.46542358399013
 31
0.0
 11
-14.08856201172027
 21
5.609008789070131
 31
0.0
 11
-14.09509277343026
 21
5.754241943360128
 31
0.0
 11
-14.09417724609026
 21
5.900573730470128
 31
0.0
 11
-14.08563232422027
 21
6.047271728520129
 31
0.0
  0
SPLINE
  5
90D0
330
1F
100
AcDbEntity
  8
AM_0
100
AcDbSpline
210
0.0
220
0.0
230
1.0
 70
     8
 71
     3
 72
    11
 73
     7
 74
     5
 42
0.0000000001
 43
0.0000000001
 44
0.0000000001
 40
0.0
 40
0.0
 40
0.0
 40
0.0
 40
0.3117365093478401
 40
0.6232358439623625
 40
0.9347568613963508
 40
1.24663110732908
 40
1.24663110732908
 40
1.24663110732908
 40
1.24663110732908
 10
-21.55914306640026
 20
11.69451904297011
 30
0.0
 10
-21.66362043994336
 20
11.68077534779559
 30
0.0
 10
-21.87249569876795
 20
11.6532984138966
 30
0.0
 10
-22.1333537313439
 20
11.46409400007682
 30
0.0
 10
-22.31226613650575
 20
11.19580149112717
 30
0.0
 10
-22.33060705794843
 20
10.98581870540198
 30
0.0
 10
-22.33978271484026
 20
10.88076782227011
 30
0.0
 11
-21.55914306640026
 21
11.69451904297011
 31
0.0
 11
-21.86383056640026
 21
11.62860107422011
 31
0.0
 11
-22.11968994140026
 21
11.45092773438011
 31
0.0
 11
-22.28698730468026
 21
11.18814086914011
 31
0.0
 11
-22.33978271484026
 21
10.88076782227011
 31
0.0
  0
SPLINE
  5
90D1
330
1F
100
AcDbEntity
  8
AM_0
100
AcDbSpline
210
0.0
220
0.0
230
1.0
 70
     8
 71
     3
 72
    11
 73
     7
 74
     5
 42
0.0000000001
 43
0.0000000001
 44
0.0000000001
 40
0.0
 40
0.0
 40
0.0
 40
0.0
 40
0.0013458909367191
 40
0.0023999629622416
 40
0.0032440374689654
 40
0.0041621044247654
 40
0.0041621044247654
 40
0.0041621044247654
 40
0.0041621044247654
 10
-22.25146484375027
 20
11.54385375977011
 30
0.0
 10
-22.25101491294148
 20
11.54385153743478
 30
0.0
 10
-22.25021260627072
 20
11.54384757461556
 30
0.0
 10
-22.24915829372433
 20
11.54347737564586
 30
0.0
 10
-22.2485098698795
 20
11.54273293452232
 30
0.0
 10
-22.24840610944935
 20
11.54214559867263
 30
0.0
 10
-22.24835205078027
 20
11.54183959961011
 30
0.0
 11
-22.25146484375027
 21
11.54385375977011
 31
0.0
 11
-22.25012207031026
 21
11.54376220704011
 31
0.0
 11
-22.24914550781027
 21
11.54336547852011
 31
0.0
 11
-22.24859619140026
 21
11.54272460938011
 31
0.0
 11
-22.24835205078027
 21
11.54183959961011
 31
0.0
  0
SPLINE
  5
90D2
330
1F
100
AcDbEntity
  8
AM_0
100
AcDbSpline
210
0.0
220
0.0
230
1.0
 70
     8
 71
     3
 72
    11
 73
     7
 74
     5
 42
0.0000000001
 43
0.0000000001
 44
0.0000000001
 40
0.0
 40
0.0
 40
0.0
 40
0.0
 40
0.6069736183658026
 40
1.213018046295641
 40
1.81784997300757
 40
2.421355564274689
 40
2.421355564274689
 40
2.421355564274689
 40
2.421355564274689
 10
-14.08563232422027
 20
6.047271728520129
 30
0.0
 10
-14.05729662032181
 20
6.248324999927442
 30
0.0
 10
-14.00066859046468
 20
6.650123758727641
 30
0.0
 10
-13.76922517482153
 20
7.215490121837691
 30
0.0
 10
-13.44678436662143
 20
7.733130918846282
 30
0.0
 10
-13.15451780101826
 20
8.012382792678899
 30
0.0
 10
-13.00854492187026
 20
8.151855468750127
 30
0.0
 11
-14.08563232422027
 21
6.047271728520129
 31
0.0
 11
-13.97613525390026
 21
6.64428710938013
 31
0.0
 11
-13.75378417968026
 21
7.208068847660129
 31
0.0
 11
-13.42712402343026
 21
7.717102050790131
 31
0.0
 11
-13.00854492187026
 21
8.151855468750127
 31
0.0
  0
SPLINE
  5
90D3
330
1F
100
AcDbEntity
  8
AM_0
100
AcDbSpline
210
0.0
220
0.0
230
1.0
 70
     8
 71
     3
 72
    11
 73
     7
 74
     5
 42
0.0000000001
 43
0.0000000001
 44
0.0000000001
 40
0.0
 40
0.0
 40
0.0
 40
0.0
 40
0.1262881285195357
 40
0.2530398427958193
 40
0.3799637673354276
 40
0.5068294910117057
 40
0.5068294910117057
 40
0.5068294910117057
 40
0.5068294910117057
 10
-13.00854492187026
 20
8.151855468750127
 30
0.0
 10
-12.9761848305777
 20
8.178790092247012
 30
0.0
 10
-12.91134585870029
 20
8.232758212412495
 30
0.0
 10
-12.80977573739246
 20
8.308501564649882
 30
0.0
 10
-12.70544009210948
 20
8.380719403870502
 30
0.0
 10
-12.6334973176789
 20
8.425249715713809
 30
0.0
 10
-12.59753417968026
 20
8.44750976563013
 30
0.0
 11
-13.00854492187026
 21
8.151855468750127
 31
0.0
 11
-12.91076660156027
 21
8.231781005860128
 31
0.0
 11
-12.80938720703026
 21
8.30786132813013
 31
0.0
 11
-12.70483398437026
 21
8.37982177735013
 31
0.0
 11
-12.59753417968026
 21
8.44750976563013
 31
0.0
  0
SPLINE
  5
90D4
330
1F
100
AcDbEntity
  8
AM_0
100
AcDbSpline
210
0.0
220
0.0
230
1.0
 70
     8
 71
     3
 72
    11
 73
     7
 74
     5
 42
0.0000000001
 43
0.0000000001
 44
0.0000000001
 40
0.0
 40
0.0
 40
0.0
 40
0.0
 40
0.7614755297195047
 40
1.526481851151347
 40
2.287823099558135
 40
3.040088376018786
 40
3.040088376018786
 40
3.040088376018786
 40
3.040088376018786
 10
-12.44555664062026
 20
3.021942138680131
 30
0.0
 10
-12.65910172116804
 20
3.161655950827221
 30
0.0
 10
-13.08718204303852
 20
3.441731396818588
 30
0.0
 10
-13.57578413082664
 20
4.039522573226484
 30
0.0
 10
-13.93311911512213
 20
4.719701415661816
 30
0.0
 10
-14.02778164633238
 20
5.217845193724833
 30
0.0
 10
-14.07482910156026
 20
5.46542358399013
 30
0.0
 11
-12.44555664062026
 21
3.021942138680131
 31
0.0
 11
-13.06079101562026
 21
3.47064208985013
 31
0.0
 11
-13.55480957031026
 21
4.054748535160129
 31
0.0
 11
-13.89843750000027
 21
4.73413085938013
 31
0.0
 11
-14.07482910156026
 21
5.46542358399013
 31
0.0
  0
SPLINE
  5
90D5
330
1F
100
AcDbEntity
  8
AM_0
100
AcDbSpline
210
0.0
220
0.0
230
1.0
 70
     8
 71
     3
 72
    11
 73
     7
 74
     5
 42
0.0000000001
 43
0.0000000001
 44
0.0000000001
 40
0.0
 40
0.0
 40
0.0
 40
0.0
 40
0.1437994142462132
 40
0.2891934870352082
 40
0.4357465359158742
 40
0.5828655257555912
 40
0.5828655257555912
 40
0.5828655257555912
 40
0.5828655257555912
 10
-7.984497070310268
 20
6.089355468750142
 30
0.0
 10
-7.983178230142811
 20
6.041436039634213
 30
0.0
 10
-7.980525924576276
 20
5.945065780579856
 30
0.0
 10
-7.98241517440247
 20
5.799797394568495
 30
0.0
 10
-7.988275982449607
 20
5.653529323852366
 30
0.0
 10
-7.996046312593154
 20
5.555938837810118
 30
0.0
 10
-7.999938964840268
 20
5.507049560550143
 30
0.0
 11
-7.984497070310268
 21
6.089355468750142
 31
0.0
 11
-7.981506347650267
 21
5.945587158210145
 31
0.0
 11
-7.983062744140269
 21
5.800201416020144
 31
0.0
 11
-7.989227294920269
 21
5.653778076180145
 31
0.0
 11
-7.999938964840268
 21
5.507049560550143
 31
0.0
  0
SPLINE
  5
90D6
330
1F
100
AcDbEntity
  8
AM_0
100
AcDbSpline
210
0.0
220
0.0
230
1.0
 70
     8
 71
     3
 72
    11
 73
     7
 74
     5
 42
0.0000000001
 43
0.0000000001
 44
0.0000000001
 40
0.0
 40
0.0
 40
0.0
 40
0.0
 40
0.6073254235790647
 40
1.213622427734828
 40
1.818089998678946
 40
2.420349083451143
 40
2.420349083451143
 40
2.420349083451143
 40
2.420349083451143
 10
-7.999938964840268
 20
5.507049560550143
 30
0.0
 10
-8.028947765765931
 20
5.305988057880711
 30
0.0
 10
-8.086916245329341
 20
4.904205521665311
 30
0.0
 10
-8.318768029454592
 20
4.339029582586894
 30
0.0
 10
-8.640540265069859
 20
3.821592358402546
 30
0.0
 10
-8.931688269232086
 20
3.541983746417139
 30
0.0
 10
-9.07699584961027
 20
3.402435302740144
 30
0.0
 11
-7.999938964840268
 21
5.507049560550143
 31
0.0
 11
-8.111206054680266
 21
4.910003662110142
 31
0.0
 11
-8.33416748047027
 21
4.346191406250142
 31
0.0
 11
-8.660247802730268
 21
3.837219238290145
 31
0.0
 11
-9.07699584961027
 21
3.402435302740144
 31
0.0
  0
SPLINE
  5
90D7
330
1F
100
AcDbEntity
  8
AM_0
100
AcDbSpline
210
0.0
220
0.0
230
1.0
 70
     8
 71
     3
 72
    11
 73
     7
 74
     5
 42
0.0000000001
 43
0.0000000001
 44
0.0000000001
 40
0.0
 40
0.0
 40
0.0
 40
0.0
 40
0.144816198272406
 40
0.2876539337797076
 40
0.4280930198982748
 40
0.5658416230095197
 40
0.5658416230095197
 40
0.5658416230095197
 40
0.5658416230095197
 10
-9.07699584961027
 20
3.402435302740144
 30
0.0
 10
-9.1139629327724
 20
3.371383802908179
 30
0.0
 10
-9.187392058925443
 20
3.309705025375137
 30
0.0
 10
-9.300790220693517
 20
3.223017932773233
 30
0.0
 10
-9.414971806024272
 20
3.141341385077176
 30
0.0
 10
-9.492965836474271
 20
3.091161823216556
 30
0.0
 10
-9.53158569336027
 20
3.066314697270144
 30
0.0
 11
-9.07699584961027
 21
3.402435302740144
 31
0.0
 11
-9.188598632810268
 21
3.310150146490144
 31
0.0
 11
-9.301879882810268
 21
3.223144531250142
 31
0.0
 11
-9.41635131836027
 21
3.141784667970142
 31
0.0
 11
-9.53158569336027
 21
3.066314697270144
 31
0.0
  0
SPLINE
  5
90D8
330
1F
100
AcDbEntity
  8
AM_0
100
AcDbSpline
210
0.0
220
0.0
230
1.0
 70
     8
 71
     3
 72
    11
 73
     7
 74
     5
 42
0.0000000001
 43
0.0000000001
 44
0.0000000001
 40
0.0
 40
0.0
 40
0.0
 40
0.0
 40
0.0048221636329074
 40
0.0086303856695628
 40
0.0112664049660799
 40
0.0129098268413529
 40
0.0129098268413529
 40
0.0129098268413529
 40
0.0129098268413529
 10
-22.20166015625026
 20
8.863708496100116
 30
0.0
 10
-22.20164448784991
 20
8.862087158164472
 30
0.0
 10
-22.20161644559581
 20
8.85918539606129
 30
0.0
 10
-22.20203160854832
 20
8.855573946678831
 30
0.0
 10
-22.20259425864498
 20
8.852637672147958
 30
0.0
 10
-22.20394792768044
 20
8.852015177815145
 30
0.0
 10
-22.20446777343026
 20
8.851776123050115
 30
0.0
 11
-22.20166015625026
 21
8.863708496100116
 31
0.0
 11
-22.20172119140026
 21
8.858886718750113
 31
0.0
 11
-22.20214843750027
 21
8.855102539070117
 31
0.0
 11
-22.20306396484026
 21
8.852630615240116
 31
0.0
 11
-22.20446777343026
 21
8.851776123050115
 31
0.0
  0
SPLINE
  5
90D9
330
1F
100
AcDbEntity
  8
AM_0
100
AcDbSpline
210
0.0
220
0.0
230
1.0
 70
     8
 71
     3
 72
    11
 73
     7
 74
     5
 42
0.0000000001
 43
0.0000000001
 44
0.0000000001
 40
0.0
 40
0.0
 40
0.0
 40
0.0
 40
0.006175494153615
 40
0.0178240981005694
 40
0.0345650134230788
 40
0.0556127859482195
 40
0.0556127859482195
 40
0.0556127859482195
 40
0.0556127859482195
 10
-22.24835205078027
 20
11.54183959961011
 30
0.0
 10
-22.24910884884141
 20
11.53991220630104
 30
0.0
 10
-22.25129316681639
 20
11.53434924298755
 30
0.0
 10
-22.25927773039438
 20
11.52576534451419
 30
0.0
 10
-22.27023484634983
 20
11.51357702572171
 30
0.0
 10
-22.27895594573565
 20
11.50446494848127
 30
0.0
 10
-22.28381347656026
 20
11.49938964844011
 30
0.0
 11
-22.24835205078027
 21
11.54183959961011
 31
0.0
 11
-22.25085449218026
 21
11.53619384766011
 31
0.0
 11
-22.25805664062026
 21
11.52703857422011
 31
0.0
 11
-22.26934814453027
 21
11.51467895508011
 31
0.0
 11
-22.28381347656026
 21
11.49938964844011
 31
0.0
  0
SPLINE
  5
90DA
330
1F
100
AcDbEntity
  8
AM_0
100
AcDbSpline
210
0.0
220
0.0
230
1.0
 70
     8
 71
     3
 72
    11
 73
     7
 74
     5
 42
0.0000000001
 43
0.0000000001
 44
0.0000000001
 40
0.0
 40
0.0
 40
0.0
 40
0.0
 40
0.3017485240570498
 40
0.6080094928798701
 40
0.9188182539766366
 40
1.231459663802903
 40
1.231459663802903
 40
1.231459663802903
 40
1.231459663802903
 10
-0.7668457031202678
 20
-0.1444091796798403
 30
0.0
 10
-0.6657364296039448
 20
-0.1305249588407169
 30
0.0
 10
-0.4620058618796472
 20
-0.1025488880453165
 30
0.0
 10
-0.2083261456558952
 20
0.087671771209898
 30
0.0
 10
-0.0325416419003896
 20
0.354628822028153
 30
0.0
 10
-0.0108481251411016
 20
0.5640696552614415
 30
0.0
 10
0.0000305175797308
 20
0.6690979003901561
 30
0.0
 11
-0.7668457031202678
 21
-0.1444091796798403
 31
0.0
 11
-0.4723510742202706
 21
-0.0786437988198401
 31
0.0
 11
-0.2228088378902697
 21
0.0989074707101594
 31
0.0
 11
-0.0567932128902697
 21
0.3616638183601566
 31
0.0
 11
0.0000305175797308
 21
0.6690979003901561
 31
0.0
  0
SPLINE
  5
90E0
330
1F
100
AcDbEntity
  8
AM_0
100
AcDbSpline
210
0.0
220
0.0
230
1.0
 70
     8
 71
     3
 72
    11
 73
     7
 74
     5
 42
0.0000000001
 43
0.0000000001
 44
0.0000000001
 40
0.0
 40
0.0
 40
0.0
 40
0.0
 40
3.927487571413764
 40
9.160437805852698
 40
14.72650060773654
 40
20.31095035107522
 40
20.31095035107522
 40
20.31095035107522
 40
20.31095035107522
 10
-31.35552978515026
 20
10.2369384765701
 30
0.0
 10
-30.67878159599522
 20
9.114311760211364
 30
0.0
 10
-29.10034001362081
 20
6.495906984282043
 30
0.0
 10
-25.79176842206827
 20
2.81727584264256
 30
0.0
 10
-20.97067846779379
 20
-0.1003336680303817
 30
0.0
 10
-17.22669975793062
 20
-0.4325946080535627
 30
0.0
 10
-15.35162353515026
 20
-0.5989990234298688
 30
0.0
 11
-31.35552978515026
 21
10.2369384765701
 31
0.0
 11
-29.23712158203027
 21
6.929748535160101
 31
0.0
 11
-25.69012451172027
 21
3.082336425790117
 31
0.0
 11
-20.86077880859027
 21
0.3149414062501137
 31
0.0
 11
-15.35162353515026
 21
-0.5989990234298688
 31
0.0
  0
SPLINE
  5
90E1
330
1F
100
AcDbEntity
  8
AM_0
100
AcDbSpline
210
0.0
220
0.0
230
1.0
 70
     8
 71
     3
 72
    11
 73
     7
 74
     5
 42
0.0000000001
 43
0.0000000001
 44
0.0000000001
 40
0.0
 40
0.0
 40
0.0
 40
0.0
 40
0.6881067892743353
 40
1.42538021327329
 40
2.203686531053258
 40
3.005958464142567
 40
3.005958464142567
 40
3.005958464142567
 40
3.005958464142567
 10
-12.39996337890024
 20
-6.693756103509855
 30
0.0
 10
-12.47225150822949
 20
-6.474090132310503
 30
0.0
 10
-12.6219929012902
 20
-6.019062607865912
 30
0.0
 10
-13.10570860287742
 20
-5.447176180911373
 30
0.0
 10
-13.76501953009439
 20
-5.005609713216993
 30
0.0
 10
-14.29355427200015
 20
-4.934136255318232
 30
0.0
 10
-14.56182861328024
 20
-4.897857666009869
 30
0.0
 11
-12.39996337890024
 21
-6.693756103509855
 31
0.0
 11
-12.65484619140023
 21
-6.054595947259855
 31
0.0
 11
-13.11999511718023
 21
-5.482574462889857
 31
0.0
 11
-13.77734375000024
 21
-5.06585693358987
 31
0.0
 11
-14.56182861328024
 21
-4.897857666009869
 31
0.0
  0
SPLINE
  5
90E2
330
1F
100
AcDbEntity
  8
AM_0
100
AcDbSpline
210
0.0
220
0.0
230
1.0
 70
     8
 71
     3
 72
    11
 73
     7
 74
     5
 42
0.0000000001
 43
0.0000000001
 44
0.0000000001
 40
0.0
 40
0.0
 40
0.0
 40
0.0
 40
0.0647959765849382
 40
0.129127494542011
 40
0.1930680186046683
 40
0.2565617449220061
 40
0.2565617449220061
 40
0.2565617449220061
 40
0.2565617449220061
 10
-12.39996337890024
 20
-6.693756103509855
 30
0.0
 10
-12.39525836841939
 20
-6.714837659237624
 30
0.0
 10
-12.38588207305034
 20
-6.756849657754326
 30
0.0
 10
-12.3741318824856
 20
-6.820135807764525
 30
0.0
 10
-12.36413446193232
 20
-6.883283522957523
 30
0.0
 10
-12.35904310213181
 20
-6.925458576334664
 30
0.0
 10
-12.35650634765024
 20
-6.946472167959854
 30
0.0
 11
-12.39996337890024
 21
-6.693756103509855
 31
0.0
 11
-12.38623046875024
 21
-6.757080078119855
 31
0.0
 11
-12.37438964843023
 21
-6.820312499999857
 31
0.0
 11
-12.36450195312023
 21
-6.883483886709854
 31
0.0
 11
-12.35650634765024
 21
-6.946472167959854
 31
0.0
  0
SPLINE
  5
90E3
330
1F
100
AcDbEntity
  8
AM_0
100
AcDbSpline
210
0.0
220
0.0
230
1.0
 70
     8
 71
     3
 72
    11
 73
     7
 74
     5
 42
0.0000000001
 43
0.0000000001
 44
0.0000000001
 40
0.0
 40
0.0
 40
0.0
 40
0.0
 40
0.8290769176827641
 40
1.625299143658981
 40
2.365256504332279
 40
3.054899400606451
 40
3.054899400606451
 40
3.054899400606451
 40
3.054899400606451
 10
-14.56182861328024
 20
-4.897857666009869
 30
0.0
 10
-14.84155532433422
 20
-4.924539409534715
 30
0.0
 10
-15.38992372567058
 20
-4.976845551434633
 30
0.0
 10
-16.0503421560992
 20
-5.468744911842503
 30
0.0
 10
-16.43013858497195
 20
-6.141295899389987
 30
0.0
 10
-16.42938138737693
 20
-6.624504088499663
 30
0.0
 10
-16.42901611328024
 20
-6.857604980459868
 30
0.0
 11
-14.56182861328024
 21
-4.897857666009869
 31
0.0
 11
-15.37640380859023
 21
-5.052246093749872
 31
0.0
 11
-16.02124023437023
 21
-5.51931762694987
 31
0.0
 11
-16.37316894531024
 21
-6.170227050779871
 31
0.0
 11
-16.42901611328024
 21
-6.857604980459868
 31
0.0
  0
ELLIPSE
  5
910B
330
1F
100
AcDbEntity
  8
AM_0
100
AcDbEllipse
 10
-11.33325195312026
 20
5.572052001960145
 30
0.0
 11
-0.048874034000056
 21
2.799560494819985
 31
0.0
210
0.0
220
0.0
230
0.9999999999999998
 40
0.9848205853594999
 41
4.712387058940635
 42
6.283185307179586
  0
ELLIPSE
  5
910C
330
1F
100
AcDbEntity
  8
AM_0
100
AcDbEllipse
 10
-11.33325195312026
 20
5.572052001960145
 30
0.0
 11
-0.048874034000056
 21
2.799560494819985
 31
0.0
210
0.0
220
0.0
230
0.9999999999999998
 40
0.9848205853594999
 41
3.141592564819505
 42
4.712387058940635
  0
ELLIPSE
  5
910D
330
1F
100
AcDbEntity
  8
AM_0
100
AcDbEllipse
 10
-11.33325195312026
 20
5.572052001960145
 30
0.0
 11
-0.048874034000056
 21
2.799560494819985
 31
0.0
210
0.0
220
0.0
230
0.9999999999999998
 40
0.9848205853594999
 41
0.0
 42
1.524504029815767
  0
ELLIPSE
  5
910E
330
1F
100
AcDbEntity
  8
AM_0
100
AcDbEllipse
 10
-11.43743896484026
 20
5.570251464850144
 30
0.0
 11
-0.0488890561699746
 21
2.799560470979999
 31
0.0
210
0.0
220
0.0
230
1.0
 40
0.9848041527255
 41
0.0
 42
1.128613557509337
  0
ELLIPSE
  5
9110
330
1F
100
AcDbEntity
  8
AM_0
100
AcDbEllipse
 10
-4.964050292970242
 20
-3.617340087889857
 30
0.0
 11
0.0632629593400168
 21
2.899322617639995
 31
0.0
210
0.0
220
0.0
230
0.9999999999999998
 40
0.9848006356704999
 41
4.236398955363743
 42
4.58779941020354
  0
ELLIPSE
  5
9111
330
1F
100
AcDbEntity
  8
AM_0
100
AcDbEllipse
 10
-12.75079345703026
 20
0.6764526367201285
 30
0.0
 11
0.2595820987099607
 21
11.89715566799
 31
0.0
210
0.0
220
0.0
230
1.0
 40
0.9848093943592999
 41
4.074644931088929
 42
4.236530749607215
  0
ELLIPSE
  5
9112
330
1F
100
AcDbEntity
  8
AM_0
100
AcDbEllipse
 10
-4.859893798820237
 20
-3.619628906249857
 30
0.0
 11
0.0763550469899814
 21
3.49917609248999
 31
0.0
210
0.0
220
0.0
230
1.0
 40
0.9847986751045997
 41
4.23639834822517
 42
4.712388819940596
  0
ELLIPSE
  5
9113
330
1F
100
AcDbEntity
  8
AM_0
100
AcDbEllipse
 10
-12.64666748047027
 20
0.6741638183601282
 30
0.0
 11
0.272673856150025
 21
12.49703991337
 31
0.0
210
0.0
220
0.0
230
0.9999999999999998
 40
0.9848060018851999
 41
3.141592564818191
 42
4.236530261728179
  0
ELLIPSE
  5
9114
330
1F
100
AcDbEntity
  8
AM_0
100
AcDbEllipse
 10
-29.18658447265027
 20
3.962417602540099
 30
0.0
 11
-89.15876395925007
 21
45.62784877965983
 31
0.0
210
0.0
220
0.0
230
0.9999999999999998
 40
0.0827713217977
 41
4.584571513318826
 42
4.67548758657004
  0
ELLIPSE
  5
9115
330
1F
100
AcDbEntity
  8
AM_0
100
AcDbEllipse
 10
-29.18658447265027
 20
3.962417602540099
 30
0.0
 11
-89.15876395925007
 21
45.62784877965983
 31
0.0
210
0.0
220
0.0
230
0.9999999999999998
 40
0.0827713217977
 41
4.462083077025193
 42
4.532650110811083
  0
ELLIPSE
  5
9116
330
1F
100
AcDbEntity
  8
AM_0
100
AcDbEllipse
 10
-10.62402343750029
 20
12.18545532227014
 30
0.0
 11
-0.2181545909900497
 21
12.49810764382999
 31
0.0
210
0.0
220
0.0
230
1.0
 40
0.9848060747014999
 41
1.897951476540716
 42
3.141592742361388
  0
ELLIPSE
  5
9117
330
1F
100
AcDbEntity
  8
AM_0
100
AcDbEllipse
 10
-27.63952636718026
 20
6.985458374030102
 30
0.0
 11
-89.15876395925009
 21
45.62784877964983
 31
0.0
210
0.0
220
0.0
230
1.0
 40
0.0827713217977
 41
4.441729635888212
 42
4.532650110811083
  0
ELLIPSE
  5
9118
330
1F
100
AcDbEntity
  8
AM_0
100
AcDbEllipse
 10
-27.63952636718026
 20
6.985458374030102
 30
0.0
 11
-89.15876395925009
 21
45.62784877964983
 31
0.0
210
0.0
220
0.0
230
1.0
 40
0.0827713217977
 41
4.584571513318826
 42
4.655157454555861
  0
ELLIPSE
  5
9119
330
1F
100
AcDbEntity
  8
AM_0
100
AcDbEllipse
 10
-28.95159912109027
 20
4.421646118170102
 30
0.0
 11
-89.09811143835005
 21
45.59678246689983
 31
0.0
210
0.0
220
0.0
230
0.9999999999999998
 40
0.0827710121971
 41
4.587251509358607
 42
4.679595205336337
  0
ELLIPSE
  5
911A
330
1F
100
AcDbEntity
  8
AM_0
100
AcDbEllipse
 10
-27.87451171875027
 20
6.5262298584001
 30
0.0
 11
-89.09812502173005
 21
45.59678941832981
 31
0.0
210
0.0
220
0.0
230
0.9999999999999998
 40
0.0827710758054
 41
4.587251285596884
 42
4.6648123423948
  0
ELLIPSE
  5
911B
330
1F
100
AcDbEntity
  8
AM_0
100
AcDbEllipse
 10
-11.24401855468026
 20
5.773651123050143
 30
0.0
 11
-0.0523681262000141
 21
2.999542179710005
 31
0.0
210
0.0
220
0.0
230
0.9999999999999998
 40
0.9848101102853
 41
3.154030711184967
 42
4.712389641728401
  0
ELLIPSE
  5
911C
330
1F
100
AcDbEntity
  8
AM_0
100
AcDbEllipse
 10
-11.24401855468026
 20
5.773651123050143
 30
0.0
 11
-0.0523681262000141
 21
2.999542179710005
 31
0.0
210
0.0
220
0.0
230
0.9999999999999998
 40
0.9848101102853
 41
4.712389641728401
 42
6.761685317714894
  0
ELLIPSE
  5
911D
330
1F
100
AcDbEntity
  8
AM_0
100
AcDbEllipse
 10
-28.95159912109027
 20
4.421646118170102
 30
0.0
 11
-89.09811143835005
 21
45.59678246689983
 31
0.0
210
0.0
220
0.0
230
0.9999999999999998
 40
0.0827710121971
 41
4.452402511932562
 42
4.529971786835937
  0
ELLIPSE
  5
911E
330
1F
100
AcDbEntity
  8
AM_0
100
AcDbEllipse
 10
-27.87451171875027
 20
6.5262298584001
 30
0.0
 11
-89.09812502173005
 21
45.59678941832981
 31
0.0
210
0.0
220
0.0
230
0.9999999999999998
 40
0.0827710758054
 41
4.437623376709096
 42
4.529971763616824
  0
ELLIPSE
  5
9120
330
1F
100
AcDbEntity
  8
AM_0
100
AcDbEllipse
 10
-13.92962646484024
 20
-6.912139892569868
 30
0.0
 11
0.0327148992099608
 21
1.499633782909995
 31
0.0
210
0.0
220
0.0
230
1.0
 40
0.9848189990283
 41
0.0
 42
6.283185307179586
  0
ELLIPSE
  5
913C
330
1F
100
AcDbEntity
  8
AM_0
100
AcDbEllipse
 10
-12.29821777343026
 20
-0.6727905273398705
 30
0.0
 11
11.33196987653996
 21
1.714019801840032
 31
0.0
210
0.0
220
0.0
230
1.0
 40
0.6963641702781001
 41
5.778486283491226
 42
5.816608205710466
  0
ELLIPSE
  5
913D
330
1F
100
AcDbEntity
  8
AM_0
100
AcDbEllipse
 10
-12.64575195312026
 20
0.0053710937501279
 30
0.0
 11
0.2489626258600085
 21
11.4098207584
 31
0.0
210
0.0
220
0.0
230
1.0
 40
0.9848051026028999
 41
4.115464148601206
 42
4.468462489219763
  0
ELLIPSE
  5
913E
330
1F
100
AcDbEntity
  8
AM_0
100
AcDbEllipse
 10
-12.64605712890026
 20
0.0055847168001293
 30
0.0
 11
0.2429808877800271
 21
11.41021775460998
 31
0.0
210
0.0
220
0.0
230
1.0
 40
0.9848136484470998
 41
4.107598772376441
 42
4.114947492797716
  0
ELLIPSE
  5
913F
330
1F
100
AcDbEntity
  8
AM_0
100
AcDbEllipse
 10
-12.64575195312026
 20
0.0053710937501279
 30
0.0
 11
0.2489626258600085
 21
11.4098207584
 31
0.0
210
0.0
220
0.0
230
1.0
 40
0.9848051026028999
 41
3.185535989238126
 42
4.108124808302525
  0
ELLIPSE
  5
9140
330
1F
100
AcDbEntity
  8
AM_0
100
AcDbEllipse
 10
-13.54852294922027
 20
0.0250549316401276
 30
0.0
 11
0.2052309549500065
 21
9.404388555119993
 31
0.0
210
0.0
220
0.0
230
1.0
 40
0.9848067088123999
 41
3.288043977767979
 42
3.332345428161722
  0
ELLIPSE
  5
9141
330
1F
100
AcDbEntity
  8
AM_0
100
AcDbEllipse
 10
-10.64398193359026
 20
-0.0383300781198557
 30
0.0
 11
0.2478339103699685
 21
11.35815442846999
 31
0.0
210
0.0
220
0.0
230
0.9999999999999998
 40
0.1736506527517
 41
2.22839438455107
 42
2.520035523480249
  0
ELLIPSE
  5
9142
330
1F
100
AcDbEntity
  8
AM_0
100
AcDbEllipse
 10
-5.699768066400267
 20
4.438873291020144
 30
0.0
 11
-3.703475927989995
 21
5.590148744769997
 31
0.0
210
0.0
220
0.0
230
1.0
 40
0.5098340798575
 41
2.426563184219242
 42
3.43879794970506
  0
ELLIPSE
  5
9143
330
1F
100
AcDbEntity
  8
AM_0
100
AcDbEllipse
 10
-13.91314697265023
 20
-6.912506103509869
 30
0.0
 11
0.0436096117799668
 21
1.999511735479984
 31
0.0
210
0.0
220
0.0
230
1.0
 40
0.9848140105664
 41
3.141592564818912
 42
4.190257869707023
  0
ELLIPSE
  5
9144
330
1F
100
AcDbEntity
  8
AM_0
100
AcDbEllipse
 10
-13.91314697265023
 20
-6.912506103509869
 30
0.0
 11
0.0436096117799668
 21
1.999511735479984
 31
0.0
210
0.0
220
0.0
230
1.0
 40
0.9848140105664
 41
1.570785686535401
 42
3.141592742360673
  0
ELLIPSE
  5
9145
330
1F
100
AcDbEntity
  8
AM_0
100
AcDbEllipse
 10
-5.699768066400267
 20
4.438873291020144
 30
0.0
 11
-3.703475927989995
 21
5.590148744769997
 31
0.0
210
0.0
220
0.0
230
1.0
 40
0.5098340798575
 41
2.216177964356962
 42
2.426563184219242
  0
ELLIPSE
  5
9146
330
1F
100
AcDbEntity
  8
AM_0
100
AcDbEllipse
 10
-14.53009033203026
 20
2.61581420899013
 30
0.0
 11
-0.0523681261900097
 21
2.9995421797
 31
0.0
210
0.0
220
0.0
230
1.0
 40
0.9848101102853
 41
2.356194097150817
 42
3.141592742361024
  0
ELLIPSE
  5
9147
330
1F
100
AcDbEntity
  8
AM_0
100
AcDbEllipse
 10
-8.00994873047027
 20
1.529449462890141
 30
0.0
 11
-0.0348968234999955
 21
1.999694814390011
 31
0.0
210
0.0
220
0.0
230
0.9999999999999998
 40
0.9848075454738999
 41
2.69087148373844
 42
3.141592742361256
  0
ELLIPSE
  5
9148
330
1F
100
AcDbEntity
  8
AM_0
100
AcDbEllipse
 10
-19.23748779297027
 20
6.993865966800115
 30
0.0
 11
-0.0523681261900097
 21
2.999542179710003
 31
0.0
210
0.0
220
0.0
230
1.0
 40
0.9848101102853
 41
1.570796956834849
 42
2.016902586099051
  0
ELLIPSE
  5
9149
330
1F
100
AcDbEntity
  8
AM_0
100
AcDbEllipse
 10
-3.64794921875027
 20
1.605590820320159
 30
0.0
 11
-0.0348968234999955
 21
1.999694814380007
 31
0.0
210
0.0
220
0.0
230
1.0
 40
0.9848075454738999
 41
3.14159256481833
 42
3.593004659287032
  0
ELLIPSE
  5
914A
330
1F
100
AcDbEntity
  8
AM_0
100
AcDbEllipse
 10
-4.19891357422027
 20
1.595977783210159
 30
0.0
 11
-0.0348968234999955
 21
1.999694814380007
 31
0.0
210
0.0
220
0.0
230
1.0
 40
0.9848075454738999
 41
3.14159256481833
 42
3.593004659287032
  0
ELLIPSE
  5
914B
330
1F
100
AcDbEntity
  8
AM_0
100
AcDbEllipse
 10
-15.13317871093026
 20
2.605285644540131
 30
0.0
 11
-0.0471190300700126
 21
2.699585052399982
 31
0.0
210
0.0
220
0.0
230
0.9999999999999998
 40
0.9848067106975999
 41
2.731276699609385
 42
3.141592742361331
  0
ELLIPSE
  5
9164
330
1F
100
AcDbEntity
  8
AM_0
100
AcDbEllipse
 10
-1.864105224610241
 20
-3.08694458006984
 30
0.0
 11
0.3130187924199953
 21
0.2996521086299999
 31
0.0
210
0.0
220
0.0
230
1.0
 40
0.8391118839045999
 41
6.19689053327121
 42
6.624698258360091
  0
ELLIPSE
  5
9165
330
1F
100
AcDbEntity
  8
AM_0
100
AcDbEllipse
 10
-1.864135742180238
 20
-3.08694458006984
 30
0.0
 11
-0.4632721006200313
 21
0.0101013525599844
 31
0.0
210
0.0
220
0.0
230
1.0
 40
0.8632123158676
 41
3.141592552313658
 42
3.926969672294336
  0
ELLIPSE
  5
9166
330
1F
100
AcDbEntity
  8
AM_0
100
AcDbEllipse
 10
-23.90875244140024
 20
-11.18295288085988
 30
0.0
 11
-0.2996521036600377
 21
0.3130187971800063
 31
0.0
210
0.0
220
0.0
230
1.0
 40
0.8391118839045999
 41
1.804353768032916
 42
2.443719485869924
  0
ELLIPSE
  5
9167
330
1F
100
AcDbEntity
  8
AM_0
100
AcDbEllipse
 10
-12.42999267578029
 20
12.15393066407013
 30
0.0
 11
-0.2181695065500226
 21
12.49810833729
 31
0.0
210
0.0
220
0.0
230
0.9999999999999998
 40
0.8111603893214997
 41
1.658911511400456
 42
1.804536447344698
  0
ELLIPSE
  5
9168
330
1F
100
AcDbEntity
  8
AM_0
100
AcDbEllipse
 10
-21.86053466797027
 20
10.88912963868011
 30
0.0
 11
-0.0139464988000116
 21
0.7998657394400086
 31
0.0
210
0.0
220
0.0
230
1.0
 40
0.8111791028763001
 41
0.689134418981009
 42
1.570807482762398
  0
ELLIPSE
  5
9169
330
1F
100
AcDbEntity
  8
AM_0
100
AcDbEllipse
 10
-22.15570068359026
 20
10.88400268555011
 30
0.0
 11
-0.0139464988000116
 21
0.7998657394499844
 31
0.0
210
0.0
220
0.0
230
1.0
 40
0.8111791028763001
 41
0.4701373765324096
 42
0.5986548652981757
  0
ELLIPSE
  5
916A
330
1F
100
AcDbEntity
  8
AM_0
100
AcDbEllipse
 10
-22.21649169922027
 20
10.88293457032011
 30
0.0
 11
0.6020507878199611
 21
0.6234436042900039
 31
0.0
210
0.0
220
0.0
230
1.0
 40
0.8391063863793
 41
0.698969606517549
 42
1.169258982034029
  0
ELLIPSE
  5
916B
330
1F
100
AcDbEntity
  8
AM_0
100
AcDbEllipse
 10
-18.55206298828027
 20
0.0000000000001279
 30
0.0
 11
-1.856292940419985
 21
11.49557483013
 31
0.0
210
0.0
220
0.0
230
1.0
 40
0.1713493055643
 41
3.079369075823364
 42
3.113933048632403
  0
ELLIPSE
  5
916C
330
1F
100
AcDbEntity
  8
AM_0
100
AcDbEllipse
 10
-20.55377197265026
 20
0.0017089843801159
 30
0.0
 11
65.24055409428001
 21
0.0456542973701214
 31
0.0
210
0.0
220
0.0
230
1.0
 40
0.1762955210326
 41
4.70841899767936
 42
4.71602403179428
  0
ELLIPSE
  5
916D
330
1F
100
AcDbEntity
  8
AM_0
100
AcDbEllipse
 10
-20.55377197265026
 20
0.0000000000001137
 30
0.0
 11
65.23574757454998
 21
0.0456542981901161
 31
0.0
210
0.0
220
0.0
230
0.9999999999999998
 40
0.1762823132975001
 41
4.773255020764183
 42
4.837582680833934
  0
ELLIPSE
  5
916E
330
1F
100
AcDbEntity
  8
AM_0
100
AcDbEllipse
 10
-18.59350585937026
 20
0.0000000000001279
 30
0.0
 11
-2.864868209299991
 21
11.33032257179998
 31
0.0
210
0.0
220
0.0
230
0.9999999999999998
 40
0.6869839541952
 41
3.004224233657186
 42
3.034442392114466
  0
ELLIPSE
  5
916F
330
1F
100
AcDbEntity
  8
AM_0
100
AcDbEllipse
 10
-18.55206298828027
 20
0.0000000000001279
 30
0.0
 11
-1.856292323809975
 21
11.49560584259998
 31
0.0
210
0.0
220
0.0
230
1.0
 40
0.1713488564975
 41
3.113932976179769
 42
3.156533174763968
  0
ELLIPSE
  5
9170
330
1F
100
AcDbEntity
  8
AM_0
100
AcDbEllipse
 10
-17.40911865234027
 20
-0.001190185539869
 30
0.0
 11
16.86788894477001
 21
3.295196336700036
 31
0.0
210
0.0
220
0.0
230
1.0
 40
0.6531074207498
 41
4.414170258448533
 42
4.42174809751523
  0
ELLIPSE
  5
9171
330
1F
100
AcDbEntity
  8
AM_0
100
AcDbEllipse
 10
-22.05609130859027
 20
0.0062255859401148
 30
0.0
 11
-0.3932801556200276
 21
11.49044779855
 31
0.0
210
0.0
220
0.0
230
1.0
 40
0.7000841845032
 41
0.0103022850637674
 42
0.0166502943222696
  0
ELLIPSE
  5
9172
330
1F
100
AcDbEntity
  8
AM_0
100
AcDbEllipse
 10
-22.46527099609026
 20
-0.0000610351498835
 30
0.0
 11
-0.2071532129400794
 21
11.49999977939999
 31
0.0
210
0.0
220
0.0
230
1.0
 40
0.1763013884903999
 41
6.213666897526313
 42
6.239385409497566
  0
ELLIPSE
  5
9173
330
1F
100
AcDbEntity
  8
AM_0
100
AcDbEllipse
 10
-22.46527099609026
 20
0.0000000000001137
 30
0.0
 11
-0.2071836615400799
 21
11.49993913965
 31
0.0
210
0.0
220
0.0
230
1.0
 40
0.1762943495705998
 41
6.137015922670513
 42
6.213664036148233
  0
ELLIPSE
  5
9174
330
1F
100
AcDbEntity
  8
AM_0
100
AcDbEllipse
 10
-9.36639404297027
 20
0.0000000000001421
 30
0.0
 11
-65.22997788903001
 21
0.0364949359198609
 31
0.0
210
0.0
220
0.0
230
1.0
 40
0.1762983745281
 41
4.914149349525651
 42
4.996206587900752
  0
ELLIPSE
  5
9175
330
1F
100
AcDbEntity
  8
AM_0
100
AcDbEllipse
 10
-16.57843017578026
 20
0.0000000000001279
 30
0.0
 11
-12.22915496331997
 21
11.45340064311997
 31
0.0
210
0.0
220
0.0
230
1.0
 40
0.0845778782617
 41
5.795318324384687
 42
5.912673877288682
  0
ELLIPSE
  5
9176
330
1F
100
AcDbEntity
  8
AM_0
100
AcDbEllipse
 10
-1.456115722650267
 20
0.0000000000001563
 30
0.0
 11
-65.22997788904001
 21
0.0364949359198609
 31
0.0
210
0.0
220
0.0
230
1.0
 40
0.1762983745281
 41
5.113640576380041
 42
5.188646492964419
  0
ELLIPSE
  5
9177
330
1F
100
AcDbEntity
  8
AM_0
100
AcDbEllipse
 10
-14.65118408203027
 20
0.0000000000001279
 30
0.0
 11
0.2589725936299828
 21
11.49990822796999
 31
0.0
210
0.0
220
0.0
230
0.9999999999999998
 40
0.1762815583524
 41
2.213676805045046
 42
2.583369041139389
  0
ELLIPSE
  5
9178
330
1F
100
AcDbEntity
  8
AM_0
100
AcDbEllipse
 10
-50.50646972656025
 20
0.0000000000000568
 30
0.0
 11
65.23573231577
 21
0.0456542951001363
 31
0.0
210
0.0
220
0.0
230
1.0
 40
0.1762823545303
 41
5.270628981891231
 42
5.336098398446025
  0
ARC
  5
9189
330
1F
100
AcDbEntity
  8
AM_11
100
AcDbCircle
 10
-12.50000000000027
 20
0.0000000000001279
 30
0.0
 40
12.5
100
AcDbArc
 50
269.9999974955182
 51
90.00000250448172
  0
LINE
  5
918A
330
1F
100
AcDbEntity
  8
AM_7
100
AcDbLine
 10
2.477539062499729
 20
0.0000000000001563
 30
0.0
 11
-305.5837555173255
 21
-0.0000000000004524
 31
0.0
  0
LINE
  5
918B
330
1F
100
AcDbEntity
  8
AM_11
100
AcDbLine
 10
-23.00000000000024
 20
-12.49999999999988
 30
0.0
 11
-12.50000000000024
 21
-12.49999999999985
 31
0.0
  0
LINE
  5
918C
330
1F
100
AcDbEntity
  8
AM_11
100
AcDbLine
 10
-23.0000000000003
 20
12.50000000000011
 30
0.0
 11
-12.50000000000029
 21
12.50000000000012
 31
0.0
  0
LINE
  5
918D
330
1F
100
AcDbEntity
  8
AM_0
100
AcDbLine
 10
-12.59753417968026
 20
8.44752502442013
 30
0.0
 11
-12.52777099609026
 21
8.488479614260128
 31
0.0
  0
LINE
  5
918E
330
1F
100
AcDbEntity
  8
AM_0
100
AcDbLine
 10
-18.76904296875027
 20
11.74324035645013
 30
0.0
 11
-12.18328857422027
 21
11.85820007325013
 31
0.0
  0
LINE
  5
918F
330
1F
100
AcDbEntity
  8
AM_0
100
AcDbLine
 10
-15.35156250000027
 20
-0.5989990234298688
 30
0.0
 11
-12.40002441406026
 21
-0.547485351559871
 31
0.0
  0
LINE
  5
9190
330
1F
100
AcDbEntity
  8
AM_0
100
AcDbLine
 10
-12.82531738281027
 20
6.412170410160129
 30
0.0
 11
-11.36346435547027
 21
7.303833007820145
 31
0.0
  0
LINE
  5
9191
330
1F
100
AcDbEntity
  8
AM_0
100
AcDbLine
 10
-11.30303955078026
 20
3.840270996100144
 30
0.0
 11
-12.79516601562026
 21
4.680389404300129
 31
0.0
  0
LINE
  5
9192
330
1F
100
AcDbEntity
  8
AM_0
100
AcDbLine
 10
-12.91931152343023
 20
-11.82286071776985
 30
0.0
 11
-12.10333251953024
 21
-11.84068298338985
 31
0.0
  0
LINE
  5
9193
330
1F
100
AcDbEntity
  8
AM_0
100
AcDbLine
 10
-14.47772216797027
 20
-0.38371276854987
 30
0.0
 11
-9.604278564450268
 21
-0.2986602783198577
 31
0.0
  0
LINE
  5
9199
330
1F
100
AcDbEntity
  8
AM_11
100
AcDbLine
 10
-23.0000000000003
 20
12.50000000000011
 30
0.0
 11
-23.00000000000024
 21
-12.49999999999988
 31
0.0
  0
LINE
  5
919A
330
1F
100
AcDbEntity
  8
AM_0
100
AcDbLine
 10
-100.0000000000002
 20
-16.00000000000003
 30
0.0
 11
-100.0000000000002
 21
15.99999999999995
 31
0.0
  0
LINE
  5
919B
330
1F
100
AcDbEntity
  8
AM_0
100
AcDbLine
 10
-97.00000000000022
 20
-15.00000000000003
 30
0.0
 11
-97.00000000000027
 21
14.99999999999997
 31
0.0
  0
LINE
  5
919C
330
1F
100
AcDbEntity
  8
AM_0
100
AcDbLine
 10
-298.5176391601502
 20
-15.59335327148043
 30
0.0
 11
-298.5176391601503
 21
15.59335327148956
 31
0.0
  0
LINE
  5
919D
330
1F
100
AcDbEntity
  8
AM_0
100
AcDbLine
 10
-297.0000000000002
 20
-16.00000000000043
 30
0.0
 11
-297.0000000000003
 21
15.99999999999957
 31
0.0
  0
LINE
  5
919E
330
1F
100
AcDbEntity
  8
AM_0
100
AcDbLine
 10
-300.0000000000003
 20
-13.66149902343043
 30
0.0
 11
-300.0000000000003
 21
13.66149902343956
 31
0.0
  0
LINE
  5
919F
330
1F
100
AcDbEntity
  8
AM_0
100
AcDbLine
 10
-90.00000000000021
 20
-15.00000000000001
 30
0.0
 11
-90.00000000000026
 21
14.99999999999998
 31
0.0
  0
LINE
  5
91A0
330
1F
100
AcDbEntity
  8
AM_0
100
AcDbLine
 10
-50.00000000000024
 20
-11.49999999999994
 30
0.0
 11
-50.00000000000028
 21
11.50000000000005
 31
0.0
  0
LINE
  5
91A1
330
1F
100
AcDbEntity
  8
AM_0
100
AcDbLine
 10
-26.92523193359027
 20
10.6009521484401
 30
0.0
 11
-16.58184814453027
 21
0.4583435058601282
 31
0.0
  0
LINE
  5
91A5
330
1F
100
AcDbEntity
  8
AM_0
100
AcDbLine
 10
-297.0000000000002
 20
-16.00000000000047
 30
0.0
 11
-100.0000000000002
 21
-16.00000000000004
 31
0.0
  0
ARC
  5
91A9
330
1F
100
AcDbEntity
  8
AM_0
100
AcDbCircle
 10
-298.0000000000003
 20
-13.66149902343043
 30
0.0
 40
2.0
100
AcDbArc
 50
180.0000086514213
 51
255.0000004932031
  0
LINE
  5
91AA
330
1F
100
AcDbEntity
  8
AM_0
100
AcDbLine
 10
-298.5176391601502
 20
-15.59335327148043
 30
0.0
 11
-297.0000000000002
 21
-16.00000000000043
 31
0.0
  0
LINE
  5
91AB
330
1F
100
AcDbEntity
  8
AM_0
100
AcDbLine
 10
-50.00000000000024
 20
-11.49999999999994
 30
0.0
 11
-20.80468750000024
 21
-11.49999999999988
 31
0.0
  0
ARC
  5
91AE
330
1F
100
AcDbEntity
  8
AM_0
100
AcDbCircle
 10
-97.00000000000022
 20
-20.00000000000003
 30
0.0
 40
5.0
100
AcDbArc
 50
90.00000250448172
 51
126.8699032291534
  0
LINE
  5
91B1
330
1F
100
AcDbEntity
  8
AM_0
100
AcDbLine
 10
-97.00000000000022
 20
-15.00000000000003
 30
0.0
 11
-90.00000000000021
 21
-15.00000000000001
 31
0.0
  0
LINE
  5
91B2
330
1F
100
AcDbEntity
  8
AM_0
100
AcDbLine
 10
-20.47064208984024
 20
-11.65809631346988
 30
0.0
 11
-23.84796142578024
 21
-11.58439636229988
 31
0.0
  0
LINE
  5
91B3
330
1F
100
AcDbEntity
  8
AM_0
100
AcDbLine
 10
-16.19805908203024
 20
-11.75132751463986
 30
0.0
 11
-16.55505371093023
 21
-11.74354553221987
 31
0.0
  0
LINE
  5
91B4
330
1F
100
AcDbEntity
  8
AM_0
100
AcDbLine
 10
-19.73175048828024
 20
-11.67420959471988
 30
0.0
 11
-20.30328369140023
 21
-11.66175842284988
 31
0.0
  0
LINE
  5
91B5
330
1F
100
AcDbEntity
  8
AM_0
100
AcDbLine
 10
-12.91931152343023
 20
-11.82284545897985
 30
0.0
 11
-12.98071289062024
 21
-11.41702270506985
 31
0.0
  0
LINE
  5
91B6
330
1F
100
AcDbEntity
  8
AM_0
100
AcDbLine
 10
-12.91931152343023
 20
-11.82286071776985
 30
0.0
 11
-16.19812011718023
 21
-11.75132751463986
 31
0.0
  0
LINE
  5
91B7
330
1F
100
AcDbEntity
  8
AM_0
100
AcDbLine
 10
-16.19812011718023
 20
-11.75132751463986
 30
0.0
 11
-16.24029541015024
 21
-11.47184753417987
 31
0.0
  0
LINE
  5
91B8
330
1F
100
AcDbEntity
  8
AM_0
100
AcDbLine
 10
-20.49462890625024
 20
-11.49987792967988
 30
0.0
 11
-20.47064208984024
 21
-11.65808105467988
 31
0.0
  0
LINE
  5
91B9
330
1F
100
AcDbEntity
  8
AM_0
100
AcDbLine
 10
-20.28576660156024
 20
-11.49977111815988
 30
0.0
 11
-20.30328369140023
 21
-11.66172790526988
 31
0.0
  0
LINE
  5
91BA
330
1F
100
AcDbEntity
  8
AM_0
100
AcDbLine
 10
-20.47070312500024
 20
-11.65809631346988
 30
0.0
 11
-20.30328369140023
 21
-11.66175842284988
 31
0.0
  0
LINE
  5
91BB
330
1F
100
AcDbEntity
  8
AM_0
100
AcDbLine
 10
-16.57220458984023
 20
-11.47576904295986
 30
0.0
 11
-16.55505371093023
 21
-11.74353027342986
 31
0.0
  0
LINE
  5
91BC
330
1F
100
AcDbEntity
  8
AM_0
100
AcDbLine
 10
-19.73175048828024
 20
-11.67417907713988
 30
0.0
 11
-19.71289062500024
 21
-11.49999999999988
 31
0.0
  0
LINE
  5
91BD
330
1F
100
AcDbEntity
  8
AM_0
100
AcDbLine
 10
-16.55505371093023
 20
-11.74351501463986
 30
0.0
 11
-19.73175048828024
 21
-11.67417907713988
 31
0.0
  0
LINE
  5
91BE
330
1F
100
AcDbEntity
  8
AM_0
100
AcDbLine
 10
-20.18109130859023
 20
-11.49999999999988
 30
0.0
 11
-16.75103759765024
 21
-11.49999999999987
 31
0.0
  0
LINE
  5
91BF
330
1F
100
AcDbEntity
  8
AM_0
100
AcDbLine
 10
-15.88226318359024
 20
-6.869537353509869
 30
0.0
 11
-16.42901611328024
 21
-6.857604980459868
 31
0.0
  0
LINE
  5
91C0
330
1F
100
AcDbEntity
  8
AM_0
100
AcDbLine
 10
-15.88226318359024
 20
-6.869537353509869
 30
0.0
 11
-15.94464111328024
 21
-9.72990417479987
 31
0.0
  0
LINE
  5
91C1
330
1F
100
AcDbEntity
  8
AM_0
100
AcDbLine
 10
-16.66674804687024
 20
-11.48959350585987
 30
0.0
 11
-16.66766357422024
 21
-11.48345947264987
 31
0.0
  0
LINE
  5
91C2
330
1F
100
AcDbEntity
  8
AM_0
100
AcDbLine
 10
-15.08599853515026
 20
-0.0942993163998693
 30
0.0
 11
-13.09149169922027
 21
-0.0594787597598696
 31
0.0
  0
LINE
  5
91C3
330
1F
100
AcDbEntity
  8
AM_0
100
AcDbLine
 10
-15.03912353515026
 20
-0.3390045165998714
 30
0.0
 11
-15.08599853515026
 21
-0.0942840576098689
 31
0.0
  0
LINE
  5
91C4
330
1F
100
AcDbEntity
  8
AM_0
100
AcDbLine
 10
-100.0000000000003
 20
15.99999999999996
 30
0.0
 11
-297.0000000000004
 21
15.99999999999959
 31
0.0
  0
ARC
  5
91C5
330
1F
100
AcDbEntity
  8
AM_0
100
AcDbCircle
 10
-298.0000000000003
 20
13.66149902343957
 30
0.0
 40
2.000000238418599
100
AcDbArc
 50
104.9999926766061
 51
180.0000050089569
  0
LINE
  5
91C6
330
1F
100
AcDbEntity
  8
AM_0
100
AcDbLine
 10
-297.0000000000003
 20
16.00001525878957
 30
0.0
 11
-298.5175781250003
 21
15.59336853027956
 31
0.0
  0
LINE
  5
91C8
330
1F
100
AcDbEntity
  8
AM_0
100
AcDbLine
 10
-22.53155517578027
 20
11.50000000000011
 30
0.0
 11
-50.00000000000028
 21
11.50000000000005
 31
0.0
  0
ARC
  5
91C9
330
1F
100
AcDbEntity
  8
AM_0
100
AcDbCircle
 10
-97.00000000000029
 20
19.99999999999996
 30
0.0
 40
5.0
100
AcDbArc
 50
233.1300967708468
 51
269.9999974955182
  0
LINE
  5
91CD
330
1F
100
AcDbEntity
  8
AM_0
100
AcDbLine
 10
-90.00000000000026
 20
14.99999999999998
 30
0.0
 11
-97.00000000000027
 21
14.99999999999997
 31
0.0
  0
LINE
  5
91CE
330
1F
100
AcDbEntity
  8
AM_0
100
AcDbLine
 10
-22.09155273437026
 20
11.68525695801011
 30
0.0
 11
-21.55914306640026
 21
11.69453430176011
 31
0.0
  0
LINE
  5
91CF
330
1F
100
AcDbEntity
  8
AM_0
100
AcDbLine
 10
-22.50933837890026
 20
10.87779235840011
 30
0.0
 11
-22.33978271484026
 21
10.88075256348011
 31
0.0
  0
LINE
  5
91D0
330
1F
100
AcDbEntity
  8
AM_0
100
AcDbLine
 10
-22.22479248047027
 20
8.851409912110113
 30
0.0
 11
-22.20446777343026
 21
8.851776123050115
 31
0.0
  0
LINE
  5
91D1
330
1F
100
AcDbEntity
  8
AM_0
100
AcDbLine
 10
-22.25140380859027
 20
11.54383850098011
 30
0.0
 11
-22.53222656250027
 21
11.53892517090011
 31
0.0
  0
LINE
  5
91D2
330
1F
100
AcDbEntity
  8
AM_0
100
AcDbLine
 10
-22.25146484375027
 20
11.54385375977011
 30
0.0
 11
-22.25134277343026
 21
11.53581237793011
 31
0.0
  0
LINE
  5
91D3
330
1F
100
AcDbEntity
  8
AM_0
100
AcDbLine
 10
-22.20507812500027
 20
8.889144897460113
 30
0.0
 11
-22.20446777343026
 21
8.851776123050115
 31
0.0
  0
LINE
  5
91D4
330
1F
100
AcDbEntity
  8
AM_0
100
AcDbLine
 10
-22.53222656250027
 20
11.53895568848011
 30
0.0
 11
-22.53106689453026
 21
11.47468566895011
 31
0.0
  0
LINE
  5
91D5
330
1F
100
AcDbEntity
  8
AM_0
100
AcDbLine
 10
-22.19152832031026
 20
6.942291259770115
 30
0.0
 11
-22.22766113281026
 21
9.014694213870114
 31
0.0
  0
LINE
  5
91D6
330
1F
100
AcDbEntity
  8
AM_0
100
AcDbLine
 10
-19.86712646484027
 20
11.72406005860011
 30
0.0
 11
-18.76910400390026
 21
11.74322509766013
 31
0.0
  0
LINE
  5
91D7
330
1F
100
AcDbEntity
  8
AM_0
100
AcDbLine
 10
-21.55908203125027
 20
11.69450378418011
 30
0.0
 11
-19.86718750000027
 21
11.72404479981011
 31
0.0
  0
LINE
  5
91D8
330
1F
100
AcDbEntity
  8
AM_0
100
AcDbLine
 10
-12.82537841797027
 20
6.412155151370129
 30
0.0
 11
-12.79516601562026
 21
4.680404663090129
 31
0.0
  0
LINE
  5
91E5
330
1F
100
AcDbEntity
  8
AM_0
100
AcDbLine
 10
-3.440551757810268
 20
-0.1910705566398434
 30
0.0
 11
-2.399993896480268
 21
-0.1729125976498409
 31
0.0
  0
LINE
  5
91E6
330
1F
100
AcDbEntity
  8
AM_0
100
AcDbLine
 10
-1.324462890620267
 20
-0.3541564941398434
 30
0.0
 11
-5.749755859370267
 21
-0.4314270019498565
 31
0.0
  0
LINE
  5
91E7
330
1F
100
AcDbEntity
  8
AM_0
100
AcDbLine
 10
-12.39996337890024
 20
-11.40420532225985
 30
0.0
 11
-12.39996337890024
 21
-9.308135986319854
 31
0.0
  0
LINE
  5
91E8
330
1F
100
AcDbEntity
  8
AM_0
100
AcDbLine
 10
-12.39996337890024
 20
-6.693756103509855
 30
0.0
 11
-12.39996337890026
 21
-0.547485351559871
 31
0.0
  0
LINE
  5
91E9
330
1F
100
AcDbEntity
  8
AM_0
100
AcDbLine
 10
-5.749725341790266
 20
-0.431442260739857
 30
0.0
 11
-12.39996337890026
 21
-0.5475006103498714
 31
0.0
  0
LINE
  5
91EA
330
1F
100
AcDbEntity
  8
AM_0
100
AcDbLine
 10
-9.604248046870267
 20
-0.2986755371098582
 30
0.0
 11
-3.440521240230268
 21
-0.1910705566398434
 31
0.0
  0
LINE
  5
91EB
330
1F
100
AcDbEntity
  8
AM_0
100
AcDbLine
 10
-8.542114257810268
 20
-0.3958587646398541
 30
0.0
 11
-8.564239501950268
 21
-0.2805328369098561
 31
0.0
  0
LINE
  5
91EC
330
1F
100
AcDbEntity
  8
AM_0
100
AcDbLine
 10
-4.164001464840268
 20
-0.4037170410098412
 30
0.0
 11
-4.202239990230268
 21
-0.2043762206998423
 31
0.0
  0
ARC
  5
91ED
330
1F
100
AcDbEntity
  8
AM_0
100
AcDbCircle
 10
-12.39996337890026
 20
0.0000000000001279
 30
0.0
 40
11.5
100
AcDbArc
 50
346.4167780381594
 51
347.4441417959407
  0
LINE
  5
91EE
330
1F
100
AcDbEntity
  8
AM_0
100
AcDbLine
 10
-0.8774719238202379
 20
-3.465148925779843
 30
0.0
 11
-0.8725585937502415
 21
-3.108581542959839
 31
0.0
  0
LINE
  5
91EF
330
1F
100
AcDbEntity
  8
AM_0
100
AcDbLine
 10
-1.22164916992024
 20
-2.70088195799984
 30
0.0
 11
-1.640625000000241
 21
-2.691726684569843
 31
0.0
  0
LINE
  5
91F0
330
1F
100
AcDbEntity
  8
AM_0
100
AcDbLine
 10
-1.175018310540238
 20
-2.499999999999843
 30
0.0
 11
-1.175018310540266
 21
-0.3515624999998437
 31
0.0
  0
LINE
  5
91F1
330
1F
100
AcDbEntity
  8
AM_0
100
AcDbLine
 10
-1.17498779297027
 20
-0.3515472412098433
 30
0.0
 11
-1.324462890620267
 21
-0.354141235349843
 31
0.0
  0
LINE
  5
91F2
330
1F
100
AcDbEntity
  8
AM_0
100
AcDbLine
 10
-2.399993896480268
 20
-0.1729278564398413
 30
0.0
 11
-0.7668457031202678
 21
-0.1444244384698408
 31
0.0
  0
LINE
  5
91F3
330
1F
100
AcDbEntity
  8
AM_0
100
AcDbLine
 10
-1.413879394530241
 20
-3.694808959959843
 30
0.0
 11
-2.011657714840239
 21
-3.681747436519842
 31
0.0
  0
LINE
  5
91F4
330
1F
100
AcDbEntity
  8
AM_0
100
AcDbLine
 10
-1.831726074220242
 20
-5.28942871092984
 30
0.0
 11
-2.454986572260239
 21
-5.000930786129842
 31
0.0
  0
LINE
  5
91F5
330
1F
100
AcDbEntity
  8
AM_0
100
AcDbLine
 10
-1.818603515620239
 20
-3.04934692381984
 30
0.0
 11
-1.530334472650238
 21
-2.811294555659841
 31
0.0
  0
LINE
  5
91F6
330
1F
100
AcDbEntity
  8
AM_0
100
AcDbLine
 10
-1.40084838867024
 20
-3.09706115721984
 30
0.0
 11
-1.413879394530241
 21
-3.694808959959843
 31
0.0
  0
LINE
  5
91F7
330
1F
100
AcDbEntity
  8
AM_0
100
AcDbLine
 10
-1.400817871090239
 20
-3.09704589842984
 30
0.0
 11
-0.8725585937502415
 21
-3.108581542959839
 31
0.0
  0
LINE
  5
91F8
330
1F
100
AcDbEntity
  8
AM_0
100
AcDbLine
 10
-1.831695556640241
 20
-5.28944396971984
 30
0.0
 11
-1.218261718750241
 21
-5.302841186519842
 31
0.0
  0
LINE
  5
91F9
330
1F
100
AcDbEntity
  8
AM_0
100
AcDbLine
 10
-1.413879394530241
 20
-3.694824218749843
 30
0.0
 11
-0.8786315917902385
 21
-3.706481933589842
 31
0.0
  0
LINE
  5
91FA
330
1F
100
AcDbEntity
  8
AM_0
100
AcDbLine
 10
-1.175018310540266
 20
-0.1515197753898434
 30
0.0
 11
-1.175018310540266
 21
-0.3515624999998437
 31
0.0
  0
LINE
  5
922E
330
1F
100
AcDbEntity
  8
AM_0
100
AcDbLine
 10
-9.87142944336027
 20
6.463745117190143
 30
0.0
 11
-9.841186523430266
 21
4.731948852540142
 31
0.0
  0
LINE
  5
922F
330
1F
100
AcDbEntity
  8
AM_0
100
AcDbLine
 10
-11.36352539062026
 20
7.303817749030145
 30
0.0
 11
-9.871398925780269
 21
6.463729858400142
 31
0.0
  0
LINE
  5
9230
330
1F
100
AcDbEntity
  8
AM_0
100
AcDbLine
 10
-9.84115600586027
 20
4.731933593750142
 30
0.0
 11
-11.30303955078026
 21
3.840270996100144
 31
0.0
  0
LINE
  5
9231
330
1F
100
AcDbEntity
  8
AM_0
100
AcDbLine
 10
-11.38854980468026
 20
2.770675659180142
 30
0.0
 11
-11.28439331054026
 21
2.772506713870143
 31
0.0
  0
LINE
  5
9232
330
1F
100
AcDbEntity
  8
AM_0
100
AcDbLine
 10
-11.38214111328027
 20
8.371643066410143
 30
0.0
 11
-11.48632812500027
 21
8.369812011720142
 31
0.0
  0
LINE
  5
9233
330
1F
100
AcDbEntity
  8
AM_0
100
AcDbLine
 10
-9.84115600586027
 20
4.731948852540142
 30
0.0
 11
-10.36199951172027
 21
4.722854614260143
 31
0.0
  0
LINE
  5
9234
330
1F
100
AcDbEntity
  8
AM_0
100
AcDbLine
 10
-10.36206054687026
 20
4.722824096680142
 30
0.0
 11
-11.56616210937026
 21
3.988403320320145
 31
0.0
  0
LINE
  5
9235
330
1F
100
AcDbEntity
  8
AM_0
100
AcDbLine
 10
-9.871398925780269
 20
6.463745117190143
 30
0.0
 11
-10.39224243164027
 21
6.454650878910143
 31
0.0
  0
LINE
  5
9236
330
1F
100
AcDbEntity
  8
AM_0
100
AcDbLine
 10
-11.62127685547027
 20
7.146606445320145
 30
0.0
 11
-10.39224243164027
 21
6.454650878910143
 31
0.0
  0
LINE
  5
9237
330
1F
100
AcDbEntity
  8
AM_0
100
AcDbLine
 10
-10.39227294922027
 20
6.454650878910143
 30
0.0
 11
-10.36203002929026
 21
4.722854614260143
 31
0.0
  0
DIMENSION
  5
9345
330
1F
100
AcDbEntity
  8
AM_5
100
AcDbDimension
  2
*D5
 10
-23.00000000000026
 20
30.00001625878958
 30
0.0
 11
-11.50000000000023
 21
32.35001625878956
 31
0.0
 70
    32
  1
<>
 51
359.9999999999998
  3
AM_JIS$0
100
AcDbAlignedDimension
 13
-0.00000000000027
 23
0.0000000000001279
 33
0.0
 14
-23.0000000000003
 24
12.50000000000011
 34
0.0
 50
180.0
100
AcDbRotatedDimension
1001
GENIUS_GENDTOL_13
1000

1000
h7
1000

1040
0.0
1001
ACAD
1000
DSTYLE
1002
{
1070
   287
1070
     3
1070
    41
1040
5.0
1070
    40
1040
0.5
1070
    42
1040
1.0
1070
    43
1040
12.0
1070
    48
1040
0.1
1070
    78
1070
     8
1070
   140
1040
6.4
1070
   176
1070
   256
1070
   177
1070
   256
1070
   271
1070
     1
1070
   272
1070
     3
1070
   275
1070
     0
1070
   284
1070
     0
1070
   289
1070
     3
1070
   340
1005
6B
1070
   371
1070
    -1
1070
   372
1070
    -1
1002
}
  0
DIMENSION
  5
93DA
330
1F
100
AcDbEntity
  8
AM_5
100
AcDbDimension
  2
*D6
 10
-50.00000000000024
 20
-30.00000130234145
 30
0.0
 11
-25.00000000000026
 21
-27.65000130234144
 31
0.0
 70
    32
  1
<>
 51
359.9999999999998
  3
AM_JIS$0
100
AcDbAlignedDimension
 13
-0.0000000000002842
 23
0.0000000000001563
 33
0.0
 14
-50.00000000000024
 24
-11.49999999999993
 34
0.0
100
AcDbRotatedDimension
1001
GENIUS_GENDTOL_13
1000

1000
h7
1000

1040
0.0
1001
ACAD
1000
DSTYLE
1002
{
1070
   287
1070
     3
1070
    41
1040
5.0
1070
    40
1040
0.5
1070
    42
1040
1.0
1070
    43
1040
12.0
1070
    48
1040
0.1
1070
    78
1070
     8
1070
   140
1040
6.4
1070
   176
1070
   256
1070
   177
1070
   256
1070
   271
1070
     1
1070
   272
1070
     3
1070
   275
1070
     0
1070
   284
1070
     0
1070
   289
1070
     3
1070
   340
1005
6B
1070
   371
1070
    -1
1070
   372
1070
    -1
1002
}
  0
DIMENSION
  5
9466
330
1F
100
AcDbEntity
  8
AM_5
100
AcDbDimension
  2
*D7
 10
-100.0000003897887
 20
-40.00000130234144
 30
0.0
 11
-50.0000001948945
 21
-37.65000130234144
 31
0.0
 70
    32
  1
<>
 51
359.9999999999998
  3
AM_JIS$0
100
AcDbAlignedDimension
 13
-0.0000000000002842
 23
0.0000000000001563
 33
0.0
 14
-100.0000003897887
 24
-16.00000029234144
 34
0.0
100
AcDbRotatedDimension
1001
GENIUS_GENDTOL_13
1000

1000
h7
1000

1040
0.0
1001
ACAD
1000
DSTYLE
1002
{
1070
   287
1070
     3
1070
    41
1040
5.0
1070
    40
1040
0.5
1070
    42
1040
1.0
1070
    43
1040
12.0
1070
    48
1040
0.1
1070
    78
1070
     8
1070
   140
1040
6.4
1070
   176
1070
   256
1070
   177
1070
   256
1070
   271
1070
     1
1070
   272
1070
     3
1070
   275
1070
     0
1070
   284
1070
     0
1070
   289
1070
     3
1070
   340
1005
6B
1070
   371
1070
    -1
1070
   372
1070
    -1
1002
}
  0
DIMENSION
  5
94F2
330
1F
100
AcDbEntity
  8
AM_5
100
AcDbDimension
  2
*D8
 10
-300.0000000000003
 20
-50.00000130234145
 30
0.0
 11
-150.0000000000002
 21
-47.65000130234144
 31
0.0
 70
    32
  1
<>
 51
359.9999999999998
  3
AM_JIS$0
100
AcDbAlignedDimension
 13
-0.0000000000002842
 23
0.0000000000001279
 33
0.0
 14
-300.0000000000003
 24
-13.66149902343043
 34
0.0
100
AcDbRotatedDimension
1001
GENIUS_GENDTOL_13
1000

1000
h7
1000

1040
0.0
1001
ACAD
1000
DSTYLE
1002
{
1070
   287
1070
     3
1070
    41
1040
5.0
1070
    40
1040
0.5
1070
    42
1040
1.0
1070
    43
1040
12.0
1070
    48
1040
0.1
1070
    78
1070
     8
1070
   140
1040
6.4
1070
   176
1070
   256
1070
   177
1070
   256
1070
   271
1070
     1
1070
   272
1070
     3
1070
   275
1070
     0
1070
   284
1070
     0
1070
   289
1070
     3
1070
   340
1005
6B
1070
   371
1070
    -1
1070
   372
1070
    -1
1002
}
  0
DIMENSION
  5
9599
330
1F
100
AcDbEntity
  8
AM_5
100
AcDbDimension
  2
*D9
 10
-300.0000000000003
 20
-40.00000130234164
 30
0.0
 11
-200.0000000000002
 21
-37.65000130234164
 31
0.0
 70
    32
  1
<>
 51
359.9999999999998
  3
AM_JIS$0
100
AcDbAlignedDimension
 13
-100.0000000000002
 23
-16.00000000000003
 33
0.0
 14
-300.0000000000003
 24
-13.66149902343043
 34
0.0
100
AcDbRotatedDimension
1001
GENIUS_GENDTOL_13
1000

1000
h7
1000

1040
0.0
1001
ACAD
1000
DSTYLE
1002
{
1070
   287
1070
     3
1070
    41
1040
5.0
1070
    40
1040
0.5
1070
    42
1040
1.0
1070
    43
1040
12.0
1070
    48
1040
0.1
1070
    78
1070
     8
1070
   140
1040
6.4
1070
   176
1070
   256
1070
   177
1070
   256
1070
   271
1070
     1
1070
   272
1070
     3
1070
   275
1070
     0
1070
   284
1070
     0
1070
   289
1070
     3
1070
   340
1005
6B
1070
   371
1070
    -1
1070
   372
1070
    -1
1002
}
  0
DIMENSION
  5
9637
330
1F
100
AcDbEntity
  8
AM_5
100
AcDbDimension
  2
*D10
 10
-319.5837565173255
 20
-16.00000000000043
 30
0.0
 11
-321.9337565173256
 21
-0.0000000000004766
 31
0.0
 70
    32
  1
%%c<>
 51
359.9999999999998
  3
AM_JIS$0
100
AcDbAlignedDimension
 13
-297.0000000000003
 23
15.99999999999957
 33
0.0
 14
-297.0000000000002
 24
-16.00000000000043
 34
0.0
 50
270.0
100
AcDbRotatedDimension
1001
GENIUS_GENDTOL_13
1000

1000
h7
1000

1040
0.0
1001
ACAD
1000
DSTYLE
1002
{
1070
   287
1070
     3
1070
    41
1040
5.0
1070
    40
1040
0.5
1070
    42
1040
1.0
1070
    43
1040
12.0
1070
    48
1040
0.1
1070
    78
1070
     8
1070
   140
1040
6.4
1070
   176
1070
   256
1070
   177
1070
   256
1070
   271
1070
     1
1070
   272
1070
     3
1070
   275
1070
     0
1070
   284
1070
     0
1070
   289
1070
     3
1070
   340
1005
6B
1070
   371
1070
    -1
1070
   372
1070
    -1
1002
}
  0
DIMENSION
  5
96D5
330
1F
100
AcDbEntity
  8
AM_5
100
AcDbDimension
  2
*D11
 10
16.47754006249972
 20
-12.49999999999986
 30
0.0
 11
14.12754006249973
 21
0.000000000000129
 31
0.0
 70
    32
  1
%%c<>
 51
359.9999999999998
  3
AM_JIS$0
100
AcDbAlignedDimension
 13
-12.50000054639342
 23
12.50000000000012
 33
0.0
 14
-12.50000000000024
 24
-12.49999999999985
 34
0.0
 50
90.0
100
AcDbRotatedDimension
1001
GENIUS_GENDTOL_13
1000

1000
h7
1000

1040
0.0
1001
ACAD
1000
DSTYLE
1002
{
1070
   287
1070
     3
1070
    41
1040
5.0
1070
    40
1040
0.5
1070
    42
1040
1.0
1070
    43
1040
12.0
1070
    48
1040
0.1
1070
    78
1070
     8
1070
   140
1040
6.4
1070
   176
1070
   256
1070
   177
1070
   256
1070
   271
1070
     1
1070
   272
1070
     3
1070
   275
1070
     0
1070
   284
1070
     0
1070
   289
1070
     3
1070
   340
1005
6B
1070
   371
1070
    -1
1070
   372
1070
    -1
1002
}
  0
LINE
  5
9831
330
1F
100
AcDbEntity
  8
AM_0
100
AcDbLine
 10
-50.00000000000028
 20
11.50000000000005
 30
0.0
 11
-90.00000000000026
 21
14.99999999999998
 31
0.0
  0
LINE
  5
9832
330
1F
100
AcDbEntity
  8
AM_0
100
AcDbLine
 10
-50.00000000000024
 20
-11.49999999999994
 30
0.0
 11
-90.00000000000021
 21
-15.00000000000001
 31
0.0
  0
VIEWPORT
  5
110
330
101
100
AcDbEntity
 67
     1
  8
0
100
AcDbViewport
 10
420.5
 20
297.0
 30
0.0
 40
948.9782706766916
 41
628.452
 68
     1
 69
     1
1001
ACAD
1000
MVIEW
1002
{
1070
    16
1010
0.0
1020
0.0
1030
0.0
1010
0.0
1020
0.0
1030
1.0
1040
0.0
1040
628.452
1040
420.5
1040
297.0
1040
50.0
1040
0.0
1040
0.0
1070
     0
1070
   100
1070
     1
1070
     1
1070
     0
1070
     0
1070
     0
1070
     0
1040
0.0
1040
0.0
1040
0.0
1040
10.0
1040
10.0
1040
10.0
1040
10.0
1070
     0
1002
{
1002
}
1002
}
  0
ENDSEC
  0
SECTION
  2
OBJECTS
  0
DICTIONARY
  5
C
330
0
100
AcDbDictionary
  3
ACAD_GROUP
350
D
  3
ACAD_LAYOUT
350
1A
  3
ACAD_MLINESTYLE
350
17
  3
ACAD_PLOTSETTINGS
350
19
  3
ACAD_PLOTSTYLENAME
350
E
  3
ACDBVARIABLEDICTIONARY
350
34
  3
ACMDICTIONARY
350
43
  3
AMG
350
2B
  3
AMGSNAPSETTINGS
350
6E
  3
DWGPROPS
350
9AD4
  3
ACDBHEADERROUNDTRIPXREC
350
9AE0
  0
DICTIONARY
  5
74
330
1F
100
AcDbDictionary
280
     1
  3
ACAD_INDEX
360
9AD6
  3
ACAD_LAYOUTSELFREF
360
9B03
  0
DICTIONARY
  5
9B08
330
101
100
AcDbDictionary
280
     1
  3
ACAD_LAYOUTSELFREF
360
9B09
  0
DICTIONARY
  5
D
102
{ACAD_REACTORS
330
C
102
}
330
C
100
AcDbDictionary
  0
DICTIONARY
  5
1A
102
{ACAD_REACTORS
330
C
102
}
330
C
100
AcDbDictionary
  0
DICTIONARY
  5
17
102
{ACAD_REACTORS
330
C
102
}
330
C
100
AcDbDictionary
  3
STANDARD
350
18
  0
DICTIONARY
  5
19
102
{ACAD_REACTORS
330
C
102
}
330
C
100
AcDbDictionary
  3
ASAMI
350
399D
  0
ACDBDICTIONARYWDFLT
  5
E
102
{ACAD_REACTORS
330
C
102
}
330
C
100
AcDbDictionary
281
     1
  3
Normal
350
F
100
AcDbDictionaryWithDefault
340
F
  0
DICTIONARY
  5
34
102
{ACAD_REACTORS
330
C
102
}
330
C
100
AcDbDictionary
  3
INDEXCTL
350
35
  3
SORTENTS
350
B5E
  0
DICTIONARY
  5
43
102
{ACAD_REACTORS
330
C
102
}
330
C
100
AcDbDictionary
  3
ACMSTDDICTIONARY
350
260
  0
DICTIONARY
  5
2B
102
{ACAD_REACTORS
330
C
102
}
330
C
100
AcDbDictionary
  3
ACMGSETTINGS
350
2C
  0
DICTIONARY
  5
6E
102
{ACAD_REACTORS
330
C
102
}
330
C
100
AcDbDictionary
  0
XRECORD
  5
9AD4
102
{ACAD_REACTORS
330
C
102
}
330
C
100
AcDbXrecord
  1
DWGPROPS COOKIE
  2

  3

  4

  6

  7

  8

  9

300
AmdtFileType=82
301
=
302
=
303
=
304
=
305
=
306
=
307
=
308
=
309
=
 40
0.9579599652777778
 41
2452802.716478761
 42
2453075.659854595
  1

 90
        1
  0
DICTIONARY
  5
9AE0
102
{ACAD_REACTORS
330
C
102
}
330
C
100
AcDbDictionary
  3
TSTACKALIGN
350
9AE1
  3
TSTACKSIZE
350
9AE2
  3
HYPERLINKBASE
350
9AE3
  3
STYLESHEET
350
9AE4
  3
LAYOUTDICT
350
9AE5
  3
PLOTSETDICT
350
9AE6
  3
PLOTSTYLNAMDICT
350
9AE7
  3
LWETCUNION
350
9AE8
  3
INSUNITS
350
9AE9
  3
CEPSNTYPE
350
9AEA
  3
FINGERPRINTGUID
350
9AEB
  3
VERSIONGUID
350
9AEC
  3
PSVPSCALE
350
9AED
  3
DIMSTYLEDATA
350
9AEE
  3
PUCSORTHOREF
350
9AEF
  3
PUCSORTHOVIEW
350
9AF0
  3
PUCSBASE
350
9AF1
  3
PUCSORGTOP
350
9AF2
  3
PUCSORGBOTTOM
350
9AF3
  3
PUCSORGLEFT
350
9AF4
  3
PUCSORGRIGHT
350
9AF5
  3
PUCSORGFRONT
350
9AF6
  3
PUCSORGBACK
350
9AF7
  3
UCSORTHOREF
350
9AF8
  3
UCSORTHOVIEW
350
9AF9
  3
UCSBASE
350
9AFA
  3
UCSORGTOP
350
9AFB
  3
UCSORGBOTTOM
350
9AFC
  3
UCSORGLEFT
350
9AFD
  3
UCSORGRIGHT
350
9AFE
  3
UCSORGFRONT
350
9AFF
  3
UCSORGBACK
350
9B00
  0
DICTIONARY
  5
9AD6
102
{ACAD_REACTORS
330
74
102
}
330
74
100
AcDbDictionary
  3
*A1
350
9AD7
  0
XRECORD
  5
9B03
102
{ACAD_REACTORS
330
74
102
}
330
74
100
AcDbXrecord
340
1F
  0
XRECORD
  5
9B09
102
{ACAD_REACTORS
330
9B08
102
}
330
9B08
100
AcDbXrecord
340
101
  0
MLINESTYLE
  5
18
102
{ACAD_REACTORS
330
17
102
}
330
17
100
AcDbMlineStyle
  2
STANDARD
 70
     0
  3

 62
   256
 51
90.0
 52
90.0
 71
     2
 49
0.5
 62
   256
  6
BYLAYER
 49
-0.5
 62
   256
  6
BYLAYER
  0
PLOTSETTINGS
  5
399D
102
{ACAD_REACTORS
330
19
102
}
330
19
100
AcDbPlotSettings
  1
asami
  2
RICOH imagio MF1540
  4
A4
  6

 40
5.831416606903076
 41
7.651742935180664
 42
4.90008544921875
 43
5.789077758789062
 44
296.9683227539062
 45
209.9733276367187
 46
0.0
 47
0.0
 48
-156.6707931774246
 49
-74.57609991074048
140
58.59973180214831
141
60.61068161925596
142
1.0
143
1.095343097833084
 70
  1712
 72
     1
 73
     1
 74
     4
  7
asami.ctb
 75
     0
147
0.9129559514076438
148
156.6707931774246
149
74.57609991074048
  0
ACDBPLACEHOLDER
  5
F
102
{ACAD_REACTORS
330
E
102
}
330
E
100
AcDbPlaceHolder
280
     0
  0
DICTIONARYVAR
  5
35
102
{ACAD_REACTORS
330
34
102
}
330
34
100
DictionaryVariables
280
     0
  1
1
  0
DICTIONARYVAR
  5
B5E
102
{ACAD_REACTORS
330
34
102
}
330
34
100
DictionaryVariables
280
     0
  1
96
  0
DICTIONARY
  5
260
102
{ACAD_REACTORS
330
43
102
}
330
43
100
AcDbDictionary
  0
DICTIONARY
  5
2C
102
{ACAD_REACTORS
330
2B
102
}
330
2B
100
AcDbDictionary
  3
DWGSETTINGS
350
2D
  0
XRECORD
  5
9AE1
102
{ACAD_REACTORS
330
9AE0
102
}
330
9AE0
100
AcDbXrecord
 90
        1
  0
XRECORD
  5
9AE2
102
{ACAD_REACTORS
330
9AE0
102
}
330
9AE0
100
AcDbXrecord
 90
       70
  0
XRECORD
  5
9AE3
102
{ACAD_REACTORS
330
9AE0
102
}
330
9AE0
100
AcDbXrecord
  1

  0
XRECORD
  5
9AE4
102
{ACAD_REACTORS
330
9AE0
102
}
330
9AE0
100
AcDbXrecord
  1
ASAMI.ctb
  0
XRECORD
  5
9AE5
102
{ACAD_REACTORS
330
9AE0
102
}
330
9AE0
100
AcDbXrecord
340
1A
  0
XRECORD
  5
9AE6
102
{ACAD_REACTORS
330
9AE0
102
}
330
9AE0
100
AcDbXrecord
340
19
  0
XRECORD
  5
9AE7
102
{ACAD_REACTORS
330
9AE0
102
}
330
9AE0
100
AcDbXrecord
340
E
  0
XRECORD
  5
9AE8
102
{ACAD_REACTORS
330
9AE0
102
}
330
9AE0
100
AcDbXrecord
 90
    10781
  0
XRECORD
  5
9AE9
102
{ACAD_REACTORS
330
9AE0
102
}
330
9AE0
100
AcDbXrecord
 90
        4
  0
XRECORD
  5
9AEA
102
{ACAD_REACTORS
330
9AE0
102
}
330
9AE0
100
AcDbXrecord
 90
        0
  0
XRECORD
  5
9AEB
102
{ACAD_REACTORS
330
9AE0
102
}
330
9AE0
100
AcDbXrecord
  1
{AFB28963-8C59-40AE-9337-C84526B81ACE}
  0
XRECORD
  5
9AEC
102
{ACAD_REACTORS
330
9AE0
102
}
330
9AE0
100
AcDbXrecord
  1
{8C4CD58D-71EE-4D17-BBCA-08714AB2F148}
  0
XRECORD
  5
9AED
102
{ACAD_REACTORS
330
9AE0
102
}
330
9AE0
100
AcDbXrecord
 40
0.0
  0
XRECORD
  5
9AEE
102
{ACAD_REACTORS
330
9AE0
102
}
330
9AE0
100
AcDbXrecord
1000
DSTYLE
1002
{
1070
    79
 70
     2
1070
   341
340
59
1070
   342
340
59
1070
   371
 70
    -1
1070
   372
 70
    -1
1002
}
  0
XRECORD
  5
9AEF
102
{ACAD_REACTORS
330
9AE0
102
}
330
9AE0
100
AcDbXrecord
340
0
  0
XRECORD
  5
9AF0
102
{ACAD_REACTORS
330
9AE0
102
}
330
9AE0
100
AcDbXrecord
 70
     0
  0
XRECORD
  5
9AF1
102
{ACAD_REACTORS
330
9AE0
102
}
330
9AE0
100
AcDbXrecord
340
0
  0
XRECORD
  5
9AF2
102
{ACAD_REACTORS
330
9AE0
102
}
330
9AE0
100
AcDbXrecord
 10
0.0
 20
0.0
 30
0.0
  0
XRECORD
  5
9AF3
102
{ACAD_REACTORS
330
9AE0
102
}
330
9AE0
100
AcDbXrecord
 10
0.0
 20
0.0
 30
0.0
  0
XRECORD
  5
9AF4
102
{ACAD_REACTORS
330
9AE0
102
}
330
9AE0
100
AcDbXrecord
 10
0.0
 20
0.0
 30
0.0
  0
XRECORD
  5
9AF5
102
{ACAD_REACTORS
330
9AE0
102
}
330
9AE0
100
AcDbXrecord
 10
0.0
 20
0.0
 30
0.0
  0
XRECORD
  5
9AF6
102
{ACAD_REACTORS
330
9AE0
102
}
330
9AE0
100
AcDbXrecord
 10
0.0
 20
0.0
 30
0.0
  0
XRECORD
  5
9AF7
102
{ACAD_REACTORS
330
9AE0
102
}
330
9AE0
100
AcDbXrecord
 10
0.0
 20
0.0
 30
0.0
  0
XRECORD
  5
9AF8
102
{ACAD_REACTORS
330
9AE0
102
}
330
9AE0
100
AcDbXrecord
340
0
  0
XRECORD
  5
9AF9
102
{ACAD_REACTORS
330
9AE0
102
}
330
9AE0
100
AcDbXrecord
 70
     0
  0
XRECORD
  5
9AFA
102
{ACAD_REACTORS
330
9AE0
102
}
330
9AE0
100
AcDbXrecord
340
0
  0
XRECORD
  5
9AFB
102
{ACAD_REACTORS
330
9AE0
102
}
330
9AE0
100
AcDbXrecord
 10
0.0
 20
0.0
 30
0.0
  0
XRECORD
  5
9AFC
102
{ACAD_REACTORS
330
9AE0
102
}
330
9AE0
100
AcDbXrecord
 10
0.0
 20
0.0
 30
0.0
  0
XRECORD
  5
9AFD
102
{ACAD_REACTORS
330
9AE0
102
}
330
9AE0
100
AcDbXrecord
 10
0.0
 20
0.0
 30
0.0
  0
XRECORD
  5
9AFE
102
{ACAD_REACTORS
330
9AE0
102
}
330
9AE0
100
AcDbXrecord
 10
0.0
 20
0.0
 30
0.0
  0
XRECORD
  5
9AFF
102
{ACAD_REACTORS
330
9AE0
102
}
330
9AE0
100
AcDbXrecord
 10
0.0
 20
0.0
 30
0.0
  0
XRECORD
  5
9B00
102
{ACAD_REACTORS
330
9AE0
102
}
330
9AE0
100
AcDbXrecord
 10
0.0
 20
0.0
 30
0.0
  0
LAYER_INDEX
  5
9AD7
102
{ACAD_REACTORS
330
9AD6
102
}
330
9AD6
100
AcDbIndex
 40
2453152.415358356
100
AcDbLayerIndex
  8
0
360
9AD8
 90
        0
  8
AM_0
360
9AD9
 90
      178
  8
AM_5
360
9ADA
 90
        7
  8
AM_7
360
9ADB
 90
        1
  8
AM_6
360
9ADC
 90
        1
  8
Defpoints
360
9ADD
 90
        0
  8
AM_11
360
9ADE
 90
        4
  0
XRECORD
  5
2D
102
{ACAD_REACTORS
330
2C
102
}
330
2C
100
AcDbXrecord
  1
VERSION
140
15.0
  1
PRODUCT
  2
AutoCAD Mechanical 2000
  0
IDBUFFER
  5
9AD8
330
0
100
AcDbIdBuffer
  0
IDBUFFER
  5
9AD9
330
0
100
AcDbIdBuffer
330
91B5
330
91B6
330
91B7
330
91B8
330
91B9
330
91BA
330
91BB
330
91BC
330
91BD
330
91BE
330
91BF
330
91C0
330
91C1
330
91C2
330
91C3
330
91C4
330
91C5
330
91C6
330
91C8
330
91C9
330
91CD
330
91CE
330
91CF
330
91D0
330
91D1
330
91D2
330
91D3
330
91D4
330
91D5
330
91D6
330
91D7
330
91D8
330
91E5
330
91E6
330
91E7
330
91E8
330
91E9
330
91EA
330
91EB
330
91EC
330
91ED
330
91EE
330
91EF
330
91F0
330
91F1
330
91F2
330
91F3
330
91F4
330
91F5
330
91F6
330
91F7
330
91F8
330
91F9
330
91FA
330
922E
330
922F
330
9230
330
9231
330
9232
330
9233
330
9234
330
9235
330
9236
330
9237
330
9831
330
9832
330
90C0
330
90C1
330
90C2
330
90C3
330
90C4
330
90C5
330
90C6
330
90C7
330
90C8
330
90C9
330
90CA
330
90CB
330
90CC
330
90CD
330
90CE
330
90CF
330
90D0
330
90D1
330
90D2
330
90D3
330
90D4
330
90D5
330
90D6
330
90D7
330
90D8
330
90D9
330
90DA
330
90E0
330
90E1
330
90E2
330
90E3
330
910B
330
910C
330
910D
330
910E
330
9110
330
9111
330
9112
330
9113
330
9114
330
9115
330
9116
330
9117
330
9118
330
9119
330
911A
330
911B
330
911C
330
911D
330
911E
330
9120
330
913C
330
913D
330
913E
330
913F
330
9140
330
9141
330
9142
330
9143
330
9144
330
9145
330
9146
330
9147
330
9148
330
9149
330
914A
330
914B
330
9164
330
9165
330
9166
330
9167
330
9168
330
9169
330
916A
330
916B
330
916C
330
916D
330
916E
330
916F
330
9170
330
9171
330
9172
330
9173
330
9174
330
9175
330
9176
330
9177
330
9178
330
918D
330
918E
330
918F
330
9190
330
9191
330
9192
330
9193
330
919A
330
919B
330
919C
330
919D
330
919E
330
919F
330
91A0
330
91A1
330
91A5
330
91A9
330
91AA
330
91AB
330
91AE
330
91B1
330
91B2
330
91B3
330
91B4
  0
IDBUFFER
  5
9ADA
330
0
100
AcDbIdBuffer
330
9345
330
93DA
330
9466
330
94F2
330
9599
330
9637
330
96D5
  0
IDBUFFER
  5
9ADB
330
0
100
AcDbIdBuffer
330
918A
  0
IDBUFFER
  5
9ADC
330
0
100
AcDbIdBuffer
330
388D
  0
IDBUFFER
  5
9ADD
330
0
100
AcDbIdBuffer
  0
IDBUFFER
  5
9ADE
330
0
100
AcDbIdBuffer
330
9189
330
918B
330
918C
330
9199
  0
ENDSEC
  0
EOF
