  0
SECTION
  2
HEADER
  9
$ACADVER
  1
AC1014
  9
$ACADMAINTVER
 70
     9
  9
$DWGCODEPAGE
  3
ANSI_932
  9
$INSBASE
 10
0.0
 20
0.0
 30
0.0
  9
$EXTMIN
 10
-323.9374912316558
 20
-72.50000130234181
 30
-0.00000001
  9
$EXTMAX
 10
17.85435273475975
 20
33.95000481469651
 30
0.00000001
  9
$LIMMIN
 10
-332.9552141422193
 20
-136.1210013889676
  9
$LIMMAX
 10
77.60516517544317
 20
116.5090078031333
  9
$ORTHOMODE
 70
     0
  9
$REGENMODE
 70
     1
  9
$FILLMODE
 70
     1
  9
$QTEXTMODE
 70
     0
  9
$MIRRTEXT
 70
     0
  9
$DRAGMODE
 70
     2
  9
$LTSCALE
 40
1.0
  9
$OSMODE
 70
    55
  9
$ATTMODE
 70
     1
  9
$TEXTSIZE
 40
2.5
  9
$TRACEWID
 40
1.0
  9
$TEXTSTYLE
  7
STANDARD
  9
$CLAYER
  8
AM_0
  9
$CELTYPE
  6
BYLAYER
  9
$CECOLOR
 62
   256
  9
$CELTSCALE
 40
1.0
  9
$DELOBJ
 70
     1
  9
$DISPSILH
 70
     0
  9
$DIMSCALE
 40
0.5
  9
$DIMASZ
 40
2.5
  9
$DIMEXO
 40
1.0
  9
$DIMDLI
 40
12.0
  9
$DIMRND
 40
0.0
  9
$DIMDLE
 40
0.0
  9
$DIMEXE
 40
1.0
  9
$DIMTP
 40
0.1
  9
$DIMTM
 40
0.1
  9
$DIMTXT
 40
3.2
  9
$DIMCEN
 40
0.0
  9
$DIMTSZ
 40
0.0
  9
$DIMTOL
 70
     0
  9
$DIMLIM
 70
     0
  9
$DIMTIH
 70
     0
  9
$DIMTOH
 70
     0
  9
$DIMSE1
 70
     0
  9
$DIMSE2
 70
     0
  9
$DIMTAD
 70
     3
  9
$DIMZIN
 70
     8
  9
$DIMBLK
  1
OPEN30
  9
$DIMASO
 70
     1
  9
$DIMSHO
 70
     1
  9
$DIMPOST
  1

  9
$DIMAPOST
  1
"
  9
$DIMALT
 70
     0
  9
$DIMALTD
 70
     2
  9
$DIMALTF
 40
0.0393701
  9
$DIMLFAC
 40
1.0
  9
$DIMTOFL
 70
     1
  9
$DIMTVP
 40
0.0
  9
$DIMTIX
 70
     0
  9
$DIMSOXD
 70
     0
  9
$DIMSAH
 70
     0
  9
$DIMBLK1
  1

  9
$DIMBLK2
  1

  9
$DIMSTYLE
  2
AM_JIS
  9
$DIMCLRD
 70
   256
  9
$DIMCLRE
 70
   256
  9
$DIMCLRT
 70
     2
  9
$DIMTFAC
 40
0.71
  9
$DIMGAP
 40
1.5
  9
$DIMJUST
 70
     0
  9
$DIMSD1
 70
     0
  9
$DIMSD2
 70
     0
  9
$DIMTOLJ
 70
     0
  9
$DIMTZIN
 70
     0
  9
$DIMALTZ
 70
     0
  9
$DIMALTTZ
 70
     0
  9
$DIMFIT
 70
     3
  9
$DIMUPT
 70
     0
  9
$DIMUNIT
 70
     2
  9
$DIMDEC
 70
     3
  9
$DIMTDEC
 70
     3
  9
$DIMALTU
 70
     2
  9
$DIMALTTD
 70
     2
  9
$DIMTXSTY
  7
ASAMI
  9
$DIMAUNIT
 70
     0
  9
$LUNITS
 70
     2
  9
$LUPREC
 70
     2
  9
$SKETCHINC
 40
1.0
  9
$FILLETRAD
 40
0.4
  9
$AUNITS
 70
     0
  9
$AUPREC
 70
     0
  9
$MENU
  1
.
  9
$ELEVATION
 40
0.0
  9
$PELEVATION
 40
0.0
  9
$THICKNESS
 40
0.0
  9
$LIMCHECK
 70
     1
  9
$BLIPMODE
 70
     0
  9
$CHAMFERA
 40
1.0
  9
$CHAMFERB
 40
1.0
  9
$CHAMFERC
 40
20.0
  9
$CHAMFERD
 40
0.0
  9
$SKPOLY
 70
     0
  9
$TDCREATE
 40
2452802.716478761
  9
$TDUPDATE
 40
2453152.410339236
  9
$TDINDWG
 40
0.9126101852
  9
$TDUSRTIMER
 40
0.9126101852
  9
$USRTIMER
 70
     1
  9
$ANGBASE
 50
0.0
  9
$ANGDIR
 70
     0
  9
$PDMODE
 70
     0
  9
$PDSIZE
 40
0.0
  9
$PLINEWID
 40
0.0
  9
$COORDS
 70
     1
  9
$SPLFRAME
 70
     0
  9
$SPLINETYPE
 70
     6
  9
$SPLINESEGS
 70
     8
  9
$ATTDIA
 70
     1
  9
$ATTREQ
 70
     1
  9
$HANDLING
 70
 12289
  9
$HANDSEED
  5
A5DC
  9
$SURFTAB1
 70
     6
  9
$SURFTAB2
 70
     6
  9
$SURFTYPE
 70
     6
  9
$SURFU
 70
     6
  9
$SURFV
 70
     6
  9
$UCSNAME
  2

  9
$UCSORG
 10
-0.0000000000002682
 20
0.000000000000161
 30
0.0
  9
$UCSXDIR
 10
1.0
 20
0.000000000000002
 30
0.0
  9
$UCSYDIR
 10
-0.000000000000002
 20
1.0
 30
0.0
  9
$PUCSNAME
  2

  9
$PUCSORG
 10
0.0
 20
0.0
 30
0.0
  9
$PUCSXDIR
 10
1.0
 20
0.0
 30
0.0
  9
$PUCSYDIR
 10
0.0
 20
1.0
 30
0.0
  9
$USERI1
 70
     0
  9
$USERI2
 70
     0
  9
$USERI3
 70
     0
  9
$USERI4
 70
     0
  9
$USERI5
 70
     0
  9
$USERR1
 40
0.0
  9
$USERR2
 40
0.0
  9
$USERR3
 40
0.0
  9
$USERR4
 40
0.0
  9
$USERR5
 40
0.0
  9
$WORLDVIEW
 70
     1
  9
$SHADEDGE
 70
     3
  9
$SHADEDIF
 70
    70
  9
$TILEMODE
 70
     1
  9
$MAXACTVP
 70
    64
  9
$PINSBASE
 10
0.0
 20
0.0
 30
0.0
  9
$PLIMCHECK
 70
     0
  9
$PEXTMIN
 10
1.000000000000000E+20
 20
1.000000000000000E+20
 30
1.000000000000000E+20
  9
$PEXTMAX
 10
-1.000000000000000E+20
 20
-1.000000000000000E+20
 30
-1.000000000000000E+20
  9
$PLIMMIN
 10
0.0
 20
0.0
  9
$PLIMMAX
 10
841.0
 20
594.0
  9
$UNITMODE
 70
     0
  9
$VISRETAIN
 70
     1
  9
$PLINEGEN
 70
     0
  9
$PSLTSCALE
 70
     0
  9
$TREEDEPTH
 70
  3020
  9
$PICKSTYLE
 70
     0
  9
$CMLSTYLE
  2
STANDARD
  9
$CMLJUST
 70
     0
  9
$CMLSCALE
 40
20.0
  9
$PROXYGRAPHICS
 70
     1
  9
$MEASUREMENT
 70
     1
  0
ENDSEC
  0
SECTION
  2
CLASSES
  0
CLASS
  1
ACDBDICTIONARYWDFLT
  2
AcDbDictionaryWithDefault
  3
AutoCAD 2000
 90
        0
280
     0
281
     0
  0
CLASS
  1
ACDBPLACEHOLDER
  2
AcDbPlaceHolder
  3
AutoCAD 2000
 90
        0
280
     0
281
     0
  0
CLASS
  1
LAYOUT
  2
AcDbLayout
  3
AutoCAD 2000
 90
        0
280
     0
281
     0
  0
CLASS
  1
AMGSETTINGSOBJ
  2
AmgSettingsObj
  3
"AcadM|Product Description: AutoCAD Mechanical 2000|Company: Autodesk"
 90
        0
280
     0
281
     0
  0
CLASS
  1
ACME_DOCUMENT
  2
AcMeDbDoc
  3
AcMeServices
 90
        0
280
     0
281
     0
  0
CLASS
  1
ACMESCOPE
  2
AcMeScope
  3
AcMeServices
 90
        0
280
     0
281
     0
  0
CLASS
  1
ACMECOMMANDHISTORY
  2
AcMeCommandHistory
  3
AcMeServices
 90
        0
280
     0
281
     0
  0
CLASS
  1
DICTIONARYVAR
  2
AcDbDictionaryVar
  3
AutoCAD 2000
 90
        0
280
     0
281
     0
  0
CLASS
  1
ACIMSYSVARMAN
  2
AcImSysVarManager
  3
AcMeServices
 90
        0
280
     0
281
     0
  0
CLASS
  1
ACIMREALSYSVAR
  2
AcImRealSysVar
  3
AcMeServices
 90
        0
280
     0
281
     0
  0
CLASS
  1
ACIMINTSYSVAR
  2
AcImIntSysVar
  3
AcMeServices
 90
        0
280
     0
281
     0
  0
CLASS
  1
ACMEDRAWINGMAN
  2
AcMeDrawingMan
  3
AcMeServices
 90
        0
280
     0
281
     0
  0
CLASS
  1
ACMEVIEW
  2
AcMeView
  3
AcMeServices
 90
        0
280
     0
281
     0
  0
CLASS
  1
ACDBENTITYCACHE
  2
AcMeEntityCache
  3
AcMeServices
 90
        0
280
     0
281
     0
  0
CLASS
  1
GSMANAGER
  2
AcMeGSManager
  3
AcMeServices
 90
        0
280
     0
281
     0
  0
CLASS
  1
AmdtInternalReactor
  2
AmdtInternalReactor
  3
AcMeServices
 90
        0
280
     0
281
     0
  0
CLASS
  1
ACMESTATEMGR
  2
AcMeStateMgr
  3
AcMeServices
 90
        0
280
     0
281
     0
  0
CLASS
  1
ACME_DATABASE
  2
AcMeDbDatabase
  3
AcMeServices
 90
        0
280
     0
281
     0
  0
CLASS
  1
ACRFINSADJUSTERMGR
  2
AcRfInsAdjusterMgr
  3
AcMeServices
 90
        0
280
     0
281
     0
  0
CLASS
  1
ACMDATADICTIONARY
  2
AcmDataDictionary
  3
"AcmSymBB|Product Description: AutoCAD Mechanical 2000|Company: Autodesk"
 90
        0
280
     0
281
     0
  0
CLASS
  1
ACMDATAENTRYBLOCK
  2
AcmDataEntryBlock
  3
"AcmSymBB|Product Description: AutoCAD Mechanical 2000|Company: Autodesk"
 90
        0
280
     0
281
     0
  0
CLASS
  1
AMGOBJPROPCFG
  2
AmgObjPropCfg
  3
"AmgLay|Product Description: AutoCAD Mechanical 2000|Company: Autodesk"
 90
        1
280
     0
281
     0
  0
CLASS
  1
ACAMGFILTERDAT
  2
AcAmgFilterDat
  3
"AcadM|Product Description: AutoCAD Mechanical 2000|Company: Autodesk"
 90
        0
280
     0
281
     0
  0
CLASS
  1
LAYER_INDEX
  2
AcDbLayerIndex
  3
AutoCAD 2000
 90
        0
280
     0
281
     0
  0
CLASS
  1
IDBUFFER
  2
AcDbIdBuffer
  3
AutoCAD 2000
 90
        0
280
     0
281
     0
  0
CLASS
  1
ACIMSTRSYSVAR
  2
AcImStrSysVar
  3
AcMeServices
 90
        0
280
     0
281
     0
  0
CLASS
  1
ACMSTANDARDJIS
  2
AcmStandardJIS
  3
"AcmSymBB|Product Description: AutoCAD Mechanical 2000|Company: Autodesk"
 90
        0
280
     0
281
     0
  0
CLASS
  1
ACMSURFSTANDARDJIS
  2
AcmSurfTextStdJIS
  3
"AcmSymBB|Product Description: AutoCAD Mechanical 2000|Company: Autodesk"
 90
        0
280
     0
281
     0
  0
CLASS
  1
ACMFCFSTANDARDJIS
  2
AcmFCFStdJIS
  3
"AcmSymBB|Product Description: AutoCAD Mechanical 2000|Company: Autodesk"
 90
        0
280
     0
281
     0
  0
CLASS
  1
ACMWELDSTANDARDJIS
  2
AcmWeldingStdJIS
  3
"AcmSymBB|Product Description: AutoCAD Mechanical 2000|Company: Autodesk"
 90
        0
280
     0
281
     0
  0
CLASS
  1
ACMIDSTANDARDJIS
  2
AcmIdStdJIS
  3
"AcmSymBB|Product Description: AutoCAD Mechanical 2000|Company: Autodesk"
 90
        0
280
     0
281
     0
  0
CLASS
  1
ACMDATUMSTANDARDJIS
  2
AcmDatumStdJIS
  3
"AcmSymBB|Product Description: AutoCAD Mechanical 2000|Company: Autodesk"
 90
        0
280
     0
281
     0
  0
CLASS
  1
ACMBOMSTANDARDJIS
  2
AcmBOMStdJIS
  3
"AcmSymBB|Product Description: AutoCAD Mechanical 2000|Company: Autodesk"
 90
        0
280
     0
281
     0
  0
CLASS
  1
ACMSTANDARDANSI
  2
AcmStandardANSI
  3
"AcmSymBB|Product Description: AutoCAD Mechanical 2000|Company: Autodesk"
 90
        0
280
     0
281
     0
  0
CLASS
  1
ACMSURFSTANDARDANSI
  2
AcmSurfTextStdANSI
  3
"AcmSymBB|Product Description: AutoCAD Mechanical 2000|Company: Autodesk"
 90
        0
280
     0
281
     0
  0
CLASS
  1
ACMFCFSTANDARDANSI
  2
AcmFCFStdANSI
  3
"AcmSymBB|Product Description: AutoCAD Mechanical 2000|Company: Autodesk"
 90
        0
280
     0
281
     0
  0
CLASS
  1
ACMWELDSTANDARDANSI
  2
AcmWeldingStdANSI
  3
"AcmSymBB|Product Description: AutoCAD Mechanical 2000|Company: Autodesk"
 90
        0
280
     0
281
     0
  0
CLASS
  1
ACMIDSTANDARDANSI
  2
AcmIdStdANSI
  3
"AcmSymBB|Product Description: AutoCAD Mechanical 2000|Company: Autodesk"
 90
        0
280
     0
281
     0
  0
CLASS
  1
ACMDATUMSTANDARDANSI
  2
AcmDatumStdANSI
  3
"AcmSymBB|Product Description: AutoCAD Mechanical 2000|Company: Autodesk"
 90
        0
280
     0
281
     0
  0
CLASS
  1
ACMBOMSTANDARDANSI
  2
AcmBOMStdANSI
  3
"AcmSymBB|Product Description: AutoCAD Mechanical 2000|Company: Autodesk"
 90
        0
280
     0
281
     0
  0
CLASS
  1
ACMSTANDARDBSI
  2
AcmStandardBSI
  3
"AcmSymBB|Product Description: AutoCAD Mechanical 2000|Company: Autodesk"
 90
        0
280
     0
281
     0
  0
CLASS
  1
ACMSURFSTANDARDBSI
  2
AcmSurfTextStdBSI
  3
"AcmSymBB|Product Description: AutoCAD Mechanical 2000|Company: Autodesk"
 90
        0
280
     0
281
     0
  0
CLASS
  1
ACMFCFSTANDARDBSI
  2
AcmFCFStdBSI
  3
"AcmSymBB|Product Description: AutoCAD Mechanical 2000|Company: Autodesk"
 90
        0
280
     0
281
     0
  0
CLASS
  1
ACMWELDSTANDARDBSI
  2
AcmWeldingStdBSI
  3
"AcmSymBB|Product Description: AutoCAD Mechanical 2000|Company: Autodesk"
 90
        0
280
     0
281
     0
  0
CLASS
  1
ACMIDSTANDARDBSI
  2
AcmIdStdBSI
  3
"AcmSymBB|Product Description: AutoCAD Mechanical 2000|Company: Autodesk"
 90
        0
280
     0
281
     0
  0
CLASS
  1
ACMDATUMSTANDARDBSI
  2
AcmDatumStdBSI
  3
"AcmSymBB|Product Description: AutoCAD Mechanical 2000|Company: Autodesk"
 90
        0
280
     0
281
     0
  0
CLASS
  1
ACMBOMSTANDARDBSI
  2
AcmBOMStdBSI
  3
"AcmSymBB|Product Description: AutoCAD Mechanical 2000|Company: Autodesk"
 90
        0
280
     0
281
     0
  0
CLASS
  1
STDPART2D
  2
AmgStdPart
  3
"AmgStdPart|Product Description: AutoCAD Mechanical 2000|Company: Autodesk"
 90
     1023
280
     0
281
     1
  0
CLASS
  1
PLOTSETTINGS
  2
AcDbPlotSettings
  3
AutoCAD 2000
 90
        0
280
     0
281
     0
  0
CLASS
  1
LONG_TRANSACTION
  2
AcDbLongTransaction
  3
AutoCAD 2000
 90
        0
280
     0
281
     0
  0
CLASS
  1
LWPOLYLINE
  2
AcDbPolyline
  3
AutoCAD 2000
 90
        0
280
     0
281
     1
  0
CLASS
  1
HATCH
  2
AcDbHatch
  3
AutoCAD 2000
 90
        0
280
     0
281
     1
  0
CLASS
  1
XRECORD
  2
AcDbXrecord
  3
AutoCAD 2000
 90
        0
280
     0
281
     0
  0
ENDSEC
  0
SECTION
  2
TABLES
  0
TABLE
  2
VPORT
  5
8
330
0
100
AcDbSymbolTable
 70
     3
  0
VPORT
  5
A572
330
8
100
AcDbSymbolTableRecord
100
AcDbViewportTableRecord
  2
*ACTIVE
 70
     0
 10
0.0
 20
0.0
 11
1.0
 21
1.0
 12
-152.2668864514283
 22
-15.55481199363276
 13
0.0
 23
0.0
 14
2.5
 24
2.5
 15
10.0
 25
10.0
 16
0.0
 26
0.0
 36
1.0
 17
0.0
 27
0.0
 37
0.0
 40
288.5059508704499
 41
1.56570841889117
 42
50.0
 43
0.0
 44
0.0
 50
0.0
 51
0.0
 71
     0
 72
   100
 73
     1
 74
     3
 75
     0
 76
     0
 77
     0
 78
     0
  0
ENDTAB
  0
TABLE
  2
LTYPE
  5
5
330
0
100
AcDbSymbolTable
 70
    10
  0
LTYPE
  5
14
330
5
100
AcDbSymbolTableRecord
100
AcDbLinetypeTableRecord
  2
BYBLOCK
 70
     0
  3

 72
    65
 73
     0
 40
0.0
  0
LTYPE
  5
15
330
5
100
AcDbSymbolTableRecord
100
AcDbLinetypeTableRecord
  2
BYLAYER
 70
     0
  3

 72
    65
 73
     0
 40
0.0
  0
LTYPE
  5
16
330
5
100
AcDbSymbolTableRecord
100
AcDbLinetypeTableRecord
  2
CONTINUOUS
 70
     0
  3
Solid line
 72
    65
 73
     0
 40
0.0
  0
LTYPE
  5
4B
330
5
100
AcDbSymbolTableRecord
100
AcDbLinetypeTableRecord
  2
AM_ISO02W050
 70
     0
  3
__ __ __ __ __ __ __ __ __ __ __ __ __ __ __
 72
    65
 73
     2
 40
7.5
 49
6.0
 74
     0
 49
-1.5
 74
     0
  0
LTYPE
  5
4C
330
5
100
AcDbSymbolTableRecord
100
AcDbLinetypeTableRecord
  2
AM_ISO08W050
 70
     0
  3
____ . ____ . ____ . ____ . ____ . ____ . ____
 72
    65
 73
     4
 40
18.0
 49
12.0
 74
     0
 49
-1.5
 74
     0
 49
3.0
 74
     0
 49
-1.5
 74
     0
  0
LTYPE
  5
4D
330
5
100
AcDbSymbolTableRecord
100
AcDbLinetypeTableRecord
  2
AM_ISO09W050
 70
     0
  3
_____ . . _____ . . _____ . . ____ .. ____
 72
    65
 73
     6
 40
22.5
 49
12.0
 74
     0
 49
-1.5
 74
     0
 49
3.0
 74
     0
 49
-1.5
 74
     0
 49
3.0
 74
     0
 49
-1.5
 74
     0
  0
LTYPE
  5
4E
330
5
100
AcDbSymbolTableRecord
100
AcDbLinetypeTableRecord
  2
AMCONSTR
 70
     0
  3
_______________________
 72
    65
 73
     2
 40
9999.0
 49
9999.0
 74
     0
 49
0.0
 74
     0
  0
LTYPE
  5
4F
330
5
100
AcDbSymbolTableRecord
100
AcDbLinetypeTableRecord
  2
AM_ISO02W050X2
 70
     0
  3
 _ _ _ _ _ _ _ _ _ _ _ _
 72
    65
 73
     2
 40
3.75
 49
3.0
 74
     0
 49
-0.75
 74
     0
  0
LTYPE
  5
50
330
5
100
AcDbSymbolTableRecord
100
AcDbLinetypeTableRecord
  2
AM_ISO08W050X2
 70
     0
  3
__ . __ . __ . __ . __ . __
 72
    65
 73
     4
 40
9.0
 49
6.0
 74
     0
 49
-0.75
 74
     0
 49
1.5
 74
     0
 49
-0.75
 74
     0
  0
LTYPE
  5
53
330
5
100
AcDbSymbolTableRecord
100
AcDbLinetypeTableRecord
  2
AMZIGZAG
 70
     0
  3
/\/-/\/-/\/-/\/-/\/-/\/
 72
    65
 73
     2
 40
11.00009999999999
 49
0.0001
 74
     4
 75
   135
340
52
 46
0.04
 50
0.0
 44
0.0
 45
0.0
 49
-11.0
 74
     0
  0
LTYPE
  5
166
330
5
100
AcDbSymbolTableRecord
100
AcDbLinetypeTableRecord
  2
ACJISTGL
 70
     0
  3
_ _ _ _ _
 72
    65
 73
     2
 40
3.0
 49
2.0
 74
     0
 49
-1.0
 74
     0
  0
LTYPE
  5
26A
330
5
100
AcDbSymbolTableRecord
100
AcDbLinetypeTableRecord
  2
ACJISTGB
 70
     0
  3
__ . . __ . .
 72
    65
 73
     6
 40
9.0
 49
4.0
 74
     0
 49
-1.0
 74
     0
 49
1.0
 74
     0
 49
-1.0
 74
     0
 49
1.0
 74
     0
 49
-1.0
 74
     0
  0
ENDTAB
  0
TABLE
  2
LAYER
  5
2
330
0
100
AcDbSymbolTable
 70
    12
  0
LAYER
  5
10
330
2
100
AcDbSymbolTableRecord
100
AcDbLayerTableRecord
  2
0
 70
     0
 62
     7
  6
CONTINUOUS
  0
LAYER
  5
3F9
330
2
100
AcDbSymbolTableRecord
100
AcDbLayerTableRecord
  2
AM_0
 70
     0
 62
     7
  6
CONTINUOUS
  0
LAYER
  5
BA4
330
2
100
AcDbSymbolTableRecord
100
AcDbLayerTableRecord
  2
AM_5
 70
     0
 62
     3
  6
CONTINUOUS
  0
LAYER
  5
BA6
330
2
100
AcDbSymbolTableRecord
100
AcDbLayerTableRecord
  2
AM_7
 70
     0
 62
     4
  6
AM_ISO08W050
  0
LAYER
  5
E64
330
2
100
AcDbSymbolTableRecord
100
AcDbLayerTableRecord
  2
AM_6
 70
     0
 62
     2
  6
CONTINUOUS
  0
LAYER
  5
F4D
330
2
100
AcDbSymbolTableRecord
100
AcDbLayerTableRecord
  2
DEFPOINTS
 70
     0
 62
     7
  6
CONTINUOUS
  0
LAYER
  5
2382
330
2
100
AcDbSymbolTableRecord
100
AcDbLayerTableRecord
  2
AM_3
 70
     0
 62
     6
  6
ACJISTGL
  0
LAYER
  5
4E80
330
2
100
AcDbSymbolTableRecord
100
AcDbLayerTableRecord
  2
AM_11
 70
     0
 62
     3
  6
AM_ISO09W050
  0
LAYER
  5
502A
330
2
100
AcDbSymbolTableRecord
100
AcDbLayerTableRecord
  2
PV0001_1
 70
     0
 62
     7
  6
CONTINUOUS
  0
LAYER
  5
78BD
330
2
100
AcDbSymbolTableRecord
100
AcDbLayerTableRecord
  2
2
 70
     0
 62
     7
  6
CONTINUOUS
  0
LAYER
  5
78BE
330
2
100
AcDbSymbolTableRecord
100
AcDbLayerTableRecord
  2
1
 70
     0
 62
     7
  6
CONTINUOUS
  0
LAYER
  5
78BF
330
2
100
AcDbSymbolTableRecord
100
AcDbLayerTableRecord
  2
AM_4
 70
     0
 62
     3
  6
CONTINUOUS
  0
ENDTAB
  0
TABLE
  2
STYLE
  5
3
330
0
100
AcDbSymbolTable
 70
     5
  0
STYLE
  5
11
330
3
100
AcDbSymbolTableRecord
100
AcDbTextStyleTableRecord
  2
STANDARD
 70
     0
 40
0.0
 41
1.0
 50
0.0
 71
     0
 42
2.5
  3
simplex.shx
  4
EXTFONT.SHX
  0
STYLE
  5
52
330
3
100
AcDbSymbolTableRecord
100
AcDbTextStyleTableRecord
  2

 70
     1
 40
0.0
 41
1.0
 50
0.0
 71
     0
 42
2.5
  3
ltypeshp.shx
  4

  0
STYLE
  5
6B
330
3
100
AcDbSymbolTableRecord
100
AcDbTextStyleTableRecord
  2
ASAMI
 70
     0
 40
0.0
 41
1.0
 50
0.0
 71
     0
 42
2.5
  3
simplex.shx
  4
EXTFONT.SHX
  0
STYLE
  5
262
330
3
100
AcDbSymbolTableRecord
100
AcDbTextStyleTableRecord
  2
ACJISTS
 70
     0
 40
1.0
 41
1.0
 50
0.0
 71
     0
 42
2.5
  3
simplex.shx
  4
bigfont.shx
  0
STYLE
  5
269
330
3
100
AcDbSymbolTableRecord
100
AcDbTextStyleTableRecord
  2
ACJISGDT
 70
     0
 40
0.0
 41
1.0
 50
0.0
 71
     0
 42
2.5
  3
amgdtans.shx
  4

  0
ENDTAB
  0
TABLE
  2
VIEW
  5
6
330
0
100
AcDbSymbolTable
 70
     0
  0
ENDTAB
  0
TABLE
  2
UCS
  5
7
330
0
100
AcDbSymbolTable
 70
     0
  0
ENDTAB
  0
TABLE
  2
APPID
  5
9
330
0
100
AcDbSymbolTable
 70
    24
  0
APPID
  5
12
330
9
100
AcDbSymbolTableRecord
100
AcDbRegAppTableRecord
  2
ACAD
 70
     0
  0
APPID
  5
30
330
9
100
AcDbSymbolTableRecord
100
AcDbRegAppTableRecord
  2
MCAD_NO_VIS
 70
     0
  0
APPID
  5
31
330
9
100
AcDbSymbolTableRecord
100
AcDbRegAppTableRecord
  2
ACAD_TEMP_GRAPHIC
 70
     0
  0
APPID
  5
2C2
330
9
100
AcDbSymbolTableRecord
100
AcDbRegAppTableRecord
  2
GENIUS_GENDTOL_13
 70
     0
  0
APPID
  5
339
330
9
100
AcDbSymbolTableRecord
100
AcDbRegAppTableRecord
  2
GENIUS_GENODEF_13
 70
     0
  0
APPID
  5
33A
330
9
100
AcDbSymbolTableRecord
100
AcDbRegAppTableRecord
  2
GENIUS_GENOBJ-N-RSBK_13
 70
     0
  0
APPID
  5
33B
330
9
100
AcDbSymbolTableRecord
100
AcDbRegAppTableRecord
  2
GENIUS_GENOBJ-N-LIB_13
 70
     0
  0
APPID
  5
33C
330
9
100
AcDbSymbolTableRecord
100
AcDbRegAppTableRecord
  2
GENIUS_GENSCALE_13
 70
     0
  0
APPID
  5
378
330
9
100
AcDbSymbolTableRecord
100
AcDbRegAppTableRecord
  2
GENIUS_GENDIMSH_14
 70
     0
  0
APPID
  5
BB0
330
9
100
AcDbSymbolTableRecord
100
AcDbRegAppTableRecord
  2
GENIUS_GENOBJ-N-CEN_13
 70
     0
  0
APPID
  5
BB1
330
9
100
AcDbSymbolTableRecord
100
AcDbRegAppTableRecord
  2
GENIUS_GENFIL_13
 70
     0
  0
APPID
  5
BB2
330
9
100
AcDbSymbolTableRecord
100
AcDbRegAppTableRecord
  2
GENIUS_GENOBJ-N-CHA_13
 70
     0
  0
APPID
  5
1FAF
330
9
100
AcDbSymbolTableRecord
100
AcDbRegAppTableRecord
  2
GENIUS_GENOBJ-N-CRS_13
 70
     0
  0
APPID
  5
1FB0
330
9
100
AcDbSymbolTableRecord
100
AcDbRegAppTableRecord
  2
GENIUS_GENOENT_13
 70
     0
  0
APPID
  5
1FB1
330
9
100
AcDbSymbolTableRecord
100
AcDbRegAppTableRecord
  2
GENIUS_GENOREF_13
 70
     0
  0
APPID
  5
1FB2
330
9
100
AcDbSymbolTableRecord
100
AcDbRegAppTableRecord
  2
GENIUS_GENOLIS_13
 70
     0
  0
APPID
  5
1FB7
330
9
100
AcDbSymbolTableRecord
100
AcDbRegAppTableRecord
  2
GENIUS_GENOBJ-N-FIL_13
 70
     0
  0
APPID
  5
22A8
330
9
100
AcDbSymbolTableRecord
100
AcDbRegAppTableRecord
  2
GEVID1056506048
 70
     0
  0
APPID
  5
22A9
330
9
100
AcDbSymbolTableRecord
100
AcDbRegAppTableRecord
  2
GEVDC
 70
     0
  0
APPID
  5
22AC
330
9
100
AcDbSymbolTableRecord
100
AcDbRegAppTableRecord
  2
GENIUS_GENBH_13
 70
     0
  0
APPID
  5
22B8
330
9
100
AcDbSymbolTableRecord
100
AcDbRegAppTableRecord
  2
GENIUS_GENOBJ-NBEHI-BHF_13
 70
     0
  0
APPID
  5
22BA
330
9
100
AcDbSymbolTableRecord
100
AcDbRegAppTableRecord
  2
GENIUS_GENOBJ-NBEHI-BHB_13
 70
     0
  0
APPID
  5
35C9
330
9
100
AcDbSymbolTableRecord
100
AcDbRegAppTableRecord
  2
GENIUS_GENREC_14
 70
     0
  0
APPID
  5
35CA
330
9
100
AcDbSymbolTableRecord
100
AcDbRegAppTableRecord
  2
GENIUS_GENOBJ-N-REC_13
 70
     0
  0
ENDTAB
  0
TABLE
  2
DIMSTYLE
  5
A
330
0
100
AcDbSymbolTable
 70
    13
  0
DIMSTYLE
105
58
330
A
100
AcDbSymbolTableRecord
100
AcDbDimStyleTableRecord
  2
AM_JIS
 70
     0
  3

  4
"
  5
OPEN30
  6

  7

 40
1.0
 41
2.5
 42
1.0
 43
12.0
 44
1.0
 45
0.0
 46
0.0
 47
0.1
 48
0.1
140
3.2
141
0.0
142
0.0
143
0.0393701
144
1.0
145
0.0
146
0.71
147
1.5
 71
     0
 72
     0
 73
     0
 74
     0
 75
     0
 76
     0
 77
     3
 78
     8
170
     0
171
     2
172
     1
173
     0
174
     0
175
     0
176
   256
177
   256
178
     2
270
     2
271
     3
272
     3
273
     2
274
     2
340
6B
275
     0
280
     0
281
     0
282
     0
283
     0
284
     0
285
     0
286
     0
287
     3
288
     0
  0
DIMSTYLE
105
5F
330
A
100
AcDbSymbolTableRecord
100
AcDbDimStyleTableRecord
  2
AM_JIS$3
 70
     0
  3

  4
"
  5
OPEN30
  6

  7

 40
1.0
 41
2.5
 42
1.0
 43
10.0
 44
1.0
 45
0.0
 46
0.0
 47
0.1
 48
0.1
140
3.2
141
0.0
142
0.0
143
0.0393701
144
1.0
145
0.0
146
0.71
147
1.5
 71
     0
 72
     0
 73
     0
 74
     1
 75
     0
 76
     0
 77
     3
 78
     8
170
     0
171
     2
172
     0
173
     0
174
     0
175
     0
176
   256
177
   256
178
     2
270
     2
271
     2
272
     3
273
     2
274
     2
340
6B
275
     0
280
     0
281
     0
282
     0
283
     0
284
     0
285
     0
286
     0
287
     0
288
     1
  0
DIMSTYLE
105
60
330
A
100
AcDbSymbolTableRecord
100
AcDbDimStyleTableRecord
  2
AM_JIS$4
 70
     0
  3

  4
"
  5
OPEN30
  6

  7

 40
1.0
 41
2.5
 42
1.0
 43
10.0
 44
1.0
 45
0.0
 46
0.0
 47
0.1
 48
0.1
140
3.2
141
0.0
142
0.0
143
0.0393701
144
1.0
145
0.0
146
0.71
147
1.5
 71
     0
 72
     0
 73
     0
 74
     1
 75
     0
 76
     0
 77
     3
 78
     8
170
     0
171
     2
172
     0
173
     0
174
     0
175
     0
176
   256
177
   256
178
     2
270
     2
271
     2
272
     3
273
     2
274
     2
340
6B
275
     0
280
     0
281
     0
282
     0
283
     0
284
     0
285
     0
286
     0
287
     0
288
     1
  0
DIMSTYLE
105
61
330
A
100
AcDbSymbolTableRecord
100
AcDbDimStyleTableRecord
  2
AM_JIS$6
 70
     0
  3

  4
"
  5
OPEN30
  6

  7

 40
1.0
 41
2.5
 42
1.0
 43
10.0
 44
1.0
 45
0.0
 46
0.0
 47
0.1
 48
0.1
140
3.2
141
0.0
142
0.0
143
0.0393701
144
1.0
145
0.0
146
0.71
147
1.5
 71
     0
 72
     0
 73
     0
 74
     0
 75
     0
 76
     0
 77
     0
 78
     8
170
     0
171
     2
172
     1
173
     0
174
     0
175
     0
176
   256
177
   256
178
     2
270
     2
271
     2
272
     2
273
     2
274
     2
340
6B
275
     0
280
     0
281
     0
282
     0
283
     0
284
     0
285
     0
286
     0
287
     3
288
     0
  0
DIMSTYLE
105
62
330
A
100
AcDbSymbolTableRecord
100
AcDbDimStyleTableRecord
  2
AM_JIS$7
 70
     0
  3

  4
"
  5
OPEN30
  6

  7

 40
1.0
 41
2.5
 42
1.0
 43
10.0
 44
1.0
 45
0.0
 46
0.0
 47
0.1
 48
0.1
140
3.2
141
0.0
142
0.0
143
0.0393701
144
1.0
145
0.0
146
0.71
147
1.5
 71
     0
 72
     0
 73
     0
 74
     0
 75
     0
 76
     0
 77
     3
 78
     8
170
     0
171
     2
172
     1
173
     0
174
     0
175
     0
176
   256
177
   256
178
     2
270
     2
271
     2
272
     3
273
     2
274
     2
340
6B
275
     0
280
     0
281
     0
282
     0
283
     0
284
     0
285
     0
286
     0
287
     3
288
     0
  0
DIMSTYLE
105
63
330
A
100
AcDbSymbolTableRecord
100
AcDbDimStyleTableRecord
  2
AM_JIS$SF
 70
     0
  3

  4
"
  5
OPEN30
  6

  7

 40
1.0
 41
2.5
 42
1.0
 43
10.0
 44
1.0
 45
0.0
 46
0.0
 47
0.1
 48
0.1
140
3.2
141
0.0
142
0.0
143
0.0393701
144
1.0
145
0.0
146
0.71
147
1.5
 71
     0
 72
     0
 73
     0
 74
     0
 75
     1
 76
     1
 77
     3
 78
     8
170
     0
171
     2
172
     1
173
     0
174
     0
175
     0
176
   256
177
   256
178
     2
270
     2
271
     2
272
     2
273
     2
274
     2
340
6B
275
     0
280
     0
281
     0
282
     0
283
     0
284
     0
285
     0
286
     0
287
     3
288
     0
  0
DIMSTYLE
105
68
330
A
100
AcDbSymbolTableRecord
100
AcDbDimStyleTableRecord
  2
AM_JIS$SH
 70
     0
  3

  4
"
  5

  6
GENAXEH
  7
OPEN30
 40
1.0
 41
2.5
 42
1.0
 43
10.0
 44
1.0
 45
0.0
 46
0.0
 47
0.1
 48
0.1
140
3.2
141
0.0
142
0.0
143
0.0393701
144
2.0
145
0.0
146
0.71
147
1.5
 71
     0
 72
     0
 73
     0
 74
     0
 75
     1
 76
     1
 77
     3
 78
     8
170
     0
171
     2
172
     1
173
     1
174
     0
175
     0
176
   256
177
   256
178
     2
270
     2
271
     2
272
     2
273
     2
274
     2
340
6B
275
     0
280
     0
281
     0
282
     0
283
     0
284
     0
285
     0
286
     0
287
     3
288
     0
  0
DIMSTYLE
105
B34
330
A
100
AcDbSymbolTableRecord
100
AcDbDimStyleTableRecord
  2
AM_JIS$2
 70
     0
  3

  4
"
  5
OPEN30
  6

  7

 40
1.0
 41
2.5
 42
1.0
 43
12.0
 44
1.0
 45
0.0
 46
0.0
 47
0.1
 48
0.1
140
3.2
141
0.0
142
0.0
143
0.0393701
144
1.0
145
0.0
146
0.71
147
1.5
 71
     0
 72
     0
 73
     0
 74
     0
 75
     0
 76
     0
 77
     3
 78
     8
170
     0
171
     2
172
     1
173
     0
174
     0
175
     0
176
   256
177
   256
178
     2
270
     2
271
     3
272
     3
273
     2
274
     2
340
6B
275
     0
280
     0
281
     0
282
     0
283
     0
284
     0
285
     0
286
     0
287
     3
288
     0
  0
DIMSTYLE
105
3B48
102
{ACAD_REACTORS
330
9E1F
330
9EB4
330
9F49
330
9FD5
330
A07C
330
A19D
330
A111
102
}
330
A
100
AcDbSymbolTableRecord
100
AcDbDimStyleTableRecord
  2
AM_JIS$0
 70
     0
  3

  4
"
  5
OPEN30
  6

  7

 40
1.0
 41
2.5
 42
0.0
 43
10.0
 44
1.0
 45
0.0
 46
0.0
 47
0.1
 48
0.1000000001
140
3.799999999999999
141
0.0
142
0.0
143
0.0393701
144
1.0
145
0.0
146
0.71
147
1.5
 71
     0
 72
     0
 73
     0
 74
     0
 75
     0
 76
     0
 77
     3
 78
     1
170
     0
171
     2
172
     1
173
     0
174
     0
175
     0
176
     3
177
     3
178
     2
270
     2
271
     2
272
     2
273
     2
274
     2
340
11
275
     1
280
     0
281
     0
282
     0
283
     0
284
     8
285
     0
286
     0
287
     0
288
     0
  0
DIMSTYLE
105
502B
330
A
100
AcDbSymbolTableRecord
100
AcDbDimStyleTableRecord
  2
AM_JISORG-1P0$2
 70
     0
  3

  4
"
  5
OPEN30
  6

  7

 40
1.0
 41
2.5
 42
0.0
 43
10.0
 44
1.0
 45
0.0
 46
0.0
 47
0.1
 48
0.1000000001
140
3.799999999999999
141
0.0
142
0.0
143
0.0393701
144
-1.000000047579403
145
0.0
146
0.71
147
1.5
 71
     0
 72
     0
 73
     0
 74
     0
 75
     0
 76
     0
 77
     3
 78
     1
170
     0
171
     2
172
     1
173
     0
174
     0
175
     0
176
     3
177
     3
178
     2
270
     2
271
     2
272
     2
273
     2
274
     2
340
11
275
     1
280
     0
281
     0
282
     0
283
     0
284
     8
285
     0
286
     0
287
     0
288
     0
  0
DIMSTYLE
105
502C
330
A
100
AcDbSymbolTableRecord
100
AcDbDimStyleTableRecord
  2
AM_JISORG0P5$0
 70
     0
  3

  4
"
  5
OPEN30
  6

  7

 40
1.0
 41
2.5
 42
0.0
 43
10.0
 44
1.0
 45
0.0
 46
0.0
 47
0.1
 48
0.1000000001
140
3.799999999999999
141
0.0
142
0.0
143
0.0393701
144
0.5000003785514306
145
0.0
146
0.71
147
1.5
 71
     0
 72
     0
 73
     0
 74
     0
 75
     0
 76
     0
 77
     3
 78
     1
170
     0
171
     2
172
     1
173
     0
174
     0
175
     0
176
     3
177
     3
178
     2
270
     2
271
     2
272
     2
273
     2
274
     2
340
11
275
     1
280
     0
281
     0
282
     0
283
     0
284
     8
285
     0
286
     0
287
     0
288
     0
  0
DIMSTYLE
105
502D
330
A
100
AcDbSymbolTableRecord
100
AcDbDimStyleTableRecord
  2
AM_JISORG0P2$4
 70
     0
  3

  4
"
  5
OPEN30
  6

  7

 40
1.0
 41
2.5
 42
0.0
 43
10.0
 44
1.0
 45
0.0
 46
0.0
 47
0.1
 48
0.1000000001
140
3.799999999999999
141
0.0
142
0.0
143
0.0393701
144
0.2
145
0.0
146
0.71
147
1.5
 71
     0
 72
     0
 73
     0
 74
     0
 75
     0
 76
     0
 77
     3
 78
     1
170
     0
171
     2
172
     1
173
     0
174
     0
175
     0
176
     3
177
     3
178
     2
270
     2
271
     2
272
     2
273
     2
274
     2
340
11
275
     1
280
     0
281
     0
282
     0
283
     0
284
     8
285
     0
286
     0
287
     0
288
     1
  0
DIMSTYLE
105
78C0
330
A
100
AcDbSymbolTableRecord
100
AcDbDimStyleTableRecord
  2
AM_ISO
 70
     0
  3

  4
"
  5

  6

  7

 40
1.0
 41
2.5
 42
1.0
 43
10.0
 44
1.0
 45
0.0
 46
0.0
 47
0.1
 48
0.1
140
3.5
141
0.0
142
0.0
143
0.0393701
144
1.0
145
0.0
146
0.71
147
1.5
 71
     0
 72
     0
 73
     0
 74
     0
 75
     0
 76
     0
 77
     1
 78
     8
170
     0
171
     2
172
     1
173
     0
174
     0
175
     0
176
   256
177
   256
178
     2
270
     2
271
     2
272
     3
273
     2
274
     4
340
11
275
     0
280
     0
281
     0
282
     0
283
     0
284
     8
285
     0
286
     0
287
     3
288
     0
  0
ENDTAB
  0
TABLE
  2
BLOCK_RECORD
  5
1
330
0
100
AcDbSymbolTable
 70
    12
  0
BLOCK_RECORD
  5
1F
102
{ACAD_XDICTIONARY
360
74
102
}
330
1
100
AcDbSymbolTableRecord
100
AcDbBlockTableRecord
  2
*MODEL_SPACE
  0
BLOCK_RECORD
  5
101
102
{ACAD_XDICTIONARY
360
A59B
102
}
330
1
100
AcDbSymbolTableRecord
100
AcDbBlockTableRecord
  2
*PAPER_SPACE
  0
BLOCK_RECORD
  5
59
330
1
100
AcDbSymbolTableRecord
100
AcDbBlockTableRecord
  2
_OPEN30
  0
BLOCK_RECORD
  5
64
330
1
100
AcDbSymbolTableRecord
100
AcDbBlockTableRecord
  2
GENAXEH
  0
BLOCK_RECORD
  5
9E20
330
1
100
AcDbSymbolTableRecord
100
AcDbBlockTableRecord
  2
*D5
  0
BLOCK_RECORD
  5
9EB5
330
1
100
AcDbSymbolTableRecord
100
AcDbBlockTableRecord
  2
*D6
  0
BLOCK_RECORD
  5
9F4A
330
1
100
AcDbSymbolTableRecord
100
AcDbBlockTableRecord
  2
*D7
  0
BLOCK_RECORD
  5
9FD6
330
1
100
AcDbSymbolTableRecord
100
AcDbBlockTableRecord
  2
*D8
  0
BLOCK_RECORD
  5
A07D
330
1
100
AcDbSymbolTableRecord
100
AcDbBlockTableRecord
  2
*D9
  0
BLOCK_RECORD
  5
A112
330
1
100
AcDbSymbolTableRecord
100
AcDbBlockTableRecord
  2
*D10
  0
BLOCK_RECORD
  5
A19E
330
1
100
AcDbSymbolTableRecord
100
AcDbBlockTableRecord
  2
*D11
  0
ENDTAB
  0
ENDSEC
  0
SECTION
  2
BLOCKS
  0
BLOCK
  5
20
330
1F
100
AcDbEntity
  8
0
100
AcDbBlockBegin
  2
*MODEL_SPACE
 70
     0
 10
0.0
 20
0.0
 30
0.0
  3
*MODEL_SPACE
  1

  0
ENDBLK
  5
21
330
1F
100
AcDbEntity
  8
0
100
AcDbBlockEnd
  0
BLOCK
  5
103
330
101
100
AcDbEntity
 67
     1
  8
0
100
AcDbBlockBegin
  2
*PAPER_SPACE
 70
     0
 10
0.0
 20
0.0
 30
0.0
  3
*PAPER_SPACE
  1

  0
ENDBLK
  5
104
330
101
100
AcDbEntity
 67
     1
  8
0
100
AcDbBlockEnd
  0
BLOCK
  5
5D
330
59
100
AcDbEntity
  8
0
100
AcDbBlockBegin
  2
_OPEN30
 70
     0
 10
0.0
 20
0.0
 30
0.0
  3
_OPEN30
  1

  0
LINE
  5
5A
330
59
100
AcDbEntity
  8
0
 62
     0
100
AcDbLine
 10
-1.0
 20
0.26794919
 30
0.0
 11
0.0
 21
0.0
 31
0.0
  0
LINE
  5
5B
330
59
100
AcDbEntity
  8
0
 62
     0
100
AcDbLine
 10
0.0
 20
0.0
 30
0.0
 11
-1.0
 21
-0.26794919
 31
0.0
  0
LINE
  5
5C
330
59
100
AcDbEntity
  8
0
 62
     0
100
AcDbLine
 10
0.0
 20
0.0
 30
0.0
 11
-1.0
 21
0.0
 31
0.0
  0
ENDBLK
  5
5E
330
59
100
AcDbEntity
  8
0
100
AcDbBlockEnd
  0
BLOCK
  5
66
330
64
100
AcDbEntity
  8
0
100
AcDbBlockBegin
  2
GENAXEH
 70
     0
 10
0.0
 20
0.0
 30
0.0
  3
GENAXEH
  1

  0
LINE
  5
65
330
64
100
AcDbEntity
  8
0
100
AcDbLine
 10
-1.0
 20
0.0
 30
0.0
 11
1.0
 21
0.0
 31
0.0
  0
ENDBLK
  5
67
330
64
100
AcDbEntity
  8
0
100
AcDbBlockEnd
  0
BLOCK
  5
9E2A
330
9E20
100
AcDbEntity
  8
0
100
AcDbBlockBegin
  2
*D5
 70
     1
 10
0.0
 20
0.0
 30
0.0
  3
*D5
  1

  0
LINE
  5
A59D
330
9E20
100
AcDbEntity
  8
AM_5
100
AcDbLine
 10
-0.0000000000002701
 20
0.5000000000001421
 30
0.0
 11
-0.0000000000002756
 21
30.5000048146965
 31
0.0
  0
LINE
  5
A59E
330
9E20
100
AcDbEntity
  8
AM_5
100
AcDbLine
 10
-38.0000000000003
 20
13.00000000000003
 30
0.0
 11
-38.00000000000031
 21
30.50000481469649
 31
0.0
  0
LINE
  5
A59F
330
9E20
100
AcDbEntity
  8
AM_5
100
AcDbLine
 10
-2.500000000000275
 20
30.0000048146965
 30
0.0
 11
-35.50000000000031
 21
30.00000481469649
 31
0.0
  0
INSERT
  5
A5A0
330
9E20
100
AcDbEntity
  8
AM_5
100
AcDbBlockReference
  2
_OPEN30
 10
-0.0000000000002755
 20
30.0000048146965
 30
0.0
 41
2.5
 42
2.5
 43
2.5
  0
INSERT
  5
A5A1
330
9E20
100
AcDbEntity
  8
AM_5
100
AcDbBlockReference
  2
_OPEN30
 10
-38.00000000000031
 20
30.00000481469649
 30
0.0
 41
2.5
 42
2.5
 43
2.5
 50
180.0
  0
MTEXT
  5
A5A2
330
9E20
100
AcDbEntity
  8
AM_5
 62
     2
100
AcDbMText
 10
-19.00000000000029
 20
32.3500048146965
 30
0.0
 40
3.2
 41
0.0
 71
     5
 72
     1
  1
38
  7
ASAMI
  0
POINT
  5
A5A3
330
9E20
100
AcDbEntity
  8
DEFPOINTS
 62
     0
100
AcDbPoint
 10
-0.00000000000027
 20
0.0000000000001421
 30
0.0
  0
POINT
  5
A5A4
330
9E20
100
AcDbEntity
  8
DEFPOINTS
 62
     0
100
AcDbPoint
 10
-38.00000000000028
 20
12.50000000000011
 30
0.0
  0
POINT
  5
A5A5
330
9E20
100
AcDbEntity
  8
DEFPOINTS
 62
     0
100
AcDbPoint
 10
-38.00000000000025
 20
30.00000481469657
 30
0.0
  0
ENDBLK
  5
9E2B
330
9E20
100
AcDbEntity
  8
0
100
AcDbBlockEnd
  0
BLOCK
  5
9EBF
330
9EB5
100
AcDbEntity
  8
0
100
AcDbBlockBegin
  2
*D6
 70
     1
 10
0.0
 20
0.0
 30
0.0
  3
*D6
  1

  0
LINE
  5
A5A6
330
9EB5
100
AcDbEntity
  8
AM_5
100
AcDbLine
 10
-0.000000000000269
 20
-0.4999999999998295
 30
0.0
 11
-0.0000000000002102
 21
-30.50000130234145
 31
0.0
  0
LINE
  5
A5A7
330
9EB5
100
AcDbEntity
  8
AM_5
100
AcDbLine
 10
-50.00000000000022
 20
-12.00000000000003
 30
0.0
 11
-50.00000000000017
 21
-30.50000130234154
 31
0.0
  0
LINE
  5
A5A8
330
9EB5
100
AcDbEntity
  8
AM_5
100
AcDbLine
 10
-2.50000000000021
 20
-30.00000130234145
 30
0.0
 11
-47.50000000000017
 21
-30.00000130234154
 31
0.0
  0
INSERT
  5
A5A9
330
9EB5
100
AcDbEntity
  8
AM_5
100
AcDbBlockReference
  2
_OPEN30
 10
-0.0000000000002112
 20
-30.00000130234145
 30
0.0
 41
2.5
 42
2.5
 43
2.5
 50
0.0000000000001018
  0
INSERT
  5
A5AA
330
9EB5
100
AcDbEntity
  8
AM_5
100
AcDbBlockReference
  2
_OPEN30
 10
-50.00000000000017
 20
-30.00000130234155
 30
0.0
 41
2.5
 42
2.5
 43
2.5
 50
180.0000000000001
  0
MTEXT
  5
A5AB
330
9EB5
100
AcDbEntity
  8
AM_5
 62
     2
100
AcDbMText
 10
-25.00000000000019
 20
-27.65000130234149
 30
0.0
 40
3.2
 41
0.0
 71
     5
 72
     1
  1
50
  7
ASAMI
  0
POINT
  5
A5AC
330
9EB5
100
AcDbEntity
  8
DEFPOINTS
 62
     0
100
AcDbPoint
 10
-0.00000000000027
 20
0.0000000000001705
 30
0.0
  0
POINT
  5
A5AD
330
9EB5
100
AcDbEntity
  8
DEFPOINTS
 62
     0
100
AcDbPoint
 10
-50.00000000000024
 20
-11.49999999999993
 30
0.0
  0
POINT
  5
A5AE
330
9EB5
100
AcDbEntity
  8
DEFPOINTS
 62
     0
100
AcDbPoint
 10
-50.00000000000024
 20
-30.00000130234145
 30
0.0
  0
ENDBLK
  5
9EC0
330
9EB5
100
AcDbEntity
  8
0
100
AcDbBlockEnd
  0
BLOCK
  5
9F54
330
9F4A
100
AcDbEntity
  8
0
100
AcDbBlockBegin
  2
*D7
 70
     1
 10
0.0
 20
0.0
 30
0.0
  3
*D7
  1

  0
LINE
  5
A5AF
330
9F4A
100
AcDbEntity
  8
AM_5
100
AcDbLine
 10
-0.000000000000269
 20
-0.4999999999998295
 30
0.0
 11
-0.0000000000001906
 21
-40.50000130234145
 31
0.0
  0
LINE
  5
A5B0
330
9F4A
100
AcDbEntity
  8
AM_5
100
AcDbLine
 10
-100.0000000000002
 20
-16.50000000000024
 30
0.0
 11
-100.0000000000001
 21
-40.50000130234164
 31
0.0
  0
LINE
  5
A5B1
330
9F4A
100
AcDbEntity
  8
AM_5
100
AcDbLine
 10
-2.500000000000191
 20
-40.00000130234145
 30
0.0
 11
-97.50000000000015
 21
-40.00000130234164
 31
0.0
  0
INSERT
  5
A5B2
330
9F4A
100
AcDbEntity
  8
AM_5
100
AcDbBlockReference
  2
_OPEN30
 10
-0.0000000000001916
 20
-40.00000130234144
 30
0.0
 41
2.5
 42
2.5
 43
2.5
 50
0.0000000000001018
  0
INSERT
  5
A5B3
330
9F4A
100
AcDbEntity
  8
AM_5
100
AcDbBlockReference
  2
_OPEN30
 10
-100.0000000000001
 20
-40.00000130234164
 30
0.0
 41
2.5
 42
2.5
 43
2.5
 50
180.0000000000001
  0
MTEXT
  5
A5B4
330
9F4A
100
AcDbEntity
  8
AM_5
 62
     2
100
AcDbMText
 10
-50.00000000000017
 20
-37.65000130234154
 30
0.0
 40
3.2
 41
0.0
 71
     5
 72
     1
  1
100
  7
ASAMI
  0
POINT
  5
A5B5
330
9F4A
100
AcDbEntity
  8
DEFPOINTS
 62
     0
100
AcDbPoint
 10
-0.00000000000027
 20
0.0000000000001705
 30
0.0
  0
POINT
  5
A5B6
330
9F4A
100
AcDbEntity
  8
DEFPOINTS
 62
     0
100
AcDbPoint
 10
-100.0000000000002
 20
-16.00000000000004
 30
0.0
  0
POINT
  5
A5B7
330
9F4A
100
AcDbEntity
  8
DEFPOINTS
 62
     0
100
AcDbPoint
 10
-100.0000000000002
 20
-40.00000130234144
 30
0.0
  0
ENDBLK
  5
9F55
330
9F4A
100
AcDbEntity
  8
0
100
AcDbBlockEnd
  0
BLOCK
  5
9FE0
330
9FD6
100
AcDbEntity
  8
0
100
AcDbBlockBegin
  2
*D8
 70
     1
 10
0.0
 20
0.0
 30
0.0
  3
*D8
  1

  0
LINE
  5
A5B8
330
9FD6
100
AcDbEntity
  8
AM_5
100
AcDbLine
 10
-100.0000000000002
 20
-16.50000000000024
 30
0.0
 11
-100.0000000000001
 21
-40.50000130234164
 31
0.0
  0
LINE
  5
A5B9
330
9FD6
100
AcDbEntity
  8
AM_5
100
AcDbLine
 10
-300.0000000000002
 20
-14.16149902343903
 30
0.0
 11
-300.0000000000002
 21
-40.50000130234205
 31
0.0
  0
LINE
  5
A5BA
330
9FD6
100
AcDbEntity
  8
AM_5
100
AcDbLine
 10
-102.5000000000001
 20
-40.00000130234165
 30
0.0
 11
-297.5000000000002
 21
-40.00000130234204
 31
0.0
  0
INSERT
  5
A5BB
330
9FD6
100
AcDbEntity
  8
AM_5
100
AcDbBlockReference
  2
_OPEN30
 10
-100.0000000000001
 20
-40.00000130234164
 30
0.0
 41
2.5
 42
2.5
 43
2.5
 50
0.0000000000001018
  0
INSERT
  5
A5BC
330
9FD6
100
AcDbEntity
  8
AM_5
100
AcDbBlockReference
  2
_OPEN30
 10
-300.0000000000002
 20
-40.00000130234204
 30
0.0
 41
2.5
 42
2.5
 43
2.5
 50
180.0000000000001
  0
MTEXT
  5
A5BD
330
9FD6
100
AcDbEntity
  8
AM_5
 62
     2
100
AcDbMText
 10
-200.0000000000001
 20
-37.65000130234184
 30
0.0
 40
3.2
 41
0.0
 71
     5
 72
     1
  1
200
  7
ASAMI
  0
POINT
  5
A5BE
330
9FD6
100
AcDbEntity
  8
DEFPOINTS
 62
     0
100
AcDbPoint
 10
-100.0000000000002
 20
-16.00000000000004
 30
0.0
  0
POINT
  5
A5BF
330
9FD6
100
AcDbEntity
  8
DEFPOINTS
 62
     0
100
AcDbPoint
 10
-300.0000000000003
 20
-13.66149902343842
 30
0.0
  0
POINT
  5
A5C0
330
9FD6
100
AcDbEntity
  8
DEFPOINTS
 62
     0
100
AcDbPoint
 10
-300.0000000000003
 20
-40.00000130234144
 30
0.0
  0
ENDBLK
  5
9FE1
330
9FD6
100
AcDbEntity
  8
0
100
AcDbBlockEnd
  0
BLOCK
  5
A087
330
A07D
100
AcDbEntity
  8
0
100
AcDbBlockBegin
  2
*D9
 70
     1
 10
0.0
 20
0.0
 30
0.0
  3
*D9
  1

  0
LINE
  5
A5C1
330
A07D
100
AcDbEntity
  8
AM_5
100
AcDbLine
 10
-0.000000000000269
 20
-0.4999999999998295
 30
0.0
 11
-0.000000000000171
 21
-50.50000130234145
 31
0.0
  0
LINE
  5
A5C2
330
A07D
100
AcDbEntity
  8
AM_5
100
AcDbLine
 10
-300.0000000000002
 20
-14.16149902343903
 30
0.0
 11
-300.0000000000001
 21
-50.50000130234205
 31
0.0
  0
LINE
  5
A5C3
330
A07D
100
AcDbEntity
  8
AM_5
100
AcDbLine
 10
-2.500000000000171
 20
-50.00000130234145
 30
0.0
 11
-297.5000000000001
 21
-50.00000130234205
 31
0.0
  0
INSERT
  5
A5C4
330
A07D
100
AcDbEntity
  8
AM_5
100
AcDbBlockReference
  2
_OPEN30
 10
-0.000000000000172
 20
-50.00000130234145
 30
0.0
 41
2.5
 42
2.5
 43
2.5
 50
0.0000000000001018
  0
INSERT
  5
A5C5
330
A07D
100
AcDbEntity
  8
AM_5
100
AcDbBlockReference
  2
_OPEN30
 10
-300.0000000000001
 20
-50.00000130234205
 30
0.0
 41
2.5
 42
2.5
 43
2.5
 50
180.0000000000001
  0
MTEXT
  5
A5C6
330
A07D
100
AcDbEntity
  8
AM_5
 62
     2
100
AcDbMText
 10
-150.0000000000001
 20
-47.65000130234175
 30
0.0
 40
3.2
 41
0.0
 71
     5
 72
     1
  1
300
  7
ASAMI
  0
POINT
  5
A5C7
330
A07D
100
AcDbEntity
  8
DEFPOINTS
 62
     0
100
AcDbPoint
 10
-0.00000000000027
 20
0.0000000000001705
 30
0.0
  0
POINT
  5
A5C8
330
A07D
100
AcDbEntity
  8
DEFPOINTS
 62
     0
100
AcDbPoint
 10
-300.0000000000003
 20
-13.66149902343842
 30
0.0
  0
POINT
  5
A5C9
330
A07D
100
AcDbEntity
  8
DEFPOINTS
 62
     0
100
AcDbPoint
 10
-300.0000000000003
 20
-50.00000130234145
 30
0.0
  0
ENDBLK
  5
A088
330
A07D
100
AcDbEntity
  8
0
100
AcDbBlockEnd
  0
BLOCK
  5
A11C
330
A112
100
AcDbEntity
  8
0
100
AcDbBlockBegin
  2
*D10
 70
     1
 10
0.0
 20
0.0
 30
0.0
  3
*D10
  1

  0
LINE
  5
A5CA
330
A112
100
AcDbEntity
  8
AM_5
100
AcDbLine
 10
-297.5000000000004
 20
16.00000381469588
 30
0.0
 11
-320.4874912316558
 21
16.00000381469583
 31
0.0
  0
LINE
  5
A5CB
330
A112
100
AcDbEntity
  8
AM_5
100
AcDbLine
 10
-297.5000000000002
 20
-16.00000000000108
 30
0.0
 11
-320.4874912316558
 21
-16.00000000000113
 31
0.0
  0
LINE
  5
A5CC
330
A112
100
AcDbEntity
  8
AM_5
100
AcDbLine
 10
-319.9874912316558
 20
13.50000381469583
 30
0.0
 11
-319.9874912316558
 21
-13.50000000000113
 31
0.0
  0
INSERT
  5
A5CD
330
A112
100
AcDbEntity
  8
AM_5
100
AcDbBlockReference
  2
_OPEN30
 10
-319.9874912316559
 20
16.00000381469583
 30
0.0
 41
2.5
 42
2.5
 43
2.5
 50
90.0000000000001
  0
INSERT
  5
A5CE
330
A112
100
AcDbEntity
  8
AM_5
100
AcDbBlockReference
  2
_OPEN30
 10
-319.9874912316557
 20
-16.00000000000113
 30
0.0
 41
2.5
 42
2.5
 43
2.5
 50
270.0000000000001
  0
MTEXT
  5
A5CF
330
A112
100
AcDbEntity
  8
AM_5
 62
     2
100
AcDbMText
 10
-322.3374912316558
 20
0.0000019073473581
 30
0.0
 40
3.2
 41
0.0
 71
     5
 72
     1
  1
%%c32
  7
ASAMI
 11
-0.000000000000002
 21
1.0
 31
0.0
  0
POINT
  5
A5D0
330
A112
100
AcDbEntity
  8
DEFPOINTS
 62
     0
100
AcDbPoint
 10
-297.0000000000003
 20
16.00000381469654
 30
0.0
  0
POINT
  5
A5D1
330
A112
100
AcDbEntity
  8
DEFPOINTS
 62
     0
100
AcDbPoint
 10
-297.0000000000002
 20
-16.00000000000042
 30
0.0
  0
POINT
  5
A5D2
330
A112
100
AcDbEntity
  8
DEFPOINTS
 62
     0
100
AcDbPoint
 10
-319.9874912316558
 20
-16.00000000000042
 30
0.0
  0
ENDBLK
  5
A11D
330
A112
100
AcDbEntity
  8
0
100
AcDbBlockEnd
  0
BLOCK
  5
A1A8
330
A19E
100
AcDbEntity
  8
0
100
AcDbBlockBegin
  2
*D11
 70
     1
 10
0.0
 20
0.0
 30
0.0
  3
*D11
  1

  0
LINE
  5
A5D3
330
A19E
100
AcDbEntity
  8
AM_5
100
AcDbLine
 10
-12.00000054639345
 20
12.50000000000014
 30
0.0
 11
17.6844797597597
 21
12.5000000000002
 31
0.0
  0
LINE
  5
A5D4
330
A19E
100
AcDbEntity
  8
AM_5
100
AcDbLine
 10
-12.00000054639339
 20
-12.49999999999987
 30
0.0
 11
17.68447975975975
 21
-12.49999999999981
 31
0.0
  0
LINE
  5
A5D5
330
A19E
100
AcDbEntity
  8
AM_5
100
AcDbLine
 10
17.1844797597597
 20
10.00000000000019
 30
0.0
 11
17.18447975975974
 21
-9.999999999999815
 31
0.0
  0
INSERT
  5
A5D6
330
A19E
100
AcDbEntity
  8
AM_5
100
AcDbBlockReference
  2
_OPEN30
 10
17.1844797597597
 20
12.50000000000019
 30
0.0
 41
2.5
 42
2.5
 43
2.5
 50
90.0000000000001
  0
INSERT
  5
A5D7
330
A19E
100
AcDbEntity
  8
AM_5
100
AcDbBlockReference
  2
_OPEN30
 10
17.18447975975975
 20
-12.49999999999981
 30
0.0
 41
2.5
 42
2.5
 43
2.5
 50
270.0000000000001
  0
MTEXT
  5
A5D8
330
A19E
100
AcDbEntity
  8
AM_5
 62
     2
100
AcDbMText
 10
14.83447975975972
 20
0.0000000000001873
 30
0.0
 40
3.2
 41
0.0
 71
     5
 72
     1
  1
%%c25
  7
ASAMI
 11
-0.000000000000002
 21
1.0
 31
0.0
  0
POINT
  5
A5D9
330
A19E
100
AcDbEntity
  8
DEFPOINTS
 62
     0
100
AcDbPoint
 10
-12.50000054639342
 20
12.50000000000017
 30
0.0
  0
POINT
  5
A5DA
330
A19E
100
AcDbEntity
  8
DEFPOINTS
 62
     0
100
AcDbPoint
 10
-12.50000054639342
 20
-12.49999999999984
 30
0.0
  0
POINT
  5
A5DB
330
A19E
100
AcDbEntity
  8
DEFPOINTS
 62
     0
100
AcDbPoint
 10
17.18447975975972
 20
-12.49999999999985
 30
0.0
  0
ENDBLK
  5
A1A9
330
A19E
100
AcDbEntity
  8
0
100
AcDbBlockEnd
  0
ENDSEC
  0
SECTION
  2
ENTITIES
  0
TEXT
  5
388D
330
1F
100
AcDbEntity
  8
AM_6
100
AcDbText
 10
-174.5238095238096
 20
-72.50000130234171
 30
0.0
 40
5.0
  1
WBMR2250ML
 50
359.9999999999998
 51
359.9999999999998
 72
     4
 11
-150.0000000000001
 21
-70.00000130234176
 31
0.0
100
AcDbText
  0
SPLINE
  5
9AED
330
1F
100
AcDbEntity
  8
AM_0
100
AcDbSpline
210
0.0
220
0.0
230
1.0
 70
     8
 71
     3
 72
    11
 73
     7
 74
     5
 42
0.0000000001
 43
0.0000000001
 44
0.0000000001
 40
0.0
 40
0.0
 40
0.0
 40
0.0
 40
0.0619656624564895
 40
0.122384155224936
 40
0.1793102371899051
 40
0.2269677617344051
 40
0.2269677617344051
 40
0.2269677617344051
 40
0.2269677617344051
 10
-22.24176025391027
 20
9.086975097656107
 30
0.0
 10
-22.23747033781628
 20
9.066769257940485
 30
0.0
 10
-22.22899761701683
 20
9.026862081511234
 30
0.0
 10
-22.21723197522678
 20
8.968272882158768
 30
0.0
 10
-22.20693152616512
 20
8.914201331185804
 30
0.0
 10
-22.20331030453386
 20
8.879514760216331
 30
0.0
 10
-22.20166015625026
 20
8.863708496094119
 30
0.0
 11
-22.24176025391027
 21
9.086975097656107
 31
0.0
 11
-22.22900390625027
 21
9.02633666992213
 31
0.0
 11
-22.21710205078026
 21
8.967102050781107
 31
0.0
 11
-22.20721435547027
 21
8.911041259765113
 31
0.0
 11
-22.20166015625026
 21
8.863708496094119
 31
0.0
  0
SPLINE
  5
9AEE
330
1F
100
AcDbEntity
  8
AM_0
100
AcDbSpline
210
0.0
220
0.0
230
1.0
 70
     8
 71
     3
 72
    11
 73
     7
 74
     5
 42
0.0000000001
 43
0.0000000001
 44
0.0000000001
 40
0.0
 40
0.0
 40
0.0
 40
0.0
 40
0.147299333781089
 40
0.2946123080564713
 40
0.4419516335123909
 40
0.5893072913652185
 40
0.5893072913652185
 40
0.5893072913652185
 40
0.5893072913652185
 10
-22.33978271485027
 20
10.88076782226511
 30
0.0
 10
-22.33394904455471
 20
10.8320151277154
 30
0.0
 10
-22.32228116374292
 20
10.73450522392584
 30
0.0
 10
-22.30248390483437
 20
10.58851963903954
 30
0.0
 10
-22.28124982169333
 20
10.44271750889899
 30
0.0
 10
-22.26562522921001
 20
10.34573510189006
 30
0.0
 10
-22.25781250000026
 20
10.29724121093713
 30
0.0
 11
-22.33978271485027
 21
10.88076782226511
 31
0.0
 11
-22.32189941407027
 21
10.73455810546912
 31
0.0
 11
-22.30224609375027
 21
10.58856201171912
 31
0.0
 11
-22.28088378907027
 21
10.44277954101511
 31
0.0
 11
-22.25781250000026
 21
10.29724121093713
 31
0.0
  0
SPLINE
  5
9AEF
330
1F
100
AcDbEntity
  8
AM_0
100
AcDbSpline
210
0.0
220
0.0
230
1.0
 70
     8
 71
     3
 72
    11
 73
     7
 74
     5
 42
0.0000000001
 43
0.0000000001
 44
0.0000000001
 40
0.0
 40
0.0
 40
0.0
 40
0.0
 40
0.1659909762976811
 40
0.3312126933229378
 40
0.4952478637359103
 40
0.6577893437332686
 40
0.6577893437332686
 40
0.6577893437332686
 40
0.6577893437332686
 10
-22.25781250000026
 20
10.29724121093713
 30
0.0
 10
-22.24849187023955
 20
10.2426988823888
 30
0.0
 10
-22.229893805722
 20
10.13386699320106
 30
0.0
 10
-22.19740757687695
 20
9.971994609808822
 30
0.0
 10
-22.16223293173108
 20
9.811863164140717
 30
0.0
 10
-22.13590599560808
 20
9.706230678631591
 30
0.0
 10
-22.12280273438027
 20
9.653656005859119
 30
0.0
 11
-22.25781250000026
 21
10.29724121093713
 31
0.0
 11
-22.22906494141027
 21
10.13375854492213
 31
0.0
 11
-22.19683837891027
 21
9.971710205078096
 31
0.0
 11
-22.16137695313027
 21
9.811553955078096
 31
0.0
 11
-22.12280273438027
 21
9.653656005859119
 31
0.0
  0
SPLINE
  5
9AF0
330
1F
100
AcDbEntity
  8
AM_0
100
AcDbSpline
210
0.0
220
0.0
230
1.0
 70
     8
 71
     3
 72
    11
 73
     7
 74
     5
 42
0.0000000001
 43
0.0000000001
 44
0.0000000001
 40
0.0
 40
0.0
 40
0.0
 40
0.0
 40
4.283658135680837
 40
8.633539386402691
 40
12.9535162811148
 40
17.14354773920823
 40
17.14354773920823
 40
17.14354773920823
 40
17.14354773920823
 10
-22.12280273438027
 20
9.653656005859119
 30
0.0
 10
-21.63703902325735
 20
8.29663516895536
 30
0.0
 10
-20.65800194802207
 20
5.561614662535877
 30
0.0
 10
-17.65324695168505
 20
2.330855065216781
 30
0.0
 10
-13.86814815715047
 20
0.0853080902497125
 30
0.0
 10
-11.0110259442006
 20
-0.1719906210004858
 30
0.0
 10
-9.604278564460273
 20
-0.2986755371098582
 30
0.0
 11
-22.12280273438027
 21
9.653656005859119
 31
0.0
 11
-20.41351318360027
 21
5.72579956054713
 31
0.0
 11
-17.51019287110027
 21
2.486633300781136
 31
0.0
 11
-13.73910522461027
 21
0.3792419433591192
 31
0.0
 11
-9.604278564460273
 21
-0.2986755371098582
 31
0.0
  0
SPLINE
  5
9AF1
330
1F
100
AcDbEntity
  8
AM_0
100
AcDbSpline
210
0.0
220
0.0
230
1.0
 70
     8
 71
     3
 72
    11
 73
     7
 74
     5
 42
0.0000000001
 43
0.0000000001
 44
0.0000000001
 40
0.0
 40
0.0
 40
0.0
 40
0.0
 40
0.7431433320164582
 40
1.496486351096015
 40
2.265257501262897
 40
3.050088637590813
 40
3.050088637590813
 40
3.050088637590813
 40
3.050088637590813
 10
-9.53158569336027
 20
3.066314697265141
 30
0.0
 10
-9.752467920726488
 20
2.95053332327644
 30
0.0
 10
-10.19726399735456
 20
2.717381468956369
 30
0.0
 10
-10.95755199388975
 20
2.612805422719046
 30
0.0
 10
-11.7342133652342
 20
2.691207881551587
 30
0.0
 10
-12.20683402679917
 20
2.910940242999103
 30
0.0
 10
-12.44558715821027
 20
3.02194213867213
 30
0.0
 11
-9.53158569336027
 21
3.066314697265141
 31
0.0
 11
-10.20840454102027
 21
2.759429931640141
 31
0.0
 11
-10.95275878907027
 21
2.643402099609119
 31
0.0
 11
-11.71646118164026
 21
2.731536865234119
 31
0.0
 11
-12.44558715821027
 21
3.02194213867213
 31
0.0
  0
SPLINE
  5
9AF2
330
1F
100
AcDbEntity
  8
AM_0
100
AcDbSpline
210
0.0
220
0.0
230
1.0
 70
     8
 71
     3
 72
    11
 73
     7
 74
     5
 42
0.0000000001
 43
0.0000000001
 44
0.0000000001
 40
0.0
 40
0.0
 40
0.0
 40
0.0
 40
4.155701359053669
 40
8.354951978505379
 40
12.63594896649784
 40
16.97837530296857
 40
16.97837530296857
 40
16.97837530296857
 40
16.97837530296857
 10
-0.1621704101602717
 20
1.897186279297187
 30
0.0
 10
-0.5127731530277309
 20
3.253845950724887
 30
0.0
 10
-1.217652745447947
 20
5.981382274108449
 30
0.0
 10
-4.034801534010997
 20
9.277219399042103
 30
0.0
 10
-7.826022161746814
 20
11.50500135327096
 30
0.0
 10
-10.72400547644218
 20
11.73989922549832
 30
0.0
 10
-12.18331909180029
 20
11.85818481445315
 30
0.0
 11
-0.1621704101602717
 21
1.897186279297187
 31
0.0
 11
-1.500427246100272
 21
5.831512451172159
 31
0.0
 11
-4.167785644530269
 21
9.074798583984147
 31
0.0
 11
-7.893707275390269
 21
11.18298339843713
 31
0.0
 11
-12.18331909180029
 21
11.85818481445315
 31
0.0
  0
SPLINE
  5
9AF3
330
1F
100
AcDbEntity
  8
AM_0
100
AcDbSpline
210
0.0
220
0.0
230
1.0
 70
     8
 71
     3
 72
    11
 73
     7
 74
     5
 42
0.0000000001
 43
0.0000000001
 44
0.0000000001
 40
0.0
 40
0.0
 40
0.0
 40
0.0
 40
1.552342676135626
 40
3.096489732163461
 40
4.616262946419787
 40
6.121820512318626
 40
6.121820512318626
 40
6.121820512318626
 40
6.121820512318626
 10
-12.52780151367026
 20
8.488464355469119
 30
0.0
 10
-12.03678024794531
 20
8.684076826489501
 30
0.0
 10
-11.05733007179208
 20
9.074269029093624
 30
0.0
 10
-9.476844190976432
 20
8.689396503666536
 30
0.0
 10
-8.268109808038818
 20
7.610375081440137
 30
0.0
 10
-8.078758415156377
 20
6.59477127484925
 30
0.0
 10
-7.984527587890269
 20
6.089355468750142
 30
0.0
 11
-12.52780151367026
 21
8.488464355469119
 31
0.0
 11
-11.03445434571027
 21
8.912353515625142
 31
0.0
 11
-9.529083251960273
 21
8.56848144531213
 31
0.0
 11
-8.418518066410271
 21
7.531005859375142
 31
0.0
 11
-7.984527587890269
 21
6.089355468750142
 31
0.0
  0
SPLINE
  5
9AF4
330
1F
100
AcDbEntity
  8
AM_0
100
AcDbSpline
210
0.0
220
0.0
230
1.0
 70
     8
 71
     3
 72
    11
 73
     7
 74
     5
 42
0.0000000001
 43
0.0000000001
 44
0.0000000001
 40
0.0
 40
0.0
 40
0.0
 40
0.0
 40
0.1470086570079709
 40
0.293945240297456
 40
0.4408625857024206
 40
0.5877499282921541
 40
0.5877499282921541
 40
0.5877499282921541
 40
0.5877499282921541
 10
-0.00000000000027
 20
0.6690979003901703
 30
0.0
 10
-0.0046835822821241
 20
0.7178770377212294
 30
0.0
 10
-0.0140484506328219
 20
0.8154113975072881
 30
0.0
 10
-0.0302139866735965
 20
0.961477875109681
 30
0.0
 10
-0.0478258592514511
 20
1.107336494844275
 30
0.0
 10
-0.0610066921184466
 20
1.204381581587104
 30
0.0
 10
-0.0675964355502714
 20
1.252899169922187
 30
0.0
 11
-0.00000000000027
 21
0.6690979003901703
 31
0.0
 11
-0.0144042968802722
 21
0.8153991699221876
 31
0.0
 11
-0.0304565429702706
 21
0.9614562988281534
 31
0.0
 11
-0.0481872558602703
 21
1.107299804687187
 31
0.0
 11
-0.0675964355502714
 21
1.252899169922187
 31
0.0
  0
SPLINE
  5
9AF5
330
1F
100
AcDbEntity
  8
AM_0
100
AcDbSpline
210
0.0
220
0.0
230
1.0
 70
     8
 71
     3
 72
    11
 73
     7
 74
     5
 42
0.0000000001
 43
0.0000000001
 44
0.0000000001
 40
0.0
 40
0.0
 40
0.0
 40
0.0
 40
0.1651932487075755
 40
0.3290529136019277
 40
0.4911887279276234
 40
0.6511973491402473
 40
0.6511973491402473
 40
0.6511973491402473
 40
0.6511973491402473
 10
-0.0675964355502714
 20
1.252899169922187
 30
0.0
 10
-0.0752460734175184
 20
1.307429707175451
 30
0.0
 10
-0.0904835946110939
 20
1.416050563680477
 30
0.0
 10
-0.1139539819240491
 20
1.578089677893169
 30
0.0
 10
-0.1377631077061973
 20
1.738332492589887
 30
0.0
 10
-0.1540705365651256
 20
1.844468630763085
 30
0.0
 10
-0.1621704101602717
 20
1.897186279297187
 30
0.0
 11
-0.0675964355502714
 21
1.252899169922187
 31
0.0
 11
-0.0906677246102703
 21
1.416473388672187
 31
0.0
 11
-0.1141357421902711
 21
1.578643798828153
 31
0.0
 11
-0.1380004882802694
 21
1.73901367187517
 31
0.0
 11
-0.1621704101602717
 21
1.897186279297187
 31
0.0
  0
SPLINE
  5
9AF6
330
1F
100
AcDbEntity
  8
AM_0
100
AcDbSpline
210
0.0
220
0.0
230
1.0
 70
     8
 71
     3
 72
    11
 73
     7
 74
     5
 42
0.0000000001
 43
0.0000000001
 44
0.0000000001
 40
0.0
 40
0.0
 40
0.0
 40
0.0
 40
0.144240437945665
 40
0.2896203538752608
 40
0.4359551990756301
 40
0.582903628099119
 40
0.582903628099119
 40
0.582903628099119
 40
0.582903628099119
 10
-14.07489013672027
 20
5.465423583984119
 30
0.0
 10
-14.07998179275974
 20
5.513244796968495
 30
0.0
 10
-14.0902053281633
 20
5.609265003399761
 30
0.0
 10
-14.09623613857712
 20
5.754538549188138
 30
0.0
 10
-14.09583138655996
 20
5.900845292383722
 30
0.0
 10
-14.08903675006528
 20
5.998394887982529
 30
0.0
 10
-14.08563232422027
 20
6.047271728515141
 30
0.0
 11
-14.07489013672027
 21
5.465423583984119
 31
0.0
 11
-14.08862304688027
 21
5.60900878906213
 31
0.0
 11
-14.09515380860027
 21
5.754241943359119
 31
0.0
 11
-14.09420776367027
 21
5.900573730469119
 31
0.0
 11
-14.08563232422027
 21
6.047271728515141
 31
0.0
  0
SPLINE
  5
9AF7
330
1F
100
AcDbEntity
  8
AM_0
100
AcDbSpline
210
0.0
220
0.0
230
1.0
 70
     8
 71
     3
 72
    11
 73
     7
 74
     5
 42
0.0000000001
 43
0.0000000001
 44
0.0000000001
 40
0.0
 40
0.0
 40
0.0
 40
0.0
 40
0.3117961646433335
 40
0.6232954992601416
 40
0.9347837429918886
 40
1.246657988929548
 40
1.246657988929548
 40
1.246657988929548
 40
1.246657988929548
 10
-21.5591430664103
 20
11.69451904296912
 30
0.0
 10
-21.66364045950956
 20
11.68077788876517
 30
0.0
 10
-21.87253576416377
 20
11.65330866193952
 30
0.0
 10
-22.13342227202932
 20
11.46411108989726
 30
0.0
 10
-22.31225374545278
 20
11.19578166819221
 30
0.0
 10
-22.33060260435482
 20
10.98581577634774
 30
0.0
 10
-22.33978271485027
 20
10.88076782226511
 30
0.0
 11
-21.5591430664103
 21
11.69451904296912
 31
0.0
 11
-21.8638916015703
 21
11.62860107421912
 31
0.0
 11
-22.1197509765703
 21
11.45092773437511
 31
0.0
 11
-22.28698730469027
 21
11.18814086914011
 31
0.0
 11
-22.33978271485027
 21
10.88076782226511
 31
0.0
  0
SPLINE
  5
9AF8
330
1F
100
AcDbEntity
  8
AM_0
100
AcDbSpline
210
0.0
220
0.0
230
1.0
 70
     8
 71
     3
 72
    11
 73
     7
 74
     5
 42
0.0000000001
 43
0.0000000001
 44
0.0000000001
 40
0.0
 40
0.0
 40
0.0
 40
0.0
 40
0.0013458909270104
 40
0.0023436804058116
 40
0.0032286901692589
 40
0.0041324433983263
 40
0.0041324433983263
 40
0.0041324433983263
 40
0.0041324433983263
 10
-22.25146484375029
 20
11.54385375976511
 30
0.0
 10
-22.25101041396857
 20
11.54385824793111
 30
0.0
 10
-22.25021908819774
 20
11.54386606344312
 30
0.0
 10
-22.24921464862681
 20
11.54343813227098
 30
0.0
 10
-22.24848993574569
 20
11.54276470400556
 30
0.0
 10
-22.24843888086744
 20
11.54215011439035
 30
0.0
 10
-22.24841308594029
 20
11.54183959960912
 30
0.0
 11
-22.25146484375029
 21
11.54385375976511
 31
0.0
 11
-22.2501220703203
 21
11.5437622070311
 31
0.0
 11
-22.24920654297029
 21
11.54336547851511
 31
0.0
 11
-22.24859619141029
 21
11.54272460937511
 31
0.0
 11
-22.24841308594029
 21
11.54183959960912
 31
0.0
  0
SPLINE
  5
9AF9
330
1F
100
AcDbEntity
  8
AM_0
100
AcDbSpline
210
0.0
220
0.0
230
1.0
 70
     8
 71
     3
 72
    11
 73
     7
 74
     5
 42
0.0000000001
 43
0.0000000001
 44
0.0000000001
 40
0.0
 40
0.0
 40
0.0
 40
0.0
 40
0.6069681137835831
 40
1.213001345812892
 40
1.817849755128126
 40
2.421355346401735
 40
2.421355346401735
 40
2.421355346401735
 40
2.421355346401735
 10
-14.08563232422027
 20
6.047271728515141
 30
0.0
 10
-14.0573057868308
 20
6.248323898276753
 30
0.0
 10
-14.00069634195987
 20
6.650118567487977
 30
0.0
 10
-13.76929706133889
 20
7.215506644659237
 30
0.0
 10
-13.44680939563583
 20
7.733121333960408
 30
0.0
 10
-13.15454516251483
 20
8.012380868876231
 30
0.0
 10
-13.00857543946027
 20
8.151855468750142
 30
0.0
 11
-14.08563232422027
 21
6.047271728515141
 31
0.0
 11
-13.97616577149027
 21
6.644287109375142
 31
0.0
 11
-13.75384521485027
 21
7.208068847656164
 31
0.0
 11
-13.42715454102027
 21
7.717102050781136
 31
0.0
 11
-13.00857543946027
 21
8.151855468750142
 31
0.0
  0
SPLINE
  5
9AFA
330
1F
100
AcDbEntity
  8
AM_0
100
AcDbSpline
210
0.0
220
0.0
230
1.0
 70
     8
 71
     3
 72
    11
 73
     7
 74
     5
 42
0.0000000001
 43
0.0000000001
 44
0.0000000001
 40
0.0
 40
0.0
 40
0.0
 40
0.0
 40
0.1262881285266341
 40
0.2530642528965638
 40
0.3799881774273508
 40
0.5068280911557175
 40
0.5068280911557175
 40
0.5068280911557175
 40
0.5068280911557175
 10
-13.00857543946027
 20
8.151855468750142
 30
0.0
 10
-12.97621651003491
 20
8.178791629377993
 30
0.0
 10
-12.91137361153687
 20
8.232768035907382
 30
0.0
 10
-12.80977903877966
 20
8.308492564331324
 30
0.0
 10
-12.70544590227106
 20
8.380712244142657
 30
0.0
 10
-12.63351716138486
 20
8.425248839877923
 30
0.0
 10
-12.59756469727027
 20
8.447509765625142
 30
0.0
 11
-13.00857543946027
 21
8.151855468750142
 31
0.0
 11
-12.91079711914027
 21
8.231781005859119
 31
0.0
 11
-12.80938720703026
 21
8.307861328125142
 31
0.0
 11
-12.70483398438027
 21
8.379821777344119
 31
0.0
 11
-12.59756469727027
 21
8.447509765625142
 31
0.0
  0
SPLINE
  5
9AFB
330
1F
100
AcDbEntity
  8
AM_0
100
AcDbSpline
210
0.0
220
0.0
230
1.0
 70
     8
 71
     3
 72
    11
 73
     7
 74
     5
 42
0.0000000001
 43
0.0000000001
 44
0.0000000001
 40
0.0
 40
0.0
 40
0.0
 40
0.0
 40
0.7614508732454063
 40
1.526457194678811
 40
2.28781221753893
 40
3.040084650363548
 40
3.040084650363548
 40
3.040084650363548
 40
3.040084650363548
 10
-12.44558715821027
 20
3.02194213867213
 30
0.0
 10
-12.65912128992099
 20
3.161657376769531
 30
0.0
 10
-13.08718660984121
 20
3.441740226357786
 30
0.0
 10
-13.57578084336268
 20
4.039529323733951
 30
0.0
 10
-13.93314950759398
 20
4.719697205105833
 30
0.0
 10
-14.02783264382588
 20
5.217844509504658
 30
0.0
 10
-14.07489013672027
 20
5.465423583984119
 30
0.0
 11
-12.44558715821027
 21
3.02194213867213
 31
0.0
 11
-13.06079101563027
 21
3.470642089844119
 31
0.0
 11
-13.55480957032027
 21
4.054748535156164
 31
0.0
 11
-13.89846801758027
 21
4.734130859375142
 31
0.0
 11
-14.07489013672027
 21
5.465423583984119
 31
0.0
  0
SPLINE
  5
9AFC
330
1F
100
AcDbEntity
  8
AM_0
100
AcDbSpline
210
0.0
220
0.0
230
1.0
 70
     8
 71
     3
 72
    11
 73
     7
 74
     5
 42
0.0000000001
 43
0.0000000001
 44
0.0000000001
 40
0.0
 40
0.0
 40
0.0
 40
0.0
 40
0.1438000521907511
 40
0.2891944548608429
 40
0.4357475037445188
 40
0.582866493579247
 40
0.582866493579247
 40
0.582866493579247
 40
0.582866493579247
 10
-7.984527587890269
 20
6.089355468750142
 30
0.0
 10
-7.983192472607045
 20
6.041436059622586
 30
0.0
 10
-7.980507439252567
 20
5.945065945782058
 30
0.0
 10
-7.982458929812885
 20
5.799797576739965
 30
0.0
 10
-7.98830316356514
 20
5.653529305634922
 30
0.0
 10
-7.996075716590483
 20
5.555938831726947
 30
0.0
 10
-7.999969482420269
 20
5.50704956054713
 30
0.0
 11
-7.984527587890269
 21
6.089355468750142
 31
0.0
 11
-7.981506347660271
 21
5.945587158203153
 31
0.0
 11
-7.98309326172027
 21
5.800201416015141
 31
0.0
 11
-7.98925781250027
 21
5.65377807617213
 31
0.0
 11
-7.999969482420269
 21
5.50704956054713
 31
0.0
  0
SPLINE
  5
9AFD
330
1F
100
AcDbEntity
  8
AM_0
100
AcDbSpline
210
0.0
220
0.0
230
1.0
 70
     8
 71
     3
 72
    11
 73
     7
 74
     5
 42
0.0000000001
 43
0.0000000001
 44
0.0000000001
 40
0.0
 40
0.0
 40
0.0
 40
0.0
 40
0.6073254235789419
 40
1.213622427730074
 40
1.818089998687151
 40
2.420349083450292
 40
2.420349083450292
 40
2.420349083450292
 40
2.420349083450292
 10
-7.999969482420269
 20
5.50704956054713
 30
0.0
 10
-8.028978283351166
 20
5.305988057878956
 30
0.0
 10
-8.086946762924815
 20
4.904205521667564
 30
0.0
 10
-8.31879854703223
 20
4.339029582579426
 30
0.0
 10
-8.640570782658162
 20
3.821592358401151
 30
0.0
 10
-8.931718786816624
 20
3.541983746410954
 30
0.0
 10
-9.077026367190271
 20
3.402435302734119
 30
0.0
 11
-7.999969482420269
 21
5.50704956054713
 31
0.0
 11
-8.111236572270271
 21
4.910003662109119
 31
0.0
 11
-8.334197998050271
 21
4.346191406250142
 31
0.0
 11
-8.660278320320273
 21
3.837219238281164
 31
0.0
 11
-9.077026367190271
 21
3.402435302734119
 31
0.0
  0
SPLINE
  5
9AFE
330
1F
100
AcDbEntity
  8
AM_0
100
AcDbSpline
210
0.0
220
0.0
230
1.0
 70
     8
 71
     3
 72
    11
 73
     7
 74
     5
 42
0.0000000001
 43
0.0000000001
 44
0.0000000001
 40
0.0
 40
0.0
 40
0.0
 40
0.0
 40
0.144816198272406
 40
0.2876539337760375
 40
0.4280930198951973
 40
0.5658160943689642
 40
0.5658160943689642
 40
0.5658160943689642
 40
0.5658160943689642
 10
-9.077026367190271
 20
3.402435302734119
 30
0.0
 10
-9.113993507669249
 20
3.371383890468762
 30
0.0
 10
-9.187422747671993
 20
3.309705286873399
 30
0.0
 10
-9.30082006920827
 20
3.223016910597601
 30
0.0
 10
-9.414997843309251
 20
3.141350069873367
 30
0.0
 10
-9.492976875827382
 20
3.091163144236894
 30
0.0
 10
-9.53158569336027
 20
3.066314697265141
 30
0.0
 11
-9.077026367190271
 21
3.402435302734119
 31
0.0
 11
-9.188629150390269
 21
3.310150146484119
 31
0.0
 11
-9.301910400390269
 21
3.223144531250142
 31
0.0
 11
-9.416381835940271
 21
3.141784667969119
 31
0.0
 11
-9.53158569336027
 21
3.066314697265141
 31
0.0
  0
SPLINE
  5
9AFF
330
1F
100
AcDbEntity
  8
AM_0
100
AcDbSpline
210
0.0
220
0.0
230
1.0
 70
     8
 71
     3
 72
    11
 73
     7
 74
     5
 42
0.0000000001
 43
0.0000000001
 44
0.0000000001
 40
0.0
 40
0.0
 40
0.0
 40
0.0
 40
0.0048221636270376
 40
0.0086377152896476
 40
0.011273734584299
 40
0.0128653367358421
 40
0.0128653367358421
 40
0.0128653367358421
 40
0.0128653367358421
 10
-22.20166015625026
 20
8.863708496094119
 30
0.0
 10
-22.20163472342024
 20
8.8620865026094
 30
0.0
 10
-22.20158916678597
 20
8.85918110183783
 30
0.0
 10
-22.2021048291004
 20
8.8555741563134
 30
0.0
 10
-22.20265340666804
 20
8.852664919976163
 30
0.0
 10
-22.20397153025424
 20
8.852019215803538
 30
0.0
 10
-22.20446777344027
 20
8.85177612304713
 30
0.0
 11
-22.20166015625026
 21
8.863708496094119
 31
0.0
 11
-22.20172119141027
 21
8.858886718750113
 31
0.0
 11
-22.20220947266027
 21
8.85510253906213
 31
0.0
 11
-22.20312500000027
 21
8.852630615234119
 31
0.0
 11
-22.20446777344027
 21
8.85177612304713
 31
0.0
  0
SPLINE
  5
9B00
330
1F
100
AcDbEntity
  8
AM_0
100
AcDbSpline
210
0.0
220
0.0
230
1.0
 70
     8
 71
     3
 72
    11
 73
     7
 74
     5
 42
0.0000000001
 43
0.0000000001
 44
0.0000000001
 40
0.0
 40
0.0
 40
0.0
 40
0.0
 40
0.0061510145173353
 40
0.0177996184619219
 40
0.0345405337784388
 40
0.0555883063111571
 40
0.0555883063111571
 40
0.0555883063111571
 40
0.0555883063111571
 10
-22.24841308594029
 20
11.54183959960912
 30
0.0
 10
-22.24914686545892
 20
11.53991111056961
 30
0.0
 10
-22.25127025428038
 20
11.53433050772524
 30
0.0
 10
-22.2592917708939
 20
11.52577156475857
 30
0.0
 10
-22.27022961798032
 20
11.51357470943138
 30
0.0
 10
-22.27895407537821
 20
11.50446411986576
 30
0.0
 10
-22.2838134765703
 20
11.49938964843713
 30
0.0
 11
-22.24841308594029
 21
11.54183959960912
 31
0.0
 11
-22.25085449219029
 21
11.5361938476561
 31
0.0
 11
-22.2580566406303
 21
11.52703857421911
 31
0.0
 11
-22.26934814453029
 21
11.51467895507809
 31
0.0
 11
-22.2838134765703
 21
11.49938964843713
 31
0.0
  0
SPLINE
  5
9B01
330
1F
100
AcDbEntity
  8
AM_0
100
AcDbSpline
210
0.0
220
0.0
230
1.0
 70
     8
 71
     3
 72
    11
 73
     7
 74
     5
 42
0.0000000001
 43
0.0000000001
 44
0.0000000001
 40
0.0
 40
0.0
 40
0.0
 40
0.0
 40
0.3017783080915829
 40
0.6080144116222524
 40
0.9188231727241126
 40
1.231464582551357
 40
1.231464582551357
 40
1.231464582551357
 40
1.231464582551357
 10
-0.7668762207102731
 20
-0.1444091796878411
 30
0.0
 10
-0.6657549302972186
 20
-0.1305286376993861
 30
0.0
 10
-0.4620186104742664
 20
-0.1025625137474049
 30
0.0
 10
-0.2083550175396279
 20
0.0876834878505611
 30
0.0
 10
-0.0325713855592479
 20
0.3546276628421322
 30
0.0
 10
-0.010878384242288
 20
0.5640692681101013
 30
0.0
 10
-0.00000000000027
 20
0.6690979003901703
 30
0.0
 11
-0.7668762207102731
 21
-0.1444091796878411
 31
0.0
 11
-0.4723510742202706
 21
-0.0786437988278408
 31
0.0
 11
-0.2228393554702706
 21
0.0989074707031534
 31
0.0
 11
-0.0568237304702706
 21
0.361663818359176
 31
0.0
 11
-0.00000000000027
 21
0.6690979003901703
 31
0.0
  0
SPLINE
  5
9B02
330
1F
100
AcDbEntity
  8
AM_0
100
AcDbSpline
210
0.0
220
0.0
230
1.0
 70
     8
 71
     3
 72
    11
 73
     7
 74
     5
 42
0.0000000001
 43
0.0000000001
 44
0.0000000001
 40
0.0
 40
0.0
 40
0.0
 40
0.0
 40
0.9863515194844946
 40
2.229466679559289
 40
3.613055460328719
 40
4.857268870854261
 40
4.857268870854261
 40
4.857268870854261
 40
4.857268870854261
 10
-35.07482910157024
 20
-8.963836669921903
 30
0.0
 10
-35.17854161210355
 20
-8.642450627462354
 30
0.0
 10
-35.41296471778125
 20
-7.91601643155472
 30
0.0
 10
-36.50961820083448
 20
-7.248290687086012
 30
0.0
 10
-37.89938352474044
 20
-7.103232443128213
 30
0.0
 10
-38.59683379972616
 20
-7.685119893500787
 30
0.0
 10
-38.92706298828024
 20
-7.960632324218906
 30
0.0
 11
-35.07482910157024
 21
-8.963836669921903
 31
0.0
 11
-35.47253417969024
 21
-8.061218261718892
 31
0.0
 11
-36.49963378907024
 21
-7.360931396484915
 31
0.0
 11
-37.88122558594024
 21
-7.286621093749914
 31
0.0
 11
-38.92706298828024
 21
-7.960632324218906
 31
0.0
  0
SPLINE
  5
9B03
330
1F
100
AcDbEntity
  8
AM_0
100
AcDbSpline
210
0.0
220
0.0
230
1.0
 70
     8
 71
     3
 72
    11
 73
     7
 74
     5
 42
0.0000000001
 43
0.0000000001
 44
0.0000000001
 40
0.0
 40
0.0
 40
0.0
 40
0.0
 40
1.12524420021428
 40
2.244695347511131
 40
3.364133925280631
 40
4.489268114239166
 40
4.489268114239166
 40
4.489268114239166
 40
4.489268114239166
 10
-23.19537353516027
 20
-2.805419921874886
 30
0.0
 10
-22.82073637244334
 20
-2.744366638944356
 30
0.0
 10
-22.07339077759795
 20
-2.622574391431911
 30
0.0
 10
-21.13540791570079
 20
-1.946766233250524
 30
0.0
 10
-20.49404804847426
 20
-0.9766832869326947
 30
0.0
 10
-20.43731367852517
 20
-0.2196340511862469
 30
0.0
 10
-20.40887451172026
 20
0.1598510742191195
 30
0.0
 11
-23.19537353516027
 21
-2.805419921874886
 31
0.0
 11
-22.10198974610027
 21
-2.539550781249886
 31
0.0
 11
-21.18475341797027
 21
-1.897796630859858
 31
0.0
 11
-20.58746337891027
 21
-0.9510192871098581
 31
0.0
 11
-20.40887451172026
 21
0.1598510742191195
 31
0.0
  0
SPLINE
  5
9B04
330
1F
100
AcDbEntity
  8
AM_0
100
AcDbSpline
210
0.0
220
0.0
230
1.0
 70
     8
 71
     3
 72
    11
 73
     7
 74
     5
 42
0.0000000001
 43
0.0000000001
 44
0.0000000001
 40
0.0
 40
0.0
 40
0.0
 40
0.0
 40
1.284029208459924
 40
2.568024596958513
 40
3.852051080047874
 40
5.136084168194805
 40
5.136084168194805
 40
5.136084168194805
 40
5.136084168194805
 10
-20.40887451172026
 20
0.1598510742191195
 30
0.0
 10
-19.99866344651284
 20
0.0367343291976285
 30
0.0
 10
-19.1782521206204
 20
-0.2094959180814592
 30
0.0
 10
-17.91419420336176
 20
-0.4457520666121698
 30
0.0
 10
-16.63646577786182
 20
-0.5909398256032378
 30
0.0
 10
-15.77990501708647
 20
-0.5963126195533778
 30
0.0
 10
-15.35162353516027
 20
-0.5989990234378695
 30
0.0
 11
-20.40887451172026
 21
0.1598510742191195
 31
0.0
 11
-19.17266845703027
 21
-0.1873168945308805
 31
0.0
 11
-17.91192626953026
 21
-0.4305725097658808
 31
0.0
 11
-16.63528442383027
 21
-0.568084716796875
 31
0.0
 11
-15.35162353516027
 21
-0.5989990234378695
 31
0.0
  0
SPLINE
  5
9B05
330
1F
100
AcDbEntity
  8
AM_0
100
AcDbSpline
210
0.0
220
0.0
230
1.0
 70
     8
 71
     3
 72
    11
 73
     7
 74
     5
 42
0.0000000001
 43
0.0000000001
 44
0.0000000001
 40
0.0
 40
0.0
 40
0.0
 40
0.0
 40
0.6880841834719355
 40
1.425396116336429
 40
2.203702434106372
 40
3.005914685339898
 40
3.005914685339898
 40
3.005914685339898
 40
3.005914685339898
 10
-12.40002441407024
 20
-6.69375610351588
 30
0.0
 10
-12.47228491342817
 20
-6.474085848279083
 30
0.0
 10
-12.62197566003072
 20
-6.019029423192782
 30
0.0
 10
-13.1057783494376
 20
-5.447197419281311
 30
0.0
 10
-13.76505829735883
 20
-5.005618298131746
 30
0.0
 10
-14.29357384298781
 20
-4.934138264121972
 30
0.0
 10
-14.56182861328024
 20
-4.89785766601588
 30
0.0
 11
-12.40002441407024
 21
-6.69375610351588
 31
0.0
 11
-12.65484619141024
 21
-6.05459594726588
 31
0.0
 11
-13.12005615235024
 21
-5.48257446289088
 31
0.0
 11
-13.77740478516024
 21
-5.065856933593835
 31
0.0
 11
-14.56182861328024
 21
-4.89785766601588
 31
0.0
  0
SPLINE
  5
9B06
330
1F
100
AcDbEntity
  8
AM_0
100
AcDbSpline
210
0.0
220
0.0
230
1.0
 70
     8
 71
     3
 72
    11
 73
     7
 74
     5
 42
0.0000000001
 43
0.0000000001
 44
0.0000000001
 40
0.0
 40
0.0
 40
0.0
 40
0.0
 40
0.7798834531542194
 40
1.561020723695648
 40
2.345678632218799
 40
3.132882076950521
 40
3.132882076950521
 40
3.132882076950521
 40
3.132882076950521
 10
-31.21685791016027
 20
-1.834625244140909
 30
0.0
 10
-31.0501952223711
 20
-2.036237810645331
 30
0.0
 10
-30.7166019034547
 20
-2.439787075856673
 30
0.0
 10
-30.03998024439178
 20
-2.854131632628508
 30
0.0
 10
-29.28729079097022
 20
-3.109490815330297
 30
0.0
 10
-28.76039535302453
 20
-3.115635873861444
 30
0.0
 10
-28.49652099610024
 20
-3.11871337890588
 30
0.0
 11
-31.21685791016027
 21
-1.834625244140909
 31
0.0
 11
-30.68774414063027
 21
-2.407562255859915
 31
0.0
 11
-30.02874755860027
 21
-2.826965332030908
 31
0.0
 11
-29.28210449219027
 21
-3.068237304687897
 31
0.0
 11
-28.49652099610024
 21
-3.11871337890588
 31
0.0
  0
SPLINE
  5
9B07
330
1F
100
AcDbEntity
  8
AM_0
100
AcDbSpline
210
0.0
220
0.0
230
1.0
 70
     8
 71
     3
 72
    11
 73
     7
 74
     5
 42
0.0000000001
 43
0.0000000001
 44
0.0000000001
 40
0.0
 40
0.0
 40
0.0
 40
0.0
 40
0.5949079592424269
 40
1.121786580818555
 40
1.579486527562338
 40
1.963435230572946
 40
1.963435230572946
 40
1.963435230572946
 40
1.963435230572946
 10
-22.36224365235027
 20
0.3363952636721308
 30
0.0
 10
-22.16613215061779
 20
0.3068027543189121
 30
0.0
 10
-21.79633502894569
 20
0.2510017192689497
 30
0.0
 10
-21.27268465393097
 20
0.1956658959282274
 30
0.0
 10
-20.81752262488988
 20
0.1610280367449345
 30
0.0
 10
-20.5368936467855
 20
0.1602197868589267
 30
0.0
 10
-20.40887451172026
 20
0.1598510742191195
 30
0.0
 11
-22.36224365235027
 21
0.3363952636721308
 31
0.0
 11
-21.77331542969027
 21
0.2522583007811363
 31
0.0
 11
-21.24945068360027
 21
0.1959838867191195
 31
0.0
 11
-20.79278564453026
 21
0.1652221679691195
 31
0.0
 11
-20.40887451172026
 21
0.1598510742191195
 31
0.0
  0
SPLINE
  5
9B08
330
1F
100
AcDbEntity
  8
AM_0
100
AcDbSpline
210
0.0
220
0.0
230
1.0
 70
     8
 71
     3
 72
    11
 73
     7
 74
     5
 42
0.0000000001
 43
0.0000000001
 44
0.0000000001
 40
0.0
 40
0.0
 40
0.0
 40
0.0
 40
0.064802451369008
 40
0.1291339693193227
 40
0.1930792197053361
 40
0.256572946022674
 40
0.256572946022674
 40
0.256572946022674
 40
0.256572946022674
 10
-12.40002441407024
 20
-6.69375610351588
 30
0.0
 10
-12.39530569456818
 20
-6.714836946300083
 30
0.0
 10
-12.38590254751846
 20
-6.756845432828152
 30
0.0
 10
-12.37417488254299
 20
-6.820139482156894
 30
0.0
 10
-12.36412414512607
 20
-6.883280281167037
 30
0.0
 10
-12.35903960854108
 20
-6.925458018466982
 30
0.0
 10
-12.35650634766024
 20
-6.946472167968835
 30
0.0
 11
-12.40002441407024
 21
-6.69375610351588
 31
0.0
 11
-12.38626098633024
 21
-6.757080078124857
 31
0.0
 11
-12.37442016602024
 21
-6.820312499999857
 31
0.0
 11
-12.36450195313024
 21
-6.883483886718835
 31
0.0
 11
-12.35650634766024
 21
-6.946472167968835
 31
0.0
  0
SPLINE
  5
9B09
330
1F
100
AcDbEntity
  8
AM_0
100
AcDbSpline
210
0.0
220
0.0
230
1.0
 70
     8
 71
     3
 72
    11
 73
     7
 74
     5
 42
0.0000000001
 43
0.0000000001
 44
0.0000000001
 40
0.0
 40
0.0
 40
0.0
 40
0.0
 40
0.8291069014856853
 40
1.625304412403132
 40
2.365276287923727
 40
3.054919184205859
 40
3.054919184205859
 40
3.054919184205859
 40
3.054919184205859
 10
-14.56182861328024
 20
-4.89785766601588
 30
0.0
 10
-14.84156836586369
 20
-4.924534951441382
 30
0.0
 10
-15.38994427901041
 20
-4.976830632053028
 30
0.0
 10
-16.05033795139067
 20
-5.468764705428012
 30
0.0
 10
-16.43017638538872
 20
-6.141286350192228
 30
0.0
 10
-16.42941427241551
 20
-6.624502577545271
 30
0.0
 10
-16.42904663086024
 20
-6.857604980468863
 30
0.0
 11
-14.56182861328024
 21
-4.89785766601588
 31
0.0
 11
-15.37643432617024
 21
-5.052246093749857
 31
0.0
 11
-16.02124023438024
 21
-5.519317626952869
 31
0.0
 11
-16.37319946289024
 21
-6.17022705078088
 31
0.0
 11
-16.42904663086024
 21
-6.857604980468863
 31
0.0
  0
SPLINE
  5
9B0A
330
1F
100
AcDbEntity
  8
AM_0
100
AcDbSpline
210
0.0
220
0.0
230
1.0
 70
     8
 71
     3
 72
    11
 73
     7
 74
     5
 42
0.0000000001
 43
0.0000000001
 44
0.0000000001
 40
0.0
 40
0.0
 40
0.0
 40
0.0
 40
0.2317271468271453
 40
0.4500292532546804
 40
0.6574748312740937
 40
0.8571281417499754
 40
0.8571281417499754
 40
0.8571281417499754
 40
0.8571281417499754
 10
-38.92706298828024
 20
-7.960632324218906
 30
0.0
 10
-38.96881059467935
 20
-8.025881995159105
 30
0.0
 10
-39.04988717284552
 20
-8.152601117585598
 30
0.0
 10
-39.12529580137077
 20
-8.359878435073875
 30
0.0
 10
-39.16590887198925
 20
-8.565799616944127
 30
0.0
 10
-39.16213106726113
 20
-8.701817154792202
 30
0.0
 10
-39.16027832032024
 20
-8.768524169921917
 30
0.0
 11
-38.92706298828024
 21
-7.960632324218906
 31
0.0
 11
-39.04449462891024
 21
-8.160400390624914
 31
0.0
 11
-39.12097167969024
 21
-8.364868164062912
 31
0.0
 11
-39.15856933594024
 21
-8.568878173827911
 31
0.0
 11
-39.16027832032024
 21
-8.768524169921917
 31
0.0
  0
SPLINE
  5
9B0B
330
1F
100
AcDbEntity
  8
AM_0
100
AcDbSpline
210
0.0
220
0.0
230
1.0
 70
     8
 71
     3
 72
    11
 73
     7
 74
     5
 42
0.0000000001
 43
0.0000000001
 44
0.0000000001
 40
0.0
 40
0.0
 40
0.0
 40
0.0
 40
0.0837409072284266
 40
0.167120163841982
 40
0.2500076420075735
 40
0.3325920202034119
 40
0.3325920202034119
 40
0.3325920202034119
 40
0.3325920202034119
 10
-31.79815673828027
 20
9.348388671875085
 30
0.0
 10
-31.80736466583994
 20
9.322004752515411
 30
0.0
 10
-31.82574075481901
 20
9.269350857637547
 30
0.0
 10
-31.84210750016244
 20
9.187426298443991
 30
0.0
 10
-31.85090943979698
 20
9.104735677584901
 30
0.0
 10
-31.84910575625133
 20
9.049546978125276
 30
0.0
 10
-31.84820556641027
 20
9.022003173828096
 30
0.0
 11
-31.79815673828027
 21
9.348388671875085
 31
0.0
 11
-31.82391357422027
 21
9.268707275390084
 31
0.0
 11
-31.84088134766027
 21
9.187072753906107
 31
0.0
 11
-31.84899902344027
 21
9.10458374023409
 31
0.0
 11
-31.84820556641027
 21
9.022003173828096
 31
0.0
  0
SPLINE
  5
9B0C
330
1F
100
AcDbEntity
  8
AM_0
100
AcDbSpline
210
0.0
220
0.0
230
1.0
 70
     8
 71
     3
 72
    11
 73
     7
 74
     5
 42
0.0000000001
 43
0.0000000001
 44
0.0000000001
 40
0.0
 40
0.0
 40
0.0
 40
0.0
 40
0.2214522118894005
 40
0.4441840821139075
 40
0.6666654984744173
 40
0.8874486690706964
 40
0.8874486690706964
 40
0.8874486690706964
 40
0.8874486690706964
 10
-31.12420654297027
 20
9.860046386719091
 30
0.0
 10
-31.19729706439126
 20
9.846593488048329
 30
0.0
 10
-31.34390045973158
 20
9.819609953330562
 30
0.0
 10
-31.53904055402277
 20
9.706042036101202
 30
0.0
 10
-31.70157537273369
 20
9.54932505961918
 30
0.0
 10
-31.7660452826457
 20
9.415196175205535
 30
0.0
 10
-31.79815673828027
 20
9.348388671875085
 30
0.0
 11
-31.12420654297027
 21
9.860046386719091
 31
0.0
 11
-31.33935546875027
 21
9.807586669922102
 31
0.0
 11
-31.53369140625027
 21
9.698760986328096
 31
0.0
 11
-31.69097900391027
 21
9.541412353515084
 31
0.0
 11
-31.79815673828027
 21
9.348388671875085
 31
0.0
  0
SPLINE
  5
9B0D
330
1F
100
AcDbEntity
  8
AM_0
100
AcDbSpline
210
0.0
220
0.0
230
1.0
 70
     8
 71
     3
 72
    11
 73
     7
 74
     5
 42
0.0000000001
 43
0.0000000001
 44
0.0000000001
 40
0.0
 40
0.0
 40
0.0
 40
0.0
 40
0.2543061719811713
 40
0.5068657932588997
 40
0.7606291352909027
 40
1.017779290319622
 40
1.017779290319622
 40
1.017779290319622
 40
1.017779290319622
 10
-22.48541259766027
 20
10.0032348632811
 30
0.0
 10
-22.49904066271353
 20
10.08785235892097
 30
0.0
 10
-22.52620319656001
 20
10.25650620525489
 30
0.0
 10
-22.67399482081678
 20
10.47116653159559
 30
0.0
 10
-22.8834083240937
 20
10.6278069499783
 30
0.0
 10
-23.05211261522158
 20
10.66221622576707
 30
0.0
 10
-23.13702392578027
 20
10.67953491210911
 30
0.0
 11
-22.48541259766027
 21
10.0032348632811
 31
0.0
 11
-22.54425048828026
 21
10.25064086914011
 31
0.0
 11
-22.68383789063027
 21
10.46112060546912
 31
0.0
 11
-22.88952636719027
 21
10.60974121093713
 31
0.0
 11
-23.13702392578027
 21
10.67953491210911
 31
0.0
  0
SPLINE
  5
9B0E
330
1F
100
AcDbEntity
  8
AM_0
100
AcDbSpline
210
0.0
220
0.0
230
1.0
 70
     8
 71
     3
 72
    11
 73
     7
 74
     5
 42
0.0000000001
 43
0.0000000001
 44
0.0000000001
 40
0.0
 40
0.0
 40
0.0
 40
0.0
 40
0.0419996388081864
 40
0.0840061954998593
 40
0.1261355877514725
 40
0.1685027030346361
 40
0.1685027030346361
 40
0.1685027030346361
 40
0.1685027030346361
 10
-23.13702392578027
 20
10.67953491210911
 30
0.0
 10
-23.15097101345423
 20
10.68078971458348
 30
0.0
 10
-23.17886748606782
 20
10.68329952621441
 30
0.0
 10
-23.22092746147919
 20
10.68425368207222
 30
0.0
 10
-23.26310833489269
 20
10.68326047242293
 30
0.0
 10
-23.29116767512679
 20
10.68073844061002
 30
0.0
 10
-23.30523681641027
 20
10.67947387695309
 30
0.0
 11
-23.13702392578027
 21
10.67953491210911
 31
0.0
 11
-23.17889404297027
 21
10.68283081054713
 31
0.0
 11
-23.22088623047027
 21
10.68392944335911
 31
0.0
 11
-23.26300048828027
 21
10.68280029296911
 31
0.0
 11
-23.30523681641027
 21
10.67947387695309
 31
0.0
  0
SPLINE
  5
9B0F
330
1F
100
AcDbEntity
  8
AM_0
100
AcDbSpline
210
0.0
220
0.0
230
1.0
 70
     8
 71
     3
 72
    11
 73
     7
 74
     5
 42
0.0000000001
 43
0.0000000001
 44
0.0000000001
 40
0.0
 40
0.0
 40
0.0
 40
0.0
 40
0.2944017918169691
 40
0.5872095491481817
 40
0.8826566520560726
 40
1.183494479343085
 40
1.183494479343085
 40
1.183494479343085
 40
1.183494479343085
 10
-31.36260986328027
 20
1.352996826172102
 30
0.0
 10
-31.34518260188438
 20
1.25493613422602
 30
0.0
 10
-31.31042243876169
 20
1.059345698612718
 30
0.0
 10
-31.11567445642144
 20
0.8238835914375435
 30
0.0
 10
-30.8458777652001
 20
0.6775364067234341
 30
0.0
 10
-30.64438286737389
 20
0.6770189034071401
 30
0.0
 10
-30.54272460938027
 20
0.6767578125000853
 30
0.0
 11
-31.36260986328027
 21
1.352996826172102
 31
0.0
 11
-31.28649902344027
 21
1.068603515625085
 31
0.0
 11
-31.10418701172027
 21
0.839477539062102
 31
0.0
 11
-30.84246826172027
 21
0.7023925781250853
 31
0.0
 11
-30.54272460938027
 21
0.6767578125000853
 31
0.0
  0
SPLINE
  5
9B10
330
1F
100
AcDbEntity
  8
AM_0
100
AcDbSpline
210
0.0
220
0.0
230
1.0
 70
     8
 71
     3
 72
    11
 73
     7
 74
     5
 42
0.0000000001
 43
0.0000000001
 44
0.0000000001
 40
0.0
 40
0.0
 40
0.0
 40
0.0
 40
0.3054065167808396
 40
0.6121869128096061
 40
0.9163801446285198
 40
1.215438490178189
 40
1.215438490178189
 40
1.215438490178189
 40
1.215438490178189
 10
-22.72375488282027
 20
1.496185302734119
 30
0.0
 10
-22.62299254469624
 20
1.517990968256933
 30
0.0
 10
-22.4210145864201
 20
1.561700392662403
 30
0.0
 10
-22.17728944364943
 20
1.761196311886883
 30
0.0
 10
-22.01550507494677
 20
2.029743331519478
 30
0.0
 10
-22.00497572256851
 20
2.233290641767413
 30
0.0
 10
-21.99975585938027
 20
2.33419799804713
 30
0.0
 11
-22.72375488282027
 21
1.496185302734119
 31
0.0
 11
-22.43121337891027
 21
1.583892822265113
 31
0.0
 11
-22.19018554688027
 21
1.773681640625113
 31
0.0
 11
-22.03918457032027
 21
2.037750244140113
 31
0.0
 11
-21.99975585938027
 21
2.33419799804713
 31
0.0
  0
SPLINE
  5
9B11
330
1F
100
AcDbEntity
  8
AM_0
100
AcDbSpline
210
0.0
220
0.0
230
1.0
 70
     8
 71
     3
 72
    11
 73
     7
 74
     5
 42
0.0000000001
 43
0.0000000001
 44
0.0000000001
 40
0.0
 40
0.0
 40
0.0
 40
0.0
 40
0.1479580974117152
 40
0.2949310483196113
 40
0.4398383814967792
 40
0.5826479472012611
 40
0.5826479472012611
 40
0.5826479472012611
 40
0.5826479472012611
 10
-0.8725891113302424
 20
-3.108581542968835
 30
0.0
 10
-0.8770744959834996
 20
-3.05887728581629
 30
0.0
 10
-0.8860154003411757
 20
-2.959799716393674
 30
0.0
 10
-0.9641011208024599
 20
-2.830872767929968
 30
0.0
 10
-1.07825533136242
 20
-2.734429675086875
 30
0.0
 10
-1.17302360210203
 20
-2.712999181565742
 30
0.0
 10
-1.22006225586027
 20
-2.702362060546846
 30
0.0
 11
-0.8725891113302424
 21
-3.108581542968835
 31
0.0
 11
-0.89697265625027
 21
-2.962646484374857
 31
0.0
 11
-0.9707641601602716
 21
-2.835540771484858
 31
0.0
 11
-1.08367919922027
 21
-2.744720458984858
 31
0.0
 11
-1.22006225586027
 21
-2.702362060546846
 31
0.0
  0
SPLINE
  5
9B12
330
1F
100
AcDbEntity
  8
AM_0
100
AcDbSpline
210
0.0
220
0.0
230
1.0
 70
     8
 71
     3
 72
    11
 73
     7
 74
     5
 42
0.0000000001
 43
0.0000000001
 44
0.0000000001
 40
0.0
 40
0.0
 40
0.0
 40
0.0
 40
0.0797044362042242
 40
0.160172721865667
 40
0.2413363193396186
 40
0.323123998070433
 40
0.323123998070433
 40
0.323123998070433
 40
0.323123998070433
 10
-0.8878784179702421
 20
-4.029418945312841
 30
0.0
 10
-0.886357510446121
 20
-4.002893612345621
 30
0.0
 10
-0.8833011197425943
 20
-3.949588740219475
 30
0.0
 10
-0.8804621617834371
 20
-3.869188688687562
 30
0.0
 10
-0.8786645315489472
 20
-3.78806395832862
 30
0.0
 10
-0.8786629188286449
 20
-3.733745286217753
 30
0.0
 10
-0.8786621093802438
 20
-3.706481933593835
 30
0.0
 11
-0.8878784179702421
 21
-4.029418945312841
 31
0.0
 11
-0.883605957030241
 21
-3.949829101562841
 31
0.0
 11
-0.8806457519602446
 21
-3.86941528320284
 31
0.0
 11
-0.8789672851602432
 21
-3.788269042968835
 31
0.0
 11
-0.8786621093802438
 21
-3.706481933593835
 31
0.0
  0
SPLINE
  5
9B13
330
1F
100
AcDbEntity
  8
AM_0
100
AcDbSpline
210
0.0
220
0.0
230
1.0
 70
     8
 71
     3
 72
    11
 73
     7
 74
     5
 42
0.0000000001
 43
0.0000000001
 44
0.0000000001
 40
0.0
 40
0.0
 40
0.0
 40
0.0
 40
0.3296678592030442
 40
0.6598840476515328
 40
0.9910309052116982
 40
1.323363819631887
 40
1.323363819631887
 40
1.323363819631887
 40
1.323363819631887
 10
-1.218292236330242
 20
-5.302825927734858
 30
0.0
 10
-1.173298973089809
 20
-5.202460973750491
 30
0.0
 10
-1.083237610311155
 20
-5.00156413097768
 30
0.0
 10
-0.9869146701241097
 20
-4.68484488816154
 30
0.0
 10
-0.9173362128674868
 20
-4.360331874925445
 30
0.0
 10
-0.897709378113941
 20
-4.139854632485081
 30
0.0
 10
-0.8878784179702421
 20
-4.029418945312841
 30
0.0
 11
-1.218292236330242
 21
-5.302825927734858
 31
0.0
 11
-1.089782714850244
 21
-4.999237060546846
 31
0.0
 11
-0.9914855957102446
 21
-4.683990478515852
 31
0.0
 11
-0.9241027832102446
 21
-4.359771728515852
 31
0.0
 11
-0.8878784179702421
 21
-4.029418945312841
 31
0.0
  0
SPLINE
  5
9B14
330
1F
100
AcDbEntity
  8
AM_0
100
AcDbSpline
210
0.0
220
0.0
230
1.0
 70
     8
 71
     3
 72
    11
 73
     7
 74
     5
 42
0.0000000001
 43
0.0000000001
 44
0.0000000001
 40
0.0
 40
0.0
 40
0.0
 40
0.0
 40
0.0600892353200414
 40
0.120361645265976
 40
0.1807574435852546
 40
0.241338902475887
 40
0.241338902475887
 40
0.241338902475887
 40
0.241338902475887
 10
-0.8786621093802438
 20
-3.706481933593835
 30
0.0
 10
-0.8787223695864222
 20
-3.686452239842413
 30
0.0
 10
-0.8788430736945887
 20
-3.646331794287489
 30
0.0
 10
-0.8786705882226453
 20
-3.586079286368438
 30
0.0
 10
-0.8782621460062053
 20
-3.525663845487694
 30
0.0
 10
-0.877755935231624
 20
-3.485341193049694
 30
0.0
 10
-0.8775024414102432
 20
-3.465148925780852
 30
0.0
 11
-0.8786621093802438
 21
-3.706481933593835
 31
0.0
 11
-0.8787841796902426
 21
-3.646392822265852
 31
0.0
 11
-0.8786315918002429
 21
-3.586120605468835
 31
0.0
 11
-0.8782043457102446
 21
-3.525726318359858
 31
0.0
 11
-0.8775024414102432
 21
-3.465148925780852
 31
0.0
  0
SPLINE
  5
9B15
330
1F
100
AcDbEntity
  8
AM_0
100
AcDbSpline
210
0.0
220
0.0
230
1.0
 70
     8
 71
     3
 72
    11
 73
     7
 74
     5
 42
0.0000000001
 43
0.0000000001
 44
0.0000000001
 40
0.0
 40
0.0
 40
0.0
 40
0.0
 40
2.949403268526853
 40
5.855670483641954
 40
8.717005976502697
 40
11.54740959736334
 40
11.54740959736334
 40
11.54740959736334
 40
11.54740959736334
 10
-10.25888061524024
 20
-11.74456787109384
 30
0.0
 10
-9.289029666315498
 20
-11.55217618606345
 30
0.0
 10
-7.363512177488903
 20
-11.17020661162364
 30
0.0
 10
-4.796013617346346
 20
-9.727341633412432
 30
0.0
 10
-2.638194330691119
 20
-7.781736882548504
 30
0.0
 10
-1.689875047638759
 20
-6.126130437036741
 30
0.0
 10
-1.218292236330242
 20
-5.302825927734858
 30
0.0
 11
-10.25888061524024
 21
-11.74456787109384
 31
0.0
 11
-7.400268554690242
 21
-11.01840209960984
 31
0.0
 11
-4.846588134770243
 21
-9.630920410155852
 31
0.0
 11
-2.751770019530241
 21
-7.681823730468835
 31
0.0
 11
-1.218292236330242
 21
-5.302825927734858
 31
0.0
  0
SPLINE
  5
9B16
330
1F
100
AcDbEntity
  8
AM_0
100
AcDbSpline
210
0.0
220
0.0
230
1.0
 70
     8
 71
     3
 72
    11
 73
     7
 74
     5
 42
0.0000000001
 43
0.0000000001
 44
0.0000000001
 40
0.0
 40
0.0
 40
0.0
 40
0.0
 40
0.4628628277763223
 40
0.9252799557544888
 40
1.387213972400711
 40
1.848542428238515
 40
1.848542428238515
 40
1.848542428238515
 40
1.848542428238515
 10
-12.10333251953024
 20
-11.84066772460985
 30
0.0
 10
-11.94903500794837
 20
-11.8424158912135
 30
0.0
 10
-11.64058856091917
 20
-11.84591054107649
 30
0.0
 10
-11.17834850366889
 20
-11.82923661351991
 30
0.0
 10
-10.71737857448569
 20
-11.79791395965619
 30
0.0
 10
-10.41164642586118
 20
-11.76234212351602
 30
0.0
 10
-10.25888061524024
 20
-11.74456787109384
 30
0.0
 11
-12.10333251953024
 21
-11.84066772460985
 31
0.0
 11
-11.64047241211024
 21
-11.84225463867186
 31
0.0
 11
-11.17831420899024
 21
-11.82678222656285
 31
0.0
 11
-10.71752929688024
 21
-11.79421997070285
 31
0.0
 11
-10.25888061524024
 21
-11.74456787109384
 31
0.0
  0
ELLIPSE
  5
9B35
330
1F
100
AcDbEntity
  8
AM_0
100
AcDbEllipse
 10
-4.859924316410243
 20
-3.619628906249857
 30
0.0
 11
0.0763396026200029
 21
3.499175952510001
 31
0.0
210
0.0
220
0.0
230
1.0
 40
0.9848031689157
 41
4.236391054162909
 42
4.712384476225492
  0
ELLIPSE
  5
9B36
330
1F
100
AcDbEntity
  8
AM_0
100
AcDbEllipse
 10
-4.964080810550242
 20
-3.617340087890852
 30
0.0
 11
0.0632629593400168
 21
2.899322617636997
 31
0.0
210
0.0
220
0.0
230
0.9999999999999998
 40
0.9848006356704999
 41
4.236398955363743
 42
4.58779941020354
  0
ELLIPSE
  5
9B37
330
1F
100
AcDbEntity
  8
AM_0
100
AcDbEllipse
 10
-12.75082397461027
 20
0.6764526367191195
 30
0.0
 11
0.2595820986999562
 21
11.89715566798899
 31
0.0
210
0.0
220
0.0
230
1.0
 40
0.9848068298540997
 41
4.074651399210694
 42
4.236531809998631
  0
ELLIPSE
  5
9B38
330
1F
100
AcDbEntity
  8
AM_0
100
AcDbEllipse
 10
-12.64666748047027
 20
0.6741638183591192
 30
0.0
 11
0.2726902435399873
 21
12.49703955579699
 31
0.0
210
0.0
220
0.0
230
1.0
 40
0.9848096639903999
 41
3.141592564818521
 42
4.236530401789407
  0
ELLIPSE
  5
9B54
330
1F
100
AcDbEntity
  8
AM_0
100
AcDbEllipse
 10
-12.42999267578029
 20
12.15393066406213
 30
0.0
 11
-0.2181695065500227
 21
12.498108337294
 31
0.0
210
0.0
220
0.0
230
1.0
 40
0.8111579479177001
 41
1.6589115388253
 42
1.804536464944963
  0
ELLIPSE
  5
9B55
330
1F
100
AcDbEntity
  8
AM_0
100
AcDbEllipse
 10
-21.86059570313027
 20
10.88912963867213
 30
0.0
 11
-0.0139770206200199
 21
0.7998657432090007
 31
0.0
210
0.0
220
0.0
230
1.0
 40
0.8111404113781
 41
0.6891238886157108
 42
1.570777119852036
  0
ELLIPSE
  5
9B56
330
1F
100
AcDbEntity
  8
AM_0
100
AcDbEllipse
 10
-22.15576171875027
 20
10.88400268554713
 30
0.0
 11
-0.013946498810016
 21
0.7998657394479985
 31
0.0
210
0.0
220
0.0
230
1.0
 40
0.8111791028763001
 41
0.4701373765324096
 42
0.5986548652981757
  0
ELLIPSE
  5
9B57
330
1F
100
AcDbEntity
  8
AM_0
100
AcDbEllipse
 10
-22.21649169922027
 20
10.88293457031213
 30
0.0
 11
0.6020507878099567
 21
0.6234436042909988
 31
0.0
210
0.0
220
0.0
230
1.0
 40
0.8391063863793
 41
0.698969606517549
 42
1.169258982034029
  0
ELLIPSE
  5
9B58
330
1F
100
AcDbEntity
  8
AM_0
100
AcDbEllipse
 10
-18.55212402344027
 20
0.0000000000001421
 30
0.0
 11
-1.856262785629973
 21
11.49560578219499
 31
0.0
210
0.0
220
0.0
230
0.9999999999999998
 40
0.1713510969884
 41
3.079369724674317
 42
3.113933337657777
  0
ELLIPSE
  5
9B59
330
1F
100
AcDbEntity
  8
AM_0
100
AcDbEllipse
 10
-20.55377197266027
 20
-0.002655029296875
 30
0.0
 11
65.22819447211998
 21
0.0456542973741289
 31
0.0
210
0.0
220
0.0
230
1.0
 40
0.1762620222111
 41
4.708418301482841
 42
4.716024623349973
  0
ELLIPSE
  5
9B5A
330
1F
100
AcDbEntity
  8
AM_0
100
AcDbEllipse
 10
-37.08947753907025
 20
0.0000000000000853
 30
0.0
 11
1.234283081960006
 21
11.498443467307
 31
0.0
210
0.0
220
0.0
230
1.0
 40
0.1530837689651
 41
2.454718485989415
 42
2.917241068920762
  0
ELLIPSE
  5
9B5B
330
1F
100
AcDbEntity
  8
AM_0
100
AcDbEllipse
 10
-69.55731201172025
 20
0.0000000000000284
 30
0.0
 11
-65.34349168249002
 21
2.941896440572868
 31
0.0
210
0.0
220
0.0
230
1.0
 40
0.1701369197765
 41
2.070525528354686
 42
2.140829214334124
  0
ELLIPSE
  5
9B5C
330
1F
100
AcDbEntity
  8
AM_0
100
AcDbEllipse
 10
-33.02014160157027
 20
0.0000000000000853
 30
0.0
 11
1.234283081960006
 21
11.498443467307
 31
0.0
210
0.0
220
0.0
230
1.0
 40
0.1530837689651
 41
2.481141024517319
 42
2.846953060761279
  0
ELLIPSE
  5
9B5D
330
1F
100
AcDbEntity
  8
AM_0
100
AcDbEllipse
 10
-22.05651855469027
 20
0.0144042968751137
 30
0.0
 11
-0.3928532767800108
 21
11.482299901293
 31
0.0
210
0.0
220
0.0
230
1.0
 40
0.7003364043606002
 41
0.0103020370545484
 42
0.0166498741314741
  0
ELLIPSE
  5
9B5E
330
1F
100
AcDbEntity
  8
AM_0
100
AcDbEllipse
 10
-22.46533203125026
 20
0.0000000000001137
 30
0.0
 11
-0.2071836615499705
 21
11.49993913964699
 31
0.0
210
0.0
220
0.0
230
0.9999999999999998
 40
0.1762996561424
 41
6.213666121983886
 42
6.239384929571942
  0
ELLIPSE
  5
9B5F
330
1F
100
AcDbEntity
  8
AM_0
100
AcDbEllipse
 10
-22.46533203125026
 20
0.0000000000001137
 30
0.0
 11
-0.2071836615499705
 21
11.49993913964699
 31
0.0
210
0.0
220
0.0
230
0.9999999999999998
 40
0.1762996561424
 41
6.137020166799454
 42
6.213666121983886
  0
ELLIPSE
  5
9B60
330
1F
100
AcDbEntity
  8
AM_0
100
AcDbEllipse
 10
-9.36492919922027
 20
-0.0012512207028692
 30
0.0
 11
-65.23376191090005
 21
0.0367770060288767
 31
0.0
210
0.0
220
0.0
230
1.0
 40
0.1763073281108
 41
4.914161568512988
 42
4.922703013108853
  0
ELLIPSE
  5
9B61
330
1F
100
AcDbEntity
  8
AM_0
100
AcDbEllipse
 10
-22.16381835938027
 20
-0.0010986328128695
 30
0.0
 11
-1.234374334840049
 21
11.49954245273599
 31
0.0
210
0.0
220
0.0
230
0.9999999999999996
 40
0.1530770515525
 41
6.059875980903839
 42
6.068491516631324
  0
ELLIPSE
  5
9B62
330
1F
100
AcDbEntity
  8
AM_0
100
AcDbEllipse
 10
-26.43237304688027
 20
0.0000000000001137
 30
0.0
 11
65.34349039510999
 21
2.941925034889127
 31
0.0
210
0.0
220
0.0
230
0.9999999999999996
 40
0.1701369197765
 41
1.510502786225375
 42
1.650217330055752
  0
ELLIPSE
  5
9B63
330
1F
100
AcDbEntity
  8
AM_0
100
AcDbEllipse
 10
-31.56896972657027
 20
0.0000000000000853
 30
0.0
 11
-1.234284087169977
 21
11.498443359403
 31
0.0
210
0.0
220
0.0
230
1.0
 40
0.1530837689651
 41
5.798946175294543
 42
5.928312142012613
  0
ELLIPSE
  5
9B64
330
1F
100
AcDbEntity
  8
AM_0
100
AcDbEllipse
 10
-31.11193847657027
 20
0.0000000000000853
 30
0.0
 11
-0.6280216707300724
 21
11.49996950969999
 31
0.0
210
0.0
220
0.0
230
1.0
 40
0.0326220018366
 41
0.4675108099745
 42
0.6416565996939389
  0
ELLIPSE
  5
9B65
330
1F
100
AcDbEntity
  8
AM_0
100
AcDbEllipse
 10
-4.681243896490272
 20
0.0000000000001421
 30
0.0
 11
65.34347511889001
 21
2.94192507886713
 31
0.0
210
0.0
220
0.0
230
0.9999999999999998
 40
0.1701369448861
 41
1.99182026579295
 42
2.100780807576341
  0
ELLIPSE
  5
9B66
330
1F
100
AcDbEntity
  8
AM_0
100
AcDbEllipse
 10
-32.53015136719027
 20
0.0000000000000853
 30
0.0
 11
-8.004517629260044
 21
11.49999884545298
 31
0.0
210
0.0
220
0.0
230
1.0
 40
0.0021485086478
 41
4.553231125600717
 42
5.498436488276694
  0
ELLIPSE
  5
9B67
330
1F
100
AcDbEntity
  8
AM_0
100
AcDbEllipse
 10
-26.08367919922027
 20
0.0000305175780966
 30
0.0
 11
188.0246053204899
 21
11.11105331129537
 31
0.0
210
0.0
220
0.0
230
1.0
 40
0.0157750465575
 41
4.698625787889129
 42
4.7268197983021
  0
ELLIPSE
  5
9B68
330
1F
100
AcDbEntity
  8
AM_0
100
AcDbEllipse
 10
-14.65124511719027
 20
0.0000000000001421
 30
0.0
 11
0.2589876949499854
 21
11.49990884180099
 31
0.0
210
0.0
220
0.0
230
1.0
 40
0.1762828702627
 41
2.213678836921979
 42
2.583371399853125
  0
ELLIPSE
  5
9B69
330
1F
100
AcDbEntity
  8
AM_0
100
AcDbEllipse
 10
-50.50646972657026
 20
0.0000000000000853
 30
0.0
 11
65.23574757455998
 21
0.0456542981831244
 31
0.0
210
0.0
220
0.0
230
1.0
 40
0.1762823132975
 41
5.27062877437608
 42
5.336098226426285
  0
ELLIPSE
  5
9B6A
330
1F
100
AcDbEntity
  8
AM_0
100
AcDbEllipse
 10
-20.55377197266027
 20
0.0000000000001421
 30
0.0
 11
65.23573231577
 21
0.0456542950981255
 31
0.0
210
0.0
220
0.0
230
1.0
 40
0.1762823545303
 41
4.773255269354827
 42
4.837582944041776
  0
ELLIPSE
  5
9B6B
330
1F
100
AcDbEntity
  8
AM_0
100
AcDbEllipse
 10
-18.59350585938027
 20
0.0000000000001421
 30
0.0
 11
-2.864852910390049
 21
11.33035299966099
 31
0.0
210
0.0
220
0.0
230
1.0
 40
0.6869812165718
 41
3.004223693103975
 42
3.034443693163566
  0
ELLIPSE
  5
9B6C
330
1F
100
AcDbEntity
  8
AM_0
100
AcDbEllipse
 10
-18.55212402344027
 20
0.0000000000001421
 30
0.0
 11
-1.856262785629973
 21
11.49560578219499
 31
0.0
210
0.0
220
0.0
230
0.9999999999999998
 40
0.1713515064836
 41
3.113933403724201
 42
3.156532943740134
  0
ELLIPSE
  5
9B6D
330
1F
100
AcDbEntity
  8
AM_0
100
AcDbEllipse
 10
-17.40734863282027
 20
0.0060424804691195
 30
0.0
 11
16.87297064058998
 21
3.299682717301029
 31
0.0
210
0.0
220
0.0
230
1.0
 40
0.653279607964
 41
4.413923599924269
 42
4.421526805983058
  0
ELLIPSE
  5
9B6E
330
1F
100
AcDbEntity
  8
AM_0
100
AcDbEllipse
 10
-24.79901123047027
 20
2.091979980469119
 30
0.0
 11
-0.0607908960900038
 21
3.095855680481997
 31
0.0
210
0.0
220
0.0
230
1.0
 40
0.9541328433427999
 41
4.090763564065168
 42
4.610283386731381
  0
ELLIPSE
  5
9B6F
330
1F
100
AcDbEntity
  8
AM_0
100
AcDbEllipse
 10
-23.36572265625027
 20
2.60095214843713
 30
0.0
 11
-0.0303955175299992
 21
1.547912577146
 31
0.0
210
0.0
220
0.0
230
1.0
 40
0.9541420930467999
 41
4.172027380592533
 42
4.798864956988097
  0
ELLIPSE
  5
9B70
330
1F
100
AcDbEntity
  8
AM_0
100
AcDbEllipse
 10
-30.95446777344027
 20
9.314270019531107
 30
0.0
 11
-0.2305908666900238
 21
0.7826232890529989
 31
0.0
210
0.0
220
0.0
230
1.0
 40
0.9690023092697
 41
0.0904283040177469
 42
0.9023032642750042
  0
ELLIPSE
  5
9B71
330
1F
100
AcDbEntity
  8
AM_0
100
AcDbEllipse
 10
-30.91790771485027
 20
9.409667968750085
 30
0.0
 11
-0.8061523269899455
 21
0.0438232990129974
 31
0.0
210
0.0
220
0.0
230
1.0
 40
0.8985834658365
 41
4.888669816196853
 42
5.190334134766771
  0
ELLIPSE
  5
9B72
330
1F
100
AcDbEntity
  8
AM_0
100
AcDbEllipse
 10
-27.06958007813027
 20
5.883544921875113
 30
0.0
 11
2.684417750069994
 21
1.352874769096002
 31
0.0
210
0.0
220
0.0
230
1.0
 40
0.9047839083905998
 41
1.173957363587083
 42
1.698877517567582
  0
ELLIPSE
  5
9B73
330
1F
100
AcDbEntity
  8
AM_0
100
AcDbEllipse
 10
-27.06951904297027
 20
5.883544921875113
 30
0.0
 11
1.859375027160007
 21
2.380249062928001
 31
0.0
210
0.0
220
0.0
230
1.0
 40
0.9146810275276001
 41
1.81662231445572
 42
2.341613863360221
  0
ELLIPSE
  5
9B74
330
1F
100
AcDbEntity
  8
AM_0
100
AcDbEllipse
 10
-27.06958007813027
 20
5.883544921875113
 30
0.0
 11
2.684417750069994
 21
1.352874769096002
 31
0.0
210
0.0
220
0.0
230
1.0
 40
0.9047839083905998
 41
0.6492432955126909
 42
1.173957363587083
  0
ELLIPSE
  5
9B75
330
1F
100
AcDbEntity
  8
AM_0
100
AcDbEllipse
 10
-27.06951904297027
 20
5.883544921875113
 30
0.0
 11
1.859375027160007
 21
2.380249062928001
 31
0.0
210
0.0
220
0.0
230
1.0
 40
0.9146810275276001
 41
2.341613863360221
 42
2.866715973831699
  0
ELLIPSE
  5
9B76
330
1F
100
AcDbEntity
  8
AM_0
100
AcDbEllipse
 10
-24.80090332032027
 20
10.05075073242213
 30
0.0
 11
0.7521362222099683
 21
0.5945129068180019
 31
0.0
210
0.0
220
0.0
230
1.0
 40
0.6372281709923
 41
0.5779700100932491
 42
0.7893113954260368
  0
ELLIPSE
  5
9B77
330
1F
100
AcDbEntity
  8
AM_0
100
AcDbEllipse
 10
-27.06958007813027
 20
5.883544921875113
 30
0.0
 11
3.045623840150028
 21
0.0569457994280061
 31
0.0
210
0.0
220
0.0
230
1.0
 40
0.9513321522591999
 41
0.0424794146264576
 42
0.5675222604927392
  0
ELLIPSE
  5
9B78
330
1F
100
AcDbEntity
  8
AM_0
100
AcDbEllipse
 10
-27.06958007813027
 20
5.883544921875113
 30
0.0
 11
3.045623840150028
 21
0.0569457994280061
 31
0.0
210
0.0
220
0.0
230
1.0
 40
0.9513321522591999
 41
5.800529008737776
 42
6.32566449080948
  0
ELLIPSE
  5
9B79
330
1F
100
AcDbEntity
  8
AM_0
100
AcDbEllipse
 10
-27.06951904297027
 20
5.883544921875113
 30
0.0
 11
0.5165403954099416
 21
2.995635973330001
 31
0.0
210
0.0
220
0.0
230
1.0
 40
0.9735233522624
 41
3.409823587112749
 42
3.934907739624579
  0
ELLIPSE
  5
9B7A
330
1F
100
AcDbEntity
  8
AM_0
100
AcDbEllipse
 10
-27.06951904297027
 20
5.883544921875113
 30
0.0
 11
0.5165403954099416
 21
2.995635973330001
 31
0.0
210
0.0
220
0.0
230
1.0
 40
0.9735233522624
 41
2.88466152446252
 42
3.409823522050351
  0
ELLIPSE
  5
9B7B
330
1F
100
AcDbEntity
  8
AM_0
100
AcDbEllipse
 10
-1.864135742190271
 20
-3.08694458007784
 30
0.0
 11
-0.4632721006199745
 21
0.0101013525620024
 31
0.0
210
0.0
220
0.0
230
0.9999999999999998
 40
0.8632137951074
 41
3.141592552313832
 42
3.926991469776361
  0
ELLIPSE
  5
9B7C
330
1F
100
AcDbEntity
  8
AM_0
100
AcDbEllipse
 10
-1.864135742190271
 20
-3.08694458007784
 30
0.0
 11
0.3130187924099908
 21
0.2996521086340001
 31
0.0
210
0.0
220
0.0
230
1.0
 40
0.8391118839045999
 41
6.19689053327121
 42
6.624698258360091
  0
ELLIPSE
  5
9B7D
330
1F
100
AcDbEntity
  8
AM_0
100
AcDbEllipse
 10
-23.90869140625024
 20
-11.18295288085988
 30
0.0
 11
-0.2996521036600375
 21
0.313018797174997
 31
0.0
210
0.0
220
0.0
230
1.0
 40
0.8391118839045999
 41
1.804353768032916
 42
2.443719485869924
  0
ELLIPSE
  5
9B83
330
1F
100
AcDbEntity
  8
AM_0
100
AcDbEllipse
 10
-36.41870117188024
 20
-7.879760742187912
 30
0.0
 11
-1.223937935719961
 21
0.8671264834689981
 31
0.0
210
0.0
220
0.0
230
1.0
 40
0.9540268032603
 41
0.5325739210843425
 42
3.21493957477783
  0
ELLIPSE
  5
9B84
330
1F
100
AcDbEntity
  8
AM_0
100
AcDbEllipse
 10
-36.41870117188024
 20
-7.879760742187912
 30
0.0
 11
-1.223937935719961
 21
0.8671264834689981
 31
0.0
210
0.0
220
0.0
230
1.0
 40
0.9540268032603
 41
0.202229099888072
 42
0.5325739210843425
  0
ELLIPSE
  5
9B85
330
1F
100
AcDbEntity
  8
AM_0
100
AcDbEllipse
 10
-36.33203125000024
 20
-7.757446289062897
 30
0.0
 11
-1.631958151059964
 21
1.156188857809002
 31
0.0
210
0.0
220
0.0
230
1.0
 40
0.9539928911266001
 41
0.470318898332811
 42
2.877983574333287
  0
ELLIPSE
  5
9BA1
330
1F
100
AcDbEntity
  8
AM_0
100
AcDbEllipse
 10
-13.92965698242024
 20
-6.912139892577869
 30
0.0
 11
0.0327148992000132
 21
1.499633782914003
 31
0.0
210
0.0
220
0.0
230
0.9999999999999998
 40
0.9848189990283
 41
0.0
 42
6.283185307179586
  0
ELLIPSE
  5
9BA5
330
1F
100
AcDbEntity
  8
AM_0
100
AcDbEllipse
 10
-27.24542236328026
 20
5.80026245117213
 30
0.0
 11
2.284729019729976
 21
1.61865244472401
 31
0.0
210
0.0
220
0.0
230
1.0
 40
0.9539975415674
 41
3.141592561951394
 42
5.751005295578397
  0
ELLIPSE
  5
9BA6
330
1F
100
AcDbEntity
  8
AM_0
100
AcDbEllipse
 10
-27.24542236328026
 20
5.80026245117213
 30
0.0
 11
2.284729019729976
 21
1.61865244472401
 31
0.0
210
0.0
220
0.0
230
1.0
 40
0.9539975415674
 41
0.0
 42
1.643035858610108
  0
ELLIPSE
  5
9BA7
330
1F
100
AcDbEntity
  8
AM_0
100
AcDbEllipse
 10
-27.24511718750027
 20
5.800476074219119
 30
0.0
 11
2.285064786750009
 21
1.618835501992007
 31
0.0
210
0.0
220
0.0
230
1.0
 40
0.9539314986188999
 41
3.126242243438626
 42
3.141592745234535
  0
ELLIPSE
  5
9BA8
330
1F
100
AcDbEntity
  8
AM_0
100
AcDbEllipse
 10
-27.34942626953027
 20
5.947052001953096
 30
0.0
 11
2.284729019729976
 21
1.618652444724003
 31
0.0
210
0.0
220
0.0
230
1.0
 40
0.9539975415673998
 41
0.0
 42
0.8671320738129397
  0
ELLIPSE
  5
9BA9
330
1F
100
AcDbEntity
  8
AM_0
100
AcDbEllipse
 10
-27.24542236328026
 20
5.80026245117213
 30
0.0
 11
2.284729019729976
 21
1.61865244472401
 31
0.0
210
0.0
220
0.0
230
1.0
 40
0.9539975415674
 41
5.751005600742616
 42
6.283185307179586
  0
ELLIPSE
  5
9BC0
330
1F
100
AcDbEntity
  8
AM_0
100
AcDbEllipse
 10
-10.6240844726603
 20
12.18545532226514
 30
0.0
 11
-0.2181545910000542
 21
12.49810764383399
 31
0.0
210
0.0
220
0.0
230
1.0
 40
0.9848085161055001
 41
1.897951406510216
 42
3.141592742361168
  0
ELLIPSE
  5
9BC1
330
1F
100
AcDbEntity
  8
AM_0
100
AcDbEllipse
 10
-29.18664550782027
 20
3.962436676025134
 30
0.0
 11
-89.15878162946006
 21
45.6278309982564
 31
0.0
210
0.0
220
0.0
230
1.0
 40
0.0827711917077
 41
4.5845714471596
 42
4.675487231025768
  0
ELLIPSE
  5
9BC2
330
1F
100
AcDbEntity
  8
AM_0
100
AcDbEllipse
 10
-29.18664550782027
 20
3.962436676025134
 30
0.0
 11
-89.15878162946006
 21
45.6278309982564
 31
0.0
210
0.0
220
0.0
230
1.0
 40
0.0827711917077
 41
4.462083258944182
 42
4.53265016493475
  0
ELLIPSE
  5
9BC3
330
1F
100
AcDbEntity
  8
AM_0
100
AcDbEllipse
 10
-27.63952636719027
 20
6.985477447510135
 30
0.0
 11
-89.15878162946009
 21
45.62783099825482
 31
0.0
210
0.0
220
0.0
230
1.0
 40
0.0827711917077
 41
4.441730040805262
 42
4.53265016493475
  0
ELLIPSE
  5
9BC4
330
1F
100
AcDbEntity
  8
AM_0
100
AcDbEllipse
 10
-27.63952636719027
 20
6.985477447510135
 30
0.0
 11
-89.15878162946009
 21
45.62783099825482
 31
0.0
210
0.0
220
0.0
230
1.0
 40
0.0827711917077
 41
4.5845714471596
 42
4.655157166085473
  0
ELLIPSE
  5
9BC5
330
1F
100
AcDbEntity
  8
AM_0
100
AcDbEllipse
 10
-28.95159912110027
 20
4.421665191650134
 30
0.0
 11
-89.09809785496006
 21
45.59677551547983
 31
0.0
210
0.0
220
0.0
230
1.0
 40
0.082771320196
 41
4.587250855661087
 42
4.679594889512888
  0
ELLIPSE
  5
9BC6
330
1F
100
AcDbEntity
  8
AM_0
100
AcDbEllipse
 10
-27.87451171875027
 20
6.526248931885135
 30
0.0
 11
-89.09812230947009
 21
45.59676122425582
 31
0.0
210
0.0
220
0.0
230
0.9999999999999998
 40
0.0827713742759
 41
4.587250774751082
 42
4.664812354526253
  0
ELLIPSE
  5
9BC7
330
1F
100
AcDbEntity
  8
AM_0
100
AcDbEllipse
 10
-11.24401855469027
 20
5.77365112304713
 30
0.0
 11
-0.052352746380001
 21
2.999542209721003
 31
0.0
210
0.0
220
0.0
230
0.9999999999999998
 40
0.9848051022863998
 41
3.154030290237188
 42
4.7123946898354
  0
ELLIPSE
  5
9BC8
330
1F
100
AcDbEntity
  8
AM_0
100
AcDbEllipse
 10
-11.24401855469027
 20
5.77365112304713
 30
0.0
 11
-0.052352746380001
 21
2.999542209721003
 31
0.0
210
0.0
220
0.0
230
0.9999999999999998
 40
0.9848051022863998
 41
4.7123946898354
 42
6.761687967537699
  0
ELLIPSE
  5
9BC9
330
1F
100
AcDbEntity
  8
AM_0
100
AcDbEllipse
 10
-28.95159912110027
 20
4.421665191650134
 30
0.0
 11
-89.09809785496006
 21
45.59677551547983
 31
0.0
210
0.0
220
0.0
230
1.0
 40
0.082771320196
 41
4.452401378724796
 42
4.529971009125527
  0
ELLIPSE
  5
9BCA
330
1F
100
AcDbEntity
  8
AM_0
100
AcDbEllipse
 10
-27.87451171875027
 20
6.526248931885135
 30
0.0
 11
-89.09812230947009
 21
45.59676122425582
 31
0.0
210
0.0
220
0.0
230
0.9999999999999998
 40
0.0827713742759
 41
4.437621744046345
 42
4.529970778689336
  0
ELLIPSE
  5
9BCB
330
1F
100
AcDbEntity
  8
AM_0
100
AcDbEllipse
 10
-11.33331298828027
 20
5.572052001953153
 30
0.0
 11
-0.0488740339999991
 21
2.799560494821001
 31
0.0
210
0.0
220
0.0
230
1.0
 40
0.9848096861741
 41
3.141592564818523
 42
4.712387058961899
  0
ELLIPSE
  5
9BCC
330
1F
100
AcDbEntity
  8
AM_0
100
AcDbEllipse
 10
-11.33331298828027
 20
5.572052001953153
 30
0.0
 11
-0.0488740339999991
 21
2.799560494821001
 31
0.0
210
0.0
220
0.0
230
1.0
 40
0.9848096861741
 41
0.0
 42
1.52446391883462
  0
ELLIPSE
  5
9BCD
330
1F
100
AcDbEntity
  8
AM_0
100
AcDbEllipse
 10
-11.43746948242027
 20
5.570251464844119
 30
0.0
 11
-0.0488586780900333
 21
2.799560524402997
 31
0.0
210
0.0
220
0.0
230
1.0
 40
0.9848152196236998
 41
0.0
 42
1.128583236494281
  0
ELLIPSE
  5
9BCE
330
1F
100
AcDbEntity
  8
AM_0
100
AcDbEllipse
 10
-11.33331298828027
 20
5.572052001953153
 30
0.0
 11
-0.0488740339999991
 21
2.799560494821001
 31
0.0
210
0.0
220
0.0
230
1.0
 40
0.9848096861741
 41
4.712387058961899
 42
6.283185307179586
  0
ELLIPSE
  5
9BD0
330
1F
100
AcDbEntity
  8
AM_0
100
AcDbEllipse
 10
-29.92675781250027
 20
1.533905029297102
 30
0.0
 11
2.447936949949959
 21
1.734252951364011
 31
0.0
210
0.0
220
0.0
230
1.0
 40
0.9539909299358999
 41
3.244695278814648
 42
4.180069887953806
  0
ELLIPSE
  5
9BD1
330
1F
100
AcDbEntity
  8
AM_0
100
AcDbEllipse
 10
-24.78540039063027
 20
2.07272338867213
 30
0.0
 11
2.447906587179997
 21
1.734252916355008
 31
0.0
210
0.0
220
0.0
230
0.9999999999999998
 40
0.9540046959236999
 41
4.180053081959446
 42
5.562525509279488
  0
ELLIPSE
  5
9BD2
330
1F
100
AcDbEntity
  8
AM_0
100
AcDbEllipse
 10
-12.29821777344027
 20
-0.6727905273438353
 30
0.0
 11
11.33195540027997
 21
1.714019857620017
 31
0.0
210
0.0
220
0.0
230
1.0
 40
0.6963648314318
 41
5.778485367846007
 42
5.816608510474237
  0
ELLIPSE
  5
9BD3
330
1F
100
AcDbEntity
  8
AM_0
100
AcDbEllipse
 10
-12.64575195313027
 20
0.0053710937501421
 30
0.0
 11
0.2489626258599516
 21
11.40982075839598
 31
0.0
210
0.0
220
0.0
230
1.0
 40
0.9848104506826999
 41
4.115456407668554
 42
4.468460510808611
  0
ELLIPSE
  5
9BD4
330
1F
100
AcDbEntity
  8
AM_0
100
AcDbEllipse
 10
-12.63778686524027
 20
-0.0004272460938353
 30
0.0
 11
0.3987736943399569
 21
11.399048086955
 31
0.0
210
0.0
220
0.0
230
0.9999999999999998
 40
0.9846461729352999
 41
4.121301850170626
 42
4.128492943657544
  0
ELLIPSE
  5
9BD5
330
1F
100
AcDbEntity
  8
AM_0
100
AcDbEllipse
 10
-12.64575195313027
 20
0.0053710937501421
 30
0.0
 11
0.2489626258599516
 21
11.40982075839598
 31
0.0
210
0.0
220
0.0
230
1.0
 40
0.9848104506826999
 41
3.185535750907955
 42
4.108126300847681
  0
ELLIPSE
  5
9BD6
330
1F
100
AcDbEntity
  8
AM_0
100
AcDbEllipse
 10
-13.54852294922027
 20
0.0250549316401418
 30
0.0
 11
0.2052459843400057
 21
9.404357702268999
 31
0.0
210
0.0
220
0.0
230
1.0
 40
0.9848082816580999
 41
3.28804786019624
 42
3.332349483857831
  0
ELLIPSE
  5
9BD7
330
1F
100
AcDbEntity
  8
AM_0
100
AcDbEllipse
 10
-10.64401245117027
 20
-0.0383300781248579
 30
0.0
 11
0.2478339103699684
 21
11.35815442847499
 31
0.0
210
0.0
220
0.0
230
0.9999999999999998
 40
0.173647966548
 41
2.228392289909197
 42
2.520032807851008
  0
ELLIPSE
  5
9BD8
330
1F
100
AcDbEntity
  8
AM_0
100
AcDbEllipse
 10
-5.699768066410271
 20
4.438873291015141
 30
0.0
 11
-3.70347592797999
 21
5.590148744769989
 31
0.0
210
0.0
220
0.0
230
0.9999999999999998
 40
0.50983031103
 41
2.426562713325594
 42
3.438800457590069
  0
ELLIPSE
  5
9BD9
330
1F
100
AcDbEntity
  8
AM_0
100
AcDbEllipse
 10
-13.91314697266024
 20
-6.91250610351588
 30
0.0
 11
0.0436248746499889
 21
1.999511760255998
 31
0.0
210
0.0
220
0.0
230
1.0
 40
0.9848214639086998
 41
3.141592564819584
 42
4.190258147330077
  0
ELLIPSE
  5
9BDA
330
1F
100
AcDbEntity
  8
AM_0
100
AcDbEllipse
 10
-13.91314697266024
 20
-6.91250610351588
 30
0.0
 11
0.0436248746499889
 21
1.999511760255998
 31
0.0
210
0.0
220
0.0
230
1.0
 40
0.9848214639086998
 41
1.570793317446309
 42
3.141592742360001
  0
ELLIPSE
  5
9BDB
330
1F
100
AcDbEntity
  8
AM_0
100
AcDbEllipse
 10
-5.699768066410271
 20
4.438873291015141
 30
0.0
 11
-3.70347592797999
 21
5.590148744769989
 31
0.0
210
0.0
220
0.0
230
0.9999999999999998
 40
0.50983031103
 41
2.216178607285293
 42
2.426562713325594
  0
ELLIPSE
  5
9BDC
330
1F
100
AcDbEntity
  8
AM_0
100
AcDbEllipse
 10
-36.50537109375024
 20
-8.002105712890923
 30
0.0
 11
-1.631958151059964
 21
1.156188857808995
 31
0.0
210
0.0
220
0.0
230
1.0
 40
0.9539752482842999
 41
0.5325827908336036
 42
3.007186024648337
  0
ELLIPSE
  5
9BDD
330
1F
100
AcDbEntity
  8
AM_0
100
AcDbEllipse
 10
-30.13854980469027
 20
1.839233398437102
 30
0.0
 11
1.223968474979982
 21
0.8671264756830044
 31
0.0
210
0.0
220
0.0
230
1.0
 40
0.9539991951002001
 41
2.046196623636385
 42
3.141592745228032
  0
ELLIPSE
  5
9BDE
330
1F
100
AcDbEntity
  8
AM_0
100
AcDbEllipse
 10
-23.33154296875027
 20
2.552642822265113
 30
0.0
 11
1.223968474969977
 21
0.8671264756830037
 31
0.0
210
0.0
220
0.0
230
1.0
 40
0.9539991951002001
 41
3.48802899614034
 42
5.124483819385961
  0
ELLIPSE
  5
9BDF
330
1F
100
AcDbEntity
  8
AM_0
100
AcDbEllipse
 10
-30.13854980469027
 20
1.839233398437102
 30
0.0
 11
1.223968474979982
 21
0.8671264756830044
 31
0.0
210
0.0
220
0.0
230
1.0
 40
0.9539991951002001
 41
3.141592561951553
 42
4.872631925685023
  0
ELLIPSE
  5
9BE0
330
1F
100
AcDbEntity
  8
AM_0
100
AcDbEllipse
 10
-30.79199218750027
 20
2.76156616210909
 30
0.0
 11
1.223968474969977
 21
0.8671264756820024
 31
0.0
210
0.0
220
0.0
230
1.0
 40
0.9539991951001999
 41
3.54796198385311
 42
3.719932739734839
  0
ELLIPSE
  5
9BE1
330
1F
100
AcDbEntity
  8
AM_0
100
AcDbEllipse
 10
-14.53015136719027
 20
2.615814208984119
 30
0.0
 11
-0.052352746380001
 21
2.999542209722001
 31
0.0
210
0.0
220
0.0
230
1.0
 40
0.9848152748156
 41
2.35619814991751
 42
3.141592742360559
  0
ELLIPSE
  5
9BE2
330
1F
100
AcDbEntity
  8
AM_0
100
AcDbEllipse
 10
-8.010009765630272
 20
1.529449462890141
 30
0.0
 11
-0.03489682351
 21
1.999694814388
 31
0.0
210
0.0
220
0.0
230
1.0
 40
0.9848075454738999
 41
2.69087148373844
 42
3.141592742361256
  0
ELLIPSE
  5
9BE3
330
1F
100
AcDbEntity
  8
AM_0
100
AcDbEllipse
 10
-19.23754882813027
 20
6.99386596679713
 30
0.0
 11
-0.0523681261900097
 21
2.999542179704
 31
0.0
210
0.0
220
0.0
230
1.0
 40
0.9848101102853
 41
1.570796956834849
 42
2.016902586099051
  0
ELLIPSE
  5
9BE4
330
1F
100
AcDbEntity
  8
AM_0
100
AcDbEllipse
 10
-3.64794921875027
 20
1.605590820312158
 30
0.0
 11
-0.03489682351
 21
1.999694814387005
 31
0.0
210
0.0
220
0.0
230
1.0
 40
0.9848075454738999
 41
3.14159256481833
 42
3.593004659287032
  0
ELLIPSE
  5
9BE5
330
1F
100
AcDbEntity
  8
AM_0
100
AcDbEllipse
 10
-4.19891357422027
 20
1.595977783203153
 30
0.0
 11
-0.03489682351
 21
1.999694814386998
 31
0.0
210
0.0
220
0.0
230
1.0
 40
0.9848075454738999
 41
3.14159256481833
 42
3.593004659287032
  0
ELLIPSE
  5
9BE6
330
1F
100
AcDbEntity
  8
AM_0
100
AcDbEllipse
 10
-15.13317871094027
 20
2.605285644531136
 30
0.0
 11
-0.0471190300600082
 21
2.699585052400997
 31
0.0
210
0.0
220
0.0
230
1.0
 40
0.9848067106975999
 41
2.731276699609385
 42
3.141592742361331
  0
ELLIPSE
  5
9BE7
330
1F
100
AcDbEntity
  8
AM_0
100
AcDbEllipse
 10
-26.99023437500027
 20
5.771575927734119
 30
0.0
 11
2.447906587179997
 21
1.734252916356003
 31
0.0
210
0.0
220
0.0
230
0.9999999999999998
 40
0.9539929338619
 41
1.563279030189552
 42
2.084157798631738
  0
ELLIPSE
  5
9BE8
330
1F
100
AcDbEntity
  8
AM_0
100
AcDbEllipse
 10
-27.22033691407027
 20
6.096466064453096
 30
0.0
 11
2.447906587179997
 21
1.734252916356007
 31
0.0
210
0.0
220
0.0
230
0.9999999999999998
 40
0.9540046959237001
 41
4.859424312895537
 42
6.206609272881284
  0
ELLIPSE
  5
9BE9
330
1F
100
AcDbEntity
  8
AM_0
100
AcDbEllipse
 10
-27.19616699219027
 20
6.116241455078096
 30
0.0
 11
2.460784978100032
 21
1.769897419076007
 31
0.0
210
0.0
220
0.0
230
1.0
 40
0.9491166740890999
 41
3.204565047699461
 42
3.208599648335286
  0
ELLIPSE
  5
9BEA
330
1F
100
AcDbEntity
  8
AM_0
100
AcDbEllipse
 10
-26.99023437500027
 20
5.771575927734119
 30
0.0
 11
2.447906587179997
 21
1.734252916356003
 31
0.0
210
0.0
220
0.0
230
0.9999999999999998
 40
0.9539929338619
 41
3.141592561950952
 42
3.655023830544521
  0
ELLIPSE
  5
9BEB
330
1F
100
AcDbEntity
  8
AM_0
100
AcDbEllipse
 10
-26.99023437500027
 20
5.771575927734119
 30
0.0
 11
2.447906587179997
 21
1.734252916356003
 31
0.0
210
0.0
220
0.0
230
0.9999999999999998
 40
0.9539929338619
 41
0.0
 42
0.513427110165917
  0
ELLIPSE
  5
9BEC
330
1F
100
AcDbEntity
  8
AM_0
100
AcDbEllipse
 10
-26.99023437500027
 20
5.771575927734119
 30
0.0
 11
2.447906587179997
 21
1.734252916356003
 31
0.0
210
0.0
220
0.0
230
0.9999999999999998
 40
0.9539929338619
 41
4.704887521941667
 42
5.225757003584023
  0
ELLIPSE
  5
9BED
330
1F
100
AcDbEntity
  8
AM_0
100
AcDbEllipse
 10
-26.99047851563027
 20
5.771392822265113
 30
0.0
 11
2.447631890240014
 21
1.734100374078001
 31
0.0
210
0.0
220
0.0
230
1.0
 40
0.9540531595631
 41
3.134155461968551
 42
3.141592745222849
  0
ELLIPSE
  5
9BEE
330
1F
100
AcDbEntity
  8
AM_0
100
AcDbEllipse
 10
-26.98522949219027
 20
5.775085449219119
 30
0.0
 11
2.442810009199998
 21
1.730957099926006
 31
0.0
210
0.0
220
0.0
230
1.0
 40
0.9549662135312001
 41
6.275660478071338
 42
6.283185307179586
  0
ARC
  5
9BEF
330
1F
100
AcDbEntity
  8
AM_11
100
AcDbCircle
 10
-12.50000000000027
 20
0.0000000000001421
 30
0.0
 40
12.5
100
AcDbArc
 50
269.9999974955182
 51
90.00000250448172
  0
LINE
  5
9BF0
330
1F
100
AcDbEntity
  8
AM_7
100
AcDbLine
 10
3.184478759759727
 20
0.0000000000001705
 30
0.0
 11
-305.9874902316558
 21
-0.0000000000004444
 31
0.0
  0
LINE
  5
9BF1
330
1F
100
AcDbEntity
  8
AM_11
100
AcDbLine
 10
-38.00000000000024
 20
-12.49999999999991
 30
0.0
 11
-12.50000000000024
 21
-12.49999999999985
 31
0.0
  0
LINE
  5
9BF2
330
1F
100
AcDbEntity
  8
AM_11
100
AcDbLine
 10
-38.00000000000028
 20
12.50000000000008
 30
0.0
 11
-12.50000000000029
 21
12.50000000000014
 31
0.0
  0
LINE
  5
9BF3
330
1F
100
AcDbEntity
  8
AM_0
100
AcDbLine
 10
-18.7691040039103
 20
11.74323844909713
 30
0.0
 11
-12.18331909180029
 21
11.85819816589312
 31
0.0
  0
LINE
  5
9BF4
330
1F
100
AcDbEntity
  8
AM_0
100
AcDbLine
 10
-15.35165405274027
 20
-0.5989913940428835
 30
0.0
 11
-12.40002441407027
 21
-0.5474777221678835
 31
0.0
  0
LINE
  5
9BF5
330
1F
100
AcDbEntity
  8
AM_0
100
AcDbLine
 10
-15.08605957032027
 20
-0.0943069458008665
 30
0.0
 11
-13.09152221680027
 21
-0.0594863891598436
 31
0.0
  0
LINE
  5
9BF6
330
1F
100
AcDbEntity
  8
AM_0
100
AcDbLine
 10
-12.91934204102024
 20
-11.82284927368185
 30
0.0
 11
-16.19808959961024
 21
-11.75131607055686
 31
0.0
  0
ARC
  5
9BFE
330
1F
100
AcDbEntity
  8
AM_0
100
AcDbCircle
 10
-298.0000000000003
 20
-13.66149902343842
 30
0.0
 40
2.0
100
AcDbArc
 50
180.0000086514213
 51
255.0000004932023
  0
ARC
  5
9BFF
330
1F
100
AcDbEntity
  8
AM_0
100
AcDbCircle
 10
-298.0000000000003
 20
13.66149902343657
 30
0.0
 40
2.000000238418599
100
AcDbArc
 50
104.9999926766061
 51
180.0000050089577
  0
LINE
  5
9C02
330
1F
100
AcDbEntity
  8
AM_0
100
AcDbLine
 10
-297.0000000000002
 20
-16.00000000000043
 30
0.0
 11
-100.0000000000002
 21
-16.00000000000003
 31
0.0
  0
LINE
  5
9C03
330
1F
100
AcDbEntity
  8
AM_0
100
AcDbLine
 10
-100.0000000000003
 20
15.99999999999996
 30
0.0
 11
-297.0000000000004
 21
15.99999999999953
 31
0.0
  0
LINE
  5
9C04
330
1F
100
AcDbEntity
  8
AM_0
100
AcDbLine
 10
-298.5176391601602
 20
-15.59335327148542
 30
0.0
 11
-298.5176391601603
 21
15.59335327148356
 31
0.0
  0
LINE
  5
9C05
330
1F
100
AcDbEntity
  8
AM_0
100
AcDbLine
 10
-297.0000000000002
 20
-16.00000000000042
 30
0.0
 11
-297.0000000000003
 21
15.99999999999956
 31
0.0
  0
LINE
  5
9C08
330
1F
100
AcDbEntity
  8
AM_0
100
AcDbLine
 10
-298.5175781250002
 20
-15.59335708618242
 30
0.0
 11
-297.0000000000002
 21
-16.00000000000042
 31
0.0
  0
LINE
  5
9C09
330
1F
100
AcDbEntity
  8
AM_0
100
AcDbLine
 10
-300.0000000000003
 20
-13.66149902343842
 30
0.0
 11
-300.0000000000003
 21
13.66149902343657
 31
0.0
  0
LINE
  5
9C0A
330
1F
100
AcDbEntity
  8
AM_0
100
AcDbLine
 10
-297.0000000000003
 20
16.00000381469657
 30
0.0
 11
-298.5176391601603
 21
15.59335899352957
 31
0.0
  0
LINE
  5
9C0C
330
1F
100
AcDbEntity
  8
AM_0
100
AcDbLine
 10
-100.0000000000002
 20
-16.00000000000003
 30
0.0
 11
-100.0000000000003
 21
15.99999999999996
 31
0.0
  0
LINE
  5
9C0D
330
1F
100
AcDbEntity
  8
AM_0
100
AcDbLine
 10
-97.00000000000024
 20
-15.00000000000003
 30
0.0
 11
-97.00000000000031
 21
14.99999999999997
 31
0.0
  0
LINE
  5
9C0E
330
1F
100
AcDbEntity
  8
AM_0
100
AcDbLine
 10
-90.00000000000023
 20
-15.00000000000001
 30
0.0
 11
-90.0000000000003
 21
14.99999999999997
 31
0.0
  0
LINE
  5
9C11
330
1F
100
AcDbEntity
  8
AM_0
100
AcDbLine
 10
-50.00000000000024
 20
-11.49999999999993
 30
0.0
 11
-20.80468750000024
 21
-11.49999999999987
 31
0.0
  0
LINE
  5
9C12
330
1F
100
AcDbEntity
  8
AM_0
100
AcDbLine
 10
-22.53155517578029
 20
11.50000000000011
 30
0.0
 11
-50.00000000000028
 21
11.50000000000008
 31
0.0
  0
LINE
  5
9C16
330
1F
100
AcDbEntity
  8
AM_0
100
AcDbLine
 10
-97.00000000000024
 20
-15.00000000000003
 30
0.0
 11
-90.00000000000023
 21
-15.00000000000001
 31
0.0
  0
ARC
  5
9C17
330
1F
100
AcDbEntity
  8
AM_0
100
AcDbCircle
 10
-97.00000000000024
 20
-20.00000000000003
 30
0.0
 40
5.0
100
AcDbArc
 50
90.00000250448172
 51
126.8699032291534
  0
LINE
  5
9C18
330
1F
100
AcDbEntity
  8
AM_0
100
AcDbLine
 10
-50.00000000000024
 20
-11.49999999999993
 30
0.0
 11
-50.00000000000028
 21
11.50000000000008
 31
0.0
  0
LINE
  5
9C19
330
1F
100
AcDbEntity
  8
AM_0
100
AcDbLine
 10
-31.84820556641027
 20
9.0219917297361
 30
0.0
 11
-29.70037841797027
 21
8.006952285766089
 31
0.0
  0
LINE
  5
9C1A
330
1F
100
AcDbEntity
  8
AM_0
100
AcDbLine
 10
-31.60540771485027
 20
5.187511444092109
 30
0.0
 11
-29.92675781250027
 21
5.445114135742102
 31
0.0
  0
LINE
  5
9C1B
330
1F
100
AcDbEntity
  8
AM_0
100
AcDbLine
 10
-31.36260986328027
 20
1.352985382080106
 30
0.0
 11
-31.60540771485027
 21
5.187500000000085
 31
0.0
  0
LINE
  5
9C1C
330
1F
100
AcDbEntity
  8
AM_11
100
AcDbLine
 10
-38.00000000000028
 20
12.50000000000008
 30
0.0
 11
-38.00000000000024
 21
-12.49999999999991
 31
0.0
  0
LINE
  5
9C1D
330
1F
100
AcDbEntity
  8
AM_0
100
AcDbLine
 10
-39.16027832032024
 20
-8.768535614013913
 30
0.0
 11
-38.47131347657024
 21
-7.796054840087919
 31
0.0
  0
LINE
  5
9C1E
330
1F
100
AcDbEntity
  8
AM_0
100
AcDbLine
 10
-38.47125244141024
 20
-7.796054840087919
 30
0.0
 11
-38.68475341797024
 21
-11.16753768920891
 31
0.0
  0
LINE
  5
9C1F
330
1F
100
AcDbEntity
  8
AM_0
100
AcDbLine
 10
-31.78570556641027
 20
9.380905151367102
 30
0.0
 11
-31.84161376953027
 21
10.26368904113809
 31
0.0
  0
LINE
  5
9C20
330
1F
100
AcDbEntity
  8
AM_0
100
AcDbLine
 10
-31.69274902344027
 20
9.623489379883096
 30
0.0
 11
-31.79821777344027
 21
9.348300933838089
 31
0.0
  0
LINE
  5
9C21
330
1F
100
AcDbEntity
  8
AM_0
100
AcDbLine
 10
-31.60540771485027
 20
5.187496185303103
 30
0.0
 11
-31.84820556641027
 21
9.02201271057109
 31
0.0
  0
LINE
  5
9C22
330
1F
100
AcDbEntity
  8
AM_0
100
AcDbLine
 10
-20.47070312500024
 20
-11.65808486938487
 30
0.0
 11
-23.84796142578024
 21
-11.58438873290988
 31
0.0
  0
LINE
  5
9C23
330
1F
100
AcDbEntity
  8
AM_0
100
AcDbLine
 10
-31.23199462891027
 20
-1.813060760497904
 30
0.0
 11
-31.21685791016027
 21
-1.834621429443899
 31
0.0
  0
LINE
  5
9C24
330
1F
100
AcDbEntity
  8
AM_0
100
AcDbLine
 10
-29.74359130860027
 20
-1.358501434325916
 30
0.0
 11
-28.49652099610024
 21
-3.11873245239289
 31
0.0
  0
LINE
  5
9C25
330
1F
100
AcDbEntity
  8
AM_0
100
AcDbLine
 10
-24.60223388672027
 20
-0.8196678161619104
 30
0.0
 11
-23.19537353516027
 21
-2.805431365966882
 31
0.0
  0
LINE
  5
9C26
330
1F
100
AcDbEntity
  8
AM_0
100
AcDbLine
 10
-29.74359130860027
 20
-1.358497619628906
 30
0.0
 11
-24.60223388672027
 21
-0.8196830749508876
 31
0.0
  0
LINE
  5
9C27
330
1F
100
AcDbEntity
  8
AM_0
100
AcDbLine
 10
-16.19808959961024
 20
-11.75130844116188
 30
0.0
 11
-16.55508422852024
 21
-11.74352645873986
 31
0.0
  0
LINE
  5
9C28
330
1F
100
AcDbEntity
  8
AM_0
100
AcDbLine
 10
-19.73181152344024
 20
-11.67417907714886
 30
0.0
 11
-20.30328369141024
 21
-11.66172790527386
 31
0.0
  0
LINE
  5
9C29
330
1F
100
AcDbEntity
  8
AM_0
100
AcDbLine
 10
-20.49462890625024
 20
-11.49987411498986
 30
0.0
 11
-20.47070312500024
 21
-11.65807342529288
 31
0.0
  0
LINE
  5
9C2A
330
1F
100
AcDbEntity
  8
AM_0
100
AcDbLine
 10
-20.28576660157024
 20
-11.49980163574187
 30
0.0
 11
-20.30328369141024
 21
-11.66175842285187
 31
0.0
  0
LINE
  5
9C2B
330
1F
100
AcDbEntity
  8
AM_0
100
AcDbLine
 10
-20.47070312500024
 20
-11.65808105468786
 30
0.0
 11
-20.30328369141024
 21
-11.66174316406286
 31
0.0
  0
LINE
  5
9C2C
330
1F
100
AcDbEntity
  8
AM_0
100
AcDbLine
 10
-16.57229614258024
 20
-11.47577667236288
 30
0.0
 11
-16.55511474610024
 21
-11.74353408813487
 31
0.0
  0
LINE
  5
9C2D
330
1F
100
AcDbEntity
  8
AM_0
100
AcDbLine
 10
-19.73175048828024
 20
-11.67420578002887
 30
0.0
 11
-19.71289062500024
 21
-11.49999237060586
 31
0.0
  0
LINE
  5
9C2E
330
1F
100
AcDbEntity
  8
AM_0
100
AcDbLine
 10
-16.55508422852024
 20
-11.74351882934587
 30
0.0
 11
-19.73181152344024
 21
-11.67417907714886
 31
0.0
  0
LINE
  5
9C2F
330
1F
100
AcDbEntity
  8
AM_0
100
AcDbLine
 10
-20.18109130860024
 20
-11.49999999999987
 30
0.0
 11
-16.75103759766024
 21
-11.49999999999987
 31
0.0
  0
LINE
  5
9C30
330
1F
100
AcDbEntity
  8
AM_0
100
AcDbLine
 10
-15.88229370117024
 20
-6.869548797607876
 30
0.0
 11
-16.42901611328024
 21
-6.857616424560859
 31
0.0
  0
LINE
  5
9C31
330
1F
100
AcDbEntity
  8
AM_0
100
AcDbLine
 10
-15.88229370117024
 20
-6.869529724120866
 30
0.0
 11
-15.94470214844024
 21
-9.729930877685873
 31
0.0
  0
LINE
  5
9C32
330
1F
100
AcDbEntity
  8
AM_0
100
AcDbLine
 10
-16.66674804688024
 20
-11.48959732055686
 30
0.0
 11
-16.66769409180024
 21
-11.48347091674787
 31
0.0
  0
LINE
  5
9C33
330
1F
100
AcDbEntity
  8
AM_0
100
AcDbLine
 10
-15.03915405274027
 20
-0.339015960693871
 30
0.0
 11
-15.08605957032027
 21
-0.0942955017088707
 31
0.0
  0
LINE
  5
9C34
330
1F
100
AcDbEntity
  8
AM_0
100
AcDbLine
 10
-16.19812011719024
 20
-11.75131225585987
 30
0.0
 11
-16.24032592774024
 21
-11.47182464599586
 31
0.0
  0
LINE
  5
9C35
330
1F
100
AcDbEntity
  8
AM_0
100
AcDbLine
 10
-24.59692382813027
 20
8.541786193847116
 30
0.0
 11
-22.48535156250027
 21
10.00324249267609
 31
0.0
  0
LINE
  5
9C36
330
1F
100
AcDbEntity
  8
AM_0
100
AcDbLine
 10
-21.99975585938027
 20
2.334209442139126
 30
0.0
 11
-24.28002929688027
 21
3.536205291748132
 31
0.0
  0
LINE
  5
9C37
330
1F
100
AcDbEntity
  8
AM_0
100
AcDbLine
 10
-24.28002929688027
 20
3.536197662353089
 30
0.0
 11
-22.72375488282027
 21
1.496170043945113
 31
0.0
  0
LINE
  5
9C38
330
1F
100
AcDbEntity
  8
AM_0
100
AcDbLine
 10
-22.24255371094027
 20
6.16872406005811
 30
0.0
 11
-24.02893066407027
 21
6.063194274902087
 31
0.0
  0
LINE
  5
9C39
330
1F
100
AcDbEntity
  8
AM_0
100
AcDbLine
 10
-26.63323974610027
 20
1.086456298828096
 30
0.0
 11
-22.72375488282027
 21
1.496181488037109
 31
0.0
  0
LINE
  5
9C3A
330
1F
100
AcDbEntity
  8
AM_0
100
AcDbLine
 10
-29.70037841797027
 20
8.006938934326086
 30
0.0
 11
-31.12420654297027
 21
9.860027313232109
 31
0.0
  0
LINE
  5
9C3B
330
1F
100
AcDbEntity
  8
AM_0
100
AcDbLine
 10
-28.62683105469027
 20
8.119453430176093
 30
0.0
 11
-29.70037841797027
 21
8.00696754455609
 31
0.0
  0
LINE
  5
9C3C
330
1F
100
AcDbEntity
  8
AM_0
100
AcDbLine
 10
-29.63366699219027
 20
6.953907012939083
 30
0.0
 11
-29.70037841797027
 21
8.006973266601079
 31
0.0
  0
LINE
  5
9C3D
330
1F
100
AcDbEntity
  8
AM_0
100
AcDbLine
 10
-23.30529785157027
 20
10.67948722839312
 30
0.0
 11
-24.59698486328027
 21
8.541784286499108
 31
0.0
  0
LINE
  5
9C3E
330
1F
100
AcDbEntity
  8
AM_0
100
AcDbLine
 10
-25.67059326172027
 20
8.429264068603089
 30
0.0
 11
-24.59698486328027
 21
8.541780471802127
 31
0.0
  0
LINE
  5
9C3F
330
1F
100
AcDbEntity
  8
AM_0
100
AcDbLine
 10
-29.38342285157027
 20
3.001358032226107
 30
0.0
 11
-31.36260986328027
 21
1.352981567383096
 31
0.0
  0
LINE
  5
9C40
330
1F
100
AcDbEntity
  8
AM_0
100
AcDbLine
 10
-29.45007324219027
 20
4.0543861389161
 30
0.0
 11
-29.38342285157027
 21
3.001380920410099
 31
0.0
  0
LINE
  5
9C41
330
1F
100
AcDbEntity
  8
AM_0
100
AcDbLine
 10
-24.53027343750027
 20
7.488773345947123
 30
0.0
 11
-24.59692382813027
 21
8.541780471802127
 31
0.0
  0
LINE
  5
9C42
330
1F
100
AcDbEntity
  8
AM_0
100
AcDbLine
 10
-30.54272460938027
 20
0.6767539978031039
 30
0.0
 11
-29.38342285157027
 21
3.001380920410099
 31
0.0
  0
LINE
  5
9C43
330
1F
100
AcDbEntity
  8
AM_0
100
AcDbLine
 10
-28.30981445313027
 20
3.113849639892094
 30
0.0
 11
-29.38342285157027
 21
3.001361846924083
 31
0.0
  0
LINE
  5
9C44
330
1F
100
AcDbEntity
  8
AM_0
100
AcDbLine
 10
-24.34667968750027
 20
4.589214324951115
 30
0.0
 11
-24.28002929688027
 21
3.536178588867102
 31
0.0
  0
LINE
  5
9C45
330
1F
100
AcDbEntity
  8
AM_0
100
AcDbLine
 10
-25.35363769532027
 20
3.4236793518061
 30
0.0
 11
-24.27996826172027
 21
3.536201477051093
 31
0.0
  0
LINE
  5
9C46
330
1F
100
AcDbEntity
  8
AM_0
100
AcDbLine
 10
-29.55151367188027
 20
4.211791992187102
 30
0.0
 11
-29.53015136719027
 21
4.181606292724097
 31
0.0
  0
LINE
  5
9C47
330
1F
100
AcDbEntity
  8
AM_0
100
AcDbLine
 10
-24.96069335938027
 20
7.418922424316093
 30
0.0
 11
-25.06469726563027
 21
7.56571578979512
 31
0.0
  0
LINE
  5
9C48
330
1F
100
AcDbEntity
  8
AM_0
100
AcDbLine
 10
-25.82385253907027
 20
6.789775848389098
 30
0.0
 11
-25.71807861328027
 21
5.119838714599126
 31
0.0
  0
LINE
  5
9C49
330
1F
100
AcDbEntity
  8
AM_0
100
AcDbLine
 10
-27.35119628907027
 20
7.470199584961136
 30
0.0
 11
-25.82385253907027
 21
6.789779663086136
 31
0.0
  0
LINE
  5
9C4A
330
1F
100
AcDbEntity
  8
AM_0
100
AcDbLine
 10
-28.77276611328026
 20
6.480720520019104
 30
0.0
 11
-27.35119628907027
 21
7.47018432617213
 31
0.0
  0
LINE
  5
9C4B
330
1F
100
AcDbEntity
  8
AM_0
100
AcDbLine
 10
-28.77276611328026
 20
6.480709075928103
 30
0.0
 11
-28.66705322266027
 21
4.810802459717109
 31
0.0
  0
LINE
  5
9C4C
330
1F
100
AcDbEntity
  8
AM_0
100
AcDbLine
 10
-27.13970947266027
 20
4.130374908447123
 30
0.0
 11
-28.66705322266027
 21
4.810791015625113
 31
0.0
  0
LINE
  5
9C4D
330
1F
100
AcDbEntity
  8
AM_0
100
AcDbLine
 10
-25.71807861328027
 20
5.119846343994112
 30
0.0
 11
-27.13970947266027
 21
4.130367279053103
 31
0.0
  0
LINE
  5
9C4E
330
1F
100
AcDbEntity
  8
AM_0
100
AcDbLine
 10
-27.13970947266027
 20
4.130363464355099
 30
0.0
 11
-27.65966796875027
 21
4.864276885986129
 31
0.0
  0
LINE
  5
9C4F
330
1F
100
AcDbEntity
  8
AM_0
100
AcDbLine
 10
-27.65966796875027
 20
4.864295959472116
 30
0.0
 11
-28.69976806641027
 21
5.327674865722116
 31
0.0
  0
LINE
  5
9C50
330
1F
100
AcDbEntity
  8
AM_0
100
AcDbLine
 10
-25.71807861328027
 20
5.119846343994112
 30
0.0
 11
-26.23809814453027
 21
5.853794097900134
 31
0.0
  0
LINE
  5
9C51
330
1F
100
AcDbEntity
  8
AM_0
100
AcDbLine
 10
-26.31109619141027
 20
7.006793975830106
 30
0.0
 11
-26.23809814453027
 21
5.85380172729512
 31
0.0
  0
LINE
  5
9C52
330
1F
100
AcDbEntity
  8
AM_0
100
AcDbLine
 10
-26.23809814453027
 20
5.853778839111129
 30
0.0
 11
-27.65966796875027
 21
4.864276885986129
 31
0.0
  0
LINE
  5
9C53
330
1F
100
AcDbEntity
  8
AM_0
100
AcDbLine
 10
-31.02056884766027
 20
10.13055229187008
 30
0.0
 11
-31.12420654297027
 21
9.860036849975102
 31
0.0
  0
LINE
  5
9C54
330
1F
100
AcDbEntity
  8
AM_0
100
AcDbLine
 10
-27.21472167969027
 20
10.2697429656981
 30
0.0
 11
-23.30523681641027
 21
10.67947578430212
 31
0.0
  0
LINE
  5
9C55
330
1F
100
AcDbEntity
  8
AM_0
100
AcDbLine
 10
-31.12414550782027
 20
9.860061645508096
 30
0.0
 11
-27.21472167969027
 21
10.2697582244871
 31
0.0
  0
LINE
  5
9C56
330
1F
100
AcDbEntity
  8
AM_0
100
AcDbLine
 10
-24.53948974610027
 20
10.80975341796911
 30
0.0
 11
-31.02056884766027
 21
10.13055419921909
 31
0.0
  0
LINE
  5
9C57
330
1F
100
AcDbEntity
  8
AM_0
100
AcDbLine
 10
-23.30523681641027
 20
10.67946243286112
 30
0.0
 11
-24.53948974610027
 21
10.80974578857413
 31
0.0
  0
LINE
  5
9C58
330
1F
100
AcDbEntity
  8
AM_0
100
AcDbLine
 10
-27.21472167969027
 20
10.2697334289551
 30
0.0
 11
-27.16101074219027
 21
8.64650726318311
 31
0.0
  0
LINE
  5
9C59
330
1F
100
AcDbEntity
  8
AM_0
100
AcDbLine
 10
-23.13739013672027
 20
10.67957305908211
 30
0.0
 11
-24.37768554688027
 21
10.81052589416512
 31
0.0
  0
LINE
  5
9C5A
330
1F
100
AcDbEntity
  8
AM_0
100
AcDbLine
 10
-30.54272460938027
 20
0.676773071289091
 30
0.0
 11
-26.63323974610027
 21
1.086475372314112
 31
0.0
  0
LINE
  5
9C5B
330
1F
100
AcDbEntity
  8
AM_0
100
AcDbLine
 10
-26.63323974610027
 20
1.086471557617102
 30
0.0
 11
-26.79467773438027
 21
2.86176681518512
 31
0.0
  0
LINE
  5
9C5C
330
1F
100
AcDbEntity
  8
AM_0
100
AcDbLine
 10
-19.86718750000029
 20
11.72406005859411
 30
0.0
 11
-18.7691040039103
 21
11.74322700500513
 31
0.0
  0
LINE
  5
9C5D
330
1F
100
AcDbEntity
  8
AM_0
100
AcDbLine
 10
-21.5591430664103
 20
11.69450759887712
 30
0.0
 11
-19.8671264648503
 21
11.72404861450212
 31
0.0
  0
LINE
  5
9C5E
330
1F
100
AcDbEntity
  8
AM_0
100
AcDbLine
 10
-22.50939941407027
 20
10.87780189514111
 30
0.0
 11
-22.33978271485027
 21
10.88076210022009
 31
0.0
  0
LINE
  5
9C5F
330
1F
100
AcDbEntity
  8
AM_0
100
AcDbLine
 10
-22.22479248047027
 20
8.851396560669115
 30
0.0
 11
-22.20446777344027
 21
8.851762771606132
 31
0.0
  0
LINE
  5
9C60
330
1F
100
AcDbEntity
  8
AM_0
100
AcDbLine
 10
-22.0916137695303
 20
11.6852359771731
 30
0.0
 11
-21.5591430664103
 21
11.6945133209231
 31
0.0
  0
LINE
  5
9C61
330
1F
100
AcDbEntity
  8
AM_0
100
AcDbLine
 10
-22.25146484375029
 20
11.5438499450681
 30
0.0
 11
-22.53222656250029
 21
11.53893661499009
 31
0.0
  0
LINE
  5
9C62
330
1F
100
AcDbEntity
  8
AM_0
100
AcDbLine
 10
-22.25146484375029
 20
11.5438632965091
 30
0.0
 11
-22.2513427734403
 21
11.5358066558841
 31
0.0
  0
LINE
  5
9C63
330
1F
100
AcDbEntity
  8
AM_0
100
AcDbLine
 10
-22.20513916016027
 20
8.889173507690117
 30
0.0
 11
-22.20452880860027
 21
8.851764678955106
 31
0.0
  0
LINE
  5
9C64
330
1F
100
AcDbEntity
  8
AM_0
100
AcDbLine
 10
-22.53222656250029
 20
11.53895378112812
 30
0.0
 11
-22.5311279296903
 21
11.47469329834009
 31
0.0
  0
LINE
  5
9C65
330
1F
100
AcDbEntity
  8
AM_0
100
AcDbLine
 10
-22.08331298828027
 20
1.829971313476136
 30
0.0
 11
-21.85430908203027
 21
1.834732055664119
 31
0.0
  0
LINE
  5
9C66
330
1F
100
AcDbEntity
  8
AM_0
100
AcDbLine
 10
-22.03784179688027
 20
2.96235275268512
 30
0.0
 11
-21.89691162110027
 21
2.763458251953125
 31
0.0
  0
LINE
  5
9C67
330
1F
100
AcDbEntity
  8
AM_0
100
AcDbLine
 10
-22.99456787110027
 20
11.27442932128909
 30
0.0
 11
-22.95410156250027
 21
10.63535881042511
 31
0.0
  0
LINE
  5
9C68
330
1F
100
AcDbEntity
  8
AM_0
100
AcDbLine
 10
-22.22814941407027
 20
5.995021820068103
 30
0.0
 11
-21.89697265625027
 21
2.763442993164119
 31
0.0
  0
LINE
  5
9C69
330
1F
100
AcDbEntity
  8
AM_0
100
AcDbLine
 10
-22.22814941407027
 20
5.995006561279097
 30
0.0
 11
-16.58187866211027
 21
0.4583282470701136
 31
0.0
  0
LINE
  5
9C6A
330
1F
100
AcDbEntity
  8
AM_0
100
AcDbLine
 10
-22.97723388672026
 20
11.25419807434113
 30
0.0
 11
-22.91223144532027
 21
10.61967277526812
 31
0.0
  0
LINE
  5
9C6B
330
1F
100
AcDbEntity
  8
AM_0
100
AcDbLine
 10
-22.23132324219027
 20
5.994441986084126
 30
0.0
 11
-22.22814941407027
 21
5.995018005371122
 31
0.0
  0
LINE
  5
9C6C
330
1F
100
AcDbEntity
  8
AM_0
100
AcDbLine
 10
-22.19152832032027
 20
6.942295074463089
 30
0.0
 11
-22.22766113282027
 21
9.014701843262116
 31
0.0
  0
LINE
  5
9C6D
330
1F
100
AcDbEntity
  8
AM_0
100
AcDbLine
 10
-22.24255371094027
 20
6.16872406005811
 30
0.0
 11
-22.48535156250027
 21
10.00323867797809
 31
0.0
  0
LINE
  5
9C6E
330
1F
100
AcDbEntity
  8
AM_0
100
AcDbLine
 10
-21.99975585938027
 20
2.33419799804713
 30
0.0
 11
-22.24255371094027
 21
6.16874313354512
 31
0.0
  0
LINE
  5
9C6F
330
1F
100
AcDbEntity
  8
AM_0
100
AcDbLine
 10
-90.0000000000003
 20
14.99999999999997
 30
0.0
 11
-97.00000000000031
 21
14.99999999999997
 31
0.0
  0
ARC
  5
9C71
330
1F
100
AcDbEntity
  8
AM_0
100
AcDbCircle
 10
-97.00000000000031
 20
19.99999999999996
 30
0.0
 40
5.0
100
AcDbArc
 50
233.1300967708468
 51
269.9999974955182
  0
LINE
  5
9C81
330
1F
100
AcDbEntity
  8
AM_0
100
AcDbLine
 10
-9.604278564460273
 20
-0.2986755371098582
 30
0.0
 11
-3.440551757820273
 21
-0.1910705566408524
 31
0.0
  0
LINE
  5
9C82
330
1F
100
AcDbEntity
  8
AM_0
100
AcDbLine
 10
-5.749755859380272
 20
-0.4314270019528408
 30
0.0
 11
-12.40002441407027
 21
-0.5474853515628695
 31
0.0
  0
LINE
  5
9C83
330
1F
100
AcDbEntity
  8
AM_0
100
AcDbLine
 10
-12.40002441407024
 20
-6.69375610351588
 30
0.0
 11
-12.40002441407027
 21
-0.5474853515628695
 31
0.0
  0
LINE
  5
9C84
330
1F
100
AcDbEntity
  8
AM_0
100
AcDbLine
 10
-12.40002441407024
 20
-11.40420532226586
 30
0.0
 11
-12.40002441407024
 21
-9.308135986327854
 31
0.0
  0
LINE
  5
9C85
330
1F
100
AcDbEntity
  8
AM_0
100
AcDbLine
 10
-14.47775268555027
 20
-0.3837165832518678
 30
0.0
 11
-9.604278564460273
 21
-0.2986640930178623
 31
0.0
  0
LINE
  5
9C86
330
1F
100
AcDbEntity
  8
AM_0
100
AcDbLine
 10
-8.542144775390269
 20
-0.3958854675288705
 30
0.0
 11
-8.564270019530269
 21
-0.2805252075198439
 31
0.0
  0
LINE
  5
9C87
330
1F
100
AcDbEntity
  8
AM_0
100
AcDbLine
 10
-12.91934204102024
 20
-11.82285690307586
 30
0.0
 11
-12.98074340821024
 21
-11.41701126098585
 31
0.0
  0
LINE
  5
9C88
330
1F
100
AcDbEntity
  8
AM_0
100
AcDbLine
 10
-12.91934204102024
 20
-11.82285308837886
 30
0.0
 11
-12.10333251953024
 21
-11.84067535400386
 31
0.0
  0
ARC
  5
9C89
330
1F
100
AcDbEntity
  8
AM_0
100
AcDbCircle
 10
-12.40002441407027
 20
0.0000000000001421
 30
0.0
 40
11.5
100
AcDbArc
 50
346.4167780381602
 51
347.4441417959396
  0
LINE
  5
9C8A
330
1F
100
AcDbEntity
  8
AM_0
100
AcDbLine
 10
-0.8775024414102432
 20
-3.465148925780852
 30
0.0
 11
-0.8725891113302424
 21
-3.108585357665845
 31
0.0
  0
LINE
  5
9C8B
330
1F
100
AcDbEntity
  8
AM_0
100
AcDbLine
 10
-3.440551757820273
 20
-0.1910781860348436
 30
0.0
 11
-2.400024414070273
 21
-0.1729202270508381
 31
0.0
  0
LINE
  5
9C8C
330
1F
100
AcDbEntity
  8
AM_0
100
AcDbLine
 10
-2.399993896490272
 20
-0.1728973388668464
 30
0.0
 11
-0.7669067382802695
 21
-0.1443939208988354
 31
0.0
  0
LINE
  5
9C8D
330
1F
100
AcDbEntity
  8
AM_0
100
AcDbLine
 10
-1.221649169920269
 20
-2.700878143310859
 30
0.0
 11
-1.64062500000027
 21
-2.691722869872847
 31
0.0
  0
LINE
  5
9C8E
330
1F
100
AcDbEntity
  8
AM_0
100
AcDbLine
 10
-1.175048828130272
 20
-2.499999999999857
 30
0.0
 11
-1.175048828130272
 21
-0.3515624999998579
 31
0.0
  0
LINE
  5
9C8F
330
1F
100
AcDbEntity
  8
AM_0
100
AcDbLine
 10
-1.175018310550271
 20
-0.3515510559078336
 30
0.0
 11
-1.324493408210273
 21
-0.3541450500488565
 31
0.0
  0
LINE
  5
9C90
330
1F
100
AcDbEntity
  8
AM_0
100
AcDbLine
 10
-1.324462890630272
 20
-0.3541679382328482
 30
0.0
 11
-5.749755859380272
 21
-0.4314384460448366
 31
0.0
  0
LINE
  5
9C91
330
1F
100
AcDbEntity
  8
AM_0
100
AcDbLine
 10
-1.175048828130272
 20
-0.1515197753908524
 30
0.0
 11
-1.175048828130272
 21
-0.3515624999998579
 31
0.0
  0
LINE
  5
9C92
330
1F
100
AcDbEntity
  8
AM_0
100
AcDbLine
 10
-4.164001464850272
 20
-0.4037170410158524
 30
0.0
 11
-4.202239990240272
 21
-0.2043762207028408
 31
0.0
  0
LINE
  5
9C93
330
1F
100
AcDbEntity
  8
AM_0
100
AcDbLine
 10
-1.818634033210273
 20
-3.04934692382784
 30
0.0
 11
-1.530395507820273
 21
-2.811294555663835
 31
0.0
  0
LINE
  5
9C94
330
1F
100
AcDbEntity
  8
AM_0
100
AcDbLine
 10
-1.400878906250241
 20
-3.097034454345845
 30
0.0
 11
-1.413909912110241
 21
-3.694820404052848
 31
0.0
  0
LINE
  5
9C95
330
1F
100
AcDbEntity
  8
AM_0
100
AcDbLine
 10
-1.413909912110241
 20
-3.694835662841853
 30
0.0
 11
-2.01168823242024
 21
-3.681774139403842
 31
0.0
  0
LINE
  5
9C96
330
1F
100
AcDbEntity
  8
AM_0
100
AcDbLine
 10
-1.831726074220242
 20
-5.28943252563485
 30
0.0
 11
-2.454986572270243
 21
-5.00093078613284
 31
0.0
  0
LINE
  5
9C97
330
1F
100
AcDbEntity
  8
AM_0
100
AcDbLine
 10
-1.400878906250241
 20
-3.097030639648835
 30
0.0
 11
-0.8725891113302424
 21
-3.108566284179829
 31
0.0
  0
LINE
  5
9C98
330
1F
100
AcDbEntity
  8
AM_0
100
AcDbLine
 10
-1.831726074220242
 20
-5.289417266845845
 30
0.0
 11
-1.218322753910243
 21
-5.302814483642833
 31
0.0
  0
LINE
  5
9C99
330
1F
100
AcDbEntity
  8
AM_0
100
AcDbLine
 10
-1.413879394530241
 20
-3.694816589355838
 30
0.0
 11
-0.8786621093802438
 21
-3.706474304198849
 31
0.0
  0
LINE
  5
9C9A
330
1F
100
AcDbEntity
  8
AM_0
100
AcDbLine
 10
-12.59756469727027
 20
8.447496414184143
 30
0.0
 11
-12.52780151367026
 21
8.488460540771143
 31
0.0
  0
LINE
  5
9C9B
330
1F
100
AcDbEntity
  8
AM_0
100
AcDbLine
 10
-11.38861083985027
 20
2.77064895629914
 30
0.0
 11
-11.28442382813027
 21
2.772480010986129
 31
0.0
  0
LINE
  5
9C9C
330
1F
100
AcDbEntity
  8
AM_0
100
AcDbLine
 10
-11.38217163086027
 20
8.371629714966132
 30
0.0
 11
-11.48632812500027
 21
8.369798660278121
 31
0.0
  0
LINE
  5
9C9D
330
1F
100
AcDbEntity
  8
AM_0
100
AcDbLine
 10
-9.87142944336027
 20
6.463748931885135
 30
0.0
 11
-9.841186523440271
 21
4.73192977905316
 31
0.0
  0
LINE
  5
9C9E
330
1F
100
AcDbEntity
  8
AM_0
100
AcDbLine
 10
-11.36352539063027
 20
7.30383300781213
 30
0.0
 11
-9.87142944336027
 21
6.463748931885135
 31
0.0
  0
LINE
  5
9C9F
330
1F
100
AcDbEntity
  8
AM_0
100
AcDbLine
 10
-12.82540893555027
 20
6.412181854248132
 30
0.0
 11
-11.36352539063027
 21
7.303840637207116
 31
0.0
  0
LINE
  5
9CA0
330
1F
100
AcDbEntity
  8
AM_0
100
AcDbLine
 10
-12.82540893555027
 20
6.412174224853146
 30
0.0
 11
-12.79516601563027
 21
4.680381774902144
 31
0.0
  0
LINE
  5
9CA1
330
1F
100
AcDbEntity
  8
AM_0
100
AcDbLine
 10
-11.30307006836027
 20
3.840286254883125
 30
0.0
 11
-12.79513549805027
 21
4.68039321899414
 31
0.0
  0
LINE
  5
9CA2
330
1F
100
AcDbEntity
  8
AM_0
100
AcDbLine
 10
-9.841186523440271
 20
4.731956481933139
 30
0.0
 11
-11.30307006836027
 21
3.84028244018512
 31
0.0
  0
LINE
  5
9CA3
330
1F
100
AcDbEntity
  8
AM_0
100
AcDbLine
 10
-9.871398925780269
 20
6.463760375976136
 30
0.0
 11
-10.39230346680027
 21
6.454666137695141
 31
0.0
  0
LINE
  5
9CA4
330
1F
100
AcDbEntity
  8
AM_0
100
AcDbLine
 10
-11.62127685547027
 20
7.146614074707116
 30
0.0
 11
-10.39227294922027
 21
6.454662322998132
 31
0.0
  0
LINE
  5
9CA5
330
1F
100
AcDbEntity
  8
AM_0
100
AcDbLine
 10
-9.841186523440271
 20
4.731937408447123
 30
0.0
 11
-10.36206054688027
 21
4.722843170166157
 31
0.0
  0
LINE
  5
9CA6
330
1F
100
AcDbEntity
  8
AM_0
100
AcDbLine
 10
-10.36206054688027
 20
4.722843170166157
 30
0.0
 11
-11.56616210938027
 21
3.988414764404154
 31
0.0
  0
LINE
  5
9CA7
330
1F
100
AcDbEntity
  8
AM_0
100
AcDbLine
 10
-10.39227294922027
 20
6.45465850830115
 30
0.0
 11
-10.36206054688027
 21
4.722835540771143
 31
0.0
  0
DIMENSION
  5
9E1F
330
1F
100
AcDbEntity
  8
AM_5
100
AcDbDimension
  2
*D5
 10
-38.00000000000025
 20
30.00000481469657
 30
0.0
 11
-19.00000000000023
 21
32.35000481469654
 31
0.0
 70
    32
  1
<>
 51
359.9999999999998
  3
AM_JIS$0
100
AcDbAlignedDimension
 13
-0.00000000000027
 23
0.0000000000001421
 33
0.0
 14
-38.00000000000028
 24
12.50000000000011
 34
0.0
 50
180.0
100
AcDbRotatedDimension
1001
GENIUS_GENDTOL_13
1000

1000
h7
1000

1040
0.0
1001
ACAD
1000
DSTYLE
1002
{
1070
   287
1070
     3
1070
    41
1040
5.0
1070
    40
1040
0.5
1070
    42
1040
1.0
1070
    43
1040
12.0
1070
    48
1040
0.1
1070
    78
1070
     8
1070
   140
1040
6.4
1070
   176
1070
   256
1070
   177
1070
   256
1070
   271
1070
     1
1070
   272
1070
     3
1070
   275
1070
     0
1070
   284
1070
     0
1070
   289
1070
     3
1070
   340
1005
6B
1070
   371
1070
    -1
1070
   372
1070
    -1
1002
}
  0
DIMENSION
  5
9EB4
330
1F
100
AcDbEntity
  8
AM_5
100
AcDbDimension
  2
*D6
 10
-50.00000000000024
 20
-30.00000130234145
 30
0.0
 11
-25.00000000000025
 21
-27.65000130234144
 31
0.0
 70
    32
  1
<>
 51
359.9999999999998
  3
AM_JIS$0
100
AcDbAlignedDimension
 13
-0.00000000000027
 23
0.0000000000001705
 33
0.0
 14
-50.00000000000024
 24
-11.49999999999993
 34
0.0
100
AcDbRotatedDimension
1001
GENIUS_GENDTOL_13
1000

1000
h7
1000

1040
0.0
1001
ACAD
1000
DSTYLE
1002
{
1070
   287
1070
     3
1070
    41
1040
5.0
1070
    40
1040
0.5
1070
    42
1040
1.0
1070
    43
1040
12.0
1070
    48
1040
0.1
1070
    78
1070
     8
1070
   140
1040
6.4
1070
   176
1070
   256
1070
   177
1070
   256
1070
   271
1070
     1
1070
   272
1070
     3
1070
   275
1070
     0
1070
   284
1070
     0
1070
   289
1070
     3
1070
   340
1005
6B
1070
   371
1070
    -1
1070
   372
1070
    -1
1002
}
  0
DIMENSION
  5
9F49
330
1F
100
AcDbEntity
  8
AM_5
100
AcDbDimension
  2
*D7
 10
-100.0000000000002
 20
-40.00000130234144
 30
0.0
 11
-50.00000000000025
 21
-37.65000130234144
 31
0.0
 70
    32
  1
<>
 51
359.9999999999998
  3
AM_JIS$0
100
AcDbAlignedDimension
 13
-0.00000000000027
 23
0.0000000000001705
 33
0.0
 14
-100.0000000000002
 24
-16.00000000000004
 34
0.0
100
AcDbRotatedDimension
1001
GENIUS_GENDTOL_13
1000

1000
h7
1000

1040
0.0
1001
ACAD
1000
DSTYLE
1002
{
1070
   287
1070
     3
1070
    41
1040
5.0
1070
    40
1040
0.5
1070
    42
1040
1.0
1070
    43
1040
12.0
1070
    48
1040
0.1
1070
    78
1070
     8
1070
   140
1040
6.4
1070
   176
1070
   256
1070
   177
1070
   256
1070
   271
1070
     1
1070
   272
1070
     3
1070
   275
1070
     0
1070
   284
1070
     0
1070
   289
1070
     3
1070
   340
1005
6B
1070
   371
1070
    -1
1070
   372
1070
    -1
1002
}
  0
DIMENSION
  5
9FD5
330
1F
100
AcDbEntity
  8
AM_5
100
AcDbDimension
  2
*D8
 10
-300.0000000000003
 20
-40.00000130234144
 30
0.0
 11
-200.0000000000002
 21
-37.65000130234144
 31
0.0
 70
    32
  1
<>
 51
359.9999999999998
  3
AM_JIS$0
100
AcDbAlignedDimension
 13
-100.0000000000002
 23
-16.00000000000004
 33
0.0
 14
-300.0000000000003
 24
-13.66149902343842
 34
0.0
100
AcDbRotatedDimension
1001
GENIUS_GENDTOL_13
1000

1000
h7
1000

1040
0.0
1001
ACAD
1000
DSTYLE
1002
{
1070
   287
1070
     3
1070
    41
1040
5.0
1070
    40
1040
0.5
1070
    42
1040
1.0
1070
    43
1040
12.0
1070
    48
1040
0.1
1070
    78
1070
     8
1070
   140
1040
6.4
1070
   176
1070
   256
1070
   177
1070
   256
1070
   271
1070
     1
1070
   272
1070
     3
1070
   275
1070
     0
1070
   284
1070
     0
1070
   289
1070
     3
1070
   340
1005
6B
1070
   371
1070
    -1
1070
   372
1070
    -1
1002
}
  0
DIMENSION
  5
A07C
330
1F
100
AcDbEntity
  8
AM_5
100
AcDbDimension
  2
*D9
 10
-300.0000000000003
 20
-50.00000130234145
 30
0.0
 11
-150.0000000000002
 21
-47.65000130234144
 31
0.0
 70
    32
  1
<>
 51
359.9999999999998
  3
AM_JIS$0
100
AcDbAlignedDimension
 13
-0.00000000000027
 23
0.0000000000001705
 33
0.0
 14
-300.0000000000003
 24
-13.66149902343842
 34
0.0
100
AcDbRotatedDimension
1001
GENIUS_GENDTOL_13
1000

1000
h7
1000

1040
0.0
1001
ACAD
1000
DSTYLE
1002
{
1070
   287
1070
     3
1070
    41
1040
5.0
1070
    40
1040
0.5
1070
    42
1040
1.0
1070
    43
1040
12.0
1070
    48
1040
0.1
1070
    78
1070
     8
1070
   140
1040
6.4
1070
   176
1070
   256
1070
   177
1070
   256
1070
   271
1070
     1
1070
   272
1070
     3
1070
   275
1070
     0
1070
   284
1070
     0
1070
   289
1070
     3
1070
   340
1005
6B
1070
   371
1070
    -1
1070
   372
1070
    -1
1002
}
  0
DIMENSION
  5
A111
330
1F
100
AcDbEntity
  8
AM_5
100
AcDbDimension
  2
*D10
 10
-319.9874912316558
 20
-16.00000000000042
 30
0.0
 11
-322.3374912316558
 21
0.0000019073480097
 31
0.0
 70
    32
  1
%%c<>
 51
359.9999999999998
  3
AM_JIS$0
100
AcDbAlignedDimension
 13
-297.0000000000003
 23
16.00000381469654
 33
0.0
 14
-297.0000000000002
 24
-16.00000000000042
 34
0.0
 50
270.0
100
AcDbRotatedDimension
1001
GENIUS_GENDTOL_13
1000

1000
h7
1000

1040
0.0
1001
ACAD
1000
DSTYLE
1002
{
1070
   287
1070
     3
1070
    41
1040
5.0
1070
    40
1040
0.5
1070
    42
1040
1.0
1070
    43
1040
12.0
1070
    48
1040
0.1
1070
    78
1070
     8
1070
   140
1040
6.4
1070
   176
1070
   256
1070
   177
1070
   256
1070
   271
1070
     1
1070
   272
1070
     3
1070
   275
1070
     0
1070
   284
1070
     0
1070
   289
1070
     3
1070
   340
1005
6B
1070
   371
1070
    -1
1070
   372
1070
    -1
1002
}
  0
DIMENSION
  5
A19D
330
1F
100
AcDbEntity
  8
AM_5
100
AcDbDimension
  2
*D11
 10
17.18447975975972
 20
-12.49999999999985
 30
0.0
 11
14.83447975975972
 21
0.0000000000001573
 31
0.0
 70
    32
  1
%%c<>
 51
359.9999999999998
  3
AM_JIS$0
100
AcDbAlignedDimension
 13
-12.50000054639342
 23
12.50000000000017
 33
0.0
 14
-12.50000054639342
 24
-12.49999999999984
 34
0.0
 50
90.0
100
AcDbRotatedDimension
1001
GENIUS_GENDTOL_13
1000

1000
h7
1000

1040
0.0
1001
ACAD
1000
DSTYLE
1002
{
1070
   287
1070
     3
1070
    41
1040
5.0
1070
    40
1040
0.5
1070
    42
1040
1.0
1070
    43
1040
12.0
1070
    48
1040
0.1
1070
    78
1070
     8
1070
   140
1040
6.4
1070
   176
1070
   256
1070
   177
1070
   256
1070
   271
1070
     1
1070
   272
1070
     3
1070
   275
1070
     0
1070
   284
1070
     0
1070
   289
1070
     3
1070
   340
1005
6B
1070
   371
1070
    -1
1070
   372
1070
    -1
1002
}
  0
LINE
  5
A314
330
1F
100
AcDbEntity
  8
AM_0
100
AcDbLine
 10
-50.00000000000028
 20
11.50000000000008
 30
0.0
 11
-90.0000000000003
 21
14.99999999999997
 31
0.0
  0
LINE
  5
A315
330
1F
100
AcDbEntity
  8
AM_0
100
AcDbLine
 10
-50.00000000000024
 20
-11.49999999999993
 30
0.0
 11
-90.00000000000023
 21
-15.00000000000001
 31
0.0
  0
VIEWPORT
  5
110
330
101
100
AcDbEntity
 67
     1
  8
0
100
AcDbViewport
 10
420.5
 20
297.0
 30
0.0
 40
948.9782706766916
 41
628.452
 68
     1
 69
     1
1001
ACAD
1000
MVIEW
1002
{
1070
    16
1010
0.0
1020
0.0
1030
0.0
1010
0.0
1020
0.0
1030
1.0
1040
0.0
1040
628.452
1040
420.5
1040
297.0
1040
50.0
1040
0.0
1040
0.0
1070
     0
1070
   100
1070
     1
1070
     1
1070
     0
1070
     0
1070
     0
1070
     0
1040
0.0
1040
0.0
1040
0.0
1040
10.0
1040
10.0
1040
10.0
1040
10.0
1070
     0
1002
{
1002
}
1002
}
  0
ENDSEC
  0
SECTION
  2
OBJECTS
  0
DICTIONARY
  5
C
330
0
100
AcDbDictionary
  3
ACAD_GROUP
350
D
  3
ACAD_LAYOUT
350
1A
  3
ACAD_MLINESTYLE
350
17
  3
ACAD_PLOTSETTINGS
350
19
  3
ACAD_PLOTSTYLENAME
350
E
  3
ACDBVARIABLEDICTIONARY
350
34
  3
ACMDICTIONARY
350
43
  3
AMG
350
2B
  3
AMGSNAPSETTINGS
350
6E
  3
DWGPROPS
350
A562
  3
ACDBHEADERROUNDTRIPXREC
350
A573
  0
DICTIONARY
  5
74
330
1F
100
AcDbDictionary
280
     1
  3
ACAD_INDEX
360
A564
  3
ACAD_LAYOUTSELFREF
360
A596
  0
DICTIONARY
  5
A59B
330
101
100
AcDbDictionary
280
     1
  3
ACAD_LAYOUTSELFREF
360
A59C
  0
DICTIONARY
  5
D
102
{ACAD_REACTORS
330
C
102
}
330
C
100
AcDbDictionary
  0
DICTIONARY
  5
1A
102
{ACAD_REACTORS
330
C
102
}
330
C
100
AcDbDictionary
  0
DICTIONARY
  5
17
102
{ACAD_REACTORS
330
C
102
}
330
C
100
AcDbDictionary
  3
STANDARD
350
18
  0
DICTIONARY
  5
19
102
{ACAD_REACTORS
330
C
102
}
330
C
100
AcDbDictionary
  3
ASAMI
350
399D
  0
ACDBDICTIONARYWDFLT
  5
E
102
{ACAD_REACTORS
330
C
102
}
330
C
100
AcDbDictionary
281
     1
  3
Normal
350
F
100
AcDbDictionaryWithDefault
340
F
  0
DICTIONARY
  5
34
102
{ACAD_REACTORS
330
C
102
}
330
C
100
AcDbDictionary
  3
INDEXCTL
350
35
  3
SORTENTS
350
B5E
  0
DICTIONARY
  5
43
102
{ACAD_REACTORS
330
C
102
}
330
C
100
AcDbDictionary
  3
ACMSTDDICTIONARY
350
260
  0
DICTIONARY
  5
2B
102
{ACAD_REACTORS
330
C
102
}
330
C
100
AcDbDictionary
  3
ACMGSETTINGS
350
2C
  0
DICTIONARY
  5
6E
102
{ACAD_REACTORS
330
C
102
}
330
C
100
AcDbDictionary
  0
XRECORD
  5
A562
102
{ACAD_REACTORS
330
C
102
}
330
C
100
AcDbXrecord
  1
DWGPROPS COOKIE
  2

  3

  4

  6

  7

  8

  9

300
AmdtFileType=82
301
=
302
=
303
=
304
=
305
=
306
=
307
=
308
=
309
=
 40
0.9125092708333333
 41
2452802.716478761
 42
2453075.664408622
  1

 90
        1
  0
DICTIONARY
  5
A573
102
{ACAD_REACTORS
330
C
102
}
330
C
100
AcDbDictionary
  3
TSTACKALIGN
350
A574
  3
TSTACKSIZE
350
A575
  3
HYPERLINKBASE
350
A576
  3
STYLESHEET
350
A577
  3
LAYOUTDICT
350
A578
  3
PLOTSETDICT
350
A579
  3
PLOTSTYLNAMDICT
350
A57A
  3
LWETCUNION
350
A57B
  3
INSUNITS
350
A57C
  3
CEPSNTYPE
350
A57D
  3
FINGERPRINTGUID
350
A57E
  3
VERSIONGUID
350
A57F
  3
PSVPSCALE
350
A580
  3
DIMSTYLEDATA
350
A581
  3
PUCSORTHOREF
350
A582
  3
PUCSORTHOVIEW
350
A583
  3
PUCSBASE
350
A584
  3
PUCSORGTOP
350
A585
  3
PUCSORGBOTTOM
350
A586
  3
PUCSORGLEFT
350
A587
  3
PUCSORGRIGHT
350
A588
  3
PUCSORGFRONT
350
A589
  3
PUCSORGBACK
350
A58A
  3
UCSORTHOREF
350
A58B
  3
UCSORTHOVIEW
350
A58C
  3
UCSBASE
350
A58D
  3
UCSORGTOP
350
A58E
  3
UCSORGBOTTOM
350
A58F
  3
UCSORGLEFT
350
A590
  3
UCSORGRIGHT
350
A591
  3
UCSORGFRONT
350
A592
  3
UCSORGBACK
350
A593
  0
DICTIONARY
  5
A564
102
{ACAD_REACTORS
330
74
102
}
330
74
100
AcDbDictionary
  3
*A1
350
A565
  0
XRECORD
  5
A596
102
{ACAD_REACTORS
330
74
102
}
330
74
100
AcDbXrecord
340
1F
  0
XRECORD
  5
A59C
102
{ACAD_REACTORS
330
A59B
102
}
330
A59B
100
AcDbXrecord
340
101
  0
MLINESTYLE
  5
18
102
{ACAD_REACTORS
330
17
102
}
330
17
100
AcDbMlineStyle
  2
STANDARD
 70
     0
  3

 62
   256
 51
90.0
 52
90.0
 71
     2
 49
0.5
 62
   256
  6
BYLAYER
 49
-0.5
 62
   256
  6
BYLAYER
  0
PLOTSETTINGS
  5
399D
102
{ACAD_REACTORS
330
19
102
}
330
19
100
AcDbPlotSettings
  1
asami
  2
RICOH imagio MF1540
  4
A4
  6

 40
5.831416606903076
 41
7.651742935180664
 42
4.90008544921875
 43
5.789077758789062
 44
296.9683227539062
 45
209.9733276367187
 46
0.0
 47
0.0
 48
-156.6707931774246
 49
-74.57609991074048
140
58.59973180214831
141
60.61068161925596
142
1.0
143
1.095343097833084
 70
  1712
 72
     1
 73
     1
 74
     4
  7
asami.ctb
 75
     0
147
0.9129559514076438
148
156.6707931774246
149
74.57609991074048
  0
ACDBPLACEHOLDER
  5
F
102
{ACAD_REACTORS
330
E
102
}
330
E
100
AcDbPlaceHolder
280
     0
  0
DICTIONARYVAR
  5
35
102
{ACAD_REACTORS
330
34
102
}
330
34
100
DictionaryVariables
280
     0
  1
1
  0
DICTIONARYVAR
  5
B5E
102
{ACAD_REACTORS
330
34
102
}
330
34
100
DictionaryVariables
280
     0
  1
96
  0
DICTIONARY
  5
260
102
{ACAD_REACTORS
330
43
102
}
330
43
100
AcDbDictionary
  0
DICTIONARY
  5
2C
102
{ACAD_REACTORS
330
2B
102
}
330
2B
100
AcDbDictionary
  3
DWGSETTINGS
350
2D
  0
XRECORD
  5
A574
102
{ACAD_REACTORS
330
A573
102
}
330
A573
100
AcDbXrecord
 90
        1
  0
XRECORD
  5
A575
102
{ACAD_REACTORS
330
A573
102
}
330
A573
100
AcDbXrecord
 90
       70
  0
XRECORD
  5
A576
102
{ACAD_REACTORS
330
A573
102
}
330
A573
100
AcDbXrecord
  1

  0
XRECORD
  5
A577
102
{ACAD_REACTORS
330
A573
102
}
330
A573
100
AcDbXrecord
  1
ASAMI.ctb
  0
XRECORD
  5
A578
102
{ACAD_REACTORS
330
A573
102
}
330
A573
100
AcDbXrecord
340
1A
  0
XRECORD
  5
A579
102
{ACAD_REACTORS
330
A573
102
}
330
A573
100
AcDbXrecord
340
19
  0
XRECORD
  5
A57A
102
{ACAD_REACTORS
330
A573
102
}
330
A573
100
AcDbXrecord
340
E
  0
XRECORD
  5
A57B
102
{ACAD_REACTORS
330
A573
102
}
330
A573
100
AcDbXrecord
 90
    10781
  0
XRECORD
  5
A57C
102
{ACAD_REACTORS
330
A573
102
}
330
A573
100
AcDbXrecord
 90
        4
  0
XRECORD
  5
A57D
102
{ACAD_REACTORS
330
A573
102
}
330
A573
100
AcDbXrecord
 90
        0
  0
XRECORD
  5
A57E
102
{ACAD_REACTORS
330
A573
102
}
330
A573
100
AcDbXrecord
  1
{AFB28963-8C59-40AE-9337-C84526B81ACE}
  0
XRECORD
  5
A57F
102
{ACAD_REACTORS
330
A573
102
}
330
A573
100
AcDbXrecord
  1
{12885C34-2070-4605-A8F8-E3C51BF26487}
  0
XRECORD
  5
A580
102
{ACAD_REACTORS
330
A573
102
}
330
A573
100
AcDbXrecord
 40
0.0
  0
XRECORD
  5
A581
102
{ACAD_REACTORS
330
A573
102
}
330
A573
100
AcDbXrecord
1000
DSTYLE
1002
{
1070
    79
 70
     2
1070
   341
340
59
1070
   342
340
59
1070
   371
 70
    -1
1070
   372
 70
    -1
1002
}
  0
XRECORD
  5
A582
102
{ACAD_REACTORS
330
A573
102
}
330
A573
100
AcDbXrecord
340
0
  0
XRECORD
  5
A583
102
{ACAD_REACTORS
330
A573
102
}
330
A573
100
AcDbXrecord
 70
     0
  0
XRECORD
  5
A584
102
{ACAD_REACTORS
330
A573
102
}
330
A573
100
AcDbXrecord
340
0
  0
XRECORD
  5
A585
102
{ACAD_REACTORS
330
A573
102
}
330
A573
100
AcDbXrecord
 10
0.0
 20
0.0
 30
0.0
  0
XRECORD
  5
A586
102
{ACAD_REACTORS
330
A573
102
}
330
A573
100
AcDbXrecord
 10
0.0
 20
0.0
 30
0.0
  0
XRECORD
  5
A587
102
{ACAD_REACTORS
330
A573
102
}
330
A573
100
AcDbXrecord
 10
0.0
 20
0.0
 30
0.0
  0
XRECORD
  5
A588
102
{ACAD_REACTORS
330
A573
102
}
330
A573
100
AcDbXrecord
 10
0.0
 20
0.0
 30
0.0
  0
XRECORD
  5
A589
102
{ACAD_REACTORS
330
A573
102
}
330
A573
100
AcDbXrecord
 10
0.0
 20
0.0
 30
0.0
  0
XRECORD
  5
A58A
102
{ACAD_REACTORS
330
A573
102
}
330
A573
100
AcDbXrecord
 10
0.0
 20
0.0
 30
0.0
  0
XRECORD
  5
A58B
102
{ACAD_REACTORS
330
A573
102
}
330
A573
100
AcDbXrecord
340
0
  0
XRECORD
  5
A58C
102
{ACAD_REACTORS
330
A573
102
}
330
A573
100
AcDbXrecord
 70
     0
  0
XRECORD
  5
A58D
102
{ACAD_REACTORS
330
A573
102
}
330
A573
100
AcDbXrecord
340
0
  0
XRECORD
  5
A58E
102
{ACAD_REACTORS
330
A573
102
}
330
A573
100
AcDbXrecord
 10
0.0
 20
0.0
 30
0.0
  0
XRECORD
  5
A58F
102
{ACAD_REACTORS
330
A573
102
}
330
A573
100
AcDbXrecord
 10
0.0
 20
0.0
 30
0.0
  0
XRECORD
  5
A590
102
{ACAD_REACTORS
330
A573
102
}
330
A573
100
AcDbXrecord
 10
0.0
 20
0.0
 30
0.0
  0
XRECORD
  5
A591
102
{ACAD_REACTORS
330
A573
102
}
330
A573
100
AcDbXrecord
 10
0.0
 20
0.0
 30
0.0
  0
XRECORD
  5
A592
102
{ACAD_REACTORS
330
A573
102
}
330
A573
100
AcDbXrecord
 10
0.0
 20
0.0
 30
0.0
  0
XRECORD
  5
A593
102
{ACAD_REACTORS
330
A573
102
}
330
A573
100
AcDbXrecord
 10
0.0
 20
0.0
 30
0.0
  0
LAYER_INDEX
  5
A565
102
{ACAD_REACTORS
330
A564
102
}
330
A564
100
AcDbIndex
 40
2453152.410339236
100
AcDbLayerIndex
  8
0
360
A566
 90
        0
  8
AM_0
360
A567
 90
      292
  8
AM_5
360
A568
 90
        7
  8
AM_7
360
A569
 90
        1
  8
AM_6
360
A56A
 90
        1
  8
Defpoints
360
A56B
 90
        0
  8
AM_3
360
A56C
 90
        0
  8
AM_11
360
A56D
 90
        4
  8
PV0001_1
360
A56E
 90
        0
  8
2
360
A56F
 90
        0
  8
1
360
A570
 90
        0
  8
AM_4
360
A571
 90
        0
  0
XRECORD
  5
2D
102
{ACAD_REACTORS
330
2C
102
}
330
2C
100
AcDbXrecord
  1
VERSION
140
15.0
  1
PRODUCT
  2
AutoCAD Mechanical 2000
  0
IDBUFFER
  5
A566
330
0
100
AcDbIdBuffer
  0
IDBUFFER
  5
A567
330
0
100
AcDbIdBuffer
330
9C66
330
9C67
330
9C68
330
9C69
330
9C6A
330
9C6B
330
9C6C
330
9C6D
330
9C6E
330
9C6F
330
9C71
330
9C81
330
9C82
330
9C83
330
9C84
330
9C85
330
9C86
330
9C87
330
9C88
330
9C89
330
9C8A
330
9C8B
330
9C8C
330
9C8D
330
9C8E
330
9C8F
330
9C90
330
9C91
330
9C92
330
9C93
330
9C94
330
9C95
330
9C96
330
9C97
330
9C98
330
9C99
330
9C9A
330
9C9B
330
9C9C
330
9C9D
330
9C9E
330
9C9F
330
9CA0
330
9CA1
330
9CA2
330
9CA3
330
9CA4
330
9CA5
330
9CA6
330
9CA7
330
A314
330
A315
330
9AED
330
9AEE
330
9AEF
330
9AF0
330
9AF1
330
9AF2
330
9AF3
330
9AF4
330
9AF5
330
9AF6
330
9AF7
330
9AF8
330
9AF9
330
9AFA
330
9AFB
330
9AFC
330
9AFD
330
9AFE
330
9AFF
330
9B00
330
9B01
330
9B02
330
9B03
330
9B04
330
9B05
330
9B06
330
9B07
330
9B08
330
9B09
330
9B0A
330
9B0B
330
9B0C
330
9B0D
330
9B0E
330
9B0F
330
9B10
330
9B11
330
9B12
330
9B13
330
9B14
330
9B15
330
9B16
330
9B35
330
9B36
330
9B37
330
9B38
330
9B54
330
9B55
330
9B56
330
9B57
330
9B58
330
9B59
330
9B5A
330
9B5B
330
9B5C
330
9B5D
330
9B5E
330
9B5F
330
9B60
330
9B61
330
9B62
330
9B63
330
9B64
330
9B65
330
9B66
330
9B67
330
9B68
330
9B69
330
9B6A
330
9B6B
330
9B6C
330
9B6D
330
9B6E
330
9B6F
330
9B70
330
9B71
330
9B72
330
9B73
330
9B74
330
9B75
330
9B76
330
9B77
330
9B78
330
9B79
330
9B7A
330
9B7B
330
9B7C
330
9B7D
330
9B83
330
9B84
330
9B85
330
9BA1
330
9BA5
330
9BA6
330
9BA7
330
9BA8
330
9BA9
330
9BC0
330
9BC1
330
9BC2
330
9BC3
330
9BC4
330
9BC5
330
9BC6
330
9BC7
330
9BC8
330
9BC9
330
9BCA
330
9BCB
330
9BCC
330
9BCD
330
9BCE
330
9BD0
330
9BD1
330
9BD2
330
9BD3
330
9BD4
330
9BD5
330
9BD6
330
9BD7
330
9BD8
330
9BD9
330
9BDA
330
9BDB
330
9BDC
330
9BDD
330
9BDE
330
9BDF
330
9BE0
330
9BE1
330
9BE2
330
9BE3
330
9BE4
330
9BE5
330
9BE6
330
9BE7
330
9BE8
330
9BE9
330
9BEA
330
9BEB
330
9BEC
330
9BED
330
9BEE
330
9BF3
330
9BF4
330
9BF5
330
9BF6
330
9BFE
330
9BFF
330
9C02
330
9C03
330
9C04
330
9C05
330
9C08
330
9C09
330
9C0A
330
9C0C
330
9C0D
330
9C0E
330
9C11
330
9C12
330
9C16
330
9C17
330
9C18
330
9C19
330
9C1A
330
9C1B
330
9C1D
330
9C1E
330
9C1F
330
9C20
330
9C21
330
9C22
330
9C23
330
9C24
330
9C25
330
9C26
330
9C27
330
9C28
330
9C29
330
9C2A
330
9C2B
330
9C2C
330
9C2D
330
9C2E
330
9C2F
330
9C30
330
9C31
330
9C32
330
9C33
330
9C34
330
9C35
330
9C36
330
9C37
330
9C38
330
9C39
330
9C3A
330
9C3B
330
9C3C
330
9C3D
330
9C3E
330
9C3F
330
9C40
330
9C41
330
9C42
330
9C43
330
9C44
330
9C45
330
9C46
330
9C47
330
9C48
330
9C49
330
9C4A
330
9C4B
330
9C4C
330
9C4D
330
9C4E
330
9C4F
330
9C50
330
9C51
330
9C52
330
9C53
330
9C54
330
9C55
330
9C56
330
9C57
330
9C58
330
9C59
330
9C5A
330
9C5B
330
9C5C
330
9C5D
330
9C5E
330
9C5F
330
9C60
330
9C61
330
9C62
330
9C63
330
9C64
330
9C65
  0
IDBUFFER
  5
A568
330
0
100
AcDbIdBuffer
330
9E1F
330
9EB4
330
9F49
330
9FD5
330
A07C
330
A111
330
A19D
  0
IDBUFFER
  5
A569
330
0
100
AcDbIdBuffer
330
9BF0
  0
IDBUFFER
  5
A56A
330
0
100
AcDbIdBuffer
330
388D
  0
IDBUFFER
  5
A56B
330
0
100
AcDbIdBuffer
  0
IDBUFFER
  5
A56C
330
0
100
AcDbIdBuffer
  0
IDBUFFER
  5
A56D
330
0
100
AcDbIdBuffer
330
9BEF
330
9BF1
330
9BF2
330
9C1C
  0
IDBUFFER
  5
A56E
330
0
100
AcDbIdBuffer
  0
IDBUFFER
  5
A56F
330
0
100
AcDbIdBuffer
  0
IDBUFFER
  5
A570
330
0
100
AcDbIdBuffer
  0
IDBUFFER
  5
A571
330
0
100
AcDbIdBuffer
  0
ENDSEC
  0
EOF
