  0
SECTION
  2
HEADER
  9
$ACADVER
  1
AC1014
  9
$ACADMAINTVER
 70
     9
  9
$DWGCODEPAGE
  3
ANSI_932
  9
$INSBASE
 10
0.0
 20
0.0
 30
0.0
  9
$EXTMIN
 10
-182.4893991933602
 20
-72.50000118313185
 30
-0.00000001
  9
$EXTMAX
 10
18.09475808007976
 20
34.70000302655758
 30
0.00000001
  9
$LIMMIN
 10
-189.4688044232393
 20
-93.94270540387077
  9
$LIMMAX
 10
74.00371415777783
 20
76.04815405596593
  9
$ORTHOMODE
 70
     0
  9
$REGENMODE
 70
     1
  9
$FILLMODE
 70
     1
  9
$QTEXTMODE
 70
     0
  9
$MIRRTEXT
 70
     0
  9
$DRAGMODE
 70
     2
  9
$LTSCALE
 40
1.0
  9
$OSMODE
 70
    55
  9
$ATTMODE
 70
     1
  9
$TEXTSIZE
 40
2.5
  9
$TRACEWID
 40
1.0
  9
$TEXTSTYLE
  7
STANDARD
  9
$CLAYER
  8
AM_0
  9
$CELTYPE
  6
BYLAYER
  9
$CECOLOR
 62
   256
  9
$CELTSCALE
 40
1.0
  9
$DELOBJ
 70
     1
  9
$DISPSILH
 70
     0
  9
$DIMSCALE
 40
0.5
  9
$DIMASZ
 40
2.5
  9
$DIMEXO
 40
1.0
  9
$DIMDLI
 40
12.0
  9
$DIMRND
 40
0.0
  9
$DIMDLE
 40
0.0
  9
$DIMEXE
 40
1.0
  9
$DIMTP
 40
0.1
  9
$DIMTM
 40
0.1
  9
$DIMTXT
 40
3.2
  9
$DIMCEN
 40
0.0
  9
$DIMTSZ
 40
0.0
  9
$DIMTOL
 70
     0
  9
$DIMLIM
 70
     0
  9
$DIMTIH
 70
     0
  9
$DIMTOH
 70
     0
  9
$DIMSE1
 70
     0
  9
$DIMSE2
 70
     0
  9
$DIMTAD
 70
     3
  9
$DIMZIN
 70
     8
  9
$DIMBLK
  1
OPEN30
  9
$DIMASO
 70
     1
  9
$DIMSHO
 70
     1
  9
$DIMPOST
  1

  9
$DIMAPOST
  1
"
  9
$DIMALT
 70
     0
  9
$DIMALTD
 70
     2
  9
$DIMALTF
 40
0.0393701
  9
$DIMLFAC
 40
1.0
  9
$DIMTOFL
 70
     1
  9
$DIMTVP
 40
0.0
  9
$DIMTIX
 70
     0
  9
$DIMSOXD
 70
     0
  9
$DIMSAH
 70
     0
  9
$DIMBLK1
  1

  9
$DIMBLK2
  1

  9
$DIMSTYLE
  2
AM_JIS
  9
$DIMCLRD
 70
   256
  9
$DIMCLRE
 70
   256
  9
$DIMCLRT
 70
     2
  9
$DIMTFAC
 40
0.71
  9
$DIMGAP
 40
1.5
  9
$DIMJUST
 70
     0
  9
$DIMSD1
 70
     0
  9
$DIMSD2
 70
     0
  9
$DIMTOLJ
 70
     0
  9
$DIMTZIN
 70
     0
  9
$DIMALTZ
 70
     0
  9
$DIMALTTZ
 70
     0
  9
$DIMFIT
 70
     3
  9
$DIMUPT
 70
     0
  9
$DIMUNIT
 70
     2
  9
$DIMDEC
 70
     3
  9
$DIMTDEC
 70
     3
  9
$DIMALTU
 70
     2
  9
$DIMALTTD
 70
     2
  9
$DIMTXSTY
  7
ASAMI
  9
$DIMAUNIT
 70
     0
  9
$LUNITS
 70
     2
  9
$LUPREC
 70
     2
  9
$SKETCHINC
 40
1.0
  9
$FILLETRAD
 40
0.4
  9
$AUNITS
 70
     0
  9
$AUPREC
 70
     0
  9
$MENU
  1
.
  9
$ELEVATION
 40
0.0
  9
$PELEVATION
 40
0.0
  9
$THICKNESS
 40
0.0
  9
$LIMCHECK
 70
     1
  9
$BLIPMODE
 70
     0
  9
$CHAMFERA
 40
1.0
  9
$CHAMFERB
 40
1.0
  9
$CHAMFERC
 40
20.0
  9
$CHAMFERD
 40
0.0
  9
$SKPOLY
 70
     0
  9
$TDCREATE
 40
2452802.716478761
  9
$TDUPDATE
 40
2453152.411016516
  9
$TDINDWG
 40
0.9442888426
  9
$TDUSRTIMER
 40
0.9442888426
  9
$USRTIMER
 70
     1
  9
$ANGBASE
 50
0.0
  9
$ANGDIR
 70
     0
  9
$PDMODE
 70
     0
  9
$PDSIZE
 40
0.0
  9
$PLINEWID
 40
0.0
  9
$COORDS
 70
     1
  9
$SPLFRAME
 70
     0
  9
$SPLINETYPE
 70
     6
  9
$SPLINESEGS
 70
     8
  9
$ATTDIA
 70
     1
  9
$ATTREQ
 70
     1
  9
$HANDLING
 70
 12289
  9
$HANDSEED
  5
AF6F
  9
$SURFTAB1
 70
     6
  9
$SURFTAB2
 70
     6
  9
$SURFTYPE
 70
     6
  9
$SURFU
 70
     6
  9
$SURFV
 70
     6
  9
$UCSNAME
  2

  9
$UCSORG
 10
-0.0000000000002682
 20
0.000000000000161
 30
0.0
  9
$UCSXDIR
 10
1.0
 20
0.000000000000002
 30
0.0
  9
$UCSYDIR
 10
-0.000000000000002
 20
1.0
 30
0.0
  9
$PUCSNAME
  2

  9
$PUCSORG
 10
0.0
 20
0.0
 30
0.0
  9
$PUCSXDIR
 10
1.0
 20
0.0
 30
0.0
  9
$PUCSYDIR
 10
0.0
 20
1.0
 30
0.0
  9
$USERI1
 70
     0
  9
$USERI2
 70
     0
  9
$USERI3
 70
     0
  9
$USERI4
 70
     0
  9
$USERI5
 70
     0
  9
$USERR1
 40
0.0
  9
$USERR2
 40
0.0
  9
$USERR3
 40
0.0
  9
$USERR4
 40
0.0
  9
$USERR5
 40
0.0
  9
$WORLDVIEW
 70
     1
  9
$SHADEDGE
 70
     3
  9
$SHADEDIF
 70
    70
  9
$TILEMODE
 70
     1
  9
$MAXACTVP
 70
    64
  9
$PINSBASE
 10
0.0
 20
0.0
 30
0.0
  9
$PLIMCHECK
 70
     0
  9
$PEXTMIN
 10
1.000000000000000E+20
 20
1.000000000000000E+20
 30
1.000000000000000E+20
  9
$PEXTMAX
 10
-1.000000000000000E+20
 20
-1.000000000000000E+20
 30
-1.000000000000000E+20
  9
$PLIMMIN
 10
0.0
 20
0.0
  9
$PLIMMAX
 10
841.0
 20
594.0
  9
$UNITMODE
 70
     0
  9
$VISRETAIN
 70
     1
  9
$PLINEGEN
 70
     0
  9
$PSLTSCALE
 70
     0
  9
$TREEDEPTH
 70
  3020
  9
$PICKSTYLE
 70
     0
  9
$CMLSTYLE
  2
STANDARD
  9
$CMLJUST
 70
     0
  9
$CMLSCALE
 40
20.0
  9
$PROXYGRAPHICS
 70
     1
  9
$MEASUREMENT
 70
     1
  0
ENDSEC
  0
SECTION
  2
CLASSES
  0
CLASS
  1
ACDBDICTIONARYWDFLT
  2
AcDbDictionaryWithDefault
  3
AutoCAD 2000
 90
        0
280
     0
281
     0
  0
CLASS
  1
ACDBPLACEHOLDER
  2
AcDbPlaceHolder
  3
AutoCAD 2000
 90
        0
280
     0
281
     0
  0
CLASS
  1
LAYOUT
  2
AcDbLayout
  3
AutoCAD 2000
 90
        0
280
     0
281
     0
  0
CLASS
  1
AMGSETTINGSOBJ
  2
AmgSettingsObj
  3
"AcadM|Product Description: AutoCAD Mechanical 2000|Company: Autodesk"
 90
        0
280
     0
281
     0
  0
CLASS
  1
ACME_DOCUMENT
  2
AcMeDbDoc
  3
AcMeServices
 90
        0
280
     0
281
     0
  0
CLASS
  1
ACMESCOPE
  2
AcMeScope
  3
AcMeServices
 90
        0
280
     0
281
     0
  0
CLASS
  1
ACMECOMMANDHISTORY
  2
AcMeCommandHistory
  3
AcMeServices
 90
        0
280
     0
281
     0
  0
CLASS
  1
DICTIONARYVAR
  2
AcDbDictionaryVar
  3
AutoCAD 2000
 90
        0
280
     0
281
     0
  0
CLASS
  1
ACIMSYSVARMAN
  2
AcImSysVarManager
  3
AcMeServices
 90
        0
280
     0
281
     0
  0
CLASS
  1
ACIMREALSYSVAR
  2
AcImRealSysVar
  3
AcMeServices
 90
        0
280
     0
281
     0
  0
CLASS
  1
ACIMINTSYSVAR
  2
AcImIntSysVar
  3
AcMeServices
 90
        0
280
     0
281
     0
  0
CLASS
  1
ACMEDRAWINGMAN
  2
AcMeDrawingMan
  3
AcMeServices
 90
        0
280
     0
281
     0
  0
CLASS
  1
ACMEVIEW
  2
AcMeView
  3
AcMeServices
 90
        0
280
     0
281
     0
  0
CLASS
  1
ACDBENTITYCACHE
  2
AcMeEntityCache
  3
AcMeServices
 90
        0
280
     0
281
     0
  0
CLASS
  1
GSMANAGER
  2
AcMeGSManager
  3
AcMeServices
 90
        0
280
     0
281
     0
  0
CLASS
  1
AmdtInternalReactor
  2
AmdtInternalReactor
  3
AcMeServices
 90
        0
280
     0
281
     0
  0
CLASS
  1
ACMESTATEMGR
  2
AcMeStateMgr
  3
AcMeServices
 90
        0
280
     0
281
     0
  0
CLASS
  1
ACME_DATABASE
  2
AcMeDbDatabase
  3
AcMeServices
 90
        0
280
     0
281
     0
  0
CLASS
  1
ACRFINSADJUSTERMGR
  2
AcRfInsAdjusterMgr
  3
AcMeServices
 90
        0
280
     0
281
     0
  0
CLASS
  1
ACMDATADICTIONARY
  2
AcmDataDictionary
  3
"AcmSymBB|Product Description: AutoCAD Mechanical 2000|Company: Autodesk"
 90
        0
280
     0
281
     0
  0
CLASS
  1
ACMDATAENTRYBLOCK
  2
AcmDataEntryBlock
  3
"AcmSymBB|Product Description: AutoCAD Mechanical 2000|Company: Autodesk"
 90
        0
280
     0
281
     0
  0
CLASS
  1
AMGOBJPROPCFG
  2
AmgObjPropCfg
  3
"AmgLay|Product Description: AutoCAD Mechanical 2000|Company: Autodesk"
 90
        1
280
     0
281
     0
  0
CLASS
  1
ACAMGFILTERDAT
  2
AcAmgFilterDat
  3
"AcadM|Product Description: AutoCAD Mechanical 2000|Company: Autodesk"
 90
        0
280
     0
281
     0
  0
CLASS
  1
LAYER_INDEX
  2
AcDbLayerIndex
  3
AutoCAD 2000
 90
        0
280
     0
281
     0
  0
CLASS
  1
IDBUFFER
  2
AcDbIdBuffer
  3
AutoCAD 2000
 90
        0
280
     0
281
     0
  0
CLASS
  1
ACIMSTRSYSVAR
  2
AcImStrSysVar
  3
AcMeServices
 90
        0
280
     0
281
     0
  0
CLASS
  1
ACMSTANDARDJIS
  2
AcmStandardJIS
  3
"AcmSymBB|Product Description: AutoCAD Mechanical 2000|Company: Autodesk"
 90
        0
280
     0
281
     0
  0
CLASS
  1
ACMSURFSTANDARDJIS
  2
AcmSurfTextStdJIS
  3
"AcmSymBB|Product Description: AutoCAD Mechanical 2000|Company: Autodesk"
 90
        0
280
     0
281
     0
  0
CLASS
  1
ACMFCFSTANDARDJIS
  2
AcmFCFStdJIS
  3
"AcmSymBB|Product Description: AutoCAD Mechanical 2000|Company: Autodesk"
 90
        0
280
     0
281
     0
  0
CLASS
  1
ACMWELDSTANDARDJIS
  2
AcmWeldingStdJIS
  3
"AcmSymBB|Product Description: AutoCAD Mechanical 2000|Company: Autodesk"
 90
        0
280
     0
281
     0
  0
CLASS
  1
ACMIDSTANDARDJIS
  2
AcmIdStdJIS
  3
"AcmSymBB|Product Description: AutoCAD Mechanical 2000|Company: Autodesk"
 90
        0
280
     0
281
     0
  0
CLASS
  1
ACMDATUMSTANDARDJIS
  2
AcmDatumStdJIS
  3
"AcmSymBB|Product Description: AutoCAD Mechanical 2000|Company: Autodesk"
 90
        0
280
     0
281
     0
  0
CLASS
  1
ACMBOMSTANDARDJIS
  2
AcmBOMStdJIS
  3
"AcmSymBB|Product Description: AutoCAD Mechanical 2000|Company: Autodesk"
 90
        0
280
     0
281
     0
  0
CLASS
  1
ACMSTANDARDANSI
  2
AcmStandardANSI
  3
"AcmSymBB|Product Description: AutoCAD Mechanical 2000|Company: Autodesk"
 90
        0
280
     0
281
     0
  0
CLASS
  1
ACMSURFSTANDARDANSI
  2
AcmSurfTextStdANSI
  3
"AcmSymBB|Product Description: AutoCAD Mechanical 2000|Company: Autodesk"
 90
        0
280
     0
281
     0
  0
CLASS
  1
ACMFCFSTANDARDANSI
  2
AcmFCFStdANSI
  3
"AcmSymBB|Product Description: AutoCAD Mechanical 2000|Company: Autodesk"
 90
        0
280
     0
281
     0
  0
CLASS
  1
ACMWELDSTANDARDANSI
  2
AcmWeldingStdANSI
  3
"AcmSymBB|Product Description: AutoCAD Mechanical 2000|Company: Autodesk"
 90
        0
280
     0
281
     0
  0
CLASS
  1
ACMIDSTANDARDANSI
  2
AcmIdStdANSI
  3
"AcmSymBB|Product Description: AutoCAD Mechanical 2000|Company: Autodesk"
 90
        0
280
     0
281
     0
  0
CLASS
  1
ACMDATUMSTANDARDANSI
  2
AcmDatumStdANSI
  3
"AcmSymBB|Product Description: AutoCAD Mechanical 2000|Company: Autodesk"
 90
        0
280
     0
281
     0
  0
CLASS
  1
ACMBOMSTANDARDANSI
  2
AcmBOMStdANSI
  3
"AcmSymBB|Product Description: AutoCAD Mechanical 2000|Company: Autodesk"
 90
        0
280
     0
281
     0
  0
CLASS
  1
ACMSTANDARDBSI
  2
AcmStandardBSI
  3
"AcmSymBB|Product Description: AutoCAD Mechanical 2000|Company: Autodesk"
 90
        0
280
     0
281
     0
  0
CLASS
  1
ACMSURFSTANDARDBSI
  2
AcmSurfTextStdBSI
  3
"AcmSymBB|Product Description: AutoCAD Mechanical 2000|Company: Autodesk"
 90
        0
280
     0
281
     0
  0
CLASS
  1
ACMFCFSTANDARDBSI
  2
AcmFCFStdBSI
  3
"AcmSymBB|Product Description: AutoCAD Mechanical 2000|Company: Autodesk"
 90
        0
280
     0
281
     0
  0
CLASS
  1
ACMWELDSTANDARDBSI
  2
AcmWeldingStdBSI
  3
"AcmSymBB|Product Description: AutoCAD Mechanical 2000|Company: Autodesk"
 90
        0
280
     0
281
     0
  0
CLASS
  1
ACMIDSTANDARDBSI
  2
AcmIdStdBSI
  3
"AcmSymBB|Product Description: AutoCAD Mechanical 2000|Company: Autodesk"
 90
        0
280
     0
281
     0
  0
CLASS
  1
ACMDATUMSTANDARDBSI
  2
AcmDatumStdBSI
  3
"AcmSymBB|Product Description: AutoCAD Mechanical 2000|Company: Autodesk"
 90
        0
280
     0
281
     0
  0
CLASS
  1
ACMBOMSTANDARDBSI
  2
AcmBOMStdBSI
  3
"AcmSymBB|Product Description: AutoCAD Mechanical 2000|Company: Autodesk"
 90
        0
280
     0
281
     0
  0
CLASS
  1
STDPART2D
  2
AmgStdPart
  3
"AmgStdPart|Product Description: AutoCAD Mechanical 2000|Company: Autodesk"
 90
     1023
280
     0
281
     1
  0
CLASS
  1
PLOTSETTINGS
  2
AcDbPlotSettings
  3
AutoCAD 2000
 90
        0
280
     0
281
     0
  0
CLASS
  1
LONG_TRANSACTION
  2
AcDbLongTransaction
  3
AutoCAD 2000
 90
        0
280
     0
281
     0
  0
CLASS
  1
LWPOLYLINE
  2
AcDbPolyline
  3
AutoCAD 2000
 90
        0
280
     0
281
     1
  0
CLASS
  1
HATCH
  2
AcDbHatch
  3
AutoCAD 2000
 90
        0
280
     0
281
     1
  0
CLASS
  1
XRECORD
  2
AcDbXrecord
  3
AutoCAD 2000
 90
        0
280
     0
281
     0
  0
ENDSEC
  0
SECTION
  2
TABLES
  0
TABLE
  2
VPORT
  5
8
330
0
100
AcDbSymbolTable
 70
     3
  0
VPORT
  5
AF05
330
8
100
AcDbSymbolTableRecord
100
AcDbViewportTableRecord
  2
*ACTIVE
 70
     0
 10
0.0
 20
0.0
 11
1.0
 21
1.0
 12
-76.86133240086093
 22
-15.58258658891573
 13
0.0
 23
0.0
 14
2.5
 24
2.5
 15
10.0
 25
10.0
 16
0.0
 26
0.0
 36
1.0
 17
0.0
 27
0.0
 37
0.0
 40
182.4167447944083
 41
1.56570841889117
 42
50.0
 43
0.0
 44
0.0
 50
0.0
 51
0.0
 71
     0
 72
   100
 73
     1
 74
     3
 75
     0
 76
     0
 77
     0
 78
     0
  0
ENDTAB
  0
TABLE
  2
LTYPE
  5
5
330
0
100
AcDbSymbolTable
 70
    10
  0
LTYPE
  5
14
330
5
100
AcDbSymbolTableRecord
100
AcDbLinetypeTableRecord
  2
BYBLOCK
 70
     0
  3

 72
    65
 73
     0
 40
0.0
  0
LTYPE
  5
15
330
5
100
AcDbSymbolTableRecord
100
AcDbLinetypeTableRecord
  2
BYLAYER
 70
     0
  3

 72
    65
 73
     0
 40
0.0
  0
LTYPE
  5
16
330
5
100
AcDbSymbolTableRecord
100
AcDbLinetypeTableRecord
  2
CONTINUOUS
 70
     0
  3
Solid line
 72
    65
 73
     0
 40
0.0
  0
LTYPE
  5
4B
330
5
100
AcDbSymbolTableRecord
100
AcDbLinetypeTableRecord
  2
AM_ISO02W050
 70
     0
  3
__ __ __ __ __ __ __ __ __ __ __ __ __ __ __
 72
    65
 73
     2
 40
7.5
 49
6.0
 74
     0
 49
-1.5
 74
     0
  0
LTYPE
  5
4C
330
5
100
AcDbSymbolTableRecord
100
AcDbLinetypeTableRecord
  2
AM_ISO08W050
 70
     0
  3
____ . ____ . ____ . ____ . ____ . ____ . ____
 72
    65
 73
     4
 40
18.0
 49
12.0
 74
     0
 49
-1.5
 74
     0
 49
3.0
 74
     0
 49
-1.5
 74
     0
  0
LTYPE
  5
4D
330
5
100
AcDbSymbolTableRecord
100
AcDbLinetypeTableRecord
  2
AM_ISO09W050
 70
     0
  3
_____ . . _____ . . _____ . . ____ .. ____
 72
    65
 73
     6
 40
22.5
 49
12.0
 74
     0
 49
-1.5
 74
     0
 49
3.0
 74
     0
 49
-1.5
 74
     0
 49
3.0
 74
     0
 49
-1.5
 74
     0
  0
LTYPE
  5
4E
330
5
100
AcDbSymbolTableRecord
100
AcDbLinetypeTableRecord
  2
AMCONSTR
 70
     0
  3
_______________________
 72
    65
 73
     2
 40
9999.0
 49
9999.0
 74
     0
 49
0.0
 74
     0
  0
LTYPE
  5
4F
330
5
100
AcDbSymbolTableRecord
100
AcDbLinetypeTableRecord
  2
AM_ISO02W050X2
 70
     0
  3
 _ _ _ _ _ _ _ _ _ _ _ _
 72
    65
 73
     2
 40
3.75
 49
3.0
 74
     0
 49
-0.75
 74
     0
  0
LTYPE
  5
50
330
5
100
AcDbSymbolTableRecord
100
AcDbLinetypeTableRecord
  2
AM_ISO08W050X2
 70
     0
  3
__ . __ . __ . __ . __ . __
 72
    65
 73
     4
 40
9.0
 49
6.0
 74
     0
 49
-0.75
 74
     0
 49
1.5
 74
     0
 49
-0.75
 74
     0
  0
LTYPE
  5
53
330
5
100
AcDbSymbolTableRecord
100
AcDbLinetypeTableRecord
  2
AMZIGZAG
 70
     0
  3
/\/-/\/-/\/-/\/-/\/-/\/
 72
    65
 73
     2
 40
11.00009999999999
 49
0.0001
 74
     4
 75
   135
340
52
 46
0.04
 50
0.0
 44
0.0
 45
0.0
 49
-11.0
 74
     0
  0
LTYPE
  5
166
330
5
100
AcDbSymbolTableRecord
100
AcDbLinetypeTableRecord
  2
ACJISTGL
 70
     0
  3
_ _ _ _ _
 72
    65
 73
     2
 40
3.0
 49
2.0
 74
     0
 49
-1.0
 74
     0
  0
LTYPE
  5
26A
330
5
100
AcDbSymbolTableRecord
100
AcDbLinetypeTableRecord
  2
ACJISTGB
 70
     0
  3
__ . . __ . .
 72
    65
 73
     6
 40
9.0
 49
4.0
 74
     0
 49
-1.0
 74
     0
 49
1.0
 74
     0
 49
-1.0
 74
     0
 49
1.0
 74
     0
 49
-1.0
 74
     0
  0
ENDTAB
  0
TABLE
  2
LAYER
  5
2
330
0
100
AcDbSymbolTable
 70
    12
  0
LAYER
  5
10
330
2
100
AcDbSymbolTableRecord
100
AcDbLayerTableRecord
  2
0
 70
     0
 62
     7
  6
CONTINUOUS
  0
LAYER
  5
3F9
330
2
100
AcDbSymbolTableRecord
100
AcDbLayerTableRecord
  2
AM_0
 70
     0
 62
     7
  6
CONTINUOUS
  0
LAYER
  5
BA4
330
2
100
AcDbSymbolTableRecord
100
AcDbLayerTableRecord
  2
AM_5
 70
     0
 62
     3
  6
CONTINUOUS
  0
LAYER
  5
BA6
330
2
100
AcDbSymbolTableRecord
100
AcDbLayerTableRecord
  2
AM_7
 70
     0
 62
     4
  6
AM_ISO08W050
  0
LAYER
  5
E64
330
2
100
AcDbSymbolTableRecord
100
AcDbLayerTableRecord
  2
AM_6
 70
     0
 62
     2
  6
CONTINUOUS
  0
LAYER
  5
F4D
330
2
100
AcDbSymbolTableRecord
100
AcDbLayerTableRecord
  2
DEFPOINTS
 70
     0
 62
     7
  6
CONTINUOUS
  0
LAYER
  5
2382
330
2
100
AcDbSymbolTableRecord
100
AcDbLayerTableRecord
  2
AM_3
 70
     0
 62
     6
  6
ACJISTGL
  0
LAYER
  5
4E80
330
2
100
AcDbSymbolTableRecord
100
AcDbLayerTableRecord
  2
AM_11
 70
     0
 62
     3
  6
AM_ISO09W050
  0
LAYER
  5
502A
330
2
100
AcDbSymbolTableRecord
100
AcDbLayerTableRecord
  2
PV0001_1
 70
     0
 62
     7
  6
CONTINUOUS
  0
LAYER
  5
78BD
330
2
100
AcDbSymbolTableRecord
100
AcDbLayerTableRecord
  2
2
 70
     0
 62
     7
  6
CONTINUOUS
  0
LAYER
  5
78BE
330
2
100
AcDbSymbolTableRecord
100
AcDbLayerTableRecord
  2
1
 70
     0
 62
     7
  6
CONTINUOUS
  0
LAYER
  5
78BF
330
2
100
AcDbSymbolTableRecord
100
AcDbLayerTableRecord
  2
AM_4
 70
     0
 62
     3
  6
CONTINUOUS
  0
ENDTAB
  0
TABLE
  2
STYLE
  5
3
330
0
100
AcDbSymbolTable
 70
     5
  0
STYLE
  5
11
330
3
100
AcDbSymbolTableRecord
100
AcDbTextStyleTableRecord
  2
STANDARD
 70
     0
 40
0.0
 41
1.0
 50
0.0
 71
     0
 42
2.5
  3
simplex.shx
  4
EXTFONT.SHX
  0
STYLE
  5
52
330
3
100
AcDbSymbolTableRecord
100
AcDbTextStyleTableRecord
  2

 70
     1
 40
0.0
 41
1.0
 50
0.0
 71
     0
 42
2.5
  3
ltypeshp.shx
  4

  0
STYLE
  5
6B
330
3
100
AcDbSymbolTableRecord
100
AcDbTextStyleTableRecord
  2
ASAMI
 70
     0
 40
0.0
 41
1.0
 50
0.0
 71
     0
 42
2.5
  3
simplex.shx
  4
EXTFONT.SHX
  0
STYLE
  5
262
330
3
100
AcDbSymbolTableRecord
100
AcDbTextStyleTableRecord
  2
ACJISTS
 70
     0
 40
1.0
 41
1.0
 50
0.0
 71
     0
 42
2.5
  3
simplex.shx
  4
bigfont.shx
  0
STYLE
  5
269
330
3
100
AcDbSymbolTableRecord
100
AcDbTextStyleTableRecord
  2
ACJISGDT
 70
     0
 40
0.0
 41
1.0
 50
0.0
 71
     0
 42
2.5
  3
amgdtans.shx
  4

  0
ENDTAB
  0
TABLE
  2
VIEW
  5
6
330
0
100
AcDbSymbolTable
 70
     0
  0
ENDTAB
  0
TABLE
  2
UCS
  5
7
330
0
100
AcDbSymbolTable
 70
     0
  0
ENDTAB
  0
TABLE
  2
APPID
  5
9
330
0
100
AcDbSymbolTable
 70
    24
  0
APPID
  5
12
330
9
100
AcDbSymbolTableRecord
100
AcDbRegAppTableRecord
  2
ACAD
 70
     0
  0
APPID
  5
30
330
9
100
AcDbSymbolTableRecord
100
AcDbRegAppTableRecord
  2
MCAD_NO_VIS
 70
     0
  0
APPID
  5
31
330
9
100
AcDbSymbolTableRecord
100
AcDbRegAppTableRecord
  2
ACAD_TEMP_GRAPHIC
 70
     0
  0
APPID
  5
2C2
330
9
100
AcDbSymbolTableRecord
100
AcDbRegAppTableRecord
  2
GENIUS_GENDTOL_13
 70
     0
  0
APPID
  5
339
330
9
100
AcDbSymbolTableRecord
100
AcDbRegAppTableRecord
  2
GENIUS_GENODEF_13
 70
     0
  0
APPID
  5
33A
330
9
100
AcDbSymbolTableRecord
100
AcDbRegAppTableRecord
  2
GENIUS_GENOBJ-N-RSBK_13
 70
     0
  0
APPID
  5
33B
330
9
100
AcDbSymbolTableRecord
100
AcDbRegAppTableRecord
  2
GENIUS_GENOBJ-N-LIB_13
 70
     0
  0
APPID
  5
33C
330
9
100
AcDbSymbolTableRecord
100
AcDbRegAppTableRecord
  2
GENIUS_GENSCALE_13
 70
     0
  0
APPID
  5
378
330
9
100
AcDbSymbolTableRecord
100
AcDbRegAppTableRecord
  2
GENIUS_GENDIMSH_14
 70
     0
  0
APPID
  5
BB0
330
9
100
AcDbSymbolTableRecord
100
AcDbRegAppTableRecord
  2
GENIUS_GENOBJ-N-CEN_13
 70
     0
  0
APPID
  5
BB1
330
9
100
AcDbSymbolTableRecord
100
AcDbRegAppTableRecord
  2
GENIUS_GENFIL_13
 70
     0
  0
APPID
  5
BB2
330
9
100
AcDbSymbolTableRecord
100
AcDbRegAppTableRecord
  2
GENIUS_GENOBJ-N-CHA_13
 70
     0
  0
APPID
  5
1FAF
330
9
100
AcDbSymbolTableRecord
100
AcDbRegAppTableRecord
  2
GENIUS_GENOBJ-N-CRS_13
 70
     0
  0
APPID
  5
1FB0
330
9
100
AcDbSymbolTableRecord
100
AcDbRegAppTableRecord
  2
GENIUS_GENOENT_13
 70
     0
  0
APPID
  5
1FB1
330
9
100
AcDbSymbolTableRecord
100
AcDbRegAppTableRecord
  2
GENIUS_GENOREF_13
 70
     0
  0
APPID
  5
1FB2
330
9
100
AcDbSymbolTableRecord
100
AcDbRegAppTableRecord
  2
GENIUS_GENOLIS_13
 70
     0
  0
APPID
  5
1FB7
330
9
100
AcDbSymbolTableRecord
100
AcDbRegAppTableRecord
  2
GENIUS_GENOBJ-N-FIL_13
 70
     0
  0
APPID
  5
22A8
330
9
100
AcDbSymbolTableRecord
100
AcDbRegAppTableRecord
  2
GEVID1056506048
 70
     0
  0
APPID
  5
22A9
330
9
100
AcDbSymbolTableRecord
100
AcDbRegAppTableRecord
  2
GEVDC
 70
     0
  0
APPID
  5
22AC
330
9
100
AcDbSymbolTableRecord
100
AcDbRegAppTableRecord
  2
GENIUS_GENBH_13
 70
     0
  0
APPID
  5
22B8
330
9
100
AcDbSymbolTableRecord
100
AcDbRegAppTableRecord
  2
GENIUS_GENOBJ-NBEHI-BHF_13
 70
     0
  0
APPID
  5
22BA
330
9
100
AcDbSymbolTableRecord
100
AcDbRegAppTableRecord
  2
GENIUS_GENOBJ-NBEHI-BHB_13
 70
     0
  0
APPID
  5
35C9
330
9
100
AcDbSymbolTableRecord
100
AcDbRegAppTableRecord
  2
GENIUS_GENREC_14
 70
     0
  0
APPID
  5
35CA
330
9
100
AcDbSymbolTableRecord
100
AcDbRegAppTableRecord
  2
GENIUS_GENOBJ-N-REC_13
 70
     0
  0
ENDTAB
  0
TABLE
  2
DIMSTYLE
  5
A
330
0
100
AcDbSymbolTable
 70
    13
  0
DIMSTYLE
105
58
330
A
100
AcDbSymbolTableRecord
100
AcDbDimStyleTableRecord
  2
AM_JIS
 70
     0
  3

  4
"
  5
OPEN30
  6

  7

 40
1.0
 41
2.5
 42
1.0
 43
12.0
 44
1.0
 45
0.0
 46
0.0
 47
0.1
 48
0.1
140
3.2
141
0.0
142
0.0
143
0.0393701
144
1.0
145
0.0
146
0.71
147
1.5
 71
     0
 72
     0
 73
     0
 74
     0
 75
     0
 76
     0
 77
     3
 78
     8
170
     0
171
     2
172
     1
173
     0
174
     0
175
     0
176
   256
177
   256
178
     2
270
     2
271
     3
272
     3
273
     2
274
     2
340
6B
275
     0
280
     0
281
     0
282
     0
283
     0
284
     0
285
     0
286
     0
287
     3
288
     0
  0
DIMSTYLE
105
5F
330
A
100
AcDbSymbolTableRecord
100
AcDbDimStyleTableRecord
  2
AM_JIS$3
 70
     0
  3

  4
"
  5
OPEN30
  6

  7

 40
1.0
 41
2.5
 42
1.0
 43
10.0
 44
1.0
 45
0.0
 46
0.0
 47
0.1
 48
0.1
140
3.2
141
0.0
142
0.0
143
0.0393701
144
1.0
145
0.0
146
0.71
147
1.5
 71
     0
 72
     0
 73
     0
 74
     1
 75
     0
 76
     0
 77
     3
 78
     8
170
     0
171
     2
172
     0
173
     0
174
     0
175
     0
176
   256
177
   256
178
     2
270
     2
271
     2
272
     3
273
     2
274
     2
340
6B
275
     0
280
     0
281
     0
282
     0
283
     0
284
     0
285
     0
286
     0
287
     0
288
     1
  0
DIMSTYLE
105
60
330
A
100
AcDbSymbolTableRecord
100
AcDbDimStyleTableRecord
  2
AM_JIS$4
 70
     0
  3

  4
"
  5
OPEN30
  6

  7

 40
1.0
 41
2.5
 42
1.0
 43
10.0
 44
1.0
 45
0.0
 46
0.0
 47
0.1
 48
0.1
140
3.2
141
0.0
142
0.0
143
0.0393701
144
1.0
145
0.0
146
0.71
147
1.5
 71
     0
 72
     0
 73
     0
 74
     1
 75
     0
 76
     0
 77
     3
 78
     8
170
     0
171
     2
172
     0
173
     0
174
     0
175
     0
176
   256
177
   256
178
     2
270
     2
271
     2
272
     3
273
     2
274
     2
340
6B
275
     0
280
     0
281
     0
282
     0
283
     0
284
     0
285
     0
286
     0
287
     0
288
     1
  0
DIMSTYLE
105
61
330
A
100
AcDbSymbolTableRecord
100
AcDbDimStyleTableRecord
  2
AM_JIS$6
 70
     0
  3

  4
"
  5
OPEN30
  6

  7

 40
1.0
 41
2.5
 42
1.0
 43
10.0
 44
1.0
 45
0.0
 46
0.0
 47
0.1
 48
0.1
140
3.2
141
0.0
142
0.0
143
0.0393701
144
1.0
145
0.0
146
0.71
147
1.5
 71
     0
 72
     0
 73
     0
 74
     0
 75
     0
 76
     0
 77
     0
 78
     8
170
     0
171
     2
172
     1
173
     0
174
     0
175
     0
176
   256
177
   256
178
     2
270
     2
271
     2
272
     2
273
     2
274
     2
340
6B
275
     0
280
     0
281
     0
282
     0
283
     0
284
     0
285
     0
286
     0
287
     3
288
     0
  0
DIMSTYLE
105
62
330
A
100
AcDbSymbolTableRecord
100
AcDbDimStyleTableRecord
  2
AM_JIS$7
 70
     0
  3

  4
"
  5
OPEN30
  6

  7

 40
1.0
 41
2.5
 42
1.0
 43
10.0
 44
1.0
 45
0.0
 46
0.0
 47
0.1
 48
0.1
140
3.2
141
0.0
142
0.0
143
0.0393701
144
1.0
145
0.0
146
0.71
147
1.5
 71
     0
 72
     0
 73
     0
 74
     0
 75
     0
 76
     0
 77
     3
 78
     8
170
     0
171
     2
172
     1
173
     0
174
     0
175
     0
176
   256
177
   256
178
     2
270
     2
271
     2
272
     3
273
     2
274
     2
340
6B
275
     0
280
     0
281
     0
282
     0
283
     0
284
     0
285
     0
286
     0
287
     3
288
     0
  0
DIMSTYLE
105
63
330
A
100
AcDbSymbolTableRecord
100
AcDbDimStyleTableRecord
  2
AM_JIS$SF
 70
     0
  3

  4
"
  5
OPEN30
  6

  7

 40
1.0
 41
2.5
 42
1.0
 43
10.0
 44
1.0
 45
0.0
 46
0.0
 47
0.1
 48
0.1
140
3.2
141
0.0
142
0.0
143
0.0393701
144
1.0
145
0.0
146
0.71
147
1.5
 71
     0
 72
     0
 73
     0
 74
     0
 75
     1
 76
     1
 77
     3
 78
     8
170
     0
171
     2
172
     1
173
     0
174
     0
175
     0
176
   256
177
   256
178
     2
270
     2
271
     2
272
     2
273
     2
274
     2
340
6B
275
     0
280
     0
281
     0
282
     0
283
     0
284
     0
285
     0
286
     0
287
     3
288
     0
  0
DIMSTYLE
105
68
330
A
100
AcDbSymbolTableRecord
100
AcDbDimStyleTableRecord
  2
AM_JIS$SH
 70
     0
  3

  4
"
  5

  6
GENAXEH
  7
OPEN30
 40
1.0
 41
2.5
 42
1.0
 43
10.0
 44
1.0
 45
0.0
 46
0.0
 47
0.1
 48
0.1
140
3.2
141
0.0
142
0.0
143
0.0393701
144
2.0
145
0.0
146
0.71
147
1.5
 71
     0
 72
     0
 73
     0
 74
     0
 75
     1
 76
     1
 77
     3
 78
     8
170
     0
171
     2
172
     1
173
     1
174
     0
175
     0
176
   256
177
   256
178
     2
270
     2
271
     2
272
     2
273
     2
274
     2
340
6B
275
     0
280
     0
281
     0
282
     0
283
     0
284
     0
285
     0
286
     0
287
     3
288
     0
  0
DIMSTYLE
105
B34
330
A
100
AcDbSymbolTableRecord
100
AcDbDimStyleTableRecord
  2
AM_JIS$2
 70
     0
  3

  4
"
  5
OPEN30
  6

  7

 40
1.0
 41
2.5
 42
1.0
 43
12.0
 44
1.0
 45
0.0
 46
0.0
 47
0.1
 48
0.1
140
3.2
141
0.0
142
0.0
143
0.0393701
144
1.0
145
0.0
146
0.71
147
1.5
 71
     0
 72
     0
 73
     0
 74
     0
 75
     0
 76
     0
 77
     3
 78
     8
170
     0
171
     2
172
     1
173
     0
174
     0
175
     0
176
   256
177
   256
178
     2
270
     2
271
     3
272
     3
273
     2
274
     2
340
6B
275
     0
280
     0
281
     0
282
     0
283
     0
284
     0
285
     0
286
     0
287
     3
288
     0
  0
DIMSTYLE
105
3B48
102
{ACAD_REACTORS
330
A8F2
330
A839
330
A990
330
AA1C
330
AAB1
330
AB58
330
ABF6
102
}
330
A
100
AcDbSymbolTableRecord
100
AcDbDimStyleTableRecord
  2
AM_JIS$0
 70
     0
  3

  4
"
  5
OPEN30
  6

  7

 40
1.0
 41
2.5
 42
0.0
 43
10.0
 44
1.0
 45
0.0
 46
0.0
 47
0.1
 48
0.1000000001
140
3.799999999999999
141
0.0
142
0.0
143
0.0393701
144
1.0
145
0.0
146
0.71
147
1.5
 71
     0
 72
     0
 73
     0
 74
     0
 75
     0
 76
     0
 77
     3
 78
     1
170
     0
171
     2
172
     1
173
     0
174
     0
175
     0
176
     3
177
     3
178
     2
270
     2
271
     2
272
     2
273
     2
274
     2
340
11
275
     1
280
     0
281
     0
282
     0
283
     0
284
     8
285
     0
286
     0
287
     0
288
     0
  0
DIMSTYLE
105
502B
330
A
100
AcDbSymbolTableRecord
100
AcDbDimStyleTableRecord
  2
AM_JISORG-1P0$2
 70
     0
  3

  4
"
  5
OPEN30
  6

  7

 40
1.0
 41
2.5
 42
0.0
 43
10.0
 44
1.0
 45
0.0
 46
0.0
 47
0.1
 48
0.1000000001
140
3.799999999999999
141
0.0
142
0.0
143
0.0393701
144
-1.000000047579403
145
0.0
146
0.71
147
1.5
 71
     0
 72
     0
 73
     0
 74
     0
 75
     0
 76
     0
 77
     3
 78
     1
170
     0
171
     2
172
     1
173
     0
174
     0
175
     0
176
     3
177
     3
178
     2
270
     2
271
     2
272
     2
273
     2
274
     2
340
11
275
     1
280
     0
281
     0
282
     0
283
     0
284
     8
285
     0
286
     0
287
     0
288
     0
  0
DIMSTYLE
105
502C
330
A
100
AcDbSymbolTableRecord
100
AcDbDimStyleTableRecord
  2
AM_JISORG0P5$0
 70
     0
  3

  4
"
  5
OPEN30
  6

  7

 40
1.0
 41
2.5
 42
0.0
 43
10.0
 44
1.0
 45
0.0
 46
0.0
 47
0.1
 48
0.1000000001
140
3.799999999999999
141
0.0
142
0.0
143
0.0393701
144
0.5000003785514306
145
0.0
146
0.71
147
1.5
 71
     0
 72
     0
 73
     0
 74
     0
 75
     0
 76
     0
 77
     3
 78
     1
170
     0
171
     2
172
     1
173
     0
174
     0
175
     0
176
     3
177
     3
178
     2
270
     2
271
     2
272
     2
273
     2
274
     2
340
11
275
     1
280
     0
281
     0
282
     0
283
     0
284
     8
285
     0
286
     0
287
     0
288
     0
  0
DIMSTYLE
105
502D
330
A
100
AcDbSymbolTableRecord
100
AcDbDimStyleTableRecord
  2
AM_JISORG0P2$4
 70
     0
  3

  4
"
  5
OPEN30
  6

  7

 40
1.0
 41
2.5
 42
0.0
 43
10.0
 44
1.0
 45
0.0
 46
0.0
 47
0.1
 48
0.1000000001
140
3.799999999999999
141
0.0
142
0.0
143
0.0393701
144
0.2
145
0.0
146
0.71
147
1.5
 71
     0
 72
     0
 73
     0
 74
     0
 75
     0
 76
     0
 77
     3
 78
     1
170
     0
171
     2
172
     1
173
     0
174
     0
175
     0
176
     3
177
     3
178
     2
270
     2
271
     2
272
     2
273
     2
274
     2
340
11
275
     1
280
     0
281
     0
282
     0
283
     0
284
     8
285
     0
286
     0
287
     0
288
     1
  0
DIMSTYLE
105
78C0
330
A
100
AcDbSymbolTableRecord
100
AcDbDimStyleTableRecord
  2
AM_ISO
 70
     0
  3

  4
"
  5

  6

  7

 40
1.0
 41
2.5
 42
1.0
 43
10.0
 44
1.0
 45
0.0
 46
0.0
 47
0.1
 48
0.1
140
3.5
141
0.0
142
0.0
143
0.0393701
144
1.0
145
0.0
146
0.71
147
1.5
 71
     0
 72
     0
 73
     0
 74
     0
 75
     0
 76
     0
 77
     1
 78
     8
170
     0
171
     2
172
     1
173
     0
174
     0
175
     0
176
   256
177
   256
178
     2
270
     2
271
     2
272
     3
273
     2
274
     4
340
11
275
     0
280
     0
281
     0
282
     0
283
     0
284
     8
285
     0
286
     0
287
     3
288
     0
  0
ENDTAB
  0
TABLE
  2
BLOCK_RECORD
  5
1
330
0
100
AcDbSymbolTable
 70
    12
  0
BLOCK_RECORD
  5
1F
102
{ACAD_XDICTIONARY
360
74
102
}
330
1
100
AcDbSymbolTableRecord
100
AcDbBlockTableRecord
  2
*MODEL_SPACE
  0
BLOCK_RECORD
  5
101
102
{ACAD_XDICTIONARY
360
AF2E
102
}
330
1
100
AcDbSymbolTableRecord
100
AcDbBlockTableRecord
  2
*PAPER_SPACE
  0
BLOCK_RECORD
  5
59
330
1
100
AcDbSymbolTableRecord
100
AcDbBlockTableRecord
  2
_OPEN30
  0
BLOCK_RECORD
  5
64
330
1
100
AcDbSymbolTableRecord
100
AcDbBlockTableRecord
  2
GENAXEH
  0
BLOCK_RECORD
  5
A83A
330
1
100
AcDbSymbolTableRecord
100
AcDbBlockTableRecord
  2
*D5
  0
BLOCK_RECORD
  5
A8F3
330
1
100
AcDbSymbolTableRecord
100
AcDbBlockTableRecord
  2
*D6
  0
BLOCK_RECORD
  5
A991
330
1
100
AcDbSymbolTableRecord
100
AcDbBlockTableRecord
  2
*D7
  0
BLOCK_RECORD
  5
AA1D
330
1
100
AcDbSymbolTableRecord
100
AcDbBlockTableRecord
  2
*D8
  0
BLOCK_RECORD
  5
AAB2
330
1
100
AcDbSymbolTableRecord
100
AcDbBlockTableRecord
  2
*D9
  0
BLOCK_RECORD
  5
AB59
330
1
100
AcDbSymbolTableRecord
100
AcDbBlockTableRecord
  2
*D10
  0
BLOCK_RECORD
  5
ABF7
330
1
100
AcDbSymbolTableRecord
100
AcDbBlockTableRecord
  2
*D11
  0
ENDTAB
  0
ENDSEC
  0
SECTION
  2
BLOCKS
  0
BLOCK
  5
20
330
1F
100
AcDbEntity
  8
0
100
AcDbBlockBegin
  2
*MODEL_SPACE
 70
     0
 10
0.0
 20
0.0
 30
0.0
  3
*MODEL_SPACE
  1

  0
ENDBLK
  5
21
330
1F
100
AcDbEntity
  8
0
100
AcDbBlockEnd
  0
BLOCK
  5
103
330
101
100
AcDbEntity
 67
     1
  8
0
100
AcDbBlockBegin
  2
*PAPER_SPACE
 70
     0
 10
0.0
 20
0.0
 30
0.0
  3
*PAPER_SPACE
  1

  0
ENDBLK
  5
104
330
101
100
AcDbEntity
 67
     1
  8
0
100
AcDbBlockEnd
  0
BLOCK
  5
5D
330
59
100
AcDbEntity
  8
0
100
AcDbBlockBegin
  2
_OPEN30
 70
     0
 10
0.0
 20
0.0
 30
0.0
  3
_OPEN30
  1

  0
LINE
  5
5A
330
59
100
AcDbEntity
  8
0
 62
     0
100
AcDbLine
 10
-1.0
 20
0.26794919
 30
0.0
 11
0.0
 21
0.0
 31
0.0
  0
LINE
  5
5B
330
59
100
AcDbEntity
  8
0
 62
     0
100
AcDbLine
 10
0.0
 20
0.0
 30
0.0
 11
-1.0
 21
-0.26794919
 31
0.0
  0
LINE
  5
5C
330
59
100
AcDbEntity
  8
0
 62
     0
100
AcDbLine
 10
0.0
 20
0.0
 30
0.0
 11
-1.0
 21
0.0
 31
0.0
  0
ENDBLK
  5
5E
330
59
100
AcDbEntity
  8
0
100
AcDbBlockEnd
  0
BLOCK
  5
66
330
64
100
AcDbEntity
  8
0
100
AcDbBlockBegin
  2
GENAXEH
 70
     0
 10
0.0
 20
0.0
 30
0.0
  3
GENAXEH
  1

  0
LINE
  5
65
330
64
100
AcDbEntity
  8
0
100
AcDbLine
 10
-1.0
 20
0.0
 30
0.0
 11
1.0
 21
0.0
 31
0.0
  0
ENDBLK
  5
67
330
64
100
AcDbEntity
  8
0
100
AcDbBlockEnd
  0
BLOCK
  5
A844
330
A83A
100
AcDbEntity
  8
0
100
AcDbBlockBegin
  2
*D5
 70
     1
 10
0.0
 20
0.0
 30
0.0
  3
*D5
  1

  0
LINE
  5
AF30
330
A83A
100
AcDbEntity
  8
AM_5
100
AcDbLine
 10
-0.000517773014707
 20
1.00000000000017
 30
0.0
 11
-0.0005177730147125
 21
31.00000302655759
 31
0.0
  0
LINE
  5
AF31
330
A83A
100
AcDbEntity
  8
AM_5
100
AcDbLine
 10
-43.00000000000033
 20
16.0000001192088
 30
0.0
 11
-43.00000000000033
 21
31.00000302655757
 31
0.0
  0
LINE
  5
AF32
330
A83A
100
AcDbEntity
  8
AM_5
100
AcDbLine
 10
-2.500517773014712
 20
30.00000302655759
 30
0.0
 11
-40.50000000000033
 21
30.00000302655758
 31
0.0
  0
INSERT
  5
AF33
330
A83A
100
AcDbEntity
  8
AM_5
100
AcDbBlockReference
  2
_OPEN30
 10
-0.0005177730147123
 20
30.00000302655759
 30
0.0
 41
2.5
 42
2.5
 43
2.5
  0
INSERT
  5
AF34
330
A83A
100
AcDbEntity
  8
AM_5
100
AcDbBlockReference
  2
_OPEN30
 10
-43.00000000000033
 20
30.00000302655758
 30
0.0
 41
2.5
 42
2.5
 43
2.5
 50
180.0
  0
MTEXT
  5
AF35
330
A83A
100
AcDbEntity
  8
AM_5
 62
     2
100
AcDbMText
 10
-21.50025888650752
 20
33.10000302655758
 30
0.0
 40
3.2
 41
0.0
 71
     5
 72
     1
  1
42
  7
ASAMI
  0
POINT
  5
AF36
330
A83A
100
AcDbEntity
  8
DEFPOINTS
 62
     0
100
AcDbPoint
 10
-0.0005177730147068
 20
0.0000000000001705
 30
0.0
  0
POINT
  5
AF37
330
A83A
100
AcDbEntity
  8
DEFPOINTS
 62
     0
100
AcDbPoint
 10
-43.0000000000003
 20
15.00000011920889
 30
0.0
  0
POINT
  5
AF38
330
A83A
100
AcDbEntity
  8
DEFPOINTS
 62
     0
100
AcDbPoint
 10
-43.00000000000027
 20
30.00000302655767
 30
0.0
  0
ENDBLK
  5
A845
330
A83A
100
AcDbEntity
  8
0
100
AcDbBlockEnd
  0
BLOCK
  5
A8FD
330
A8F3
100
AcDbEntity
  8
0
100
AcDbBlockBegin
  2
*D6
 70
     1
 10
0.0
 20
0.0
 30
0.0
  3
*D6
  1

  0
LINE
  5
AF39
330
A8F3
100
AcDbEntity
  8
AM_5
100
AcDbLine
 10
-0.000000000000268
 20
-1.025360107421732
 30
0.0
 11
-0.0000000000002092
 21
-31.0000011831316
 31
0.0
  0
LINE
  5
AF3A
330
A8F3
100
AcDbEntity
  8
AM_5
100
AcDbLine
 10
-60.0000000000002
 20
-14.60000598430627
 30
0.0
 11
-60.00000000000016
 21
-31.00000118313172
 31
0.0
  0
LINE
  5
AF3B
330
A8F3
100
AcDbEntity
  8
AM_5
100
AcDbLine
 10
-2.50000000000021
 20
-30.0000011831316
 30
0.0
 11
-57.50000000000016
 21
-30.00000118313172
 31
0.0
  0
INSERT
  5
AF3C
330
A8F3
100
AcDbEntity
  8
AM_5
100
AcDbBlockReference
  2
_OPEN30
 10
-0.0000000000002112
 20
-30.0000011831316
 30
0.0
 41
2.5
 42
2.5
 43
2.5
 50
0.0000000000001018
  0
INSERT
  5
AF3D
330
A8F3
100
AcDbEntity
  8
AM_5
100
AcDbBlockReference
  2
_OPEN30
 10
-60.00000000000016
 20
-30.00000118313172
 30
0.0
 41
2.5
 42
2.5
 43
2.5
 50
180.0000000000001
  0
MTEXT
  5
AF3E
330
A8F3
100
AcDbEntity
  8
AM_5
 62
     2
100
AcDbMText
 10
-30.00000000000019
 20
-26.90000118313166
 30
0.0
 40
3.2
 41
0.0
 71
     5
 72
     1
  1
60
  7
ASAMI
  0
POINT
  5
AF3F
330
A8F3
100
AcDbEntity
  8
DEFPOINTS
 62
     0
100
AcDbPoint
 10
-0.00000000000027
 20
-0.0253601074217329
 30
0.0
  0
POINT
  5
AF40
330
A8F3
100
AcDbEntity
  8
DEFPOINTS
 62
     0
100
AcDbPoint
 10
-60.00000000000023
 20
-13.60000598430615
 30
0.0
  0
POINT
  5
AF41
330
A8F3
100
AcDbEntity
  8
DEFPOINTS
 62
     0
100
AcDbPoint
 10
-60.00000000000023
 20
-30.0000011831316
 30
0.0
  0
ENDBLK
  5
A8FE
330
A8F3
100
AcDbEntity
  8
0
100
AcDbBlockEnd
  0
BLOCK
  5
A99B
330
A991
100
AcDbEntity
  8
0
100
AcDbBlockBegin
  2
*D7
 70
     1
 10
0.0
 20
0.0
 30
0.0
  3
*D7
  1

  0
LINE
  5
AF42
330
A991
100
AcDbEntity
  8
AM_5
100
AcDbLine
 10
-0.0005177730147048
 20
-0.9999999999998294
 30
0.0
 11
-0.0005177730146264
 21
-41.0000011831316
 31
0.0
  0
LINE
  5
AF43
330
A991
100
AcDbEntity
  8
AM_5
100
AcDbLine
 10
-80.00003051758019
 20
-16.99999988079036
 30
0.0
 11
-80.00003051758014
 21
-41.00000118313176
 31
0.0
  0
LINE
  5
AF44
330
A991
100
AcDbEntity
  8
AM_5
100
AcDbLine
 10
-2.500517773014628
 20
-40.00000118313161
 30
0.0
 11
-77.50003051758014
 21
-40.00000118313176
 31
0.0
  0
INSERT
  5
AF45
330
A991
100
AcDbEntity
  8
AM_5
100
AcDbBlockReference
  2
_OPEN30
 10
-0.0005177730146284
 20
-40.0000011831316
 30
0.0
 41
2.5
 42
2.5
 43
2.5
 50
0.0000000000001018
  0
INSERT
  5
AF46
330
A991
100
AcDbEntity
  8
AM_5
100
AcDbBlockReference
  2
_OPEN30
 10
-80.00003051758014
 20
-40.00000118313177
 30
0.0
 41
2.5
 42
2.5
 43
2.5
 50
180.0000000000001
  0
MTEXT
  5
AF47
330
A991
100
AcDbEntity
  8
AM_5
 62
     2
100
AcDbMText
 10
-40.00027414529739
 20
-36.90000118313168
 30
0.0
 40
3.2
 41
0.0
 71
     5
 72
     1
  1
80
  7
ASAMI
  0
POINT
  5
AF48
330
A991
100
AcDbEntity
  8
DEFPOINTS
 62
     0
100
AcDbPoint
 10
-0.0005177730147068
 20
0.0000000000001705
 30
0.0
  0
POINT
  5
AF49
330
A991
100
AcDbEntity
  8
DEFPOINTS
 62
     0
100
AcDbPoint
 10
-80.00003051758023
 20
-15.99999988079019
 30
0.0
  0
POINT
  5
AF4A
330
A991
100
AcDbEntity
  8
DEFPOINTS
 62
     0
100
AcDbPoint
 10
-80.00003051758023
 20
-40.0000011831316
 30
0.0
  0
ENDBLK
  5
A99C
330
A991
100
AcDbEntity
  8
0
100
AcDbBlockEnd
  0
BLOCK
  5
AA27
330
AA1D
100
AcDbEntity
  8
0
100
AcDbBlockBegin
  2
*D8
 70
     1
 10
0.0
 20
0.0
 30
0.0
  3
*D8
  1

  0
LINE
  5
AF4B
330
AA1D
100
AcDbEntity
  8
AM_5
100
AcDbLine
 10
-80.00003090736869
 20
-17.00000017313175
 30
0.0
 11
-80.00003090736864
 21
-41.00000107868837
 31
0.0
  0
LINE
  5
AF4C
330
AA1D
100
AcDbEntity
  8
AM_5
100
AcDbLine
 10
-160.0000305175802
 20
-14.66149920622023
 30
0.0
 11
-160.0000305175801
 21
-41.00000107868853
 31
0.0
  0
LINE
  5
AF4D
330
AA1D
100
AcDbEntity
  8
AM_5
100
AcDbLine
 10
-82.50003090736864
 20
-40.00000107868837
 30
0.0
 11
-157.5000305175801
 21
-40.00000107868852
 31
0.0
  0
INSERT
  5
AF4E
330
AA1D
100
AcDbEntity
  8
AM_5
100
AcDbBlockReference
  2
_OPEN30
 10
-80.00003090736864
 20
-40.00000107868837
 30
0.0
 41
2.5
 42
2.5
 43
2.5
 50
0.0000000000001018
  0
INSERT
  5
AF4F
330
AA1D
100
AcDbEntity
  8
AM_5
100
AcDbBlockReference
  2
_OPEN30
 10
-160.0000305175801
 20
-40.00000107868853
 30
0.0
 41
2.5
 42
2.5
 43
2.5
 50
180.0000000000001
  0
MTEXT
  5
AF50
330
AA1D
100
AcDbEntity
  8
AM_5
 62
     2
100
AcDbMText
 10
-120.0000307124744
 20
-36.90000107868844
 30
0.0
 40
3.2
 41
0.0
 71
     5
 72
     1
  1
80
  7
ASAMI
  0
POINT
  5
AF51
330
AA1D
100
AcDbEntity
  8
DEFPOINTS
 62
     0
100
AcDbPoint
 10
-80.00003090736873
 20
-16.00000017313159
 30
0.0
  0
POINT
  5
AF52
330
AA1D
100
AcDbEntity
  8
DEFPOINTS
 62
     0
100
AcDbPoint
 10
-160.0000305175802
 20
-13.66149920621991
 30
0.0
  0
POINT
  5
AF53
330
AA1D
100
AcDbEntity
  8
DEFPOINTS
 62
     0
100
AcDbPoint
 10
-160.0000305175802
 20
-40.0000010786882
 30
0.0
  0
ENDBLK
  5
AA28
330
AA1D
100
AcDbEntity
  8
0
100
AcDbBlockEnd
  0
BLOCK
  5
AABC
330
AAB2
100
AcDbEntity
  8
0
100
AcDbBlockBegin
  2
*D9
 70
     1
 10
0.0
 20
0.0
 30
0.0
  3
*D9
  1

  0
LINE
  5
AF54
330
AAB2
100
AcDbEntity
  8
AM_5
100
AcDbLine
 10
-0.0005177730147048
 20
-0.9999999999998294
 30
0.0
 11
-0.0005177730146068
 21
-51.0000011831316
 31
0.0
  0
LINE
  5
AF55
330
AAB2
100
AcDbEntity
  8
AM_5
100
AcDbLine
 10
-160.0000305175802
 20
-1.000000000000465
 30
0.0
 11
-160.0000305175801
 21
-51.00000118313193
 31
0.0
  0
LINE
  5
AF56
330
AAB2
100
AcDbEntity
  8
AM_5
100
AcDbLine
 10
-2.500517773014608
 20
-50.00000118313161
 30
0.0
 11
-157.5000305175801
 21
-50.00000118313192
 31
0.0
  0
INSERT
  5
AF57
330
AAB2
100
AcDbEntity
  8
AM_5
100
AcDbBlockReference
  2
_OPEN30
 10
-0.0005177730146088
 20
-50.0000011831316
 30
0.0
 41
2.5
 42
2.5
 43
2.5
 50
0.0000000000001018
  0
INSERT
  5
AF58
330
AAB2
100
AcDbEntity
  8
AM_5
100
AcDbBlockReference
  2
_OPEN30
 10
-160.0000305175801
 20
-50.00000118313193
 30
0.0
 41
2.5
 42
2.5
 43
2.5
 50
180.0000000000001
  0
MTEXT
  5
AF59
330
AAB2
100
AcDbEntity
  8
AM_5
 62
     2
100
AcDbMText
 10
-80.00027414529737
 20
-46.90000118313176
 30
0.0
 40
3.2
 41
0.0
 71
     5
 72
     1
  1
160
  7
ASAMI
  0
POINT
  5
AF5A
330
AAB2
100
AcDbEntity
  8
DEFPOINTS
 62
     0
100
AcDbPoint
 10
-0.0005177730147068
 20
0.0000000000001705
 30
0.0
  0
POINT
  5
AF5B
330
AAB2
100
AcDbEntity
  8
DEFPOINTS
 62
     0
100
AcDbPoint
 10
-160.0000305175802
 20
-0.0000000000001421
 30
0.0
  0
POINT
  5
AF5C
330
AAB2
100
AcDbEntity
  8
DEFPOINTS
 62
     0
100
AcDbPoint
 10
-160.0000305175802
 20
-50.0000011831316
 30
0.0
  0
ENDBLK
  5
AABD
330
AAB2
100
AcDbEntity
  8
0
100
AcDbBlockEnd
  0
BLOCK
  5
AB63
330
AB59
100
AcDbEntity
  8
0
100
AcDbBlockBegin
  2
*D10
 70
     1
 10
0.0
 20
0.0
 30
0.0
  3
*D10
  1

  0
LINE
  5
AF5D
330
AB59
100
AcDbEntity
  8
AM_5
100
AcDbLine
 10
-14.00000000000034
 20
15.00000011920891
 30
0.0
 11
18.0947580800797
 21
15.00000011920898
 31
0.0
  0
LINE
  5
AF5E
330
AB59
100
AcDbEntity
  8
AM_5
100
AcDbLine
 10
-14.00000065567203
 20
-14.99999999999987
 30
0.0
 11
18.09475808007976
 21
-14.99999999999981
 31
0.0
  0
LINE
  5
AF5F
330
AB59
100
AcDbEntity
  8
AM_5
100
AcDbLine
 10
17.0947580800797
 20
12.50000011920897
 30
0.0
 11
17.09475808007975
 21
-12.49999999999981
 31
0.0
  0
INSERT
  5
AF60
330
AB59
100
AcDbEntity
  8
AM_5
100
AcDbBlockReference
  2
_OPEN30
 10
17.0947580800797
 20
15.00000011920897
 30
0.0
 41
2.5
 42
2.5
 43
2.5
 50
90.0000000000001
  0
INSERT
  5
AF61
330
AB59
100
AcDbEntity
  8
AM_5
100
AcDbBlockReference
  2
_OPEN30
 10
17.09475808007976
 20
-14.99999999999981
 30
0.0
 41
2.5
 42
2.5
 43
2.5
 50
270.0000000000001
  0
MTEXT
  5
AF62
330
AB59
100
AcDbEntity
  8
AM_5
 62
     2
100
AcDbMText
 10
13.99475808007973
 20
0.0000000596045747
 30
0.0
 40
3.2
 41
0.0
 71
     5
 72
     1
  1
%%c30
  7
ASAMI
 11
-0.000000000000002
 21
1.0
 31
0.0
  0
POINT
  5
AF63
330
AB59
100
AcDbEntity
  8
DEFPOINTS
 62
     0
100
AcDbPoint
 10
-15.00000000000031
 20
15.00000011920894
 30
0.0
  0
POINT
  5
AF64
330
AB59
100
AcDbEntity
  8
DEFPOINTS
 62
     0
100
AcDbPoint
 10
-15.00000065567206
 20
-14.99999999999984
 30
0.0
  0
POINT
  5
AF65
330
AB59
100
AcDbEntity
  8
DEFPOINTS
 62
     0
100
AcDbPoint
 10
17.09475808007972
 20
-14.99999999999985
 30
0.0
  0
ENDBLK
  5
AB64
330
AB59
100
AcDbEntity
  8
0
100
AcDbBlockEnd
  0
BLOCK
  5
AC01
330
ABF7
100
AcDbEntity
  8
0
100
AcDbBlockBegin
  2
*D11
 70
     1
 10
0.0
 20
0.0
 30
0.0
  3
*D11
  1

  0
LINE
  5
AF66
330
ABF7
100
AcDbEntity
  8
AM_5
100
AcDbLine
 10
-158.0000305175803
 20
16.00000202655731
 30
0.0
 11
-178.7893991933603
 21
16.00000202655727
 31
0.0
  0
LINE
  5
AF67
330
ABF7
100
AcDbEntity
  8
AM_5
100
AcDbLine
 10
-157.9999694824202
 20
-15.99999511241969
 30
0.0
 11
-178.7893991933602
 21
-15.99999511241973
 31
0.0
  0
LINE
  5
AF68
330
ABF7
100
AcDbEntity
  8
AM_5
100
AcDbLine
 10
-177.7893991933603
 20
13.50000202655727
 30
0.0
 11
-177.7893991933602
 21
-13.49999511241973
 31
0.0
  0
INSERT
  5
AF69
330
ABF7
100
AcDbEntity
  8
AM_5
100
AcDbBlockReference
  2
_OPEN30
 10
-177.7893991933603
 20
16.00000202655727
 30
0.0
 41
2.5
 42
2.5
 43
2.5
 50
90.0000000000001
  0
INSERT
  5
AF6A
330
ABF7
100
AcDbEntity
  8
AM_5
100
AcDbBlockReference
  2
_OPEN30
 10
-177.7893991933602
 20
-15.99999511241973
 30
0.0
 41
2.5
 42
2.5
 43
2.5
 50
270.0000000000001
  0
MTEXT
  5
AF6B
330
ABF7
100
AcDbEntity
  8
AM_5
 62
     2
100
AcDbMText
 10
-180.8893991933602
 20
0.0000034570687735
 30
0.0
 40
3.2
 41
0.0
 71
     5
 72
     1
  1
%%c32
  7
ASAMI
 11
-0.000000000000002
 21
1.0
 31
0.0
  0
POINT
  5
AF6C
330
ABF7
100
AcDbEntity
  8
DEFPOINTS
 62
     0
100
AcDbPoint
 10
-157.0000305175802
 20
16.00000202655766
 30
0.0
  0
POINT
  5
AF6D
330
ABF7
100
AcDbEntity
  8
DEFPOINTS
 62
     0
100
AcDbPoint
 10
-156.9999694824202
 20
-15.99999511241934
 30
0.0
  0
POINT
  5
AF6E
330
ABF7
100
AcDbEntity
  8
DEFPOINTS
 62
     0
100
AcDbPoint
 10
-177.7893991933602
 20
-15.99999511241933
 30
0.0
  0
ENDBLK
  5
AC02
330
ABF7
100
AcDbEntity
  8
0
100
AcDbBlockEnd
  0
ENDSEC
  0
SECTION
  2
ENTITIES
  0
TEXT
  5
388D
330
1F
100
AcDbEntity
  8
AM_6
100
AcDbText
 10
-104.0478931929163
 20
-72.50000118313171
 30
0.0
 40
5.0
  1
WBMR2300SL
 50
359.9999999999998
 51
359.9999999999998
 72
     4
 11
-80.00027414529732
 21
-70.00000118313176
 31
0.0
100
AcDbText
  0
SPLINE
  5
A468
330
1F
100
AcDbEntity
  8
AM_0
100
AcDbSpline
210
0.0
220
0.0
230
1.0
 70
     8
 71
     3
 72
    11
 73
     7
 74
     5
 42
0.0000000001
 43
0.0000000001
 44
0.0000000001
 40
0.0
 40
0.0
 40
0.0
 40
0.0
 40
0.2720873623321211
 40
0.5408764846917141
 40
0.8062203990719176
 40
1.067912852321519
 40
1.067912852321519
 40
1.067912852321519
 40
1.067912852321519
 10
-8.56576538086027
 20
-0.7540587782858382
 30
0.0
 10
-8.50042881181945
 20
-0.8169707014687176
 30
0.0
 10
-8.37054768289925
 20
-0.9420319302030961
 30
0.0
 10
-8.170809897718507
 20
-1.121885876696417
 30
0.0
 10
-7.969673878280264
 20
-1.294906601282917
 30
0.0
 10
-7.832735035546335
 20
-1.404973191160322
 30
0.0
 10
-7.764739990230268
 20
-1.459625199437041
 30
0.0
 11
-8.56576538086027
 21
-0.7540587782858382
 31
0.0
 11
-8.368713378910271
 21
-0.9416808485983381
 31
0.0
 11
-8.16928100586027
 21
-1.121887177228842
 31
0.0
 11
-7.96780395508027
 21
-1.294555619358845
 31
0.0
 11
-7.764739990230268
 21
-1.459625199437041
 31
0.0
  0
SPLINE
  5
A469
330
1F
100
AcDbEntity
  8
AM_0
100
AcDbSpline
210
0.0
220
0.0
230
1.0
 70
     8
 71
     3
 72
    11
 73
     7
 74
     5
 42
0.0000000001
 43
0.0000000001
 44
0.0000000001
 40
0.0
 40
0.0
 40
0.0
 40
0.0
 40
1.093611780865873
 40
2.151620259970406
 40
3.146678848589484
 40
4.067128039901018
 40
4.067128039901018
 40
4.067128039901018
 40
4.067128039901018
 10
-17.67663574219024
 20
-5.641723513603068
 30
0.0
 10
-17.3100028241689
 20
-5.690506751601993
 30
0.0
 10
-16.58867298099349
 20
-5.786485054928554
 30
0.0
 10
-15.71246671901314
 20
-6.421877418670012
 30
0.0
 10
-15.10604852415616
 20
-7.235074441514219
 30
0.0
 10
-14.96392417296616
 20
-7.863927502169834
 30
0.0
 10
-14.89562988281024
 20
-8.166107058524971
 30
0.0
 11
-17.67663574219024
 21
-5.641723513603068
 31
0.0
 11
-16.60830688477024
 21
-5.875518679618764
 31
0.0
 11
-15.73556518555024
 21
-6.473602175712471
 31
0.0
 11
-15.15789794922024
 21
-7.283813357353068
 31
0.0
 11
-14.89562988281024
 21
-8.166107058524971
 31
0.0
  0
SPLINE
  5
A46A
330
1F
100
AcDbEntity
  8
AM_0
100
AcDbSpline
210
0.0
220
0.0
230
1.0
 70
     8
 71
     3
 72
    11
 73
     7
 74
     5
 42
0.0000000001
 43
0.0000000001
 44
0.0000000001
 40
0.0
 40
0.0
 40
0.0
 40
0.0
 40
1.237787447961413
 40
2.651507849689036
 40
3.856904950053633
 40
4.766384000003515
 40
4.766384000003515
 40
4.766384000003515
 40
4.766384000003515
 10
-43.78567504883024
 20
-10.37591540813443
 30
0.0
 10
-43.44503775335965
 20
-10.11754593439324
 30
0.0
 10
-42.71534667083606
 20
-9.564083634486213
 30
0.0
 10
-41.33942195200549
 20
-9.768089366368837
 30
0.0
 10
-40.28214447815559
 20
-10.41888873804936
 30
0.0
 10
-40.03288218426429
 20
-11.09588784401497
 30
0.0
 10
-39.92568969727024
 20
-11.38702380657191
 30
0.0
 11
-43.78567504883024
 21
-10.37591540813443
 31
0.0
 11
-42.71664428711024
 21
-9.751983523368807
 31
0.0
 11
-41.30868530273024
 21
-9.879485964775014
 31
0.0
 11
-40.31835937500024
 21
-10.5666807889938
 31
0.0
 11
-39.92568969727024
 21
-11.38702380657191
 31
0.0
  0
SPLINE
  5
A480
330
1F
100
AcDbEntity
  8
AM_0
100
AcDbSpline
210
0.0
220
0.0
230
1.0
 70
     8
 71
     3
 72
    11
 73
     7
 74
     5
 42
0.0000000001
 43
0.0000000001
 44
0.0000000001
 40
0.0
 40
0.0
 40
0.0
 40
0.0
 40
5.460607110496324
 40
11.02848997659101
 40
16.57690577343877
 40
21.9548752265378
 40
21.9548752265378
 40
21.9548752265378
 40
21.9548752265378
 10
-26.27505493164029
 20
13.26498425006791
 30
0.0
 10
-25.86734511466075
 20
11.47099688667516
 30
0.0
 10
-25.04391586239435
 20
7.847778578718655
 30
0.0
 10
-21.59023178394793
 20
3.360106880081359
 30
0.0
 10
-16.95080478554391
 20
0.1109243416598616
 30
0.0
 10
-13.29650902399064
 20
-0.392318393375372
 30
0.0
 10
-11.49786376953026
 20
-0.6400145888327558
 30
0.0
 11
-26.27505493164029
 21
13.26498425006791
 31
0.0
 11
-24.69049072266027
 21
8.039337277412514
 31
0.0
 11
-21.38278198242026
 21
3.560455441475028
 31
0.0
 11
-16.75305175781026
 21
0.5025941133500283
 31
0.0
 11
-11.49786376953026
 21
-0.6400145888327558
 31
0.0
  0
SPLINE
  5
A481
330
1F
100
AcDbEntity
  8
AM_0
100
AcDbSpline
210
0.0
220
0.0
230
1.0
 70
     8
 71
     3
 72
    11
 73
     7
 74
     5
 42
0.0000000001
 43
0.0000000001
 44
0.0000000001
 40
0.0
 40
0.0
 40
0.0
 40
0.0
 40
1.250390978479082
 40
2.527683452507219
 40
3.822616863609238
 40
5.11537410894689
 40
5.11537410894689
 40
5.11537410894689
 40
5.11537410894689
 10
-16.63946533203026
 20
7.784149289131235
 30
0.0
 10
-16.70659051114057
 20
7.368856743810287
 30
0.0
 10
-16.84228503181768
 20
6.529336855371708
 30
0.0
 10
-16.52815287290139
 20
5.265938944710391
 30
0.0
 10
-15.87784864705937
 20
4.120695947402739
 30
0.0
 10
-15.18162189383458
 20
3.597438082674321
 30
0.0
 10
-14.83380126953027
 20
3.336029171943749
 30
0.0
 11
-16.63946533203026
 21
7.784149289131235
 31
0.0
 11
-16.75680541992027
 21
6.539276242256235
 31
0.0
 11
-16.47500610352027
 21
5.293457150459431
 31
0.0
 11
-15.81216430664027
 21
4.181030392646945
 31
0.0
 11
-14.83380126953027
 21
3.336029171943749
 31
0.0
  0
SPLINE
  5
A482
330
1F
100
AcDbEntity
  8
AM_0
100
AcDbSpline
210
0.0
220
0.0
230
1.0
 70
     8
 71
     3
 72
    11
 73
     7
 74
     5
 42
0.0000000001
 43
0.0000000001
 44
0.0000000001
 40
0.0
 40
0.0
 40
0.0
 40
0.0
 40
0.0634910713624355
 40
0.1254661717229317
 40
0.1841428724099128
 40
0.2336254949790933
 40
0.2336254949790933
 40
0.2336254949790933
 40
0.2336254949790933
 10
-26.24032592773026
 20
11.29101574420892
 30
0.0
 10
-26.2368527728261
 20
11.27013786254675
 30
0.0
 10
-26.229989391247
 20
11.2288805986571
 30
0.0
 10
-26.22069018090193
 20
11.16822000291231
 30
0.0
 10
-26.21240538937852
 20
11.112072213137
 30
0.0
 10
-26.21020477409389
 20
11.07607128483896
 30
0.0
 10
-26.20919799805027
 20
11.05960094928691
 30
0.0
 11
-26.24032592773026
 21
11.29101574420892
 31
0.0
 11
-26.23004150391027
 21
11.22836315631791
 31
0.0
 11
-26.22058105469027
 21
11.16711437702191
 31
0.0
 11
-26.21286010742027
 21
11.10894787311491
 31
0.0
 11
-26.20919799805027
 21
11.05960094928691
 31
0.0
  0
SPLINE
  5
A483
330
1F
100
AcDbEntity
  8
AM_0
100
AcDbSpline
210
0.0
220
0.0
230
1.0
 70
     8
 71
     3
 72
    11
 73
     7
 74
     5
 42
0.0000000001
 43
0.0000000001
 44
0.0000000001
 40
0.0
 40
0.0
 40
0.0
 40
0.0
 40
0.0495332257366141
 40
0.0988854242757292
 40
0.1480553135721731
 40
0.1970180073201557
 40
0.1970180073201557
 40
0.1970180073201557
 40
0.1970180073201557
 10
-26.2966003418003
 20
13.46081554889691
 30
0.0
 10
-26.29497632296293
 20
13.44438445885322
 30
0.0
 10
-26.29173422052812
 20
13.41158232884612
 30
0.0
 10
-26.28645162706632
 20
13.36251368011227
 30
0.0
 10
-26.28096476866718
 20
13.31365878986484
 30
0.0
 10
-26.27702210248872
 20
13.28118624266326
 30
0.0
 10
-26.27505493164029
 20
13.26498425006791
 30
0.0
 11
-26.2966003418003
 21
13.46081554889691
 31
0.0
 11
-26.2916564941403
 21
13.41152966022491
 31
0.0
 11
-26.28640747070029
 21
13.36245739459991
 31
0.0
 11
-26.2808837890603
 21
13.31359875202191
 31
0.0
 11
-26.27505493164029
 21
13.26498425006791
 31
0.0
  0
SPLINE
  5
A484
330
1F
100
AcDbEntity
  8
AM_0
100
AcDbSpline
210
0.0
220
0.0
230
1.0
 70
     8
 71
     3
 72
    11
 73
     7
 74
     5
 42
0.0000000001
 43
0.0000000001
 44
0.0000000001
 40
0.0
 40
0.0
 40
0.0
 40
0.0
 40
5.3251377685304
 40
10.6915289986434
 40
16.16705592877594
 40
21.73145763647441
 40
21.73145763647441
 40
21.73145763647441
 40
21.73145763647441
 10
-0.0039978027302681
 20
0.1700744628907671
 30
0.0
 10
-0.2279098264872662
 20
1.953936743076816
 30
0.0
 10
-0.6774685044411603
 20
5.535480756999806
 30
0.0
 10
-3.841101659037351
 20
10.11644736072863
 30
0.0
 10
-8.476506917244943
 20
13.34839070990289
 30
0.0
 10
-12.17477015296724
 20
13.82079526658873
 30
0.0
 10
-14.03878784180029
 20
14.05889904498994
 30
0.0
 11
-0.0039978027302681
 21
0.1700744628907671
 31
0.0
 11
-1.083221435550271
 21
5.384704709053167
 31
0.0
 11
-4.050445556640269
 21
9.856140255927954
 31
0.0
 11
-8.593841552730296
 21
12.91210949420896
 31
0.0
 11
-14.03878784180029
 21
14.05889904498994
 31
0.0
  0
SPLINE
  5
A485
330
1F
100
AcDbEntity
  8
AM_0
100
AcDbSpline
210
0.0
220
0.0
230
1.0
 70
     8
 71
     3
 72
    11
 73
     7
 74
     5
 42
0.0000000001
 43
0.0000000001
 44
0.0000000001
 40
0.0
 40
0.0
 40
0.0
 40
0.0
 40
2.234611057353108
 40
4.470340289851024
 40
6.747507991793624
 40
9.04551476005864
 40
9.04551476005864
 40
9.04551476005864
 40
9.04551476005864
 10
-9.33578491211027
 20
5.644287228584445
 30
0.0
 10
-9.199940621318264
 20
6.400850126052104
 30
0.0
 10
-8.928184064724
 20
7.91435449685844
 30
0.0
 10
-10.25803068005694
 20
9.967632670874962
 30
0.0
 10
-12.5314407828367
 20
10.91214291876587
 30
0.0
 10
-14.01333694881117
 20
10.39116276419314
 30
0.0
 10
-14.75765991211027
 20
10.12948620319294
 30
0.0
 11
-9.33578491211027
 21
5.644287228584445
 31
0.0
 11
-9.21630859375027
 21
7.875702023506249
 31
0.0
 11
-10.40127563477027
 21
9.771576046942939
 31
0.0
 11
-12.51327514648026
 21
10.62301647663093
 31
0.0
 11
-14.75765991211027
 21
10.12948620319294
 31
0.0
  0
SPLINE
  5
A486
330
1F
100
AcDbEntity
  8
AM_0
100
AcDbSpline
210
0.0
220
0.0
230
1.0
 70
     8
 71
     3
 72
    11
 73
     7
 74
     5
 42
0.0000000001
 43
0.0000000001
 44
0.0000000001
 40
0.0
 40
0.0
 40
0.0
 40
0.0
 40
0.0492046430595644
 40
0.0981957080159275
 40
0.1469420632696027
 40
0.1954754621940229
 40
0.1954754621940229
 40
0.1954754621940229
 40
0.1954754621940229
 10
-0.00000000000027
 20
-0.0253601074217329
 30
0.0
 10
-0.0003344737307889
 20
-0.0089619705793867
 30
0.0
 10
-0.0010019693722321
 20
0.0237631252093786
 30
0.0
 10
-0.0020226294660516
 20
0.0727331824734445
 30
0.0
 10
-0.0029780559728072
 20
0.1214807716554722
 30
0.0
 10
-0.003658383582347
 20
0.1539002224210163
 30
0.0
 10
-0.0039978027302681
 20
0.1700744628907671
 30
0.0
 11
-0.00000000000027
 21
-0.0253601074217329
 31
0.0
 11
-0.0010070800802708
 21
0.0238342285157671
 31
0.0
 11
-0.0020141601602717
 21
0.0728149414063637
 31
0.0
 11
-0.0029907226602717
 21
0.1215515136719745
 31
0.0
 11
-0.0039978027302681
 21
0.1700744628907671
 31
0.0
  0
SPLINE
  5
A487
330
1F
100
AcDbEntity
  8
AM_0
100
AcDbSpline
210
0.0
220
0.0
230
1.0
 70
     8
 71
     3
 72
    11
 73
     7
 74
     5
 42
0.0000000001
 43
0.0000000001
 44
0.0000000001
 40
0.0
 40
0.0
 40
0.0
 40
0.0
 40
0.3186246331497502
 40
0.6367163168205892
 40
0.9542933729563307
 40
1.271287689261899
 40
1.271287689261899
 40
1.271287689261899
 40
1.271287689261899
 10
-14.75765991211027
 20
10.12948620319294
 30
0.0
 10
-14.84955180145268
 20
10.07611164304338
 30
0.0
 10
-15.03318187659596
 20
9.969451800035047
 30
0.0
 10
-15.29135313066871
 20
9.782913726901462
 30
0.0
 10
-15.53618442277098
 20
9.580033746220244
 30
0.0
 10
-15.68493822625411
 20
9.429484286968671
 30
0.0
 10
-15.75924682617027
 20
9.354278683661945
 30
0.0
 11
-14.75765991211027
 21
10.12948620319294
 31
0.0
 11
-15.03048706055027
 21
9.964904904364942
 31
0.0
 11
-15.28933715820026
 21
9.780029416083948
 31
0.0
 11
-15.53274536133027
 21
9.576049923896945
 31
0.0
 11
-15.75924682617027
 21
9.354278683661945
 31
0.0
  0
SPLINE
  5
A488
330
1F
100
AcDbEntity
  8
AM_0
100
AcDbSpline
210
0.0
220
0.0
230
1.0
 70
     8
 71
     3
 72
    11
 73
     7
 74
     5
 42
0.0000000001
 43
0.0000000001
 44
0.0000000001
 40
0.0
 40
0.0
 40
0.0
 40
0.0
 40
1.313143609966145
 40
2.589605805280702
 40
3.838850989290967
 40
5.083582944217404
 40
5.083582944217404
 40
5.083582944217404
 40
5.083582944217404
 10
-14.83380126953027
 20
3.336029171943749
 30
0.0
 10
-14.43491050905557
 20
3.143776297895656
 30
0.0
 10
-13.64827162115454
 20
2.764640950521365
 30
0.0
 10
-12.33252677010379
 20
2.765650475256654
 30
0.0
 10
-11.1084431830417
 20
3.183468872660903
 30
0.0
 10
-10.51314459041447
 20
3.777619915667092
 30
0.0
 10
-10.21603393555027
 20
4.074157834053139
 30
0.0
 11
-14.83380126953027
 21
3.336029171943749
 31
0.0
 11
-13.61117553711027
 21
2.856933712959445
 31
0.0
 11
-12.33486938477027
 21
2.836975216865639
 31
0.0
 11
-11.16076660156027
 21
3.263702511787542
 31
0.0
 11
-10.21603393555027
 21
4.074157834053139
 31
0.0
  0
SPLINE
  5
A489
330
1F
100
AcDbEntity
  8
AM_0
100
AcDbSpline
210
0.0
220
0.0
230
1.0
 70
     8
 71
     3
 72
    11
 73
     7
 74
     5
 42
0.0000000001
 43
0.0000000001
 44
0.0000000001
 40
0.0
 40
0.0
 40
0.0
 40
0.0
 40
0.1319303139477051
 40
0.2628539252090003
 40
0.3922425291481399
 40
0.519761364114638
 40
0.519761364114638
 40
0.519761364114638
 40
0.519761364114638
 10
-16.46932983398026
 20
8.274749875068735
 30
0.0
 10
-16.48648137688296
 20
8.234248605663099
 30
0.0
 10
-16.52065358674484
 20
8.153555114374674
 30
0.0
 10
-16.56548887422973
 20
8.030688790323086
 30
0.0
 10
-16.60574174861512
 20
7.907793225238533
 30
0.0
 10
-16.62827881237676
 20
7.825163475087523
 30
0.0
 10
-16.63946533203026
 20
7.784149289131235
 30
0.0
 11
-16.46932983398026
 21
8.274749875068735
 31
0.0
 11
-16.51974487305027
 21
8.152832150459431
 31
0.0
 11
-16.56497192383027
 21
8.029968380928124
 31
0.0
 11
-16.60488891602027
 21
7.906890988350028
 31
0.0
 11
-16.63946533203026
 21
7.784149289131235
 31
0.0
  0
SPLINE
  5
A48A
330
1F
100
AcDbEntity
  8
AM_0
100
AcDbSpline
210
0.0
220
0.0
230
1.0
 70
     8
 71
     3
 72
    11
 73
     7
 74
     5
 42
0.0000000001
 43
0.0000000001
 44
0.0000000001
 40
0.0
 40
0.0
 40
0.0
 40
0.0
 40
0.1925067720092241
 40
0.3849216146502461
 40
0.5772576309014151
 40
0.7694852489742968
 40
0.7694852489742968
 40
0.7694852489742968
 40
0.7694852489742968
 10
-16.46932983398026
 20
8.274749875068735
 30
0.0
 10
-16.44282299307727
 20
8.333204509707217
 30
0.0
 10
-16.38982196930461
 20
8.450085864653818
 30
0.0
 10
-16.29930922669381
 20
8.620004269422427
 30
0.0
 10
-16.20163806945618
 20
8.785804561795705
 30
0.0
 10
-16.12962454338481
 20
8.891888748489892
 30
0.0
 10
-16.09362792969027
 20
8.944915890692939
 30
0.0
 11
-16.46932983398026
 21
8.274749875068735
 31
0.0
 11
-16.38796997070026
 21
8.449218869209445
 31
0.0
 11
-16.29809570312026
 21
8.619354367255937
 31
0.0
 11
-16.19989013672027
 21
8.784729123114942
 31
0.0
 11
-16.09362792969027
 21
8.944915890692939
 31
0.0
  0
SPLINE
  5
A48B
330
1F
100
AcDbEntity
  8
AM_0
100
AcDbSpline
210
0.0
220
0.0
230
1.0
 70
     8
 71
     3
 72
    11
 73
     7
 74
     5
 42
0.0000000001
 43
0.0000000001
 44
0.0000000001
 40
0.0
 40
0.0
 40
0.0
 40
0.0
 40
0.131685411210783
 40
0.2640610057918622
 40
0.3966847861158981
 40
0.5290158246979621
 40
0.5290158246979621
 40
0.5290158246979621
 40
0.5290158246979621
 10
-15.75924682617027
 20
9.354278683661945
 30
0.0
 10
-15.78907765177929
 20
9.32207053789094
 30
0.0
 10
-15.84889565091447
 20
9.257485438533429
 30
0.0
 10
-15.93424260281144
 20
9.156442101143962
 30
0.0
 10
-16.01651728809065
 20
9.052600664016615
 30
0.0
 10
-16.06794332225641
 20
8.9807843658093
 30
0.0
 10
-16.09362792969027
 20
8.944915890692939
 30
0.0
 11
-15.75924682617027
 21
9.354278683661945
 31
0.0
 11
-15.84799194336027
 21
9.256988644599942
 31
0.0
 11
-15.93365478516027
 21
9.156067013739942
 31
0.0
 11
-16.01571655273026
 21
9.051880002021945
 31
0.0
 11
-16.09362792969027
 21
8.944915890692939
 31
0.0
  0
SPLINE
  5
A48C
330
1F
100
AcDbEntity
  8
AM_0
100
AcDbSpline
210
0.0
220
0.0
230
1.0
 70
     8
 71
     3
 72
    11
 73
     7
 74
     5
 42
0.0000000001
 43
0.0000000001
 44
0.0000000001
 40
0.0
 40
0.0
 40
0.0
 40
0.0
 40
0.1325527238107018
 40
0.2650601042599032
 40
0.3968708376213391
 40
0.527419162182265
 40
0.527419162182265
 40
0.527419162182265
 40
0.527419162182265
 10
-9.530517578120267
 20
5.154235959053139
 30
0.0
 10
-9.512999112230495
 20
5.194800283413259
 30
0.0
 10
-9.477968173131509
 20
5.275915055973353
 30
0.0
 10
-9.428282222043476
 20
5.398529983312155
 30
0.0
 10
-9.380644208050064
 20
5.521236871959127
 30
0.0
 10
-9.350689966550605
 20
5.60340222970117
 30
0.0
 10
-9.33578491211027
 20
5.644287228584445
 30
0.0
 11
-9.530517578120267
 21
5.154235959053139
 31
0.0
 11
-9.478424072270271
 21
5.276123166084445
 31
0.0
 11
-9.428497314450268
 21
5.398864865303139
 31
0.0
 11
-9.380920410160271
 21
5.521789669990639
 31
0.0
 11
-9.33578491211027
 21
5.644287228584445
 31
0.0
  0
SPLINE
  5
A48D
330
1F
100
AcDbEntity
  8
AM_0
100
AcDbSpline
210
0.0
220
0.0
230
1.0
 70
     8
 71
     3
 72
    11
 73
     7
 74
     5
 42
0.0000000001
 43
0.0000000001
 44
0.0000000001
 40
0.0
 40
0.0
 40
0.0
 40
0.0
 40
0.1925713104639525
 40
0.3850289331233808
 40
0.5773337923699293
 40
0.7694602514923007
 40
0.7694602514923007
 40
0.7694602514923007
 40
0.7694602514923007
 10
-9.530517578120267
 20
5.154235959053139
 30
0.0
 10
-9.557077559122935
 20
5.095781861044924
 30
0.0
 10
-9.610181840984008
 20
4.97890817441648
 30
0.0
 10
-9.70079392494526
 20
4.809015961211441
 30
0.0
 10
-9.798395154794167
 20
4.643212518140406
 30
0.0
 10
-9.870289160980165
 20
4.537101054218326
 30
0.0
 10
-9.906219482420269
 20
4.484069943428139
 30
0.0
 11
-9.530517578120267
 21
5.154235959053139
 31
0.0
 11
-9.612030029300271
 21
4.979766964912542
 31
0.0
 11
-9.70199584961027
 21
4.809631466865639
 31
0.0
 11
-9.80014038086027
 21
4.644256711006249
 31
0.0
 11
-9.906219482420269
 21
4.484069943428139
 31
0.0
  0
SPLINE
  5
A48E
330
1F
100
AcDbEntity
  8
AM_0
100
AcDbSpline
210
0.0
220
0.0
230
1.0
 70
     8
 71
     3
 72
    11
 73
     7
 74
     5
 42
0.0000000001
 43
0.0000000001
 44
0.0000000001
 40
0.0
 40
0.0
 40
0.0
 40
0.0
 40
0.1249991729863614
 40
0.2526965682150708
 40
0.3825629341656433
 40
0.5139376166818606
 40
0.5139376166818606
 40
0.5139376166818606
 40
0.5139376166818606
 10
-10.21603393555027
 20
4.074157834053139
 30
0.0
 10
-10.18983027008818
 20
4.106554945898173
 30
0.0
 10
-10.13685730891789
 20
4.172048491077173
 30
0.0
 10
-10.05910083605125
 20
4.273133019797581
 30
0.0
 10
-9.981724242656824
 20
4.377169629613836
 30
0.0
 10
-9.931484425013641
 20
4.448299612083861
 30
0.0
 10
-9.906219482420269
 20
4.484069943428139
 30
0.0
 11
-10.21603393555027
 21
4.074157834053139
 31
0.0
 11
-10.13781738281027
 21
4.171661496162542
 31
0.0
 11
-10.05981445312026
 21
4.272766232490639
 31
0.0
 11
-9.98245239258027
 21
4.377075314521945
 31
0.0
 11
-9.906219482420269
 21
4.484069943428139
 31
0.0
  0
SPLINE
  5
A48F
330
1F
100
AcDbEntity
  8
AM_0
100
AcDbSpline
210
0.0
220
0.0
230
1.0
 70
     8
 71
     3
 72
    11
 73
     7
 74
     5
 42
0.0000000001
 43
0.0000000001
 44
0.0000000001
 40
0.0
 40
0.0
 40
0.0
 40
0.0
 40
0.0951735578185513
 40
0.1898631901941964
 40
0.2841596671391103
 40
0.3780318416237163
 40
0.3780318416237163
 40
0.3780318416237163
 40
0.3780318416237163
 10
-26.23968505859029
 20
13.83074963092791
 30
0.0
 10
-26.25116023272925
 20
13.80112051260174
 30
0.0
 10
-26.27405223361682
 20
13.74201293002326
 30
0.0
 10
-26.29339847945833
 20
13.64894339773102
 30
0.0
 10
-26.30247466904535
 20
13.55478014379833
 30
0.0
 10
-26.298555505101
 20
13.49208996039168
 30
0.0
 10
-26.2966003418003
 20
13.46081554889691
 30
0.0
 11
-26.23968505859029
 21
13.83074963092791
 31
0.0
 11
-26.27160644531029
 21
13.74108898639691
 31
0.0
 11
-26.2917175293003
 21
13.64855968952191
 31
0.0
 11
-26.2999877929703
 21
13.55462658405291
 31
0.0
 11
-26.2966003418003
 21
13.46081554889691
 31
0.0
  0
SPLINE
  5
A490
330
1F
100
AcDbEntity
  8
AM_0
100
AcDbSpline
210
0.0
220
0.0
230
1.0
 70
     8
 71
     3
 72
    11
 73
     7
 74
     5
 42
0.0000000001
 43
0.0000000001
 44
0.0000000001
 40
0.0
 40
0.0
 40
0.0
 40
0.0
 40
0.2268055750504162
 40
0.4535459312702461
 40
0.6803618785007249
 40
0.9073225863140304
 40
0.9073225863140304
 40
0.9073225863140304
 40
0.9073225863140304
 10
-26.23968505859029
 20
13.83074963092791
 30
0.0
 10
-26.20383176187555
 20
13.89797187733991
 30
0.0
 10
-26.13213547820182
 20
14.03239704014392
 30
0.0
 10
-25.95749527649179
 20
14.18348226426161
 30
0.0
 10
-25.7507816389923
 20
14.28627094968328
 30
0.0
 10
-25.5991332803292
 20
14.30133439969101
 30
0.0
 10
-25.5232849121103
 20
14.30886852741191
 30
0.0
 11
-26.23968505859029
 21
13.83074963092791
 31
0.0
 11
-26.1209411621103
 21
14.02398693561491
 31
0.0
 11
-25.9521789550803
 21
14.17541515827191
 31
0.0
 11
-25.74737548828029
 21
14.27288830280291
 31
0.0
 11
-25.5232849121103
 21
14.30886852741191
 31
0.0
  0
SPLINE
  5
A491
330
1F
100
AcDbEntity
  8
AM_0
100
AcDbSpline
210
0.0
220
0.0
230
1.0
 70
     8
 71
     3
 72
    11
 73
     7
 74
     5
 42
0.0000000001
 43
0.0000000001
 44
0.0000000001
 40
0.0
 40
0.0
 40
0.0
 40
0.0
 40
0.0013514153971503
 40
0.0023552535424342
 40
0.0031539749934506
 40
0.0039385794938733
 40
0.0039385794938733
 40
0.0039385794938733
 40
0.0039385794938733
 10
-26.1433715820303
 20
14.21582043170892
 30
0.0
 10
-26.14292263050461
 20
14.21578671825788
 30
0.0
 10
-26.14214019553052
 20
14.21572796228606
 30
0.0
 10
-26.14110901826025
 20
14.21544002244995
 30
0.0
 10
-26.14045201044503
 20
14.21479126822718
 30
0.0
 10
-26.14038402930837
 20
14.21425508053867
 30
0.0
 10
-26.1403503418003
 20
14.21398937702191
 30
0.0
 11
-26.1433715820303
 21
14.21582043170892
 31
0.0
 11
-26.14202880859029
 21
14.21566784381791
 31
0.0
 11
-26.1410827636703
 21
14.21533215045892
 31
0.0
 11
-26.1405334472703
 21
14.21475231647491
 31
0.0
 11
-26.1403503418003
 21
14.21398937702191
 31
0.0
  0
SPLINE
  5
A492
330
1F
100
AcDbEntity
  8
AM_0
100
AcDbSpline
210
0.0
220
0.0
230
1.0
 70
     8
 71
     3
 72
    11
 73
     7
 74
     5
 42
0.0000000001
 43
0.0000000001
 44
0.0000000001
 40
0.0
 40
0.0
 40
0.0
 40
0.0
 40
0.0053147043532325
 40
0.0158237903022008
 40
0.0312521993412003
 40
0.0510197235365092
 40
0.0510197235365092
 40
0.0510197235365092
 40
0.0510197235365092
 10
-26.1403503418003
 20
14.21398937702191
 30
0.0
 10
-26.14114753728939
 20
14.21239301512618
 30
0.0
 10
-26.14352107557316
 20
14.20764007042679
 30
0.0
 10
-26.15175256942305
 20
14.2008863633843
 30
0.0
 10
-26.16307967922913
 20
14.19085357797256
 30
0.0
 10
-26.17219024818695
 20
14.18342985167834
 30
0.0
 10
-26.1773071289103
 20
14.17926037311491
 30
0.0
 11
-26.1403503418003
 21
14.21398937702191
 31
0.0
 11
-26.1429443359403
 21
14.20935070514691
 31
0.0
 11
-26.15039062500029
 21
14.20193493366191
 31
0.0
 11
-26.1620788574203
 21
14.1918641328809
 31
0.0
 11
-26.1773071289103
 21
14.17926037311491
 31
0.0
  0
SPLINE
  5
A493
330
1F
100
AcDbEntity
  8
AM_0
100
AcDbSpline
210
0.0
220
0.0
230
1.0
 70
     8
 71
     3
 72
    11
 73
     7
 74
     5
 42
0.0000000001
 43
0.0000000001
 44
0.0000000001
 40
0.0
 40
0.0
 40
0.0
 40
0.0
 40
0.0049803528111586
 40
0.0089641535077249
 40
0.0116616381291859
 40
0.0133312034796868
 40
0.0133312034796868
 40
0.0133312034796868
 40
0.0133312034796868
 10
-26.20919799805027
 20
11.05960094928691
 30
0.0
 10
-26.20923873880638
 20
11.05792684525175
 30
0.0
 10
-26.20931206822815
 20
11.05491361985828
 30
0.0
 10
-26.20992129180238
 20
11.05119573080542
 30
0.0
 10
-26.21058254752796
 20
11.04819650678209
 30
0.0
 10
-26.2119652687952
 20
11.04757173801151
 30
0.0
 10
-26.21249389648026
 20
11.0473328828809
 30
0.0
 11
-26.20919799805027
 21
11.05960094928691
 31
0.0
 11
-26.20944213867026
 21
11.05462658405291
 31
0.0
 11
-26.21005249023026
 21
11.05068981647491
 31
0.0
 11
-26.21105957031026
 21
11.04818737506791
 31
0.0
 11
-26.21249389648026
 21
11.0473328828809
 31
0.0
  0
SPLINE
  5
A494
330
1F
100
AcDbEntity
  8
AM_0
100
AcDbSpline
210
0.0
220
0.0
230
1.0
 70
     8
 71
     3
 72
    11
 73
     7
 74
     5
 42
0.0000000001
 43
0.0000000001
 44
0.0000000001
 40
0.0
 40
0.0
 40
0.0
 40
0.0
 40
0.2265922269167639
 40
0.45099709286975
 40
0.6726865311606448
 40
0.8920875563251408
 40
0.8920875563251408
 40
0.8920875563251408
 40
0.8920875563251408
 10
-0.0735778808602703
 20
-0.3949279785155255
 30
0.0
 10
-0.1093763766748782
 20
-0.4620588586849573
 30
0.0
 10
-0.1806277949657129
 20
-0.5956725850257236
 30
0.0
 10
-0.3512533608875356
 20
-0.746956711667842
 30
0.0
 10
-0.5521798531811695
 20
-0.8503342355889648
 30
0.0
 10
-0.6995532568005162
 20
-0.8657671301734529
 30
0.0
 10
-0.772857666020272
 20
-0.8734435439108239
 30
0.0
 11
-0.0735778808602703
 21
-0.3949279785155255
 31
0.0
 11
-0.1918640136702692
 21
-0.5881957411764347
 31
0.0
 11
-0.3573913574202692
 21
-0.7397155165671308
 31
0.0
 11
-0.5564575195302695
 21
-0.8372802138327273
 31
0.0
 11
-0.772857666020272
 21
-0.8734435439108239
 31
0.0
  0
SPLINE
  5
A495
330
1F
100
AcDbEntity
  8
AM_0
100
AcDbSpline
210
0.0
220
0.0
230
1.0
 70
     8
 71
     3
 72
    11
 73
     7
 74
     5
 42
0.0000000001
 43
0.0000000001
 44
0.0000000001
 40
0.0
 40
0.0
 40
0.0
 40
0.0
 40
0.0956282858279383
 40
0.1910727225112026
 40
0.2858096716271533
 40
0.3795534178978594
 40
0.3795534178978594
 40
0.3795534178978594
 40
0.3795534178978594
 10
-0.0735778808602703
 20
-0.3949279785155255
 30
0.0
 10
-0.0617370745205522
 20
-0.3652944757198772
 30
0.0
 10
-0.0380782262575118
 20
-0.3060844417044643
 30
0.0
 10
-0.0152635148864562
 20
-0.2133422459011118
 30
0.0
 10
-0.0010461442123751
 20
-0.1195335871575602
 30
0.0
 10
-0.0003474875424766
 20
-0.056640795720526
 30
0.0
 10
-0.00000000000027
 20
-0.0253601074217329
 30
0.0
 11
-0.0735778808602703
 21
-0.3949279785155255
 31
0.0
 11
-0.0401611328102689
 21
-0.3053283691405255
 31
0.0
 11
-0.0166320800802709
 21
-0.2128295898436363
 31
0.0
 11
-0.0032043457002686
 21
-0.1190490722655255
 31
0.0
 11
-0.00000000000027
 21
-0.0253601074217329
 31
0.0
  0
SPLINE
  5
A496
330
1F
100
AcDbEntity
  8
AM_0
100
AcDbSpline
210
0.0
220
0.0
230
1.0
 70
     8
 71
     3
 72
    11
 73
     7
 74
     5
 42
0.0000000001
 43
0.0000000001
 44
0.0000000001
 40
0.0
 40
0.0
 40
0.0
 40
0.0
 40
0.2028759406070694
 40
0.4069908860484839
 40
0.6112871265719078
 40
0.8146614625374324
 40
0.8146614625374324
 40
0.8146614625374324
 40
0.8146614625374324
 10
-35.73040771484027
 20
12.2325745820999
 30
0.0
 10
-35.79741995985611
 20
12.22094298918569
 30
0.0
 10
-35.93185370736448
 20
12.197608766842
 30
0.0
 10
-36.11410986314118
 20
12.10047582016476
 30
0.0
 10
-36.27100522176125
 20
11.96568397458976
 30
0.0
 10
-36.34067241968514
 20
11.84805118342048
 30
0.0
 10
-36.37542724609026
 20
11.7893677949899
 30
0.0
 11
-35.73040771484027
 21
12.2325745820999
 31
0.0
 11
-35.92819213867027
 21
12.1874085664749
 31
0.0
 11
-36.10980224609027
 21
12.0942384004589
 31
0.0
 11
-36.26248168945027
 21
11.9584962129589
 31
0.0
 11
-36.37542724609026
 21
11.7893677949899
 31
0.0
  0
SPLINE
  5
A497
330
1F
100
AcDbEntity
  8
AM_0
100
AcDbSpline
210
0.0
220
0.0
230
1.0
 70
     8
 71
     3
 72
    11
 73
     7
 74
     5
 42
0.0000000001
 43
0.0000000001
 44
0.0000000001
 40
0.0
 40
0.0
 40
0.0
 40
0.0
 40
0.102668181372054
 40
0.2048517199061507
 40
0.3064410017855664
 40
0.4074853665813808
 40
0.4074853665813808
 40
0.4074853665813808
 40
0.4074853665813808
 10
-36.37542724609026
 20
11.7893677949899
 30
0.0
 10
-36.38950292748303
 20
11.75811303747428
 30
0.0
 10
-36.41758784633156
 20
11.69575105982201
 30
0.0
 10
-36.44348042866589
 20
11.59655015071076
 30
0.0
 10
-36.4580507220182
 20
11.49561512584709
 30
0.0
 10
-36.45641338886847
 20
11.42798222374462
 30
0.0
 10
-36.45559692383027
 20
11.39425671100589
 30
0.0
 11
-36.37542724609026
 21
11.7893677949899
 31
0.0
 11
-36.41494750977027
 21
11.6946107149119
 31
0.0
 11
-36.44165039062027
 21
11.5959779024119
 31
0.0
 11
-36.45523071289026
 21
11.49530041217789
 31
0.0
 11
-36.45559692383027
 21
11.39425671100589
 31
0.0
  0
SPLINE
  5
A498
330
1F
100
AcDbEntity
  8
AM_0
100
AcDbSpline
210
0.0
220
0.0
230
1.0
 70
     8
 71
     3
 72
    11
 73
     7
 74
     5
 42
0.0000000001
 43
0.0000000001
 44
0.0000000001
 40
0.0
 40
0.0
 40
0.0
 40
0.0
 40
0.2653025781019662
 40
0.5286782803833385
 40
0.7932150634046154
 40
1.061088500896053
 40
1.061088500896053
 40
1.061088500896053
 40
1.061088500896053
 10
-27.09197998047027
 20
12.33682262897491
 30
0.0
 10
-27.10636700193858
 20
12.42513655357138
 30
0.0
 10
-27.13503655284955
 20
12.60112298432374
 30
0.0
 10
-27.29309088207543
 20
12.82287413140797
 30
0.0
 10
-27.5164526601895
 20
12.98004600682795
 30
0.0
 10
-27.6937734604799
 20
13.00824345652475
 30
0.0
 10
-27.78298950195029
 20
13.0224305391309
 30
0.0
 11
-27.09197998047027
 21
12.33682262897491
 31
0.0
 11
-27.15444946289027
 21
12.59466564655291
 31
0.0
 11
-27.30355834961029
 21
12.81176769733392
 31
0.0
 11
-27.52239990234029
 21
12.96038830280291
 31
0.0
 11
-27.78298950195029
 21
13.0224305391309
 31
0.0
  0
SPLINE
  5
A499
330
1F
100
AcDbEntity
  8
AM_0
100
AcDbSpline
210
0.0
220
0.0
230
1.0
 70
     8
 71
     3
 72
    11
 73
     7
 74
     5
 42
0.0000000001
 43
0.0000000001
 44
0.0000000001
 40
0.0
 40
0.0
 40
0.0
 40
0.0
 40
0.0318849110930524
 40
0.0637758386398463
 40
0.0957851704684337
 40
0.1279334510450333
 40
0.1279334510450333
 40
0.1279334510450333
 40
0.1279334510450333
 10
-27.78298950195029
 20
13.0224305391309
 30
0.0
 10
-27.79360725385336
 20
13.02294264498959
 30
0.0
 10
-27.81484476115301
 20
13.02396695333765
 30
0.0
 10
-27.84678409000296
 20
13.02379229043792
 30
0.0
 10
-27.87878778937765
 20
13.02258048833292
 30
0.0
 10
-27.90009161797701
 20
13.02067119091057
 30
0.0
 10
-27.91076660156029
 20
13.01971447467791
 30
0.0
 11
-27.78298950195029
 21
13.0224305391309
 31
0.0
 11
-27.8148498535203
 21
13.02368175983392
 31
0.0
 11
-27.8467407226603
 21
13.02362072467791
 31
0.0
 11
-27.87872314453029
 21
13.02230846881791
 31
0.0
 11
-27.91076660156029
 21
13.01971447467791
 31
0.0
  0
SPLINE
  5
A49A
330
1F
100
AcDbEntity
  8
AM_0
100
AcDbSpline
210
0.0
220
0.0
230
1.0
 70
     8
 71
     3
 72
    11
 73
     7
 74
     5
 42
0.0000000001
 43
0.0000000001
 44
0.0000000001
 40
0.0
 40
0.0
 40
0.0
 40
0.0
 40
0.2957881385134735
 40
0.5898230526438768
 40
0.8858672971405486
 40
1.186805840604422
 40
1.186805840604422
 40
1.186805840604422
 40
1.186805840604422
 10
-35.98153686523026
 20
3.689849972724999
 30
0.0
 10
-35.96427128673208
 20
3.591298458868086
 30
0.0
 10
-35.92984246796118
 20
3.394779575325661
 30
0.0
 10
-35.73566006816131
 20
3.15758233470926
 30
0.0
 10
-35.46619873795386
 20
3.009148954288418
 30
0.0
 10
-35.2644510775526
 20
3.007672093686038
 30
0.0
 10
-35.16275024414027
 20
3.006927609443707
 30
0.0
 11
-35.98153686523026
 21
3.689849972724999
 31
0.0
 11
-35.90588378906026
 21
3.403900265693707
 31
0.0
 11
-35.72390747070027
 21
3.172943234443707
 31
0.0
 11
-35.46246337891027
 21
3.034057736396903
 31
0.0
 11
-35.16275024414027
 21
3.006927609443707
 31
0.0
  0
SPLINE
  5
A49B
330
1F
100
AcDbEntity
  8
AM_0
100
AcDbSpline
210
0.0
220
0.0
230
1.0
 70
     8
 71
     3
 72
    11
 73
     7
 74
     5
 42
0.0000000001
 43
0.0000000001
 44
0.0000000001
 40
0.0
 40
0.0
 40
0.0
 40
0.0
 40
0.3052239494450758
 40
0.6120556157758549
 40
0.9168431877680655
 40
1.217073232232392
 40
1.217073232232392
 40
1.217073232232392
 40
1.217073232232392
 10
-27.34310913086027
 20
3.794067502021917
 30
0.0
 10
-27.24232340770444
 20
3.81552087206406
 30
0.0
 10
-27.04022108919468
 20
3.858540614241841
 30
0.0
 10
-26.79605030976569
 20
4.057917617595338
 30
0.0
 10
-26.63399378452576
 20
4.327001533664253
 30
0.0
 10
-26.6232509011239
 20
4.531123647753569
 30
0.0
 10
-26.61791992187026
 20
4.632415890693721
 30
0.0
 11
-27.34310913086027
 21
3.794067502021917
 31
0.0
 11
-27.05047607422027
 21
3.880828976631221
 31
0.0
 11
-26.80914306641027
 21
4.070312619209417
 31
0.0
 11
-26.65774536133027
 21
4.334838986396917
 31
0.0
 11
-26.61791992187026
 21
4.632415890693721
 31
0.0
  0
SPLINE
  5
A49C
330
1F
100
AcDbEntity
  8
AM_0
100
AcDbSpline
210
0.0
220
0.0
230
1.0
 70
     8
 71
     3
 72
    11
 73
     7
 74
     5
 42
0.0000000001
 43
0.0000000001
 44
0.0000000001
 40
0.0
 40
0.0
 40
0.0
 40
0.0
 40
0.1771964353045887
 40
0.355021637676313
 40
0.5334350756057855
 40
0.7122896136794063
 40
0.7122896136794063
 40
0.7122896136794063
 40
0.7122896136794063
 10
-1.55627441406024
 20
-4.957000613212443
 30
0.0
 10
-1.571970835009893
 20
-5.013956436382157
 30
0.0
 10
-1.603419374375958
 20
-5.128070185804689
 30
0.0
 10
-1.661528247343502
 20
-5.296220443006914
 30
0.0
 10
-1.727018500168304
 20
-5.462229676977608
 30
0.0
 10
-1.777698688234248
 20
-5.570027395393165
 30
0.0
 10
-1.803070068360241
 20
-5.623992800712443
 30
0.0
 11
-1.55627441406024
 21
-4.957000613212443
 31
0.0
 11
-1.605163574220242
 21
-5.127319216728039
 31
0.0
 11
-1.662658691410243
 21
-5.295593142509346
 31
0.0
 11
-1.728698730470242
 21
-5.461334109306235
 31
0.0
 11
-1.803070068360241
 21
-5.623992800712443
 31
0.0
  0
SPLINE
  5
A49D
330
1F
100
AcDbEntity
  8
AM_0
100
AcDbSpline
210
0.0
220
0.0
230
1.0
 70
     8
 71
     3
 72
    11
 73
     7
 74
     5
 42
0.0000000001
 43
0.0000000001
 44
0.0000000001
 40
0.0
 40
0.0
 40
0.0
 40
0.0
 40
0.2237192386715214
 40
0.4469746461435965
 40
0.6698821437728835
 40
0.8925431662750032
 40
0.8925431662750032
 40
0.8925431662750032
 40
0.8925431662750032
 10
-0.8810729980502429
 20
-4.777343630790539
 30
0.0
 10
-0.8955727243161035
 20
-4.850517012580477
 30
0.0
 10
-0.9245421149476255
 20
-4.996712067717012
 30
0.0
 10
-0.9839550313376625
 20
-5.212120534082162
 30
0.0
 10
-1.05382540598222
 20
-5.424003164236151
 30
0.0
 10
-1.110786777754434
 20
-5.561220449943712
 30
0.0
 10
-1.139251708980239
 20
-5.629791140556235
 30
0.0
 11
-0.8810729980502429
 21
-4.777343630790539
 31
0.0
 11
-0.9272460937502415
 21
-4.996246218681235
 31
0.0
 11
-0.9857482910202435
 21
-5.211700320243735
 31
0.0
 11
-1.056457519530241
 21
-5.423095583915539
 31
0.0
 11
-1.139251708980239
 21
-5.629791140556235
 31
0.0
  0
SPLINE
  5
A49E
330
1F
100
AcDbEntity
  8
AM_0
100
AcDbSpline
210
0.0
220
0.0
230
1.0
 70
     8
 71
     3
 72
    11
 73
     7
 74
     5
 42
0.0000000001
 43
0.0000000001
 44
0.0000000001
 40
0.0
 40
0.0
 40
0.0
 40
0.0
 40
0.0815318322658843
 40
0.1635505586643688
 40
0.2463064713734268
 40
0.329834883409703
 40
0.329834883409703
 40
0.329834883409703
 40
0.329834883409703
 10
-1.193176269530241
 20
-2.841186523437329
 30
0.0
 10
-1.165948279628869
 20
-2.843145134827665
 30
0.0
 10
-1.111329698935687
 20
-2.847074054099971
 30
0.0
 10
-1.033442608219009
 20
-2.87563848328936
 30
0.0
 10
-0.9617014377740437
 20
-2.918518309280142
 30
0.0
 10
-0.9233487050583446
 20
-2.958860948163358
 30
0.0
 10
-0.9040832519502401
 20
-2.979125976562329
 30
0.0
 11
-1.193176269530241
 21
-2.841186523437329
 31
0.0
 11
-1.112213134770243
 21
-2.850799560546732
 31
0.0
 11
-1.03479003906024
 21
-2.877868652343636
 31
0.0
 11
-0.9643249511702407
 21
-2.921264648437329
 31
0.0
 11
-0.9040832519502401
 21
-2.979125976562329
 31
0.0
  0
SPLINE
  5
A49F
330
1F
100
AcDbEntity
  8
AM_0
100
AcDbSpline
210
0.0
220
0.0
230
1.0
 70
     8
 71
     3
 72
    11
 73
     7
 74
     5
 42
0.0000000001
 43
0.0000000001
 44
0.0000000001
 40
0.0
 40
0.0
 40
0.0
 40
0.0
 40
0.1357734287452972
 40
0.273423505303036
 40
0.412446562731525
 40
0.5523098251984131
 40
0.5523098251984131
 40
0.5523098251984131
 40
0.5523098251984131
 10
-0.8938903808602418
 20
-4.476928591728039
 30
0.0
 10
-0.895663593541894
 20
-4.431705035598002
 30
0.0
 10
-0.8992345280873765
 20
-4.340632847515165
 30
0.0
 10
-0.9026956006568394
 20
-4.203190577986272
 30
0.0
 10
-0.9048634797738593
 20
-4.064358507532687
 30
0.0
 10
-0.9050348875305331
 20
-3.971395559945755
 30
0.0
 10
-0.9051208496102418
 20
-3.924774050712443
 30
0.0
 11
-0.8938903808602418
 21
-4.476928591728039
 31
0.0
 11
-0.8988952636702407
 21
-4.341247439384346
 31
0.0
 11
-0.9024658203102404
 21
-4.203643679618735
 31
0.0
 11
-0.9045410156202393
 21
-4.064636111259346
 31
0.0
 11
-0.9051208496102418
 21
-3.924774050712443
 31
0.0
  0
SPLINE
  5
A4A0
330
1F
100
AcDbEntity
  8
AM_0
100
AcDbSpline
210
0.0
220
0.0
230
1.0
 70
     8
 71
     3
 72
    11
 73
     7
 74
     5
 42
0.0000000001
 43
0.0000000001
 44
0.0000000001
 40
0.0
 40
0.0
 40
0.0
 40
0.0
 40
4.003890232893455
 40
8.059266208237271
 40
12.19277787816331
 40
16.39358336453875
 40
16.39358336453875
 40
16.39358336453875
 40
16.39358336453875
 10
-1.139251708980239
 20
-5.629791140556235
 30
0.0
 10
-1.775441123825637
 20
-6.814906871764769
 30
0.0
 10
-3.056000668385508
 20
-9.200377653883862
 30
0.0
 10
-6.212617660076825
 20
-11.88382341245711
 30
0.0
 10
-10.01886457847309
 20
-13.67649706036771
 30
0.0
 10
-12.81129289881138
 20
-13.8769167181961
 30
0.0
 10
-14.21878051758024
 20
-13.97793567180605
 30
0.0
 11
-1.139251708980239
 21
-5.629791140556235
 31
0.0
 11
-3.246734619140241
 21
-9.034149050712443
 31
0.0
 11
-6.289428710940242
 21
-11.71520984172804
 31
0.0
 11
-10.05526733398024
 21
-13.41943347454005
 31
0.0
 11
-14.21878051758024
 21
-13.97793567180605
 31
0.0
  0
SPLINE
  5
A4A1
330
1F
100
AcDbEntity
  8
AM_0
100
AcDbSpline
210
0.0
220
0.0
230
1.0
 70
    24
 71
     3
 72
    11
 73
     7
 74
     5
 42
0.0000000001
 43
0.0000000001
 44
0.0000000001
 40
0.0
 40
0.0
 40
0.0
 40
0.0
 40
0.0751720863240371
 40
0.1503441726484155
 40
0.2255162589723532
 40
0.3006883452962909
 40
0.3006883452962909
 40
0.3006883452962909
 40
0.3006883452962909
 10
-0.8938903808602418
 20
-4.476928591728039
 30
0.0
 10
-0.8928222656280386
 20
-4.501963178316653
 30
0.0
 10
-0.8906860351636275
 20
-4.552032351493993
 30
0.0
 10
-0.8874816894466796
 20
-4.627136111259047
 30
0.0
 10
-0.8842773437511333
 20
-4.70223987102498
 30
0.0
 10
-0.8821411132838729
 20
-4.752309044202021
 30
0.0
 10
-0.8810729980502429
 20
-4.777343630790539
 30
0.0
 11
-0.8938903808602418
 21
-4.476928591728039
 31
0.0
 11
-0.8906860351602432
 21
-4.552032351493735
 31
0.0
 11
-0.8874816894502401
 21
-4.627136111259346
 31
0.0
 11
-0.8842773437502415
 21
-4.702239871024943
 31
0.0
 11
-0.8810729980502429
 21
-4.777343630790539
 31
0.0
  0
SPLINE
  5
A4C2
330
1F
100
AcDbEntity
  8
AM_0
100
AcDbSpline
210
0.0
220
0.0
230
1.0
 70
     8
 71
     3
 72
    11
 73
     7
 74
     5
 42
0.0000000001
 43
0.0000000001
 44
0.0000000001
 40
0.0
 40
0.0
 40
0.0
 40
0.0
 40
0.2018918698974097
 40
0.4126367567480127
 40
0.6373148127478224
 40
0.8808568894719954
 40
0.8808568894719954
 40
0.8808568894719954
 40
0.8808568894719954
 10
-44.01913452148024
 20
-11.20339953899382
 30
0.0
 10
-44.02405849303765
 20
-11.13605920079242
 30
0.0
 10
-44.03412235373102
 20
-10.99842563106098
 30
0.0
 10
-43.99728281831174
 20
-10.78739209382517
 30
0.0
 10
-43.91957028801877
 20
-10.5728358550826
 30
0.0
 10
-43.83148968212011
 20
-10.44329523522077
 30
0.0
 10
-43.78567504883024
 20
-10.37591540813443
 30
0.0
 11
-44.01913452148024
 21
-11.20339953899382
 31
0.0
 11
-44.02578735352024
 21
-11.00161731243132
 31
0.0
 11
-43.99230957031024
 21
-10.79354846477502
 31
0.0
 11
-43.91378784180024
 21
-10.58303821086882
 31
0.0
 11
-43.78567504883024
 21
-10.37591540813443
 31
0.0
  0
SPLINE
  5
A4C3
330
1F
100
AcDbEntity
  8
AM_0
100
AcDbSpline
210
0.0
220
0.0
230
1.0
 70
     8
 71
     3
 72
    11
 73
     7
 74
     5
 42
0.0000000001
 43
0.0000000001
 44
0.0000000001
 40
0.0
 40
0.0
 40
0.0
 40
0.0
 40
0.7749258042587961
 40
1.549981393791596
 40
2.325093274785962
 40
3.100030144672833
 40
3.100030144672833
 40
3.100030144672833
 40
3.100030144672833
 10
-32.94842529297027
 20
-0.4667358398437074
 30
0.0
 10
-33.20824086085493
 20
-0.4632691356231922
 30
0.0
 10
-33.72791551077038
 20
-0.4563351465754059
 30
0.0
 10
-34.46993981016409
 20
-0.1975497784268257
 30
0.0
 10
-35.13865169472774
 20
0.2129441484380817
 30
0.0
 10
-35.47962036362116
 20
0.6047689953124941
 30
0.0
 10
-35.65008544922027
 20
0.8006592988969032
 30
0.0
 11
-32.94842529297027
 21
-0.4667358398437074
 31
0.0
 11
-33.72161865234026
 21
-0.4149475097655966
 31
0.0
 11
-34.45770263672027
 21
-0.1722717285155966
 31
0.0
 11
-35.11248779297027
 21
0.2425231933594034
 31
0.0
 11
-35.65008544922027
 21
0.8006592988969032
 31
0.0
  0
SPLINE
  5
A4C4
330
1F
100
AcDbEntity
  8
AM_0
100
AcDbSpline
210
0.0
220
0.0
230
1.0
 70
     8
 71
     3
 72
    11
 73
     7
 74
     5
 42
0.0000000001
 43
0.0000000001
 44
0.0000000001
 40
0.0
 40
0.0
 40
0.0
 40
0.0
 40
1.043188867040936
 40
2.094899942702243
 40
3.149267558393035
 40
4.204410144096918
 40
4.204410144096918
 40
4.204410144096918
 40
4.204410144096918
 10
-24.97653198242026
 20
2.615448117256221
 30
0.0
 10
-25.02483840737125
 20
2.26704070336021
 30
0.0
 10
-25.12184589092406
 20
1.567379602223142
 30
0.0
 10
-25.72748198913328
 20
0.6711424813395765
 30
0.0
 10
-26.60592147894621
 20
0.0311011425048057
 30
0.0
 10
-27.30806867061415
 20
-0.0850166823291038
 30
0.0
 10
-27.65927124023026
 20
-0.1430969238280824
 30
0.0
 11
-24.97653198242026
 21
2.615448117256221
 31
0.0
 11
-25.19729614258027
 21
1.59588634967811
 31
0.0
 11
-25.77191162109027
 21
0.7150269746781106
 31
0.0
 11
-26.63467407227027
 21
0.1089477539063068
 31
0.0
 11
-27.65927124023026
 21
-0.1430969238280824
 31
0.0
  0
SPLINE
  5
A4C5
330
1F
100
AcDbEntity
  8
AM_0
100
AcDbSpline
210
0.0
220
0.0
230
1.0
 70
     8
 71
     3
 72
    11
 73
     7
 74
     5
 42
0.0000000001
 43
0.0000000001
 44
0.0000000001
 40
0.0
 40
0.0
 40
0.0
 40
0.0
 40
0.1053205482014598
 40
0.2107997925117504
 40
0.3164708453365827
 40
0.422307711405784
 40
0.422307711405784
 40
0.422307711405784
 40
0.422307711405784
 10
-24.98141479492026
 20
3.03668224811561
 30
0.0
 10
-24.9772646739323
 20
3.001809142008618
 30
0.0
 10
-24.96895817858925
 20
2.932010383294102
 30
0.0
 10
-24.96474212876925
 20
2.826518741455111
 30
0.0
 10
-24.96625569430511
 20
2.720771035432454
 30
0.0
 10
-24.97310476325529
 20
2.65057410045562
 30
0.0
 10
-24.97653198242026
 20
2.615448117256221
 30
0.0
 11
-24.98141479492026
 21
3.03668224811561
 31
0.0
 11
-24.97033691406027
 21
2.93194591999061
 31
0.0
 11
-24.96569824219027
 21
2.826568722725014
 31
0.0
 11
-24.96771240234027
 21
2.720916867256221
 31
0.0
 11
-24.97653198242026
 21
2.615448117256221
 31
0.0
  0
SPLINE
  5
A4C6
330
1F
100
AcDbEntity
  8
AM_0
100
AcDbSpline
210
0.0
220
0.0
230
1.0
 70
     8
 71
     3
 72
    11
 73
     7
 74
     5
 42
0.0000000001
 43
0.0000000001
 44
0.0000000001
 40
0.0
 40
0.0
 40
0.0
 40
0.0
 40
2.948838160129852
 40
5.897666352694303
 40
8.843078104770217
 40
11.76285904323569
 40
11.76285904323569
 40
11.76285904323569
 40
11.76285904323569
 10
-14.50000000000027
 20
-0.6245421767233524
 30
0.0
 10
-15.48321122461101
 20
-0.5469037626052725
 30
0.0
 10
-17.44963035041437
 20
-0.3916271967999167
 30
0.0
 10
-20.267139793683
 20
0.5533521319281115
 30
0.0
 10
-22.88006246398663
 20
1.940981175637034
 30
0.0
 10
-24.36142997547968
 20
3.225423233879842
 30
0.0
 10
-25.09887695312027
 20
3.864837765693721
 30
0.0
 11
-14.50000000000027
 21
-0.6245421767233524
 31
0.0
 11
-17.42779541016027
 21
-0.2728881835936789
 31
0.0
 11
-20.23553466797026
 21
0.6283265352250283
 31
0.0
 11
-22.82275390625027
 21
2.036071896553124
 31
0.0
 11
-25.09887695312027
 21
3.864837765693721
 31
0.0
  0
SPLINE
  5
A4C7
330
1F
100
AcDbEntity
  8
AM_0
100
AcDbSpline
210
0.0
220
0.0
230
1.0
 70
     8
 71
     3
 72
    11
 73
     7
 74
     5
 42
0.0000000001
 43
0.0000000001
 44
0.0000000001
 40
0.0
 40
0.0
 40
0.0
 40
0.0
 40
0.8619729183608351
 40
1.787499953097349
 40
2.782667870754543
 40
3.81835205718576
 40
3.81835205718576
 40
3.81835205718576
 40
3.81835205718576
 10
-19.97842407227024
 20
-8.121734499931278
 30
0.0
 10
-19.98273623000931
 20
-7.830407911095868
 30
0.0
 10
-19.99167848514536
 20
-7.226274935700792
 30
0.0
 10
-19.52735081872144
 20
-6.379484639478389
 30
0.0
 10
-18.70975124409964
 20
-5.754474114284612
 30
0.0
 10
-18.02555755061378
 20
-5.679803615409628
 30
0.0
 10
-17.67663574219024
 20
-5.641723513603068
 30
0.0
 11
-19.97842407227024
 21
-8.121734499931278
 31
0.0
 11
-19.91992187500024
 21
-7.261749148368778
 31
0.0
 11
-19.49005126953024
 21
-6.442108035087471
 31
0.0
 11
-18.69152832031024
 21
-5.848205447196875
 31
0.0
 11
-17.67663574219024
 21
-5.641723513603068
 31
0.0
  0
SPLINE
  5
A4C8
330
1F
100
AcDbEntity
  8
AM_0
100
AcDbSpline
210
0.0
220
0.0
230
1.0
 70
     8
 71
     3
 72
    11
 73
     7
 74
     5
 42
0.0000000001
 43
0.0000000001
 44
0.0000000001
 40
0.0
 40
0.0
 40
0.0
 40
0.0
 40
0.093618320338736
 40
0.1814917563299046
 40
0.2629863417256839
 40
0.3371285387045798
 40
0.3371285387045798
 40
0.3371285387045798
 40
0.3371285387045798
 10
-25.90594482422027
 20
3.83905041217811
 30
0.0
 10
-25.87520884232445
 20
3.833603178135016
 30
0.0
 10
-25.81562299078798
 20
3.823042979340123
 30
0.0
 10
-25.72852865014362
 20
3.812973611198548
 30
0.0
 10
-25.6473620529709
 20
3.807641424518571
 30
0.0
 10
-25.59554595254825
 20
3.811077070434011
 30
0.0
 10
-25.57086181641027
 20
3.812713742256221
 30
0.0
 11
-25.90594482422027
 21
3.83905041217811
 31
0.0
 11
-25.81359863281027
 21
3.82366955280311
 31
0.0
 11
-25.72631835937027
 21
3.813476681709417
 31
0.0
 11
-25.64492797852027
 21
3.809356808662514
 31
0.0
 11
-25.57086181641027
 21
3.812713742256221
 31
0.0
  0
SPLINE
  5
A4C9
330
1F
100
AcDbEntity
  8
AM_0
100
AcDbSpline
210
0.0
220
0.0
230
1.0
 70
     8
 71
     3
 72
    11
 73
     7
 74
     5
 42
0.0000000001
 43
0.0000000001
 44
0.0000000001
 40
0.0
 40
0.0
 40
0.0
 40
0.0
 40
0.2032918840572947
 40
0.3985390369004629
 40
0.5850093057152387
 40
0.7617140654133399
 40
0.7617140654133399
 40
0.7617140654133399
 40
0.7617140654133399
 10
-26.65072631836027
 20
3.996215939521917
 30
0.0
 10
-26.58522066467066
 20
3.978846901033847
 30
0.0
 10
-26.45680156789239
 20
3.94479615718334
 30
0.0
 10
-26.26665604638062
 20
3.901432625131423
 30
0.0
 10
-26.0840759966432
 20
3.864848181393284
 30
0.0
 10
-25.9642478514961
 20
3.84749412262895
 30
0.0
 10
-25.90594482422027
 20
3.83905041217811
 30
0.0
 11
-26.65072631836027
 21
3.996215939521917
 31
0.0
 11
-26.45391845703027
 21
3.945282101631221
 31
0.0
 11
-26.26361083984027
 21
3.901641964912514
 31
0.0
 11
-26.08059692383027
 21
3.86590588092811
 31
0.0
 11
-25.90594482422027
 21
3.83905041217811
 31
0.0
  0
ELLIPSE
  5
A4CF
330
1F
100
AcDbEntity
  8
AM_0
100
AcDbEllipse
 10
-15.04055786133027
 20
1.029815793037542
 30
0.0
 11
0.1308894082599453
 21
14.9994203378264
 31
0.0
210
0.0
220
0.0
230
1.0
 40
0.9848077687116999
 41
3.14159256481835
 42
4.261410529395041
  0
ELLIPSE
  5
A4E0
330
1F
100
AcDbEntity
  8
AM_0
100
AcDbEllipse
 10
-41.68127441406027
 20
0.000000119209389
 30
0.0
 11
1.403044890459995
 21
13.5982359936035
 31
0.0
210
0.0
220
0.0
230
1.0
 40
0.1553367540827
 41
3.157634532282792
 42
3.193695622103669
  0
ELLIPSE
  5
A4E1
330
1F
100
AcDbEntity
  8
AM_0
100
AcDbEllipse
 10
-58.16491699219025
 20
-0.0001524686813497
 30
0.0
 11
-77.26864966544001
 21
3.246156905315348
 31
0.0
210
0.0
220
0.0
230
0.9999999999999998
 40
0.170919969931
 41
1.811826332007094
 42
1.828402016589931
  0
ELLIPSE
  5
A4E2
330
1F
100
AcDbEntity
  8
AM_0
100
AcDbEllipse
 10
-33.98126220703026
 20
0.0000001192094032
 30
0.0
 11
-1.403045969310054
 21
13.59826656187949
 31
0.0
210
0.0
220
0.0
230
1.0
 40
0.1553386396873
 41
6.231229495131645
 42
6.267157362049873
  0
ELLIPSE
  5
A4E3
330
1F
100
AcDbEntity
  8
AM_0
100
AcDbEllipse
 10
-37.61233520508027
 20
0.0000001192094032
 30
0.0
 11
1.403046401549973
 21
13.5982665172825
 31
0.0
210
0.0
220
0.0
230
1.0
 40
0.1553364073129
 41
2.57923978855344
 42
3.141157318109243
  0
ELLIPSE
  5
A4E4
330
1F
100
AcDbEntity
  8
AM_0
100
AcDbEllipse
 10
-41.68127441406027
 20
0.000000119209389
 30
0.0
 11
1.403046401549973
 21
13.5982665172825
 31
0.0
210
0.0
220
0.0
230
1.0
 40
0.1553364073129
 41
2.55487416705181
 42
3.157635693398159
  0
ELLIPSE
  5
A4E5
330
1F
100
AcDbEntity
  8
AM_0
100
AcDbEllipse
 10
-58.16510009766026
 20
0.0000001192093606
 30
0.0
 11
-77.26907576104004
 21
3.246193261046348
 31
0.0
210
0.0
220
0.0
230
1.0
 40
0.1709210110424
 41
1.775877902318252
 42
1.811827743968241
  0
ELLIPSE
  5
A4E6
330
1F
100
AcDbEntity
  8
AM_0
100
AcDbEllipse
 10
-50.46511840820025
 20
0.0000001192093748
 30
0.0
 11
77.26905953052001
 21
3.246216070923753
 31
0.0
210
0.0
220
0.0
230
1.0
 40
0.1709210570968
 41
1.329783047681809
 42
1.365715217635188
  0
ELLIPSE
  5
A4E7
330
1F
100
AcDbEntity
  8
AM_0
100
AcDbEllipse
 10
-26.18087768555027
 20
0.0048218965531106
 30
0.0
 11
0.5821079580099724
 21
13.5890804679958
 31
0.0
210
0.0
220
0.0
230
1.0
 40
0.6998441550356001
 41
0.0935880243918778
 42
0.0994724091275325
  0
ELLIPSE
  5
A4E8
330
1F
100
AcDbEntity
  8
AM_0
100
AcDbEllipse
 10
-27.00842285156026
 20
-0.0000303983687928
 30
0.0
 11
0.3062751200499478
 21
13.59991475966769
 31
0.0
210
0.0
220
0.0
230
1.0
 40
0.1762804995177
 41
6.184998827511566
 42
6.217694663917704
  0
ELLIPSE
  5
A4E9
330
1F
100
AcDbEntity
  8
AM_0
100
AcDbEllipse
 10
-9.390899658200268
 20
0.0001831054688353
 30
0.0
 11
77.14780823836996
 21
0.0540161091982524
 31
0.0
210
0.0
220
0.0
230
1.0
 40
0.1762811117968
 41
1.793751011000598
 42
1.808622699867088
  0
ELLIPSE
  5
A4EA
330
1F
100
AcDbEntity
  8
AM_0
100
AcDbEllipse
 10
-27.15823364258027
 20
0.0000001192094174
 30
0.0
 11
77.26904426098997
 21
3.246216006138052
 31
0.0
210
0.0
220
0.0
230
1.0
 40
0.1709210908199
 41
1.569080161749704
 42
1.687363017049282
  0
ELLIPSE
  5
A4EB
330
1F
100
AcDbEntity
  8
AM_0
100
AcDbEllipse
 10
-36.16058349609026
 20
0.0000001192094032
 30
0.0
 11
-1.403045969310054
 21
13.59826656187949
 31
0.0
210
0.0
220
0.0
230
1.0
 40
0.1553364073128999
 41
5.799502197769778
 42
5.90971004661374
  0
ELLIPSE
  5
A4EC
330
1F
100
AcDbEntity
  8
AM_0
100
AcDbEllipse
 10
-35.57546997070026
 20
0.0000001192094032
 30
0.0
 11
-0.7310330771700514
 21
13.59997561245749
 31
0.0
210
0.0
220
0.0
230
1.0
 40
0.0313198120851
 41
0.4675799482717292
 42
0.5381796462806232
  0
ELLIPSE
  5
A4ED
330
1F
100
AcDbEntity
  8
AM_0
100
AcDbEllipse
 10
-5.40902709961027
 20
0.0000001192094601
 30
0.0
 11
77.26905953052001
 21
3.246216070923753
 31
0.0
210
0.0
220
0.0
230
1.0
 40
0.1709210447655
 41
1.976640491652389
 42
2.059855750399096
  0
ELLIPSE
  5
A4EE
330
1F
100
AcDbEntity
  8
AM_0
100
AcDbEllipse
 10
-35.31103515625027
 20
0.0000001192094032
 30
0.0
 11
-9.43682822125001
 21
13.59964015611248
 31
0.0
210
0.0
220
0.0
230
0.9999999999999998
 40
0.010578154849
 41
4.772476532457606
 42
5.546815344830045
  0
ELLIPSE
  5
A4EF
330
1F
100
AcDbEntity
  8
AM_0
100
AcDbEllipse
 10
-80.43618774414026
 20
-0.0000303983688923
 30
0.0
 11
227.78769075208
 21
13.19839505366315
 31
0.0
210
0.0
220
0.0
230
1.0
 40
0.0143946753389
 41
4.921583956558309
 42
4.945446409129711
  0
ELLIPSE
  5
A4F0
330
1F
100
AcDbEntity
  8
AM_0
100
AcDbEllipse
 10
-26.75637817383027
 20
0.0000001192094174
 30
0.0
 11
-1.403045969310054
 21
13.59826656187949
 31
0.0
210
0.0
220
0.0
230
1.0
 40
0.1553364073128999
 41
4.921581176725958
 42
4.984511585261008
  0
ELLIPSE
  5
A4F1
330
1F
100
AcDbEntity
  8
AM_0
100
AcDbEllipse
 10
-12.90667724609027
 20
0.0000001192094459
 30
0.0
 11
0.1224973824899693
 21
13.59997514308149
 31
0.0
210
0.0
220
0.0
230
1.0
 40
0.1763201181164
 41
2.216456782523873
 42
2.4670450061591
  0
ELLIPSE
  5
A4F2
330
1F
100
AcDbEntity
  8
AM_0
100
AcDbEllipse
 10
-17.98397827148026
 20
0.0000001192094317
 30
0.0
 11
0.1224827912999744
 21
13.59997527449849
 31
0.0
210
0.0
220
0.0
230
0.9999999999999998
 40
0.1763212400427
 41
2.212384547600646
 42
2.574497686499928
  0
ELLIPSE
  5
A4F3
330
1F
100
AcDbEntity
  8
AM_0
100
AcDbEllipse
 10
-60.81427001953025
 20
0.0000000000000426
 30
0.0
 11
77.13247378043002
 21
0.0216064436026523
 31
0.0
210
0.0
220
0.0
230
1.0
 40
0.1763197177462
 41
5.279502222808784
 42
5.35641606851242
  0
ELLIPSE
  5
A4F4
330
1F
100
AcDbEntity
  8
AM_0
100
AcDbEllipse
 10
-20.21337890625027
 20
0.0000000000001279
 30
0.0
 11
77.13247378043002
 21
0.0216064436026523
 31
0.0
210
0.0
220
0.0
230
1.0
 40
0.1763197177462
 41
4.710801012593995
 42
4.786479753880416
  0
ELLIPSE
  5
A4F5
330
1F
100
AcDbEntity
  8
AM_0
100
AcDbEllipse
 10
-15.60531616211029
 20
14.40344250202194
 30
0.0
 11
8.810134589250001
 21
12.38955656136901
 31
0.0
210
0.0
220
0.0
230
0.9999999999999998
 40
0.9571813112018999
 41
2.928055379273264
 42
2.936080804029618
  0
ELLIPSE
  5
A4F6
330
1F
100
AcDbEntity
  8
AM_0
100
AcDbEllipse
 10
-125.0616760253902
 20
16.78329479694271
 30
0.0
 11
-127.16955938488
 21
4.810148541879748
 31
0.0
210
0.0
220
0.0
230
0.9999999999999998
 40
0.116725517569
 41
2.473625857857293
 42
2.479606496072796
  0
ELLIPSE
  5
A4F7
330
1F
100
AcDbEntity
  8
AM_0
100
AcDbEllipse
 10
-28.05551147461027
 20
4.99407970905311
 30
0.0
 11
-0.0060576689400053
 21
1.5392761243435
 31
0.0
210
0.0
220
0.0
230
1.0
 40
0.9597038029244
 41
4.480752093666304
 42
4.809415264408979
  0
ELLIPSE
  5
A502
330
1F
100
AcDbEntity
  8
AM_0
100
AcDbEllipse
 10
-14.31716918945029
 20
14.42504894733394
 30
0.0
 11
0.3272100198199433
 21
14.996429741532
 31
0.0
210
0.0
220
0.0
230
1.0
 40
0.8111590583267
 41
1.652572205856618
 42
1.798995444727955
  0
ELLIPSE
  5
A503
330
1F
100
AcDbEntity
  8
AM_0
100
AcDbEllipse
 10
-25.8197021484403
 20
13.51577770709991
 30
0.0
 11
0.0174560550099712
 21
0.7998047139629988
 31
0.0
210
0.0
220
0.0
230
1.0
 40
0.8111644940145998
 41
0.6105303899215136
 42
1.653237839214655
  0
ELLIPSE
  5
A504
330
1F
100
AcDbEntity
  8
AM_0
100
AcDbEllipse
 10
-26.1669006347703
 20
13.52334606647491
 30
0.0
 11
0.0174407921500104
 21
0.7998046892229987
 31
0.0
210
0.0
220
0.0
230
0.9999999999999998
 40
0.8111839302453997
 41
0.4248355618643898
 42
0.5236000822607325
  0
ELLIPSE
  5
A505
330
1F
100
AcDbEntity
  8
AM_0
100
AcDbEllipse
 10
-26.2363586425803
 20
13.5248719453809
 30
0.0
 11
0.6260681144399873
 21
0.5993347304510012
 31
0.0
210
0.0
220
0.0
230
1.0
 40
0.8390944489833998
 41
0.6989727491567179
 42
1.12210308537494
  0
ELLIPSE
  5
A506
330
1F
100
AcDbEntity
  8
AM_0
100
AcDbEllipse
 10
-35.56271362305027
 20
11.6275941133499
 30
0.0
 11
-0.1860656978699937
 21
0.7904662992159994
 31
0.0
210
0.0
220
0.0
230
1.0
 40
0.9748236804743999
 41
0.147877699341171
 42
0.8666320454425262
  0
ELLIPSE
  5
A507
330
1F
100
AcDbEntity
  8
AM_0
100
AcDbEllipse
 10
-35.52651977539027
 20
11.70065319538089
 30
0.0
 11
-0.8033905135400233
 21
0.0828857757579977
 31
0.0
210
0.0
220
0.0
230
1.0
 40
0.9196397101149999
 41
4.933306989659179
 42
5.233709429105734
  0
ELLIPSE
  5
A508
330
1F
100
AcDbEntity
  8
AM_0
100
AcDbEllipse
 10
-31.68231201172027
 20
8.204956173896903
 30
0.0
 11
2.657409635860003
 21
1.406524661567004
 31
0.0
210
0.0
220
0.0
230
1.0
 40
0.9114123064111
 41
1.15108870418347
 42
1.675983875344278
  0
ELLIPSE
  5
A509
330
1F
100
AcDbEntity
  8
AM_0
100
AcDbEllipse
 10
-31.68231201172027
 20
8.204956173896903
 30
0.0
 11
1.788696340209975
 21
2.431793206986004
 31
0.0
210
0.0
220
0.0
230
0.9999999999999998
 40
0.9193046428618
 41
1.783021513913391
 42
2.308172270809302
  0
ELLIPSE
  5
A50A
330
1F
100
AcDbEntity
  8
AM_0
100
AcDbEllipse
 10
-31.68231201172027
 20
8.204956173896903
 30
0.0
 11
2.657409635860003
 21
1.406524661567004
 31
0.0
210
0.0
220
0.0
230
1.0
 40
0.9114123064111
 41
0.625856182808191
 42
1.15108870418347
  0
ELLIPSE
  5
A50B
330
1F
100
AcDbEntity
  8
AM_0
100
AcDbEllipse
 10
-31.68231201172027
 20
8.204956173896903
 30
0.0
 11
1.788696340209975
 21
2.431793206986004
 31
0.0
210
0.0
220
0.0
230
0.9999999999999998
 40
0.9193046428618
 41
2.308172270809302
 42
2.8331512618117
  0
ELLIPSE
  5
A50C
330
1F
100
AcDbEntity
  8
AM_0
100
AcDbEllipse
 10
-29.40896606445027
 20
12.31643688678691
 30
0.0
 11
0.7437133765300233
 21
0.6158752691980011
 31
0.0
210
0.0
220
0.0
230
1.0
 40
0.6433748131518998
 41
0.6044622060637427
 42
0.7649769473760363
  0
ELLIPSE
  5
A50D
330
1F
100
AcDbEntity
  8
AM_0
100
AcDbEllipse
 10
-31.68231201172027
 20
8.204956173896903
 30
0.0
 11
3.04556272469
 21
0.0610961886919064
 31
0.0
210
0.0
220
0.0
230
1.0
 40
0.9556200693987999
 41
0.039333730941145
 42
0.5645574398690253
  0
ELLIPSE
  5
A50E
330
1F
100
AcDbEntity
  8
AM_0
100
AcDbEllipse
 10
-31.68231201172027
 20
8.204956173896903
 30
0.0
 11
3.04556272469
 21
0.0610961886919064
 31
0.0
210
0.0
220
0.0
230
1.0
 40
0.9556200693987999
 41
5.797706316139292
 42
6.322520082723956
  0
ELLIPSE
  5
A50F
330
1F
100
AcDbEntity
  8
AM_0
100
AcDbEllipse
 10
-31.68231201172027
 20
8.204956173896903
 30
0.0
 11
0.3558349848799989
 21
3.021179305259
 31
0.0
210
0.0
220
0.0
230
1.0
 40
0.9731609815998
 41
3.35325825964673
 42
3.878516995781341
  0
ELLIPSE
  5
A510
330
1F
100
AcDbEntity
  8
AM_0
100
AcDbEllipse
 10
-31.68231201172027
 20
8.204956173896903
 30
0.0
 11
0.3558349848799989
 21
3.021179305259
 31
0.0
210
0.0
220
0.0
230
1.0
 40
0.9731609815998
 41
2.828350097206114
 42
3.353258438894389
  0
ELLIPSE
  5
A511
330
1F
100
AcDbEntity
  8
AM_0
100
AcDbEllipse
 10
-1.834381103520243
 20
-3.235595703124829
 30
0.0
 11
-0.4633636337200073
 21
0.004058785917499
 31
0.0
210
0.0
220
0.0
230
1.0
 40
0.8632392835322001
 41
3.864510882325188
 42
4.106293715314722
  0
ELLIPSE
  5
A512
330
1F
100
AcDbEntity
  8
AM_0
100
AcDbEllipse
 10
-6.010284423830242
 20
-3.843749880790539
 30
0.0
 11
-4.633651736340026
 21
0.0404355270928908
 31
0.0
210
0.0
220
0.0
230
1.0
 40
0.8632170599193001
 41
2.869707411937397
 42
2.917529433874026
  0
ELLIPSE
  5
A513
330
1F
100
AcDbEntity
  8
AM_0
100
AcDbEllipse
 10
-21.72634887695015
 20
-46.12154185771908
 30
0.0
 11
2.982438638899346
 21
341.3748505535909
 31
0.0
210
0.0
220
0.0
230
0.9999999999999998
 40
0.0603746778064
 41
4.836842089016077
 42
4.83963412695218
  0
ELLIPSE
  5
A514
330
1F
100
AcDbEntity
  8
AM_0
100
AcDbEllipse
 10
-28.92562866211024
 20
-13.44955432414909
 30
0.0
 11
-0.3037414659399936
 21
0.3090820093449989
 31
0.0
210
0.0
220
0.0
230
1.0
 40
0.839051894782
 41
1.837129486444028
 42
2.44371122253428
  0
ELLIPSE
  5
A515
330
1F
100
AcDbEntity
  8
AM_0
100
AcDbEllipse
 10
-28.90823364258024
 20
-13.44970691204008
 30
0.0
 11
0.0034942807499753
 21
0.3999938928340007
 31
0.0
210
0.0
220
0.0
230
1.0
 40
0.8112078008773998
 41
2.294467845726062
 42
2.536628780176298
  0
ELLIPSE
  5
A520
330
1F
100
AcDbEntity
  8
AM_0
100
AcDbEllipse
 10
-40.66781616211024
 20
-9.577697634696917
 30
0.0
 11
-1.194488452580005
 21
0.9073181936956975
 31
0.0
210
0.0
220
0.0
230
1.0
 40
0.9580521104955
 41
0.7597095132450211
 42
2.615677940634551
  0
ELLIPSE
  5
A521
330
1F
100
AcDbEntity
  8
AM_0
100
AcDbEllipse
 10
-40.58114624023024
 20
-9.463592410087514
 30
0.0
 11
-1.592651237070017
 21
1.209747386855398
 31
0.0
210
0.0
220
0.0
230
0.9999999999999998
 40
0.9580529540202
 41
0.8031332827279838
 42
2.5338561999891
  0
ELLIPSE
  5
A522
330
1F
100
AcDbEntity
  8
AM_0
100
AcDbEllipse
 10
-16.75595092773024
 20
-8.130554080009375
 30
0.0
 11
0.0218048126399659
 21
2.499908484635298
 31
0.0
210
0.0
220
0.0
230
1.0
 40
0.9848077991373999
 41
0.2096412061335476
 42
3.141592742361233
  0
ELLIPSE
  5
A523
330
1F
100
AcDbEntity
  8
AM_0
100
AcDbEllipse
 10
-16.75595092773024
 20
-8.130554080009375
 30
0.0
 11
0.0218048126399659
 21
2.499908484635298
 31
0.0
210
0.0
220
0.0
230
1.0
 40
0.9848077991373999
 41
3.141592564818352
 42
3.240222275918007
  0
ELLIPSE
  5
A524
330
1F
100
AcDbEntity
  8
AM_0
100
AcDbEllipse
 10
-31.75442504883027
 20
7.980255246162499
 30
0.0
 11
1.871353075489988
 21
1.421447743234402
 31
0.0
210
0.0
220
0.0
230
1.0
 40
0.9580627910679
 41
0.0
 42
6.283185307179586
  0
ELLIPSE
  5
A525
330
1F
100
AcDbEntity
  8
AM_0
100
AcDbEllipse
 10
-32.98678588867026
 20
7.125274777412499
 30
0.0
 11
0.3981628414799724
 21
0.3024292165863
 31
0.0
210
0.0
220
0.0
230
0.9999999999999998
 40
0.9580554300208
 41
1.724627125775735
 42
3.141592744840052
  0
ELLIPSE
  5
A526
330
1F
100
AcDbEntity
  8
AM_0
100
AcDbEllipse
 10
-32.61688232422027
 20
6.238800168037499
 30
0.0
 11
0.3981628414799724
 21
0.3024292165863
 31
0.0
210
0.0
220
0.0
230
0.9999999999999998
 40
0.9580923851164
 41
5.912906248532386
 42
6.283185307179586
  0
ELLIPSE
  5
A527
330
1F
100
AcDbEntity
  8
AM_0
100
AcDbEllipse
 10
-31.66503906250027
 20
6.527404904365596
 30
0.0
 11
0.3981628414799724
 21
0.3024292165863
 31
0.0
210
0.0
220
0.0
230
0.9999999999999998
 40
0.9580923851164
 41
2.771311131163305
 42
3.141592744836533
  0
ELLIPSE
  5
A528
330
1F
100
AcDbEntity
  8
AM_0
100
AcDbEllipse
 10
-30.68963623047027
 20
6.43280041217811
 30
0.0
 11
0.3981628414799724
 21
0.3024292165863
 31
0.0
210
0.0
220
0.0
230
0.9999999999999998
 40
0.9580554300208
 41
0.6772542272767513
 42
2.373729911098059
  0
ELLIPSE
  5
A529
330
1F
100
AcDbEntity
  8
AM_0
100
AcDbEllipse
 10
-30.43270874023026
 20
7.38238537311561
 30
0.0
 11
0.3981628414799724
 21
0.3024292165863
 31
0.0
210
0.0
220
0.0
230
0.9999999999999998
 40
0.9580923851164
 41
3.818827413984566
 42
6.283185307179586
  0
ELLIPSE
  5
A52A
330
1F
100
AcDbEntity
  8
AM_0
100
AcDbEllipse
 10
-29.82717895508027
 20
8.17425549030311
 30
0.0
 11
0.3981628414799723
 21
0.3024292165858008
 31
0.0
210
0.0
220
0.0
230
1.0
 40
0.9580923851164
 41
1.724673940604584
 42
3.141592744836533
  0
ELLIPSE
  5
A52B
330
1F
100
AcDbEntity
  8
AM_0
100
AcDbEllipse
 10
-30.52209472656027
 20
8.835235714911917
 30
0.0
 11
0.3981628414799723
 21
0.3024292165860015
 31
0.0
210
0.0
220
0.0
230
1.0
 40
0.9580923851164
 41
4.866225192616761
 42
6.283185307179586
  0
ELLIPSE
  5
A52C
330
1F
100
AcDbEntity
  8
AM_0
100
AcDbEllipse
 10
-30.89199829102027
 20
9.721710324286902
 30
0.0
 11
0.3981628414899768
 21
0.3024292165860015
 31
0.0
210
0.0
220
0.0
230
1.0
 40
0.9580554300208
 41
2.77130058035051
 42
3.141592744840052
  0
ELLIPSE
  5
A52D
330
1F
100
AcDbEntity
  8
AM_0
100
AcDbEllipse
 10
-31.84384155273026
 20
9.433105587958905
 30
0.0
 11
0.3981628414799723
 21
0.3024292165859998
 31
0.0
210
0.0
220
0.0
230
1.0
 40
0.9580554300208
 41
5.912890681870894
 42
6.283185307179586
  0
ELLIPSE
  5
A52E
330
1F
100
AcDbEntity
  8
AM_0
100
AcDbEllipse
 10
-32.81924438477027
 20
9.527710080146903
 30
0.0
 11
0.3981628414899768
 21
0.3024292165860015
 31
0.0
210
0.0
220
0.0
230
1.0
 40
0.9580923851164
 41
3.818827413984566
 42
5.515341751321355
  0
ELLIPSE
  5
A52F
330
1F
100
AcDbEntity
  8
AM_0
100
AcDbEllipse
 10
-33.07617187500027
 20
8.578125119208905
 30
0.0
 11
0.3981628414799723
 21
0.3024292165859998
 31
0.0
210
0.0
220
0.0
230
1.0
 40
0.9580554300208
 41
0.6772542272767513
 42
3.141592744840052
  0
ELLIPSE
  5
A530
330
1F
100
AcDbEntity
  8
AM_0
100
AcDbEllipse
 10
-33.68170166016027
 20
7.786255002021903
 30
0.0
 11
0.3981628414799724
 21
0.3024292165863
 31
0.0
210
0.0
220
0.0
230
0.9999999999999998
 40
0.9580554300208
 41
0.0
 42
0.281061134354201
  0
ELLIPSE
  5
A531
330
1F
100
AcDbEntity
  8
AM_0
100
AcDbEllipse
 10
-31.79946899414026
 20
8.039550900459403
 30
0.0
 11
2.229705762109969
 21
1.693633940866503
 31
0.0
210
0.0
220
0.0
230
1.0
 40
0.9580658749515
 41
0.0
 42
2.328977708130971
  0
ELLIPSE
  5
A532
330
1F
100
AcDbEntity
  8
AM_0
100
AcDbEllipse
 10
-31.79946899414026
 20
8.039550900459403
 30
0.0
 11
2.229705762109969
 21
1.693633940866503
 31
0.0
210
0.0
220
0.0
230
1.0
 40
0.9580658749515
 41
3.055104282632541
 42
3.141592744839057
  0
ELLIPSE
  5
A533
330
1F
100
AcDbEntity
  8
AM_0
100
AcDbEllipse
 10
-31.79946899414026
 20
8.039550900459403
 30
0.0
 11
2.229705762109969
 21
1.693633940866503
 31
0.0
210
0.0
220
0.0
230
1.0
 40
0.9580658749515
 41
3.141592562340528
 42
6.283185307179586
  0
ELLIPSE
  5
A534
330
1F
100
AcDbEntity
  8
AM_0
100
AcDbEllipse
 10
-31.96246337891027
 20
8.254089474678096
 30
0.0
 11
2.229705762119973
 21
1.693633940866804
 31
0.0
210
0.0
220
0.0
230
1.0
 40
0.9580593184337999
 41
0.0
 42
0.9023068842636869
  0
ELLIPSE
  5
A535
330
1F
100
AcDbEntity
  8
AM_0
100
AcDbEllipse
 10
-33.07617187500027
 20
8.578125119208905
 30
0.0
 11
0.3981628414799723
 21
0.3024292165859998
 31
0.0
210
0.0
220
0.0
230
1.0
 40
0.9580554300208
 41
3.141592562339533
 42
3.422657499265985
  0
ELLIPSE
  5
A536
330
1F
100
AcDbEntity
  8
AM_0
100
AcDbEllipse
 10
-31.84384155273026
 20
9.433105587958905
 30
0.0
 11
0.3981628414799723
 21
0.3024292165859998
 31
0.0
210
0.0
220
0.0
230
1.0
 40
0.9580554300208
 41
0.0
 42
2.373729911098059
  0
ELLIPSE
  5
A537
330
1F
100
AcDbEntity
  8
AM_0
100
AcDbEllipse
 10
-33.68170166016027
 20
7.786255002021903
 30
0.0
 11
0.3981628414799724
 21
0.3024292165863
 31
0.0
210
0.0
220
0.0
230
0.9999999999999998
 40
0.9580554300208
 41
4.8662603248629
 42
6.283185307179586
  0
ELLIPSE
  5
A538
330
1F
100
AcDbEntity
  8
AM_0
100
AcDbEllipse
 10
-33.94174194336027
 20
8.128540158271903
 30
0.0
 11
0.3981780870599885
 21
0.3024596969962006
 31
0.0
210
0.0
220
0.0
230
1.0
 40
0.9580153204072999
 41
0.0
 42
0.0299479356875603
  0
ELLIPSE
  5
A539
330
1F
100
AcDbEntity
  8
AM_0
100
AcDbEllipse
 10
-30.89199829102027
 20
9.721710324286902
 30
0.0
 11
0.3981628414899768
 21
0.3024292165860015
 31
0.0
210
0.0
220
0.0
230
1.0
 40
0.9580554300208
 41
3.141592562339533
 42
4.469910178656089
  0
ELLIPSE
  5
A53A
330
1F
100
AcDbEntity
  8
AM_0
100
AcDbEllipse
 10
-31.15200805664027
 20
10.0640259981149
 30
0.0
 11
0.3981628414799723
 21
0.3024292165869997
 31
0.0
210
0.0
220
0.0
230
0.9999999999999998
 40
0.9580554300208
 41
2.881329523547296
 42
3.141592744840052
  0
ELLIPSE
  5
A53B
330
1F
100
AcDbEntity
  8
AM_0
100
AcDbEllipse
 10
-32.98678588867026
 20
7.125274777412499
 30
0.0
 11
0.3981628414799724
 21
0.3024292165863
 31
0.0
210
0.0
220
0.0
230
0.9999999999999998
 40
0.9580554300208
 41
3.141592562339533
 42
4.469910178656089
  0
ELLIPSE
  5
A53C
330
1F
100
AcDbEntity
  8
AM_0
100
AcDbEllipse
 10
-33.24679565430027
 20
7.467590451240596
 30
0.0
 11
0.3981628414799724
 21
0.3024292165863
 31
0.0
210
0.0
220
0.0
230
0.9999999999999998
 40
0.9580554300208
 41
3.608588936463334
 42
4.469910178656089
  0
ELLIPSE
  5
A53D
330
1F
100
AcDbEntity
  8
AM_0
100
AcDbEllipse
 10
-30.52209472656027
 20
8.835235714911917
 30
0.0
 11
0.3981628414799723
 21
0.3024292165860015
 31
0.0
210
0.0
220
0.0
230
1.0
 40
0.9580923851164
 41
0.0
 42
1.328308618467276
  0
ELLIPSE
  5
A53E
330
1F
100
AcDbEntity
  8
AM_0
100
AcDbEllipse
 10
-30.78210449219027
 20
9.1775513887399
 30
0.0
 11
0.3981628414799723
 21
0.3024292165869997
 31
0.0
210
0.0
220
0.0
230
0.9999999999999998
 40
0.9580923851164
 41
4.866225192616761
 42
5.819269913329259
  0
ELLIPSE
  5
A53F
330
1F
100
AcDbEntity
  8
AM_0
100
AcDbEllipse
 10
-32.61688232422027
 20
6.238800168037499
 30
0.0
 11
0.3981628414799724
 21
0.3024292165863
 31
0.0
210
0.0
220
0.0
230
0.9999999999999998
 40
0.9580923851164
 41
0.0
 42
1.328308618467276
  0
ELLIPSE
  5
A540
330
1F
100
AcDbEntity
  8
AM_0
100
AcDbEllipse
 10
-32.87689208984026
 20
6.581115841865596
 30
0.0
 11
0.3981628414799724
 21
0.3024292165863
 31
0.0
210
0.0
220
0.0
230
0.9999999999999998
 40
0.9580923851164
 41
0.0
 42
1.328308618467276
  0
ELLIPSE
  5
A541
330
1F
100
AcDbEntity
  8
AM_0
100
AcDbEllipse
 10
-29.82717895508027
 20
8.17425549030311
 30
0.0
 11
0.3981628414799723
 21
0.3024292165858008
 31
0.0
210
0.0
220
0.0
230
1.0
 40
0.9580923851164
 41
3.141592562343053
 42
3.422643016430251
  0
ELLIPSE
  5
A542
330
1F
100
AcDbEntity
  8
AM_0
100
AcDbEllipse
 10
-30.08718872070026
 20
8.516571164130908
 30
0.0
 11
0.3981628414799723
 21
0.3024292165859998
 31
0.0
210
0.0
220
0.0
230
1.0
 40
0.9580923851164
 41
1.724673940604584
 42
3.141592744836533
  0
ELLIPSE
  5
A543
330
1F
100
AcDbEntity
  8
AM_0
100
AcDbEllipse
 10
-31.66503906250027
 20
6.527404904365596
 30
0.0
 11
0.3981628414799724
 21
0.3024292165863
 31
0.0
210
0.0
220
0.0
230
0.9999999999999998
 40
0.9580923851164
 41
3.141592562343053
 42
5.515341751321355
  0
ELLIPSE
  5
A544
330
1F
100
AcDbEntity
  8
AM_0
100
AcDbEllipse
 10
-31.92504882812027
 20
6.869720578193707
 30
0.0
 11
0.3981628414799723
 21
0.3024292165864012
 31
0.0
210
0.0
220
0.0
230
1.0
 40
0.9580923851164
 41
3.589818054426952
 42
5.515341751321355
  0
ELLIPSE
  5
A545
330
1F
100
AcDbEntity
  8
AM_0
100
AcDbEllipse
 10
-30.43270874023026
 20
7.38238537311561
 30
0.0
 11
0.3981628414799724
 21
0.3024292165863
 31
0.0
210
0.0
220
0.0
230
0.9999999999999998
 40
0.9580923851164
 41
0.0
 42
0.2810551208493746
  0
ELLIPSE
  5
A546
330
1F
100
AcDbEntity
  8
AM_0
100
AcDbEllipse
 10
-30.69271850586027
 20
7.724701046943721
 30
0.0
 11
0.3981628414799723
 21
0.3024292165864012
 31
0.0
210
0.0
220
0.0
230
1.0
 40
0.9580923851164
 41
3.818827413984566
 42
5.897610722739703
  0
ELLIPSE
  5
A547
330
1F
100
AcDbEntity
  8
AM_0
100
AcDbEllipse
 10
-30.94964599609026
 20
6.775116086006207
 30
0.0
 11
0.3981628414799723
 21
0.3024292165864012
 31
0.0
210
0.0
220
0.0
230
1.0
 40
0.9580554300208
 41
0.6772542272767513
 42
2.373729911098059
  0
ELLIPSE
  5
A569
330
1F
100
AcDbEntity
  8
AM_0
100
AcDbEllipse
 10
-34.57540893555027
 20
4.345581173896903
 30
0.0
 11
2.388977161660018
 21
1.814605699085604
 31
0.0
210
0.0
220
0.0
230
0.9999999999999998
 40
0.9580598805554998
 41
3.347487738038687
 42
4.143846264559712
  0
ELLIPSE
  5
A56A
330
1F
100
AcDbEntity
  8
AM_0
100
AcDbEllipse
 10
-29.43356323242026
 20
4.863159298896917
 30
0.0
 11
2.38896185459998
 21
1.814605748737104
 31
0.0
210
0.0
220
0.0
230
1.0
 40
0.9580668631507998
 41
4.143845066931158
 42
5.31146820408626
  0
ELLIPSE
  5
A56B
330
1F
100
AcDbEntity
  8
AM_0
100
AcDbEllipse
 10
-14.33078002930027
 20
-1.027587831020255
 30
0.0
 11
13.34265105656998
 21
2.197143641367826
 31
0.0
210
0.0
220
0.0
230
1.0
 40
0.6963649231391997
 41
5.826144331897792
 42
5.858134604061291
  0
ELLIPSE
  5
A56C
330
1F
100
AcDbEntity
  8
AM_0
100
AcDbEllipse
 10
-14.67227172852027
 20
0.0014954805375424
 30
0.0
 11
0.1183619260499727
 21
13.5632633888924
 31
0.0
210
0.0
220
0.0
230
0.9999999999999998
 40
0.9848067034465
 41
3.163322588775784
 42
4.486025591266586
  0
ELLIPSE
  5
A56D
330
1F
100
AcDbEntity
  8
AM_0
100
AcDbEllipse
 10
-15.89382934570027
 20
-0.0078123807905541
 30
0.0
 11
0.1925807776699809
 21
10.94576997931849
 31
0.0
210
0.0
220
0.0
230
1.0
 40
0.9856763265329
 41
3.288965499819187
 42
3.293945376774981
  0
ELLIPSE
  5
A56E
330
1F
100
AcDbEntity
  8
AM_0
100
AcDbEllipse
 10
-12.95483398437026
 20
-0.013488650321861
 30
0.0
 11
0.117888699919975
 21
13.5086666313518
 31
0.0
210
0.0
220
0.0
230
1.0
 40
0.173648836535
 41
2.474077822180454
 42
2.503763870011538
  0
ELLIPSE
  5
A56F
330
1F
100
AcDbEntity
  8
AM_0
100
AcDbEllipse
 10
-6.57196044922027
 20
4.223419308662556
 30
0.0
 11
-3.57519506631003
 21
6.711212354584393
 31
0.0
210
0.0
220
0.0
230
1.0
 40
0.6044171049268
 41
2.436689263515402
 42
3.586292872037295
  0
ELLIPSE
  5
A570
330
1F
100
AcDbEntity
  8
AM_0
100
AcDbEllipse
 10
-16.88449096680024
 20
-8.148742556571875
 30
0.0
 11
0.0218200112799942
 21
2.499908352022999
 31
0.0
210
0.0
220
0.0
230
1.0
 40
0.9848016956305
 41
3.141592564817802
 42
4.216941283338913
  0
ELLIPSE
  5
A571
330
1F
100
AcDbEntity
  8
AM_0
100
AcDbEllipse
 10
-16.88449096680024
 20
-8.148742556571875
 30
0.0
 11
0.0218200112799942
 21
2.499908352022999
 31
0.0
210
0.0
220
0.0
230
1.0
 40
0.9848016956305
 41
1.570797896009632
 42
3.141592742361783
  0
ELLIPSE
  5
A572
330
1F
100
AcDbEntity
  8
AM_0
100
AcDbEllipse
 10
-6.57196044922027
 20
4.223419308662556
 30
0.0
 11
-3.57519506631003
 21
6.711212354584393
 31
0.0
210
0.0
220
0.0
230
1.0
 40
0.6044171049268
 41
2.196826822627522
 42
2.436689263515402
  0
ELLIPSE
  5
A573
330
1F
100
AcDbEntity
  8
AM_0
100
AcDbEllipse
 10
-40.75448608398024
 20
-9.691802859306307
 30
0.0
 11
-1.592651237070017
 21
1.209747386855396
 31
0.0
210
0.0
220
0.0
230
1.0
 40
0.9580529540201998
 41
0.7016391658280402
 42
2.642019204391418
  0
ELLIPSE
  5
A574
330
1F
100
AcDbEntity
  8
AM_0
100
AcDbEllipse
 10
-34.75698852539027
 20
4.168945431709403
 30
0.0
 11
1.194488535499997
 21
0.9073180845299019
 31
0.0
210
0.0
220
0.0
230
1.0
 40
0.9580521104955
 41
2.009663310843992
 42
3.141592744840368
  0
ELLIPSE
  5
A575
330
1F
100
AcDbEntity
  8
AM_0
100
AcDbEllipse
 10
-27.94931030273026
 20
4.854217648506221
 30
0.0
 11
1.194488535489993
 21
0.9073180845300022
 31
0.0
210
0.0
220
0.0
230
1.0
 40
0.9580521104955
 41
3.447280724988432
 42
5.056016440316849
  0
ELLIPSE
  5
A576
330
1F
100
AcDbEntity
  8
AM_0
100
AcDbEllipse
 10
-34.75698852539027
 20
4.168945431709403
 30
0.0
 11
1.194488535499997
 21
0.9073180845299019
 31
0.0
210
0.0
220
0.0
230
1.0
 40
0.9580521104955
 41
3.141592562339217
 42
4.839808410396029
  0
ELLIPSE
  5
A577
330
1F
100
AcDbEntity
  8
AM_0
100
AcDbEllipse
 10
-35.41046142578027
 20
5.029266476631207
 30
0.0
 11
1.194488535499997
 21
0.9073180845300022
 31
0.0
210
0.0
220
0.0
230
1.0
 40
0.9580521104954998
 41
3.527567037516521
 42
3.689321353369103
  0
ELLIPSE
  5
A578
330
1F
100
AcDbEntity
  8
AM_0
100
AcDbEllipse
 10
-23.10467529297027
 20
8.639038205146931
 30
0.0
 11
0.0668029928700034
 21
2.999328631691001
 31
0.0
210
0.0
220
0.0
230
0.9999999999999998
 40
0.9847988781246
 41
2.331549718527666
 42
2.356967646896598
  0
ELLIPSE
  5
A579
330
1F
100
AcDbEntity
  8
AM_0
100
AcDbEllipse
 10
-17.44979858398026
 20
2.640564084053124
 30
0.0
 11
0.0654447761700053
 21
2.999298240839698
 31
0.0
210
0.0
220
0.0
230
1.0
 40
0.9848037381973998
 41
2.356193723312529
 42
2.524780599587727
  0
ELLIPSE
  5
A57A
330
1F
100
AcDbEntity
  8
AM_0
100
AcDbEllipse
 10
-9.24105834961027
 20
1.261169552803139
 30
0.0
 11
0.0436248746499888
 21
1.9995117602558
 31
0.0
210
0.0
220
0.0
230
0.9999999999999996
 40
0.984806205025
 41
2.917438657304262
 42
3.141592742361376
  0
ELLIPSE
  5
A57B
330
1F
100
AcDbEntity
  8
AM_0
100
AcDbEllipse
 10
-23.33346557617026
 20
8.643982052802925
 30
0.0
 11
0.0654447709799738
 21
2.999298002477999
 31
0.0
210
0.0
220
0.0
230
1.0
 40
0.9848038164622998
 41
1.570795430659963
 42
2.022700703111176
  0
ELLIPSE
  5
A57C
330
1F
100
AcDbEntity
  8
AM_0
100
AcDbEllipse
 10
-18.09518432617027
 20
2.654632687568735
 30
0.0
 11
0.0588990753699879
 21
2.699371376691999
 31
0.0
210
0.0
220
0.0
230
1.0
 40
0.9848055737386001
 41
3.055508931479124
 42
3.141592742361433
  0
ELLIPSE
  5
A57D
330
1F
100
AcDbEntity
  8
AM_0
100
AcDbEllipse
 10
-4.589141845700268
 20
1.159637570381249
 30
0.0
 11
0.0436248746399844
 21
1.9995117602558
 31
0.0
210
0.0
220
0.0
230
1.0
 40
0.984806205025
 41
3.141592564818209
 42
3.365655757001798
  0
ELLIPSE
  5
A57E
330
1F
100
AcDbEntity
  8
AM_0
100
AcDbEllipse
 10
-5.18246459961027
 20
1.17260754108446
 30
0.0
 11
0.0436248746499888
 21
1.999511760255799
 31
0.0
210
0.0
220
0.0
230
0.9999999999999996
 40
0.984806205025
 41
3.141592564818209
 42
3.365655757001798
  0
ELLIPSE
  5
A596
330
1F
100
AcDbEntity
  8
AM_0
100
AcDbEllipse
 10
-13.18173217773026
 20
6.518402218818749
 30
0.0
 11
0.0763396026200029
 21
3.499175952510199
 31
0.0
210
0.0
220
0.0
230
1.0
 40
0.9848031689157
 41
3.141592564817935
 42
4.712384476225492
  0
ELLIPSE
  5
A597
330
1F
100
AcDbEntity
  8
AM_0
100
AcDbEllipse
 10
-13.18173217773026
 20
6.518402218818749
 30
0.0
 11
0.0763396026200029
 21
3.499175952510199
 31
0.0
210
0.0
220
0.0
230
1.0
 40
0.9848031689157
 41
0.0
 42
3.14159274236165
  0
ELLIPSE
  5
A598
330
1F
100
AcDbEntity
  8
AM_0
100
AcDbEllipse
 10
-13.40740966797027
 20
6.523346066475042
 30
0.0
 11
0.0763550469899814
 21
3.4991760924849
 31
0.0
210
0.0
220
0.0
230
1.0
 40
0.9848073943899999
 41
0.0
 42
1.265974414898515
  0
ELLIPSE
  5
A599
330
1F
100
AcDbEntity
  8
AM_0
100
AcDbEllipse
 10
-13.40740966797027
 20
6.523254513740639
 30
0.0
 11
0.0757753028000183
 21
3.499115006342298
 31
0.0
210
0.0
220
0.0
230
0.9999999999999998
 40
0.9848157940646999
 41
2.861093413836964
 42
2.881158511711248
  0
ELLIPSE
  5
A59A
330
1F
100
AcDbEntity
  8
AM_0
100
AcDbEllipse
 10
-13.40740966797027
 20
6.523346066475042
 30
0.0
 11
0.0763550469899814
 21
3.4991760924849
 31
0.0
210
0.0
220
0.0
230
1.0
 40
0.9848073943899999
 41
2.881322860777748
 42
3.141592742361269
  0
ELLIPSE
  5
A59B
330
1F
100
AcDbEntity
  8
AM_0
100
AcDbEllipse
 10
-13.18173217773026
 20
6.518402218818749
 30
0.0
 11
0.0763396026200029
 21
3.499175952510199
 31
0.0
210
0.0
220
0.0
230
1.0
 40
0.9848031689157
 41
4.712384476225492
 42
6.283185307179586
  0
ELLIPSE
  5
A5A9
330
1F
100
AcDbEntity
  8
AM_0
100
AcDbEllipse
 10
-33.94088745117027
 20
6.376739621162499
 30
0.0
 11
-103.1188905422801
 21
57.8102634745722
 31
0.0
210
0.0
220
0.0
230
1.0
 40
0.0825675584976
 41
4.442146329444177
 42
4.526745568712219
  0
ELLIPSE
  5
A5AA
330
1F
100
AcDbEntity
  8
AM_0
100
AcDbEllipse
 10
-33.94088745117027
 20
6.376739621162499
 30
0.0
 11
-103.1188905422801
 21
57.8102634745722
 31
0.0
210
0.0
220
0.0
230
1.0
 40
0.0825675584976
 41
4.59025933064291
 42
4.684318701987169
  0
ELLIPSE
  5
A5AB
330
1F
100
AcDbEntity
  8
AM_0
100
AcDbEllipse
 10
-12.13796997070029
 20
14.37750256061494
 30
0.0
 11
0.3272243215299956
 21
14.996429429473
 31
0.0
210
0.0
220
0.0
230
0.9999999999999998
 40
0.9848077764389
 41
1.890809181437554
 42
3.000109852920342
  0
ELLIPSE
  5
A5AC
330
1F
100
AcDbEntity
  8
AM_0
100
AcDbEllipse
 10
-33.06063842773026
 20
7.946869015693707
 30
0.0
 11
-103.1188905422801
 21
57.81026347457298
 31
0.0
210
0.0
220
0.0
230
0.9999999999999998
 40
0.0825675584976
 41
4.59025933064291
 42
4.674852066646304
  0
ELLIPSE
  5
A5AD
330
1F
100
AcDbEntity
  8
AM_0
100
AcDbEllipse
 10
-33.06063842773026
 20
7.946869015693707
 30
0.0
 11
-103.1188905422801
 21
57.81026347457298
 31
0.0
210
0.0
220
0.0
230
0.9999999999999998
 40
0.0825675584976
 41
4.432680279584572
 42
4.526745568712219
  0
ELLIPSE
  5
A5AE
330
1F
100
AcDbEntity
  8
AM_0
100
AcDbEllipse
 10
-13.20614624023026
 20
6.718994259834445
 30
0.0
 11
0.0818022244499656
 21
3.7491150727135
 31
0.0
210
0.0
220
0.0
230
0.9999999999999998
 40
0.9848067900968999
 41
2.843499456784902
 42
6.765161241742624
  0
ELLIPSE
  5
A5AF
330
1F
100
AcDbEntity
  8
AM_0
100
AcDbEllipse
 10
-13.20617675781027
 20
6.718872189521945
 30
0.0
 11
0.0805666012599812
 21
3.749023546239
 31
0.0
210
0.0
220
0.0
230
1.0
 40
0.9848186455198998
 41
2.824840384844599
 42
2.843178067372894
  0
ELLIPSE
  5
A5B0
330
1F
100
AcDbEntity
  8
AM_0
100
AcDbEllipse
 10
-33.68862915039027
 20
6.826721310615596
 30
0.0
 11
-103.0594552752701
 21
57.77694301866713
 31
0.0
210
0.0
220
0.0
230
0.9999999999999998
 40
0.0825675931004
 41
4.590968849926618
 42
4.686382776484355
  0
ELLIPSE
  5
A5B1
330
1F
100
AcDbEntity
  8
AM_0
100
AcDbEllipse
 10
-33.31289672852027
 20
7.496887326240596
 30
0.0
 11
-103.05942819029
 21
57.77696012819911
 31
0.0
210
0.0
220
0.0
230
1.0
 40
0.0825675472617
 41
4.590968978433151
 42
4.683072779753408
  0
ELLIPSE
  5
A5B2
330
1F
100
AcDbEntity
  8
AM_0
100
AcDbEllipse
 10
-33.68862915039027
 20
6.826721310615596
 30
0.0
 11
-103.0594552752701
 21
57.77694301866713
 31
0.0
210
0.0
220
0.0
230
0.9999999999999998
 40
0.0825675931004
 41
4.433925864293712
 42
4.526035507155095
  0
ELLIPSE
  5
A5B3
330
1F
100
AcDbEntity
  8
AM_0
100
AcDbEllipse
 10
-33.31289672852027
 20
7.496887326240596
 30
0.0
 11
-103.05942819029
 21
57.77696012819911
 31
0.0
210
0.0
220
0.0
230
1.0
 40
0.0825675472617
 41
4.430615294260486
 42
4.526035608233532
  0
ELLIPSE
  5
A5B4
330
1F
100
AcDbEntity
  8
AM_0
100
AcDbEllipse
 10
-31.60296630859027
 20
8.100494503974999
 30
0.0
 11
2.388977161650014
 21
1.814605699084905
 31
0.0
210
0.0
220
0.0
230
1.0
 40
0.9580598805554998
 41
1.527293519342382
 42
2.04831006048795
  0
ELLIPSE
  5
A5B5
330
1F
100
AcDbEntity
  8
AM_0
100
AcDbEllipse
 10
-31.83316040039027
 20
8.403564572334403
 30
0.0
 11
2.388977161650014
 21
1.814605699085505
 31
0.0
210
0.0
220
0.0
230
1.0
 40
0.9580598805554998
 41
5.135602883435636
 42
6.212898561462558
  0
ELLIPSE
  5
A5B6
330
1F
100
AcDbEntity
  8
AM_0
100
AcDbEllipse
 10
-31.60296630859027
 20
8.100494503974999
 30
0.0
 11
2.388977161650014
 21
1.814605699084905
 31
0.0
210
0.0
220
0.0
230
1.0
 40
0.9580598805554998
 41
3.141592562339957
 42
3.618481446903688
  0
ELLIPSE
  5
A5B7
330
1F
100
AcDbEntity
  8
AM_0
100
AcDbEllipse
 10
-31.60296630859027
 20
8.100494503974999
 30
0.0
 11
2.388977161650014
 21
1.814605699084905
 31
0.0
210
0.0
220
0.0
230
1.0
 40
0.9580598805554998
 41
0.0
 42
0.4768901668708939
  0
ELLIPSE
  5
A5B8
330
1F
100
AcDbEntity
  8
AM_0
100
AcDbEllipse
 10
-31.60296630859027
 20
8.100494503974999
 30
0.0
 11
2.388977161650014
 21
1.814605699084905
 31
0.0
210
0.0
220
0.0
230
1.0
 40
0.9580598805554998
 41
4.668886546077612
 42
5.189902628738868
  0
ELLIPSE
  5
A5B9
330
1F
100
AcDbEntity
  8
AM_0
100
AcDbEllipse
 10
-31.60296630859027
 20
8.100525021553096
 30
0.0
 11
2.388977161650014
 21
1.814605699084803
 31
0.0
210
0.0
220
0.0
230
1.0
 40
0.9580598805554998
 41
3.098122654530639
 42
3.141592744839628
  0
ELLIPSE
  5
A5BA
330
1F
100
AcDbEntity
  8
AM_0
100
AcDbEllipse
 10
-31.60296630859027
 20
8.100494503974999
 30
0.0
 11
2.388977161650014
 21
1.814605699084905
 31
0.0
210
0.0
220
0.0
230
1.0
 40
0.9580660794366
 41
6.239716271451299
 42
6.283185307179586
  0
ARC
  5
A5BD
330
1F
100
AcDbEntity
  8
AM_11
100
AcDbCircle
 10
-15.00000000000027
 20
0.0000000000001421
 30
0.0
 40
15.0
100
AcDbArc
 50
269.9999974955182
 51
90.00000250448172
  0
LINE
  5
A5BE
330
1F
100
AcDbEntity
  8
AM_7
100
AcDbLine
 10
3.09475708007973
 20
0.0000000000001705
 30
0.0
 11
-163.7893981933602
 21
-0.0000000000001563
 31
0.0
  0
LINE
  5
A5BF
330
1F
100
AcDbEntity
  8
AM_0
100
AcDbLine
 10
-8.56576538086027
 20
-0.7540493607519494
 30
0.0
 11
-14.46795654297027
 21
-0.6252650618551599
 31
0.0
  0
LINE
  5
A5C0
330
1F
100
AcDbEntity
  8
AM_0
100
AcDbLine
 10
-11.68597412109026
 20
7.351990818977441
 30
0.0
 11
-11.72375488281026
 21
5.620347142219642
 31
0.0
  0
LINE
  5
A5C1
330
1F
100
AcDbEntity
  8
AM_0
100
AcDbLine
 10
-13.14395141602027
 20
8.250061154365639
 30
0.0
 11
-11.68597412109026
 21
7.351987004280246
 31
0.0
  0
LINE
  5
A5C2
330
1F
100
AcDbEntity
  8
AM_0
100
AcDbLine
 10
-11.68597412109026
 20
7.351986050605844
 30
0.0
 11
-12.20678710937026
 21
7.363368153572238
 31
0.0
  0
LINE
  5
A5CD
330
1F
100
AcDbEntity
  8
AM_0
100
AcDbLine
 10
-157.0000305175802
 20
16.00000011920866
 30
0.0
 11
-80.00003051758028
 21
16.00000011920882
 31
0.0
  0
LINE
  5
A5CF
330
1F
100
AcDbEntity
  8
AM_0
100
AcDbLine
 10
-157.0000305175802
 20
-15.99999988079034
 30
0.0
 11
-80.00003051758023
 21
-15.99999988079019
 31
0.0
  0
LINE
  5
A5D0
330
1F
100
AcDbEntity
  8
AM_0
100
AcDbLine
 10
-157.0000305175802
 20
-15.99999988079034
 30
0.0
 11
-157.0000305175802
 21
16.00000011920866
 31
0.0
  0
LINE
  5
A5D1
330
1F
100
AcDbEntity
  8
AM_0
100
AcDbLine
 10
-158.5176696777302
 20
-15.59335315227434
 30
0.0
 11
-158.5176696777302
 21
15.59335339069265
 31
0.0
  0
LINE
  5
A5D2
330
1F
100
AcDbEntity
  8
AM_0
100
AcDbLine
 10
-160.0000305175802
 20
-13.66149890422835
 30
0.0
 11
-160.0000305175802
 21
13.66149914264666
 31
0.0
  0
ARC
  5
A5D4
330
1F
100
AcDbEntity
  8
AM_0
100
AcDbCircle
 10
-158.0000305175802
 20
-13.66149890422833
 30
0.0
 40
2.0
100
AcDbArc
 50
180.0000086514213
 51
255.0000004932023
  0
LINE
  5
A5D5
330
1F
100
AcDbEntity
  8
AM_0
100
AcDbLine
 10
-158.5176086425802
 20
-15.59335029125235
 30
0.0
 11
-156.9999694824202
 21
-15.99999511241934
 31
0.0
  0
ARC
  5
A5D6
330
1F
100
AcDbEntity
  8
AM_0
100
AcDbCircle
 10
-158.0000305175802
 20
13.66149914264666
 30
0.0
 40
2.000000238418599
100
AcDbArc
 50
104.9999926766061
 51
180.0000050089577
  0
LINE
  5
A5D7
330
1F
100
AcDbEntity
  8
AM_0
100
AcDbLine
 10
-157.0000305175802
 20
16.00000202655766
 30
0.0
 11
-158.5176696777302
 21
15.59335720539066
 31
0.0
  0
LINE
  5
A5DC
330
1F
100
AcDbEntity
  8
AM_0
100
AcDbLine
 10
-60.00000000000023
 20
-13.60000598430615
 30
0.0
 11
-43.05029296875024
 21
-13.6000059843061
 31
0.0
  0
LINE
  5
A5DD
330
1F
100
AcDbEntity
  8
AM_0
100
AcDbLine
 10
-35.3502807617203
 20
13.6000062227249
 30
0.0
 11
-60.00000000000028
 21
13.60000622272484
 31
0.0
  0
LINE
  5
A5DE
330
1F
100
AcDbEntity
  8
AM_0
100
AcDbLine
 10
-80.00003051758023
 20
-15.99999988079019
 30
0.0
 11
-80.00003051758028
 21
16.00000011920882
 31
0.0
  0
LINE
  5
A5DF
330
1F
100
AcDbEntity
  8
AM_0
100
AcDbLine
 10
-77.00003051758023
 20
-14.99999988079018
 30
0.0
 11
-77.00003051758028
 21
15.00000011920882
 31
0.0
  0
LINE
  5
A5E0
330
1F
100
AcDbEntity
  8
AM_0
100
AcDbLine
 10
-70.00003051758023
 20
-14.99999988079017
 30
0.0
 11
-70.00003051758028
 21
15.00000011920883
 31
0.0
  0
LINE
  5
A5E1
330
1F
100
AcDbEntity
  8
AM_0
100
AcDbLine
 10
-60.00000000000023
 20
-13.60000598430615
 30
0.0
 11
-60.00000000000028
 21
13.60000622272484
 31
0.0
  0
LINE
  5
A5E2
330
1F
100
AcDbEntity
  8
AM_0
100
AcDbLine
 10
-70.00003051758023
 20
-15.00000941753316
 30
0.0
 11
-60.00000000000023
 21
-13.60001361370015
 31
0.0
  0
LINE
  5
A5E3
330
1F
100
AcDbEntity
  8
AM_0
100
AcDbLine
 10
-77.00003051758023
 20
-14.99999988079018
 30
0.0
 11
-70.00003051758023
 21
-14.99999988079017
 31
0.0
  0
ARC
  5
A5E4
330
1F
100
AcDbEntity
  8
AM_0
100
AcDbCircle
 10
-77.00003051758021
 20
-19.99999988079018
 30
0.0
 40
5.0
100
AcDbArc
 50
90.00000250448172
 51
126.8699032291534
  0
LINE
  5
A5E6
330
1F
100
AcDbEntity
  8
AM_0
100
AcDbLine
 10
-60.00000000000028
 20
13.60001862049084
 30
0.0
 11
-69.99996948242028
 21
15.00000965595182
 31
0.0
  0
LINE
  5
A5E7
330
1F
100
AcDbEntity
  8
AM_0
100
AcDbLine
 10
-70.00003051758028
 20
15.00000011920883
 30
0.0
 11
-77.00003051758028
 21
15.00000011920882
 31
0.0
  0
ARC
  5
A5E8
330
1F
100
AcDbEntity
  8
AM_0
100
AcDbCircle
 10
-77.0000305175803
 20
20.00000011920882
 30
0.0
 40
5.0
100
AcDbArc
 50
233.1300967708468
 51
269.9999974955182
  0
LINE
  5
A5EA
330
1F
100
AcDbEntity
  8
AM_11
100
AcDbLine
 10
-43.0000000000003
 20
15.00000011920889
 30
0.0
 11
-43.00000000000024
 21
-14.99999988079011
 31
0.0
  0
LINE
  5
A5EB
330
1F
100
AcDbEntity
  8
AM_0
100
AcDbLine
 10
-14.50000000000024
 20
-10.60775744914995
 30
0.0
 11
-14.50000000000027
 21
-0.6245421767233524
 31
0.0
  0
LINE
  5
A5EC
330
1F
100
AcDbEntity
  8
AM_0
100
AcDbLine
 10
-19.37548828125024
 20
-11.45938003063187
 30
0.0
 11
-19.34640502930024
 21
-8.127261519431968
 31
0.0
  0
LINE
  5
A5ED
330
1F
100
AcDbEntity
  8
AM_11
100
AcDbLine
 10
-43.00000000000024
 20
-14.99999988079011
 30
0.0
 11
-15.00000000000024
 21
-14.99999988079005
 31
0.0
  0
LINE
  5
A5EE
330
1F
100
AcDbEntity
  8
AM_0
100
AcDbLine
 10
-40.26040649414023
 20
-13.6000059843061
 30
0.0
 11
-20.33206176758024
 21
-13.60000598430608
 31
0.0
  0
LINE
  5
A5EF
330
1F
100
AcDbEntity
  8
AM_0
100
AcDbLine
 10
-44.01910400391024
 20
-11.20341861248012
 30
0.0
 11
-42.96722412109024
 21
-9.818606257438617
 31
0.0
  0
LINE
  5
A5F0
330
1F
100
AcDbEntity
  8
AM_0
100
AcDbLine
 10
-42.73675537109023
 20
-9.756695628166113
 30
0.0
 11
-42.97268676758024
 21
-13.59120929241112
 31
0.0
  0
LINE
  5
A5F1
330
1F
100
AcDbEntity
  8
AM_0
100
AcDbLine
 10
-23.65216064453024
 20
-13.89559161663007
 30
0.0
 11
-20.42324829102024
 21
-13.92375934123907
 31
0.0
  0
LINE
  5
A5F2
330
1F
100
AcDbEntity
  8
AM_0
100
AcDbLine
 10
-23.65216064453024
 20
-13.89560306072208
 30
0.0
 11
-24.22378540039024
 21
-13.89062869548708
 31
0.0
  0
LINE
  5
A5F3
330
1F
100
AcDbEntity
  8
AM_0
100
AcDbLine
 10
-24.44061279297024
 20
-13.88872897624906
 30
0.0
 11
-24.48825073242024
 21
-13.59999549388808
 31
0.0
  0
LINE
  5
A5F4
330
1F
100
AcDbEntity
  8
AM_0
100
AcDbLine
 10
-29.09640502930024
 20
-13.77649486064808
 30
0.0
 11
-28.95065307617024
 21
-13.60000216960808
 31
0.0
  0
LINE
  5
A5F5
330
1F
100
AcDbEntity
  8
AM_0
100
AcDbLine
 10
-24.44064331055024
 20
-13.88871943950607
 30
0.0
 11
-28.85964965820024
 21
-13.85014522075609
 31
0.0
  0
LINE
  5
A5F6
330
1F
100
AcDbEntity
  8
AM_0
100
AcDbLine
 10
-24.19616699219024
 20
-13.60000979900308
 30
0.0
 11
-24.22378540039024
 21
-13.89063441753307
 31
0.0
  0
LINE
  5
A5F7
330
1F
100
AcDbEntity
  8
AM_0
100
AcDbLine
 10
-24.44061279297024
 20
-13.88871848583207
 30
0.0
 11
-24.22378540039024
 21
-13.89061057567508
 31
0.0
  0
LINE
  5
A5F8
330
1F
100
AcDbEntity
  8
AM_0
100
AcDbLine
 10
-29.15393066406024
 20
-13.7121647596351
 30
0.0
 11
-29.15295410156024
 21
-13.6000174283981
 31
0.0
  0
LINE
  5
A5F9
330
1F
100
AcDbEntity
  8
AM_0
100
AcDbLine
 10
-23.65213012695023
 20
-13.89559733867608
 30
0.0
 11
-23.62408447266024
 21
-13.60002124309508
 31
0.0
  0
LINE
  5
A5FA
330
1F
100
AcDbEntity
  8
AM_0
100
AcDbLine
 10
-20.08279418945023
 20
-13.92676341533606
 30
0.0
 11
-20.42324829102024
 21
-13.92377269268007
 31
0.0
  0
LINE
  5
A5FB
330
1F
100
AcDbEntity
  8
AM_0
100
AcDbLine
 10
-15.17144775391024
 20
-13.96959197521107
 30
0.0
 11
-15.23721313477024
 21
-13.57030761241907
 31
0.0
  0
LINE
  5
A5FC
330
1F
100
AcDbEntity
  8
AM_0
100
AcDbLine
 10
-15.17144775391024
 20
-13.96961772441807
 30
0.0
 11
-14.21878051758024
 21
-13.97794902324605
 31
0.0
  0
LINE
  5
A5FD
330
1F
100
AcDbEntity
  8
AM_0
100
AcDbLine
 10
-15.17147827148024
 20
-13.96960723400107
 30
0.0
 11
-20.08276367187023
 21
-13.92676055431306
 31
0.0
  0
LINE
  5
A5FE
330
1F
100
AcDbEntity
  8
AM_0
100
AcDbLine
 10
-20.08276367187023
 20
-13.92676913738208
 30
0.0
 11
-20.13241577148023
 21
-13.62479007244007
 31
0.0
  0
LINE
  5
A5FF
330
1F
100
AcDbEntity
  8
AM_0
100
AcDbLine
 10
-20.11169433594024
 20
-13.59993827342907
 30
0.0
 11
-20.13241577148023
 21
-13.62478244304607
 31
0.0
  0
LINE
  5
A600
330
1F
100
AcDbEntity
  8
AM_0
100
AcDbLine
 10
-20.13238525391024
 20
-13.62479293346307
 30
0.0
 11
-20.13430786133024
 21
-13.59987342357607
 31
0.0
  0
LINE
  5
A601
330
1F
100
AcDbEntity
  8
AM_0
100
AcDbLine
 10
-20.44830322266024
 20
-13.60001742839807
 30
0.0
 11
-20.42324829102024
 21
-13.92375648021607
 31
0.0
  0
LINE
  5
A602
330
1F
100
AcDbEntity
  8
AM_0
100
AcDbLine
 10
-14.50000000000024
 20
-13.56106555461805
 30
0.0
 11
-14.50000000000024
 21
-10.86282336711875
 31
0.0
  0
LINE
  5
A603
330
1F
100
AcDbEntity
  8
AM_0
100
AcDbLine
 10
-16.77777099609023
 20
-10.63045394420616
 30
0.0
 11
-16.60086059570024
 21
-10.63201034069047
 31
0.0
  0
LINE
  5
A604
330
1F
100
AcDbEntity
  8
AM_11
100
AcDbLine
 10
-43.0000000000003
 20
15.00000011920889
 30
0.0
 11
-15.0000000000003
 21
15.00000011920894
 31
0.0
  0
LINE
  5
A605
330
1F
100
AcDbEntity
  8
AM_0
100
AcDbLine
 10
-30.27941894531027
 20
10.76364719867692
 30
0.0
 11
-29.20574951172027
 21
10.87173855304691
 31
0.0
  0
LINE
  5
A606
330
1F
100
AcDbEntity
  8
AM_0
100
AcDbLine
 10
-29.97000122070026
 20
5.734997391700815
 30
0.0
 11
-28.89633178711027
 21
5.84305775165572
 31
0.0
  0
LINE
  5
A607
330
1F
100
AcDbEntity
  8
AM_0
100
AcDbLine
 10
-26.4897766113303
 20
13.60000622272491
 30
0.0
 11
-32.5604248046903
 21
13.6000062227249
 31
0.0
  0
LINE
  5
A608
330
1F
100
AcDbEntity
  8
AM_0
100
AcDbLine
 10
-34.39660644531027
 20
1.439874768257197
 30
0.0
 11
-29.25479125977027
 21
1.957453131675819
 31
0.0
  0
LINE
  5
A609
330
1F
100
AcDbEntity
  8
AM_0
100
AcDbLine
 10
-31.82058715820026
 20
12.6261693239209
 30
0.0
 11
-27.91076660156029
 21
13.01972305774691
 31
0.0
  0
LINE
  5
A60A
330
1F
100
AcDbEntity
  8
AM_0
100
AcDbLine
 10
-29.14608764648029
 20
13.09219372272491
 30
0.0
 11
-35.62768554687027
 21
12.43972885608589
 31
0.0
  0
LINE
  5
A60B
330
1F
100
AcDbEntity
  8
AM_0
100
AcDbLine
 10
-31.25289916992027
 20
3.400521397590694
 30
0.0
 11
-27.34310913086027
 21
3.794075608253621
 31
0.0
  0
LINE
  5
A60C
330
1F
100
AcDbEntity
  8
AM_0
100
AcDbLine
 10
-34.00021362305027
 20
5.3292738199235
 30
0.0
 11
-35.98153686523026
 21
3.689839959144705
 31
0.0
  0
LINE
  5
A60D
330
1F
100
AcDbEntity
  8
AM_0
100
AcDbLine
 10
-35.16271972656026
 20
3.006915688514794
 30
0.0
 11
-34.00018310547027
 21
5.329268097877601
 31
0.0
  0
LINE
  5
A60E
330
1F
100
AcDbEntity
  8
AM_0
100
AcDbLine
 10
-35.98153686523026
 20
3.689838051796002
 30
0.0
 11
-36.21856689453027
 21
7.542049527168302
 31
0.0
  0
LINE
  5
A60F
330
1F
100
AcDbEntity
  8
AM_0
100
AcDbLine
 10
-31.25292968750027
 20
3.400502324104394
 30
0.0
 11
-31.41183471680027
 21
5.178541302680997
 31
0.0
  0
LINE
  5
A610
330
1F
100
AcDbEntity
  8
AM_0
100
AcDbLine
 10
-35.65005493164027
 20
0.8006576299668068
 30
0.0
 11
-35.73406982422027
 21
0.9162722826005023
 31
0.0
  0
LINE
  5
A611
330
1F
100
AcDbEntity
  8
AM_0
100
AcDbLine
 10
-34.39663696289027
 20
1.439873576164302
 30
0.0
 11
-32.94842529297027
 21
-0.4667363166807946
 31
0.0
  0
LINE
  5
A612
330
1F
100
AcDbEntity
  8
AM_0
100
AcDbLine
 10
-35.16271972656026
 20
3.006932854652504
 30
0.0
 11
-31.25292968750027
 21
3.400517106056298
 31
0.0
  0
LINE
  5
A613
330
1F
100
AcDbEntity
  8
AM_0
100
AcDbLine
 10
-34.30960083008027
 20
10.3579856157299
 30
0.0
 11
-35.73037719727027
 21
12.23258507251689
 31
0.0
  0
LINE
  5
A614
330
1F
100
AcDbEntity
  8
AM_0
100
AcDbLine
 10
-36.45556640625027
 20
11.39424431323989
 30
0.0
 11
-34.30960083008027
 21
10.35795700550089
 31
0.0
  0
LINE
  5
A615
330
1F
100
AcDbEntity
  8
AM_0
100
AcDbLine
 10
-33.23593139648027
 20
10.46602928638389
 30
0.0
 11
-34.30960083008027
 21
10.35796844959189
 31
0.0
  0
LINE
  5
A616
330
1F
100
AcDbEntity
  8
AM_0
100
AcDbLine
 10
-34.24453735352027
 20
9.300063252448893
 30
0.0
 11
-34.30963134766027
 21
10.35796844959189
 31
0.0
  0
LINE
  5
A617
330
1F
100
AcDbEntity
  8
AM_0
100
AcDbLine
 10
-34.06527709961027
 20
6.387162327766503
 30
0.0
 11
-34.00018310547027
 21
5.329287648201102
 31
0.0
  0
LINE
  5
A618
330
1F
100
AcDbEntity
  8
AM_0
100
AcDbLine
 10
-32.92648315430027
 20
5.437373280525306
 30
0.0
 11
-34.00018310547027
 21
5.329278588295096
 31
0.0
  0
LINE
  5
A619
330
1F
100
AcDbEntity
  8
AM_0
100
AcDbLine
 10
-34.10128784180027
 20
6.440832734107999
 30
0.0
 11
-34.02920532227027
 21
6.345937371253995
 31
0.0
  0
LINE
  5
A61A
330
1F
100
AcDbEntity
  8
AM_0
100
AcDbLine
 10
-33.37890625000027
 20
8.182182431221093
 30
0.0
 11
-33.53881835937027
 21
8.392682194709792
 31
0.0
  0
LINE
  5
A61B
330
1F
100
AcDbEntity
  8
AM_0
100
AcDbLine
 10
-31.36791992187026
 20
9.577412724494905
 30
0.0
 11
-31.57714843750027
 21
9.852870106696897
 31
0.0
  0
LINE
  5
A61C
330
1F
100
AcDbEntity
  8
AM_0
100
AcDbLine
 10
-33.28356933594027
 20
8.0886861085892
 30
0.0
 11
-33.54357910156027
 21
8.431001782417396
 31
0.0
  0
LINE
  5
A61D
330
1F
100
AcDbEntity
  8
AM_0
100
AcDbLine
 10
-31.55017089844027
 20
9.761573910712897
 30
0.0
 11
-31.29016113281027
 21
9.419279217719903
 31
0.0
  0
LINE
  5
A61E
330
1F
100
AcDbEntity
  8
AM_0
100
AcDbLine
 10
-32.80181884766027
 20
6.682029843330496
 30
0.0
 11
-33.06182861328027
 21
7.0243483781815
 31
0.0
  0
LINE
  5
A61F
330
1F
100
AcDbEntity
  8
AM_0
100
AcDbLine
 10
-30.17462158203027
 20
8.504754185675921
 30
0.0
 11
-30.43463134766027
 21
8.847037434577913
 31
0.0
  0
LINE
  5
A620
330
1F
100
AcDbEntity
  8
AM_0
100
AcDbLine
 10
-32.21868896484027
 20
6.541212201118497
 30
0.0
 11
-32.47872924805027
 21
6.883531689643902
 31
0.0
  0
LINE
  5
A621
330
1F
100
AcDbEntity
  8
AM_0
100
AcDbLine
 10
-30.48535156250027
 20
8.214130520820717
 30
0.0
 11
-30.22534179687026
 21
7.871811985969614
 31
0.0
  0
LINE
  5
A622
330
1F
100
AcDbEntity
  8
AM_0
100
AcDbLine
 10
-31.17733764648026
 20
6.480086445808495
 30
0.0
 11
-31.43734741211027
 21
6.822404980659598
 31
0.0
  0
LINE
  5
A623
330
1F
100
AcDbEntity
  8
AM_0
100
AcDbLine
 10
-30.56115722656027
 20
6.90760242939001
 30
0.0
 11
-30.82116699219027
 21
7.249897122383202
 31
0.0
  0
LINE
  5
A624
330
1F
100
AcDbEntity
  8
AM_0
100
AcDbLine
 10
-36.39550781250027
 20
11.7414361238479
 30
0.0
 11
-36.41995239258027
 21
12.13872539997089
 31
0.0
  0
LINE
  5
A625
330
1F
100
AcDbEntity
  8
AM_0
100
AcDbLine
 10
-36.27053833008027
 20
12.0009433031079
 30
0.0
 11
-36.37542724609026
 21
11.7893429994579
 31
0.0
  0
LINE
  5
A626
330
1F
100
AcDbEntity
  8
AM_0
100
AcDbLine
 10
-35.62771606445027
 20
12.4397155046459
 30
0.0
 11
-35.73040771484027
 21
12.23256981372789
 31
0.0
  0
LINE
  5
A627
330
1F
100
AcDbEntity
  8
AM_0
100
AcDbLine
 10
-35.73040771484027
 20
12.2325822114939
 30
0.0
 11
-31.82058715820026
 21
12.6261664628979
 31
0.0
  0
LINE
  5
A628
330
1F
100
AcDbEntity
  8
AM_0
100
AcDbLine
 10
-31.82058715820026
 20
12.6261588335029
 30
0.0
 11
-31.76940917969027
 21
10.9899655580519
 31
0.0
  0
LINE
  5
A629
330
1F
100
AcDbEntity
  8
AM_0
100
AcDbLine
 10
-36.21856689453027
 20
7.542049527168302
 30
0.0
 11
-36.45559692383027
 21
11.39426147937689
 31
0.0
  0
LINE
  5
A62A
330
1F
100
AcDbEntity
  8
AM_0
100
AcDbLine
 10
-36.21856689453027
 20
7.542048573494
 30
0.0
 11
-34.53976440430027
 21
7.787382245063895
 31
0.0
  0
LINE
  5
A62B
330
1F
100
AcDbEntity
  8
AM_0
100
AcDbLine
 10
-26.61791992187026
 20
4.632423520088309
 30
0.0
 11
-28.89630126953027
 21
5.843045830726708
 31
0.0
  0
LINE
  5
A62C
330
1F
100
AcDbEntity
  8
AM_0
100
AcDbLine
 10
-28.89636230469027
 20
5.843058705330008
 30
0.0
 11
-27.34313964844027
 21
3.794058442115911
 31
0.0
  0
LINE
  5
A62D
330
1F
100
AcDbEntity
  8
AM_0
100
AcDbLine
 10
-25.23956298828027
 20
6.563749432563909
 30
0.0
 11
-19.58468627930027
 21
0.565323472023124
 31
0.0
  0
LINE
  5
A62E
330
1F
100
AcDbEntity
  8
AM_0
100
AcDbLine
 10
-26.61788940430027
 20
4.632405877113413
 30
0.0
 11
-26.85491943359027
 21
8.484617352484917
 31
0.0
  0
LINE
  5
A62F
330
1F
100
AcDbEntity
  8
AM_0
100
AcDbLine
 10
-26.78372192383027
 20
4.103082776069712
 30
0.0
 11
-26.72848510742027
 21
4.082397580146917
 31
0.0
  0
LINE
  5
A630
330
1F
100
AcDbEntity
  8
AM_0
100
AcDbLine
 10
-29.25479125977027
 20
1.957449316978511
 30
0.0
 11
-27.65927124023026
 21
-0.1430840492247825
 31
0.0
  0
LINE
  5
A631
330
1F
100
AcDbEntity
  8
AM_0
100
AcDbLine
 10
-24.97653198242026
 20
2.61544764041912
 30
0.0
 11
-25.90594482422027
 21
3.839047551155218
 31
0.0
  0
LINE
  5
A632
330
1F
100
AcDbEntity
  8
AM_0
100
AcDbLine
 10
-25.57086181641027
 20
3.812716126442012
 30
0.0
 11
-24.98141479492026
 21
3.036687016487206
 31
0.0
  0
LINE
  5
A633
330
1F
100
AcDbEntity
  8
AM_0
100
AcDbLine
 10
-14.46795654297027
 20
-0.6252620220183616
 30
0.0
 11
-14.50000000000027
 21
-0.6245301365851646
 31
0.0
  0
LINE
  5
A634
330
1F
100
AcDbEntity
  8
AM_0
100
AcDbLine
 10
-19.97842407227024
 20
-8.121735930442667
 30
0.0
 11
-19.34640502930024
 21
-8.127259612083378
 31
0.0
  0
LINE
  5
A635
330
1F
100
AcDbEntity
  8
AM_0
100
AcDbLine
 10
-18.15408325195027
 20
-0.0446987152098757
 30
0.0
 11
-16.04553222656027
 21
-0.0907195806502586
 31
0.0
  0
LINE
  5
A636
330
1F
100
AcDbEntity
  8
AM_0
100
AcDbLine
 10
-18.14620971680027
 20
-0.0968672037123781
 30
0.0
 11
-18.15411376953027
 21
-0.0447258949278791
 31
0.0
  0
LINE
  5
A637
330
1F
100
AcDbEntity
  8
AM_0
100
AcDbLine
 10
-13.48376464844027
 20
3.02417385578164
 30
0.0
 11
-13.25808715820026
 21
3.019230008125447
 31
0.0
  0
LINE
  5
A638
330
1F
100
AcDbEntity
  8
AM_0
100
AcDbLine
 10
-14.03878784180029
 20
14.05890476703594
 30
0.0
 11
-24.4205017089803
 21
14.28543674945791
 31
0.0
  0
LINE
  5
A639
330
1F
100
AcDbEntity
  8
AM_0
100
AcDbLine
 10
-25.49185180664029
 20
14.30881130695292
 30
0.0
 11
-25.5232849121103
 21
14.30887234210891
 31
0.0
  0
LINE
  5
A63A
330
1F
100
AcDbEntity
  8
AM_0
100
AcDbLine
 10
-27.91079711914029
 20
13.01970684528291
 30
0.0
 11
-29.20574951172027
 21
10.8717318773269
 31
0.0
  0
LINE
  5
A63B
330
1F
100
AcDbEntity
  8
AM_0
100
AcDbLine
 10
-29.20574951172027
 20
10.87170898914291
 30
0.0
 11
-27.09197998047027
 21
12.33679783344192
 31
0.0
  0
LINE
  5
A63C
330
1F
100
AcDbEntity
  8
AM_0
100
AcDbLine
 10
-29.14065551758027
 20
9.813855290412917
 30
0.0
 11
-29.20574951172027
 21
10.8717309236519
 31
0.0
  0
LINE
  5
A63D
330
1F
100
AcDbEntity
  8
AM_0
100
AcDbLine
 10
-28.96142578125027
 20
6.900949597358817
 30
0.0
 11
-28.89633178711027
 21
5.843044400215219
 31
0.0
  0
LINE
  5
A63E
330
1F
100
AcDbEntity
  8
AM_0
100
AcDbLine
 10
-24.4205017089803
 20
14.28543484210891
 30
0.0
 11
-25.4918823242203
 21
14.30881130695292
 31
0.0
  0
LINE
  5
A63F
330
1F
100
AcDbEntity
  8
AM_0
100
AcDbLine
 10
-29.56976318359027
 20
9.733188748358912
 30
0.0
 11
-29.73272705078027
 21
9.947754979132909
 31
0.0
  0
LINE
  5
A640
330
1F
100
AcDbEntity
  8
AM_0
100
AcDbLine
 10
-26.65353393555027
 20
5.238045811653208
 30
0.0
 11
-26.58584594727027
 21
5.148955464363211
 31
0.0
  0
LINE
  5
A641
330
1F
100
AcDbEntity
  8
AM_0
100
AcDbLine
 10
-27.58044433594029
 20
13.21245872974391
 30
0.0
 11
-27.5658874511703
 21
12.97615063190391
 31
0.0
  0
LINE
  5
A642
330
1F
100
AcDbEntity
  8
AM_0
100
AcDbLine
 10
-27.57446289062029
 20
13.20440876483891
 30
0.0
 11
-27.55172729492029
 21
12.97077190875991
 31
0.0
  0
LINE
  5
A643
330
1F
100
AcDbEntity
  8
AM_0
100
AcDbLine
 10
-26.75387573242026
 20
6.874800801277217
 30
0.0
 11
-26.58584594727027
 21
5.148953557014507
 31
0.0
  0
LINE
  5
A644
330
1F
100
AcDbEntity
  8
AM_0
100
AcDbLine
 10
-25.29016113281027
 20
6.618772625923213
 30
0.0
 11
-26.83972167969027
 21
8.262457966804618
 31
0.0
  0
LINE
  5
A645
330
1F
100
AcDbEntity
  8
AM_0
100
AcDbLine
 10
-26.28713989258027
 20
8.708425641059918
 30
0.0
 11
-26.23202514648026
 21
11.23434460163091
 31
0.0
  0
LINE
  5
A646
330
1F
100
AcDbEntity
  8
AM_0
100
AcDbLine
 10
-26.46774291992029
 20
13.46452438831291
 30
0.0
 11
-26.2966003418003
 21
13.46080124378191
 31
0.0
  0
LINE
  5
A647
330
1F
100
AcDbEntity
  8
AM_0
100
AcDbLine
 10
-26.21249389648026
 20
11.0473252534859
 30
0.0
 11
-26.23611450195026
 21
11.04784405231391
 31
0.0
  0
LINE
  5
A648
330
1F
100
AcDbEntity
  8
AM_0
100
AcDbLine
 10
-26.4761962890603
 20
14.22308266162791
 30
0.0
 11
-26.1433715820303
 21
14.21581852435991
 31
0.0
  0
LINE
  5
A649
330
1F
100
AcDbEntity
  8
AM_0
100
AcDbLine
 10
-26.08001708984029
 20
14.32161915302191
 30
0.0
 11
-25.4918823242203
 21
14.30880177020991
 31
0.0
  0
LINE
  5
A64A
330
1F
100
AcDbEntity
  8
AM_0
100
AcDbLine
 10
-26.21249389648026
 20
11.04732620716092
 30
0.0
 11
-26.21163940430027
 21
11.08625710010491
 31
0.0
  0
LINE
  5
A64B
330
1F
100
AcDbEntity
  8
AM_0
100
AcDbLine
 10
-26.1435241699203
 20
14.20896160602491
 30
0.0
 11
-26.1433715820303
 21
14.21582615375491
 31
0.0
  0
LINE
  5
A64C
330
1F
100
AcDbEntity
  8
AM_0
100
AcDbLine
 10
-26.4761962890603
 20
14.22308456897691
 30
0.0
 11
-26.4910583496103
 21
13.54169762134491
 31
0.0
  0
LINE
  5
A64D
330
1F
100
AcDbEntity
  8
AM_0
100
AcDbLine
 10
-27.91076660156029
 20
13.01969921588892
 30
0.0
 11
-29.1460571289103
 21
13.09217751026091
 31
0.0
  0
LINE
  5
A64E
330
1F
100
AcDbEntity
  8
AM_0
100
AcDbLine
 10
-27.7832031250003
 20
13.0224505662919
 30
0.0
 11
-29.0219726562503
 21
13.0951129198069
 31
0.0
  0
LINE
  5
A64F
330
1F
100
AcDbEntity
  8
AM_0
100
AcDbLine
 10
-26.85494995117027
 20
8.484605908393916
 30
0.0
 11
-27.09197998047027
 21
12.3368178606029
 31
0.0
  0
LINE
  5
A650
330
1F
100
AcDbEntity
  8
AM_0
100
AcDbLine
 10
-26.85491943359027
 20
8.48461925983392
 30
0.0
 11
-28.64144897461027
 21
8.381133198738211
 31
0.0
  0
LINE
  5
A651
330
1F
100
AcDbEntity
  8
AM_0
100
AcDbLine
 10
-13.10534667969027
 20
10.01758491992893
 30
0.0
 11
-13.33102416992026
 21
10.02249825000694
 31
0.0
  0
LINE
  5
A652
330
1F
100
AcDbEntity
  8
AM_0
100
AcDbLine
 10
-14.63967895508027
 20
7.416435360908636
 30
0.0
 11
-13.14392089844027
 21
8.250057339668344
 31
0.0
  0
LINE
  5
A653
330
1F
100
AcDbEntity
  8
AM_0
100
AcDbLine
 10
-14.63967895508027
 20
7.416446805000447
 30
0.0
 11
-14.67745971680027
 21
5.684804081916936
 31
0.0
  0
LINE
  5
A654
330
1F
100
AcDbEntity
  8
AM_0
100
AcDbLine
 10
-13.21948242187026
 20
4.786769509315647
 30
0.0
 11
-14.67745971680027
 21
5.684804081916936
 31
0.0
  0
LINE
  5
A655
330
1F
100
AcDbEntity
  8
AM_0
100
AcDbLine
 10
-11.72372436523026
 20
5.620356678962849
 30
0.0
 11
-13.21948242187026
 21
4.786772370338539
 31
0.0
  0
LINE
  5
A656
330
1F
100
AcDbEntity
  8
AM_0
100
AcDbLine
 10
-11.72375488281026
 20
5.620357632637137
 30
0.0
 11
-12.24456787109026
 21
5.631710171699637
 31
0.0
  0
LINE
  5
A657
330
1F
100
AcDbEntity
  8
AM_0
100
AcDbLine
 10
-12.24456787109026
 20
5.631725430488742
 30
0.0
 11
-13.47656250000027
 21
4.945144295692543
 31
0.0
  0
LINE
  5
A658
330
1F
100
AcDbEntity
  8
AM_0
100
AcDbLine
 10
-13.40768432617027
 20
8.103044629097141
 30
0.0
 11
-12.20681762695027
 21
7.363367199897837
 31
0.0
  0
LINE
  5
A659
330
1F
100
AcDbEntity
  8
AM_0
100
AcDbLine
 10
-12.20678710937026
 20
7.363358616829046
 30
0.0
 11
-12.24456787109026
 21
5.631715416908349
 31
0.0
  0
LINE
  5
A662
330
1F
100
AcDbEntity
  8
AM_0
100
AcDbLine
 10
-11.49789428711027
 20
-0.6400129795073611
 30
0.0
 11
-1.811584472660271
 21
-0.8513781428335249
 31
0.0
  0
LINE
  5
A663
330
1F
100
AcDbEntity
  8
AM_0
100
AcDbLine
 10
-8.565734863280269
 20
-0.7540637850760419
 30
0.0
 11
-1.599761962890269
 21
-0.9060715436934287
 31
0.0
  0
LINE
  5
A664
330
1F
100
AcDbEntity
  8
AM_0
100
AcDbLine
 10
-5.22610473633027
 20
-0.8269234895704471
 30
0.0
 11
-5.233673095700268
 21
-0.7767129540442426
 31
0.0
  0
ARC
  5
A665
330
1F
100
AcDbEntity
  8
AM_0
100
AcDbCircle
 10
-14.50000000000027
 20
0.0000000000001421
 30
0.0
 40
13.600000381469
100
AcDbArc
 50
347.858807703093
 51
349.3674897690415
  0
LINE
  5
A666
330
1F
100
AcDbEntity
  8
AM_0
100
AcDbLine
 10
-0.8030700683602702
 20
-0.8733849525450239
 30
0.0
 11
-0.7728881835902684
 21
-0.8734459280966291
 31
0.0
  0
LINE
  5
A667
330
1F
100
AcDbEntity
  8
AM_0
100
AcDbLine
 10
-2.195892333980239
 20
-4.837263941764746
 30
0.0
 11
-1.556243896480239
 21
-4.957018256187339
 31
0.0
  0
LINE
  5
A668
330
1F
100
AcDbEntity
  8
AM_0
100
AcDbLine
 10
-1.811584472660271
 20
-0.8513680696486289
 30
0.0
 11
-0.8030700683602702
 21
-0.8733710050581322
 31
0.0
  0
LINE
  5
A669
330
1F
100
AcDbEntity
  8
AM_0
100
AcDbLine
 10
-1.567871093750241
 20
-2.910296201705833
 30
0.0
 11
-1.566925048830242
 21
-2.909506201743937
 31
0.0
  0
LINE
  5
A66A
330
1F
100
AcDbEntity
  8
AM_0
100
AcDbLine
 10
-1.484527587890241
 20
-2.974058151244946
 30
0.0
 11
-1.500213623050242
 21
-4.771932959556437
 31
0.0
  0
LINE
  5
A66B
330
1F
100
AcDbEntity
  8
AM_0
100
AcDbLine
 10
-0.8810729980502429
 20
-4.777344584464941
 30
0.0
 11
-1.500213623050242
 21
-4.771942973136731
 31
0.0
  0
LINE
  5
A66C
330
1F
100
AcDbEntity
  8
AM_0
100
AcDbLine
 10
-1.803070068360241
 20
-5.623992323875341
 30
0.0
 11
-1.139251708980239
 21
-5.629790663719035
 31
0.0
  0
LINE
  5
A66D
330
1F
100
AcDbEntity
  8
AM_0
100
AcDbLine
 10
-1.200073242190242
 20
-2.841135859489327
 30
0.0
 11
-1.193176269530241
 21
-2.841197013854838
 31
0.0
  0
LINE
  5
A66E
330
1F
100
AcDbEntity
  8
AM_0
100
AcDbLine
 10
-1.484527587890241
 20
-2.974069356918235
 30
0.0
 11
-0.904113769530241
 21
-2.979135155677639
 31
0.0
  0
LINE
  5
A66F
330
1F
100
AcDbEntity
  8
AM_0
100
AcDbLine
 10
-1.20422363281024
 20
-2.86039376258833
 30
0.0
 11
-1.544433593750241
 21
-2.857403159141426
 31
0.0
  0
LINE
  5
A670
330
1F
100
AcDbEntity
  8
AM_0
100
AcDbLine
 10
-1.133514404300242
 20
-2.509307801723338
 30
0.0
 11
-1.133514404300271
 21
-0.9162291884421307
 31
0.0
  0
LINE
  5
A671
330
1F
100
AcDbEntity
  8
AM_0
100
AcDbLine
 10
-1.133514404300271
 20
-0.9162375926970298
 30
0.0
 11
-1.599731445310268
 21
-0.9060757756232362
 31
0.0
  0
LINE
  5
A672
330
1F
100
AcDbEntity
  8
AM_0
100
AcDbLine
 10
-1.133514404300271
 20
-0.8661803603171307
 30
0.0
 11
-1.133514404300271
 21
-0.9162291884421307
 31
0.0
  0
DIMENSION
  5
A839
330
1F
100
AcDbEntity
  8
AM_5
100
AcDbDimension
  2
*D5
 10
-43.00000000000027
 20
30.00000302655767
 30
0.0
 11
-21.50025888650745
 21
33.10000302655762
 31
0.0
 70
    32
  1
42
 51
359.9999999999998
  3
AM_JIS$0
100
AcDbAlignedDimension
 13
-0.0005177730147068
 23
0.0000000000001705
 33
0.0
 14
-43.0000000000003
 24
15.00000011920889
 34
0.0
 50
180.0
100
AcDbRotatedDimension
1001
GENIUS_GENDTOL_13
1000

1000
h7
1000

1040
0.0
1001
ACAD
1000
DSTYLE
1002
{
1070
   287
1070
     3
1070
    40
1040
1.0
1070
    42
1040
1.0
1070
    43
1040
12.0
1070
    48
1040
0.1
1070
    78
1070
     8
1070
   140
1040
3.2
1070
   176
1070
   256
1070
   177
1070
   256
1070
   271
1070
     1
1070
   272
1070
     3
1070
   275
1070
     0
1070
   284
1070
     0
1070
   289
1070
     3
1070
   340
1005
6B
1070
   371
1070
    -1
1070
   372
1070
    -1
1002
}
  0
DIMENSION
  5
A8F2
330
1F
100
AcDbEntity
  8
AM_5
100
AcDbDimension
  2
*D6
 10
-60.00000000000023
 20
-30.0000011831316
 30
0.0
 11
-30.00000000000024
 21
-26.9000011831316
 31
0.0
 70
    32
  1
<>
 51
359.9999999999998
  3
AM_JIS$0
100
AcDbAlignedDimension
 13
-0.00000000000027
 23
-0.0253601074217329
 33
0.0
 14
-60.00000000000023
 24
-13.60000598430615
 34
0.0
100
AcDbRotatedDimension
1001
GENIUS_GENDTOL_13
1000

1000
h7
1000

1040
0.0
1001
ACAD
1000
DSTYLE
1002
{
1070
   287
1070
     3
1070
    40
1040
1.0
1070
    42
1040
1.0
1070
    43
1040
12.0
1070
    48
1040
0.1
1070
    78
1070
     8
1070
   140
1040
3.2
1070
   176
1070
   256
1070
   177
1070
   256
1070
   271
1070
     1
1070
   272
1070
     3
1070
   275
1070
     0
1070
   284
1070
     0
1070
   289
1070
     3
1070
   340
1005
6B
1070
   371
1070
    -1
1070
   372
1070
    -1
1002
}
  0
DIMENSION
  5
A990
330
1F
100
AcDbEntity
  8
AM_5
100
AcDbDimension
  2
*D7
 10
-80.00003051758023
 20
-40.0000011831316
 30
0.0
 11
-40.00027414529746
 21
-36.9000011831316
 31
0.0
 70
    32
  1
<>
 51
359.9999999999998
  3
AM_JIS$0
100
AcDbAlignedDimension
 13
-0.0005177730147068
 23
0.0000000000001705
 33
0.0
 14
-80.00003051758023
 24
-15.99999988079019
 34
0.0
100
AcDbRotatedDimension
1001
GENIUS_GENDTOL_13
1000

1000
h7
1000

1040
0.0
1001
ACAD
1000
DSTYLE
1002
{
1070
   287
1070
     3
1070
    40
1040
1.0
1070
    42
1040
1.0
1070
    43
1040
12.0
1070
    48
1040
0.1
1070
    78
1070
     8
1070
   140
1040
3.2
1070
   176
1070
   256
1070
   177
1070
   256
1070
   271
1070
     1
1070
   272
1070
     3
1070
   275
1070
     0
1070
   284
1070
     0
1070
   289
1070
     3
1070
   340
1005
6B
1070
   371
1070
    -1
1070
   372
1070
    -1
1002
}
  0
DIMENSION
  5
AA1C
330
1F
100
AcDbEntity
  8
AM_5
100
AcDbDimension
  2
*D8
 10
-160.0000305175802
 20
-40.0000010786882
 30
0.0
 11
-120.0000307124744
 21
-36.9000010786882
 31
0.0
 70
    32
  1
<>
 51
359.9999999999998
  3
AM_JIS$0
100
AcDbAlignedDimension
 13
-80.00003090736873
 23
-16.00000017313159
 33
0.0
 14
-160.0000305175802
 24
-13.66149920621991
 34
0.0
100
AcDbRotatedDimension
1001
GENIUS_GENDTOL_13
1000

1000
h7
1000

1040
0.0
1001
ACAD
1000
DSTYLE
1002
{
1070
   287
1070
     3
1070
    40
1040
1.0
1070
    42
1040
1.0
1070
    43
1040
12.0
1070
    48
1040
0.1
1070
    78
1070
     8
1070
   140
1040
3.2
1070
   176
1070
   256
1070
   177
1070
   256
1070
   271
1070
     1
1070
   272
1070
     3
1070
   275
1070
     0
1070
   284
1070
     0
1070
   289
1070
     3
1070
   340
1005
6B
1070
   371
1070
    -1
1070
   372
1070
    -1
1002
}
  0
DIMENSION
  5
AAB1
330
1F
100
AcDbEntity
  8
AM_5
100
AcDbDimension
  2
*D9
 10
-160.0000305175802
 20
-50.0000011831316
 30
0.0
 11
-80.00027414529746
 21
-46.9000011831316
 31
0.0
 70
    32
  1
<>
 51
359.9999999999998
  3
AM_JIS$0
100
AcDbAlignedDimension
 13
-0.0005177730147068
 23
0.0000000000001705
 33
0.0
 14
-160.0000305175802
 24
-0.0000000000001421
 34
0.0
100
AcDbRotatedDimension
1001
GENIUS_GENDTOL_13
1000

1000
h7
1000

1040
0.0
1001
ACAD
1000
DSTYLE
1002
{
1070
   287
1070
     3
1070
    40
1040
1.0
1070
    42
1040
1.0
1070
    43
1040
12.0
1070
    48
1040
0.1
1070
    78
1070
     8
1070
   140
1040
3.2
1070
   176
1070
   256
1070
   177
1070
   256
1070
   271
1070
     1
1070
   272
1070
     3
1070
   275
1070
     0
1070
   284
1070
     0
1070
   289
1070
     3
1070
   340
1005
6B
1070
   371
1070
    -1
1070
   372
1070
    -1
1002
}
  0
DIMENSION
  5
AB58
330
1F
100
AcDbEntity
  8
AM_5
100
AcDbDimension
  2
*D10
 10
17.09475808007972
 20
-14.99999999999985
 30
0.0
 11
13.99475808007973
 21
0.0000000596045464
 31
0.0
 70
    32
  1
%%c<>
 51
359.9999999999998
  3
AM_JIS$0
100
AcDbAlignedDimension
 13
-15.00000000000031
 23
15.00000011920894
 33
0.0
 14
-15.00000065567206
 24
-14.99999999999984
 34
0.0
 50
90.0
100
AcDbRotatedDimension
1001
GENIUS_GENDTOL_13
1000

1000
h7
1000

1040
0.0
1001
ACAD
1000
DSTYLE
1002
{
1070
   287
1070
     3
1070
    40
1040
1.0
1070
    42
1040
1.0
1070
    43
1040
12.0
1070
    48
1040
0.1
1070
    78
1070
     8
1070
   140
1040
3.2
1070
   176
1070
   256
1070
   177
1070
   256
1070
   271
1070
     1
1070
   272
1070
     3
1070
   275
1070
     0
1070
   284
1070
     0
1070
   289
1070
     3
1070
   340
1005
6B
1070
   371
1070
    -1
1070
   372
1070
    -1
1002
}
  0
DIMENSION
  5
ABF6
330
1F
100
AcDbEntity
  8
AM_5
100
AcDbDimension
  2
*D11
 10
-177.7893991933602
 20
-15.99999511241933
 30
0.0
 11
-180.8893991933602
 21
0.0000034570691391
 31
0.0
 70
    32
  1
%%c<>
 51
359.9999999999998
  3
AM_JIS$0
100
AcDbAlignedDimension
 13
-157.0000305175802
 23
16.00000202655766
 33
0.0
 14
-156.9999694824202
 24
-15.99999511241934
 34
0.0
 50
270.0
100
AcDbRotatedDimension
1001
GENIUS_GENDTOL_13
1000

1000
h7
1000

1040
0.0
1001
ACAD
1000
DSTYLE
1002
{
1070
   287
1070
     3
1070
    40
1040
1.0
1070
    42
1040
1.0
1070
    43
1040
12.0
1070
    48
1040
0.1
1070
    78
1070
     8
1070
   140
1040
3.2
1070
   176
1070
   256
1070
   177
1070
   256
1070
   271
1070
     1
1070
   272
1070
     3
1070
   275
1070
     0
1070
   284
1070
     0
1070
   289
1070
     3
1070
   340
1005
6B
1070
   371
1070
    -1
1070
   372
1070
    -1
1002
}
  0
VIEWPORT
  5
110
330
101
100
AcDbEntity
 67
     1
  8
0
100
AcDbViewport
 10
420.5
 20
297.0
 30
0.0
 40
948.9782706766916
 41
628.452
 68
     1
 69
     1
1001
ACAD
1000
MVIEW
1002
{
1070
    16
1010
0.0
1020
0.0
1030
0.0
1010
0.0
1020
0.0
1030
1.0
1040
0.0
1040
628.452
1040
420.5
1040
297.0
1040
50.0
1040
0.0
1040
0.0
1070
     0
1070
   100
1070
     1
1070
     1
1070
     0
1070
     0
1070
     0
1070
     0
1040
0.0
1040
0.0
1040
0.0
1040
10.0
1040
10.0
1040
10.0
1040
10.0
1070
     0
1002
{
1002
}
1002
}
  0
ENDSEC
  0
SECTION
  2
OBJECTS
  0
DICTIONARY
  5
C
330
0
100
AcDbDictionary
  3
ACAD_GROUP
350
D
  3
ACAD_LAYOUT
350
1A
  3
ACAD_MLINESTYLE
350
17
  3
ACAD_PLOTSETTINGS
350
19
  3
ACAD_PLOTSTYLENAME
350
E
  3
ACDBVARIABLEDICTIONARY
350
34
  3
ACMDICTIONARY
350
43
  3
AMG
350
2B
  3
AMGSNAPSETTINGS
350
6E
  3
DWGPROPS
350
AEF5
  3
ACDBHEADERROUNDTRIPXREC
350
AF06
  0
DICTIONARY
  5
74
330
1F
100
AcDbDictionary
280
     1
  3
ACAD_INDEX
360
AEF7
  3
ACAD_LAYOUTSELFREF
360
AF29
  0
DICTIONARY
  5
AF2E
330
101
100
AcDbDictionary
280
     1
  3
ACAD_LAYOUTSELFREF
360
AF2F
  0
DICTIONARY
  5
D
102
{ACAD_REACTORS
330
C
102
}
330
C
100
AcDbDictionary
  0
DICTIONARY
  5
1A
102
{ACAD_REACTORS
330
C
102
}
330
C
100
AcDbDictionary
  0
DICTIONARY
  5
17
102
{ACAD_REACTORS
330
C
102
}
330
C
100
AcDbDictionary
  3
STANDARD
350
18
  0
DICTIONARY
  5
19
102
{ACAD_REACTORS
330
C
102
}
330
C
100
AcDbDictionary
  3
ASAMI
350
399D
  0
ACDBDICTIONARYWDFLT
  5
E
102
{ACAD_REACTORS
330
C
102
}
330
C
100
AcDbDictionary
281
     1
  3
Normal
350
F
100
AcDbDictionaryWithDefault
340
F
  0
DICTIONARY
  5
34
102
{ACAD_REACTORS
330
C
102
}
330
C
100
AcDbDictionary
  3
INDEXCTL
350
35
  3
SORTENTS
350
B5E
  0
DICTIONARY
  5
43
102
{ACAD_REACTORS
330
C
102
}
330
C
100
AcDbDictionary
  3
ACMSTDDICTIONARY
350
260
  0
DICTIONARY
  5
2B
102
{ACAD_REACTORS
330
C
102
}
330
C
100
AcDbDictionary
  3
ACMGSETTINGS
350
2C
  0
DICTIONARY
  5
6E
102
{ACAD_REACTORS
330
C
102
}
330
C
100
AcDbDictionary
  0
XRECORD
  5
AEF5
102
{ACAD_REACTORS
330
C
102
}
330
C
100
AcDbXrecord
  1
DWGPROPS COOKIE
  2

  3

  4

  6

  7

  8

  9

300
AmdtFileType=82
301
=
302
=
303
=
304
=
305
=
306
=
307
=
308
=
309
=
 40
0.9441877546296296
 41
2452802.716478761
 42
2453075.665474166
  1

 90
        1
  0
DICTIONARY
  5
AF06
102
{ACAD_REACTORS
330
C
102
}
330
C
100
AcDbDictionary
  3
TSTACKALIGN
350
AF07
  3
TSTACKSIZE
350
AF08
  3
HYPERLINKBASE
350
AF09
  3
STYLESHEET
350
AF0A
  3
LAYOUTDICT
350
AF0B
  3
PLOTSETDICT
350
AF0C
  3
PLOTSTYLNAMDICT
350
AF0D
  3
LWETCUNION
350
AF0E
  3
INSUNITS
350
AF0F
  3
CEPSNTYPE
350
AF10
  3
FINGERPRINTGUID
350
AF11
  3
VERSIONGUID
350
AF12
  3
PSVPSCALE
350
AF13
  3
DIMSTYLEDATA
350
AF14
  3
PUCSORTHOREF
350
AF15
  3
PUCSORTHOVIEW
350
AF16
  3
PUCSBASE
350
AF17
  3
PUCSORGTOP
350
AF18
  3
PUCSORGBOTTOM
350
AF19
  3
PUCSORGLEFT
350
AF1A
  3
PUCSORGRIGHT
350
AF1B
  3
PUCSORGFRONT
350
AF1C
  3
PUCSORGBACK
350
AF1D
  3
UCSORTHOREF
350
AF1E
  3
UCSORTHOVIEW
350
AF1F
  3
UCSBASE
350
AF20
  3
UCSORGTOP
350
AF21
  3
UCSORGBOTTOM
350
AF22
  3
UCSORGLEFT
350
AF23
  3
UCSORGRIGHT
350
AF24
  3
UCSORGFRONT
350
AF25
  3
UCSORGBACK
350
AF26
  0
DICTIONARY
  5
AEF7
102
{ACAD_REACTORS
330
74
102
}
330
74
100
AcDbDictionary
  3
*A1
350
AEF8
  0
XRECORD
  5
AF29
102
{ACAD_REACTORS
330
74
102
}
330
74
100
AcDbXrecord
340
1F
  0
XRECORD
  5
AF2F
102
{ACAD_REACTORS
330
AF2E
102
}
330
AF2E
100
AcDbXrecord
340
101
  0
MLINESTYLE
  5
18
102
{ACAD_REACTORS
330
17
102
}
330
17
100
AcDbMlineStyle
  2
STANDARD
 70
     0
  3

 62
   256
 51
90.0
 52
90.0
 71
     2
 49
0.5
 62
   256
  6
BYLAYER
 49
-0.5
 62
   256
  6
BYLAYER
  0
PLOTSETTINGS
  5
399D
102
{ACAD_REACTORS
330
19
102
}
330
19
100
AcDbPlotSettings
  1
asami
  2
RICOH imagio MF1540
  4
A4
  6

 40
5.831416606903076
 41
7.651742935180664
 42
4.90008544921875
 43
5.789077758789062
 44
296.9683227539062
 45
209.9733276367187
 46
0.0
 47
0.0
 48
-156.6707931774246
 49
-74.57609991074048
140
58.59973180214831
141
60.61068161925596
142
1.0
143
1.095343097833084
 70
  1712
 72
     1
 73
     1
 74
     4
  7
asami.ctb
 75
     0
147
0.9129559514076438
148
156.6707931774246
149
74.57609991074048
  0
ACDBPLACEHOLDER
  5
F
102
{ACAD_REACTORS
330
E
102
}
330
E
100
AcDbPlaceHolder
280
     0
  0
DICTIONARYVAR
  5
35
102
{ACAD_REACTORS
330
34
102
}
330
34
100
DictionaryVariables
280
     0
  1
1
  0
DICTIONARYVAR
  5
B5E
102
{ACAD_REACTORS
330
34
102
}
330
34
100
DictionaryVariables
280
     0
  1
96
  0
DICTIONARY
  5
260
102
{ACAD_REACTORS
330
43
102
}
330
43
100
AcDbDictionary
  0
DICTIONARY
  5
2C
102
{ACAD_REACTORS
330
2B
102
}
330
2B
100
AcDbDictionary
  3
DWGSETTINGS
350
2D
  0
XRECORD
  5
AF07
102
{ACAD_REACTORS
330
AF06
102
}
330
AF06
100
AcDbXrecord
 90
        1
  0
XRECORD
  5
AF08
102
{ACAD_REACTORS
330
AF06
102
}
330
AF06
100
AcDbXrecord
 90
       70
  0
XRECORD
  5
AF09
102
{ACAD_REACTORS
330
AF06
102
}
330
AF06
100
AcDbXrecord
  1

  0
XRECORD
  5
AF0A
102
{ACAD_REACTORS
330
AF06
102
}
330
AF06
100
AcDbXrecord
  1
ASAMI.ctb
  0
XRECORD
  5
AF0B
102
{ACAD_REACTORS
330
AF06
102
}
330
AF06
100
AcDbXrecord
340
1A
  0
XRECORD
  5
AF0C
102
{ACAD_REACTORS
330
AF06
102
}
330
AF06
100
AcDbXrecord
340
19
  0
XRECORD
  5
AF0D
102
{ACAD_REACTORS
330
AF06
102
}
330
AF06
100
AcDbXrecord
340
E
  0
XRECORD
  5
AF0E
102
{ACAD_REACTORS
330
AF06
102
}
330
AF06
100
AcDbXrecord
 90
    10781
  0
XRECORD
  5
AF0F
102
{ACAD_REACTORS
330
AF06
102
}
330
AF06
100
AcDbXrecord
 90
        4
  0
XRECORD
  5
AF10
102
{ACAD_REACTORS
330
AF06
102
}
330
AF06
100
AcDbXrecord
 90
        0
  0
XRECORD
  5
AF11
102
{ACAD_REACTORS
330
AF06
102
}
330
AF06
100
AcDbXrecord
  1
{AFB28963-8C59-40AE-9337-C84526B81ACE}
  0
XRECORD
  5
AF12
102
{ACAD_REACTORS
330
AF06
102
}
330
AF06
100
AcDbXrecord
  1
{938E6574-580B-4C13-BCD1-CD27E8441990}
  0
XRECORD
  5
AF13
102
{ACAD_REACTORS
330
AF06
102
}
330
AF06
100
AcDbXrecord
 40
0.0
  0
XRECORD
  5
AF14
102
{ACAD_REACTORS
330
AF06
102
}
330
AF06
100
AcDbXrecord
1000
DSTYLE
1002
{
1070
    79
 70
     2
1070
   341
340
59
1070
   342
340
59
1070
   371
 70
    -1
1070
   372
 70
    -1
1002
}
  0
XRECORD
  5
AF15
102
{ACAD_REACTORS
330
AF06
102
}
330
AF06
100
AcDbXrecord
340
0
  0
XRECORD
  5
AF16
102
{ACAD_REACTORS
330
AF06
102
}
330
AF06
100
AcDbXrecord
 70
     0
  0
XRECORD
  5
AF17
102
{ACAD_REACTORS
330
AF06
102
}
330
AF06
100
AcDbXrecord
340
0
  0
XRECORD
  5
AF18
102
{ACAD_REACTORS
330
AF06
102
}
330
AF06
100
AcDbXrecord
 10
0.0
 20
0.0
 30
0.0
  0
XRECORD
  5
AF19
102
{ACAD_REACTORS
330
AF06
102
}
330
AF06
100
AcDbXrecord
 10
0.0
 20
0.0
 30
0.0
  0
XRECORD
  5
AF1A
102
{ACAD_REACTORS
330
AF06
102
}
330
AF06
100
AcDbXrecord
 10
0.0
 20
0.0
 30
0.0
  0
XRECORD
  5
AF1B
102
{ACAD_REACTORS
330
AF06
102
}
330
AF06
100
AcDbXrecord
 10
0.0
 20
0.0
 30
0.0
  0
XRECORD
  5
AF1C
102
{ACAD_REACTORS
330
AF06
102
}
330
AF06
100
AcDbXrecord
 10
0.0
 20
0.0
 30
0.0
  0
XRECORD
  5
AF1D
102
{ACAD_REACTORS
330
AF06
102
}
330
AF06
100
AcDbXrecord
 10
0.0
 20
0.0
 30
0.0
  0
XRECORD
  5
AF1E
102
{ACAD_REACTORS
330
AF06
102
}
330
AF06
100
AcDbXrecord
340
0
  0
XRECORD
  5
AF1F
102
{ACAD_REACTORS
330
AF06
102
}
330
AF06
100
AcDbXrecord
 70
     0
  0
XRECORD
  5
AF20
102
{ACAD_REACTORS
330
AF06
102
}
330
AF06
100
AcDbXrecord
340
0
  0
XRECORD
  5
AF21
102
{ACAD_REACTORS
330
AF06
102
}
330
AF06
100
AcDbXrecord
 10
0.0
 20
0.0
 30
0.0
  0
XRECORD
  5
AF22
102
{ACAD_REACTORS
330
AF06
102
}
330
AF06
100
AcDbXrecord
 10
0.0
 20
0.0
 30
0.0
  0
XRECORD
  5
AF23
102
{ACAD_REACTORS
330
AF06
102
}
330
AF06
100
AcDbXrecord
 10
0.0
 20
0.0
 30
0.0
  0
XRECORD
  5
AF24
102
{ACAD_REACTORS
330
AF06
102
}
330
AF06
100
AcDbXrecord
 10
0.0
 20
0.0
 30
0.0
  0
XRECORD
  5
AF25
102
{ACAD_REACTORS
330
AF06
102
}
330
AF06
100
AcDbXrecord
 10
0.0
 20
0.0
 30
0.0
  0
XRECORD
  5
AF26
102
{ACAD_REACTORS
330
AF06
102
}
330
AF06
100
AcDbXrecord
 10
0.0
 20
0.0
 30
0.0
  0
LAYER_INDEX
  5
AEF8
102
{ACAD_REACTORS
330
AEF7
102
}
330
AEF7
100
AcDbIndex
 40
2453152.411016516
100
AcDbLayerIndex
  8
0
360
AEF9
 90
        0
  8
AM_0
360
AEFA
 90
      327
  8
AM_5
360
AEFB
 90
        7
  8
AM_7
360
AEFC
 90
        1
  8
AM_6
360
AEFD
 90
        1
  8
Defpoints
360
AEFE
 90
        0
  8
AM_3
360
AEFF
 90
        0
  8
AM_11
360
AF00
 90
        4
  8
PV0001_1
360
AF01
 90
        0
  8
2
360
AF02
 90
        0
  8
1
360
AF03
 90
        0
  8
AM_4
360
AF04
 90
        0
  0
XRECORD
  5
2D
102
{ACAD_REACTORS
330
2C
102
}
330
2C
100
AcDbXrecord
  1
VERSION
140
15.0
  1
PRODUCT
  2
AutoCAD Mechanical 2000
  0
IDBUFFER
  5
AEF9
330
0
100
AcDbIdBuffer
  0
IDBUFFER
  5
AEFA
330
0
100
AcDbIdBuffer
330
A614
330
A615
330
A616
330
A617
330
A618
330
A619
330
A61A
330
A61B
330
A61C
330
A61D
330
A61E
330
A61F
330
A620
330
A621
330
A622
330
A623
330
A624
330
A625
330
A626
330
A627
330
A628
330
A629
330
A62A
330
A62B
330
A62C
330
A62D
330
A62E
330
A62F
330
A630
330
A631
330
A632
330
A633
330
A634
330
A635
330
A636
330
A637
330
A638
330
A639
330
A63A
330
A63B
330
A63C
330
A63D
330
A63E
330
A63F
330
A640
330
A641
330
A642
330
A643
330
A644
330
A645
330
A646
330
A647
330
A648
330
A649
330
A64A
330
A64B
330
A64C
330
A64D
330
A64E
330
A64F
330
A650
330
A651
330
A652
330
A653
330
A654
330
A655
330
A656
330
A657
330
A658
330
A659
330
A662
330
A663
330
A664
330
A665
330
A666
330
A667
330
A668
330
A669
330
A66A
330
A66B
330
A66C
330
A66D
330
A66E
330
A66F
330
A670
330
A671
330
A672
330
A468
330
A469
330
A46A
330
A480
330
A481
330
A482
330
A483
330
A484
330
A485
330
A486
330
A487
330
A488
330
A489
330
A48A
330
A48B
330
A48C
330
A48D
330
A48E
330
A48F
330
A490
330
A491
330
A492
330
A493
330
A494
330
A495
330
A496
330
A497
330
A498
330
A499
330
A49A
330
A49B
330
A49C
330
A49D
330
A49E
330
A49F
330
A4A0
330
A4A1
330
A4C2
330
A4C3
330
A4C4
330
A4C5
330
A4C6
330
A4C7
330
A4C8
330
A4C9
330
A4CF
330
A4E0
330
A4E1
330
A4E2
330
A4E3
330
A4E4
330
A4E5
330
A4E6
330
A4E7
330
A4E8
330
A4E9
330
A4EA
330
A4EB
330
A4EC
330
A4ED
330
A4EE
330
A4EF
330
A4F0
330
A4F1
330
A4F2
330
A4F3
330
A4F4
330
A4F5
330
A4F6
330
A4F7
330
A502
330
A503
330
A504
330
A505
330
A506
330
A507
330
A508
330
A509
330
A50A
330
A50B
330
A50C
330
A50D
330
A50E
330
A50F
330
A510
330
A511
330
A512
330
A513
330
A514
330
A515
330
A520
330
A521
330
A522
330
A523
330
A524
330
A525
330
A526
330
A527
330
A528
330
A529
330
A52A
330
A52B
330
A52C
330
A52D
330
A52E
330
A52F
330
A530
330
A531
330
A532
330
A533
330
A534
330
A535
330
A536
330
A537
330
A538
330
A539
330
A53A
330
A53B
330
A53C
330
A53D
330
A53E
330
A53F
330
A540
330
A541
330
A542
330
A543
330
A544
330
A545
330
A546
330
A547
330
A569
330
A56A
330
A56B
330
A56C
330
A56D
330
A56E
330
A56F
330
A570
330
A571
330
A572
330
A573
330
A574
330
A575
330
A576
330
A577
330
A578
330
A579
330
A57A
330
A57B
330
A57C
330
A57D
330
A57E
330
A596
330
A597
330
A598
330
A599
330
A59A
330
A59B
330
A5A9
330
A5AA
330
A5AB
330
A5AC
330
A5AD
330
A5AE
330
A5AF
330
A5B0
330
A5B1
330
A5B2
330
A5B3
330
A5B4
330
A5B5
330
A5B6
330
A5B7
330
A5B8
330
A5B9
330
A5BA
330
A5BF
330
A5C0
330
A5C1
330
A5C2
330
A5CD
330
A5CF
330
A5D0
330
A5D1
330
A5D2
330
A5D4
330
A5D5
330
A5D6
330
A5D7
330
A5DC
330
A5DD
330
A5DE
330
A5DF
330
A5E0
330
A5E1
330
A5E2
330
A5E3
330
A5E4
330
A5E6
330
A5E7
330
A5E8
330
A5EB
330
A5EC
330
A5EE
330
A5EF
330
A5F0
330
A5F1
330
A5F2
330
A5F3
330
A5F4
330
A5F5
330
A5F6
330
A5F7
330
A5F8
330
A5F9
330
A5FA
330
A5FB
330
A5FC
330
A5FD
330
A5FE
330
A5FF
330
A600
330
A601
330
A602
330
A603
330
A605
330
A606
330
A607
330
A608
330
A609
330
A60A
330
A60B
330
A60C
330
A60D
330
A60E
330
A60F
330
A610
330
A611
330
A612
330
A613
  0
IDBUFFER
  5
AEFB
330
0
100
AcDbIdBuffer
330
A839
330
A8F2
330
A990
330
AA1C
330
AAB1
330
AB58
330
ABF6
  0
IDBUFFER
  5
AEFC
330
0
100
AcDbIdBuffer
330
A5BE
  0
IDBUFFER
  5
AEFD
330
0
100
AcDbIdBuffer
330
388D
  0
IDBUFFER
  5
AEFE
330
0
100
AcDbIdBuffer
  0
IDBUFFER
  5
AEFF
330
0
100
AcDbIdBuffer
  0
IDBUFFER
  5
AF00
330
0
100
AcDbIdBuffer
330
A5BD
330
A5EA
330
A5ED
330
A604
  0
IDBUFFER
  5
AF01
330
0
100
AcDbIdBuffer
  0
IDBUFFER
  5
AF02
330
0
100
AcDbIdBuffer
  0
IDBUFFER
  5
AF03
330
0
100
AcDbIdBuffer
  0
IDBUFFER
  5
AF04
330
0
100
AcDbIdBuffer
  0
ENDSEC
  0
EOF
