  0
SECTION
  2
HEADER
  9
$ACADVER
  1
AC1014
  9
$ACADMAINTVER
 70
     9
  9
$DWGCODEPAGE
  3
ANSI_932
  9
$INSBASE
 10
0.0
 20
0.0
 30
0.0
  9
$EXTMIN
 10
-374.4129864273132
 20
-78.29670633162637
 30
-0.00000001
  9
$EXTMAX
 10
22.37714338794464
 20
42.58781371033186
 30
0.00000001
  9
$LIMMIN
 10
-387.4176341399163
 20
-153.4410304134782
  9
$LIMMAX
 10
113.3442710163885
 20
116.4141760360799
  9
$ORTHOMODE
 70
     0
  9
$REGENMODE
 70
     1
  9
$FILLMODE
 70
     1
  9
$QTEXTMODE
 70
     0
  9
$MIRRTEXT
 70
     0
  9
$DRAGMODE
 70
     2
  9
$LTSCALE
 40
1.0
  9
$OSMODE
 70
    55
  9
$ATTMODE
 70
     1
  9
$TEXTSIZE
 40
2.5
  9
$TRACEWID
 40
1.0
  9
$TEXTSTYLE
  7
STANDARD
  9
$CLAYER
  8
AM_0
  9
$CELTYPE
  6
BYLAYER
  9
$CECOLOR
 62
   256
  9
$CELTSCALE
 40
1.0
  9
$DELOBJ
 70
     1
  9
$DISPSILH
 70
     0
  9
$DIMSCALE
 40
0.5
  9
$DIMASZ
 40
2.5
  9
$DIMEXO
 40
1.0
  9
$DIMDLI
 40
12.0
  9
$DIMRND
 40
0.0
  9
$DIMDLE
 40
0.0
  9
$DIMEXE
 40
1.0
  9
$DIMTP
 40
0.1
  9
$DIMTM
 40
0.1
  9
$DIMTXT
 40
3.2
  9
$DIMCEN
 40
0.0
  9
$DIMTSZ
 40
0.0
  9
$DIMTOL
 70
     0
  9
$DIMLIM
 70
     0
  9
$DIMTIH
 70
     0
  9
$DIMTOH
 70
     0
  9
$DIMSE1
 70
     0
  9
$DIMSE2
 70
     0
  9
$DIMTAD
 70
     3
  9
$DIMZIN
 70
     8
  9
$DIMBLK
  1
OPEN30
  9
$DIMASO
 70
     1
  9
$DIMSHO
 70
     1
  9
$DIMPOST
  1

  9
$DIMAPOST
  1
"
  9
$DIMALT
 70
     0
  9
$DIMALTD
 70
     2
  9
$DIMALTF
 40
0.0393701
  9
$DIMLFAC
 40
1.0
  9
$DIMTOFL
 70
     1
  9
$DIMTVP
 40
0.0
  9
$DIMTIX
 70
     0
  9
$DIMSOXD
 70
     0
  9
$DIMSAH
 70
     0
  9
$DIMBLK1
  1

  9
$DIMBLK2
  1

  9
$DIMSTYLE
  2
AM_JIS
  9
$DIMCLRD
 70
   256
  9
$DIMCLRE
 70
   256
  9
$DIMCLRT
 70
     2
  9
$DIMTFAC
 40
0.71
  9
$DIMGAP
 40
1.5
  9
$DIMJUST
 70
     0
  9
$DIMSD1
 70
     0
  9
$DIMSD2
 70
     0
  9
$DIMTOLJ
 70
     0
  9
$DIMTZIN
 70
     0
  9
$DIMALTZ
 70
     0
  9
$DIMALTTZ
 70
     0
  9
$DIMFIT
 70
     3
  9
$DIMUPT
 70
     0
  9
$DIMUNIT
 70
     2
  9
$DIMDEC
 70
     3
  9
$DIMTDEC
 70
     3
  9
$DIMALTU
 70
     2
  9
$DIMALTTD
 70
     2
  9
$DIMTXSTY
  7
ASAMI
  9
$DIMAUNIT
 70
     0
  9
$LUNITS
 70
     2
  9
$LUPREC
 70
     2
  9
$SKETCHINC
 40
1.0
  9
$FILLETRAD
 40
0.4
  9
$AUNITS
 70
     0
  9
$AUPREC
 70
     0
  9
$MENU
  1
.
  9
$ELEVATION
 40
0.0
  9
$PELEVATION
 40
0.0
  9
$THICKNESS
 40
0.0
  9
$LIMCHECK
 70
     1
  9
$BLIPMODE
 70
     0
  9
$CHAMFERA
 40
1.0
  9
$CHAMFERB
 40
1.0
  9
$CHAMFERC
 40
20.0
  9
$CHAMFERD
 40
0.0
  9
$SKPOLY
 70
     0
  9
$TDCREATE
 40
2452802.716478761
  9
$TDUPDATE
 40
2453152.416725393
  9
$TDINDWG
 40
0.9844142130
  9
$TDUSRTIMER
 40
0.9844142130
  9
$USRTIMER
 70
     1
  9
$ANGBASE
 50
0.0
  9
$ANGDIR
 70
     0
  9
$PDMODE
 70
     0
  9
$PDSIZE
 40
0.0
  9
$PLINEWID
 40
0.0
  9
$COORDS
 70
     1
  9
$SPLFRAME
 70
     0
  9
$SPLINETYPE
 70
     6
  9
$SPLINESEGS
 70
     8
  9
$ATTDIA
 70
     1
  9
$ATTREQ
 70
     1
  9
$HANDLING
 70
 12289
  9
$HANDSEED
  5
C451
  9
$SURFTAB1
 70
     6
  9
$SURFTAB2
 70
     6
  9
$SURFTYPE
 70
     6
  9
$SURFU
 70
     6
  9
$SURFV
 70
     6
  9
$UCSNAME
  2

  9
$UCSORG
 10
-0.0000000000002682
 20
0.000000000000161
 30
0.0
  9
$UCSXDIR
 10
1.0
 20
0.000000000000002
 30
0.0
  9
$UCSYDIR
 10
-0.000000000000002
 20
1.0
 30
0.0
  9
$PUCSNAME
  2

  9
$PUCSORG
 10
0.0
 20
0.0
 30
0.0
  9
$PUCSXDIR
 10
1.0
 20
0.0
 30
0.0
  9
$PUCSYDIR
 10
0.0
 20
1.0
 30
0.0
  9
$USERI1
 70
     0
  9
$USERI2
 70
     0
  9
$USERI3
 70
     0
  9
$USERI4
 70
     0
  9
$USERI5
 70
     0
  9
$USERR1
 40
0.0
  9
$USERR2
 40
0.0
  9
$USERR3
 40
0.0
  9
$USERR4
 40
0.0
  9
$USERR5
 40
0.0
  9
$WORLDVIEW
 70
     1
  9
$SHADEDGE
 70
     3
  9
$SHADEDIF
 70
    70
  9
$TILEMODE
 70
     1
  9
$MAXACTVP
 70
    64
  9
$PINSBASE
 10
0.0
 20
0.0
 30
0.0
  9
$PLIMCHECK
 70
     0
  9
$PEXTMIN
 10
1.000000000000000E+20
 20
1.000000000000000E+20
 30
1.000000000000000E+20
  9
$PEXTMAX
 10
-1.000000000000000E+20
 20
-1.000000000000000E+20
 30
-1.000000000000000E+20
  9
$PLIMMIN
 10
0.0
 20
0.0
  9
$PLIMMAX
 10
841.0
 20
594.0
  9
$UNITMODE
 70
     0
  9
$VISRETAIN
 70
     1
  9
$PLINEGEN
 70
     0
  9
$PSLTSCALE
 70
     0
  9
$TREEDEPTH
 70
  3020
  9
$PICKSTYLE
 70
     0
  9
$CMLSTYLE
  2
STANDARD
  9
$CMLJUST
 70
     0
  9
$CMLSCALE
 40
20.0
  9
$PROXYGRAPHICS
 70
     1
  9
$MEASUREMENT
 70
     1
  0
ENDSEC
  0
SECTION
  2
CLASSES
  0
CLASS
  1
ACDBDICTIONARYWDFLT
  2
AcDbDictionaryWithDefault
  3
AutoCAD 2000
 90
        0
280
     0
281
     0
  0
CLASS
  1
ACDBPLACEHOLDER
  2
AcDbPlaceHolder
  3
AutoCAD 2000
 90
        0
280
     0
281
     0
  0
CLASS
  1
LAYOUT
  2
AcDbLayout
  3
AutoCAD 2000
 90
        0
280
     0
281
     0
  0
CLASS
  1
AMGSETTINGSOBJ
  2
AmgSettingsObj
  3
"AcadM|Product Description: AutoCAD Mechanical 2000|Company: Autodesk"
 90
        0
280
     0
281
     0
  0
CLASS
  1
ACME_DOCUMENT
  2
AcMeDbDoc
  3
AcMeServices
 90
        0
280
     0
281
     0
  0
CLASS
  1
ACMESCOPE
  2
AcMeScope
  3
AcMeServices
 90
        0
280
     0
281
     0
  0
CLASS
  1
ACMECOMMANDHISTORY
  2
AcMeCommandHistory
  3
AcMeServices
 90
        0
280
     0
281
     0
  0
CLASS
  1
DICTIONARYVAR
  2
AcDbDictionaryVar
  3
AutoCAD 2000
 90
        0
280
     0
281
     0
  0
CLASS
  1
ACIMSYSVARMAN
  2
AcImSysVarManager
  3
AcMeServices
 90
        0
280
     0
281
     0
  0
CLASS
  1
ACIMREALSYSVAR
  2
AcImRealSysVar
  3
AcMeServices
 90
        0
280
     0
281
     0
  0
CLASS
  1
ACIMINTSYSVAR
  2
AcImIntSysVar
  3
AcMeServices
 90
        0
280
     0
281
     0
  0
CLASS
  1
ACMEDRAWINGMAN
  2
AcMeDrawingMan
  3
AcMeServices
 90
        0
280
     0
281
     0
  0
CLASS
  1
ACMEVIEW
  2
AcMeView
  3
AcMeServices
 90
        0
280
     0
281
     0
  0
CLASS
  1
ACDBENTITYCACHE
  2
AcMeEntityCache
  3
AcMeServices
 90
        0
280
     0
281
     0
  0
CLASS
  1
GSMANAGER
  2
AcMeGSManager
  3
AcMeServices
 90
        0
280
     0
281
     0
  0
CLASS
  1
AmdtInternalReactor
  2
AmdtInternalReactor
  3
AcMeServices
 90
        0
280
     0
281
     0
  0
CLASS
  1
ACMESTATEMGR
  2
AcMeStateMgr
  3
AcMeServices
 90
        0
280
     0
281
     0
  0
CLASS
  1
ACME_DATABASE
  2
AcMeDbDatabase
  3
AcMeServices
 90
        0
280
     0
281
     0
  0
CLASS
  1
ACRFINSADJUSTERMGR
  2
AcRfInsAdjusterMgr
  3
AcMeServices
 90
        0
280
     0
281
     0
  0
CLASS
  1
ACMDATADICTIONARY
  2
AcmDataDictionary
  3
"AcmSymBB|Product Description: AutoCAD Mechanical 2000|Company: Autodesk"
 90
        0
280
     0
281
     0
  0
CLASS
  1
ACMDATAENTRYBLOCK
  2
AcmDataEntryBlock
  3
"AcmSymBB|Product Description: AutoCAD Mechanical 2000|Company: Autodesk"
 90
        0
280
     0
281
     0
  0
CLASS
  1
AMGOBJPROPCFG
  2
AmgObjPropCfg
  3
"AmgLay|Product Description: AutoCAD Mechanical 2000|Company: Autodesk"
 90
        1
280
     0
281
     0
  0
CLASS
  1
ACAMGFILTERDAT
  2
AcAmgFilterDat
  3
"AcadM|Product Description: AutoCAD Mechanical 2000|Company: Autodesk"
 90
        0
280
     0
281
     0
  0
CLASS
  1
LAYER_INDEX
  2
AcDbLayerIndex
  3
AutoCAD 2000
 90
        0
280
     0
281
     0
  0
CLASS
  1
IDBUFFER
  2
AcDbIdBuffer
  3
AutoCAD 2000
 90
        0
280
     0
281
     0
  0
CLASS
  1
ACIMSTRSYSVAR
  2
AcImStrSysVar
  3
AcMeServices
 90
        0
280
     0
281
     0
  0
CLASS
  1
ACMSTANDARDJIS
  2
AcmStandardJIS
  3
"AcmSymBB|Product Description: AutoCAD Mechanical 2000|Company: Autodesk"
 90
        0
280
     0
281
     0
  0
CLASS
  1
ACMSURFSTANDARDJIS
  2
AcmSurfTextStdJIS
  3
"AcmSymBB|Product Description: AutoCAD Mechanical 2000|Company: Autodesk"
 90
        0
280
     0
281
     0
  0
CLASS
  1
ACMFCFSTANDARDJIS
  2
AcmFCFStdJIS
  3
"AcmSymBB|Product Description: AutoCAD Mechanical 2000|Company: Autodesk"
 90
        0
280
     0
281
     0
  0
CLASS
  1
ACMWELDSTANDARDJIS
  2
AcmWeldingStdJIS
  3
"AcmSymBB|Product Description: AutoCAD Mechanical 2000|Company: Autodesk"
 90
        0
280
     0
281
     0
  0
CLASS
  1
ACMIDSTANDARDJIS
  2
AcmIdStdJIS
  3
"AcmSymBB|Product Description: AutoCAD Mechanical 2000|Company: Autodesk"
 90
        0
280
     0
281
     0
  0
CLASS
  1
ACMDATUMSTANDARDJIS
  2
AcmDatumStdJIS
  3
"AcmSymBB|Product Description: AutoCAD Mechanical 2000|Company: Autodesk"
 90
        0
280
     0
281
     0
  0
CLASS
  1
ACMBOMSTANDARDJIS
  2
AcmBOMStdJIS
  3
"AcmSymBB|Product Description: AutoCAD Mechanical 2000|Company: Autodesk"
 90
        0
280
     0
281
     0
  0
CLASS
  1
ACMSTANDARDANSI
  2
AcmStandardANSI
  3
"AcmSymBB|Product Description: AutoCAD Mechanical 2000|Company: Autodesk"
 90
        0
280
     0
281
     0
  0
CLASS
  1
ACMSURFSTANDARDANSI
  2
AcmSurfTextStdANSI
  3
"AcmSymBB|Product Description: AutoCAD Mechanical 2000|Company: Autodesk"
 90
        0
280
     0
281
     0
  0
CLASS
  1
ACMFCFSTANDARDANSI
  2
AcmFCFStdANSI
  3
"AcmSymBB|Product Description: AutoCAD Mechanical 2000|Company: Autodesk"
 90
        0
280
     0
281
     0
  0
CLASS
  1
ACMWELDSTANDARDANSI
  2
AcmWeldingStdANSI
  3
"AcmSymBB|Product Description: AutoCAD Mechanical 2000|Company: Autodesk"
 90
        0
280
     0
281
     0
  0
CLASS
  1
ACMIDSTANDARDANSI
  2
AcmIdStdANSI
  3
"AcmSymBB|Product Description: AutoCAD Mechanical 2000|Company: Autodesk"
 90
        0
280
     0
281
     0
  0
CLASS
  1
ACMDATUMSTANDARDANSI
  2
AcmDatumStdANSI
  3
"AcmSymBB|Product Description: AutoCAD Mechanical 2000|Company: Autodesk"
 90
        0
280
     0
281
     0
  0
CLASS
  1
ACMBOMSTANDARDANSI
  2
AcmBOMStdANSI
  3
"AcmSymBB|Product Description: AutoCAD Mechanical 2000|Company: Autodesk"
 90
        0
280
     0
281
     0
  0
CLASS
  1
ACMSTANDARDBSI
  2
AcmStandardBSI
  3
"AcmSymBB|Product Description: AutoCAD Mechanical 2000|Company: Autodesk"
 90
        0
280
     0
281
     0
  0
CLASS
  1
ACMSURFSTANDARDBSI
  2
AcmSurfTextStdBSI
  3
"AcmSymBB|Product Description: AutoCAD Mechanical 2000|Company: Autodesk"
 90
        0
280
     0
281
     0
  0
CLASS
  1
ACMFCFSTANDARDBSI
  2
AcmFCFStdBSI
  3
"AcmSymBB|Product Description: AutoCAD Mechanical 2000|Company: Autodesk"
 90
        0
280
     0
281
     0
  0
CLASS
  1
ACMWELDSTANDARDBSI
  2
AcmWeldingStdBSI
  3
"AcmSymBB|Product Description: AutoCAD Mechanical 2000|Company: Autodesk"
 90
        0
280
     0
281
     0
  0
CLASS
  1
ACMIDSTANDARDBSI
  2
AcmIdStdBSI
  3
"AcmSymBB|Product Description: AutoCAD Mechanical 2000|Company: Autodesk"
 90
        0
280
     0
281
     0
  0
CLASS
  1
ACMDATUMSTANDARDBSI
  2
AcmDatumStdBSI
  3
"AcmSymBB|Product Description: AutoCAD Mechanical 2000|Company: Autodesk"
 90
        0
280
     0
281
     0
  0
CLASS
  1
ACMBOMSTANDARDBSI
  2
AcmBOMStdBSI
  3
"AcmSymBB|Product Description: AutoCAD Mechanical 2000|Company: Autodesk"
 90
        0
280
     0
281
     0
  0
CLASS
  1
STDPART2D
  2
AmgStdPart
  3
"AmgStdPart|Product Description: AutoCAD Mechanical 2000|Company: Autodesk"
 90
     1023
280
     0
281
     1
  0
CLASS
  1
PLOTSETTINGS
  2
AcDbPlotSettings
  3
AutoCAD 2000
 90
        0
280
     0
281
     0
  0
CLASS
  1
AMDTNOTE
  2
AmdtNote
  3
"AcmSymBB|Product Description: AutoCAD Mechanical 2000|Company: Autodesk"
 90
     1023
280
     0
281
     1
  0
CLASS
  1
LONG_TRANSACTION
  2
AcDbLongTransaction
  3
AutoCAD 2000
 90
        0
280
     0
281
     0
  0
CLASS
  1
LWPOLYLINE
  2
AcDbPolyline
  3
AutoCAD 2000
 90
        0
280
     0
281
     1
  0
CLASS
  1
HATCH
  2
AcDbHatch
  3
AutoCAD 2000
 90
        0
280
     0
281
     1
  0
CLASS
  1
XRECORD
  2
AcDbXrecord
  3
AutoCAD 2000
 90
        0
280
     0
281
     0
  0
ENDSEC
  0
SECTION
  2
TABLES
  0
TABLE
  2
VPORT
  5
8
330
0
100
AcDbSymbolTable
 70
     3
  0
VPORT
  5
C3F0
330
8
100
AcDbSymbolTableRecord
100
AcDbViewportTableRecord
  2
*ACTIVE
 70
     0
 10
0.0
 20
0.0
 11
1.0
 21
1.0
 12
-190.4011757615076
 22
-13.53835960638298
 13
0.0
 23
0.0
 14
2.5
 24
2.5
 15
10.0
 25
10.0
 16
0.0
 26
0.0
 36
1.0
 17
0.0
 27
0.0
 37
0.0
 40
303.8521327962544
 41
1.56570841889117
 42
50.0
 43
0.0
 44
0.0
 50
0.0
 51
0.0
 71
     0
 72
   100
 73
     1
 74
     3
 75
     0
 76
     0
 77
     0
 78
     0
  0
ENDTAB
  0
TABLE
  2
LTYPE
  5
5
330
0
100
AcDbSymbolTable
 70
    12
  0
LTYPE
  5
14
330
5
100
AcDbSymbolTableRecord
100
AcDbLinetypeTableRecord
  2
BYBLOCK
 70
     0
  3

 72
    65
 73
     0
 40
0.0
  0
LTYPE
  5
15
330
5
100
AcDbSymbolTableRecord
100
AcDbLinetypeTableRecord
  2
BYLAYER
 70
     0
  3

 72
    65
 73
     0
 40
0.0
  0
LTYPE
  5
16
330
5
100
AcDbSymbolTableRecord
100
AcDbLinetypeTableRecord
  2
CONTINUOUS
 70
     0
  3
Solid line
 72
    65
 73
     0
 40
0.0
  0
LTYPE
  5
4B
330
5
100
AcDbSymbolTableRecord
100
AcDbLinetypeTableRecord
  2
AM_ISO02W050
 70
     0
  3
__ __ __ __ __ __ __ __ __ __ __ __ __ __ __
 72
    65
 73
     2
 40
7.5
 49
6.0
 74
     0
 49
-1.5
 74
     0
  0
LTYPE
  5
4C
330
5
100
AcDbSymbolTableRecord
100
AcDbLinetypeTableRecord
  2
AM_ISO08W050
 70
     0
  3
____ . ____ . ____ . ____ . ____ . ____ . ____
 72
    65
 73
     4
 40
18.0
 49
12.0
 74
     0
 49
-1.5
 74
     0
 49
3.0
 74
     0
 49
-1.5
 74
     0
  0
LTYPE
  5
4D
330
5
100
AcDbSymbolTableRecord
100
AcDbLinetypeTableRecord
  2
AM_ISO09W050
 70
     0
  3
_____ . . _____ . . _____ . . ____ .. ____
 72
    65
 73
     6
 40
22.5
 49
12.0
 74
     0
 49
-1.5
 74
     0
 49
3.0
 74
     0
 49
-1.5
 74
     0
 49
3.0
 74
     0
 49
-1.5
 74
     0
  0
LTYPE
  5
4E
330
5
100
AcDbSymbolTableRecord
100
AcDbLinetypeTableRecord
  2
AMCONSTR
 70
     0
  3
_______________________
 72
    65
 73
     2
 40
9999.0
 49
9999.0
 74
     0
 49
0.0
 74
     0
  0
LTYPE
  5
4F
330
5
100
AcDbSymbolTableRecord
100
AcDbLinetypeTableRecord
  2
AM_ISO02W050X2
 70
     0
  3
 _ _ _ _ _ _ _ _ _ _ _ _
 72
    65
 73
     2
 40
3.75
 49
3.0
 74
     0
 49
-0.75
 74
     0
  0
LTYPE
  5
50
330
5
100
AcDbSymbolTableRecord
100
AcDbLinetypeTableRecord
  2
AM_ISO08W050X2
 70
     0
  3
__ . __ . __ . __ . __ . __
 72
    65
 73
     4
 40
9.0
 49
6.0
 74
     0
 49
-0.75
 74
     0
 49
1.5
 74
     0
 49
-0.75
 74
     0
  0
LTYPE
  5
53
330
5
100
AcDbSymbolTableRecord
100
AcDbLinetypeTableRecord
  2
AMZIGZAG
 70
     0
  3
/\/-/\/-/\/-/\/-/\/-/\/
 72
    65
 73
     2
 40
11.00009999999999
 49
0.0001
 74
     4
 75
   135
340
52
 46
0.04
 50
0.0
 44
0.0
 45
0.0
 49
-11.0
 74
     0
  0
LTYPE
  5
166
330
5
100
AcDbSymbolTableRecord
100
AcDbLinetypeTableRecord
  2
ACJISTGL
 70
     0
  3
_ _ _ _ _
 72
    65
 73
     2
 40
3.0
 49
2.0
 74
     0
 49
-1.0
 74
     0
  0
LTYPE
  5
26A
330
5
100
AcDbSymbolTableRecord
100
AcDbLinetypeTableRecord
  2
ACJISTGB
 70
     0
  3
__ . . __ . .
 72
    65
 73
     6
 40
9.0
 49
4.0
 74
     0
 49
-1.0
 74
     0
 49
1.0
 74
     0
 49
-1.0
 74
     0
 49
1.0
 74
     0
 49
-1.0
 74
     0
  0
LTYPE
  5
A88A
330
5
100
AcDbSymbolTableRecord
100
AcDbLinetypeTableRecord
  2
ACANSTGBM
 70
     0
  3
__ . . __ . .
 72
    65
 73
     6
 40
9.0
 49
4.0
 74
     0
 49
-1.0
 74
     0
 49
1.0
 74
     0
 49
-1.0
 74
     0
 49
1.0
 74
     0
 49
-1.0
 74
     0
  0
LTYPE
  5
A88B
330
5
100
AcDbSymbolTableRecord
100
AcDbLinetypeTableRecord
  2
ACANSTGLM
 70
     0
  3
_ _ _ _ _
 72
    65
 73
     2
 40
3.0
 49
2.0
 74
     0
 49
-1.0
 74
     0
  0
ENDTAB
  0
TABLE
  2
LAYER
  5
2
330
0
100
AcDbSymbolTable
 70
     8
  0
LAYER
  5
10
330
2
100
AcDbSymbolTableRecord
100
AcDbLayerTableRecord
  2
0
 70
     0
 62
     7
  6
CONTINUOUS
  0
LAYER
  5
3F9
330
2
100
AcDbSymbolTableRecord
100
AcDbLayerTableRecord
  2
AM_0
 70
     0
 62
     7
  6
CONTINUOUS
  0
LAYER
  5
BA4
330
2
100
AcDbSymbolTableRecord
100
AcDbLayerTableRecord
  2
AM_5
 70
     0
 62
     3
  6
CONTINUOUS
  0
LAYER
  5
BA6
330
2
100
AcDbSymbolTableRecord
100
AcDbLayerTableRecord
  2
AM_7
 70
     0
 62
     4
  6
AM_ISO08W050
  0
LAYER
  5
E64
330
2
100
AcDbSymbolTableRecord
100
AcDbLayerTableRecord
  2
AM_6
 70
     0
 62
     2
  6
CONTINUOUS
  0
LAYER
  5
F4D
330
2
100
AcDbSymbolTableRecord
100
AcDbLayerTableRecord
  2
DEFPOINTS
 70
     0
 62
     7
  6
CONTINUOUS
  0
LAYER
  5
4E80
330
2
100
AcDbSymbolTableRecord
100
AcDbLayerTableRecord
  2
AM_11
 70
     0
 62
     3
  6
AM_ISO09W050
  0
LAYER
  5
C384
330
2
100
AcDbSymbolTableRecord
100
AcDbLayerTableRecord
  2
AM_4
 70
     0
 62
     3
  6
CONTINUOUS
  0
ENDTAB
  0
TABLE
  2
STYLE
  5
3
330
0
100
AcDbSymbolTable
 70
     7
  0
STYLE
  5
11
330
3
100
AcDbSymbolTableRecord
100
AcDbTextStyleTableRecord
  2
STANDARD
 70
     0
 40
0.0
 41
1.0
 50
0.0
 71
     0
 42
2.5
  3
simplex.shx
  4
EXTFONT.SHX
  0
STYLE
  5
52
330
3
100
AcDbSymbolTableRecord
100
AcDbTextStyleTableRecord
  2

 70
     1
 40
0.0
 41
1.0
 50
0.0
 71
     0
 42
2.5
  3
ltypeshp.shx
  4

  0
STYLE
  5
6B
330
3
100
AcDbSymbolTableRecord
100
AcDbTextStyleTableRecord
  2
ASAMI
 70
     0
 40
0.0
 41
1.0
 50
0.0
 71
     0
 42
2.5
  3
simplex.shx
  4
EXTFONT.SHX
  0
STYLE
  5
262
330
3
100
AcDbSymbolTableRecord
100
AcDbTextStyleTableRecord
  2
ACJISTS
 70
     0
 40
1.0
 41
1.0
 50
0.0
 71
     0
 42
2.5
  3
simplex.shx
  4
bigfont.shx
  0
STYLE
  5
269
330
3
100
AcDbSymbolTableRecord
100
AcDbTextStyleTableRecord
  2
ACJISGDT
 70
     0
 40
0.0
 41
1.0
 50
0.0
 71
     0
 42
2.5
  3
amgdtans.shx
  4

  0
STYLE
  5
A88D
330
3
100
AcDbSymbolTableRecord
100
AcDbTextStyleTableRecord
  2
ACANSTS
 70
     0
 40
1.0
 41
1.0
 50
0.0
 71
     0
 42
2.5
  3
romans.shx
  4
extfont.shx
  0
STYLE
  5
A88E
330
3
100
AcDbSymbolTableRecord
100
AcDbTextStyleTableRecord
  2
ACANSGDT
 70
     0
 40
0.0
 41
1.0
 50
0.0
 71
     0
 42
2.5
  3
amgdtans.shx
  4

  0
ENDTAB
  0
TABLE
  2
VIEW
  5
6
330
0
100
AcDbSymbolTable
 70
     0
  0
ENDTAB
  0
TABLE
  2
UCS
  5
7
330
0
100
AcDbSymbolTable
 70
     0
  0
ENDTAB
  0
TABLE
  2
APPID
  5
9
330
0
100
AcDbSymbolTable
 70
    24
  0
APPID
  5
12
330
9
100
AcDbSymbolTableRecord
100
AcDbRegAppTableRecord
  2
ACAD
 70
     0
  0
APPID
  5
30
330
9
100
AcDbSymbolTableRecord
100
AcDbRegAppTableRecord
  2
MCAD_NO_VIS
 70
     0
  0
APPID
  5
31
330
9
100
AcDbSymbolTableRecord
100
AcDbRegAppTableRecord
  2
ACAD_TEMP_GRAPHIC
 70
     0
  0
APPID
  5
2C2
330
9
100
AcDbSymbolTableRecord
100
AcDbRegAppTableRecord
  2
GENIUS_GENDTOL_13
 70
     0
  0
APPID
  5
339
330
9
100
AcDbSymbolTableRecord
100
AcDbRegAppTableRecord
  2
GENIUS_GENODEF_13
 70
     0
  0
APPID
  5
33A
330
9
100
AcDbSymbolTableRecord
100
AcDbRegAppTableRecord
  2
GENIUS_GENOBJ-N-RSBK_13
 70
     0
  0
APPID
  5
33B
330
9
100
AcDbSymbolTableRecord
100
AcDbRegAppTableRecord
  2
GENIUS_GENOBJ-N-LIB_13
 70
     0
  0
APPID
  5
33C
330
9
100
AcDbSymbolTableRecord
100
AcDbRegAppTableRecord
  2
GENIUS_GENSCALE_13
 70
     0
  0
APPID
  5
378
330
9
100
AcDbSymbolTableRecord
100
AcDbRegAppTableRecord
  2
GENIUS_GENDIMSH_14
 70
     0
  0
APPID
  5
BB0
330
9
100
AcDbSymbolTableRecord
100
AcDbRegAppTableRecord
  2
GENIUS_GENOBJ-N-CEN_13
 70
     0
  0
APPID
  5
BB1
330
9
100
AcDbSymbolTableRecord
100
AcDbRegAppTableRecord
  2
GENIUS_GENFIL_13
 70
     0
  0
APPID
  5
BB2
330
9
100
AcDbSymbolTableRecord
100
AcDbRegAppTableRecord
  2
GENIUS_GENOBJ-N-CHA_13
 70
     0
  0
APPID
  5
1FAF
330
9
100
AcDbSymbolTableRecord
100
AcDbRegAppTableRecord
  2
GENIUS_GENOBJ-N-CRS_13
 70
     0
  0
APPID
  5
1FB0
330
9
100
AcDbSymbolTableRecord
100
AcDbRegAppTableRecord
  2
GENIUS_GENOENT_13
 70
     0
  0
APPID
  5
1FB1
330
9
100
AcDbSymbolTableRecord
100
AcDbRegAppTableRecord
  2
GENIUS_GENOREF_13
 70
     0
  0
APPID
  5
1FB2
330
9
100
AcDbSymbolTableRecord
100
AcDbRegAppTableRecord
  2
GENIUS_GENOLIS_13
 70
     0
  0
APPID
  5
1FB7
330
9
100
AcDbSymbolTableRecord
100
AcDbRegAppTableRecord
  2
GENIUS_GENOBJ-N-FIL_13
 70
     0
  0
APPID
  5
22A8
330
9
100
AcDbSymbolTableRecord
100
AcDbRegAppTableRecord
  2
GEVID1056506048
 70
     0
  0
APPID
  5
22A9
330
9
100
AcDbSymbolTableRecord
100
AcDbRegAppTableRecord
  2
GEVDC
 70
     0
  0
APPID
  5
22AC
330
9
100
AcDbSymbolTableRecord
100
AcDbRegAppTableRecord
  2
GENIUS_GENBH_13
 70
     0
  0
APPID
  5
22B8
330
9
100
AcDbSymbolTableRecord
100
AcDbRegAppTableRecord
  2
GENIUS_GENOBJ-NBEHI-BHF_13
 70
     0
  0
APPID
  5
22BA
330
9
100
AcDbSymbolTableRecord
100
AcDbRegAppTableRecord
  2
GENIUS_GENOBJ-NBEHI-BHB_13
 70
     0
  0
APPID
  5
35C9
330
9
100
AcDbSymbolTableRecord
100
AcDbRegAppTableRecord
  2
GENIUS_GENREC_14
 70
     0
  0
APPID
  5
35CA
330
9
100
AcDbSymbolTableRecord
100
AcDbRegAppTableRecord
  2
GENIUS_GENOBJ-N-REC_13
 70
     0
  0
ENDTAB
  0
TABLE
  2
DIMSTYLE
  5
A
330
0
100
AcDbSymbolTable
 70
     9
  0
DIMSTYLE
105
58
330
A
100
AcDbSymbolTableRecord
100
AcDbDimStyleTableRecord
  2
AM_JIS
 70
     0
  3

  4
"
  5
OPEN30
  6

  7

 40
0.5
 41
2.5
 42
1.0
 43
12.0
 44
1.0
 45
0.0
 46
0.0
 47
0.1
 48
0.1
140
3.2
141
0.0
142
0.0
143
0.0393701
144
1.0
145
0.0
146
0.71
147
1.5
 71
     0
 72
     0
 73
     0
 74
     0
 75
     0
 76
     0
 77
     3
 78
     8
170
     0
171
     2
172
     1
173
     0
174
     0
175
     0
176
   256
177
   256
178
     2
270
     2
271
     3
272
     3
273
     2
274
     2
340
6B
275
     0
280
     0
281
     0
282
     0
283
     0
284
     0
285
     0
286
     0
287
     3
288
     0
  0
DIMSTYLE
105
5F
330
A
100
AcDbSymbolTableRecord
100
AcDbDimStyleTableRecord
  2
AM_JIS$3
 70
     0
  3

  4
"
  5
OPEN30
  6

  7

 40
0.5
 41
2.5
 42
1.0
 43
10.0
 44
1.0
 45
0.0
 46
0.0
 47
0.1
 48
0.1
140
3.2
141
0.0
142
0.0
143
0.0393701
144
1.0
145
0.0
146
0.71
147
1.5
 71
     0
 72
     0
 73
     0
 74
     1
 75
     0
 76
     0
 77
     3
 78
     8
170
     0
171
     2
172
     0
173
     0
174
     0
175
     0
176
   256
177
   256
178
     2
270
     2
271
     2
272
     3
273
     2
274
     2
340
6B
275
     0
280
     0
281
     0
282
     0
283
     0
284
     0
285
     0
286
     0
287
     0
288
     1
  0
DIMSTYLE
105
60
330
A
100
AcDbSymbolTableRecord
100
AcDbDimStyleTableRecord
  2
AM_JIS$4
 70
     0
  3

  4
"
  5
OPEN30
  6

  7

 40
0.5
 41
2.5
 42
1.0
 43
10.0
 44
1.0
 45
0.0
 46
0.0
 47
0.1
 48
0.1
140
3.2
141
0.0
142
0.0
143
0.0393701
144
1.0
145
0.0
146
0.71
147
1.5
 71
     0
 72
     0
 73
     0
 74
     1
 75
     0
 76
     0
 77
     3
 78
     8
170
     0
171
     2
172
     0
173
     0
174
     0
175
     0
176
   256
177
   256
178
     2
270
     2
271
     2
272
     3
273
     2
274
     2
340
6B
275
     0
280
     0
281
     0
282
     0
283
     0
284
     0
285
     0
286
     0
287
     0
288
     1
  0
DIMSTYLE
105
61
330
A
100
AcDbSymbolTableRecord
100
AcDbDimStyleTableRecord
  2
AM_JIS$6
 70
     0
  3

  4
"
  5
OPEN30
  6

  7

 40
0.5
 41
2.5
 42
1.0
 43
10.0
 44
1.0
 45
0.0
 46
0.0
 47
0.1
 48
0.1
140
3.2
141
0.0
142
0.0
143
0.0393701
144
1.0
145
0.0
146
0.71
147
1.5
 71
     0
 72
     0
 73
     0
 74
     0
 75
     0
 76
     0
 77
     0
 78
     8
170
     0
171
     2
172
     1
173
     0
174
     0
175
     0
176
   256
177
   256
178
     2
270
     2
271
     2
272
     2
273
     2
274
     2
340
6B
275
     0
280
     0
281
     0
282
     0
283
     0
284
     0
285
     0
286
     0
287
     3
288
     0
  0
DIMSTYLE
105
62
330
A
100
AcDbSymbolTableRecord
100
AcDbDimStyleTableRecord
  2
AM_JIS$7
 70
     0
  3

  4
"
  5
OPEN30
  6

  7

 40
0.5
 41
2.5
 42
1.0
 43
10.0
 44
1.0
 45
0.0
 46
0.0
 47
0.1
 48
0.1
140
3.2
141
0.0
142
0.0
143
0.0393701
144
1.0
145
0.0
146
0.71
147
1.5
 71
     0
 72
     0
 73
     0
 74
     0
 75
     0
 76
     0
 77
     3
 78
     8
170
     0
171
     2
172
     1
173
     0
174
     0
175
     0
176
   256
177
   256
178
     2
270
     2
271
     2
272
     3
273
     2
274
     2
340
6B
275
     0
280
     0
281
     0
282
     0
283
     0
284
     0
285
     0
286
     0
287
     3
288
     0
  0
DIMSTYLE
105
63
330
A
100
AcDbSymbolTableRecord
100
AcDbDimStyleTableRecord
  2
AM_JIS$SF
 70
     0
  3

  4
"
  5
OPEN30
  6

  7

 40
0.5
 41
2.5
 42
1.0
 43
10.0
 44
1.0
 45
0.0
 46
0.0
 47
0.1
 48
0.1
140
3.2
141
0.0
142
0.0
143
0.0393701
144
1.0
145
0.0
146
0.71
147
1.5
 71
     0
 72
     0
 73
     0
 74
     0
 75
     1
 76
     1
 77
     3
 78
     8
170
     0
171
     2
172
     1
173
     0
174
     0
175
     0
176
   256
177
   256
178
     2
270
     2
271
     2
272
     2
273
     2
274
     2
340
6B
275
     0
280
     0
281
     0
282
     0
283
     0
284
     0
285
     0
286
     0
287
     3
288
     0
  0
DIMSTYLE
105
68
330
A
100
AcDbSymbolTableRecord
100
AcDbDimStyleTableRecord
  2
AM_JIS$SH
 70
     0
  3

  4
"
  5

  6
GENAXEH
  7
OPEN30
 40
0.5
 41
2.5
 42
1.0
 43
10.0
 44
1.0
 45
0.0
 46
0.0
 47
0.1
 48
0.1
140
3.2
141
0.0
142
0.0
143
0.0393701
144
2.0
145
0.0
146
0.71
147
1.5
 71
     0
 72
     0
 73
     0
 74
     0
 75
     1
 76
     1
 77
     3
 78
     8
170
     0
171
     2
172
     1
173
     1
174
     0
175
     0
176
   256
177
   256
178
     2
270
     2
271
     2
272
     2
273
     2
274
     2
340
6B
275
     0
280
     0
281
     0
282
     0
283
     0
284
     0
285
     0
286
     0
287
     3
288
     0
  0
DIMSTYLE
105
B34
330
A
100
AcDbSymbolTableRecord
100
AcDbDimStyleTableRecord
  2
AM_JIS$2
 70
     0
  3

  4
"
  5
OPEN30
  6

  7

 40
0.5
 41
2.5
 42
1.0
 43
12.0
 44
1.0
 45
0.0
 46
0.0
 47
0.1
 48
0.1
140
3.2
141
0.0
142
0.0
143
0.0393701
144
1.0
145
0.0
146
0.71
147
1.5
 71
     0
 72
     0
 73
     0
 74
     0
 75
     0
 76
     0
 77
     3
 78
     8
170
     0
171
     2
172
     1
173
     0
174
     0
175
     0
176
   256
177
   256
178
     2
270
     2
271
     3
272
     3
273
     2
274
     2
340
6B
275
     0
280
     0
281
     0
282
     0
283
     0
284
     0
285
     0
286
     0
287
     3
288
     0
  0
DIMSTYLE
105
3B48
102
{ACAD_REACTORS
330
BD1D
330
BDB2
330
BECA
330
BF8C
330
C02A
330
BE3E
102
}
330
A
100
AcDbSymbolTableRecord
100
AcDbDimStyleTableRecord
  2
AM_JIS$0
 70
     0
  3

  4
"
  5
OPEN30
  6

  7

 40
1.0
 41
2.5
 42
0.0
 43
10.0
 44
1.0
 45
0.0
 46
0.0
 47
0.1
 48
0.1000000001
140
3.799999999999999
141
0.0
142
0.0
143
0.0393701
144
1.0
145
0.0
146
0.71
147
1.5
 71
     0
 72
     0
 73
     0
 74
     0
 75
     0
 76
     0
 77
     3
 78
     1
170
     0
171
     2
172
     1
173
     0
174
     0
175
     0
176
     3
177
     3
178
     2
270
     2
271
     2
272
     2
273
     2
274
     2
340
11
275
     1
280
     0
281
     0
282
     0
283
     0
284
     8
285
     0
286
     0
287
     0
288
     0
  0
ENDTAB
  0
TABLE
  2
BLOCK_RECORD
  5
1
330
0
100
AcDbSymbolTable
 70
    11
  0
BLOCK_RECORD
  5
1F
102
{ACAD_XDICTIONARY
360
74
102
}
330
1
100
AcDbSymbolTableRecord
100
AcDbBlockTableRecord
  2
*MODEL_SPACE
  0
BLOCK_RECORD
  5
101
102
{ACAD_XDICTIONARY
360
C419
102
}
330
1
100
AcDbSymbolTableRecord
100
AcDbBlockTableRecord
  2
*PAPER_SPACE
  0
BLOCK_RECORD
  5
59
330
1
100
AcDbSymbolTableRecord
100
AcDbBlockTableRecord
  2
_OPEN30
  0
BLOCK_RECORD
  5
64
330
1
100
AcDbSymbolTableRecord
100
AcDbBlockTableRecord
  2
GENAXEH
  0
BLOCK_RECORD
  5
BD1E
330
1
100
AcDbSymbolTableRecord
100
AcDbBlockTableRecord
  2
*D5
  0
BLOCK_RECORD
  5
BDB3
330
1
100
AcDbSymbolTableRecord
100
AcDbBlockTableRecord
  2
*D6
  0
BLOCK_RECORD
  5
BE3F
330
1
100
AcDbSymbolTableRecord
100
AcDbBlockTableRecord
  2
*D7
  0
BLOCK_RECORD
  5
BECB
330
1
100
AcDbSymbolTableRecord
100
AcDbBlockTableRecord
  2
*D8
  0
BLOCK_RECORD
  5
BF8D
330
1
100
AcDbSymbolTableRecord
100
AcDbBlockTableRecord
  2
*D9
  0
BLOCK_RECORD
  5
C02B
330
1
100
AcDbSymbolTableRecord
100
AcDbBlockTableRecord
  2
*D10
  0
ENDTAB
  0
ENDSEC
  0
SECTION
  2
BLOCKS
  0
BLOCK
  5
20
330
1F
100
AcDbEntity
  8
0
100
AcDbBlockBegin
  2
*MODEL_SPACE
 70
     0
 10
0.0
 20
0.0
 30
0.0
  3
*MODEL_SPACE
  1

  0
ENDBLK
  5
21
330
1F
100
AcDbEntity
  8
0
100
AcDbBlockEnd
  0
BLOCK
  5
103
330
101
100
AcDbEntity
 67
     1
  8
0
100
AcDbBlockBegin
  2
*PAPER_SPACE
 70
     0
 10
0.0
 20
0.0
 30
0.0
  3
*PAPER_SPACE
  1

  0
ENDBLK
  5
104
330
101
100
AcDbEntity
 67
     1
  8
0
100
AcDbBlockEnd
  0
BLOCK
  5
5D
330
59
100
AcDbEntity
  8
0
100
AcDbBlockBegin
  2
_OPEN30
 70
     0
 10
0.0
 20
0.0
 30
0.0
  3
_OPEN30
  1

  0
LINE
  5
5A
330
59
100
AcDbEntity
  8
0
 62
     0
100
AcDbLine
 10
-1.0
 20
0.26794919
 30
0.0
 11
0.0
 21
0.0
 31
0.0
  0
LINE
  5
5B
330
59
100
AcDbEntity
  8
0
 62
     0
100
AcDbLine
 10
0.0
 20
0.0
 30
0.0
 11
-1.0
 21
-0.26794919
 31
0.0
  0
LINE
  5
5C
330
59
100
AcDbEntity
  8
0
 62
     0
100
AcDbLine
 10
0.0
 20
0.0
 30
0.0
 11
-1.0
 21
0.0
 31
0.0
  0
ENDBLK
  5
5E
330
59
100
AcDbEntity
  8
0
100
AcDbBlockEnd
  0
BLOCK
  5
66
330
64
100
AcDbEntity
  8
0
100
AcDbBlockBegin
  2
GENAXEH
 70
     0
 10
0.0
 20
0.0
 30
0.0
  3
GENAXEH
  1

  0
LINE
  5
65
330
64
100
AcDbEntity
  8
0
100
AcDbLine
 10
-1.0
 20
0.0
 30
0.0
 11
1.0
 21
0.0
 31
0.0
  0
ENDBLK
  5
67
330
64
100
AcDbEntity
  8
0
100
AcDbBlockEnd
  0
BLOCK
  5
BD28
330
BD1E
100
AcDbEntity
  8
0
100
AcDbBlockBegin
  2
*D5
 70
     1
 10
0.0
 20
0.0
 30
0.0
  3
*D5
  1

  0
LINE
  5
C41B
330
BD1E
100
AcDbEntity
  8
AM_5
100
AcDbLine
 10
-0.0000000000002276
 20
1.000000000000113
 30
0.0
 11
-0.0000000000002345
 21
38.88781371033187
 31
0.0
  0
LINE
  5
C41C
330
BD1E
100
AcDbEntity
  8
AM_5
100
AcDbLine
 10
-47.0000000000003
 20
25.99999999999996
 30
0.0
 11
-47.0000000000003
 21
38.88781371033185
 31
0.0
  0
LINE
  5
C41D
330
BD1E
100
AcDbEntity
  8
AM_5
100
AcDbLine
 10
-2.500000000000234
 20
37.88781371033187
 30
0.0
 11
-44.5000000000003
 21
37.88781371033185
 31
0.0
  0
INSERT
  5
C41E
330
BD1E
100
AcDbEntity
  8
AM_5
100
AcDbBlockReference
  2
_OPEN30
 10
-0.0000000000002343
 20
37.88781371033187
 30
0.0
 41
2.5
 42
2.5
 43
2.5
  0
INSERT
  5
C41F
330
BD1E
100
AcDbEntity
  8
AM_5
100
AcDbBlockReference
  2
_OPEN30
 10
-47.0000000000003
 20
37.88781371033185
 30
0.0
 41
2.5
 42
2.5
 43
2.5
 50
180.0
  0
MTEXT
  5
C420
330
BD1E
100
AcDbEntity
  8
AM_5
 62
     2
100
AcDbMText
 10
-23.50000000000027
 20
40.98781371033186
 30
0.0
 40
3.2
 41
0.0
 71
     5
 72
     1
  1
47
  7
ASAMI
  0
POINT
  5
C421
330
BD1E
100
AcDbEntity
  8
DEFPOINTS
 62
     0
100
AcDbPoint
 10
-0.0000000000002274
 20
0.0000000000001137
 30
0.0
  0
POINT
  5
C422
330
BD1E
100
AcDbEntity
  8
DEFPOINTS
 62
     0
100
AcDbPoint
 10
-47.00000000000025
 20
25.00000000000005
 30
0.0
  0
POINT
  5
C423
330
BD1E
100
AcDbEntity
  8
DEFPOINTS
 62
     0
100
AcDbPoint
 10
-47.00000000000023
 20
37.88781371033195
 30
0.0
  0
ENDBLK
  5
BD29
330
BD1E
100
AcDbEntity
  8
0
100
AcDbBlockEnd
  0
BLOCK
  5
BDBD
330
BDB3
100
AcDbEntity
  8
0
100
AcDbBlockBegin
  2
*D6
 70
     1
 10
0.0
 20
0.0
 30
0.0
  3
*D6
  1

  0
LINE
  5
C424
330
BDB3
100
AcDbEntity
  8
AM_5
100
AcDbLine
 10
-0.0000000000002538
 20
-0.9999999999998578
 30
0.0
 11
-0.000000000000167
 21
-45.32420278639277
 31
0.0
  0
LINE
  5
C425
330
BDB3
100
AcDbEntity
  8
AM_5
100
AcDbLine
 10
-250.0000000000001
 20
-26.40000000000087
 30
0.0
 11
-250.0
 21
-45.32420278639327
 31
0.0
  0
LINE
  5
C426
330
BDB3
100
AcDbEntity
  8
AM_5
100
AcDbLine
 10
-2.500000000000168
 20
-44.32420278639278
 30
0.0
 11
-247.5
 21
-44.32420278639327
 31
0.0
  0
INSERT
  5
C427
330
BDB3
100
AcDbEntity
  8
AM_5
100
AcDbBlockReference
  2
_OPEN30
 10
-0.0000000000001689
 20
-44.32420278639277
 30
0.0
 41
2.5
 42
2.5
 43
2.5
 50
0.0000000000001018
  0
INSERT
  5
C428
330
BDB3
100
AcDbEntity
  8
AM_5
100
AcDbBlockReference
  2
_OPEN30
 10
-250.0
 20
-44.32420278639328
 30
0.0
 41
2.5
 42
2.5
 43
2.5
 50
180.0000000000001
  0
MTEXT
  5
C429
330
BDB3
100
AcDbEntity
  8
AM_5
 62
     2
100
AcDbMText
 10
-125.0000000000001
 20
-41.22420278639302
 30
0.0
 40
3.2
 41
0.0
 71
     5
 72
     1
  1
250
  7
ASAMI
  0
POINT
  5
C42A
330
BDB3
100
AcDbEntity
  8
DEFPOINTS
 62
     0
100
AcDbPoint
 10
-0.0000000000002558
 20
0.0000000000001421
 30
0.0
  0
POINT
  5
C42B
330
BDB3
100
AcDbEntity
  8
DEFPOINTS
 62
     0
100
AcDbPoint
 10
-250.0000000000001
 20
-25.40000000000037
 30
0.0
  0
POINT
  5
C42C
330
BDB3
100
AcDbEntity
  8
DEFPOINTS
 62
     0
100
AcDbPoint
 10
-250.0000000000001
 20
-44.32420278639277
 30
0.0
  0
ENDBLK
  5
BDBE
330
BDB3
100
AcDbEntity
  8
0
100
AcDbBlockEnd
  0
BLOCK
  5
BE49
330
BE3F
100
AcDbEntity
  8
0
100
AcDbBlockBegin
  2
*D7
 70
     1
 10
0.0
 20
0.0
 30
0.0
  3
*D7
  1

  0
LINE
  5
C42D
330
BE3F
100
AcDbEntity
  8
AM_5
100
AcDbLine
 10
-0.0000000000002538
 20
-1.000000000151345
 30
0.0
 11
-0.0000000000001449
 21
-56.5537586217718
 31
0.0
  0
LINE
  5
C42E
330
BE3F
100
AcDbEntity
  8
AM_5
100
AcDbLine
 10
-350.0000000000001
 20
-24.0614980000013
 30
0.0
 11
-350.0000000000001
 21
-56.55375862177251
 31
0.0
  0
LINE
  5
C42F
330
BE3F
100
AcDbEntity
  8
AM_5
100
AcDbLine
 10
-2.500000000000146
 20
-55.55375862177181
 30
0.0
 11
-347.5000000000001
 21
-55.55375862177251
 31
0.0
  0
INSERT
  5
C430
330
BE3F
100
AcDbEntity
  8
AM_5
100
AcDbBlockReference
  2
_OPEN30
 10
-0.0000000000001469
 20
-55.5537586217718
 30
0.0
 41
2.5
 42
2.5
 43
2.5
 50
0.0000000000001018
  0
INSERT
  5
C431
330
BE3F
100
AcDbEntity
  8
AM_5
100
AcDbBlockReference
  2
_OPEN30
 10
-350.0000000000001
 20
-55.55375862177251
 30
0.0
 41
2.5
 42
2.5
 43
2.5
 50
180.0000000000001
  0
MTEXT
  5
C432
330
BE3F
100
AcDbEntity
  8
AM_5
 62
     2
100
AcDbMText
 10
-175.0000000000001
 20
-52.45375862177215
 30
0.0
 40
3.2
 41
0.0
 71
     5
 72
     1
  1
350
  7
ASAMI
  0
POINT
  5
C433
330
BE3F
100
AcDbEntity
  8
DEFPOINTS
 62
     0
100
AcDbPoint
 10
-0.0000000000002558
 20
-0.0000000001513456
 30
0.0
  0
POINT
  5
C434
330
BE3F
100
AcDbEntity
  8
DEFPOINTS
 62
     0
100
AcDbPoint
 10
-350.0000000000002
 20
-23.06149800000059
 30
0.0
  0
POINT
  5
C435
330
BE3F
100
AcDbEntity
  8
DEFPOINTS
 62
     0
100
AcDbPoint
 10
-350.0000000000002
 20
-55.5537586217718
 30
0.0
  0
ENDBLK
  5
BE4A
330
BE3F
100
AcDbEntity
  8
0
100
AcDbBlockEnd
  0
BLOCK
  5
BED5
330
BECB
100
AcDbEntity
  8
0
100
AcDbBlockBegin
  2
*D8
 70
     1
 10
0.0
 20
0.0
 30
0.0
  3
*D8
  1

  0
LINE
  5
C436
330
BECB
100
AcDbEntity
  8
AM_5
100
AcDbLine
 10
-250.0000000000001
 20
-26.40000000000087
 30
0.0
 11
-250.0
 21
-45.32420278639375
 31
0.0
  0
LINE
  5
C437
330
BECB
100
AcDbEntity
  8
AM_5
100
AcDbLine
 10
-350.0000000000001
 20
-24.0614980000013
 30
0.0
 11
-350.0000000000001
 21
-45.32420278639396
 31
0.0
  0
LINE
  5
C438
330
BECB
100
AcDbEntity
  8
AM_5
100
AcDbLine
 10
-252.5
 20
-44.32420278639376
 30
0.0
 11
-347.5000000000001
 21
-44.32420278639395
 31
0.0
  0
INSERT
  5
C439
330
BECB
100
AcDbEntity
  8
AM_5
100
AcDbBlockReference
  2
_OPEN30
 10
-250.0
 20
-44.32420278639376
 30
0.0
 41
2.5
 42
2.5
 43
2.5
 50
0.0000000000001018
  0
INSERT
  5
C43A
330
BECB
100
AcDbEntity
  8
AM_5
100
AcDbBlockReference
  2
_OPEN30
 10
-350.0000000000001
 20
-44.32420278639396
 30
0.0
 41
2.5
 42
2.5
 43
2.5
 50
180.0000000000001
  0
MTEXT
  5
C43B
330
BECB
100
AcDbEntity
  8
AM_5
 62
     2
100
AcDbMText
 10
-300.0000000000001
 20
-41.22420278639385
 30
0.0
 40
3.2
 41
0.0
 71
     5
 72
     1
  1
100
  7
ASAMI
  0
POINT
  5
C43C
330
BECB
100
AcDbEntity
  8
DEFPOINTS
 62
     0
100
AcDbPoint
 10
-250.0000000000001
 20
-25.40000000000037
 30
0.0
  0
POINT
  5
C43D
330
BECB
100
AcDbEntity
  8
DEFPOINTS
 62
     0
100
AcDbPoint
 10
-350.0000000000002
 20
-23.06149800000059
 30
0.0
  0
POINT
  5
C43E
330
BECB
100
AcDbEntity
  8
DEFPOINTS
 62
     0
100
AcDbPoint
 10
-350.0000000000002
 20
-44.32420278639325
 30
0.0
  0
ENDBLK
  5
BED6
330
BECB
100
AcDbEntity
  8
0
100
AcDbBlockEnd
  0
BLOCK
  5
BF97
330
BF8D
100
AcDbEntity
  8
0
100
AcDbBlockBegin
  2
*D9
 70
     1
 10
0.0
 20
0.0
 30
0.0
  3
*D9
  1

  0
LINE
  5
C43F
330
BF8D
100
AcDbEntity
  8
AM_5
100
AcDbLine
 10
-24.00000000000031
 20
24.99999999999997
 30
0.0
 11
22.37714338794454
 21
25.00000000000006
 31
0.0
  0
LINE
  5
C440
330
BF8D
100
AcDbEntity
  8
AM_5
100
AcDbLine
 10
-24.00000000000014
 20
-25.0
 30
0.0
 11
22.37714338794464
 21
-24.99999999999991
 31
0.0
  0
LINE
  5
C441
330
BF8D
100
AcDbEntity
  8
AM_5
100
AcDbLine
 10
21.37714338794454
 20
22.50000000000006
 30
0.0
 11
21.37714338794463
 21
-22.49999999999991
 31
0.0
  0
INSERT
  5
C442
330
BF8D
100
AcDbEntity
  8
AM_5
100
AcDbBlockReference
  2
_OPEN30
 10
21.37714338794454
 20
25.00000000000006
 30
0.0
 41
2.5
 42
2.5
 43
2.5
 50
90.0000000000001
  0
INSERT
  5
C443
330
BF8D
100
AcDbEntity
  8
AM_5
100
AcDbBlockReference
  2
_OPEN30
 10
21.37714338794464
 20
-24.99999999999991
 30
0.0
 41
2.5
 42
2.5
 43
2.5
 50
270.0000000000001
  0
MTEXT
  5
C444
330
BF8D
100
AcDbEntity
  8
AM_5
 62
     2
100
AcDbMText
 10
18.27714338794459
 20
0.000000000000068
 30
0.0
 40
3.2
 41
0.0
 71
     5
 72
     1
  1
%%c50
  7
ASAMI
 11
-0.000000000000002
 21
1.0
 31
0.0
  0
POINT
  5
C445
330
BF8D
100
AcDbEntity
  8
DEFPOINTS
 62
     0
100
AcDbPoint
 10
-25.00000000000025
 20
25.00000000000003
 30
0.0
  0
POINT
  5
C446
330
BF8D
100
AcDbEntity
  8
DEFPOINTS
 62
     0
100
AcDbPoint
 10
-25.00000000000019
 20
-24.99999999999994
 30
0.0
  0
POINT
  5
C447
330
BF8D
100
AcDbEntity
  8
DEFPOINTS
 62
     0
100
AcDbPoint
 10
21.37714338794458
 20
-24.99999999999996
 30
0.0
  0
ENDBLK
  5
BF98
330
BF8D
100
AcDbEntity
  8
0
100
AcDbBlockEnd
  0
BLOCK
  5
C035
330
C02B
100
AcDbEntity
  8
0
100
AcDbBlockBegin
  2
*D10
 70
     1
 10
0.0
 20
0.0
 30
0.0
  3
*D10
  1

  0
LINE
  5
C448
330
C02B
100
AcDbEntity
  8
AM_5
100
AcDbLine
 10
-348.0000000000003
 20
25.39999999999864
 30
0.0
 11
-370.7129864273133
 21
25.39999999999859
 31
0.0
  0
LINE
  5
C449
330
C02B
100
AcDbEntity
  8
AM_5
100
AcDbLine
 10
-348.0000000000001
 20
-25.40000000000131
 30
0.0
 11
-370.7129864273131
 21
-25.40000000000136
 31
0.0
  0
LINE
  5
C44A
330
C02B
100
AcDbEntity
  8
AM_5
100
AcDbLine
 10
-369.7129864273132
 20
22.89999999999859
 30
0.0
 11
-369.7129864273132
 21
-22.90000000000135
 31
0.0
  0
INSERT
  5
C44B
330
C02B
100
AcDbEntity
  8
AM_5
100
AcDbBlockReference
  2
_OPEN30
 10
-369.7129864273132
 20
25.39999999999859
 30
0.0
 41
2.5
 42
2.5
 43
2.5
 50
90.0000000000001
  0
INSERT
  5
C44C
330
C02B
100
AcDbEntity
  8
AM_5
100
AcDbBlockReference
  2
_OPEN30
 10
-369.7129864273132
 20
-25.40000000000135
 30
0.0
 41
2.5
 42
2.5
 43
2.5
 50
270.0000000000001
  0
MTEXT
  5
C44D
330
C02B
100
AcDbEntity
  8
AM_5
 62
     2
100
AcDbMText
 10
-372.8129864273132
 20
-0.0000000000013736
 30
0.0
 40
3.2
 41
0.0
 71
     5
 72
     1
  1
%%c50.8
  7
ASAMI
 11
-0.000000000000002
 21
1.0
 31
0.0
  0
POINT
  5
C44E
330
C02B
100
AcDbEntity
  8
DEFPOINTS
 62
     0
100
AcDbPoint
 10
-347.0000000000002
 20
25.39999999999941
 30
0.0
  0
POINT
  5
C44F
330
C02B
100
AcDbEntity
  8
DEFPOINTS
 62
     0
100
AcDbPoint
 10
-347.0000000000002
 20
-25.40000000000054
 30
0.0
  0
POINT
  5
C450
330
C02B
100
AcDbEntity
  8
DEFPOINTS
 62
     0
100
AcDbPoint
 10
-369.7129864273132
 20
-25.40000000000054
 30
0.0
  0
ENDBLK
  5
C036
330
C02B
100
AcDbEntity
  8
0
100
AcDbBlockEnd
  0
ENDSEC
  0
SECTION
  2
ENTITIES
  0
TEXT
  5
388D
330
1F
100
AcDbEntity
  8
AM_6
100
AcDbText
 10
-201.0656725707815
 20
-78.29670633162622
 30
0.0
 40
5.0
  1
WBMR2500L-C
 50
359.9999999999998
 51
359.9999999999998
 72
     4
 11
-173.9228154279243
 21
-75.79670633162628
 31
0.0
100
AcDbText
  0
ARC
  5
B837
330
1F
100
AcDbEntity
  8
AM_11
100
AcDbCircle
 10
-25.00000000000025
 20
0.0000000000000853
 30
0.0
 40
25.0
100
AcDbArc
 50
270.0000000000001
 51
90.0000000000001
  0
ELLIPSE
  5
B839
330
1F
100
AcDbEntity
  8
AM_0
100
AcDbEllipse
 10
-23.28459164407607
 20
-0.099415999999934
 30
0.0
 11
3.985940951597955
 21
22.414713400962
 31
0.0
210
0.0
220
0.0
230
0.9999999999999998
 40
0.98480771562989
 41
4.406261724087199
 42
4.608493977856059
  0
ELLIPSE
  5
B83A
330
1F
100
AcDbEntity
  8
AM_0
100
AcDbEllipse
 10
-50.96756864407604
 20
10.93848200000005
 30
0.0
 11
-153.7645834212291
 21
88.67187928140268
 31
0.0
210
0.0
220
0.0
230
1.0
 40
0.08708642351647
 41
4.42515889395499
 42
4.48377942886107
  0
SPLINE
  5
B83B
330
1F
100
AcDbEntity
  8
AM_0
100
AcDbSpline
210
0.0
220
0.0
230
1.0
 70
     8
 71
     3
 72
    11
 73
     7
 74
     5
 42
0.0000000001
 43
0.0000000001
 44
0.0000000001
 40
0.0
 40
0.0
 40
0.0
 40
0.0
 40
3.841973961883782
 40
7.704829296563736
 40
11.60100844262575
 40
15.53760183803052
 40
15.53760183803052
 40
15.53760183803052
 40
15.53760183803052
 10
-2.614061644075974
 20
-11.28923899999989
 30
0.0
 10
-3.253735928154868
 20
-12.40248041571764
 30
0.0
 10
-4.536561166723879
 20
-14.63501378503924
 30
0.0
 10
-7.142330014060153
 20
-17.52372853100441
 30
0.0
 10
-10.16901120965057
 20
-20.02024660710908
 30
0.0
 10
-12.50232315308011
 20
-21.2076992615102
 30
0.0
 10
-13.67499864407602
 20
-21.8044889999999
 30
0.0
 11
-2.614061644075974
 21
-11.28923899999989
 31
0.0
 11
-4.644428644076015
 21
-14.55089099999986
 31
0.0
 11
-7.20056164407606
 21
-17.44706699999989
 31
0.0
 11
-10.23433664407593
 21
-19.89173899999994
 31
0.0
 11
-13.67499864407602
 21
-21.8044889999999
 31
0.0
  0
ELLIPSE
  5
B83C
330
1F
100
AcDbEntity
  8
AM_0
100
AcDbEllipse
 10
2.217861355923986
 20
-2.40795599999987
 30
0.0
 11
-10.196825357891
 21
1.816524804097979
 31
0.0
210
0.0
220
0.0
230
1.0
 40
0.03015371187556
 41
0.230623259765528
 42
1.210105465733249
  0
ELLIPSE
  5
B83D
330
1F
100
AcDbEntity
  8
AM_0
100
AcDbEllipse
 10
-4.939437644076008
 20
3.102621000000112
 30
0.0
 11
-1.305513627360014
 21
7.954486522172997
 31
0.0
210
0.0
220
0.0
230
0.9999999999999998
 40
0.45727286023769
 41
2.486296783191009
 42
3.9344697148904
  0
LINE
  5
B83E
330
1F
100
AcDbEntity
  8
AM_0
100
AcDbLine
 10
-7.722369644076053
 20
-0.7052449999999056
 30
0.0
 11
-1.040142644076041
 21
-1.931793999999854
 31
0.0
  0
SPLINE
  5
B83F
330
1F
100
AcDbEntity
  8
AM_0
100
AcDbSpline
210
0.0
220
0.0
230
1.0
 70
     8
 71
     3
 72
    11
 73
     7
 74
     5
 42
0.0000000001
 43
0.0000000001
 44
0.0000000001
 40
0.0
 40
0.0
 40
0.0
 40
0.0
 40
3.009105861541701
 40
6.022885194497597
 40
9.048032373122314
 40
12.09032007692631
 40
12.09032007692631
 40
12.09032007692631
 40
12.09032007692631
 10
-0.4226856440760117
 20
4.140077000000161
 30
0.0
 10
-0.6218527018695178
 20
5.124681048397734
 30
0.0
 10
-1.020496145740105
 20
7.09541834326241
 30
0.0
 10
-2.092687412092232
 20
9.925678386006264
 30
0.0
 10
-3.47942874354726
 20
12.62929246838636
 30
0.0
 10
-4.694059565099085
 20
14.2505488044852
 30
0.0
 10
-5.303090644076121
 20
15.06346700000006
 30
0.0
 11
-0.4226856440760117
 21
4.140077000000161
 31
0.0
 11
-1.098831644076028
 21
7.072234000000094
 31
0.0
 11
-2.142785644076013
 21
9.899428000000114
 31
0.0
 11
-3.54843164407606
 21
12.5781730000001
 31
0.0
 11
-5.303090644076121
 21
15.06346700000006
 31
0.0
  0
ELLIPSE
  5
B840
330
1F
100
AcDbEntity
  8
AM_0
100
AcDbEllipse
 10
-50.04337664407609
 20
12.54110700000004
 30
0.0
 11
-153.7645816886711
 21
88.67187828228368
 31
0.0
210
0.0
220
0.0
230
1.0
 40
0.08708642449772
 41
4.43180775050941
 42
4.483456307224749
  0
ELLIPSE
  5
B841
330
1F
100
AcDbEntity
  8
AM_0
100
AcDbEllipse
 10
-48.75533464407607
 20
14.774685
 30
0.0
 11
-154.0597620468021
 21
88.84210081662761
 31
0.0
210
0.0
220
0.0
230
0.9999999999999998
 40
0.0870864230148501
 41
4.44386796325443
 42
4.487056163337269
  0
LINE
  5
B842
330
1F
100
AcDbEntity
  8
AM_11
100
AcDbLine
 10
-47.00000000000028
 20
25.00000000000005
 30
0.0
 11
-47.00000000000019
 21
-24.99999999999994
 31
0.0
  0
ELLIPSE
  5
B844
330
1F
100
AcDbEntity
  8
AM_0
100
AcDbEllipse
 10
-29.19083564407605
 20
-12.9848529999999
 30
0.0
 11
0.5252408984149942
 21
2.953662472022001
 31
0.0
210
0.0
220
0.0
230
1.0
 40
0.9848076666666699
 41
3.14159300537504
 42
4.084170348329979
  0
ELLIPSE
  5
B845
330
1F
100
AcDbEntity
  8
AM_0
100
AcDbEllipse
 10
-21.35295764407604
 20
0.0000000000000853
 30
0.0
 11
4.218989186207954
 21
22.988359614606
 31
0.0
210
0.0
220
0.0
230
1.0
 40
0.17343301599333
 41
2.22098621135795
 42
2.593875666844709
  0
ELLIPSE
  5
B846
330
1F
100
AcDbEntity
  8
AM_0
100
AcDbEllipse
 10
-29.216480644076
 20
-12.98029299999987
 30
0.0
 11
0.5252408984149942
 21
2.953662472022001
 31
0.0
210
0.0
220
0.0
230
1.0
 40
0.9848076666666699
 41
3.14159300537504
 42
4.09656660159122
  0
ELLIPSE
  5
B847
330
1F
100
AcDbEntity
  8
AM_0
100
AcDbEllipse
 10
-28.0567766440761
 20
0.0000000000000853
 30
0.0
 11
4.218989186207954
 21
22.988359614606
 31
0.0
210
0.0
220
0.0
230
1.0
 40
0.17343301599333
 41
2.159343832898249
 42
2.65147010635079
  0
ELLIPSE
  5
B848
330
1F
100
AcDbEntity
  8
AM_0
100
AcDbEllipse
 10
-29.216480644076
 20
-12.98029299999987
 30
0.0
 11
0.5252408984149942
 21
2.953662472022001
 31
0.0
210
0.0
220
0.0
230
1.0
 40
0.9848076666666699
 41
1.57079600496478
 42
3.14159300537504
  0
LINE
  5
B849
330
1F
100
AcDbEntity
  8
AM_0
100
AcDbLine
 10
-32.31588664407607
 20
-12.40228199999995
 30
0.0
 11
-33.65587764407598
 21
-19.93764099999992
 31
0.0
  0
LINE
  5
B84A
330
1F
100
AcDbEntity
  8
AM_0
100
AcDbLine
 10
-23.84365164407609
 20
-22.82888299999993
 30
0.0
 11
-23.84365164407614
 21
2.493269000000083
 31
0.0
  0
LINE
  5
B84B
330
1F
100
AcDbEntity
  8
AM_0
100
AcDbLine
 10
-340.4700000000002
 20
-15.35740900000052
 30
0.0
 11
-340.4700000000002
 21
-16.15549400000054
 31
0.0
  0
SPLINE
  5
B84C
330
1F
100
AcDbEntity
  8
AM_0
100
AcDbSpline
210
0.0
220
0.0
230
1.0
 70
     8
 71
     3
 72
    11
 73
     7
 74
     5
 42
0.0000000001
 43
0.0000000001
 44
0.0000000001
 40
0.0
 40
0.0
 40
0.0
 40
0.0
 40
0.4124702172642344
 40
0.8249385626872436
 40
1.237406698233499
 40
1.649877070397382
 40
1.649877070397382
 40
1.649877070397382
 40
1.649877070397382
 10
-347.0000000000002
 20
-16.15549400000054
 30
0.0
 10
-347.126675982084
 20
-16.10204558201624
 30
0.0
 10
-347.3800273713802
 20
-15.99514898860322
 30
0.0
 10
-347.7595924284466
 20
-15.83371377663337
 30
0.0
 10
-348.1388485757051
 20
-15.67155404806496
 30
0.0
 10
-348.3913746303478
 20
-15.56272211437903
 30
0.0
 10
-348.5176380000002
 20
-15.50830600000057
 30
0.0
 11
-347.0000000000002
 21
-16.15549400000054
 31
0.0
 11
-347.3799510000002
 21
-15.99496700000053
 31
0.0
 11
-347.7595410000002
 21
-15.83359300000057
 31
0.0
 11
-348.1387700000002
 21
-15.67137300000058
 31
0.0
 11
-348.5176380000002
 21
-15.50830600000057
 31
0.0
  0
LINE
  5
B84D
330
1F
100
AcDbEntity
  8
AM_0
100
AcDbLine
 10
-350.0000000000002
 20
-23.06149800000059
 30
0.0
 11
-350.0000000000002
 21
-12.15206600000055
 31
0.0
  0
LINE
  5
B84E
330
1F
100
AcDbEntity
  8
AM_0
100
AcDbLine
 10
-339.6776340000002
 20
-24.90000000000054
 30
0.0
 11
-339.6776340000002
 21
-15.35740900000052
 31
0.0
  0
LINE
  5
B84F
330
1F
100
AcDbEntity
  8
AM_0
100
AcDbLine
 10
-328.5223660000002
 20
-15.35740900000049
 30
0.0
 11
-328.5223660000002
 21
-24.90000000000051
 31
0.0
  0
LINE
  5
B850
330
1F
100
AcDbEntity
  8
AM_0
100
AcDbLine
 10
-348.5176380000002
 20
-24.99335000000053
 30
0.0
 11
-348.5176380000002
 21
-15.50830600000057
 31
0.0
  0
ELLIPSE
  5
B851
330
1F
100
AcDbEntity
  8
AM_0
100
AcDbEllipse
 10
-24.19648664407603
 20
0.0627440000000945
 30
0.0
 11
4.010603287822955
 21
22.553400653227
 31
0.0
210
0.0
220
0.0
230
1.0
 40
0.9848077606267599
 41
3.3358714421507
 42
4.394447905998959
  0
ELLIPSE
  5
B852
330
1F
100
AcDbEntity
  8
AM_0
100
AcDbEllipse
 10
-24.99028364407607
 20
1.382124000000061
 30
0.0
 11
4.377007486789953
 21
24.613853933519
 31
0.0
210
0.0
220
0.0
230
1.0
 40
0.9848077599999999
 41
3.316125205568839
 42
4.363003793981079
  0
ELLIPSE
  5
B853
330
1F
100
AcDbEntity
  8
AM_0
100
AcDbEllipse
 10
-25.07576664407602
 20
1.397325000000108
 30
0.0
 11
4.289467337053952
 21
24.121576854848
 31
0.0
210
0.0
220
0.0
230
1.0
 40
0.9848077551020399
 41
4.048957284575499
 42
4.35716598906539
  0
LINE
  5
B854
330
1F
100
AcDbEntity
  8
AM_0
100
AcDbLine
 10
-245.7291680000002
 20
-23.00000000000036
 30
0.0
 11
-245.7291680000003
 21
22.9999999999996
 31
0.0
  0
LINE
  5
B855
330
1F
100
AcDbEntity
  8
AM_0
100
AcDbLine
 10
-327.7700000000002
 20
-25.40000000000051
 30
0.0
 11
-327.7700000000002
 21
25.39999999999944
 31
0.0
  0
LINE
  5
B856
330
1F
100
AcDbEntity
  8
AM_0
100
AcDbLine
 10
-250.0000000000001
 20
-25.40000000000037
 30
0.0
 11
-250.0000000000003
 21
25.39999999999958
 31
0.0
  0
SPLINE
  5
B857
330
1F
100
AcDbEntity
  8
AM_0
100
AcDbSpline
210
0.0
220
0.0
230
1.0
 70
     8
 71
     3
 72
    11
 73
     7
 74
     5
 42
0.0000000001
 43
0.0000000001
 44
0.0000000001
 40
0.0
 40
0.0
 40
0.0
 40
0.0
 40
1.252527643038706
 40
2.821226312659129
 40
4.503116506417611
 40
6.05716937732831
 40
6.05716937732831
 40
6.05716937732831
 40
6.05716937732831
 10
-19.519433644076
 20
-23.55830799999992
 30
0.0
 10
-19.11320921069195
 20
-23.46176563901795
 30
0.0
 10
-18.19821857820761
 20
-23.2443110777535
 30
0.0
 10
-16.75292098879159
 20
-22.83731968202657
 30
0.0
 10
-15.22652532506484
 20
-22.35156758416984
 30
0.0
 10
-14.20877667161154
 20
-21.99413839678627
 30
0.0
 10
-13.72000564407608
 20
-21.82248399999994
 30
0.0
 11
-19.519433644076
 21
-23.55830799999992
 31
0.0
 11
-18.30263364407596
 21
-23.2612839999999
 31
0.0
 11
-16.791720644076
 21
-22.83943399999989
 31
0.0
 11
-15.18869064407601
 21
-22.33046499999991
 31
0.0
 11
-13.72000564407608
 21
-21.82248399999994
 31
0.0
  0
SPLINE
  5
B858
330
1F
100
AcDbEntity
  8
AM_0
100
AcDbSpline
210
0.0
220
0.0
230
1.0
 70
     8
 71
     3
 72
    11
 73
     7
 74
     5
 42
0.0000000001
 43
0.0000000001
 44
0.0000000001
 40
0.0
 40
0.0
 40
0.0
 40
0.0
 40
1.269543292726168
 40
2.861453409985672
 40
4.568651512483729
 40
6.145333329290401
 40
6.145333329290401
 40
6.145333329290401
 40
6.145333329290401
 10
-19.558564644076
 20
-23.5660179999999
 30
0.0
 10
-19.14671861479211
 20
-23.46859361696829
 30
0.0
 10
-18.21844918779777
 20
-23.24900651455219
 30
0.0
 10
-16.75200340077473
 20
-22.83642572013738
 30
0.0
 10
-15.2032162746796
 20
-22.34278249363908
 30
0.0
 10
-14.17072590382764
 20
-21.97910206112424
 30
0.0
 10
-13.67499864407602
 20
-21.8044889999999
 30
0.0
 11
-19.558564644076
 21
-23.5660179999999
 31
0.0
 11
-18.32495564407599
 21
-23.2661029999999
 31
0.0
 11
-16.79156764407593
 21
-22.83843599999991
 31
0.0
 11
-15.16463064407594
 21
-22.32113399999994
 31
0.0
 11
-13.67499864407602
 21
-21.8044889999999
 31
0.0
  0
SPLINE
  5
B859
330
1F
100
AcDbEntity
  8
AM_0
100
AcDbSpline
210
0.0
220
0.0
230
1.0
 70
     8
 71
     3
 72
    11
 73
     7
 74
     5
 42
0.0000000001
 43
0.0000000001
 44
0.0000000001
 40
0.0
 40
0.0
 40
0.0
 40
0.0
 40
0.259878643957209
 40
0.5198394523975938
 40
0.7794209121457911
 40
1.038187411407209
 40
1.038187411407209
 40
1.038187411407209
 40
1.038187411407209
 10
-27.91953164407596
 20
-23.87299099999995
 30
0.0
 10
-28.00631631367735
 20
-23.86823081635219
 30
0.0
 10
-28.17991309113908
 20
-23.8587089440541
 30
0.0
 10
-28.43032040574014
 20
-23.78228895590722
 30
0.0
 10
-28.66401962191731
 20
-23.66406484837658
 30
0.0
 10
-28.79269173726702
 20
-23.54770263353285
 30
0.0
 10
-28.85692664407599
 20
-23.4896129999999
 30
0.0
 11
-27.91953164407596
 21
-23.87299099999995
 31
0.0
 11
-28.17823964407603
 21
-23.84835199999991
 31
0.0
 11
-28.427709644076
 21
-23.77524699999998
 31
0.0
 11
-28.65750064407598
 21
-23.65450499999991
 31
0.0
 11
-28.85692664407599
 21
-23.4896129999999
 31
0.0
  0
SPLINE
  5
B85A
330
1F
100
AcDbEntity
  8
AM_0
100
AcDbSpline
210
0.0
220
0.0
230
1.0
 70
     8
 71
     3
 72
    11
 73
     7
 74
     5
 42
0.0000000001
 43
0.0000000001
 44
0.0000000001
 40
0.0
 40
0.0
 40
0.0
 40
0.0
 40
0.0835225920096126
 40
0.1688529133730946
 40
0.25582014592077
 40
0.3440428736614161
 40
0.3440428736614161
 40
0.3440428736614161
 40
0.3440428736614161
 10
-29.15363064407597
 20
-23.26421199999992
 30
0.0
 10
-29.1571571057749
 20
-23.2365950531005
 30
0.0
 10
-29.16428635448994
 20
-23.18076342922201
 30
0.0
 10
-29.17632972345343
 20
-23.09634207902262
 30
0.0
 10
-29.18932169161949
 20
-23.01047900747382
 30
0.0
 10
-29.19835275295296
 20
-22.95278482387864
 30
0.0
 10
-29.20290064407595
 20
-22.92373099999991
 30
0.0
 11
-29.15363064407597
 21
-23.26421199999992
 31
0.0
 11
-29.16441064407604
 21
-23.18138799999991
 31
0.0
 11
-29.17637064407609
 21
-23.09689999999994
 31
0.0
 11
-29.18933164407599
 21
-23.01090399999992
 31
0.0
 11
-29.20290064407595
 21
-22.92373099999991
 31
0.0
  0
SPLINE
  5
B85B
330
1F
100
AcDbEntity
  8
AM_0
100
AcDbSpline
210
0.0
220
0.0
230
1.0
 70
     8
 71
     3
 72
    11
 73
     7
 74
     5
 42
0.0000000001
 43
0.0000000001
 44
0.0000000001
 40
0.0
 40
0.0
 40
0.0
 40
0.0
 40
0.0932983115067087
 40
0.1867256900313986
 40
0.280264722445696
 40
0.373906115269549
 40
0.373906115269549
 40
0.373906115269549
 40
0.373906115269549
 10
-28.85692664407599
 20
-23.4896129999999
 30
0.0
 10
-28.87912405602843
 20
-23.46780887159225
 30
0.0
 10
-28.92354958738901
 20
-23.42417045138183
 30
0.0
 10
-28.99611421360072
 20
-23.36516099862426
 30
0.0
 10
-29.07240609734373
 20
-23.31084263654116
 30
0.0
 10
-29.12654592630018
 20
-23.27976121118344
 30
0.0
 10
-29.15363064407597
 20
-23.26421199999992
 30
0.0
 11
-28.85692664407599
 21
-23.4896129999999
 31
0.0
 11
-28.92449764407604
 21
-23.42527999999993
 31
0.0
 11
-28.99669064407601
 21
-23.36597699999992
 31
0.0
 11
-29.07318964407602
 21
-23.31214899999991
 31
0.0
 11
-29.15363064407597
 21
-23.26421199999992
 31
0.0
  0
SPLINE
  5
B85C
330
1F
100
AcDbEntity
  8
AM_0
100
AcDbSpline
210
0.0
220
0.0
230
1.0
 70
     8
 71
     3
 72
    11
 73
     7
 74
     5
 42
0.0000000001
 43
0.0000000001
 44
0.0000000001
 40
0.0
 40
0.0
 40
0.0
 40
0.0
 40
0.1878256338735268
 40
0.3683805059899615
 40
0.5424968133968612
 40
0.7115473023549957
 40
0.7115473023549957
 40
0.7115473023549957
 40
0.7115473023549957
 10
-28.85692664407599
 20
-23.4896129999999
 30
0.0
 10
-28.81195452082782
 20
-23.44594884611449
 30
0.0
 10
-28.72375115275742
 20
-23.36031078505643
 30
0.0
 10
-28.61282598491351
 20
-23.21689793618893
 30
0.0
 10
-28.51950663683153
 20
-23.06879145847058
 30
0.0
 10
-28.47292878133695
 20
-22.96417101817276
 30
0.0
 10
-28.44998364407604
 20
-22.91263299999997
 30
0.0
 11
-28.85692664407599
 21
-23.4896129999999
 31
0.0
 11
-28.72535864407598
 21
-23.35556699999995
 31
0.0
 11
-28.61392564407606
 21
-23.21350099999995
 31
0.0
 11
-28.52235464407602
 21
-23.06540899999993
 31
0.0
 11
-28.44998364407604
 21
-22.91263299999997
 31
0.0
  0
SPLINE
  5
B85D
330
1F
100
AcDbEntity
  8
AM_0
100
AcDbSpline
210
0.0
220
0.0
230
1.0
 70
     8
 71
     3
 72
    11
 73
     7
 74
     5
 42
0.0000000001
 43
0.0000000001
 44
0.0000000001
 40
0.0
 40
0.0
 40
0.0
 40
0.0
 40
0.1010308895387495
 40
0.1981837943846915
 40
0.2902263616945674
 40
0.3753411587630423
 40
0.3753411587630423
 40
0.3753411587630423
 40
0.3753411587630423
 10
-26.75932664407605
 20
-23.6082749999999
 30
0.0
 10
-26.7914233532959
 20
-23.61847251292625
 30
0.0
 10
-26.85438476687439
 20
-23.63847611592586
 30
0.0
 10
-26.94610203885932
 20
-23.66924897735013
 30
0.0
 10
-27.03239162804754
 20
-23.69955034558883
 30
0.0
 10
-27.08725951151359
 20
-23.72139958803344
 30
0.0
 10
-27.11362064407603
 20
-23.73189699999991
 30
0.0
 11
-26.75932664407605
 21
-23.6082749999999
 31
0.0
 11
-26.85553064407599
 21
-23.63912999999993
 31
0.0
 11
-26.94764464407603
 21
-23.6700119999999
 31
0.0
 11
-27.034338644076
 21
-23.70093099999988
 31
0.0
 11
-27.11362064407603
 21
-23.73189699999991
 31
0.0
  0
SPLINE
  5
B85E
330
1F
100
AcDbEntity
  8
AM_0
100
AcDbSpline
210
0.0
220
0.0
230
1.0
 70
     8
 71
     3
 72
    11
 73
     7
 74
     5
 42
0.0000000001
 43
0.0000000001
 44
0.0000000001
 40
0.0
 40
0.0
 40
0.0
 40
0.0
 40
0.1206248609616221
 40
0.2959926160649378
 40
0.5285997222847766
 40
0.8197633186099569
 40
0.8197633186099569
 40
0.8197633186099569
 40
0.8197633186099569
 10
-27.11362064407603
 20
-23.73189699999991
 30
0.0
 10
-27.15179306842658
 20
-23.74465441788303
 30
0.0
 10
-27.24546161780345
 20
-23.77595892230568
 30
0.0
 10
-27.41923195421107
 20
-23.8076562280525
 30
0.0
 10
-27.64948565432813
 20
-23.84291239015241
 30
0.0
 10
-27.82304833044296
 20
-23.86224437143393
 30
0.0
 10
-27.91953164407596
 20
-23.87299099999995
 30
0.0
 11
-27.11362064407603
 21
-23.73189699999991
 31
0.0
 11
-27.22874164407608
 21
-23.76791799999992
 31
0.0
 11
-27.40046064407602
 21
-23.80350499999988
 31
0.0
 11
-27.63041064407593
 21
-23.83856299999996
 31
0.0
 11
-27.91953164407596
 21
-23.87299099999995
 31
0.0
  0
SPLINE
  5
B85F
330
1F
100
AcDbEntity
  8
AM_0
100
AcDbSpline
210
0.0
220
0.0
230
1.0
 70
     8
 71
     3
 72
    11
 73
     7
 74
     5
 42
0.0000000001
 43
0.0000000001
 44
0.0000000001
 40
0.0
 40
0.0
 40
0.0
 40
0.0
 40
0.355108934831237
 40
0.7101790839074594
 40
1.065349300244679
 40
1.420639022271577
 40
1.420639022271577
 40
1.420639022271577
 40
1.420639022271577
 10
-27.91815764407601
 20
-22.90460499999994
 30
0.0
 10
-27.85502233422481
 20
-23.00570190563691
 30
0.0
 10
-27.72875861029557
 20
-23.20788467489127
 30
0.0
 10
-27.44447343655398
 20
-23.43027620481041
 30
0.0
 10
-27.11578949846283
 20
-23.57917116304706
 30
0.0
 10
-26.87816091928617
 20
-23.59857263318226
 30
0.0
 10
-26.75932664407605
 20
-23.6082749999999
 30
0.0
 11
-27.91815764407601
 21
-22.90460499999994
 31
0.0
 11
-27.71293864407607
 21
-23.19441099999994
 31
0.0
 11
-27.43711164407602
 21
-23.4180049999999
 31
0.0
 11
-27.11120964407598
 21
-23.55919199999991
 31
0.0
 11
-26.75932664407605
 21
-23.6082749999999
 31
0.0
  0
SPLINE
  5
B860
330
1F
100
AcDbEntity
  8
AM_0
100
AcDbSpline
210
0.0
220
0.0
230
1.0
 70
     8
 71
     3
 72
    11
 73
     7
 74
     5
 42
0.0000000001
 43
0.0000000001
 44
0.0000000001
 40
0.0
 40
0.0
 40
0.0
 40
0.0
 40
0.1600013477193702
 40
0.3197223285734529
 40
0.4793243266186042
 40
0.6389710817406718
 40
0.6389710817406718
 40
0.6389710817406718
 40
0.6389710817406718
 10
-27.43493264407607
 20
-22.89658799999992
 30
0.0
 10
-27.39250220143742
 20
-22.929225833647
 30
0.0
 10
-27.30771566609758
 20
-22.99444431037847
 30
0.0
 10
-27.1594451451781
 20
-23.05750187250768
 30
0.0
 10
-27.00296459329539
 20
-23.09507737587716
 30
0.0
 10
-26.89618228393086
 20
-23.09389584717378
 30
0.0
 10
-26.842783644076
 20
-23.0933049999999
 30
0.0
 11
-27.43493264407607
 21
-22.89658799999992
 31
0.0
 11
-27.304106644076
 21
-22.9887019999999
 31
0.0
 11
-27.15802064407603
 21
-23.05327499999989
 31
0.0
 11
-27.00235864407602
 21
-23.08851899999993
 31
0.0
 11
-26.842783644076
 21
-23.0933049999999
 31
0.0
  0
ELLIPSE
  5
B861
330
1F
100
AcDbEntity
  8
AM_0
100
AcDbEllipse
 10
-37.91084764407608
 20
0.0000000000000284
 30
0.0
 11
-8.695317530143045
 21
22.96671226251198
 31
0.0
210
0.0
220
0.0
230
0.9999999999999998
 40
0.14226325762782
 41
3.02299058624394
 42
3.08778110788042
  0
ELLIPSE
  5
B862
330
1F
100
AcDbEntity
  8
AM_0
100
AcDbEllipse
 10
-37.32695764407597
 20
0.0000210000000322
 30
0.0
 11
-12.20856084641204
 21
21.56791130028397
 31
0.0
210
0.0
220
0.0
230
1.0
 40
0.65438667392848
 41
2.85164189178649
 42
2.86683635105821
  0
ELLIPSE
  5
B863
330
1F
100
AcDbEntity
  8
AM_0
100
AcDbEllipse
 10
-37.91084664407597
 20
-0.0000019999999665
 30
0.0
 11
-8.695316821987043
 21
22.96671039207998
 31
0.0
210
0.0
220
0.0
230
1.0
 40
0.14226326921388
 41
3.087781112254429
 42
3.11304296472355
  0
ELLIPSE
  5
B864
330
1F
100
AcDbEntity
  8
AM_0
100
AcDbEllipse
 10
-35.91491364407605
 20
0.0000000000000568
 30
0.0
 11
132.5488945654429
 21
0.7316773295172619
 31
0.0
210
0.0
220
0.0
230
0.9999999999999998
 40
0.17343304022785
 41
4.76056044252632
 42
4.80262821788811
  0
ELLIPSE
  5
B865
330
1F
100
AcDbEntity
  8
AM_0
100
AcDbEllipse
 10
-34.06454864407601
 20
-18.39883299999991
 30
0.0
 11
-192.888311075115
 21
0.6572990898736191
 31
0.0
210
0.0
220
0.0
230
1.0
 40
0.02828549999715
 41
1.602755995357639
 42
1.62549243972511
  0
SPLINE
  5
B866
330
1F
100
AcDbEntity
  8
AM_0
100
AcDbSpline
210
0.0
220
0.0
230
1.0
 70
     8
 71
     3
 72
    11
 73
     7
 74
     5
 42
0.0000000001
 43
0.0000000001
 44
0.0000000001
 40
0.0
 40
0.0
 40
0.0
 40
0.0
 40
0.1075174107993356
 40
0.2148515493992668
 40
0.3219612851379146
 40
0.4288251261928283
 40
0.4288251261928283
 40
0.4288251261928283
 40
0.4288251261928283
 10
-32.40572364407603
 20
-23.14160499999997
 30
0.0
 10
-32.43842956018285
 20
-23.15633769925163
 30
0.0
 10
-32.50378564249392
 20
-23.18577798466701
 30
0.0
 10
-32.59557966710294
 20
-23.24180248926765
 30
0.0
 10
-32.68181060320585
 20
-23.30581403041938
 30
0.0
 10
-32.73251938833498
 20
-23.35608860169176
 30
0.0
 10
-32.75784464407604
 20
-23.38119699999992
 30
0.0
 11
-32.40572364407603
 21
-23.14160499999997
 31
0.0
 11
-32.50281464407601
 21
-23.18779299999994
 31
0.0
 11
-32.59474464407594
 21
-23.24319599999995
 31
0.0
 11
-32.68019364407598
 21
-23.30777899999992
 31
0.0
 11
-32.75784464407604
 21
-23.38119699999992
 31
0.0
  0
SPLINE
  5
B867
330
1F
100
AcDbEntity
  8
AM_0
100
AcDbSpline
210
0.0
220
0.0
230
1.0
 70
     8
 71
     3
 72
    11
 73
     7
 74
     5
 42
0.0000000001
 43
0.0000000001
 44
0.0000000001
 40
0.0
 40
0.0
 40
0.0
 40
0.0
 40
0.1063538860831211
 40
0.2126623405024065
 40
0.3189186526960098
 40
0.4251438830794463
 40
0.4251438830794463
 40
0.4251438830794463
 40
0.4251438830794463
 10
-32.00518264407605
 20
-22.99971099999993
 30
0.0
 10
-32.03913830714869
 20
-23.00990918244926
 30
0.0
 10
-32.10703512830194
 20
-23.03030119094485
 30
0.0
 10
-32.20766931080552
 20
-23.06462026630104
 30
0.0
 10
-32.30740475056185
 20
-23.10134261319033
 30
0.0
 10
-32.37295387574769
 20
-23.12818551325699
 30
0.0
 10
-32.40572364407603
 20
-23.14160499999997
 30
0.0
 11
-32.00518264407605
 21
-22.99971099999993
 31
0.0
 11
-32.10685164407596
 21
-23.03092899999995
 31
0.0
 11
-32.20754264407605
 21
-23.06502899999992
 31
0.0
 11
-32.30718264407596
 21
-23.10193799999996
 31
0.0
 11
-32.40572364407603
 21
-23.14160499999997
 31
0.0
  0
SPLINE
  5
B868
330
1F
100
AcDbEntity
  8
AM_0
100
AcDbSpline
210
0.0
220
0.0
230
1.0
 70
     8
 71
     3
 72
    11
 73
     7
 74
     5
 42
0.0000000001
 43
0.0000000001
 44
0.0000000001
 40
0.0
 40
0.0
 40
0.0
 40
0.0
 40
0.6986220849594736
 40
1.374862521467034
 40
2.028542835946558
 40
2.659436890627716
 40
2.659436890627716
 40
2.659436890627716
 40
2.659436890627716
 10
-34.08758164407595
 20
-23.85475999999994
 30
0.0
 10
-34.32032736399368
 20
-23.84702805271277
 30
0.0
 10
-34.77836236494175
 20
-23.83181186534632
 30
0.0
 10
-35.45411269430355
 20
-23.8076688002738
 30
0.0
 10
-36.10725975233044
 20
-23.78318963284557
 30
0.0
 10
-36.53510410109692
 20
-23.76594726040167
 30
0.0
 10
-36.74523164407605
 20
-23.75747899999993
 30
0.0
 11
-34.08758164407595
 21
-23.85475999999994
 31
0.0
 11
-34.78580864407604
 21
-23.83126799999996
 31
0.0
 11
-35.46162064407599
 21
-23.8071999999999
 31
0.0
 11
-36.11483764407603
 21
-23.78259299999996
 31
0.0
 11
-36.74523164407605
 21
-23.75747899999993
 31
0.0
  0
ELLIPSE
  5
B869
330
1F
100
AcDbEntity
  8
AM_0
100
AcDbEllipse
 10
-26.42244664407602
 20
-0.000023999999911
 30
0.0
 11
36.13755253175798
 21
9.149253343473072
 31
0.0
210
0.0
220
0.0
230
1.0
 40
0.58393261376582
 41
4.278774253228129
 42
4.28924199963483
  0
ELLIPSE
  5
B86A
330
1F
100
AcDbEntity
  8
AM_0
100
AcDbEllipse
 10
-27.85345564407603
 20
-0.0001009999998871
 30
0.0
 11
8.723770690796953
 21
22.956301494939
 31
0.0
210
0.0
220
0.0
230
1.0
 40
0.16225503106685
 41
3.18913929055124
 42
3.203174903250129
  0
ELLIPSE
  5
B86B
330
1F
100
AcDbEntity
  8
AM_0
100
AcDbEllipse
 10
-36.73996464407605
 20
-22.45808099999993
 30
0.0
 11
0.0532205474069974
 21
1.298910148291
 31
0.0
210
0.0
220
0.0
230
0.9999999999999998
 40
0.7741
 41
3.18924174009368
 42
4.31395297479937
  0
SPLINE
  5
B86C
330
1F
100
AcDbEntity
  8
AM_0
100
AcDbSpline
210
0.0
220
0.0
230
1.0
 70
     8
 71
     3
 72
    11
 73
     7
 74
     5
 42
0.0000000001
 43
0.0000000001
 44
0.0000000001
 40
0.0
 40
0.0
 40
0.0
 40
0.0
 40
0.3591281759482942
 40
0.7205592522339942
 40
1.083348560359282
 40
1.44685203149119
 40
1.44685203149119
 40
1.44685203149119
 40
1.44685203149119
 10
-32.75784464407604
 20
-23.38119699999992
 30
0.0
 10
-32.84857537837977
 20
-23.46047127352416
 30
0.0
 10
-33.03061865552422
 20
-23.61952816484487
 30
0.0
 10
-33.36950244151548
 20
-23.75773006974543
 30
0.0
 10
-33.72365513520728
 20
-23.84166993244943
 30
0.0
 10
-33.96619331193272
 20
-23.8503937847645
 30
0.0
 10
-34.08758164407595
 20
-23.85475999999994
 30
0.0
 11
-32.75784464407604
 21
-23.38119699999992
 31
0.0
 11
-33.04080664407592
 21
-23.60234299999996
 31
0.0
 11
-33.37138264407599
 21
-23.74846599999995
 31
0.0
 11
-33.72493564407602
 21
-23.82980699999996
 31
0.0
 11
-34.08758164407595
 21
-23.85475999999994
 31
0.0
  0
SPLINE
  5
B86D
330
1F
100
AcDbEntity
  8
AM_0
100
AcDbSpline
210
0.0
220
0.0
230
1.0
 70
     8
 71
     3
 72
    11
 73
     7
 74
     5
 42
0.0000000001
 43
0.0000000001
 44
0.0000000001
 40
0.0
 40
0.0
 40
0.0
 40
0.0
 40
0.4287870411031564
 40
0.8631668903825556
 40
1.303164985889807
 40
1.748732631825834
 40
1.748732631825834
 40
1.748732631825834
 40
1.748732631825834
 10
-34.46444764407601
 20
-23.00007099999993
 30
0.0
 10
-34.32544047294985
 20
-23.03332719237086
 30
0.0
 10
-34.04561301516764
 20
-23.10027334839489
 30
0.0
 10
-33.62209474998209
 20
-23.19686940909307
 30
0.0
 10
-33.19238897305913
 20
-23.29144936530821
 30
0.0
 10
-32.90329880784023
 20
-23.35115595174957
 30
0.0
 10
-32.75784464407604
 20
-23.38119699999992
 30
0.0
 11
-34.46444764407601
 21
-23.00007099999993
 31
0.0
 11
-34.04725464407602
 21
-23.09910799999994
 31
0.0
 11
-33.62380064407602
 21
-23.19591999999994
 31
0.0
 11
-33.19400564407601
 21
-23.29012499999993
 31
0.0
 11
-32.75784464407604
 21
-23.38119699999992
 31
0.0
  0
SPLINE
  5
B86E
330
1F
100
AcDbEntity
  8
AM_0
100
AcDbSpline
210
0.0
220
0.0
230
1.0
 70
     8
 71
     3
 72
    11
 73
     7
 74
     5
 42
0.0000000001
 43
0.0000000001
 44
0.0000000001
 40
0.0
 40
0.0
 40
0.0
 40
0.0
 40
0.1716493280878707
 40
0.3433868301804785
 40
0.5151896878516319
 40
0.6870314006136582
 40
0.6870314006136582
 40
0.6870314006136582
 40
0.6870314006136582
 10
-29.15363064407597
 20
-23.26421199999992
 30
0.0
 10
-29.20428632349051
 20
-23.23757763093785
 30
0.0
 10
-29.30562370347658
 20
-23.18429521108821
 30
0.0
 10
-29.4627115066901
 20
-23.11465872136823
 30
0.0
 10
-29.62272785115162
 20
-23.05189647858785
 30
0.0
 10
-29.73183093442402
 20
-23.01691281136981
 30
0.0
 10
-29.78638864407594
 20
-22.99941899999993
 30
0.0
 11
-29.15363064407597
 21
-23.26421199999992
 31
0.0
 11
-29.30643864407602
 21
-23.18602499999991
 31
0.0
 11
-29.46316964407606
 21
-23.11581699999993
 31
0.0
 11
-29.62331764407599
 21
-23.05361699999997
 31
0.0
 11
-29.78638864407594
 21
-22.99941899999993
 31
0.0
  0
ELLIPSE
  5
B86F
330
1F
100
AcDbEntity
  8
AM_0
100
AcDbEllipse
 10
-96.16285264407604
 20
-0.0000000000000853
 30
0.0
 11
132.5488945654429
 21
0.7316773295172619
 31
0.0
210
0.0
220
0.0
230
0.9999999999999998
 40
0.17343304022785
 41
5.20250966978965
 42
5.260106255450399
  0
SPLINE
  5
B870
330
1F
100
AcDbEntity
  8
AM_0
100
AcDbSpline
210
0.0
220
0.0
230
1.0
 70
     8
 71
     3
 72
    11
 73
     7
 74
     5
 42
0.0000000001
 43
0.0000000001
 44
0.0000000001
 40
0.0
 40
0.0
 40
0.0
 40
0.0
 40
0.9969230187753197
 40
1.995407119024277
 40
2.995263357380537
 40
3.99629963181815
 40
3.99629963181815
 40
3.99629963181815
 40
3.99629963181815
 10
-19.558564644076
 20
-23.5660179999999
 30
0.0
 10
-19.88721315368429
 20
-23.61555313667285
 30
0.0
 10
-20.54502480350928
 20
-23.71470097707529
 30
0.0
 10
-21.53914202792926
 20
-23.81117779209385
 30
0.0
 10
-22.53738407362966
 20
-23.87288993037014
 30
0.0
 10
-23.204420657905
 20
-23.87932671141568
 30
0.0
 10
-23.53813564407596
 20
-23.8825469999999
 30
0.0
 11
-19.558564644076
 21
-23.5660179999999
 31
0.0
 11
-20.54562264407604
 21
-23.70591799999991
 31
0.0
 11
-21.53914564407603
 21
-23.80532899999994
 31
0.0
 11
-22.53726764407599
 21
-23.86419299999991
 31
0.0
 11
-23.53813564407596
 21
-23.8825469999999
 31
0.0
  0
ELLIPSE
  5
B871
330
1F
100
AcDbEntity
  8
AM_0
100
AcDbEllipse
 10
-25.07576664407602
 20
1.397325000000108
 30
0.0
 11
4.289467337053952
 21
24.121576854848
 31
0.0
210
0.0
220
0.0
230
1.0
 40
0.9848077551020399
 41
3.31612520641936
 42
3.76662833930592
  0
SPLINE
  5
B872
330
1F
100
AcDbEntity
  8
AM_0
100
AcDbSpline
210
0.0
220
0.0
230
1.0
 70
     8
 71
     3
 72
    11
 73
     7
 74
     5
 42
0.0000000001
 43
0.0000000001
 44
0.0000000001
 40
0.0
 40
0.0
 40
0.0
 40
0.0
 40
0.3267364751370369
 40
0.6453905443547614
 40
0.9568546884629204
 40
1.26359967574054
 40
1.26359967574054
 40
1.26359967574054
 40
1.26359967574054
 10
-39.03768864407607
 20
-22.99989099999996
 30
0.0
 10
-39.09932079133244
 20
-23.09049064726746
 30
0.0
 10
-39.22106050542733
 20
-23.26944879892104
 30
0.0
 10
-39.47832221259585
 20
-23.46525279647621
 30
0.0
 10
-39.76685523231701
 20
-23.59675192762356
 30
0.0
 10
-39.97347726297778
 20
-23.61497768521233
 30
0.0
 10
-40.07599964407598
 20
-23.62402099999994
 30
0.0
 11
-39.03768864407607
 21
-22.99989099999996
 31
0.0
 11
-39.23585664407596
 21
-23.25967199999999
 31
0.0
 11
-39.48655864407601
 21
-23.45636699999997
 31
0.0
 11
-39.77242764407606
 21
-23.58001499999997
 31
0.0
 11
-40.07599964407598
 21
-23.62402099999994
 31
0.0
  0
SPLINE
  5
B873
330
1F
100
AcDbEntity
  8
AM_0
100
AcDbSpline
210
0.0
220
0.0
230
1.0
 70
     8
 71
     3
 72
    11
 73
     7
 74
     5
 42
0.0000000001
 43
0.0000000001
 44
0.0000000001
 40
0.0
 40
0.0
 40
0.0
 40
0.0
 40
0.1530452476165487
 40
0.3062366653526817
 40
0.4596277133476163
 40
0.6133071961292131
 40
0.6133071961292131
 40
0.6133071961292131
 40
0.6133071961292131
 10
-40.15945664407604
 20
-23.10905099999999
 30
0.0
 10
-40.10847972939681
 20
-23.11284855647261
 30
0.0
 10
-40.00647721311842
 20
-23.12044729637976
 30
0.0
 10
-39.85354932378004
 20
-23.10303356949311
 30
0.0
 10
-39.70383715340524
 20
-23.06602304664077
 30
0.0
 10
-39.61107452484418
 20
-23.02221006688764
 30
0.0
 10
-39.56464964407598
 20
-23.00028299999993
 30
0.0
 11
-40.15945664407604
 21
-23.10905099999999
 31
0.0
 11
-40.00655364407601
 21
-23.11564799999993
 31
0.0
 11
-39.85418564407598
 21
-23.09978599999996
 31
0.0
 11
-39.70570764407602
 21
-23.06127499999999
 31
0.0
 11
-39.56464964407598
 21
-23.00028299999993
 31
0.0
  0
SPLINE
  5
B874
330
1F
100
AcDbEntity
  8
AM_0
100
AcDbSpline
210
0.0
220
0.0
230
1.0
 70
     8
 71
     3
 72
    11
 73
     7
 74
     5
 42
0.0000000001
 43
0.0000000001
 44
0.0000000001
 40
0.0
 40
0.0
 40
0.0
 40
0.0
 40
0.0353982846194831
 40
0.070735389268747
 40
0.1060738683673192
 40
0.1414822320404303
 40
0.1414822320404303
 40
0.1414822320404303
 40
0.1414822320404303
 10
-47.50936064407596
 20
-23.78774699999993
 30
0.0
 10
-47.49771683936913
 20
-23.78966971858726
 30
0.0
 10
-47.47444935430985
 20
-23.79351183266681
 30
0.0
 10
-47.43928476921716
 20
-23.79733836496038
 30
0.0
 10
-47.40399927532132
 20
-23.79986044984402
 30
0.0
 10
-47.38041595311998
 20
-23.80024069141227
 30
0.0
 10
-47.36861264407593
 20
-23.80043099999997
 30
0.0
 11
-47.50936064407596
 21
-23.78774699999993
 31
0.0
 11
-47.47438364407594
 21
-23.79319199999994
 31
0.0
 11
-47.43926564407604
 21
-23.79712099999997
 31
0.0
 11
-47.40400964407604
 21
-23.79953399999996
 31
0.0
 11
-47.36861264407593
 21
-23.80043099999997
 31
0.0
  0
SPLINE
  5
B875
330
1F
100
AcDbEntity
  8
AM_0
100
AcDbSpline
210
0.0
220
0.0
230
1.0
 70
     8
 71
     3
 72
    11
 73
     7
 74
     5
 42
0.0000000001
 43
0.0000000001
 44
0.0000000001
 40
0.0
 40
0.0
 40
0.0
 40
0.0
 40
0.0157777467656109
 40
0.0332727481659508
 40
0.052453757784891
 40
0.0732856316563299
 40
0.0732856316563299
 40
0.0732856316563299
 40
0.0732856316563299
 10
-47.86343264407605
 20
-23.71243899999999
 30
0.0
 10
-47.86868563347709
 20
-23.71271350078174
 30
0.0
 10
-47.87976334920265
 20
-23.71329237909169
 30
0.0
 10
-47.89725539172578
 20
-23.71321290573216
 30
0.0
 10
-47.91641559821258
 20
-23.71242661355609
 30
0.0
 10
-47.92969500019362
 20
-23.71115634095548
 30
0.0
 10
-47.93660864407593
 20
-23.71049500000001
 30
0.0
 11
-47.86343264407605
 21
-23.71243899999999
 31
0.0
 11
-47.87919564407604
 21
-23.71312099999997
 31
0.0
 11
-47.89669064407599
 21
-23.71311399999999
 31
0.0
 11
-47.91585364407604
 21
-23.71228299999998
 31
0.0
 11
-47.93660864407593
 21
-23.71049500000001
 31
0.0
  0
ELLIPSE
  5
B876
330
1F
100
AcDbEntity
  8
AM_0
100
AcDbEllipse
 10
-47.83255364407603
 20
-22.91772399999999
 30
0.0
 11
0.1400642395769984
 21
0.7876433258730003
 31
0.0
210
0.0
220
0.0
230
1.0
 40
0.8111599999999999
 41
3.14159308078168
 42
3.197638397695039
  0
ELLIPSE
  5
B877
330
1F
100
AcDbEntity
  8
AM_0
100
AcDbEllipse
 10
-47.83255364407603
 20
-22.91772399999999
 30
0.0
 11
0.1400642395769984
 21
0.7876433258730003
 31
0.0
210
0.0
220
0.0
230
1.0
 40
0.8111599999999999
 41
1.817627451691899
 42
2.77687854932398
  0
ELLIPSE
  5
B878
330
1F
100
AcDbEntity
  8
AM_0
100
AcDbEllipse
 10
-47.83255364407603
 20
-22.91772399999999
 30
0.0
 11
0.1400642395769984
 21
0.7876433258730003
 31
0.0
210
0.0
220
0.0
230
1.0
 40
0.8111599999999999
 41
2.859087205823369
 42
3.14159308078168
  0
ELLIPSE
  5
B879
330
1F
100
AcDbEntity
  8
AM_0
100
AcDbEllipse
 10
-48.51743564407605
 20
-23.70163999999996
 30
0.0
 11
-0.710479597728
 21
0.0027706383579986
 31
0.0
210
0.0
220
0.0
230
1.0
 40
0.0297219504986
 41
2.740306550398399
 42
3.136422998852859
  0
ELLIPSE
  5
B87A
330
1F
100
AcDbEntity
  8
AM_0
100
AcDbEllipse
 10
-48.51743564407605
 20
-23.70163999999996
 30
0.0
 11
-0.710479597728
 21
0.0027706383579986
 31
0.0
210
0.0
220
0.0
230
1.0
 40
0.0297219504986
 41
3.136422998852859
 42
3.31095249026004
  0
SPLINE
  5
B87B
330
1F
100
AcDbEntity
  8
AM_0
100
AcDbSpline
210
0.0
220
0.0
230
1.0
 70
     8
 71
     3
 72
    11
 73
     7
 74
     5
 42
0.0000000001
 43
0.0000000001
 44
0.0000000001
 40
0.0
 40
0.0
 40
0.0
 40
0.0
 40
1.153638398504395
 40
2.307312874776236
 40
3.460949524560218
 40
4.614468462659189
 40
4.614468462659189
 40
4.614468462659189
 40
4.614468462659189
 10
-47.36861264407593
 20
-23.80043099999997
 30
0.0
 10
-46.98406923481327
 20
-23.80187884116839
 30
0.0
 10
-46.21497039045061
 20
-23.80477456878359
 30
0.0
 10
-45.06133008649157
 20
-23.80946900330769
 30
0.0
 10
-43.9077306001231
 20
-23.8144029307827
 30
0.0
 10
-43.13868688382085
 20
-23.81794370381125
 30
0.0
 10
-42.75418464407607
 20
-23.81971399999994
 30
0.0
 11
-47.36861264407593
 21
-23.80043099999997
 31
0.0
 11
-46.21498264407603
 21
-23.804833
 31
0.0
 11
-45.06131764407598
 21
-23.80950899999996
 31
0.0
 11
-43.90769164407607
 21
-23.81446600000001
 31
0.0
 11
-42.75418464407607
 21
-23.81971399999994
 31
0.0
  0
SPLINE
  5
B87C
330
1F
100
AcDbEntity
  8
AM_0
100
AcDbSpline
210
0.0
220
0.0
230
1.0
 70
     8
 71
     3
 72
    11
 73
     7
 74
     5
 42
0.0000000001
 43
0.0000000001
 44
0.0000000001
 40
0.0
 40
0.0
 40
0.0
 40
0.0
 40
0.8254394919005024
 40
1.657367189029333
 40
2.493850360171365
 40
3.33366008770792
 40
3.33366008770792
 40
3.33366008770792
 40
3.33366008770792
 10
-36.74523164407605
 20
-23.75747899999993
 30
0.0
 10
-37.02014976656038
 20
-23.74627075538724
 30
0.0
 10
-37.57214695150969
 20
-23.7237661659534
 30
0.0
 10
-38.40276246574995
 20
-23.69044772092512
 30
0.0
 10
-39.2381729742687
 20
-23.65715747719236
 30
0.0
 10
-39.79650075884698
 20
-23.63507509968437
 30
0.0
 10
-40.07621864407599
 20
-23.62401199999996
 30
0.0
 11
-36.74523164407605
 21
-23.75747899999993
 31
0.0
 11
-37.56998964407603
 21
-23.7239439999999
 31
0.0
 11
-38.40124664407608
 21
-23.69054499999995
 31
0.0
 11
-39.23706664407598
 21
-23.65724299999996
 31
0.0
 11
-40.07621864407599
 21
-23.62401199999996
 31
0.0
  0
ELLIPSE
  5
B87D
330
1F
100
AcDbEntity
  8
AM_0
100
AcDbEllipse
 10
-35.91491364407605
 20
0.0000060000000417
 30
0.0
 11
132.548911565184
 21
0.7316774233562607
 31
0.0
210
0.0
220
0.0
230
0.9999999999999998
 40
0.17343306325023
 41
4.68056992215771
 42
4.705073535990869
  0
ELLIPSE
  5
B87E
330
1F
100
AcDbEntity
  8
AM_0
100
AcDbEllipse
 10
-34.06453964407603
 20
-18.39883899999995
 30
0.0
 11
-192.88820507573
 21
0.6572987286636191
 31
0.0
210
0.0
220
0.0
230
0.9999999999999998
 40
0.02828548443518
 41
1.52582728780134
 42
1.570773236590919
  0
SPLINE
  5
B87F
330
1F
100
AcDbEntity
  8
AM_0
100
AcDbSpline
210
0.0
220
0.0
230
1.0
 70
     8
 71
     3
 72
    11
 73
     7
 74
     5
 42
0.0000000001
 43
0.0000000001
 44
0.0000000001
 40
0.0
 40
0.0
 40
0.0
 40
0.0
 40
1.295428028905456
 40
6.339560887266829
 40
11.38367210604961
 40
12.67910077710984
 40
12.67910077710984
 40
12.67910077710984
 40
12.67910077710984
 10
-339.6776340000002
 20
-24.90000000000054
 30
0.0
 10
-339.4135236034312
 20
-24.55475783642477
 30
0.0
 10
-338.1210211234412
 20
-22.86521301571436
 30
0.0
 10
-334.0999950248689
 20
-21.6669580190348
 30
0.0
 10
-330.0789760062332
 20
-22.86521944768667
 30
0.0
 10
-328.7864767446154
 20
-24.5547578361649
 30
0.0
 10
-328.5223660000002
 20
-24.90000000000051
 30
0.0
 11
-339.6776340000002
 21
-24.90000000000054
 31
0.0
 11
-338.8457690000002
 21
-23.9069570000006
 31
0.0
 11
-334.0999890000002
 21
-22.19790800000054
 31
0.0
 11
-329.3542320000002
 21
-23.90695700000057
 31
0.0
 11
-328.5223660000002
 21
-24.90000000000051
 31
0.0
  0
ARC
  5
B882
330
1F
100
AcDbEntity
  8
AM_0
100
AcDbCircle
 10
-334.1000000000002
 20
-25.40000000000054
 30
0.0
 40
5.60000009267466
100
AcDbArc
 50
5.122516014782346
 51
174.8774839852176
  0
ARC
  5
B883
330
1F
100
AcDbEntity
  8
AM_0
100
AcDbCircle
 10
-348.0000000000002
 20
-23.06149800000059
 30
0.0
 40
2.0
100
AcDbArc
 50
180.0
 51
255.0000050721318
  0
LINE
  5
B884
330
1F
100
AcDbEntity
  8
AM_0
100
AcDbLine
 10
-340.4700000000002
 20
-25.40000000000054
 30
0.0
 11
-340.4700000000002
 21
-16.15549400000054
 31
0.0
  0
LINE
  5
B885
330
1F
100
AcDbEntity
  8
AM_0
100
AcDbLine
 10
-347.0000000000002
 20
-25.40000000000054
 30
0.0
 11
-347.0000000000002
 21
-16.15549400000054
 31
0.0
  0
LINE
  5
B886
330
1F
100
AcDbEntity
  8
AM_0
100
AcDbLine
 10
-347.0000000000002
 20
-25.40000000000054
 30
0.0
 11
-340.4700000000002
 21
-25.40000000000054
 31
0.0
  0
LINE
  5
B887
330
1F
100
AcDbEntity
  8
AM_0
100
AcDbLine
 10
-348.5176380000002
 20
-24.99335000000053
 30
0.0
 11
-347.0000000000002
 21
-25.40000000000054
 31
0.0
  0
LINE
  5
B888
330
1F
100
AcDbEntity
  8
AM_0
100
AcDbLine
 10
-340.4700000000002
 20
-24.90000000000054
 30
0.0
 11
-339.6776340000002
 21
-24.90000000000054
 31
0.0
  0
LINE
  5
B889
330
1F
100
AcDbEntity
  8
AM_0
100
AcDbLine
 10
-340.4700000000002
 20
-16.15549400000054
 30
0.0
 11
-347.0000000000002
 21
-16.15549400000054
 31
0.0
  0
LINE
  5
B88A
330
1F
100
AcDbEntity
  8
AM_0
100
AcDbLine
 10
-245.7291680000003
 20
-23.00000000000028
 30
0.0
 11
-40.004935644076
 21
-22.99999999999997
 31
0.0
  0
LINE
  5
B88B
330
1F
100
AcDbEntity
  8
AM_0
100
AcDbLine
 10
-293.9700000000002
 20
-25.40000000000045
 30
0.0
 11
-250.0000000000001
 21
-25.40000000000037
 31
0.0
  0
LINE
  5
B88C
330
1F
100
AcDbEntity
  8
AM_0
100
AcDbLine
 10
-314.7700000000002
 20
-22.60000000000053
 30
0.0
 11
-296.7700000000002
 21
-22.6000000000005
 31
0.0
  0
LINE
  5
B88E
330
1F
100
AcDbEntity
  8
AM_0
100
AcDbLine
 10
-327.7700000000002
 20
-25.40000000000051
 30
0.0
 11
-317.5700000000002
 21
-25.40000000000048
 31
0.0
  0
LINE
  5
B890
330
1F
100
AcDbEntity
  8
AM_0
100
AcDbLine
 10
-328.5223660000002
 20
-24.90000000000051
 30
0.0
 11
-327.7700000000002
 21
-24.90000000000051
 31
0.0
  0
LINE
  5
B891
330
1F
100
AcDbEntity
  8
AM_0
100
AcDbLine
 10
-317.5700000000002
 20
-25.40000000000048
 30
0.0
 11
-314.7700000000002
 21
-22.60000000000053
 31
0.0
  0
LINE
  5
B892
330
1F
100
AcDbEntity
  8
AM_0
100
AcDbLine
 10
-296.7700000000002
 20
-22.6000000000005
 30
0.0
 11
-293.9700000000002
 21
-25.40000000000045
 31
0.0
  0
ARC
  5
B893
330
1F
100
AcDbEntity
  8
AM_0
100
AcDbCircle
 10
-245.7291680000002
 20
-28.00000000000036
 30
0.0
 40
5.0
100
AcDbArc
 50
90.0000000000001
 51
148.6677526686953
  0
LINE
  5
B894
330
1F
100
AcDbEntity
  8
AM_0
100
AcDbLine
 10
-48.19495164407602
 20
-23.63362099999997
 30
0.0
 11
-48.08227764407593
 21
-22.99999999999997
 31
0.0
  0
LINE
  5
B895
330
1F
100
AcDbEntity
  8
AM_0
100
AcDbLine
 10
-48.19495164407602
 20
-23.63362099999997
 30
0.0
 11
-47.81710864407602
 21
-23.70081199999995
 31
0.0
  0
LINE
  5
B896
330
1F
100
AcDbEntity
  8
AM_0
100
AcDbLine
 10
-47.69131064407599
 20
-23.11795699999996
 30
0.0
 11
-48.19495164407602
 21
-23.63362099999997
 31
0.0
  0
LINE
  5
B897
330
1F
100
AcDbEntity
  8
AM_0
100
AcDbLine
 10
-40.07599964407598
 20
-23.62402099999994
 30
0.0
 11
-48.19495164407602
 21
-23.63362099999997
 31
0.0
  0
LINE
  5
B898
330
1F
100
AcDbEntity
  8
AM_0
100
AcDbLine
 10
-25.09157864407598
 20
-23.60630299999994
 30
0.0
 11
-23.53813564407596
 21
-23.8825469999999
 31
0.0
  0
LINE
  5
B899
330
1F
100
AcDbEntity
  8
AM_11
100
AcDbLine
 10
-25.00000000000023
 20
-24.99999999999991
 30
0.0
 11
-47.00000000000019
 21
-24.99999999999997
 31
0.0
1001
GENIUS_GENODEF_13
1002
{
1000
HIER
1070
     0
1002
}
1002
{
1000
MANEDIT
1070
     0
1002
}
1002
{
1000
NOSEL
1070
     0
1002
}
1002
{
1000
BEHIND
1070
     0
1002
}
1002
{
1000
REACTOR
1002
}
1001
GENIUS_GENOBJ-N-CEN_13
1002
{
1000
OWNER
1000
GEN
1002
}
  0
LINE
  5
B89A
330
1F
100
AcDbEntity
  8
AM_0
100
AcDbLine
 10
-47.69131064407599
 20
-23.11795699999996
 30
0.0
 11
-40.15945664407604
 21
-23.10905099999999
 31
0.0
  0
LINE
  5
B89B
330
1F
100
AcDbEntity
  8
AM_0
100
AcDbLine
 10
-47.67033464407598
 20
-22.99999999999997
 30
0.0
 11
-47.69131064407599
 21
-23.11795699999996
 31
0.0
  0
LINE
  5
B89C
330
1F
100
AcDbEntity
  8
AM_0
100
AcDbLine
 10
-47.97261764407608
 20
-23.70536699999999
 30
0.0
 11
-47.50935764407597
 21
-23.78774799999993
 31
0.0
  0
LINE
  5
B89D
330
1F
100
AcDbEntity
  8
AM_0
100
AcDbLine
 10
-47.93660864407593
 20
-23.71049500000001
 30
0.0
 11
-47.93127664407598
 21
-23.68050999999999
 31
0.0
  0
LINE
  5
B89E
330
1F
100
AcDbEntity
  8
AM_0
100
AcDbLine
 10
-47.86343264407605
 20
-23.71243899999999
 30
0.0
 11
-47.36861264407593
 21
-23.80043099999997
 31
0.0
  0
LINE
  5
B89F
330
1F
100
AcDbEntity
  8
AM_0
100
AcDbLine
 10
-40.07599964407598
 20
-23.62402099999994
 30
0.0
 11
-40.15945664407604
 21
-23.10905099999999
 31
0.0
  0
LINE
  5
B8A0
330
1F
100
AcDbEntity
  8
AM_0
100
AcDbLine
 10
-36.33145964407594
 20
-22.99999999999994
 30
0.0
 11
-29.40383764407602
 21
-22.99999999999994
 31
0.0
  0
LINE
  5
B8A1
330
1F
100
AcDbEntity
  8
AM_0
100
AcDbLine
 10
-32.66083664407597
 20
-23.00009499999993
 30
0.0
 11
-32.40572364407603
 21
-23.14160499999997
 31
0.0
  0
LINE
  5
B8A2
330
1F
100
AcDbEntity
  8
AM_0
100
AcDbLine
 10
-25.09157864407598
 20
-23.60630299999994
 30
0.0
 11
-25.17503564407593
 21
-23.09133299999988
 31
0.0
  0
ARC
  5
B8A3
330
1F
100
AcDbEntity
  8
AM_0
100
AcDbCircle
 10
-27.10835364407603
 20
-22.43249899999992
 30
0.0
 40
1.296072287983969
100
AcDbArc
 50
201.6424158499266
 51
269.7677576708901
  0
LINE
  5
B8A4
330
1F
100
AcDbEntity
  8
AM_0
100
AcDbLine
 10
-26.75932664407605
 20
-23.6082749999999
 30
0.0
 11
-26.842783644076
 21
-23.0933049999999
 31
0.0
  0
LINE
  5
B8A5
330
1F
100
AcDbEntity
  8
AM_0
100
AcDbLine
 10
-29.33616264407601
 20
-22.92548999999991
 30
0.0
 11
-29.31232564407605
 21
-22.99266099999994
 31
0.0
  0
LINE
  5
B8A6
330
1F
100
AcDbEntity
  8
AM_0
100
AcDbLine
 10
-25.09157864407598
 20
-23.60630299999994
 30
0.0
 11
-26.75932664407605
 21
-23.6082749999999
 31
0.0
  0
LINE
  5
B8A7
330
1F
100
AcDbEntity
  8
AM_0
100
AcDbLine
 10
-26.842783644076
 20
-23.0933049999999
 30
0.0
 11
-25.17503564407593
 21
-23.09133299999988
 31
0.0
  0
LINE
  5
B8A8
330
1F
100
AcDbEntity
  8
AM_0
100
AcDbLine
 10
-29.74172164407605
 20
-15.93395499999991
 30
0.0
 11
-29.71607664407599
 21
-15.93851599999993
 31
0.0
  0
LINE
  5
B8A9
330
1F
100
AcDbEntity
  8
AM_0
100
AcDbLine
 10
-19.51922564407595
 20
-23.55825999999993
 30
0.0
 11
-19.558564644076
 21
-23.5660179999999
 31
0.0
  0
LINE
  5
B8AA
330
1F
100
AcDbEntity
  8
AM_0
100
AcDbLine
 10
-13.67499864407602
 20
-21.8044889999999
 30
0.0
 11
-13.72013264407598
 21
-21.82252799999994
 31
0.0
  0
SPLINE
  5
B8AB
330
1F
100
AcDbEntity
  8
AM_0
100
AcDbSpline
210
0.0
220
0.0
230
1.0
 70
     8
 71
     3
 72
    11
 73
     7
 74
     5
 42
0.0000000001
 43
0.0000000001
 44
0.0000000001
 40
0.0
 40
0.0
 40
0.0
 40
0.0
 40
0.0492614085567556
 40
0.0985551252557861
 40
0.1478464523327257
 40
0.1971441912767805
 40
0.1971441912767805
 40
0.1971441912767805
 40
0.1971441912767805
 10
-19.83075864407609
 20
23.44767300000009
 30
0.0
 10
-19.84705877465729
 20
23.44971357683387
 30
0.0
 10
-19.87966972627602
 20
23.4537960688157
 30
0.0
 10
-19.9289606346822
 20
23.45572485332007
 30
0.0
 10
-19.97828893130579
 20
23.45502683949488
 30
0.0
 10
-20.01102203020623
 20
23.45197767926706
 30
0.0
 10
-20.02738964407612
 20
23.45045300000012
 30
0.0
 11
-19.83075864407609
 21
23.44767300000009
 31
0.0
 11
-19.87972064407605
 21
23.45309600000004
 31
0.0
 11
-19.9289656440761
 21
23.45528700000008
 31
0.0
 11
-19.97824864407616
 21
23.45438100000009
 31
0.0
 11
-20.02738964407612
 21
23.45045300000012
 31
0.0
  0
SPLINE
  5
B8AC
330
1F
100
AcDbEntity
  8
AM_0
100
AcDbSpline
210
0.0
220
0.0
230
1.0
 70
     8
 71
     3
 72
    11
 73
     7
 74
     5
 42
0.0000000001
 43
0.0000000001
 44
0.0000000001
 40
0.0
 40
0.0
 40
0.0
 40
0.0
 40
0.1240751683818831
 40
0.2460900531337139
 40
0.365700645963053
 40
0.4829187819831267
 40
0.4829187819831267
 40
0.4829187819831267
 40
0.4829187819831267
 10
-20.02738964407612
 20
23.45045300000012
 30
0.0
 10
-20.06837066980744
 20
23.44474306585368
 30
0.0
 10
-20.1496522262318
 20
23.43341801172872
 30
0.0
 10
-20.26859829107028
 20
23.40626934648445
 30
0.0
 10
-20.38427940129722
 20
23.3757925314923
 30
0.0
 10
-20.45970889410775
 20
23.35247030970956
 30
0.0
 10
-20.49704264407611
 20
23.34092700000005
 30
0.0
 11
-20.02738964407612
 21
23.45045300000012
 31
0.0
 11
-20.15001764407608
 21
23.43155800000008
 31
0.0
 11
-20.2692026440761
 21
23.4054320000001
 31
0.0
 11
-20.38481664407604
 21
23.37477100000009
 31
0.0
 11
-20.49704264407611
 21
23.34092700000005
 31
0.0
  0
SPLINE
  5
B8AD
330
1F
100
AcDbEntity
  8
AM_0
100
AcDbSpline
210
0.0
220
0.0
230
1.0
 70
     8
 71
     3
 72
    11
 73
     7
 74
     5
 42
0.0000000001
 43
0.0000000001
 44
0.0000000001
 40
0.0
 40
0.0
 40
0.0
 40
0.0
 40
0.304898967300669
 40
0.6147464789656576
 40
0.9278611078062613
 40
1.242516187895569
 40
1.242516187895569
 40
1.242516187895569
 40
1.242516187895569
 10
-24.17734664407609
 20
23.8068650000001
 30
0.0
 10
-24.07571552417207
 20
23.80603553030487
 30
0.0
 10
-23.8708037999132
 20
23.80436312852844
 30
0.0
 10
-23.56159828827863
 20
23.79679783639831
 30
0.0
 10
-23.2492426142073
 20
23.78581606228214
 30
0.0
 10
-23.04024891368942
 20
23.77527530922827
 30
0.0
 10
-22.9354956440761
 20
23.76999200000008
 30
0.0
 11
-24.17734664407609
 21
23.8068650000001
 31
0.0
 11
-23.87246564407607
 21
23.80355500000004
 31
0.0
 11
-23.56270364407609
 21
23.79627600000012
 31
0.0
 11
-23.24979064407611
 21
23.78504100000006
 31
0.0
 11
-22.9354956440761
 21
23.76999200000008
 31
0.0
  0
ELLIPSE
  5
B8AE
330
1F
100
AcDbEntity
  8
AM_0
100
AcDbEllipse
 10
-22.60015764407611
 20
23.49998000000013
 30
0.0
 11
-5.027906782811999
 21
0.0523205446589901
 31
0.0
210
0.0
220
0.0
230
1.0
 40
0.02921395598685
 41
-1.266824086814899
 42
-0.9732367103533599
  0
ELLIPSE
  5
B8AF
330
1F
100
AcDbEntity
  8
AM_0
100
AcDbEllipse
 10
-24.17865564407609
 20
23.50686800000002
 30
0.0
 11
0.0013089938849994
 21
0.2999971442109999
 31
0.0
210
0.0
220
0.0
230
1.0
 40
0.2858400000000001
 41
-1.05007881986128
 42
0.0
  0
SPLINE
  5
B8B0
330
1F
100
AcDbEntity
  8
AM_0
100
AcDbSpline
210
0.0
220
0.0
230
1.0
 70
     8
 71
     3
 72
    11
 73
     7
 74
     5
 42
0.0000000001
 43
0.0000000001
 44
0.0000000001
 40
0.0
 40
0.0
 40
0.0
 40
0.0
 40
0.1439722295582727
 40
0.2850829814696981
 40
0.4232401173440374
 40
0.5587272317866809
 40
0.5587272317866809
 40
0.5587272317866809
 40
0.5587272317866809
 10
-25.96104364407605
 20
23.81143600000004
 30
0.0
 10
-25.91354673391404
 20
23.80418442104427
 30
0.0
 10
-25.81949692443946
 20
23.78982538975459
 30
0.0
 10
-25.68401745663653
 20
23.7493840221957
 30
0.0
 10
-25.55354967813037
 20
23.70360030152804
 30
0.0
 10
-25.46940799097971
 20
23.6683186830579
 30
0.0
 10
-25.4277476440761
 20
23.65085000000007
 30
0.0
 11
-25.96104364407605
 21
23.81143600000004
 31
0.0
 11
-25.81926564407612
 21
23.78639600000005
 31
0.0
 11
-25.6834666440761
 21
23.74804400000002
 31
0.0
 11
-25.55320364407609
 21
23.70201200000005
 31
0.0
 11
-25.4277476440761
 21
23.65085000000007
 31
0.0
  0
ELLIPSE
  5
B8B1
330
1F
100
AcDbEntity
  8
AM_0
100
AcDbEllipse
 10
-35.50307964407605
 20
-0.0002299999999309
 30
0.0
 11
0.1035782197049545
 21
23.00022277632
 31
0.0
210
0.0
220
0.0
230
1.0
 40
0.17632433026545
 41
-0.028785824493171
 42
-0.020221424020084
  0
ELLIPSE
  5
B8B2
330
1F
100
AcDbEntity
  8
AM_0
100
AcDbEllipse
 10
-35.50307764407605
 20
0.0000000000000568
 30
0.0
 11
0.1035771839439546
 21
22.999992778652
 31
0.0
210
0.0
220
0.0
230
1.0
 40
0.17632518045692
 41
-0.292967685337353
 42
-0.028785685772519
  0
ELLIPSE
  5
B8B3
330
1F
100
AcDbEntity
  8
AM_0
100
AcDbEllipse
 10
-35.07868064407606
 20
-0.080731999999955
 30
0.0
 11
0.1946947509949544
 21
23.08033083820599
 31
0.0
210
0.0
220
0.0
230
1.0
 40
0.6989638125514701
 41
0.024719734544474
 42
0.026873618932106
  0
ELLIPSE
  5
B8B4
330
1F
100
AcDbEntity
  8
AM_0
100
AcDbEllipse
 10
-34.95632564407614
 20
23.45389400000005
 30
0.0
 11
0.3077516819419994
 21
0.3050777898540005
 31
0.0
210
0.0
220
0.0
230
1.0
 40
0.8391009369086599
 41
0.6981304635312049
 42
1.48352991453887
  0
ELLIPSE
  5
B8B5
330
1F
100
AcDbEntity
  8
AM_0
100
AcDbEllipse
 10
-34.95632564407614
 20
23.45389400000005
 30
0.0
 11
0.0017453251799992
 21
0.3999961922820001
 31
0.0
210
0.0
220
0.0
230
1.0
 40
0.8111599999999999
 41
0.7853982937803431
 42
1.57079606171195
  0
SPLINE
  5
B8B6
330
1F
100
AcDbEntity
  8
AM_0
100
AcDbSpline
210
0.0
220
0.0
230
1.0
 70
     8
 71
     3
 72
    11
 73
     7
 74
     5
 42
0.0000000001
 43
0.0000000001
 44
0.0000000001
 40
0.0
 40
0.0
 40
0.0
 40
0.0
 40
0.158721894204893
 40
0.317466815033868
 40
0.4765645319565306
 40
0.6361841461805166
 40
0.6361841461805166
 40
0.6361841461805166
 40
0.6361841461805166
 10
-34.20245464407603
 20
23.45060400000005
 30
0.0
 10
-34.19475885010503
 20
23.50373498278475
 30
0.0
 10
-34.17936614569355
 20
23.61000465634661
 30
0.0
 10
-34.08017852883323
 20
23.74099947984004
 30
0.0
 10
-33.94335646321762
 20
23.83150419931455
 30
0.0
 10
-33.83633566571458
 20
23.84301311784816
 30
0.0
 10
-33.78273764407603
 20
23.84877699999998
 30
0.0
 11
-34.20245464407603
 21
23.45060400000005
 31
0.0
 11
-34.16669864407603
 21
23.60524600000002
 31
0.0
 11
-34.07403364407613
 21
23.73413800000008
 31
0.0
 11
-33.93959664407609
 21
23.81921900000003
 31
0.0
 11
-33.78273764407603
 21
23.84877699999998
 31
0.0
  0
SPLINE
  5
B8B7
330
1F
100
AcDbEntity
  8
AM_0
100
AcDbSpline
210
0.0
220
0.0
230
1.0
 70
     8
 71
     3
 72
    11
 73
     7
 74
     5
 42
0.0000000001
 43
0.0000000001
 44
0.0000000001
 40
0.0
 40
0.0
 40
0.0
 40
0.0
 40
0.8373883074684457
 40
1.744496689449904
 40
2.689663153777861
 40
3.623839870959877
 40
3.623839870959877
 40
3.623839870959877
 40
3.623839870959877
 10
-20.49704264407611
 20
23.34092700000005
 30
0.0
 10
-20.77298110155403
 20
23.38319094504259
 30
0.0
 10
-21.34783236382852
 20
23.47123768698087
 30
0.0
 10
-22.23914007662199
 20
23.56993242402424
 30
0.0
 10
-23.16571043556232
 20
23.64066008176603
 30
0.0
 10
-23.79220374644031
 20
23.65076772926111
 30
0.0
 10
-24.10361864407613
 20
23.6557920000001
 30
0.0
 11
-20.49704264407611
 21
23.34092700000005
 31
0.0
 11
-21.32560564407603
 21
23.46218100000007
 31
0.0
 11
-22.22703664407603
 21
23.56351100000015
 31
0.0
 11
-23.16975964407615
 21
23.63143000000011
 31
0.0
 11
-24.10361864407613
 21
23.6557920000001
 31
0.0
  0
SPLINE
  5
B8B8
330
1F
100
AcDbEntity
  8
AM_0
100
AcDbSpline
210
0.0
220
0.0
230
1.0
 70
     8
 71
     3
 72
    11
 73
     7
 74
     5
 42
0.0000000001
 43
0.0000000001
 44
0.0000000001
 40
0.0
 40
0.0
 40
0.0
 40
0.0
 40
0.7018728367909861
 40
1.466006172418342
 40
2.279605811715793
 40
3.122522517276965
 40
3.122522517276965
 40
3.122522517276965
 40
3.122522517276965
 10
-19.8307106440761
 20
23.44766700000011
 30
0.0
 10
-20.06236015951992
 20
23.48049661795344
 30
0.0
 10
-20.54620794743409
 20
23.54906804576046
 30
0.0
 10
-21.3008286512571
 20
23.63864133204325
 30
0.0
 10
-22.10394376571773
 20
23.71793047681159
 30
0.0
 10
-22.65507769078614
 20
23.75244057210402
 30
0.0
 10
-22.93552164407614
 20
23.77000100000006
 30
0.0
 11
-19.8307106440761
 21
23.44766700000011
 31
0.0
 11
-20.52599064407613
 21
23.54364200000006
 31
0.0
 11
-21.28472964407612
 21
23.63427800000008
 31
0.0
 11
-22.09458864407608
 21
23.71220600000012
 31
0.0
 11
-22.93552164407614
 21
23.77000100000006
 31
0.0
  0
SPLINE
  5
B8B9
330
1F
100
AcDbEntity
  8
AM_0
100
AcDbSpline
210
0.0
220
0.0
230
1.0
 70
     8
 71
     3
 72
    11
 73
     7
 74
     5
 42
0.0000000001
 43
0.0000000001
 44
0.0000000001
 40
0.0
 40
0.0
 40
0.0
 40
0.0
 40
1.35688228151454
 40
2.713745721520204
 40
4.069117419800866
 40
5.422702120719754
 40
5.422702120719754
 40
5.422702120719754
 40
5.422702120719754
 10
-25.4277476440761
 20
23.65085000000007
 30
0.0
 10
-25.07200257914492
 20
23.36623997312939
 30
0.0
 10
-24.360517389117
 20
22.79702387144963
 30
0.0
 10
-23.02476528872295
 20
22.40163170532031
 30
0.0
 10
-21.62307147741945
 20
22.55759347493474
 30
0.0
 10
-20.87222048573848
 20
23.07993068042697
 30
0.0
 10
-20.49704264407611
 20
23.34092700000005
 30
0.0
 11
-25.4277476440761
 21
23.65085000000007
 31
0.0
 11
-24.31567564407609
 21
22.87340200000002
 31
0.0
 11
-23.01308564407608
 21
22.49348400000005
 31
0.0
 11
-21.66828164407601
 21
22.66240600000011
 31
0.0
 11
-20.49704264407611
 21
23.34092700000005
 31
0.0
  0
SPLINE
  5
B8BA
330
1F
100
AcDbEntity
  8
AM_0
100
AcDbSpline
210
0.0
220
0.0
230
1.0
 70
     8
 71
     3
 72
    11
 73
     7
 74
     5
 42
0.0000000001
 43
0.0000000001
 44
0.0000000001
 40
0.0
 40
0.0
 40
0.0
 40
0.0
 40
1.660948988477659
 40
3.325848169103993
 40
4.992497788095311
 40
6.657612066567435
 40
6.657612066567435
 40
6.657612066567435
 40
6.657612066567435
 10
-20.02738964407612
 20
23.45045300000012
 30
0.0
 10
-20.46578412586133
 20
23.09879162966262
 30
0.0
 10
-21.34361571172298
 20
22.39463254181878
 30
0.0
 10
-23.07442392366453
 20
22.15852984281141
 30
0.0
 10
-24.71119184972836
 20
22.68998365886673
 30
0.0
 10
-25.54455438909183
 20
23.43773341208425
 30
0.0
 10
-25.96104364407605
 20
23.81143600000004
 30
0.0
 11
-20.02738964407612
 21
23.45045300000012
 31
0.0
 11
-21.41120464407603
 21
22.53186300000001
 31
0.0
 11
-23.05791764407612
 21
22.28645400000013
 31
0.0
 11
-24.64712764407611
 21
22.7885820000001
 31
0.0
 11
-25.96104364407605
 21
23.81143600000004
 31
0.0
  0
SPLINE
  5
B8BB
330
1F
100
AcDbEntity
  8
AM_0
100
AcDbSpline
210
0.0
220
0.0
230
1.0
 70
     8
 71
     3
 72
    11
 73
     7
 74
     5
 42
0.0000000001
 43
0.0000000001
 44
0.0000000001
 40
0.0
 40
0.0
 40
0.0
 40
0.0
 40
0.1945941334470505
 40
0.3892928262136043
 40
0.5803084888698011
 40
0.7670157582970988
 40
0.7670157582970988
 40
0.7670157582970988
 40
0.7670157582970988
 10
-2.913381644076054
 20
-10.69066099999986
 30
0.0
 10
-2.850611601590408
 20
-10.7116970238932
 30
0.0
 10
-2.72503778901998
 20
-10.75378037475622
 30
0.0
 10
-2.601779563276582
 20
-10.91456798456423
 30
0.0
 10
-2.55174630131449
 20
-11.10778832842741
 30
0.0
 10
-2.593448417747402
 20
-11.22921712424915
 30
0.0
 10
-2.614061644075974
 20
-11.28923899999989
 30
0.0
 11
-2.913381644076054
 21
-10.69066099999986
 31
0.0
 11
-2.735787644076054
 21
-10.77020499999991
 31
0.0
 11
-2.61328164407601
 21
-10.9215319999999
 31
0.0
 11
-2.570477644076078
 21
-11.10768999999987
 31
0.0
 11
-2.614061644075974
 21
-11.28923899999989
 31
0.0
  0
SPLINE
  5
B8BC
330
1F
100
AcDbEntity
  8
AM_0
100
AcDbSpline
210
0.0
220
0.0
230
1.0
 70
     8
 71
     3
 72
    11
 73
     7
 74
     5
 42
0.0000000001
 43
0.0000000001
 44
0.0000000001
 40
0.0
 40
0.0
 40
0.0
 40
0.0
 40
0.091432078205678
 40
0.1868412051956754
 40
0.2874355534911883
 40
0.3927781833283651
 40
0.3927781833283651
 40
0.3927781833283651
 40
0.3927781833283651
 10
-3.725276644076103
 20
-10.71847999999988
 30
0.0
 10
-3.711175806696297
 20
-10.7456609719753
 30
0.0
 10
-3.682360783544522
 20
-10.80120521489246
 30
0.0
 10
-3.664348525524536
 20
-10.89644514507761
 30
0.0
 10
-3.669402119068703
 20
-10.99874008310776
 30
0.0
 10
-3.698379756953436
 20
-11.06161810228916
 30
0.0
 10
-3.713202644076119
 20
-11.09378199999991
 30
0.0
 11
-3.725276644076103
 21
-10.71847999999988
 31
0.0
 11
-3.687070644076044
 21
-10.80154699999991
 31
0.0
 11
-3.668362644076097
 21
-10.89510399999989
 31
0.0
 11
-3.675412644076033
 21
-10.99545099999988
 31
0.0
 11
-3.713202644076119
 21
-11.09378199999991
 31
0.0
  0
ELLIPSE
  5
B8BD
330
1F
100
AcDbEntity
  8
AM_0
100
AcDbEllipse
 10
-4.122022644075997
 20
-10.88200699999987
 30
0.0
 11
0.3553324275549996
 21
0.2480371373970006
 31
0.0
210
0.0
220
0.0
230
1.0
 40
0.8391009369086601
 41
-0.258643830395496
 42
0.6981304635312049
  0
ELLIPSE
  5
B8BE
330
1F
100
AcDbEntity
  8
AM_0
100
AcDbEllipse
 10
-23.85413964407601
 20
-2.586757999999946
 30
0.0
 11
-22.715644365768
 21
0.0920818576949551
 31
0.0
210
0.0
220
0.0
230
1.0
 40
0.6963642228188799
 41
2.60595845425293
 42
2.625401095372779
  0
SPLINE
  5
B8BF
330
1F
100
AcDbEntity
  8
AM_0
100
AcDbSpline
210
0.0
220
0.0
230
1.0
 70
     8
 71
     3
 72
    11
 73
     7
 74
     5
 42
0.0000000001
 43
0.0000000001
 44
0.0000000001
 40
0.0
 40
0.0
 40
0.0
 40
0.0
 40
0.1142532823379887
 40
0.2322047839053552
 40
0.3545105050020748
 40
0.4822203831556592
 40
0.4822203831556592
 40
0.4822203831556592
 40
0.4822203831556592
 10
-9.410088644076125
 20
18.7450390000001
 30
0.0
 10
-9.424666272451808
 20
18.78023754818951
 30
0.0
 10
-9.454293386680479
 20
18.85177397242916
 30
0.0
 10
-9.507282807583498
 20
18.95744789418291
 30
0.0
 10
-9.56831190179724
 20
19.06415931128456
 30
0.0
 10
-9.619422804500654
 20
19.13011190914942
 30
0.0
 10
-9.645530644076046
 20
19.16380100000012
 30
0.0
 11
-9.410088644076125
 21
18.7450390000001
 31
0.0
 11
-9.455051644076064
 21
18.85007300000015
 31
0.0
 11
-9.507580644076114
 21
18.95568200000011
 31
0.0
 11
-9.569723644076105
 21
19.06102400000006
 31
0.0
 11
-9.645530644076046
 21
19.16380100000012
 31
0.0
  0
SPLINE
  5
B8C0
330
1F
100
AcDbEntity
  8
AM_0
100
AcDbSpline
210
0.0
220
0.0
230
1.0
 70
     8
 71
     3
 72
    11
 73
     7
 74
     5
 42
0.0000000001
 43
0.0000000001
 44
0.0000000001
 40
0.0
 40
0.0
 40
0.0
 40
0.0
 40
0.018416514871217
 40
0.0368339835355557
 40
0.0552698113172704
 40
0.0737385447335121
 40
0.0737385447335121
 40
0.0737385447335121
 40
0.0737385447335121
 10
-9.703614644076054
 20
19.22416200000006
 30
0.0
 10
-9.708171787157697
 20
19.22827587442547
 30
0.0
 10
-9.717286309335875
 20
19.23650383633427
 30
0.0
 10
-9.731422358509448
 20
19.24832404065038
 30
0.0
 10
-9.745866167368113
 20
19.2597940923027
 30
0.0
 10
-9.755782204656977
 20
19.26707586652383
 30
0.0
 10
-9.760744644076083
 20
19.27072000000007
 30
0.0
 11
-9.703614644076054
 21
19.22416200000006
 31
0.0
 11
-9.717362644076132
 21
19.23641600000004
 31
0.0
 11
-9.731466644076107
 21
19.24826000000015
 31
0.0
 11
-9.74592764407609
 21
19.25969500000005
 31
0.0
 11
-9.760744644076083
 21
19.27072000000007
 31
0.0
  0
SPLINE
  5
B8C1
330
1F
100
AcDbEntity
  8
AM_0
100
AcDbSpline
210
0.0
220
0.0
230
1.0
 70
     8
 71
     3
 72
    11
 73
     7
 74
     5
 42
0.0000000001
 43
0.0000000001
 44
0.0000000001
 40
0.0
 40
0.0
 40
0.0
 40
0.0
 40
0.0209352797210697
 40
0.0418747996057916
 40
0.0628378532955267
 40
0.0838193023636342
 40
0.0838193023636342
 40
0.0838193023636342
 40
0.0838193023636342
 10
-9.645530644076046
 20
19.16380100000012
 30
0.0
 10
-9.650095780265395
 20
19.16907991008455
 30
0.0
 10
-9.659226977251964
 20
19.17963879942674
 30
0.0
 10
-9.673551295195517
 20
19.19492688066664
 30
0.0
 10
-9.688281051865756
 20
19.20984665641721
 30
0.0
 10
-9.698501952497206
 20
19.21938882385317
 30
0.0
 10
-9.703614644076054
 20
19.22416200000006
 30
0.0
 11
-9.645530644076046
 21
19.16380100000012
 31
0.0
 11
-9.659329644076109
 21
19.17954500000004
 31
0.0
 11
-9.673611644076089
 21
19.19485800000015
 31
0.0
 11
-9.688375644076103
 21
19.20974000000009
 31
0.0
 11
-9.703614644076054
 21
19.22416200000006
 31
0.0
  0
SPLINE
  5
B8C2
330
1F
100
AcDbEntity
  8
AM_0
100
AcDbSpline
210
0.0
220
0.0
230
1.0
 70
     8
 71
     3
 72
    11
 73
     7
 74
     5
 42
0.0000000001
 43
0.0000000001
 44
0.0000000001
 40
0.0
 40
0.0
 40
0.0
 40
0.0
 40
0.139037954142012
 40
0.2796354248055808
 40
0.4198429515970736
 40
0.5591193476770259
 40
0.5591193476770259
 40
0.5591193476770259
 40
0.5591193476770259
 10
-5.361577644076135
 20
15.12532900000008
 30
0.0
 10
-5.397635111388183
 20
15.15455085455355
 30
0.0
 10
-5.470154483896494
 20
15.21332233002652
 30
0.0
 10
-5.591372787082669
 20
15.28400063974979
 30
0.0
 10
-5.715627337443878
 20
15.34857696300649
 30
0.0
 10
-5.800849517481165
 20
15.38628286141924
 30
0.0
 10
-5.843318644076077
 20
15.40507300000013
 30
0.0
 11
-5.361577644076135
 21
15.12532900000008
 31
0.0
 11
-5.471781644076088
 21
15.21010300000011
 31
0.0
 11
-5.59198264407604
 21
15.28303700000015
 31
0.0
 11
-5.716545644076006
 21
15.34739700000011
 31
0.0
 11
-5.843318644076077
 21
15.40507300000013
 31
0.0
  0
SPLINE
  5
B8C3
330
1F
100
AcDbEntity
  8
AM_0
100
AcDbSpline
210
0.0
220
0.0
230
1.0
 70
     8
 71
     3
 72
    11
 73
     7
 74
     5
 42
0.0000000001
 43
0.0000000001
 44
0.0000000001
 40
0.0
 40
0.0
 40
0.0
 40
0.0
 40
0.0158888823080805
 40
0.0317745236234307
 40
0.0476682235388154
 40
0.0635818283157974
 40
0.0635818283157974
 40
0.0635818283157974
 40
0.0635818283157974
 10
-5.303090644076121
 20
15.06346700000006
 30
0.0
 10
-5.306462886589564
 20
15.0675514772689
 30
0.0
 10
-5.31320668375098
 20
15.07571959866043
 30
0.0
 10
-5.323763350370198
 20
15.08759887073623
 30
0.0
 10
-5.334608247512643
 20
15.09922686932185
 30
0.0
 10
-5.34211694558557
 20
15.10671339476322
 30
0.0
 10
-5.345873644075993
 20
15.1104590000001
 30
0.0
 11
-5.303090644076121
 21
15.06346700000006
 31
0.0
 11
-5.313280644076087
 21
15.07565800000008
 31
0.0
 11
-5.323808644076109
 21
15.08755400000007
 31
0.0
 11
-5.334672644076078
 21
15.09915500000011
 31
0.0
 11
-5.345873644075993
 21
15.1104590000001
 31
0.0
  0
SPLINE
  5
B8C4
330
1F
100
AcDbEntity
  8
AM_0
100
AcDbSpline
210
0.0
220
0.0
230
1.0
 70
     8
 71
     3
 72
    11
 73
     7
 74
     5
 42
0.0000000001
 43
0.0000000001
 44
0.0000000001
 40
0.0
 40
0.0
 40
0.0
 40
0.0
 40
0.3473478671131427
 40
0.6939183834947317
 40
1.040019316128567
 40
1.385974372511622
 40
1.385974372511622
 40
1.385974372511622
 40
1.385974372511622
 10
-10.05173664407613
 20
14.50746000000012
 30
0.0
 10
-9.983612524483083
 20
14.41365417896984
 30
0.0
 10
-9.847516744371072
 20
14.22625247061124
 30
0.0
 10
-9.687747893082011
 20
13.91742027883669
 30
0.0
 10
-9.559686067505065
 20
13.59471727705059
 30
0.0
 10
-9.506696728735109
 20
13.36991063026079
 30
0.0
 10
-9.480207644076074
 20
13.25753100000005
 30
0.0
 11
-10.05173664407613
 21
14.50746000000012
 31
0.0
 11
-9.854754644076081
 21
14.22136800000006
 31
0.0
 11
-9.692933644076049
 21
13.91489600000008
 31
0.0
 11
-9.567756644076041
 21
13.59222500000007
 31
0.0
 11
-9.480207644076074
 21
13.25753100000005
 31
0.0
  0
ELLIPSE
  5
B8C5
330
1F
100
AcDbEntity
  8
AM_0
100
AcDbEllipse
 10
-12.00550564407609
 20
12.93584400000006
 30
0.0
 11
0.0083487499079962
 21
1.913378785809
 31
0.0
210
0.0
220
0.0
230
1.0
 40
0.9848081710173099
 41
-1.45486010256059
 42
-0.95356437891948
  0
SPLINE
  5
B8C6
330
1F
100
AcDbEntity
  8
AM_0
100
AcDbSpline
210
0.0
220
0.0
230
1.0
 70
     8
 71
     3
 72
    11
 73
     7
 74
     5
 42
0.0000000001
 43
0.0000000001
 44
0.0000000001
 40
0.0
 40
0.0
 40
0.0
 40
0.0
 40
0.8159827479825009
 40
1.629963810077871
 40
2.443091993412433
 40
3.256473591018999
 40
3.256473591018999
 40
3.256473591018999
 40
3.256473591018999
 10
-7.919917644076065
 20
10.45583200000007
 30
0.0
 10
-8.11128400429434
 20
10.65003221655428
 30
0.0
 10
-8.493547284239081
 20
11.03795625744275
 30
0.0
 10
-8.937843054166592
 20
11.72583670774445
 30
0.0
 10
-9.284697271056812
 20
12.46624806878141
 30
0.0
 10
-9.415030750976136
 20
12.99374262793878
 30
0.0
 10
-9.480207644076074
 20
13.25753100000005
 30
0.0
 11
-7.919917644076065
 21
10.45583200000007
 31
0.0
 11
-8.472503644076084
 21
11.05622900000011
 31
0.0
 11
-8.92181864407604
 21
11.73496400000007
 31
0.0
 11
-9.259460644076
 21
12.47467700000007
 31
0.0
 11
-9.480207644076074
 21
13.25753100000005
 31
0.0
  0
SPLINE
  5
B8C7
330
1F
100
AcDbEntity
  8
AM_0
100
AcDbSpline
210
0.0
220
0.0
230
1.0
 70
     8
 71
     3
 72
    11
 73
     7
 74
     5
 42
0.0000000001
 43
0.0000000001
 44
0.0000000001
 40
0.0
 40
0.0
 40
0.0
 40
0.0
 40
1.337693737810396
 40
2.671995313394079
 40
4.017551223444946
 40
5.379469704903046
 40
5.379469704903046
 40
5.379469704903046
 40
5.379469704903046
 10
-9.410088644076125
 20
18.7450390000001
 30
0.0
 10
-9.34456095259609
 20
18.29853805780986
 30
0.0
 10
-9.21367173663939
 20
17.40666842335136
 30
0.0
 10
-8.394880856501199
 20
16.28130300936404
 30
0.0
 10
-7.200576302825041
 20
15.57406690223347
 30
0.0
 10
-6.29755699049629
 20
15.46163080257412
 30
0.0
 10
-5.843318644076077
 20
15.40507300000013
 30
0.0
 11
-9.410088644076125
 21
18.7450390000001
 31
0.0
 11
-9.109824644076155
 21
17.44148000000004
 31
0.0
 11
-8.336262644076072
 21
16.35429900000005
 31
0.0
 11
-7.179974644076139
 21
15.66617200000007
 31
0.0
 11
-5.843318644076077
 21
15.40507300000013
 31
0.0
  0
SPLINE
  5
B8C8
330
1F
100
AcDbEntity
  8
AM_0
100
AcDbSpline
210
0.0
220
0.0
230
1.0
 70
     8
 71
     3
 72
    11
 73
     7
 74
     5
 42
0.0000000001
 43
0.0000000001
 44
0.0000000001
 40
0.0
 40
0.0
 40
0.0
 40
0.0
 40
1.293923088235557
 40
2.636679997845415
 40
3.871635991739841
 40
4.888134334918115
 40
4.888134334918115
 40
4.888134334918115
 40
4.888134334918115
 10
-5.843318644076077
 20
15.40507300000013
 30
0.0
 10
-6.146701834091619
 20
15.71166318094567
 30
0.0
 10
-6.764918168640003
 20
16.33641453207679
 30
0.0
 10
-7.69746761957972
 20
17.22878194090847
 30
0.0
 10
-8.584290218054928
 20
18.03458709499245
 30
0.0
 10
-9.153223623685038
 20
18.52405257363218
 30
0.0
 10
-9.410088644076125
 20
18.7450390000001
 30
0.0
 11
-5.843318644076077
 21
15.40507300000013
 31
0.0
 11
-6.757531644076124
 21
16.3207430000001
 31
0.0
 11
-7.727538644076133
 21
17.2492270000001
 31
0.0
 11
-8.642228644076084
 21
18.07896100000002
 31
0.0
 11
-9.410088644076125
 21
18.7450390000001
 31
0.0
  0
SPLINE
  5
B8C9
330
1F
100
AcDbEntity
  8
AM_0
100
AcDbSpline
210
0.0
220
0.0
230
1.0
 70
     8
 71
     3
 72
    11
 73
     7
 74
     5
 42
0.0000000001
 43
0.0000000001
 44
0.0000000001
 40
0.0
 40
0.0
 40
0.0
 40
0.0
 40
1.583090228336074
 40
3.266721433132683
 40
4.796999499038337
 40
5.993654329868436
 40
5.993654329868436
 40
5.993654329868436
 40
5.993654329868436
 10
-5.345792644076084
 20
15.11038000000007
 30
0.0
 10
-5.721689615890888
 20
15.48073856417083
 30
0.0
 10
-6.497356518823983
 20
16.24497691133851
 30
0.0
 10
-7.65133749104668
 20
17.35200134833284
 30
0.0
 10
-8.734279843470178
 20
18.34642637129995
 30
0.0
 10
-9.408066926525096
 20
18.95654485435785
 30
0.0
 10
-9.70374364407607
 20
19.2242820000001
 30
0.0
 11
-5.345792644076084
 21
15.11038000000007
 31
0.0
 11
-6.475875644076126
 21
16.2190220000001
 31
0.0
 11
-7.692612644076092
 21
17.38270800000009
 31
0.0
 11
-8.817528644076077
 21
18.42016400000008
 31
0.0
 11
-9.70374364407607
 21
19.2242820000001
 31
0.0
  0
SPLINE
  5
B8CA
330
1F
100
AcDbEntity
  8
AM_0
100
AcDbSpline
210
0.0
220
0.0
230
1.0
 70
     8
 71
     3
 72
    11
 73
     7
 74
     5
 42
0.0000000001
 43
0.0000000001
 44
0.0000000001
 40
0.0
 40
0.0
 40
0.0
 40
0.0
 40
1.683294570804496
 40
3.342403630934319
 40
4.981394897283848
 40
6.623194286697818
 40
6.623194286697818
 40
6.623194286697818
 40
6.623194286697818
 10
-5.361577644076135
 20
15.12532900000008
 30
0.0
 10
-5.92662515490436
 20
15.1633625240571
 30
0.0
 10
-7.048601595985637
 20
15.23888310798241
 30
0.0
 10
-8.551859668747436
 20
16.0788359945257
 30
0.0
 10
-9.527122801211174
 20
17.50372785172074
 30
0.0
 10
-9.606038847616614
 20
18.61012761744865
 30
0.0
 10
-9.645530644076046
 20
19.16380100000012
 30
0.0
 11
-5.361577644076135
 21
15.12532900000008
 31
0.0
 11
-7.027977644076088
 21
15.36321900000018
 31
0.0
 11
-8.470839644076107
 21
16.18223800000007
 31
0.0
 11
-9.384612644076099
 21
17.54286700000008
 31
0.0
 11
-9.645530644076046
 21
19.16380100000012
 31
0.0
  0
SPLINE
  5
B8CB
330
1F
100
AcDbEntity
  8
AM_0
100
AcDbSpline
210
0.0
220
0.0
230
1.0
 70
     8
 71
     3
 72
    11
 73
     7
 74
     5
 42
0.0000000001
 43
0.0000000001
 44
0.0000000001
 40
0.0
 40
0.0
 40
0.0
 40
0.0
 40
0.2030857046914577
 40
0.4060143447918949
 40
0.6087413925038259
 40
0.8112240477338559
 40
0.8112240477338559
 40
0.8112240477338559
 40
0.8112240477338559
 10
-18.88724964407614
 20
19.72348200000007
 30
0.0
 10
-18.81974036506215
 20
19.71810897393781
 30
0.0
 10
-18.68477401808128
 20
19.70736707726157
 30
0.0
 10
-18.48438820583059
 20
19.67425510490021
 30
0.0
 10
-18.28639826391312
 20
19.629840807458
 30
0.0
 10
-18.15757928599947
 20
19.58903673248744
 30
0.0
 10
-18.09320864407604
 20
19.56864700000014
 30
0.0
 11
-18.88724964407614
 21
19.72348200000007
 31
0.0
 11
-18.68505064407608
 21
19.70452500000007
 31
0.0
 11
-18.48468864407604
 21
19.67235200000013
 31
0.0
 11
-18.28709564407606
 21
19.6270170000001
 31
0.0
 11
-18.09320864407604
 21
19.56864700000014
 31
0.0
  0
ELLIPSE
  5
B8CC
330
1F
100
AcDbEntity
  8
AM_0
100
AcDbEllipse
 10
-18.60581264407605
 20
17.04016500000008
 30
0.0
 11
0.0083487499079962
 21
1.913378785809
 31
0.0
210
0.0
220
0.0
230
1.0
 40
0.9848081710173099
 41
-0.280572908428719
 42
0.023367874461189
  0
SPLINE
  5
B8CD
330
1F
100
AcDbEntity
  8
AM_0
100
AcDbSpline
210
0.0
220
0.0
230
1.0
 70
     8
 71
     3
 72
    11
 73
     7
 74
     5
 42
0.0000000001
 43
0.0000000001
 44
0.0000000001
 40
0.0
 40
0.0
 40
0.0
 40
0.0
 40
1.279450460133948
 40
2.55651480247537
 40
3.830868876488625
 40
5.102211654927593
 40
5.102211654927593
 40
5.102211654927593
 40
5.102211654927593
 10
-18.09320864407604
 20
19.56864700000014
 30
0.0
 10
-17.69106568867523
 20
19.42633313790224
 30
0.0
 10
-16.8875297564706
 20
19.14197082268401
 30
0.0
 10
-15.71257578810475
 20
18.64015370973874
 30
0.0
 10
-14.56244613516276
 20
18.08997816516683
 30
0.0
 10
-13.82194449553697
 20
17.67517449847136
 30
0.0
 10
-13.45213164407604
 20
17.46801800000011
 30
0.0
 11
-18.09320864407604
 21
19.56864700000014
 31
0.0
 11
-16.89164764407607
 21
19.12905100000008
 31
0.0
 11
-15.71547964407611
 21
18.63153500000007
 31
0.0
 11
-14.56790664407603
 21
18.07741000000007
 31
0.0
 11
-13.45213164407604
 21
17.46801800000011
 31
0.0
  0
SPLINE
  5
B8CE
330
1F
100
AcDbEntity
  8
AM_0
100
AcDbSpline
210
0.0
220
0.0
230
1.0
 70
     8
 71
     3
 72
    11
 73
     7
 74
     5
 42
0.0000000001
 43
0.0000000001
 44
0.0000000001
 40
0.0
 40
0.0
 40
0.0
 40
0.0
 40
1.23137723828403
 40
2.461857869901195
 40
3.691529152246626
 40
4.92048546334025
 40
4.92048546334025
 40
4.92048546334025
 40
4.92048546334025
 10
-13.57257864407606
 20
16.9216890000001
 30
0.0
 10
-13.93042524320001
 20
17.12302837717699
 30
0.0
 10
-14.64585788145339
 20
17.52556052964286
 30
0.0
 10
-15.76251565016716
 20
18.04478656067393
 30
0.0
 10
-16.90364789840682
 20
18.50561552720583
 30
0.0
 10
-17.68530016392801
 20
18.75286114215562
 30
0.0
 10
-18.07601264407603
 20
18.87644800000006
 30
0.0
 11
-13.57257864407606
 21
16.9216890000001
 31
0.0
 11
-14.65343864407609
 21
17.51163100000005
 31
0.0
 11
-15.76696564407606
 21
18.03521500000007
 31
0.0
 11
-16.90915664407609
 21
18.49072700000007
 31
0.0
 11
-18.07601264407603
 21
18.87644800000006
 31
0.0
  0
ELLIPSE
  5
B8CF
330
1F
100
AcDbEntity
  8
AM_0
100
AcDbEllipse
 10
-19.96252764407614
 20
11.81537600000009
 30
0.0
 11
0.0211620678059904
 21
4.849953831417998
 31
0.0
210
0.0
220
0.0
230
1.0
 40
0.98480783505155
 41
-1.304853668104249
 42
0.0
  0
ELLIPSE
  5
B8D0
330
1F
100
AcDbEntity
  8
AM_0
100
AcDbEllipse
 10
-19.71702164407605
 20
11.67430300000009
 30
0.0
 11
0.0202894052159908
 21
4.649955735277
 31
0.0
210
0.0
220
0.0
230
0.9999999999999998
 40
0.9848077419354799
 41
4.71238899970199
 42
6.283184995035929
  0
SPLINE
  5
B8D1
330
1F
100
AcDbEntity
  8
AM_0
100
AcDbSpline
210
0.0
220
0.0
230
1.0
 70
     8
 71
     3
 72
    11
 73
     7
 74
     5
 42
0.0000000001
 43
0.0000000001
 44
0.0000000001
 40
0.0
 40
0.0
 40
0.0
 40
0.0
 40
1.140379325489545
 40
2.276256671153248
 40
3.407625188340209
 40
4.534692355384402
 40
4.534692355384402
 40
4.534692355384402
 40
4.534692355384402
 10
-13.45213164407604
 20
17.46801800000011
 30
0.0
 10
-13.1282501061762
 20
17.26840003668773
 30
0.0
 10
-12.48176564716393
 20
16.86995216016491
 30
0.0
 10
-11.59349319426408
 20
16.15838381028425
 30
0.0
 10
-10.77018542632213
 20
15.37898355326722
 30
0.0
 10
-10.29091530356752
 20
14.79759875496321
 30
0.0
 10
-10.05173664407613
 20
14.50746000000012
 30
0.0
 11
-13.45213164407604
 21
17.46801800000011
 31
0.0
 11
-12.49382164407606
 21
16.84987000000009
 31
0.0
 11
-11.60262764407602
 21
16.14560400000013
 31
0.0
 11
-10.78633864407612
 21
15.36223500000014
 31
0.0
 11
-10.05173664407613
 21
14.50746000000012
 31
0.0
  0
ELLIPSE
  5
B8D2
330
1F
100
AcDbEntity
  8
AM_0
100
AcDbEllipse
 10
-18.45040764407605
 20
8.333685000000087
 30
0.0
 11
0.0432552535049804
 21
9.913302631447001
 31
0.0
210
0.0
220
0.0
230
1.0
 40
0.9848078312610699
 41
-0.953564541753329
 42
-0.5187466604897271
  0
SPLINE
  5
B8D3
330
1F
100
AcDbEntity
  8
AM_0
100
AcDbSpline
210
0.0
220
0.0
230
1.0
 70
     8
 71
     3
 72
    11
 73
     7
 74
     5
 42
0.0000000001
 43
0.0000000001
 44
0.0000000001
 40
0.0
 40
0.0
 40
0.0
 40
0.0
 40
0.4406685135802298
 40
0.8782991358417611
 40
1.3114364809565
 40
1.739621350442793
 40
1.739621350442793
 40
1.739621350442793
 40
1.739621350442793
 10
-7.155916644076057
 20
6.320079000000077
 30
0.0
 10
-7.093207240212514
 20
6.453193785330399
 30
0.0
 10
-6.968220740099259
 20
6.718505686045758
 30
0.0
 10
-6.852977673678807
 20
7.142005503765807
 30
0.0
 10
-6.787081118124106
 20
7.57150498403716
 30
0.0
 10
-6.790560804653453
 20
7.859032074125005
 30
0.0
 10
-6.792290644076103
 20
8.001969000000144
 30
0.0
 11
-7.155916644076057
 21
6.320079000000077
 31
0.0
 11
-6.979822644076023
 21
6.724034000000074
 31
0.0
 11
-6.860752644076058
 21
7.145155000000102
 31
0.0
 11
-6.798759644076028
 21
7.573833000000149
 31
0.0
 11
-6.792290644076103
 21
8.001969000000144
 31
0.0
  0
SPLINE
  5
B8D4
330
1F
100
AcDbEntity
  8
AM_0
100
AcDbSpline
210
0.0
220
0.0
230
1.0
 70
     8
 71
     3
 72
    11
 73
     7
 74
     5
 42
0.0000000001
 43
0.0000000001
 44
0.0000000001
 40
0.0
 40
0.0
 40
0.0
 40
0.0
 40
0.2449495215447906
 40
0.49030459465514
 40
0.7358746274401254
 40
0.9814735180910584
 40
0.9814735180910584
 40
0.9814735180910584
 40
0.9814735180910584
 10
-7.627676644076075
 20
5.459502000000099
 30
0.0
 10
-7.587107434522673
 20
5.530360896070178
 30
0.0
 10
-7.505901846856635
 20
5.672196005999135
 30
0.0
 10
-7.386998654936403
 20
5.886749113243334
 30
0.0
 10
-7.269980182183736
 20
6.102582073382142
 30
0.0
 10
-7.193939312666279
 20
6.247577184806701
 30
0.0
 10
-7.155916644076057
 20
6.320079000000077
 30
0.0
 11
-7.627676644076075
 21
5.459502000000099
 31
0.0
 11
-7.506463644076063
 21
5.672358000000144
 31
0.0
 11
-7.387364644076058
 21
5.886868000000106
 31
0.0
 11
-7.270483644076023
 21
6.10283900000013
 31
0.0
 11
-7.155916644076057
 21
6.320079000000077
 31
0.0
  0
ELLIPSE
  5
B8D5
330
1F
100
AcDbEntity
  8
AM_0
100
AcDbEllipse
 10
-9.775054644076078
 20
8.198242000000078
 30
0.0
 11
0.0083487499079962
 21
1.913378785809
 31
0.0
210
0.0
220
0.0
230
1.0
 40
0.9848081710173099
 41
4.187045184004269
 42
5.49714802680474
  0
ELLIPSE
  5
B8D6
330
1F
100
AcDbEntity
  8
AM_0
100
AcDbEllipse
 10
-9.52767764407605
 20
7.378881000000063
 30
0.0
 11
0.0003757379679998
 21
0.086112180265
 31
0.0
210
0.0
220
0.0
230
1.0
 40
0.9847990431177599
 41
3.401649052951819
 42
6.023128556762
  0
ELLIPSE
  5
B8D7
330
1F
100
AcDbEntity
  8
AM_0
100
AcDbEllipse
 10
-9.471505644075989
 20
7.295418000000125
 30
0.0
 11
-0.0513232678510004
 21
0.1933026698659999
 31
0.0
210
0.0
220
0.0
230
1.0
 40
0.16781
 41
1.525487778894409
 42
3.00901933219698
  0
ELLIPSE
  5
B8D8
330
1F
100
AcDbEntity
  8
AM_0
100
AcDbEllipse
 10
-10.71128464407598
 20
6.125025000000078
 30
0.0
 11
0.1936875229159999
 21
0.0498512132910004
 31
0.0
210
0.0
220
0.0
230
1.0
 40
0.04465
 41
0.256056746699429
 42
1.73957077086481
  0
ELLIPSE
  5
B8D9
330
1F
100
AcDbEntity
  8
AM_0
100
AcDbEllipse
 10
-10.1384706440761
 20
7.118333000000092
 30
0.0
 11
-0.0513232678510004
 21
0.1933026698659999
 31
0.0
210
0.0
220
0.0
230
1.0
 40
0.16781
 41
1.525487778894409
 42
3.00901933219698
  0
ELLIPSE
  5
B8DA
330
1F
100
AcDbEntity
  8
AM_0
100
AcDbEllipse
 10
-9.970535644076051
 20
6.331072000000091
 30
0.0
 11
0.0035512436869984
 21
0.813879252369
 31
0.0
210
0.0
220
0.0
230
1.0
 40
0.9848074732733197
 41
0.260053921190573
 42
1.830850538800419
  0
ELLIPSE
  5
B8DB
330
1F
100
AcDbEntity
  8
AM_0
100
AcDbEllipse
 10
-9.514390644076058
 20
7.462041000000084
 30
0.0
 11
-0.0513232678510004
 21
0.1933026698659999
 31
0.0
210
0.0
220
0.0
230
1.0
 40
0.16781
 41
0.041958058580473
 42
1.525487778894409
  0
ELLIPSE
  5
B8DC
330
1F
100
AcDbEntity
  8
AM_0
100
AcDbEllipse
 10
-10.53697964407598
 20
5.44779500000007
 30
0.0
 11
0.1936875229159999
 21
0.0498512132910004
 31
0.0
210
0.0
220
0.0
230
1.0
 40
0.04465
 41
0.256056746699429
 42
1.73957077086481
  0
ELLIPSE
  5
B8DD
330
1F
100
AcDbEntity
  8
AM_0
100
AcDbEllipse
 10
-10.65375764407605
 20
5.426162000000061
 30
0.0
 11
0.0003757379679998
 21
0.086112180265
 31
0.0
210
0.0
220
0.0
230
1.0
 40
0.9847990431177599
 41
1.830848411698159
 42
4.97244042030945
  0
ELLIPSE
  5
B8DE
330
1F
100
AcDbEntity
  8
AM_0
100
AcDbEllipse
 10
-10.70107664407606
 20
5.404225000000081
 30
0.0
 11
0.1936875229159999
 21
0.0498512132910004
 31
0.0
210
0.0
220
0.0
230
1.0
 40
0.04465
 41
1.73957077086481
 42
2.6198503015092
  0
ELLIPSE
  5
B8DF
330
1F
100
AcDbEntity
  8
AM_0
100
AcDbEllipse
 10
-10.75304064407606
 20
7.133170000000092
 30
0.0
 11
-0.0513232678510004
 21
0.1933026698659999
 31
0.0
210
0.0
220
0.0
230
1.0
 40
0.16781
 41
0.041958058580473
 42
1.525487778894409
  0
ELLIPSE
  5
B8E0
330
1F
100
AcDbEntity
  8
AM_0
100
AcDbEllipse
 10
-11.02478664407607
 20
6.661939000000046
 30
0.0
 11
0.1936875229159999
 21
0.0498512132910004
 31
0.0
210
0.0
220
0.0
230
1.0
 40
0.04465
 41
1.73957077086481
 42
2.616823585514209
  0
ELLIPSE
  5
B8E1
330
1F
100
AcDbEntity
  8
AM_0
100
AcDbEllipse
 10
-10.69162464407605
 20
6.759768000000093
 30
0.0
 11
0.0016847318529992
 21
0.386109324476
 31
0.0
210
0.0
220
0.0
230
1.0
 40
0.9848075563371301
 41
0.260053900231892
 42
1.830850559759119
  0
ELLIPSE
  5
B8E2
330
1F
100
AcDbEntity
  8
AM_0
100
AcDbEllipse
 10
-9.495974644076056
 20
7.378743000000071
 30
0.0
 11
0.0012450800769994
 21
0.28534928365
 31
0.0
210
0.0
220
0.0
230
1.0
 40
0.9848082368443199
 41
3.401646733168789
 42
6.02313087654787
  0
ELLIPSE
  5
B8E3
330
1F
100
AcDbEntity
  8
AM_0
100
AcDbEllipse
 10
-9.938833644076055
 20
6.330934000000098
 30
0.0
 11
0.0026819015779988
 21
0.6146421489839998
 31
0.0
210
0.0
220
0.0
230
1.0
 40
0.9848075646548901
 41
0.260053898133154
 42
1.83085056185786
  0
ELLIPSE
  5
B8E4
330
1F
100
AcDbEntity
  8
AM_0
100
AcDbEllipse
 10
-10.56693464407607
 20
5.425783000000109
 30
0.0
 11
0.0013662536409994
 21
0.3131200192899999
 31
0.0
210
0.0
220
0.0
230
1.0
 40
0.9848078869964799
 41
2.62240793257078
 42
4.972442651797519
  0
ELLIPSE
  5
B8E5
330
1F
100
AcDbEntity
  8
AM_0
100
AcDbEllipse
 10
-10.62205464407605
 20
5.426023000000071
 30
0.0
 11
0.0012450800769994
 21
0.28534928365
 31
0.0
210
0.0
220
0.0
230
1.0
 40
0.9848082368443199
 41
2.705675547696909
 42
4.972442740071099
  0
ELLIPSE
  5
B8E6
330
1F
100
AcDbEntity
  8
AM_0
100
AcDbEllipse
 10
-10.65992264407606
 20
6.7596300000001
 30
0.0
 11
0.0025540739619988
 21
0.585346427861
 31
0.0
210
0.0
220
0.0
230
0.9999999999999998
 40
0.9848074321092301
 41
0.260053931577106
 42
0.478145559028199
  0
ELLIPSE
  5
B8E7
330
1F
100
AcDbEntity
  8
AM_0
100
AcDbEllipse
 10
-10.60480164407607
 20
6.759389000000084
 30
0.0
 11
0.0026752475259988
 21
0.6131171635010001
 31
0.0
210
0.0
220
0.0
230
1.0
 40
0.98480892088537
 41
0.519184617903524
 42
1.83085090406258
  0
ELLIPSE
  5
B8E8
330
1F
100
AcDbEntity
  8
AM_0
100
AcDbEllipse
 10
-10.60480164407607
 20
6.759389000000084
 30
0.0
 11
0.0026752475259988
 21
0.6131171635010001
 31
0.0
210
0.0
220
0.0
230
1.0
 40
0.98480892088537
 41
0.260053555929249
 42
0.519184617903524
  0
ELLIPSE
  5
B8E9
330
1F
100
AcDbEntity
  8
AM_0
100
AcDbEllipse
 10
-9.883712644076069
 20
6.330693000000081
 30
0.0
 11
0.0025607280139988
 21
0.5868714133450001
 31
0.0
210
0.0
220
0.0
230
1.0
 40
0.9848077195051098
 41
0.260053859061322
 42
1.830850600929749
  0
ELLIPSE
  5
B8EA
330
1F
100
AcDbEntity
  8
AM_0
100
AcDbEllipse
 10
-10.56693464407607
 20
5.425783000000109
 30
0.0
 11
0.0013662536409994
 21
0.3131200192899999
 31
0.0
210
0.0
220
0.0
230
1.0
 40
0.9848078869964799
 41
1.830850643191249
 42
2.62240793257078
  0
ELLIPSE
  5
B8EB
330
1F
100
AcDbEntity
  8
AM_0
100
AcDbEllipse
 10
-9.440853644076071
 20
7.378502000000111
 30
0.0
 11
0.0013662536409994
 21
0.3131200192899999
 31
0.0
210
0.0
220
0.0
230
1.0
 40
0.9848078869964799
 41
3.40164682144249
 42
6.023130788274059
  0
SPLINE
  5
B8EC
330
1F
100
AcDbEntity
  8
AM_0
100
AcDbSpline
210
0.0
220
0.0
230
1.0
 70
     8
 71
     3
 72
    11
 73
     7
 74
     5
 42
0.0000000001
 43
0.0000000001
 44
0.0000000001
 40
0.0
 40
0.0
 40
0.0
 40
0.0
 40
0.175753294549511
 40
0.3530452570210302
 40
0.5318253464632781
 40
0.712039302007822
 40
0.712039302007822
 40
0.712039302007822
 40
0.712039302007822
 10
-7.50943364407604
 20
-1.226043999999888
 30
0.0
 10
-7.532433203176292
 20
-1.172162268036108
 30
0.0
 10
-7.578633675689375
 20
-1.063927085539817
 30
0.0
 10
-7.645812542555118
 20
-0.8998683190468399
 30
0.0
 10
-7.711908980480739
 20
-0.733769018036694
 30
0.0
 10
-7.754490730639043
 20
-0.6219352319498898
 30
0.0
 10
-7.775866644076046
 20
-0.5657949999998948
 30
0.0
 11
-7.50943364407604
 21
-1.226043999999888
 31
0.0
 11
-7.578034644076097
 21
-1.06423199999989
 31
0.0
 11
-7.645353644076095
 21
-0.9002179999998816
 31
0.0
 11
-7.711319644075985
 21
-0.7340529999999035
 31
0.0
 11
-7.775866644076046
 21
-0.5657949999998948
 31
0.0
  0
ELLIPSE
  5
B8ED
330
1F
100
AcDbEntity
  8
AM_0
100
AcDbEllipse
 10
-74.13292464407601
 20
5.981595999999939
 30
0.0
 11
-189.87765889613
 21
33.95273118156862
 31
0.0
210
0.0
220
0.0
230
1.0
 40
0.02828549177624
 41
4.34750652963302
 42
4.36017370302974
  0
SPLINE
  5
B8EE
330
1F
100
AcDbEntity
  8
AM_0
100
AcDbSpline
210
0.0
220
0.0
230
1.0
 70
     8
 71
     3
 72
    11
 73
     7
 74
     5
 42
0.0000000001
 43
0.0000000001
 44
0.0000000001
 40
0.0
 40
0.0
 40
0.0
 40
0.0
 40
0.1145187472905274
 40
0.2293591458312447
 40
0.344522180946798
 40
0.4600061701833688
 40
0.4600061701833688
 40
0.4600061701833688
 40
0.4600061701833688
 10
-11.89478764407607
 20
2.8981840000001
 30
0.0
 10
-11.93164995130992
 20
2.9081136757517
 30
0.0
 10
-12.00547810172686
 20
2.928000916947158
 30
0.0
 10
-12.11512917910015
 20
2.962211764456819
 30
0.0
 10
-12.22415445268445
 20
2.999376088164328
 30
0.0
 10
-12.29590663164871
 20
3.027008545515801
 30
0.0
 10
-12.33183264407608
 20
3.040844000000078
 30
0.0
 11
-11.89478764407607
 21
2.8981840000001
 31
0.0
 11
-12.00516764407604
 21
2.928693000000095
 31
0.0
 11
-12.114871644076
 21
2.962654000000071
 31
0.0
 11
-12.22379564407612
 21
3.000045000000085
 31
0.0
 11
-12.33183264407608
 21
3.040844000000078
 31
0.0
  0
ELLIPSE
  5
B8EF
330
1F
100
AcDbEntity
  8
AM_0
100
AcDbEllipse
 10
-52.25561364407605
 20
8.704904000000027
 30
0.0
 11
-154.0597655119191
 21
88.84210281486764
 31
0.0
210
0.0
220
0.0
230
1.0
 40
0.08708642667911
 41
4.45232250988341
 42
4.49783420418419
  0
SPLINE
  5
B8F0
330
1F
100
AcDbEntity
  8
AM_0
100
AcDbSpline
210
0.0
220
0.0
230
1.0
 70
     8
 71
     3
 72
    11
 73
     7
 74
     5
 42
0.0000000001
 43
0.0000000001
 44
0.0000000001
 40
0.0
 40
0.0
 40
0.0
 40
0.0
 40
0.8970856693343758
 40
1.788519282186132
 40
2.692057770536168
 40
3.619929896106302
 40
3.619929896106302
 40
3.619929896106302
 40
3.619929896106302
 10
-11.89478764407607
 20
2.8981840000001
 30
0.0
 10
-11.59894507794507
 20
2.843148824366271
 30
0.0
 10
-11.00912389129149
 20
2.733425220273209
 30
0.0
 10
-10.10832353419159
 20
2.86887745396217
 30
0.0
 10
-9.256220102525331
 20
3.23051307562999
 30
0.0
 10
-8.820475683892013
 20
3.665427480958439
 30
0.0
 10
-8.599708644076088
 20
3.885774000000054
 30
0.0
 11
-11.89478764407607
 21
2.8981840000001
 31
0.0
 11
-11.00508564407601
 21
2.783323000000081
 31
0.0
 11
-10.12196664407605
 21
2.904792000000071
 31
0.0
 11
-9.297275644076137
 21
3.273935000000079
 31
0.0
 11
-8.599708644076088
 21
3.885774000000054
 31
0.0
  0
SPLINE
  5
B8F1
330
1F
100
AcDbEntity
  8
AM_0
100
AcDbSpline
210
0.0
220
0.0
230
1.0
 70
     8
 71
     3
 72
    11
 73
     7
 74
     5
 42
0.0000000001
 43
0.0000000001
 44
0.0000000001
 40
0.0
 40
0.0
 40
0.0
 40
0.0
 40
0.1595972549199891
 40
0.3190425743119642
 40
0.4783129423783351
 40
0.6374038569681328
 40
0.6374038569681328
 40
0.6374038569681328
 40
0.6374038569681328
 10
-8.234492644076055
 20
4.407231000000109
 30
0.0
 10
-8.261649109030015
 20
4.361474028727183
 30
0.0
 10
-8.315936186163439
 20
4.270003646514459
 30
0.0
 10
-8.404954461376366
 20
4.137650430963898
 30
0.0
 10
-8.498806071357911
 20
4.008887482913805
 30
0.0
 10
-8.566087094796822
 20
3.926796403306733
 30
0.0
 10
-8.599708644076088
 20
3.885774000000054
 30
0.0
 11
-8.234492644076055
 21
4.407231000000109
 31
0.0
 11
-8.317235644075992
 21
4.270758000000085
 31
0.0
 11
-8.4058096440761
 21
4.138178000000124
 31
0.0
 11
-8.50002964407605
 21
4.009766000000098
 31
0.0
 11
-8.599708644076088
 21
3.885774000000054
 31
0.0
  0
ELLIPSE
  5
B8F2
330
1F
100
AcDbEntity
  8
AM_0
100
AcDbEllipse
 10
-10.86965864407608
 20
6.300105000000115
 30
0.0
 11
0.0083487499079962
 21
1.913378785809
 31
0.0
210
0.0
220
0.0
230
1.0
 40
0.9848081710173099
 41
2.841463729328569
 42
4.187045184004269
  0
SPLINE
  5
B8F3
330
1F
100
AcDbEntity
  8
AM_0
100
AcDbSpline
210
0.0
220
0.0
230
1.0
 70
     8
 71
     3
 72
    11
 73
     7
 74
     5
 42
0.0000000001
 43
0.0000000001
 44
0.0000000001
 40
0.0
 40
0.0
 40
0.0
 40
0.0
 40
0.147332309701537
 40
0.2952357497190365
 40
0.4437129403074053
 40
0.5927649825274672
 40
0.5927649825274672
 40
0.5927649825274672
 40
0.5927649825274672
 10
-20.37665064407605
 20
4.930537000000043
 30
0.0
 10
-20.42553068388263
 20
4.93540239294302
 30
0.0
 10
-20.52348024584786
 20
4.94515203941301
 30
0.0
 10
-20.66953628186257
 20
4.968934715412991
 30
0.0
 10
-20.81504327104199
 20
4.99885683517986
 30
0.0
 10
-20.91079052246983
 20
5.02479357440235
 30
0.0
 10
-20.958756644076
 20
5.037787000000065
 30
0.0
 11
-20.37665064407605
 21
4.930537000000043
 31
0.0
 11
-20.52309964407601
 21
4.946646000000072
 31
0.0
 11
-20.66916264407603
 21
4.969906000000122
 31
0.0
 11
-20.81449564407609
 21
5.000300000000123
 31
0.0
 11
-20.958756644076
 21
5.037787000000065
 31
0.0
  0
ELLIPSE
  5
B8F4
330
1F
100
AcDbEntity
  8
AM_0
100
AcDbEllipse
 10
-20.07590664407604
 20
7.770562000000126
 30
0.0
 11
0.0083487499079962
 21
1.913378785809
 31
0.0
210
0.0
220
0.0
230
1.0
 40
0.9848081710173099
 41
2.921481741251149
 42
3.138283731784409
  0
SPLINE
  5
B8F5
330
1F
100
AcDbEntity
  8
AM_0
100
AcDbSpline
210
0.0
220
0.0
230
1.0
 70
     8
 71
     3
 72
    11
 73
     7
 74
     5
 42
0.0000000001
 43
0.0000000001
 44
0.0000000001
 40
0.0
 40
0.0
 40
0.0
 40
0.0
 40
0.1066382956774887
 40
0.2138777819919912
 40
0.3215971120725744
 40
0.4296336113308979
 40
0.4296336113308979
 40
0.4296336113308979
 40
0.4296336113308979
 10
-14.67473564407603
 20
1.343031000000081
 30
0.0
 10
-14.64558918130821
 20
1.32263419829425
 30
0.0
 10
-14.58713193787527
 20
1.281725604614481
 30
0.0
 10
-14.50704379184745
 20
1.21016924426772
 30
0.0
 10
-14.43293667387965
 20
1.131727104056162
 30
0.0
 10
-14.39077664628559
 20
1.073374961299723
 30
0.0
 10
-14.36966564407603
 20
1.044156000000072
 30
0.0
 11
-14.67473564407603
 21
1.343031000000081
 31
0.0
 11
-14.58858764407605
 21
1.280180000000058
 31
0.0
 11
-14.50821164407605
 21
1.209187000000071
 31
0.0
 11
-14.43483964407599
 21
1.130320000000068
 31
0.0
 11
-14.36966564407603
 21
1.044156000000072
 31
0.0
  0
SPLINE
  5
B8F6
330
1F
100
AcDbEntity
  8
AM_0
100
AcDbSpline
210
0.0
220
0.0
230
1.0
 70
     8
 71
     3
 72
    11
 73
     7
 74
     5
 42
0.0000000001
 43
0.0000000001
 44
0.0000000001
 40
0.0
 40
0.0
 40
0.0
 40
0.0
 40
0.1327606399502847
 40
0.2651041931819553
 40
0.3968707513103583
 40
0.5279775360356487
 40
0.5279775360356487
 40
0.5279775360356487
 40
0.5279775360356487
 10
-14.36966564407603
 20
1.044156000000072
 30
0.0
 10
-14.34365680216593
 20
1.008298713337657
 30
0.0
 10
-14.29172082887779
 20
0.9366967908560159
 30
0.0
 10
-14.2005667410575
 20
0.8404172083354396
 30
0.0
 10
-14.10275085525348
 20
0.7519034971741148
 30
0.0
 10
-14.0319948520836
 20
0.7001231787318745
 30
0.0
 10
-13.996705644076
 20
0.6742980000001069
 30
0.0
 11
-14.36966564407603
 21
1.044156000000072
 31
0.0
 11
-14.289393644076
 21
0.9384120000000564
 31
0.0
 11
-14.19925264407609
 21
0.8415130000000488
 31
0.0
 11
-14.10115664407604
 21
0.7535380000000771
 31
0.0
 11
-13.996705644076
 21
0.6742980000001069
 31
0.0
  0
SPLINE
  5
B8F7
330
1F
100
AcDbEntity
  8
AM_0
100
AcDbSpline
210
0.0
220
0.0
230
1.0
 70
     8
 71
     3
 72
    11
 73
     7
 74
     5
 42
0.0000000001
 43
0.0000000001
 44
0.0000000001
 40
0.0
 40
0.0
 40
0.0
 40
0.0
 40
0.0748459327553137
 40
0.1496055830821081
 40
0.2243342093105891
 40
0.2990846253964561
 40
0.2990846253964561
 40
0.2990846253964561
 40
0.2990846253964561
 10
-18.29577264407603
 20
1.486315000000075
 30
0.0
 10
-18.27283587863552
 20
1.496159779955323
 30
0.0
 10
-18.22698878926911
 20
1.515837990798589
 30
0.0
 10
-18.16114834439185
 20
1.551460433352191
 30
0.0
 10
-18.09767145903727
 20
1.591089993232265
 30
0.0
 10
-18.05801417603676
 20
1.621295863354203
 30
0.0
 10
-18.03818264407598
 20
1.636401000000063
 30
0.0
 11
-18.29577264407603
 21
1.486315000000075
 31
0.0
 11
-18.22744764407596
 21
1.516870000000125
 31
0.0
 11
-18.16152864407607
 21
1.552136000000103
 31
0.0
 11
-18.0983416440761
 21
1.5920330000001
 31
0.0
 11
-18.03818264407598
 21
1.636401000000063
 31
0.0
  0
SPLINE
  5
B8F8
330
1F
100
AcDbEntity
  8
AM_0
100
AcDbSpline
210
0.0
220
0.0
230
1.0
 70
     8
 71
     3
 72
    11
 73
     7
 74
     5
 42
0.0000000001
 43
0.0000000001
 44
0.0000000001
 40
0.0
 40
0.0
 40
0.0
 40
0.0
 40
0.0866430658044321
 40
0.173255414877799
 40
0.259914337055431
 40
0.3467109384866122
 40
0.3467109384866122
 40
0.3467109384866122
 40
0.3467109384866122
 10
-18.03818264407598
 20
1.636401000000063
 30
0.0
 10
-18.01516604340524
 20
1.653875339347211
 30
0.0
 10
-17.96914100191736
 20
1.688817823032393
 30
0.0
 10
-17.89503114699624
 20
1.733925450339049
 30
0.0
 10
-17.81787534898074
 20
1.773735361917853
 30
0.0
 10
-17.76391715537224
 20
1.794612930158956
 30
0.0
 10
-17.73691664407607
 20
1.805060000000111
 30
0.0
 11
-18.03818264407598
 21
1.636401000000063
 31
0.0
 11
-17.96828864407603
 21
1.687605000000047
 31
0.0
 11
-17.894544644076
 21
1.733031000000067
 31
0.0
 11
-17.81729264407607
 21
1.772298000000063
 31
0.0
 11
-17.73691664407607
 21
1.805060000000111
 31
0.0
  0
SPLINE
  5
B8F9
330
1F
100
AcDbEntity
  8
AM_0
100
AcDbSpline
210
0.0
220
0.0
230
1.0
 70
     8
 71
     3
 72
    11
 73
     7
 74
     5
 42
0.0000000001
 43
0.0000000001
 44
0.0000000001
 40
0.0
 40
0.0
 40
0.0
 40
0.0
 40
0.7814225455923184
 40
1.574614759645168
 40
2.380948055289669
 40
3.200348452707856
 40
3.200348452707856
 40
3.200348452707856
 40
3.200348452707856
 10
-17.73691664407607
 20
1.805060000000111
 30
0.0
 10
-17.48379119911875
 20
1.873187668428953
 30
0.0
 10
-16.97372777195025
 20
2.010469133947654
 30
0.0
 10
-16.17099916086782
 20
1.956194849900408
 30
0.0
 10
-15.38337404423571
 20
1.752997343536952
 30
0.0
 10
-14.9122107948161
 20
1.480416751615907
 30
0.0
 10
-14.67473564407603
 20
1.343031000000081
 30
0.0
 11
-17.73691664407607
 21
1.805060000000111
 31
0.0
 11
-16.97241464407608
 21
1.966794000000078
 31
0.0
 11
-16.17996764407604
 21
1.932419000000066
 31
0.0
 11
-15.40194364407608
 21
1.720636000000098
 31
0.0
 11
-14.67473564407603
 21
1.343031000000081
 31
0.0
  0
SPLINE
  5
B8FA
330
1F
100
AcDbEntity
  8
AM_0
100
AcDbSpline
210
0.0
220
0.0
230
1.0
 70
     8
 71
     3
 72
    11
 73
     7
 74
     5
 42
0.0000000001
 43
0.0000000001
 44
0.0000000001
 40
0.0
 40
0.0
 40
0.0
 40
0.0
 40
2.064840856357184
 40
4.134764426854419
 40
6.210101120428738
 40
8.291196299738174
 40
8.291196299738174
 40
8.291196299738174
 40
8.291196299738174
 10
-20.37665064407605
 20
4.930537000000043
 30
0.0
 10
-19.69189244088045
 20
4.857708399828092
 30
0.0
 10
-18.32069046623288
 20
4.711871928062496
 30
0.0
 10
-16.28921568342503
 20
4.302073005715094
 30
0.0
 10
-14.28205642120556
 20
3.76468643827896
 30
0.0
 10
-12.98250738539552
 20
3.282347563235464
 30
0.0
 10
-12.33183264407608
 20
3.040844000000078
 30
0.0
 11
-20.37665064407605
 21
4.930537000000043
 31
0.0
 11
-18.32701964407607
 21
4.680376000000109
 31
0.0
 11
-16.29590564407607
 21
4.28142800000009
 31
0.0
 11
-14.29396964407607
 21
3.734368000000102
 31
0.0
 11
-12.33183264407608
 21
3.040844000000078
 31
0.0
  0
ELLIPSE
  5
B8FB
330
1F
100
AcDbEntity
  8
AM_0
100
AcDbEllipse
 10
-20.31980664407603
 20
-24.2285029999999
 30
0.0
 11
0.1312772644799406
 21
30.086316596743
 31
0.0
210
0.0
220
0.0
230
0.9999999999999998
 40
0.9848077232248499
 41
-0.300128390757849
 42
-0.003309275063992
  0
SPLINE
  5
B8FC
330
1F
100
AcDbEntity
  8
AM_0
100
AcDbSpline
210
0.0
220
0.0
230
1.0
 70
     8
 71
     3
 72
    11
 73
     7
 74
     5
 42
0.0000000001
 43
0.0000000001
 44
0.0000000001
 40
0.0
 40
0.0
 40
0.0
 40
0.0
 40
0.6942012402934879
 40
1.3851481122105
 40
2.074863377392455
 40
2.765430195321005
 40
2.765430195321005
 40
2.765430195321005
 40
2.765430195321005
 10
-7.919917644076065
 20
10.45583200000007
 30
0.0
 10
-7.758818801405365
 20
10.28852292989271
 30
0.0
 10
-7.437376336522593
 20
9.954689123262056
 30
0.0
 10
-7.095924505877828
 20
9.346345971649782
 30
0.0
 10
-6.862212671277116
 20
8.691011505299467
 30
0.0
 10
-6.815607570677117
 20
8.231744282041882
 30
0.0
 10
-6.792290644076103
 20
8.001969000000144
 30
0.0
 11
-7.919917644076065
 21
10.45583200000007
 31
0.0
 11
-7.460104644076011
 21
9.935748000000103
 31
0.0
 11
-7.113608644076123
 21
9.337962000000118
 31
0.0
 11
-6.889560644076084
 21
8.68565100000012
 31
0.0
 11
-6.792290644076103
 21
8.001969000000144
 31
0.0
  0
ELLIPSE
  5
B8FD
330
1F
100
AcDbEntity
  8
AM_0
100
AcDbEllipse
 10
-19.15046964407605
 20
11.81183200000006
 30
0.0
 11
0.0229472780289896
 21
5.259090936684
 31
0.0
210
0.0
220
0.0
230
1.0
 40
0.9848075950045799
 41
3.141593005112039
 42
5.80673720514568
  0
ELLIPSE
  5
B8FE
330
1F
100
AcDbEntity
  8
AM_0
100
AcDbEllipse
 10
-4.175968644076021
 20
13.82710400000007
 30
0.0
 11
0.026557753688988
 21
6.086545059829
 31
0.0
210
0.0
220
0.0
230
1.0
 40
0.9848076176481399
 41
1.68673282775552
 42
2.355555745915919
  0
ELLIPSE
  5
B8FF
330
1F
100
AcDbEntity
  8
AM_0
100
AcDbEllipse
 10
-19.71702164407605
 20
11.67430300000009
 30
0.0
 11
0.0202894052159908
 21
4.649955735277
 31
0.0
210
0.0
220
0.0
230
0.9999999999999998
 40
0.9848077419354799
 41
3.141593005332119
 42
4.71238899970199
  0
ELLIPSE
  5
B900
330
1F
100
AcDbEntity
  8
AM_0
100
AcDbEllipse
 10
-19.15047064407605
 20
11.81183300000006
 30
0.0
 11
0.0229577918459896
 21
5.259089890788001
 31
0.0
210
0.0
220
0.0
230
1.0
 40
0.9848077822609798
 41
0.519187131754015
 42
0.56411509918088
  0
ELLIPSE
  5
B901
330
1F
100
AcDbEntity
  8
AM_0
100
AcDbEllipse
 10
-24.58732364407612
 20
16.42308800000009
 30
0.0
 11
0.1936875229159999
 21
0.0498512132910004
 31
0.0
210
0.0
220
0.0
230
1.0
 40
0.04465
 41
0.256056746699429
 42
1.73957077086481
  0
ELLIPSE
  5
B902
330
1F
100
AcDbEntity
  8
AM_0
100
AcDbEllipse
 10
-24.70410264407607
 20
16.40145500000002
 30
0.0
 11
0.0003757379679998
 21
0.086112180265
 31
0.0
210
0.0
220
0.0
230
1.0
 40
0.9847990431177599
 41
-1.31074458373775
 42
1.830848411698159
  0
ELLIPSE
  5
B903
330
1F
100
AcDbEntity
  8
AM_0
100
AcDbEllipse
 10
-24.75142164407609
 20
16.37951900000016
 30
0.0
 11
0.1936875229159999
 21
0.0498512132910004
 31
0.0
210
0.0
220
0.0
230
1.0
 40
0.04465
 41
1.73957077086481
 42
2.613924509923749
  0
ELLIPSE
  5
B904
330
1F
100
AcDbEntity
  8
AM_0
100
AcDbEllipse
 10
-24.67239964407608
 20
16.40131700000014
 30
0.0
 11
0.0012450800769994
 21
0.28534928365
 31
0.0
210
0.0
220
0.0
230
1.0
 40
0.9848082368443199
 41
-1.310742263973649
 42
0.435922505592051
  0
ELLIPSE
  5
B905
330
1F
100
AcDbEntity
  8
AM_0
100
AcDbEllipse
 10
-24.61727864407609
 20
16.40107600000007
 30
0.0
 11
0.0013662536409994
 21
0.3131200192899999
 31
0.0
210
0.0
220
0.0
230
1.0
 40
0.9848078869964799
 41
0.519185070161899
 42
1.830850643191249
  0
ELLIPSE
  5
B906
330
1F
100
AcDbEntity
  8
AM_0
100
AcDbEllipse
 10
-24.61727864407609
 20
16.40107600000007
 30
0.0
 11
0.0013662536409994
 21
0.3131200192899999
 31
0.0
210
0.0
220
0.0
230
1.0
 40
0.9848078869964799
 41
-1.31074235224732
 42
0.519185070161899
  0
SPLINE
  5
B907
330
1F
100
AcDbEntity
  8
AM_0
100
AcDbSpline
210
0.0
220
0.0
230
1.0
 70
     8
 71
     3
 72
    11
 73
     7
 74
     5
 42
0.0000000001
 43
0.0000000001
 44
0.0000000001
 40
0.0
 40
0.0
 40
0.0
 40
0.0
 40
0.3482465541494868
 40
0.6969183994969058
 40
1.046045398409943
 40
1.39558106382472
 40
1.39558106382472
 40
1.39558106382472
 40
1.39558106382472
 10
-27.4520646440761
 20
20.29810300000005
 30
0.0
 10
-27.55295135365943
 20
20.24041960334148
 30
0.0
 10
-27.75484797929882
 20
20.12498236498883
 30
0.0
 10
-28.03099164256154
 20
19.91059464065491
 30
0.0
 10
-28.28476516078401
 20
19.66923412886822
 30
0.0
 10
-28.42700041724189
 20
19.48442874216265
 30
0.0
 10
-28.49815964407602
 20
19.39197200000009
 30
0.0
 11
-27.4520646440761
 21
20.29810300000005
 31
0.0
 11
-27.75025064407609
 21
20.11821200000005
 31
0.0
 11
-28.02709364407607
 21
19.90624500000009
 31
0.0
 11
-28.27791064407605
 21
19.66338600000003
 31
0.0
 11
-28.49815964407602
 21
19.39197200000009
 31
0.0
  0
SPLINE
  5
B908
330
1F
100
AcDbEntity
  8
AM_0
100
AcDbSpline
210
0.0
220
0.0
230
1.0
 70
     8
 71
     3
 72
    11
 73
     7
 74
     5
 42
0.0000000001
 43
0.0000000001
 44
0.0000000001
 40
0.0
 40
0.0
 40
0.0
 40
0.0
 40
0.324131714008335
 40
0.648825702597669
 40
0.9737786036847795
 40
1.298689979915378
 40
1.298689979915378
 40
1.298689979915378
 40
1.298689979915378
 10
-29.20072564407607
 20
18.30029700000008
 30
0.0
 10
-29.14609282427196
 20
18.39351745528232
 30
0.0
 10
-29.03673241255559
 20
18.58012007631871
 30
0.0
 10
-28.86387758340319
 20
18.85490908316756
 30
0.0
 10
-28.68520392555107
 20
19.12626073082994
 30
0.0
 10
-28.56050508190974
 20
19.30340534999012
 30
0.0
 10
-28.49815964407602
 20
19.39197200000009
 30
0.0
 11
-29.20072564407607
 21
18.30029700000008
 31
0.0
 11
-29.03537664407608
 21
18.57908200000005
 31
0.0
 11
-28.86297764407604
 21
18.85422700000012
 31
0.0
 11
-28.68380764407615
 21
19.12532200000006
 31
0.0
 11
-28.49815964407602
 21
19.39197200000009
 31
0.0
  0
ELLIPSE
  5
B909
330
1F
100
AcDbEntity
  8
AM_0
100
AcDbEllipse
 10
-25.90932064407601
 20
17.20903200000006
 30
0.0
 11
0.1936875229159999
 21
0.0498512132910004
 31
0.0
210
0.0
220
0.0
230
1.0
 40
0.04465
 41
0.256056746699429
 42
1.73957077086481
  0
ELLIPSE
  5
B90A
330
1F
100
AcDbEntity
  8
AM_0
100
AcDbEllipse
 10
-26.02609864407608
 20
17.18739900000011
 30
0.0
 11
0.0003757379679998
 21
0.086112180265
 31
0.0
210
0.0
220
0.0
230
1.0
 40
0.9847990431177599
 41
-1.31074458373775
 42
1.830848411698159
  0
ELLIPSE
  5
B90B
330
1F
100
AcDbEntity
  8
AM_0
100
AcDbEllipse
 10
-26.0734176440761
 20
17.16546200000002
 30
0.0
 11
0.1936875229159999
 21
0.0498512132910004
 31
0.0
210
0.0
220
0.0
230
1.0
 40
0.04465
 41
1.73957077086481
 42
2.613924509923749
  0
ELLIPSE
  5
B90C
330
1F
100
AcDbEntity
  8
AM_0
100
AcDbEllipse
 10
-25.89911264407609
 20
16.48823200000012
 30
0.0
 11
0.1936875229159999
 21
0.0498512132910004
 31
0.0
210
0.0
220
0.0
230
1.0
 40
0.04465
 41
1.73957077086481
 42
2.6198503015092
  0
ELLIPSE
  5
B90D
330
1F
100
AcDbEntity
  8
AM_0
100
AcDbEllipse
 10
-25.99439564407609
 20
17.18726000000012
 30
0.0
 11
0.0012450800769994
 21
0.28534928365
 31
0.0
210
0.0
220
0.0
230
1.0
 40
0.9848082368443199
 41
-1.310742263973649
 42
0.435924525526363
  0
ELLIPSE
  5
B90E
330
1F
100
AcDbEntity
  8
AM_0
100
AcDbEllipse
 10
-25.9392756440761
 20
17.18702000000004
 30
0.0
 11
0.0013662536409994
 21
0.3131200192899999
 31
0.0
210
0.0
220
0.0
230
1.0
 40
0.9848078869964799
 41
0.519185070161899
 42
1.830850643191249
  0
SPLINE
  5
B90F
330
1F
100
AcDbEntity
  8
AM_0
100
AcDbSpline
210
0.0
220
0.0
230
1.0
 70
     8
 71
     3
 72
    11
 73
     7
 74
     5
 42
0.0000000001
 43
0.0000000001
 44
0.0000000001
 40
0.0
 40
0.0
 40
0.0
 40
0.0
 40
0.7011383939394628
 40
1.403979519561059
 40
2.107678593024927
 40
2.811143195882845
 40
2.811143195882845
 40
2.811143195882845
 40
2.811143195882845
 10
-27.4520646440761
 20
20.29810300000005
 30
0.0
 10
-27.239749921427
 20
20.39749118734362
 30
0.0
 10
-26.81460486464901
 20
20.59650892866665
 30
0.0
 10
-26.12221960804154
 20
20.7418985721132
 30
0.0
 10
-25.41419583754244
 20
20.77594008034231
 30
0.0
 10
-24.95250473192387
 20
20.68456895183371
 30
0.0
 10
-24.7216976440761
 20
20.63889100000014
 30
0.0
 11
-27.4520646440761
 21
20.29810300000005
 31
0.0
 11
-26.80612464407611
 21
20.57078700000008
 31
0.0
 11
-26.12002564407609
 21
20.72327900000013
 31
0.0
 11
-25.41674064407615
 21
20.74741600000001
 31
0.0
 11
-24.7216976440761
 21
20.63889100000014
 31
0.0
  0
ELLIPSE
  5
B910
330
1F
100
AcDbEntity
  8
AM_0
100
AcDbEllipse
 10
-25.58561064407609
 20
15.9513180000001
 30
0.0
 11
0.1936875229159999
 21
0.0498512132910004
 31
0.0
210
0.0
220
0.0
230
1.0
 40
0.04465
 41
0.256056746699429
 42
1.73957077086481
  0
ELLIPSE
  5
B911
330
1F
100
AcDbEntity
  8
AM_0
100
AcDbEllipse
 10
-25.9392756440761
 20
17.18702000000004
 30
0.0
 11
0.0013662536409994
 21
0.3131200192899999
 31
0.0
210
0.0
220
0.0
230
1.0
 40
0.9848078869964799
 41
-1.31074235224732
 42
0.519185070161899
  0
ELLIPSE
  5
B912
330
1F
100
AcDbEntity
  8
AM_0
100
AcDbEllipse
 10
-24.91512364407603
 20
17.56371400000008
 30
0.0
 11
0.0083487499079962
 21
1.913378785809
 31
0.0
210
0.0
220
0.0
230
1.0
 40
0.9848081710173099
 41
-0.177848482185287
 42
1.04545218659924
  0
ELLIPSE
  5
B913
330
1F
100
AcDbEntity
  8
AM_0
100
AcDbEllipse
 10
-24.26361464407608
 20
15.16537500000012
 30
0.0
 11
0.1936875229159999
 21
0.0498512132910004
 31
0.0
210
0.0
220
0.0
230
1.0
 40
0.04465
 41
0.256056746699429
 42
1.73957077086481
  0
ELLIPSE
  5
B914
330
1F
100
AcDbEntity
  8
AM_0
100
AcDbEllipse
 10
-24.66623464407604
 20
15.06784900000011
 30
0.0
 11
0.0016847318529992
 21
0.386109324476
 31
0.0
210
0.0
220
0.0
230
1.0
 40
0.9848075563371301
 41
3.4016469048746
 42
4.972442568365579
  0
ELLIPSE
  5
B915
330
1F
100
AcDbEntity
  8
AM_0
100
AcDbEllipse
 10
-25.38732364407604
 20
15.49654500000005
 30
0.0
 11
0.0035512436869984
 21
0.813879252369
 31
0.0
210
0.0
220
0.0
230
1.0
 40
0.9848074732733197
 41
3.401646925833309
 42
4.972442547406919
  0
ELLIPSE
  5
B916
330
1F
100
AcDbEntity
  8
AM_0
100
AcDbEllipse
 10
-25.35562164407605
 20
15.49640700000006
 30
0.0
 11
0.0026819015779988
 21
0.6146421489839998
 31
0.0
210
0.0
220
0.0
230
1.0
 40
0.9848075646548901
 41
3.401646902775859
 42
3.59566708536456
  0
ELLIPSE
  5
B917
330
1F
100
AcDbEntity
  8
AM_0
100
AcDbEllipse
 10
-24.57711664407606
 20
15.70228900000015
 30
0.0
 11
0.1936875229159999
 21
0.0498512132910004
 31
0.0
210
0.0
220
0.0
230
1.0
 40
0.04465
 41
1.73957077086481
 42
2.6198503015092
  0
ELLIPSE
  5
B918
330
1F
100
AcDbEntity
  8
AM_0
100
AcDbEllipse
 10
-24.53536064407609
 20
14.69414400000013
 30
0.0
 11
-0.0513232678510004
 21
0.1933026698659999
 31
0.0
210
0.0
220
0.0
230
1.0
 40
0.16781
 41
1.525487778894409
 42
3.00901933219698
  0
ELLIPSE
  5
B919
330
1F
100
AcDbEntity
  8
AM_0
100
AcDbEllipse
 10
-25.14993064407605
 20
14.70898000000008
 30
0.0
 11
-0.0513232678510004
 21
0.1933026698659999
 31
0.0
210
0.0
220
0.0
230
1.0
 40
0.16781
 41
0.041958058580473
 42
1.525487778894409
  0
ELLIPSE
  5
B91A
330
1F
100
AcDbEntity
  8
AM_0
100
AcDbEllipse
 10
-24.63453264407604
 20
15.06771000000012
 30
0.0
 11
0.0025540739619988
 21
0.585346427861
 31
0.0
210
0.0
220
0.0
230
0.9999999999999998
 40
0.9848074321092301
 41
3.40164693621985
 42
4.972442537020399
  0
ELLIPSE
  5
B91B
330
1F
100
AcDbEntity
  8
AM_0
100
AcDbEllipse
 10
-25.35562164407605
 20
15.49640700000006
 30
0.0
 11
0.0026794473689988
 21
0.6146431596970001
 31
0.0
210
0.0
220
0.0
230
1.0
 40
0.98480758937215
 41
3.595662027792109
 42
3.66077316364195
  0
ELLIPSE
  5
B91C
330
1F
100
AcDbEntity
  8
AM_0
100
AcDbEllipse
 10
-25.30050064407606
 20
15.4961660000001
 30
0.0
 11
0.0025607280139988
 21
0.5868714133450001
 31
0.0
210
0.0
220
0.0
230
1.0
 40
0.9848077195051098
 41
3.660778146161129
 42
4.97244260953611
  0
ELLIPSE
  5
B91D
330
1F
100
AcDbEntity
  8
AM_0
100
AcDbEllipse
 10
-25.30050064407606
 20
15.4961660000001
 30
0.0
 11
0.0025607280139988
 21
0.5868714133450001
 31
0.0
210
0.0
220
0.0
230
1.0
 40
0.9848077195051098
 41
3.401646863703979
 42
3.660778146161129
  0
ELLIPSE
  5
B91E
330
1F
100
AcDbEntity
  8
AM_0
100
AcDbEllipse
 10
-24.57941164407606
 20
15.06747000000004
 30
0.0
 11
0.0026752475259988
 21
0.6131171635010001
 31
0.0
210
0.0
220
0.0
230
1.0
 40
0.98480892088537
 41
3.40164656057153
 42
4.97244291266826
  0
ELLIPSE
  5
B91F
330
1F
100
AcDbEntity
  8
AM_0
100
AcDbEllipse
 10
-25.81689564407605
 20
14.53189600000004
 30
0.0
 11
-0.0513232678510004
 21
0.1933026698659999
 31
0.0
210
0.0
220
0.0
230
1.0
 40
0.16781
 41
0.041958058580473
 42
1.525487778894409
  0
ELLIPSE
  5
B920
330
1F
100
AcDbEntity
  8
AM_0
100
AcDbEllipse
 10
-25.77401064407609
 20
14.36527300000008
 30
0.0
 11
-0.0513232678510004
 21
0.1933026698659999
 31
0.0
210
0.0
220
0.0
230
1.0
 40
0.16781
 41
1.525487778894409
 42
3.00901933219698
  0
ELLIPSE
  5
B921
330
1F
100
AcDbEntity
  8
AM_0
100
AcDbEllipse
 10
-25.83018264407604
 20
14.44873600000013
 30
0.0
 11
0.0003757379679998
 21
0.086112180265
 31
0.0
210
0.0
220
0.0
230
1.0
 40
0.9847990431177599
 41
0.260056048306478
 42
3.401649052951819
  0
ELLIPSE
  5
B922
330
1F
100
AcDbEntity
  8
AM_0
100
AcDbEllipse
 10
-26.67761764407609
 20
16.28235000000003
 30
0.0
 11
0.0026819015779988
 21
0.6146421489839998
 31
0.0
210
0.0
220
0.0
230
1.0
 40
0.9848075646548901
 41
3.401646902775859
 42
3.59566708536456
  0
ELLIPSE
  5
B923
330
1F
100
AcDbEntity
  8
AM_0
100
AcDbEllipse
 10
-25.85735664407599
 20
15.48008700000011
 30
0.0
 11
-0.0513232678510004
 21
0.1933026698659999
 31
0.0
210
0.0
220
0.0
230
1.0
 40
0.16781
 41
1.525487778894409
 42
3.00901933219698
  0
ELLIPSE
  5
B924
330
1F
100
AcDbEntity
  8
AM_0
100
AcDbEllipse
 10
-26.47192664407606
 20
15.49492400000005
 30
0.0
 11
-0.0513232678510004
 21
0.1933026698659999
 31
0.0
210
0.0
220
0.0
230
1.0
 40
0.16781
 41
0.041958058580473
 42
1.525487778894409
  0
ELLIPSE
  5
B925
330
1F
100
AcDbEntity
  8
AM_0
100
AcDbEllipse
 10
-27.096006644076
 20
15.15121600000006
 30
0.0
 11
-0.0513232678510004
 21
0.1933026698659999
 31
0.0
210
0.0
220
0.0
230
1.0
 40
0.16781
 41
1.525487778894409
 42
3.00901933219698
  0
ELLIPSE
  5
B926
330
1F
100
AcDbEntity
  8
AM_0
100
AcDbEllipse
 10
-27.15217864407605
 20
15.23467900000011
 30
0.0
 11
0.0003757379679998
 21
0.086112180265
 31
0.0
210
0.0
220
0.0
230
1.0
 40
0.9847990431177599
 41
0.260056048306478
 42
3.401649052951819
  0
ELLIPSE
  5
B927
330
1F
100
AcDbEntity
  8
AM_0
100
AcDbEllipse
 10
-27.13889264407606
 20
15.31783900000013
 30
0.0
 11
-0.0513232678510004
 21
0.1933026698659999
 31
0.0
210
0.0
220
0.0
230
1.0
 40
0.16781
 41
0.041958058580473
 42
1.525487778894409
  0
ELLIPSE
  5
B928
330
1F
100
AcDbEntity
  8
AM_0
100
AcDbEllipse
 10
-25.79847964407605
 20
14.44859800000003
 30
0.0
 11
0.0012450800769994
 21
0.28534928365
 31
0.0
210
0.0
220
0.0
230
1.0
 40
0.9848082368443199
 41
0.260053728526292
 42
0.435917455755859
  0
ELLIPSE
  5
B929
330
1F
100
AcDbEntity
  8
AM_0
100
AcDbEllipse
 10
-25.74335964407606
 20
14.44835700000007
 30
0.0
 11
0.0013662536409994
 21
0.3131200192899999
 31
0.0
210
0.0
220
0.0
230
1.0
 40
0.9848078869964799
 41
0.519185070161899
 42
2.62240793257078
  0
ELLIPSE
  5
B92A
330
1F
100
AcDbEntity
  8
AM_0
100
AcDbEllipse
 10
-25.74335964407606
 20
14.44835700000007
 30
0.0
 11
0.0013662536409994
 21
0.3131200192899999
 31
0.0
210
0.0
220
0.0
230
1.0
 40
0.9848078869964799
 41
2.62240793257078
 42
3.40164682144249
  0
ELLIPSE
  5
B92B
330
1F
100
AcDbEntity
  8
AM_0
100
AcDbEllipse
 10
-25.79847964407605
 20
14.44859800000003
 30
0.0
 11
0.0012450800769994
 21
0.28534928365
 31
0.0
210
0.0
220
0.0
230
1.0
 40
0.9848082368443199
 41
2.70567453772962
 42
3.401646733168789
  0
ELLIPSE
  5
B92C
330
1F
100
AcDbEntity
  8
AM_0
100
AcDbEllipse
 10
-27.12047664407606
 20
15.23454100000012
 30
0.0
 11
0.0012450800769994
 21
0.28534928365
 31
0.0
210
0.0
220
0.0
230
1.0
 40
0.9848082368443199
 41
0.260053728526292
 42
0.435926545460579
  0
ELLIPSE
  5
B92D
330
1F
100
AcDbEntity
  8
AM_0
100
AcDbEllipse
 10
-27.06535564407607
 20
15.23430000000004
 30
0.0
 11
0.0013662536409994
 21
0.3131200192899999
 31
0.0
210
0.0
220
0.0
230
1.0
 40
0.9848078869964799
 41
0.519185070161899
 42
2.62240793257078
  0
ELLIPSE
  5
B92E
330
1F
100
AcDbEntity
  8
AM_0
100
AcDbEllipse
 10
-27.06535564407607
 20
15.23430000000004
 30
0.0
 11
0.0013662536409994
 21
0.3131200192899999
 31
0.0
210
0.0
220
0.0
230
1.0
 40
0.9848078869964799
 41
2.62240793257078
 42
3.40164682144249
  0
ELLIPSE
  5
B92F
330
1F
100
AcDbEntity
  8
AM_0
100
AcDbEllipse
 10
-27.12047664407606
 20
15.23454100000012
 30
0.0
 11
0.0012450800769994
 21
0.28534928365
 31
0.0
210
0.0
220
0.0
230
1.0
 40
0.9848082368443199
 41
2.70566645799212
 42
3.401646733168789
  0
ELLIPSE
  5
B930
330
1F
100
AcDbEntity
  8
AM_0
100
AcDbEllipse
 10
-27.06535564407607
 20
15.23430000000004
 30
0.0
 11
0.0013662536409994
 21
0.3131200192899999
 31
0.0
210
0.0
220
0.0
230
1.0
 40
0.9848078869964799
 41
0.260053816799883
 42
0.519185070161899
  0
ELLIPSE
  5
B931
330
1F
100
AcDbEntity
  8
AM_0
100
AcDbEllipse
 10
-25.74335964407606
 20
14.44835700000007
 30
0.0
 11
0.0013662536409994
 21
0.3131200192899999
 31
0.0
210
0.0
220
0.0
230
1.0
 40
0.9848078869964799
 41
0.260053816799883
 42
0.519185070161899
  0
ELLIPSE
  5
B932
330
1F
100
AcDbEntity
  8
AM_0
100
AcDbEllipse
 10
-25.98823164407605
 20
15.85379200000008
 30
0.0
 11
0.0016847318529992
 21
0.386109324476
 31
0.0
210
0.0
220
0.0
230
1.0
 40
0.9848075563371301
 41
3.4016469048746
 42
4.972442568365579
  0
ELLIPSE
  5
B933
330
1F
100
AcDbEntity
  8
AM_0
100
AcDbEllipse
 10
-26.70932064407608
 20
16.28248800000014
 30
0.0
 11
0.0035512436869984
 21
0.813879252369
 31
0.0
210
0.0
220
0.0
230
1.0
 40
0.9848074732733197
 41
3.401646925833309
 42
4.972442547406919
  0
ELLIPSE
  5
B934
330
1F
100
AcDbEntity
  8
AM_0
100
AcDbEllipse
 10
-25.95652864407606
 20
15.85365400000009
 30
0.0
 11
0.0025540739619988
 21
0.585346427861
 31
0.0
210
0.0
220
0.0
230
0.9999999999999998
 40
0.9848074321092301
 41
3.40164693621985
 42
4.972442537020399
  0
ELLIPSE
  5
B935
330
1F
100
AcDbEntity
  8
AM_0
100
AcDbEllipse
 10
-26.67761764407609
 20
16.28235000000003
 30
0.0
 11
0.0026831308619988
 21
0.6146421436190001
 31
0.0
210
0.0
220
0.0
230
1.0
 40
0.9848075646548901
 41
3.595669104436029
 42
3.66078022967541
  0
ELLIPSE
  5
B936
330
1F
100
AcDbEntity
  8
AM_0
100
AcDbEllipse
 10
-26.6224966440761
 20
16.28210900000007
 30
0.0
 11
0.0025607280139988
 21
0.5868714133450001
 31
0.0
210
0.0
220
0.0
230
1.0
 40
0.9848077195051098
 41
3.660778146161129
 42
4.97244260953611
  0
ELLIPSE
  5
B937
330
1F
100
AcDbEntity
  8
AM_0
100
AcDbEllipse
 10
-25.90140764407607
 20
15.85341300000013
 30
0.0
 11
0.0026752475259988
 21
0.6131171635010001
 31
0.0
210
0.0
220
0.0
230
1.0
 40
0.98480892088537
 41
3.40164656057153
 42
4.97244291266826
  0
ELLIPSE
  5
B938
330
1F
100
AcDbEntity
  8
AM_0
100
AcDbEllipse
 10
-26.6224966440761
 20
16.28210900000007
 30
0.0
 11
0.0025607280139988
 21
0.5868714133450001
 31
0.0
210
0.0
220
0.0
230
1.0
 40
0.9848077195051098
 41
3.401646863703979
 42
3.660778146161129
  0
SPLINE
  5
B939
330
1F
100
AcDbEntity
  8
AM_0
100
AcDbSpline
210
0.0
220
0.0
230
1.0
 70
     8
 71
     3
 72
    11
 73
     7
 74
     5
 42
0.0000000001
 43
0.0000000001
 44
0.0000000001
 40
0.0
 40
0.0
 40
0.0
 40
0.0
 40
0.0366485020976397
 40
0.073318002475961
 40
0.1100027232191273
 40
0.146706297391093
 40
0.146706297391093
 40
0.146706297391093
 40
0.146706297391093
 10
-34.24288564407615
 20
19.10705400000011
 30
0.0
 10
-34.23883264503911
 20
19.11858859663078
 30
0.0
 10
-34.23072432474155
 20
19.14166439880336
 30
0.0
 10
-34.22272634312538
 20
19.17751845124011
 30
0.0
 10
-34.21758339681243
 20
19.21390985202707
 30
0.0
 10
-34.21703294212539
 20
19.23838585471671
 30
0.0
 10
-34.21675764407607
 20
19.25062700000006
 30
0.0
 11
-34.24288564407615
 21
19.10705400000011
 31
0.0
 11
-34.23142064407611
 21
19.14186300000011
 31
0.0
 11
-34.22320364407605
 21
19.17760000000004
 31
0.0
 11
-34.21830364407614
 21
19.2139560000001
 31
0.0
 11
-34.21675764407607
 21
19.25062700000006
 31
0.0
  0
SPLINE
  5
B93A
330
1F
100
AcDbEntity
  8
AM_0
100
AcDbSpline
210
0.0
220
0.0
230
1.0
 70
     8
 71
     3
 72
    11
 73
     7
 74
     5
 42
0.0000000001
 43
0.0000000001
 44
0.0000000001
 40
0.0
 40
0.0
 40
0.0
 40
0.0
 40
0.1194116632704278
 40
0.238525340088066
 40
0.3574722722889316
 40
0.4765032714655089
 40
0.4765032714655089
 40
0.4765032714655089
 40
0.4765032714655089
 10
-34.24288564407615
 20
19.10705400000011
 30
0.0
 10
-34.26037705892204
 20
19.07092649510639
 30
0.0
 10
-34.29531623957216
 20
18.9987616398879
 30
0.0
 10
-34.38539161368909
 20
18.91716307203316
 30
0.0
 10
-34.4937294636711
 20
18.8623080333199
 30
0.0
 10
-34.57345352962365
 20
18.85567212582992
 30
0.0
 10
-34.61332964407606
 20
18.85235300000005
 30
0.0
 11
-34.24288564407615
 21
19.10705400000011
 31
0.0
 11
-34.3016666440761
 21
19.00311200000004
 31
0.0
 11
-34.38849764407618
 21
18.92157400000002
 31
0.0
 11
-34.49558364407616
 21
18.869796
 31
0.0
 11
-34.61332964407606
 21
18.85235300000005
 31
0.0
  0
ELLIPSE
  5
B93B
330
1F
100
AcDbEntity
  8
AM_0
100
AcDbEllipse
 10
-65.05216464407602
 20
-13.48353199999996
 30
0.0
 11
1.5447376980093
 21
353.944139124586
 31
0.0
210
0.0
220
0.0
230
1.0
 40
0.0870904728218
 41
-1.47779993206435
 42
-1.47215923047044
  0
ELLIPSE
  5
B93C
330
1F
100
AcDbEntity
  8
AM_0
100
AcDbEllipse
 10
-35.69303164407605
 20
19.25706800000006
 30
0.0
 11
0.0017453251799992
 21
0.3999961922820001
 31
0.0
210
0.0
220
0.0
230
1.0
 40
0.9848074999999999
 41
3.14159300503297
 42
3.864326954499519
  0
ELLIPSE
  5
B93D
330
1F
100
AcDbEntity
  8
AM_0
100
AcDbEllipse
 10
-50.96757264407603
 20
10.93848100000005
 30
0.0
 11
-153.7646016130961
 21
88.6718897721607
 31
0.0
210
0.0
220
0.0
230
1.0
 40
0.08708643574849
 41
-1.65641351178187
 42
-1.62946411080381
  0
SPLINE
  5
B93E
330
1F
100
AcDbEntity
  8
AM_0
100
AcDbSpline
210
0.0
220
0.0
230
1.0
 70
     8
 71
     3
 72
    11
 73
     7
 74
     5
 42
0.0000000001
 43
0.0000000001
 44
0.0000000001
 40
0.0
 40
0.0
 40
0.0
 40
0.0
 40
0.0793724903981958
 40
0.1586488408249973
 40
0.2378374924614123
 40
0.316945675653864
 40
0.316945675653864
 40
0.316945675653864
 40
0.316945675653864
 10
-31.07492264407602
 20
14.65664500000008
 30
0.0
 10
-31.08367181290558
 20
14.63167364411502
 30
0.0
 10
-31.10115955312926
 20
14.58176117891304
 30
0.0
 10
-31.12449230339674
 20
14.50597730997811
 30
0.0
 10
-31.14587468553053
 20
14.42971238582555
 30
0.0
 10
-31.15820274683875
 20
14.37840276771639
 30
0.0
 10
-31.1643636440761
 20
14.35276100000004
 30
0.0
 11
-31.07492264407602
 21
14.65664500000008
 31
0.0
 11
-31.100688644076
 21
14.58157099999999
 31
0.0
 11
-31.12417964407603
 21
14.50585500000005
 31
0.0
 11
-31.145401644076
 21
14.42956300000008
 31
0.0
 11
-31.1643636440761
 21
14.35276100000004
 31
0.0
  0
SPLINE
  5
B93F
330
1F
100
AcDbEntity
  8
AM_0
100
AcDbSpline
210
0.0
220
0.0
230
1.0
 70
     8
 71
     3
 72
    11
 73
     7
 74
     5
 42
0.0000000001
 43
0.0000000001
 44
0.0000000001
 40
0.0
 40
0.0
 40
0.0
 40
0.0
 40
0.5540143899223478
 40
1.115327421769028
 40
1.68252667350337
 40
2.254056413654349
 40
2.254056413654349
 40
2.254056413654349
 40
2.254056413654349
 10
-31.07492264407602
 20
14.65664500000008
 30
0.0
 10
-31.01008459981057
 20
14.82959737614168
 30
0.0
 10
-30.87955432828951
 20
15.17778062061999
 30
0.0
 10
-30.65252641562269
 20
15.69088919521811
 30
0.0
 10
-30.40363760162141
 20
16.20024752315814
 30
0.0
 10
-30.21805887656788
 20
16.53144400380927
 30
0.0
 10
-30.12491664407602
 20
16.69767200000007
 30
0.0
 11
-31.07492264407602
 21
14.65664500000008
 31
0.0
 11
-30.87548264407604
 21
15.17351600000012
 31
0.0
 11
-30.65011864407603
 21
15.68760100000003
 31
0.0
 11
-30.39959064407602
 21
16.19647300000002
 31
0.0
 11
-30.12491664407602
 21
16.69767200000007
 31
0.0
  0
SPLINE
  5
B940
330
1F
100
AcDbEntity
  8
AM_0
100
AcDbSpline
210
0.0
220
0.0
230
1.0
 70
     8
 71
     3
 72
    11
 73
     7
 74
     5
 42
0.0000000001
 43
0.0000000001
 44
0.0000000001
 40
0.0
 40
0.0
 40
0.0
 40
0.0
 40
1.209592798058212
 40
2.418586044699759
 40
3.609773720647558
 40
4.775994104191335
 40
4.775994104191335
 40
4.775994104191335
 40
4.775994104191335
 10
-29.30055764407603
 20
10.29540500000001
 30
0.0
 10
-29.64077131348485
 20
10.51955685292636
 30
0.0
 10
-30.32103002068712
 20
10.96774945480985
 30
0.0
 10
-30.97886072370693
 20
12.00939673490536
 30
0.0
 10
-31.31835504038686
 20
13.1767803867097
 30
0.0
 10
-31.21533039842359
 20
13.96354500176326
 30
0.0
 10
-31.1643636440761
 20
14.35276100000004
 30
0.0
 11
-29.30055764407603
 21
10.29540500000001
 31
0.0
 11
-30.26129264407614
 21
11.03032200000007
 31
0.0
 11
-30.92909764407608
 21
12.03814200000005
 31
0.0
 11
-31.23713064407599
 21
13.18881300000003
 31
0.0
 11
-31.1643636440761
 21
14.35276100000004
 31
0.0
  0
ELLIPSE
  5
B941
330
1F
100
AcDbEntity
  8
AM_0
100
AcDbEllipse
 10
-50.04337664407609
 20
12.54110800000003
 30
0.0
 11
-153.7645756247151
 21
88.6718747853637
 31
0.0
210
0.0
220
0.0
230
1.0
 40
0.08708642229831
 41
-1.656413498623139
 42
-1.623546021133879
  0
ELLIPSE
  5
B942
330
1F
100
AcDbEntity
  8
AM_0
100
AcDbEllipse
 10
-27.61468264407614
 20
12.88244800000009
 30
0.0
 11
0.0083487499079962
 21
1.913378785809
 31
0.0
210
0.0
220
0.0
230
1.0
 40
0.9848081710173099
 41
1.04545218659924
 42
2.650818774191729
  0
ELLIPSE
  5
B943
330
1F
100
AcDbEntity
  8
AM_0
100
AcDbEllipse
 10
-19.15047064407605
 20
11.81183200000006
 30
0.0
 11
0.0229420145759896
 21
5.259089959638
 31
0.0
210
0.0
220
0.0
230
1.0
 40
0.9848077822609798
 41
2.62240587097866
 42
2.66600937913539
  0
ELLIPSE
  5
B944
330
1F
100
AcDbEntity
  8
AM_0
100
AcDbEllipse
 10
-19.15046964407605
 20
11.81183200000006
 30
0.0
 11
0.0229420145759896
 21
5.259089959638
 31
0.0
210
0.0
220
0.0
230
1.0
 40
0.9848077822609798
 41
2.58080410455214
 42
2.622406878867249
  0
SPLINE
  5
B945
330
1F
100
AcDbEntity
  8
AM_0
100
AcDbSpline
210
0.0
220
0.0
230
1.0
 70
     8
 71
     3
 72
    11
 73
     7
 74
     5
 42
0.0000000001
 43
0.0000000001
 44
0.0000000001
 40
0.0
 40
0.0
 40
0.0
 40
0.0
 40
0.1403814009226806
 40
0.2800962827533807
 40
0.4178292490323267
 40
0.553374778375855
 40
0.553374778375855
 40
0.553374778375855
 40
0.553374778375855
 10
-26.97345264407607
 20
3.278494000000108
 30
0.0
 10
-27.01300253066505
 20
3.303555371708434
 30
0.0
 10
-27.0919145243058
 20
3.353559125838717
 30
0.0
 10
-27.20175170113224
 20
3.439446054632584
 30
0.0
 10
-27.3073881873193
 20
3.527729186706588
 30
0.0
 10
-27.37480770997109
 20
3.5890052220238
 30
0.0
 10
-27.40824764407608
 20
3.619398000000074
 30
0.0
 11
-26.97345264407607
 21
3.278494000000108
 31
0.0
 11
-27.09077564407613
 21
3.355580000000117
 31
0.0
 11
-27.20177364407601
 21
3.440431000000074
 31
0.0
 11
-27.30731764407602
 21
3.528923000000048
 31
0.0
 11
-27.40824764407608
 21
3.619398000000074
 31
0.0
  0
SPLINE
  5
B946
330
1F
100
AcDbEntity
  8
AM_0
100
AcDbSpline
210
0.0
220
0.0
230
1.0
 70
     8
 71
     3
 72
    11
 73
     7
 74
     5
 42
0.0000000001
 43
0.0000000001
 44
0.0000000001
 40
0.0
 40
0.0
 40
0.0
 40
0.0
 40
0.0300288589859936
 40
0.0599170573258216
 40
0.0897233725794682
 40
0.1195115460213456
 40
0.1195115460213456
 40
0.1195115460213456
 40
0.1195115460213456
 10
-26.97345264407607
 20
3.278494000000108
 30
0.0
 10
-26.96475029848535
 20
3.273544268013207
 30
0.0
 10
-26.94738637067604
 20
3.263667989485778
 30
0.0
 10
-26.92056804106249
 20
3.25040009220055
 30
0.0
 10
-26.89332580920057
 20
3.238220297990741
 30
0.0
 10
-26.87474448026883
 20
3.23118471873769
 30
0.0
 10
-26.865456644076
 20
3.227668000000079
 30
0.0
 11
-26.97345264407607
 21
3.278494000000108
 31
0.0
 11
-26.94720864407605
 21
3.26390000000012
 31
0.0
 11
-26.92046064407605
 21
3.250564000000082
 31
0.0
 11
-26.89321064407607
 21
3.238487000000048
 31
0.0
 11
-26.865456644076
 21
3.227668000000079
 31
0.0
  0
SPLINE
  5
B947
330
1F
100
AcDbEntity
  8
AM_0
100
AcDbSpline
210
0.0
220
0.0
230
1.0
 70
     8
 71
     3
 72
    11
 73
     7
 74
     5
 42
0.0000000001
 43
0.0000000001
 44
0.0000000001
 40
0.0
 40
0.0
 40
0.0
 40
0.0
 40
0.3455871010974599
 40
0.6907038737368203
 40
1.035350725299422
 40
1.379506395276002
 40
1.379506395276002
 40
1.379506395276002
 40
1.379506395276002
 10
-26.865456644076
 20
3.227668000000079
 30
0.0
 10
-26.75693664526685
 20
3.189016284978043
 30
0.0
 10
-26.54004433847251
 20
3.111765458174864
 30
0.0
 10
-26.2128794515145
 20
3.001860901058997
 30
0.0
 10
-25.88486568679482
 20
2.896060019821815
 30
0.0
 10
-25.66510208754612
 20
2.829558199236965
 30
0.0
 10
-25.555298644076
 20
2.796331000000094
 30
0.0
 11
-26.865456644076
 21
3.227668000000079
 31
0.0
 11
-26.53955464407607
 21
3.11269700000011
 31
0.0
 11
-26.21251364407607
 21
3.002471000000099
 31
0.0
 11
-25.88439964407604
 21
2.897007000000115
 31
0.0
 11
-25.555298644076
 21
2.796331000000094
 31
0.0
  0
SPLINE
  5
B948
330
1F
100
AcDbEntity
  8
AM_0
100
AcDbSpline
210
0.0
220
0.0
230
1.0
 70
     8
 71
     3
 72
    11
 73
     7
 74
     5
 42
0.0000000001
 43
0.0000000001
 44
0.0000000001
 40
0.0
 40
0.0
 40
0.0
 40
0.0
 40
0.1212074407162393
 40
0.2468609050059873
 40
0.3778346175516047
 40
0.5151265635972523
 40
0.5151265635972523
 40
0.5151265635972523
 40
0.5151265635972523
 10
-31.77297564407609
 20
5.828947000000027
 30
0.0
 10
-31.81281824585994
 20
5.835701989550571
 30
0.0
 10
-31.89396492032178
 20
5.849459749172419
 30
0.0
 10
-32.01680074006709
 20
5.877380093372277
 30
0.0
 10
-32.14364626884332
 20
5.912085262047825
 30
0.0
 10
-32.22665682658092
 20
5.945534486942444
 30
0.0
 10
-32.269139644076
 20
5.962653000000045
 30
0.0
 11
-31.77297564407609
 21
5.828947000000027
 31
0.0
 11
-31.89228864407601
 21
5.850293000000021
 31
0.0
 11
-32.01488064407607
 21
5.877861000000052
 31
0.0
 11
-32.140807644076
 21
5.913868000000036
 31
0.0
 11
-32.269139644076
 21
5.962653000000045
 31
0.0
  0
SPLINE
  5
B949
330
1F
100
AcDbEntity
  8
AM_0
100
AcDbSpline
210
0.0
220
0.0
230
1.0
 70
     8
 71
     3
 72
    11
 73
     7
 74
     5
 42
0.0000000001
 43
0.0000000001
 44
0.0000000001
 40
0.0
 40
0.0
 40
0.0
 40
0.0
 40
0.0277786287098293
 40
0.0554623439590712
 40
0.083097980970049
 40
0.1107340072039578
 40
0.1107340072039578
 40
0.1107340072039578
 40
0.1107340072039578
 10
-32.36597664407605
 20
6.016112000000077
 30
0.0
 10
-32.35820901128159
 20
6.011069089280719
 30
0.0
 10
-32.34270028598435
 20
6.001000498358052
 30
0.0
 10
-32.31868686066417
 20
5.987173584800101
 30
0.0
 10
-32.2942336795226
 20
5.974241126912334
 30
0.0
 10
-32.27750436182748
 20
5.966515727104891
 30
0.0
 10
-32.269139644076
 20
5.962653000000045
 30
0.0
 11
-32.36597664407605
 21
6.016112000000077
 31
0.0
 11
-32.3425436440761
 21
6.001194000000054
 31
0.0
 11
-32.31859264407609
 21
5.987311000000033
 31
0.0
 11
-32.29412464407602
 21
5.974464000000068
 31
0.0
 11
-32.269139644076
 21
5.962653000000045
 31
0.0
  0
ELLIPSE
  5
B94A
330
1F
100
AcDbEntity
  8
AM_0
100
AcDbEllipse
 10
-32.78261564407609
 20
4.628242000000057
 30
0.0
 11
-1.217927087865002
 21
1.235052821285997
 31
0.0
210
0.0
220
0.0
230
1.0
 40
0.07115172081005
 41
1.500134006201589
 42
1.65824842510527
  0
SPLINE
  5
B94B
330
1F
100
AcDbEntity
  8
AM_0
100
AcDbSpline
210
0.0
220
0.0
230
1.0
 70
     8
 71
     3
 72
    11
 73
     7
 74
     5
 42
0.0000000001
 43
0.0000000001
 44
0.0000000001
 40
0.0
 40
0.0
 40
0.0
 40
0.0
 40
0.1933240250176133
 40
0.3866140253021802
 40
0.5797734677583634
 40
0.7728510052633844
 40
0.7728510052633844
 40
0.7728510052633844
 40
0.7728510052633844
 10
-32.76378164407612
 20
4.434045000000025
 30
0.0
 10
-32.71731477967414
 20
4.389355681575285
 30
0.0
 10
-32.62438922896735
 20
4.299984909977572
 30
0.0
 10
-32.47379477233654
 20
4.178557173887328
 30
0.0
 10
-32.31674710324572
 20
4.065790077133474
 30
0.0
 10
-32.20640099717825
 20
3.999369997390383
 30
0.0
 10
-32.15123964407604
 20
3.966167000000098
 30
0.0
 11
-32.76378164407612
 21
4.434045000000025
 31
0.0
 11
-32.62250664407605
 21
4.302077000000053
 31
0.0
 11
-32.47267364407599
 21
4.179966000000092
 31
0.0
 11
-32.31530464407609
 21
4.06795900000003
 31
0.0
 11
-32.15123964407604
 21
3.966167000000098
 31
0.0
  0
SPLINE
  5
B94C
330
1F
100
AcDbEntity
  8
AM_0
100
AcDbSpline
210
0.0
220
0.0
230
1.0
 70
     8
 71
     3
 72
    11
 73
     7
 74
     5
 42
0.0000000001
 43
0.0000000001
 44
0.0000000001
 40
0.0
 40
0.0
 40
0.0
 40
0.0
 40
1.349076805813908
 40
2.691115416347872
 40
4.01202456705621
 40
5.311251385100362
 40
5.311251385100362
 40
5.311251385100362
 40
5.311251385100362
 10
-27.40824764407608
 20
3.619398000000074
 30
0.0
 10
-27.62863670905784
 20
4.015879605885817
 30
0.0
 10
-28.0682650592088
 20
4.806774355020406
 30
0.0
 10
-29.16177956998232
 20
5.640726859854838
 30
0.0
 10
-30.46833864984317
 20
6.02378513029768
 30
0.0
 10
-31.34050244296544
 20
5.893533754998329
 30
0.0
 10
-31.77297564407609
 20
5.828947000000027
 30
0.0
 11
-27.40824764407608
 21
3.619398000000074
 31
0.0
 11
-28.14326464407605
 21
4.750662000000119
 31
0.0
 11
-29.20622464407603
 21
5.569920000000109
 31
0.0
 11
-30.47756064407605
 21
5.928397000000074
 31
0.0
 11
-31.77297564407609
 21
5.828947000000027
 31
0.0
  0
SPLINE
  5
B94D
330
1F
100
AcDbEntity
  8
AM_0
100
AcDbSpline
210
0.0
220
0.0
230
1.0
 70
     8
 71
     3
 72
    11
 73
     7
 74
     5
 42
0.0000000001
 43
0.0000000001
 44
0.0000000001
 40
0.0
 40
0.0
 40
0.0
 40
0.0
 40
1.079371369620774
 40
2.341055711958476
 40
3.665384466931968
 40
4.918042672350408
 40
4.918042672350408
 40
4.918042672350408
 40
4.918042672350408
 10
-31.77297564407609
 20
5.828947000000027
 30
0.0
 10
-31.48444906512451
 20
5.613424748211251
 30
0.0
 10
-30.85866185720204
 20
5.145977108960329
 30
0.0
 10
-29.78669745119491
 20
4.553135659303365
 30
0.0
 10
-28.62002420508122
 20
4.023364269717912
 30
0.0
 10
-27.80461383116528
 20
3.751533391286971
 30
0.0
 10
-27.40824764407608
 20
3.619398000000074
 30
0.0
 11
-31.77297564407609
 21
5.828947000000027
 31
0.0
 11
-30.89488164407606
 21
5.201258000000052
 31
0.0
 11
-29.79795764407601
 21
4.57787600000006
 31
0.0
 11
-28.58973864407613
 21
4.035609000000107
 31
0.0
 11
-27.40824764407608
 21
3.619398000000074
 31
0.0
  0
SPLINE
  5
B94E
330
1F
100
AcDbEntity
  8
AM_0
100
AcDbSpline
210
0.0
220
0.0
230
1.0
 70
     8
 71
     3
 72
    11
 73
     7
 74
     5
 42
0.0000000001
 43
0.0000000001
 44
0.0000000001
 40
0.0
 40
0.0
 40
0.0
 40
0.0
 40
1.570126872443526
 40
3.275865271045727
 40
4.887392854544652
 40
6.201817055808843
 40
6.201817055808843
 40
6.201817055808843
 40
6.201817055808843
 10
-26.865456644076
 20
3.227668000000079
 30
0.0
 10
-27.3627169557374
 20
3.391984125245201
 30
0.0
 10
-28.40018584709257
 20
3.734808324748008
 30
0.0
 10
-29.88653237652444
 20
4.407253604141633
 30
0.0
 10
-31.24082905778519
 20
5.158138536955102
 30
0.0
 10
-32.01720539777904
 20
5.750158912918921
 30
0.0
 10
-32.36597664407605
 20
6.016112000000077
 30
0.0
 11
-26.865456644076
 21
3.227668000000079
 31
0.0
 11
-28.3477686440761
 21
3.745403000000095
 31
0.0
 11
-29.90490364407611
 21
4.441732000000058
 31
0.0
 11
-31.30368664407609
 21
5.241999000000021
 31
0.0
 11
-32.36597664407605
 21
6.016112000000077
 31
0.0
  0
SPLINE
  5
B94F
330
1F
100
AcDbEntity
  8
AM_0
100
AcDbSpline
210
0.0
220
0.0
230
1.0
 70
     8
 71
     3
 72
    11
 73
     7
 74
     5
 42
0.0000000001
 43
0.0000000001
 44
0.0000000001
 40
0.0
 40
0.0
 40
0.0
 40
0.0
 40
1.599610160964081
 40
3.233552294118521
 40
4.899734610899276
 40
6.571577207987873
 40
6.571577207987873
 40
6.571577207987873
 40
6.571577207987873
 10
-32.269139644076
 20
5.962653000000045
 30
0.0
 10
-31.74235104501777
 20
6.078676701039097
 30
0.0
 10
-30.67746753491704
 20
6.313214286397291
 30
0.0
 10
-29.03863222396766
 20
5.874139091239528
 30
0.0
 10
-27.70140581924522
 20
4.800171893860506
 30
0.0
 10
-27.21637785602463
 20
3.786293041878848
 30
0.0
 10
-26.97345264407607
 20
3.278494000000108
 30
0.0
 11
-32.269139644076
 21
5.962653000000045
 31
0.0
 11
-30.68469764407615
 21
6.182417000000043
 31
0.0
 11
-29.10242164407605
 21
5.774778000000054
 31
0.0
 11
-27.80576464407607
 21
4.728430000000088
 31
0.0
 11
-26.97345264407607
 21
3.278494000000108
 31
0.0
  0
ELLIPSE
  5
B950
330
1F
100
AcDbEntity
  8
AM_0
100
AcDbEllipse
 10
-13.78087764407601
 20
0.0000000000000853
 30
0.0
 11
-129.167767085511
 21
22.98981331176374
 31
0.0
210
0.0
220
0.0
230
0.9999999999999998
 40
0.00528625774134
 41
-1.491871511547139
 42
-1.384933177397939
  0
ELLIPSE
  5
B951
330
1F
100
AcDbEntity
  8
AM_0
100
AcDbEllipse
 10
-20.29830064407608
 20
26.81104700000011
 30
0.0
 11
0.1090828237409506
 21
24.99976201761899
 31
0.0
210
0.0
220
0.0
230
1.0
 40
0.9848077599999999
 41
2.49970386099349
 42
2.78800694101141
  0
SPLINE
  5
B952
330
1F
100
AcDbEntity
  8
AM_0
100
AcDbSpline
210
0.0
220
0.0
230
1.0
 70
     8
 71
     3
 72
    11
 73
     7
 74
     5
 42
0.0000000001
 43
0.0000000001
 44
0.0000000001
 40
0.0
 40
0.0
 40
0.0
 40
0.0
 40
2.603669616553565
 40
5.225454320164826
 40
7.847309715056903
 40
10.45112741451762
 40
10.45112741451762
 40
10.45112741451762
 40
10.45112741451762
 10
-21.92423964407606
 20
7.370118000000076
 30
0.0
 10
-22.59041303443797
 20
7.9566509365302
 30
0.0
 10
-23.92739473077676
 20
9.133797625044106
 30
0.0
 10
-24.53351295616736
 20
11.82626949486474
 30
0.0
 10
-23.91269501190297
 20
14.51541438965612
 30
0.0
 10
-22.56932978156419
 20
15.68537226229702
 30
0.0
 10
-21.8999656440761
 20
16.26833200000007
 30
0.0
 11
-21.92423964407606
 21
7.370118000000076
 31
0.0
 11
-23.69103164407607
 21
9.282588000000117
 31
0.0
 11
-24.32855264407606
 21
11.82568100000011
 31
0.0
 11
-23.67717064407605
 21
14.36533200000005
 31
0.0
 11
-21.8999656440761
 21
16.26833200000007
 31
0.0
  0
SPLINE
  5
B953
330
1F
100
AcDbEntity
  8
AM_0
100
AcDbSpline
210
0.0
220
0.0
230
1.0
 70
     8
 71
     3
 72
    11
 73
     7
 74
     5
 42
0.0000000001
 43
0.0000000001
 44
0.0000000001
 40
0.0
 40
0.0
 40
0.0
 40
0.0
 40
0.8989852319703844
 40
1.799952518349268
 40
2.702533109265219
 40
3.606330188615398
 40
3.606330188615398
 40
3.606330188615398
 40
3.606330188615398
 10
-29.30055764407603
 20
10.29540500000001
 30
0.0
 10
-29.03776802988643
 20
10.15109127035102
 30
0.0
 10
-28.51160941121829
 20
9.86214563267382
 30
0.0
 10
-27.76460321821259
 20
9.356840204975558
 30
0.0
 10
-27.0487041433686
 20
8.805780300390409
 30
0.0
 10
-26.60664970967161
 20
8.396529968754611
 30
0.0
 10
-26.38547364407605
 20
8.191767000000112
 30
0.0
 11
-29.30055764407603
 21
10.29540500000001
 31
0.0
 11
-28.51933164407609
 21
9.850590000000096
 31
0.0
 11
-27.77044164407612
 21
9.349685000000107
 31
0.0
 11
-27.05791464407599
 21
8.795648000000113
 31
0.0
 11
-26.38547364407605
 21
8.191767000000112
 31
0.0
  0
ELLIPSE
  5
B954
330
1F
100
AcDbEntity
  8
AM_0
100
AcDbEllipse
 10
-34.16658064407604
 20
0.563365000000033
 30
0.0
 11
0.0527376313869761
 21
12.086487944057
 31
0.0
210
0.0
220
0.0
230
1.0
 40
0.9848077247180199
 41
-0.8158435066536059
 42
-0.4907744171753711
  0
ELLIPSE
  5
B955
330
1F
100
AcDbEntity
  8
AM_0
100
AcDbEllipse
 10
-23.53440264407601
 20
1.735926000000091
 30
0.0
 11
-22.57679905202598
 21
4.021968998752955
 31
0.0
210
0.0
220
0.0
230
0.9999999999999998
 40
0.03015369185318
 41
3.945171235587229
 42
4.73145860907515
  0
SPLINE
  5
B956
330
1F
100
AcDbEntity
  8
AM_0
100
AcDbSpline
210
0.0
220
0.0
230
1.0
 70
     8
 71
     3
 72
    11
 73
     7
 74
     5
 42
0.0000000001
 43
0.0000000001
 44
0.0000000001
 40
0.0
 40
0.0
 40
0.0
 40
0.0
 40
1.478829402886612
 40
2.957464139719511
 40
4.435918706289609
 40
5.914204902691393
 40
5.914204902691393
 40
5.914204902691393
 40
5.914204902691393
 10
-18.88724964407614
 20
19.72348200000007
 30
0.0
 10
-19.37893877962416
 20
19.76004880600067
 30
0.0
 10
-20.36225232710604
 20
19.83317760452183
 30
0.0
 10
-21.82815368608819
 20
20.03223807473632
 30
0.0
 10
-23.2845437288058
 20
20.29099245223393
 30
0.0
 10
-24.24266452556065
 20
20.52292921992031
 30
0.0
 10
-24.7216976440761
 20
20.63889100000014
 30
0.0
 11
-18.88724964407614
 21
19.72348200000007
 31
0.0
 11
-20.36082064407614
 21
19.84808100000006
 31
0.0
 11
-21.8266576440761
 21
20.04220100000006
 31
0.0
 11
-23.28141164407608
 21
20.30586500000012
 31
0.0
 11
-24.7216976440761
 21
20.63889100000014
 31
0.0
  0
SPLINE
  5
B957
330
1F
100
AcDbEntity
  8
AM_0
100
AcDbSpline
210
0.0
220
0.0
230
1.0
 70
     8
 71
     3
 72
    11
 73
     7
 74
     5
 42
0.0000000001
 43
0.0000000001
 44
0.0000000001
 40
0.0
 40
0.0
 40
0.0
 40
0.0
 40
1.56367119388317
 40
3.143233336681091
 40
4.735300887172459
 40
6.3355643363449
 40
6.3355643363449
 40
6.3355643363449
 40
6.3355643363449
 10
-20.958756644076
 20
5.037787000000065
 30
0.0
 10
-21.45512679716186
 20
5.199279805109914
 30
0.0
 10
-22.45291150958496
 20
5.523906600462483
 30
0.0
 10
-23.86173484023415
 20
6.24749254319056
 30
0.0
 10
-25.19682686401699
 20
7.121181693870651
 30
0.0
 10
-25.98858047558213
 20
7.834294955805747
 30
0.0
 10
-26.38547364407605
 20
8.191767000000112
 30
0.0
 11
-20.958756644076
 21
5.037787000000065
 31
0.0
 11
-22.432368644076
 21
5.560793000000074
 31
0.0
 11
-23.84406464407612
 21
6.269405000000091
 31
0.0
 11
-25.169312644076
 21
7.151673000000045
 31
0.0
 11
-26.38547364407605
 21
8.191767000000112
 31
0.0
  0
ELLIPSE
  5
B958
330
1F
100
AcDbEntity
  8
AM_0
100
AcDbEllipse
 10
-19.96252764407614
 20
11.81537600000009
 30
0.0
 11
0.0211620678059904
 21
4.849953831417998
 31
0.0
210
0.0
220
0.0
230
1.0
 40
0.98480783505155
 41
2.693565573884089
 42
3.425183891906769
  0
ELLIPSE
  5
B959
330
1F
100
AcDbEntity
  8
AM_0
100
AcDbEllipse
 10
-19.96252764407614
 20
11.81537600000009
 30
0.0
 11
0.0211620678059904
 21
4.849953831417998
 31
0.0
210
0.0
220
0.0
230
1.0
 40
0.98480783505155
 41
0.0
 42
0.447975935714192
  0
ELLIPSE
  5
B95A
330
1F
100
AcDbEntity
  8
AM_0
100
AcDbEllipse
 10
-19.15046964407605
 20
11.81183200000006
 30
0.0
 11
0.0229472780289896
 21
5.259090936684
 31
0.0
210
0.0
220
0.0
230
1.0
 40
0.9848075950045799
 41
2.666010310745409
 42
3.141593005112039
  0
ELLIPSE
  5
B95B
330
1F
100
AcDbEntity
  8
AM_0
100
AcDbEllipse
 10
-19.15046964407605
 20
11.81183200000006
 30
0.0
 11
0.0229420189379896
 21
5.259090959628999
 31
0.0
210
0.0
220
0.0
230
1.0
 40
0.9848077851497
 41
0.47644631531247
 42
0.519184106824574
  0
ELLIPSE
  5
B95C
330
1F
100
AcDbEntity
  8
AM_0
100
AcDbEllipse
 10
-19.10291664407606
 20
11.81162500000007
 30
0.0
 11
0.024251289010989
 21
5.557946091766
 31
0.0
210
0.0
220
0.0
230
1.0
 40
0.9848076618941499
 41
1.57509370642377
 42
4.71668605750057
  0
ELLIPSE
  5
B95D
330
1F
100
AcDbEntity
  8
AM_0
100
AcDbEllipse
 10
-18.32168764407612
 20
15.5699670000001
 30
0.0
 11
0.0432552535049804
 21
9.913302631447001
 31
0.0
210
0.0
220
0.0
230
1.0
 40
0.9848078312610699
 41
2.325749547057339
 42
2.921481667742509
  0
ELLIPSE
  5
B95E
330
1F
100
AcDbEntity
  8
AM_0
100
AcDbEllipse
 10
-19.20255164407618
 20
49.03433700000014
 30
0.0
 11
0.1312772644799406
 21
30.086316596743
 31
0.0
210
0.0
220
0.0
230
0.9999999999999998
 40
0.9848077232248499
 41
2.963743429185069
 42
3.16495987501093
  0
ELLIPSE
  5
B95F
330
1F
100
AcDbEntity
  8
AM_0
100
AcDbEllipse
 10
-19.71702164407605
 20
11.67430300000009
 30
0.0
 11
0.0202894052159908
 21
4.649955735277
 31
0.0
210
0.0
220
0.0
230
0.9999999999999998
 40
0.9848077419354799
 41
0.0
 42
3.141593005332119
  0
ELLIPSE
  5
B960
330
1F
100
AcDbEntity
  8
AM_0
100
AcDbEllipse
 10
-20.03155164407604
 20
11.67567500000009
 30
0.0
 11
0.0202894052159908
 21
4.649955735277
 31
0.0
210
0.0
220
0.0
230
0.9999999999999998
 40
0.9848077419354799
 41
2.62763009633762
 42
3.141593005332119
  0
ELLIPSE
  5
B961
330
1F
100
AcDbEntity
  8
AM_0
100
AcDbEllipse
 10
-20.03155164407604
 20
11.67567500000009
 30
0.0
 11
0.0202894052159908
 21
4.649955735277
 31
0.0
210
0.0
220
0.0
230
0.9999999999999998
 40
0.9848077419354799
 41
0.0
 42
0.824273539021904
  0
ELLIPSE
  5
B962
330
1F
100
AcDbEntity
  8
AM_0
100
AcDbEllipse
 10
-19.66689364407608
 20
11.67408400000008
 30
0.0
 11
0.0181077487409918
 21
4.149960494924999
 31
0.0
210
0.0
220
0.0
230
1.0
 40
0.9848077108433699
 41
-1.56649928810007
 42
4.716685716566509
  0
SPLINE
  5
B963
330
1F
100
AcDbEntity
  8
AM_0
100
AcDbSpline
210
0.0
220
0.0
230
1.0
 70
     8
 71
     3
 72
    11
 73
     7
 74
     5
 42
0.0000000001
 43
0.0000000001
 44
0.0000000001
 40
0.0
 40
0.0
 40
0.0
 40
0.0
 40
1.157665847747527
 40
2.388109105103556
 40
3.685529144961607
 40
5.010765510099879
 40
5.010765510099879
 40
5.010765510099879
 40
5.010765510099879
 10
-33.71509664407611
 20
-12.15346499999992
 30
0.0
 10
-33.64589563284467
 20
-11.76804789622448
 30
0.0
 10
-33.50314324421222
 20
-10.97298419405202
 30
0.0
 10
-32.67556997600361
 20
-9.996527098561831
 30
0.0
 10
-31.47778339956273
 20
-9.402174568077057
 30
0.0
 10
-30.59193205759254
 20
-9.458831883755419
 30
0.0
 10
-30.144308644076
 20
-9.487460999999939
 30
0.0
 11
-33.71509664407611
 21
-12.15346499999992
 31
0.0
 11
-33.41502564407599
 21
-11.03536499999995
 31
0.0
 11
-32.6389126440761
 21
-10.08056699999991
 31
0.0
 11
-31.46916164407596
 21
-9.519334999999955
 31
0.0
 11
-30.144308644076
 21
-9.487460999999939
 31
0.0
  0
ELLIPSE
  5
B964
330
1F
100
AcDbEntity
  8
AM_0
100
AcDbEllipse
 10
-29.216480644076
 20
-12.98029299999987
 30
0.0
 11
0.5252408984149942
 21
2.953662472022001
 31
0.0
210
0.0
220
0.0
230
1.0
 40
0.9848076666666699
 41
0.047999124513711
 42
1.57079600496478
  0
ELLIPSE
  5
B965
330
1F
100
AcDbEntity
  8
AM_0
100
AcDbEllipse
 10
-29.16469764407599
 20
-12.96264899999991
 30
0.0
 11
0.5690109732829935
 21
3.199801011357
 31
0.0
210
0.0
220
0.0
230
1.0
 40
0.9848076923076899
 41
0.241023567666237
 42
1.57079600496477
  0
SPLINE
  5
B966
330
1F
100
AcDbEntity
  8
AM_0
100
AcDbSpline
210
0.0
220
0.0
230
1.0
 70
     8
 71
     3
 72
    11
 73
     7
 74
     5
 42
0.0000000001
 43
0.0000000001
 44
0.0000000001
 40
0.0
 40
0.0
 40
0.0
 40
0.0
 40
1.434239118077873
 40
2.809825886912984
 40
4.106143830434541
 40
5.326170517729955
 40
5.326170517729955
 40
5.326170517729955
 40
5.326170517729955
 10
-30.144308644076
 20
-9.487460999999939
 30
0.0
 10
-29.68065115303991
 20
-9.629378204145012
 30
0.0
 10
-28.77229716620939
 20
-9.907408993417828
 30
0.0
 10
-27.77325956886396
 20
-10.9025861130761
 30
0.0
 10
-27.14974425483461
 20
-12.07655456385476
 30
0.0
 10
-27.10301223609214
 20
-12.92293916475408
 30
0.0
 10
-27.08035464407601
 20
-13.33330099999992
 30
0.0
 11
-30.144308644076
 21
-9.487460999999939
 31
0.0
 11
-28.81188464407605
 21
-10.01820399999988
 31
0.0
 11
-27.81282164407596
 21
-10.9637789999999
 31
0.0
 11
-27.23210764407602
 21
-12.12274899999991
 31
0.0
 11
-27.08035464407601
 21
-13.33330099999992
 31
0.0
  0
ELLIPSE
  5
B967
330
1F
100
AcDbEntity
  8
AM_0
100
AcDbEllipse
 10
-29.36180164407597
 20
-12.95445099999994
 30
0.0
 11
0.3764226438639957
 21
2.116791438283001
 31
0.0
210
0.0
220
0.0
230
1.0
 40
0.9848079069767399
 41
-1.39742896687188
 42
4.88575603751495
  0
ELLIPSE
  5
B968
330
1F
100
AcDbEntity
  8
AM_0
100
AcDbEllipse
 10
-4.939437644076008
 20
3.102621000000112
 30
0.0
 11
-1.305513627360014
 21
7.954486522172997
 31
0.0
210
0.0
220
0.0
230
0.9999999999999998
 40
0.45727286023769
 41
2.069480254685569
 42
2.486296783191009
  0
SPLINE
  5
B969
330
1F
100
AcDbEntity
  8
AM_0
100
AcDbSpline
210
0.0
220
0.0
230
1.0
 70
     8
 71
     3
 72
    11
 73
     7
 74
     5
 42
0.0000000001
 43
0.0000000001
 44
0.0000000001
 40
0.0
 40
0.0
 40
0.0
 40
0.0
 40
0.0808208124928091
 40
0.1710961156548429
 40
0.2711569458782948
 40
0.3775152563998283
 40
0.3775152563998283
 40
0.3775152563998283
 40
0.3775152563998283
 10
-43.44782664407611
 20
18.72136300000002
 30
0.0
 10
-43.45894013623011
 20
18.69671546593218
 30
0.0
 10
-43.48246718675411
 20
18.64453710729646
 30
0.0
 10
-43.49749059796522
 20
18.55458914743021
 30
0.0
 10
-43.49680101536022
 20
18.45477576210917
 30
0.0
 10
-43.47788975083573
 20
18.38830587993806
 30
0.0
 10
-43.46814564407608
 20
18.35405700000004
 30
0.0
 11
-43.44782664407611
 21
18.72136300000002
 31
0.0
 11
-43.47803264407602
 21
18.646399
 31
0.0
 11
-43.49447664407612
 21
18.55763400000003
 31
0.0
 11
-43.49248464407614
 21
18.457593
 31
0.0
 11
-43.46814564407608
 21
18.35405700000004
 31
0.0
  0
ELLIPSE
  5
B96A
330
1F
100
AcDbEntity
  8
AM_0
100
AcDbEllipse
 10
-43.73733664407606
 20
17.79215400000001
 30
0.0
 11
1.154069517466997
 21
1.144042415966002
 31
0.0
210
0.0
220
0.0
230
1.0
 40
0.8390991897975798
 41
-0.049453021834801
 42
0.054630616677137
  0
ELLIPSE
  5
B96B
330
1F
100
AcDbEntity
  8
AM_0
100
AcDbEllipse
 10
-43.16688664407613
 20
18.48967199999995
 30
0.0
 11
0.3077516819419994
 21
0.3050777898540005
 31
0.0
210
0.0
220
0.0
230
1.0
 40
0.8391009369086599
 41
0.6981304635312049
 42
1.65490755634732
  0
ELLIPSE
  5
B96C
330
1F
100
AcDbEntity
  8
AM_0
100
AcDbEllipse
 10
-43.58105464407603
 20
17.79147200000002
 30
0.0
 11
0.006544969423997
 21
1.499985721057
 31
0.0
210
0.0
220
0.0
230
1.0
 40
0.9848079999999999
 41
3.538167903594129
 42
3.74281698193706
  0
ELLIPSE
  5
B96D
330
1F
100
AcDbEntity
  8
AM_0
100
AcDbEllipse
 10
-42.43988464407616
 20
17.78649300000009
 30
0.0
 11
0.006544969423997
 21
1.499985721057
 31
0.0
210
0.0
220
0.0
230
1.0
 40
0.9848079999999999
 41
0.0
 42
3.14159300537504
  0
ELLIPSE
  5
B96E
330
1F
100
AcDbEntity
  8
AM_0
100
AcDbEllipse
 10
-43.7547006440761
 20
17.79223000000004
 30
0.0
 11
0.006544969423997
 21
1.499985721057
 31
0.0
210
0.0
220
0.0
230
1.0
 40
0.9848079999999999
 41
3.602808762546629
 42
3.85289656303352
  0
ELLIPSE
  5
B96F
330
1F
100
AcDbEntity
  8
AM_0
100
AcDbEllipse
 10
-43.7547006440761
 20
17.79223000000004
 30
0.0
 11
0.006544969423997
 21
1.499985721057
 31
0.0
210
0.0
220
0.0
230
1.0
 40
0.9848079999999999
 41
-0.7475847034410441
 42
-0.4612157593034891
  0
ELLIPSE
  5
B970
330
1F
100
AcDbEntity
  8
AM_0
100
AcDbEllipse
 10
-20.29830064407608
 20
26.81104700000011
 30
0.0
 11
0.1090828237409506
 21
24.99976201761899
 31
0.0
210
0.0
220
0.0
230
1.0
 40
0.9848077599999999
 41
1.9201812095835
 42
2.009024003750179
  0
SPLINE
  5
B971
330
1F
100
AcDbEntity
  8
AM_0
100
AcDbSpline
210
0.0
220
0.0
230
1.0
 70
     8
 71
     3
 72
    11
 73
     7
 74
     5
 42
0.0000000001
 43
0.0000000001
 44
0.0000000001
 40
0.0
 40
0.0
 40
0.0
 40
0.0
 40
0.1884385586232448
 40
0.3725370414443224
 40
0.5570083613669073
 40
0.745840801736674
 40
0.745840801736674
 40
0.745840801736674
 40
0.745840801736674
 10
-42.00868064407607
 20
18.88462200000006
 30
0.0
 10
-42.07235572095512
 20
18.87553872911325
 30
0.0
 10
-42.19823932422385
 20
18.85758139125452
 30
0.0
 10
-42.33739780981472
 20
18.71867116979265
 30
0.0
 10
-42.39980548286072
 20
18.53402394174437
 30
0.0
 10
-42.3679071411093
 20
18.41127664559697
 30
0.0
 10
-42.35177164407613
 20
18.34918600000006
 30
0.0
 11
-42.00868064407607
 21
18.88462200000006
 31
0.0
 11
-42.19131064407608
 21
18.83819600000006
 31
0.0
 11
-42.32462664407612
 21
18.71123500000001
 31
0.0
 11
-42.38132164407611
 21
18.53569200000007
 31
0.0
 11
-42.35177164407613
 21
18.34918600000006
 31
0.0
  0
ELLIPSE
  5
B972
330
1F
100
AcDbEntity
  8
AM_0
100
AcDbEllipse
 10
-42.43988464407616
 20
17.78649300000009
 30
0.0
 11
0.006544969423997
 21
1.499985721057
 31
0.0
210
0.0
220
0.0
230
1.0
 40
0.9848079999999999
 41
-0.643501129712189
 42
0.0
  0
ELLIPSE
  5
B973
330
1F
100
AcDbEntity
  8
AM_0
100
AcDbEllipse
 10
-39.49502464407606
 20
15.588402
 30
0.0
 11
0.0130899388489941
 21
2.999971442113999
 31
0.0
210
0.0
220
0.0
230
1.0
 40
0.9848076666666701
 41
1.57079600496478
 42
2.35619483943865
  0
ELLIPSE
  5
B974
330
1F
100
AcDbEntity
  8
AM_0
100
AcDbEllipse
 10
-20.29830064407608
 20
26.81104700000011
 30
0.0
 11
0.1090828237409506
 21
24.99976201761899
 31
0.0
210
0.0
220
0.0
230
1.0
 40
0.9848077599999999
 41
2.027029947520159
 42
2.212686043931769
  0
SPLINE
  5
B975
330
1F
100
AcDbEntity
  8
AM_0
100
AcDbSpline
210
0.0
220
0.0
230
1.0
 70
     8
 71
     3
 72
    11
 73
     7
 74
     5
 42
0.0000000001
 43
0.0000000001
 44
0.0000000001
 40
0.0
 40
0.0
 40
0.0
 40
0.0
 40
0.1762714134877593
 40
0.3970261567233231
 40
0.6853755803138898
 40
1.032593030199408
 40
1.032593030199408
 40
1.032593030199408
 40
1.032593030199408
 10
-52.11826064407611
 20
20.3850130000001
 30
0.0
 10
-52.10519881404945
 20
20.4439646480019
 30
0.0
 10
-52.07577890941117
 20
20.57674480659686
 30
0.0
 10
-51.88108314549395
 20
20.72199246519128
 30
0.0
 10
-51.61681943080658
 20
20.82829973585866
 30
0.0
 10
-51.4053259505186
 20
20.85529252866267
 30
0.0
 10
-51.28978464407609
 20
20.87003900000004
 30
0.0
 11
-52.11826064407611
 21
20.3850130000001
 31
0.0
 11
-52.06264264407614
 21
20.55228000000002
 31
0.0
 11
-51.89793664407611
 21
20.69926499999999
 31
0.0
 11
-51.63182564407609
 21
20.81030699999999
 31
0.0
 11
-51.28978464407609
 21
20.87003900000004
 31
0.0
  0
SPLINE
  5
B976
330
1F
100
AcDbEntity
  8
AM_0
100
AcDbSpline
210
0.0
220
0.0
230
1.0
 70
     8
 71
     3
 72
    11
 73
     7
 74
     5
 42
0.0000000001
 43
0.0000000001
 44
0.0000000001
 40
0.0
 40
0.0
 40
0.0
 40
0.0
 40
0.0238537787571973
 40
0.047244360301897
 40
0.0703194568565157
 40
0.0932095547374923
 40
0.0932095547374923
 40
0.0932095547374923
 40
0.0932095547374923
 10
-52.10346764407606
 20
20.29335000000006
 30
0.0
 10
-52.10577255253686
 20
20.3009644955529
 30
0.0
 10
-52.11033761230762
 20
20.3160456269358
 30
0.0
 10
-52.11485687605291
 20
20.33907954687105
 30
0.0
 10
-52.11766195059525
 20
20.36205763563871
 30
0.0
 10
-52.11806161576737
 20
20.37738177051218
 30
0.0
 10
-52.11826064407611
 20
20.3850130000001
 30
0.0
 11
-52.10346764407606
 21
20.29335000000006
 31
0.0
 11
-52.10999264407607
 21
20.31629399999999
 31
0.0
 11
-52.11459664407616
 21
20.33922699999996
 31
0.0
 11
-52.11730164407604
 21
20.36214300000009
 31
0.0
 11
-52.11826064407611
 21
20.3850130000001
 31
0.0
  0
ELLIPSE
  5
B977
330
1F
100
AcDbEntity
  8
AM_0
100
AcDbEllipse
 10
-54.10076664407601
 20
0.0000040000000183
 30
0.0
 11
0.1035771659299546
 21
22.99998877869299
 31
0.0
210
0.0
220
0.0
230
0.9999999999999998
 40
0.17632521112188
 41
-0.5368953923181961
 42
-0.489233841027698
  0
ELLIPSE
  5
B978
330
1F
100
AcDbEntity
  8
AM_0
100
AcDbEllipse
 10
-37.50748664407612
 20
19.69161699999998
 30
0.0
 11
0.0610863812949724
 21
13.999866729866
 31
0.0
210
0.0
220
0.0
230
0.9999999999999998
 40
0.98480778571429
 41
1.57079600496474
 42
1.768319307170959
  0
ELLIPSE
  5
B979
330
1F
100
AcDbEntity
  8
AM_0
100
AcDbEllipse
 10
-39.78811664407606
 20
5.914128000000033
 30
0.0
 11
0.1805379162729981
 21
0.9835680255010002
 31
0.0
210
0.0
220
0.0
230
1.0
 40
0.17101
 41
1.60140558759434
 42
1.96042222778151
  0
ELLIPSE
  5
B97A
330
1F
100
AcDbEntity
  8
AM_0
100
AcDbEllipse
 10
-37.50748664407612
 20
19.69161699999998
 30
0.0
 11
0.0610863812949724
 21
13.999866729866
 31
0.0
210
0.0
220
0.0
230
0.9999999999999998
 40
0.98480778571429
 41
2.79511198955401
 42
2.96705979444127
  0
SPLINE
  5
B97B
330
1F
100
AcDbEntity
  8
AM_0
100
AcDbSpline
210
0.0
220
0.0
230
1.0
 70
     8
 71
     3
 72
    11
 73
     7
 74
     5
 42
0.0000000001
 43
0.0000000001
 44
0.0000000001
 40
0.0
 40
0.0
 40
0.0
 40
0.0
 40
6.294166729377119
 40
12.35753901535405
 40
17.6951843542256
 40
21.78827837707367
 40
21.78827837707367
 40
21.78827837707367
 40
21.78827837707367
 10
-37.530982644076
 20
4.919463000000035
 30
0.0
 10
-39.56615718214371
 20
5.53170746082603
 30
0.0
 10
-43.56188049843972
 20
6.733746608641924
 30
0.0
 10
-47.94433248641817
 20
10.95537059477014
 30
0.0
 10
-50.58905639051827
 20
15.44159478457281
 30
0.0
 10
-51.52938831806181
 20
18.4492212674648
 30
0.0
 10
-51.93750764407614
 20
19.75458000000006
 30
0.0
 11
-37.530982644076
 21
4.919463000000035
 31
0.0
 11
-43.39388864407607
 21
7.209194000000053
 31
0.0
 11
-47.87586164407599
 21
11.29286900000002
 31
0.0
 11
-50.5870506440761
 21
15.89068499999999
 31
0.0
 11
-51.93750764407614
 21
19.75458000000006
 31
0.0
  0
SPLINE
  5
B97C
330
1F
100
AcDbEntity
  8
AM_0
100
AcDbSpline
210
0.0
220
0.0
230
1.0
 70
     8
 71
     3
 72
    11
 73
     7
 74
     5
 42
0.0000000001
 43
0.0000000001
 44
0.0000000001
 40
0.0
 40
0.0
 40
0.0
 40
0.0
 40
3.984370221334516
 40
8.005829040187411
 40
12.04857377055419
 40
16.09022855136316
 40
16.09022855136316
 40
16.09022855136316
 40
16.09022855136316
 10
-42.35177164407613
 20
18.34918600000006
 30
0.0
 10
-41.80136026356219
 20
17.1375350626243
 30
0.0
 10
-40.69541398613712
 20
14.70295450857022
 30
0.0
 10
-38.36872006319391
 20
11.40650536958896
 30
0.0
 10
-35.62869980818974
 20
8.41684380627532
 30
0.0
 10
-33.45345327556472
 20
6.816284005553943
 30
0.0
 10
-32.36597664407605
 20
6.016112000000077
 30
0.0
 11
-42.35177164407613
 21
18.34918600000006
 31
0.0
 11
-40.59154064407613
 21
14.77472200000002
 31
0.0
 11
-38.30619264407602
 21
11.46574699999999
 31
0.0
 11
-35.54207064407609
 21
8.515592000000026
 31
0.0
 11
-32.36597664407605
 21
6.016112000000077
 31
0.0
  0
ELLIPSE
  5
B97D
330
1F
100
AcDbEntity
  8
AM_0
100
AcDbEllipse
 10
-52.25561364407605
 20
8.704904000000027
 30
0.0
 11
-154.0597646456402
 21
88.8421023153077
 31
0.0
210
0.0
220
0.0
230
1.0
 40
0.08708642716879
 41
-1.65777853820479
 42
-1.6072896067602
  0
SPLINE
  5
B97E
330
1F
100
AcDbEntity
  8
AM_0
100
AcDbSpline
210
0.0
220
0.0
230
1.0
 70
     8
 71
     3
 72
    11
 73
     7
 74
     5
 42
0.0000000001
 43
0.0000000001
 44
0.0000000001
 40
0.0
 40
0.0
 40
0.0
 40
0.0
 40
0.412470372163906
 40
0.8249385077101836
 40
1.23740685313317
 40
1.649877070397404
 40
1.649877070397404
 40
1.649877070397404
 40
1.649877070397404
 10
-348.5176380000002
 20
15.50830599999938
 30
0.0
 10
-348.3913746303477
 20
15.56272211437786
 30
0.0
 10
-348.1388485757051
 20
15.67155404806382
 30
0.0
 10
-347.7595924284468
 20
15.83371377663233
 30
0.0
 10
-347.3800273713801
 20
15.99514898860207
 30
0.0
 10
-347.1266759820839
 20
16.1020455820151
 30
0.0
 10
-347.0000000000002
 20
16.15549399999941
 30
0.0
 11
-348.5176380000002
 21
15.50830599999938
 31
0.0
 11
-348.1387700000002
 21
15.67137299999945
 31
0.0
 11
-347.7595410000002
 21
15.83359299999949
 31
0.0
 11
-347.3799510000002
 21
15.9949669999994
 31
0.0
 11
-347.0000000000002
 21
16.15549399999941
 31
0.0
  0
SPLINE
  5
B97F
330
1F
100
AcDbEntity
  8
AM_0
100
AcDbSpline
210
0.0
220
0.0
230
1.0
 70
     8
 71
     3
 72
    11
 73
     7
 74
     5
 42
0.0000000001
 43
0.0000000001
 44
0.0000000001
 40
0.0
 40
0.0
 40
0.0
 40
0.0
 40
0.9542956284428001
 40
1.915674981406548
 40
2.879031040568414
 40
3.843052626116161
 40
3.843052626116161
 40
3.843052626116161
 40
3.843052626116161
 10
-348.5176380000002
 20
15.50830599999938
 30
0.0
 10
-348.7844737014605
 20
15.32474881308402
 30
0.0
 10
-349.3201258224577
 20
14.95627189654934
 30
0.0
 10
-349.7296807348067
 20
14.05288442842456
 30
0.0
 10
-349.9641729227767
 20
13.11864207194782
 30
0.0
 10
-349.9880548920991
 20
12.47433218437178
 30
0.0
 10
-350.0000000000002
 20
12.15206599999942
 30
0.0
 11
-348.5176380000002
 21
15.50830599999938
 31
0.0
 11
-349.2528460000003
 21
14.89990699999942
 31
0.0
 11
-349.7000690000002
 21
14.04888299999936
 31
0.0
 11
-349.9309990000001
 21
13.11361499999941
 31
0.0
 11
-350.0000000000002
 21
12.15206599999942
 31
0.0
  0
SPLINE
  5
B980
330
1F
100
AcDbEntity
  8
AM_0
100
AcDbSpline
210
0.0
220
0.0
230
1.0
 70
     8
 71
     3
 72
    11
 73
     7
 74
     5
 42
0.0000000001
 43
0.0000000001
 44
0.0000000001
 40
0.0
 40
0.0
 40
0.0
 40
0.0
 40
0.9640257900206592
 40
1.92738895706106
 40
2.888781846074149
 40
3.843058799320932
 40
3.843058799320932
 40
3.843058799320932
 40
3.843058799320932
 10
-350.0000000000002
 20
-12.15206600000055
 30
0.0
 10
-349.9880502024056
 20
-12.47433247603176
 30
0.0
 10
-349.964158820908
 20
-13.11864391828086
 30
0.0
 10
-349.7297176019468
 20
-14.05290978517014
 30
0.0
 10
-349.320111881621
 20
-14.95627585725687
 30
0.0
 10
-348.7844660582807
 20
-15.32475219909296
 30
0.0
 10
-348.5176380000002
 20
-15.50830600000057
 30
0.0
 11
-350.0000000000002
 21
-12.15206600000055
 31
0.0
 11
-349.9309960000002
 21
-13.11361900000053
 31
0.0
 11
-349.7000890000001
 21
-14.04890000000056
 31
0.0
 11
-349.2528350000002
 21
-14.89992300000056
 31
0.0
 11
-348.5176380000002
 21
-15.50830600000057
 31
0.0
  0
SPLINE
  5
B981
330
1F
100
AcDbEntity
  8
AM_0
100
AcDbSpline
210
0.0
220
0.0
230
1.0
 70
     8
 71
     3
 72
    11
 73
     7
 74
     5
 42
0.0000000001
 43
0.0000000001
 44
0.0000000001
 40
0.0
 40
0.0
 40
0.0
 40
0.0
 40
7.05620348184845
 40
13.95419394955165
 40
20.8521868128668
 40
27.90840254739987
 40
27.90840254739987
 40
27.90840254739987
 40
27.90840254739987
 10
-339.6776340000002
 20
-15.35740900000052
 30
0.0
 10
-339.3056237264711
 20
-13.25634856707239
 30
0.0
 10
-338.5699443315378
 20
-9.101337326788843
 30
0.0
 10
-334.1000135121786
 20
0.3041104678962299
 30
0.0
 10
-329.6299831768323
 20
-9.10130974573056
 30
0.0
 10
-328.8943520973469
 20
-13.25633834590881
 30
0.0
 10
-328.5223660000002
 20
-15.35740900000049
 30
0.0
 11
-339.6776340000002
 21
-15.35740900000052
 31
0.0
 11
-337.9848490000001
 21
-8.507264000000528
 31
0.0
 11
-334.0999980000002
 21
-2.807246000000528
 31
0.0
 11
-330.2151090000002
 21
-8.507241000000558
 31
0.0
 11
-328.5223660000002
 21
-15.35740900000049
 31
0.0
  0
SPLINE
  5
B982
330
1F
100
AcDbEntity
  8
AM_0
100
AcDbSpline
210
0.0
220
0.0
230
1.0
 70
     8
 71
     3
 72
    11
 73
     7
 74
     5
 42
0.0000000001
 43
0.0000000001
 44
0.0000000001
 40
0.0
 40
0.0
 40
0.0
 40
0.0
 40
0.5538261373174381
 40
1.107841568958976
 40
1.661131960889004
 40
2.212748998371461
 40
2.212748998371461
 40
2.212748998371461
 40
2.212748998371461
 10
-34.22471964407609
 20
21.23803900000012
 30
0.0
 10
-34.22513119302961
 20
21.4226481393724
 30
0.0
 10
-34.22595443160151
 20
21.7919295163709
 30
0.0
 10
-34.22212113069952
 20
22.34563294215212
 30
0.0
 10
-34.21488868941855
 20
22.89856638290244
 30
0.0
 10
-34.20659513906588
 20
23.26677734303974
 30
0.0
 10
-34.20245464407603
 20
23.45060400000005
 30
0.0
 11
-34.22471964407609
 21
21.23803900000012
 31
0.0
 11
-34.22510964407612
 21
21.79186500000008
 31
0.0
 11
-34.22155064407601
 21
22.34586900000004
 31
0.0
 11
-34.21400964407607
 21
22.89910800000012
 31
0.0
 11
-34.20245464407603
 21
23.45060400000005
 31
0.0
  0
SPLINE
  5
B983
330
1F
100
AcDbEntity
  8
AM_0
100
AcDbSpline
210
0.0
220
0.0
230
1.0
 70
     8
 71
     3
 72
    11
 73
     7
 74
     5
 42
0.0000000001
 43
0.0000000001
 44
0.0000000001
 40
0.0
 40
0.0
 40
0.0
 40
0.0
 40
2.723993297239965
 40
5.463128510584603
 40
8.21432550091492
 40
10.97389134115657
 40
10.97389134115657
 40
10.97389134115657
 40
10.97389134115657
 10
-9.760744644076083
 20
19.27072000000007
 30
0.0
 10
-10.51600589090311
 20
19.77679039329003
 30
0.0
 10
-12.03072667037826
 20
20.79174428350205
 30
0.0
 10
-14.51308152983608
 20
21.96606015278611
 30
0.0
 10
-17.10910588876435
 20
22.89554945582198
 30
0.0
 10
-18.91137672707372
 20
23.26166981726332
 30
0.0
 10
-19.81388064407608
 20
23.44500800000011
 30
0.0
 11
-9.760744644076083
 21
19.27072000000007
 31
0.0
 11
-12.06039664407612
 21
20.73076800000009
 31
0.0
 11
-14.52648464407602
 21
21.92293900000013
 31
0.0
 11
-17.12346564407616
 21
22.83111000000005
 31
0.0
 11
-19.81388064407608
 21
23.44500800000011
 31
0.0
  0
ELLIPSE
  5
B984
330
1F
100
AcDbEntity
  8
AM_0
100
AcDbEllipse
 10
3.441191355924019
 20
0.0000000000001421
 30
0.0
 11
130.440761721681
 21
0.0182617067602577
 31
0.0
210
0.0
220
0.0
230
1.0
 40
0.17632519521524
 41
1.863765833483769
 42
2.003759258496209
  0
ELLIPSE
  5
B985
330
1F
100
AcDbEntity
  8
AM_0
100
AcDbEllipse
 10
-48.75533164407608
 20
14.774686
 30
0.0
 11
-154.0597481863321
 21
88.8420928236697
 31
0.0
210
0.0
220
0.0
230
1.0
 40
0.08708641960383
 41
-1.65916618990132
 42
-1.619527067075619
  0
LINE
  5
B987
330
1F
100
AcDbEntity
  8
AM_7
100
AcDbLine
 10
-356.7241609306212
 20
-0.0000000000006001
 30
0.0
 11
3.37012078360064
 21
0.0000000000001421
 31
0.0
1001
GENIUS_GENODEF_13
1002
{
1000
HIER
1070
     0
1002
}
1002
{
1000
MANEDIT
1070
     0
1002
}
1002
{
1000
NOSEL
1070
     0
1002
}
1002
{
1000
BEHIND
1070
     0
1002
}
1002
{
1000
REACTOR
1002
}
1001
GENIUS_GENOBJ-N-CEN_13
1002
{
1000
OWNER
1000
GEN
1002
}
  0
LINE
  5
B988
330
1F
100
AcDbEntity
  8
AM_0
100
AcDbLine
 10
-327.7700000000002
 20
24.89999999999944
 30
0.0
 11
-340.4700000000003
 21
24.89999999999941
 31
0.0
  0
LINE
  5
B989
330
1F
100
AcDbEntity
  8
AM_0
100
AcDbLine
 10
-340.4700000000002
 20
15.35740899999939
 30
0.0
 11
-327.7700000000002
 21
15.35740899999942
 31
0.0
  0
LINE
  5
B98A
330
1F
100
AcDbEntity
  8
AM_0
100
AcDbLine
 10
-350.0000000000002
 20
12.15206599999942
 30
0.0
 11
-350.0000000000003
 21
23.06149799999946
 31
0.0
  0
LINE
  5
B98B
330
1F
100
AcDbEntity
  8
AM_0
100
AcDbLine
 10
-340.4700000000002
 20
16.15549399999941
 30
0.0
 11
-340.4700000000003
 21
25.39999999999941
 31
0.0
  0
LINE
  5
B98C
330
1F
100
AcDbEntity
  8
AM_0
100
AcDbLine
 10
-347.0000000000002
 20
16.15549399999941
 30
0.0
 11
-347.0000000000002
 21
25.39999999999941
 31
0.0
  0
LINE
  5
B98D
330
1F
100
AcDbEntity
  8
AM_0
100
AcDbLine
 10
-348.5176380000002
 20
15.50830599999938
 30
0.0
 11
-348.5176380000003
 21
24.99334999999939
 31
0.0
  0
LINE
  5
B98E
330
1F
100
AcDbEntity
  8
AM_0
100
AcDbLine
 10
-348.0000000000002
 20
-15.73086027468741
 30
0.0
 11
-348.0000000000002
 21
15.73086027468628
 31
0.0
  0
LINE
  5
B98F
330
1F
100
AcDbEntity
  8
AM_0
100
AcDbLine
 10
-350.0000000000002
 20
-12.15206600000055
 30
0.0
 11
-350.0000000000002
 21
12.15206599999942
 31
0.0
  0
LINE
  5
B990
330
1F
100
AcDbEntity
  8
AM_0
100
AcDbLine
 10
-339.6776340000002
 20
-15.35740900000052
 30
0.0
 11
-340.4700000000002
 21
-15.35740900000052
 31
0.0
  0
LINE
  5
B991
330
1F
100
AcDbEntity
  8
AM_0
100
AcDbLine
 10
-347.0000000000002
 20
16.15549399999941
 30
0.0
 11
-340.4700000000002
 21
16.15549399999941
 31
0.0
  0
LINE
  5
B992
330
1F
100
AcDbEntity
  8
AM_0
100
AcDbLine
 10
-340.4700000000002
 20
16.15549399999941
 30
0.0
 11
-340.4700000000002
 21
15.35740899999939
 31
0.0
  0
ARC
  5
B993
330
1F
100
AcDbEntity
  8
AM_0
100
AcDbCircle
 10
-348.0000000000003
 20
23.06149799999946
 30
0.0
 40
2.000000312236979
100
AcDbArc
 50
104.9999949278684
 51
180.0
  0
LINE
  5
B994
330
1F
100
AcDbEntity
  8
AM_0
100
AcDbLine
 10
-347.0000000000002
 20
25.39999999999941
 30
0.0
 11
-348.5176380000003
 21
24.99334999999939
 31
0.0
  0
LINE
  5
B995
330
1F
100
AcDbEntity
  8
AM_0
100
AcDbLine
 10
-340.4700000000003
 20
25.39999999999941
 30
0.0
 11
-347.0000000000002
 21
25.39999999999941
 31
0.0
  0
LINE
  5
B996
330
1F
100
AcDbEntity
  8
AM_0
100
AcDbLine
 10
-35.28277364407605
 20
23.00000000000005
 30
0.0
 11
-245.7291680000003
 21
22.99999999999956
 31
0.0
  0
LINE
  5
B998
330
1F
100
AcDbEntity
  8
AM_0
100
AcDbLine
 10
-250.0000000000003
 20
25.39999999999958
 30
0.0
 11
-327.7700000000002
 21
25.39999999999944
 31
0.0
  0
LINE
  5
B999
330
1F
100
AcDbEntity
  8
AM_4
100
AcDbLine
 10
-296.7700000000002
 20
11.59310099999936
 30
0.0
 11
-314.7700000000002
 21
-11.59310100000049
 31
0.0
  0
LINE
  5
B99A
330
1F
100
AcDbEntity
  8
AM_4
100
AcDbLine
 10
-314.7699999999998
 20
11.59310100000024
 30
0.0
 11
-296.7700000000002
 21
-11.59310100000032
 31
0.0
  0
LINE
  5
B99B
330
1F
100
AcDbEntity
  8
AM_0
100
AcDbLine
 10
-314.7700000000002
 20
11.59310099999948
 30
0.0
 11
-296.7700000000002
 21
11.59310099999951
 31
0.0
  0
LINE
  5
B99C
330
1F
100
AcDbEntity
  8
AM_0
100
AcDbLine
 10
-296.7700000000002
 20
-11.59310100000046
 30
0.0
 11
-314.7700000000002
 21
-11.59310100000049
 31
0.0
  0
ARC
  5
B99D
330
1F
100
AcDbEntity
  8
AM_0
100
AcDbCircle
 10
-292.1700000000003
 20
-0.0000000000004514
 30
0.0
 40
25.3999998188228
100
AcDbArc
 50
152.8435793208215
 51
207.1564206791792
  0
LINE
  5
B99E
330
1F
100
AcDbEntity
  8
AM_0
100
AcDbLine
 10
-314.7700000000002
 20
-11.59310100000049
 30
0.0
 11
-314.7700000000002
 21
11.59310099999948
 31
0.0
  0
LINE
  5
B99F
330
1F
100
AcDbEntity
  8
AM_0
100
AcDbLine
 10
-327.7700000000002
 20
-15.35740900000049
 30
0.0
 11
-328.5223660000002
 21
-15.35740900000049
 31
0.0
  0
ARC
  5
B9A0
330
1F
100
AcDbEntity
  8
AM_0
100
AcDbCircle
 10
-319.3700000000002
 20
-0.0000000000005082
 30
0.0
 40
25.3999998188228
100
AcDbArc
 50
332.8435793208214
 51
27.15642067917925
  0
LINE
  5
B9A1
330
1F
100
AcDbEntity
  8
AM_0
100
AcDbLine
 10
-296.7700000000002
 20
-11.59310100000046
 30
0.0
 11
-296.7700000000002
 21
11.59310099999951
 31
0.0
  0
ARC
  5
B9A4
330
1F
100
AcDbEntity
  8
AM_0
100
AcDbCircle
 10
-245.7291680000003
 20
27.9999999999996
 30
0.0
 40
5.000000597222349
100
AcDbArc
 50
211.3322473313046
 51
270.0000000000001
  0
LINE
  5
B9A5
330
1F
100
AcDbEntity
  8
AM_0
100
AcDbLine
 10
-51.29466364407616
 20
19.75177499999998
 30
0.0
 11
-51.93750764407614
 21
19.75458000000006
 31
0.0
  0
LINE
  5
B9A6
330
1F
100
AcDbEntity
  8
AM_0
100
AcDbLine
 10
-51.28978464407609
 20
20.87003900000004
 30
0.0
 11
-51.29466364407616
 21
19.75177499999998
 31
0.0
  0
LINE
  5
B9A7
330
1F
100
AcDbEntity
  8
AM_0
100
AcDbLine
 10
-25.9440496440761
 20
17.20918300000002
 30
0.0
 11
-25.62034064407606
 21
15.95147000000005
 31
0.0
  0
LINE
  5
B9A8
330
1F
100
AcDbEntity
  8
AM_0
100
AcDbLine
 10
-25.93384264407606
 20
16.48838400000008
 30
0.0
 11
-26.10814764407606
 21
17.16561400000009
 31
0.0
  0
LINE
  5
B9A9
330
1F
100
AcDbEntity
  8
AM_0
100
AcDbLine
 10
-26.06331664407602
 20
16.43057600000005
 30
0.0
 11
-26.23762164407603
 21
17.10780600000006
 31
0.0
  0
LINE
  5
B9AA
330
1F
100
AcDbEntity
  8
AM_0
100
AcDbLine
 10
-25.39880164407605
 20
16.00173500000013
 30
0.0
 11
-25.72251064407609
 21
17.2594480000001
 31
0.0
  0
LINE
  5
B9AB
330
1F
100
AcDbEntity
  8
AM_0
100
AcDbLine
 10
-25.31721964407603
 20
16.00852000000006
 30
0.0
 11
-25.64092864407607
 21
17.26623300000014
 31
0.0
  0
LINE
  5
B9AC
330
1F
100
AcDbEntity
  8
AM_0
100
AcDbLine
 10
-29.24070964407604
 20
13.84914200000011
 30
0.0
 11
-26.54115064407605
 21
18.53040700000005
 31
0.0
  0
LINE
  5
B9AD
330
1F
100
AcDbEntity
  8
AM_0
100
AcDbLine
 10
-29.20072564407607
 20
18.30029700000008
 30
0.0
 11
-30.12491664407602
 21
16.69767200000007
 31
0.0
  0
LINE
  5
B9AE
330
1F
100
AcDbEntity
  8
AM_0
100
AcDbLine
 10
-24.57008964407606
 20
14.69429500000009
 30
0.0
 11
-25.80873964407607
 21
14.36542400000004
 31
0.0
  0
LINE
  5
B9AF
330
1F
100
AcDbEntity
  8
AM_0
100
AcDbLine
 10
-25.72742564407604
 20
14.17252800000014
 30
0.0
 11
-24.48877564407604
 21
14.50139900000007
 31
0.0
  0
LINE
  5
B9B0
330
1F
100
AcDbEntity
  8
AM_0
100
AcDbLine
 10
-24.426739644076
 20
14.47429000000008
 30
0.0
 11
-25.66538964407601
 21
14.14541900000003
 31
0.0
  0
LINE
  5
B9B1
330
1F
100
AcDbEntity
  8
AM_0
100
AcDbLine
 10
-33.71509664407611
 20
-12.15346499999992
 30
0.0
 11
-32.31588664407607
 21
-12.40228199999995
 31
0.0
  0
LINE
  5
B9B2
330
1F
100
AcDbEntity
  8
AM_0
100
AcDbLine
 10
-39.96176264407614
 20
5.914886000000052
 30
0.0
 11
-32.95626164407605
 21
4.628999000000078
 31
0.0
  0
LINE
  5
B9B3
330
1F
100
AcDbEntity
  8
AM_0
100
AcDbLine
 10
-41.59335364407598
 20
13.47621700000004
 30
0.0
 11
-32.95626164407605
 21
4.628999000000078
 31
0.0
  0
LINE
  5
B9B4
330
1F
100
AcDbEntity
  8
AM_0
100
AcDbLine
 10
-42.44642964407612
 20
16.28650700000005
 30
0.0
 11
-42.44941964407604
 21
15.60129299999997
 31
0.0
  0
LINE
  5
B9B5
330
1F
100
AcDbEntity
  8
AM_0
100
AcDbLine
 10
-26.38547364407605
 20
8.191767000000112
 30
0.0
 11
-25.46153864407603
 21
8.807858000000095
 31
0.0
  0
LINE
  5
B9B6
330
1F
100
AcDbEntity
  8
AM_0
100
AcDbLine
 10
-31.07492264407602
 20
14.65664500000008
 30
0.0
 11
-29.24070964407604
 21
13.84914200000011
 31
0.0
  0
LINE
  5
B9B7
330
1F
100
AcDbEntity
  8
AM_0
100
AcDbLine
 10
-25.39880164407605
 20
16.00173500000013
 30
0.0
 11
-25.31721964407603
 21
16.00852000000006
 31
0.0
  0
LINE
  5
B9B8
330
1F
100
AcDbEntity
  8
AM_0
100
AcDbLine
 10
-26.37961064407608
 20
15.74739200000007
 30
0.0
 11
-26.33795464407609
 21
15.77132300000002
 31
0.0
  0
LINE
  5
B9B9
330
1F
100
AcDbEntity
  8
AM_0
100
AcDbLine
 10
-25.05761364407607
 20
14.9614490000001
 30
0.0
 11
-25.01595764407608
 21
14.98537900000005
 31
0.0
  0
LINE
  5
B9BA
330
1F
100
AcDbEntity
  8
AM_0
100
AcDbLine
 10
-25.20256964407605
 20
14.90175200000007
 30
0.0
 11
-25.15436364407611
 21
14.92837900000003
 31
0.0
  0
LINE
  5
B9BB
330
1F
100
AcDbEntity
  8
AM_0
100
AcDbLine
 10
-25.89208664407607
 20
15.48023900000006
 30
0.0
 11
-27.13073664407608
 21
15.15136800000013
 31
0.0
  0
LINE
  5
B9BC
330
1F
100
AcDbEntity
  8
AM_0
100
AcDbLine
 10
-27.17362164407603
 20
15.31799100000009
 30
0.0
 11
-26.50665664407603
 21
15.49507500000012
 31
0.0
  0
LINE
  5
B9BD
330
1F
100
AcDbEntity
  8
AM_0
100
AcDbLine
 10
-27.04942164407606
 20
14.95847100000011
 30
0.0
 11
-25.81077164407605
 21
15.28734200000005
 31
0.0
  0
LINE
  5
B9BE
330
1F
100
AcDbEntity
  8
AM_0
100
AcDbLine
 10
-26.52456564407606
 20
15.68769500000004
 30
0.0
 11
-27.19153064407606
 21
15.51061100000012
 31
0.0
  0
LINE
  5
B9BF
330
1F
100
AcDbEntity
  8
AM_0
100
AcDbLine
 10
-25.74873564407613
 20
15.26023400000005
 30
0.0
 11
-26.98738564407614
 21
14.93136200000012
 31
0.0
  0
LINE
  5
B9C0
330
1F
100
AcDbEntity
  8
AM_0
100
AcDbLine
 10
-26.47636064407612
 20
15.71432300000012
 30
0.0
 11
-27.14332564407601
 21
15.53723800000008
 31
0.0
  0
LINE
  5
B9C1
330
1F
100
AcDbEntity
  8
AM_0
100
AcDbLine
 10
-29.30055764407603
 20
10.29540500000001
 30
0.0
 11
-28.5101386440761
 21
11.19878400000007
 31
0.0
  0
LINE
  5
B9C2
330
1F
100
AcDbEntity
  8
AM_0
100
AcDbLine
 10
-27.04942164407606
 20
14.95847100000011
 30
0.0
 11
-26.98738564407614
 21
14.93136200000012
 31
0.0
  0
LINE
  5
B9C3
330
1F
100
AcDbEntity
  8
AM_0
100
AcDbLine
 10
-27.19153064407606
 20
15.51061100000012
 30
0.0
 11
-27.14332564407601
 21
15.53723800000008
 31
0.0
  0
LINE
  5
B9C4
330
1F
100
AcDbEntity
  8
AM_0
100
AcDbLine
 10
-25.72742564407604
 20
14.17252800000014
 30
0.0
 11
-25.66538964407601
 21
14.14541900000003
 31
0.0
  0
LINE
  5
B9C5
330
1F
100
AcDbEntity
  8
AM_0
100
AcDbLine
 10
-25.86953464407605
 20
14.72466700000004
 30
0.0
 11
-25.82132964407611
 21
14.75129500000011
 31
0.0
  0
LINE
  5
B9C6
330
1F
100
AcDbEntity
  8
AM_0
100
AcDbLine
 10
-25.81077164407605
 20
15.28734200000005
 30
0.0
 11
-25.74873564407613
 21
15.26023400000005
 31
0.0
  0
LINE
  5
B9C7
330
1F
100
AcDbEntity
  8
AM_0
100
AcDbLine
 10
-26.52456564407606
 20
15.68769500000004
 30
0.0
 11
-26.47636064407612
 21
15.71432300000012
 31
0.0
  0
LINE
  5
B9C8
330
1F
100
AcDbEntity
  8
AM_0
100
AcDbLine
 10
-25.85162564407602
 20
14.53204700000012
 30
0.0
 11
-25.18465964407602
 21
14.70913200000004
 31
0.0
  0
LINE
  5
B9C9
330
1F
100
AcDbEntity
  8
AM_0
100
AcDbLine
 10
-25.20256964407605
 20
14.90175200000007
 30
0.0
 11
-25.86953464407605
 21
14.72466700000004
 31
0.0
  0
LINE
  5
B9CA
330
1F
100
AcDbEntity
  8
AM_0
100
AcDbLine
 10
-25.15436364407611
 20
14.92837900000003
 30
0.0
 11
-25.82132964407611
 21
14.75129500000011
 31
0.0
  0
LINE
  5
B9CB
330
1F
100
AcDbEntity
  8
AM_0
100
AcDbLine
 10
-3.983604644075995
 20
-10.50034599999992
 30
0.0
 11
-2.913381644076054
 21
-10.69066099999986
 31
0.0
  0
LINE
  5
B9CC
330
1F
100
AcDbEntity
  8
AM_0
100
AcDbLine
 10
-3.713202644076119
 20
-11.09378199999991
 30
0.0
 11
-2.614061644075974
 21
-11.28923899999989
 31
0.0
  0
LINE
  5
B9CD
330
1F
100
AcDbEntity
  8
AM_0
100
AcDbLine
 10
-3.725276644076103
 20
-10.71847999999988
 30
0.0
 11
-4.295577644076075
 21
-10.9527129999999
 31
0.0
  0
LINE
  5
B9CE
330
1F
100
AcDbEntity
  8
AM_0
100
AcDbLine
 10
-4.080941644076034
 20
-10.48303699999985
 30
0.0
 11
-4.129874644076068
 21
-10.47433499999988
 31
0.0
  0
LINE
  5
B9CF
330
1F
100
AcDbEntity
  8
AM_0
100
AcDbLine
 10
-4.295577644076075
 20
-10.9527129999999
 30
0.0
 11
-4.452487644076001
 21
-10.92480999999986
 31
0.0
  0
LINE
  5
B9D0
330
1F
100
AcDbEntity
  8
AM_0
100
AcDbLine
 10
-4.080941644076034
 20
-10.48303699999985
 30
0.0
 11
-3.983604644075995
 21
-10.50034599999992
 31
0.0
  0
LINE
  5
B9D1
330
1F
100
AcDbEntity
  8
AM_0
100
AcDbLine
 10
-20.958756644076
 20
5.037787000000065
 30
0.0
 11
-20.49547164407607
 21
5.905142000000097
 31
0.0
  0
LINE
  5
B9D2
330
1F
100
AcDbEntity
  8
AM_0
100
AcDbLine
 10
-20.37665064407605
 20
4.930537000000043
 30
0.0
 11
-20.09048964407605
 21
5.857221000000066
 31
0.0
  0
LINE
  5
B9D3
330
1F
100
AcDbEntity
  8
AM_0
100
AcDbLine
 10
-20.05184064407609
 20
7.025720000000063
 30
0.0
 11
-19.73731064407599
 21
7.024347000000119
 31
0.0
  0
LINE
  5
B9D4
330
1F
100
AcDbEntity
  8
AM_0
100
AcDbLine
 10
-19.25469464407609
 20
10.1722710000001
 30
0.0
 11
-18.39528964407605
 21
11.6685360000001
 31
0.0
  0
LINE
  5
B9D5
330
1F
100
AcDbEntity
  8
AM_0
100
AcDbLine
 10
-20.52629964407612
 20
10.17782000000008
 30
0.0
 11
-18.82057864407608
 21
10.17037700000011
 31
0.0
  0
LINE
  5
B9D6
330
1F
100
AcDbEntity
  8
AM_0
100
AcDbLine
 10
-18.39528964407605
 20
11.6685360000001
 30
0.0
 11
-19.24160464407606
 21
13.17224300000006
 31
0.0
  0
LINE
  5
B9D7
330
1F
100
AcDbEntity
  8
AM_0
100
AcDbLine
 10
-18.80748864407604
 20
13.17034900000007
 30
0.0
 11
-20.51320964407608
 21
13.17779100000009
 31
0.0
  0
LINE
  5
B9D8
330
1F
100
AcDbEntity
  8
AM_0
100
AcDbLine
 10
-19.69673164407604
 20
16.32425900000006
 30
0.0
 11
-20.01126264407602
 21
16.32563100000001
 31
0.0
  0
LINE
  5
B9D9
330
1F
100
AcDbEntity
  8
AM_0
100
AcDbLine
 10
-21.37261464407612
 20
11.68152700000004
 30
0.0
 11
-20.52629964407612
 21
10.17782000000008
 31
0.0
  0
LINE
  5
B9DA
330
1F
100
AcDbEntity
  8
AM_0
100
AcDbLine
 10
-20.51320964407608
 20
13.17779100000009
 30
0.0
 11
-21.37261464407612
 21
11.68152700000004
 31
0.0
  0
LINE
  5
B9DB
330
1F
100
AcDbEntity
  8
AM_0
100
AcDbLine
 10
-24.40051464407608
 20
16.47350400000013
 30
0.0
 11
-24.31893264407617
 21
16.48029000000005
 31
0.0
  0
LINE
  5
B9DC
330
1F
100
AcDbEntity
  8
AM_0
100
AcDbLine
 10
-24.07680464407604
 20
15.21579100000005
 30
0.0
 11
-23.99522264407602
 21
15.22257600000008
 31
0.0
  0
LINE
  5
B9DD
330
1F
100
AcDbEntity
  8
AM_0
100
AcDbLine
 10
-24.48877564407604
 20
14.50139900000007
 30
0.0
 11
-24.426739644076
 21
14.47429000000008
 31
0.0
  0
LINE
  5
B9DE
330
1F
100
AcDbEntity
  8
AM_0
100
AcDbLine
 10
-24.62205364407608
 20
16.42324000000004
 30
0.0
 11
-24.29834364407605
 21
15.16552600000008
 31
0.0
  0
LINE
  5
B9DF
330
1F
100
AcDbEntity
  8
AM_0
100
AcDbLine
 10
-24.61184564407614
 20
15.70244000000011
 30
0.0
 11
-24.78615064407617
 21
16.37967100000011
 31
0.0
  0
LINE
  5
B9E0
330
1F
100
AcDbEntity
  8
AM_0
100
AcDbLine
 10
-24.07680464407604
 20
15.21579100000005
 30
0.0
 11
-24.40051464407608
 21
16.47350400000013
 31
0.0
  0
LINE
  5
B9E1
330
1F
100
AcDbEntity
  8
AM_0
100
AcDbLine
 10
-24.74131964407598
 20
15.64463300000008
 30
0.0
 11
-24.91562564407613
 21
16.32186300000009
 31
0.0
  0
LINE
  5
B9E2
330
1F
100
AcDbEntity
  8
AM_0
100
AcDbLine
 10
-23.99522264407602
 20
15.22257600000008
 30
0.0
 11
-24.31893264407617
 21
16.48029000000005
 31
0.0
  0
LINE
  5
B9E3
330
1F
100
AcDbEntity
  8
AM_0
100
AcDbLine
 10
-18.82057864407608
 20
10.17037700000011
 30
0.0
 11
-17.96117264407604
 21
11.6666420000001
 31
0.0
  0
LINE
  5
B9E4
330
1F
100
AcDbEntity
  8
AM_0
100
AcDbLine
 10
-18.39528964407605
 20
11.6685360000001
 30
0.0
 11
-17.96117264407604
 21
11.6666420000001
 31
0.0
  0
LINE
  5
B9E5
330
1F
100
AcDbEntity
  8
AM_0
100
AcDbLine
 10
-17.96117264407604
 20
11.6666420000001
 30
0.0
 11
-18.80748864407604
 21
13.17034900000007
 31
0.0
  0
LINE
  5
B9E6
330
1F
100
AcDbEntity
  8
AM_0
100
AcDbLine
 10
-7.155916644076057
 20
6.320079000000077
 30
0.0
 11
-8.149027644076056
 21
7.23154800000006
 31
0.0
  0
LINE
  5
B9E7
330
1F
100
AcDbEntity
  8
AM_0
100
AcDbLine
 10
-7.627676644076075
 20
5.459502000000099
 30
0.0
 11
-8.234492644076055
 21
4.407231000000109
 31
0.0
  0
LINE
  5
B9E8
330
1F
100
AcDbEntity
  8
AM_0
100
AcDbLine
 10
-9.506234644076073
 20
7.295569000000085
 30
0.0
 11
-10.17319964407607
 21
7.118485000000049
 31
0.0
  0
LINE
  5
B9E9
330
1F
100
AcDbEntity
  8
AM_0
100
AcDbLine
 10
-10.74601364407607
 20
6.125176000000095
 30
0.0
 11
-10.57170864407606
 21
5.447946000000086
 31
0.0
  0
LINE
  5
B9EA
330
1F
100
AcDbEntity
  8
AM_0
100
AcDbLine
 10
-10.78776964407603
 20
7.133321000000108
 30
0.0
 11
-9.549119644076029
 21
7.462193000000098
 31
0.0
  0
LINE
  5
B9EB
330
1F
100
AcDbEntity
  8
AM_0
100
AcDbLine
 10
-10.73580664407603
 20
5.404377000000096
 30
0.0
 11
-11.05951564407604
 21
6.662090000000119
 31
0.0
  0
LINE
  5
B9EC
330
1F
100
AcDbEntity
  8
AM_0
100
AcDbLine
 10
-9.424919644076055
 20
7.102673000000066
 30
0.0
 11
-9.362883644076021
 21
7.075564000000071
 31
0.0
  0
LINE
  5
B9ED
330
1F
100
AcDbEntity
  8
AM_0
100
AcDbLine
 10
-10.09188564407605
 20
6.92558800000009
 30
0.0
 11
-9.424919644076055
 21
7.102673000000066
 31
0.0
  0
LINE
  5
B9EE
330
1F
100
AcDbEntity
  8
AM_0
100
AcDbLine
 10
-10.35016964407606
 20
5.498211000000054
 30
0.0
 11
-10.52447464407606
 21
6.175441000000063
 31
0.0
  0
LINE
  5
B9EF
330
1F
100
AcDbEntity
  8
AM_0
100
AcDbLine
 10
-10.09188564407605
 20
6.92558800000009
 30
0.0
 11
-10.02984964407602
 21
6.898480000000091
 31
0.0
  0
LINE
  5
B9F0
330
1F
100
AcDbEntity
  8
AM_0
100
AcDbLine
 10
-10.52447464407606
 20
6.175441000000063
 30
0.0
 11
-10.44289364407603
 21
6.182226000000099
 31
0.0
  0
LINE
  5
B9F1
330
1F
100
AcDbEntity
  8
AM_0
100
AcDbLine
 10
-9.567029644076058
 20
7.654812000000077
 30
0.0
 11
-10.80567964407606
 21
7.325941000000085
 31
0.0
  0
LINE
  5
B9F2
330
1F
100
AcDbEntity
  8
AM_0
100
AcDbLine
 10
-9.567029644076058
 20
7.654812000000077
 30
0.0
 11
-9.518823644076121
 21
7.681440000000094
 31
0.0
  0
LINE
  5
B9F3
330
1F
100
AcDbEntity
  8
AM_0
100
AcDbLine
 10
-10.35016964407606
 20
5.498211000000054
 30
0.0
 11
-10.26858764407603
 21
5.50499600000009
 31
0.0
  0
LINE
  5
B9F4
330
1F
100
AcDbEntity
  8
AM_0
100
AcDbLine
 10
-10.80567964407606
 20
7.325941000000085
 30
0.0
 11
-10.75747364407612
 21
7.352569000000102
 31
0.0
  0
LINE
  5
B9F5
330
1F
100
AcDbEntity
  8
AM_0
100
AcDbLine
 10
-11.188989644076
 20
6.604283000000094
 30
0.0
 11
-10.86528064407599
 21
5.346569000000073
 31
0.0
  0
LINE
  5
B9F6
330
1F
100
AcDbEntity
  8
AM_0
100
AcDbLine
 10
-10.75747364407612
 20
7.352569000000102
 30
0.0
 11
-9.518823644076121
 21
7.681440000000094
 31
0.0
  0
LINE
  5
B9F7
330
1F
100
AcDbEntity
  8
AM_0
100
AcDbLine
 10
-10.02984964407602
 20
6.898480000000091
 30
0.0
 11
-9.362883644076021
 21
7.075564000000071
 31
0.0
  0
LINE
  5
B9F8
330
1F
100
AcDbEntity
  8
AM_0
100
AcDbLine
 10
-10.44289364407603
 20
6.182226000000099
 30
0.0
 11
-10.26858764407603
 21
5.50499600000009
 31
0.0
  0
LINE
  5
B9F9
330
1F
100
AcDbEntity
  8
AM_0
100
AcDbLine
 10
-8.234492644076055
 20
4.407231000000109
 30
0.0
 11
-9.24363164407606
 21
5.333411000000097
 31
0.0
  0
LINE
  5
B9FA
330
1F
100
AcDbEntity
  8
AM_0
100
AcDbLine
 10
-9.24363164407606
 20
5.333411000000097
 30
0.0
 11
-8.149027644076056
 21
7.23154800000006
 31
0.0
  0
LINE
  5
B9FB
330
1F
100
AcDbEntity
  8
AM_0
100
AcDbLine
 10
-12.33183264407608
 20
3.040844000000078
 30
0.0
 11
-11.4347176440761
 21
4.474687000000102
 31
0.0
  0
LINE
  5
B9FC
330
1F
100
AcDbEntity
  8
AM_0
100
AcDbLine
 10
-9.480207644076074
 20
13.25753100000005
 30
0.0
 11
-10.13287864407612
 21
13.14901100000005
 31
0.0
  0
LINE
  5
B9FD
330
1F
100
AcDbEntity
  8
AM_0
100
AcDbLine
 10
-10.05173664407613
 20
14.50746000000012
 30
0.0
 11
-10.46404764407606
 21
14.03656400000008
 31
0.0
  0
LINE
  5
B9FE
330
1F
100
AcDbEntity
  8
AM_0
100
AcDbLine
 10
-7.919917644076065
 20
10.45583200000007
 30
0.0
 11
-8.435894644076086
 21
9.544523000000111
 31
0.0
  0
LINE
  5
B9FF
330
1F
100
AcDbEntity
  8
AM_0
100
AcDbLine
 10
-5.345873644075993
 20
15.1104590000001
 30
0.0
 11
-5.361577644076135
 21
15.12532900000008
 31
0.0
  0
LINE
  5
BA00
330
1F
100
AcDbEntity
  8
AM_0
100
AcDbLine
 10
-26.02622464407611
 20
23.81493200000008
 30
0.0
 11
-24.17734664407609
 21
23.8068650000001
 31
0.0
  0
LINE
  5
BA01
330
1F
100
AcDbEntity
  8
AM_11
100
AcDbLine
 10
-25.00000000000031
 20
25.00000000000008
 30
0.0
 11
-47.00000000000028
 21
25.00000000000005
 31
0.0
1001
GENIUS_GENODEF_13
1002
{
1000
HIER
1070
     0
1002
}
1002
{
1000
MANEDIT
1070
     0
1002
}
1002
{
1000
NOSEL
1070
     0
1002
}
1002
{
1000
BEHIND
1070
     0
1002
}
1002
{
1000
REACTOR
1002
}
1001
GENIUS_GENOBJ-N-CEN_13
1002
{
1000
OWNER
1000
GEN
1002
}
  0
LINE
  5
BA02
330
1F
100
AcDbEntity
  8
AM_0
100
AcDbLine
 10
-34.61332964407606
 20
18.85235300000005
 30
0.0
 11
-38.90293264407612
 21
18.87107000000005
 31
0.0
  0
LINE
  5
BA03
330
1F
100
AcDbEntity
  8
AM_0
100
AcDbLine
 10
-34.93543464407602
 20
18.95376000000004
 30
0.0
 11
-41.54833064407611
 21
18.98261400000004
 31
0.0
  0
LINE
  5
BA04
330
1F
100
AcDbEntity
  8
AM_0
100
AcDbLine
 10
-43.46814564407608
 20
18.35405700000004
 30
0.0
 11
-42.35177164407613
 21
18.34918600000006
 31
0.0
  0
LINE
  5
BA05
330
1F
100
AcDbEntity
  8
AM_0
100
AcDbLine
 10
-42.63740564407609
 20
18.98736600000009
 30
0.0
 11
-41.54833064407611
 21
18.98261400000004
 31
0.0
  0
LINE
  5
BA06
330
1F
100
AcDbEntity
  8
AM_0
100
AcDbLine
 10
-43.09568264407616
 20
18.88936500000002
 30
0.0
 11
-42.00868064407607
 21
18.88462200000006
 31
0.0
  0
LINE
  5
BA07
330
1F
100
AcDbEntity
  8
AM_0
100
AcDbLine
 10
-42.00868064407607
 20
18.88462200000006
 30
0.0
 11
-38.90293264407612
 21
18.87107000000005
 31
0.0
  0
LINE
  5
BA08
330
1F
100
AcDbEntity
  8
AM_0
100
AcDbLine
 10
-33.52310164407603
 20
23.847644
 30
0.0
 11
-26.02622464407611
 21
23.81493200000008
 31
0.0
  0
LINE
  5
BA09
330
1F
100
AcDbEntity
  8
AM_0
100
AcDbLine
 10
-33.52310164407603
 20
23.847644
 30
0.0
 11
-33.78273764407603
 21
23.84877699999998
 31
0.0
  0
LINE
  5
BA0A
330
1F
100
AcDbEntity
  8
AM_0
100
AcDbLine
 10
-35.28078664407607
 20
23.45530899999999
 30
0.0
 11
-35.28281764407606
 21
22.98993799999999
 31
0.0
  0
LINE
  5
BA0B
330
1F
100
AcDbEntity
  8
AM_0
100
AcDbLine
 10
-35.28078664407607
 20
23.45530899999999
 30
0.0
 11
-34.20245464407603
 21
23.45060400000005
 31
0.0
  0
LINE
  5
BA0C
330
1F
100
AcDbEntity
  8
AM_0
100
AcDbLine
 10
-34.88512264407617
 20
23.85358700000011
 30
0.0
 11
-33.78273764407603
 21
23.84877699999998
 31
0.0
  0
LINE
  5
BA0D
330
1F
100
AcDbEntity
  8
AM_0
100
AcDbLine
 10
-35.65878964407611
 20
18.95691600000003
 30
0.0
 11
-35.75770564407602
 21
18.85734700000006
 31
0.0
  0
LINE
  5
BA0E
330
1F
100
AcDbEntity
  8
AM_0
100
AcDbLine
 10
-36.02450964407612
 20
18.95851199999998
 30
0.0
 11
-36.00151964407606
 21
18.8584100000001
 31
0.0
  0
LINE
  5
BA0F
330
1F
100
AcDbEntity
  8
AM_0
100
AcDbLine
 10
-34.24302064407615
 20
19.65074500000008
 30
0.0
 11
-34.93543464407602
 21
18.95376000000004
 31
0.0
  0
LINE
  5
BA10
330
1F
100
AcDbEntity
  8
AM_0
100
AcDbLine
 10
-34.63868564407616
 20
19.25246800000008
 30
0.0
 11
-34.21675764407607
 21
19.25062700000006
 31
0.0
  0
LINE
  5
BA11
330
1F
100
AcDbEntity
  8
AM_0
100
AcDbLine
 10
-34.23270664407604
 20
22.01470100000011
 30
0.0
 11
-34.24302064407615
 21
19.65074500000008
 31
0.0
  0
LINE
  5
BA12
330
1F
100
AcDbEntity
  8
AM_0
100
AcDbLine
 10
-25.96104364407605
 20
23.81143600000004
 30
0.0
 11
-26.02622464407611
 21
23.81493200000008
 31
0.0
  0
LINE
  5
BA13
330
1F
100
AcDbEntity
  8
AM_0
100
AcDbLine
 10
-28.49815964407602
 20
19.39197200000009
 30
0.0
 11
-26.54115064407605
 21
18.53040700000005
 31
0.0
  0
LINE
  5
BA14
330
1F
100
AcDbEntity
  8
AM_0
100
AcDbLine
 10
-25.72251064407609
 20
17.2594480000001
 30
0.0
 11
-25.64092864407607
 21
17.26623300000014
 31
0.0
  0
LINE
  5
BA15
330
1F
100
AcDbEntity
  8
AM_0
100
AcDbLine
 10
-19.81388064407608
 20
23.44500800000011
 30
0.0
 11
-19.83075864407609
 21
23.44767300000009
 31
0.0
  0
LINE
  5
BA16
330
1F
100
AcDbEntity
  8
AM_0
100
AcDbLine
 10
-24.7216976440761
 20
20.63889100000014
 30
0.0
 11
-24.57354764407611
 21
19.44545800000011
 31
0.0
  0
LINE
  5
BA17
330
1F
100
AcDbEntity
  8
AM_0
100
AcDbLine
 10
-13.45213164407604
 20
17.46801800000011
 30
0.0
 11
-13.57257864407606
 21
16.9216890000001
 31
0.0
  0
LINE
  5
BA18
330
1F
100
AcDbEntity
  8
AM_0
100
AcDbLine
 10
-18.09320864407604
 20
19.56864700000014
 30
0.0
 11
-18.07601264407603
 21
18.87644800000006
 31
0.0
  0
LINE
  5
BA19
330
1F
100
AcDbEntity
  8
AM_0
100
AcDbLine
 10
-18.88724964407614
 20
19.72348200000007
 30
0.0
 11
-18.64149364407612
 21
18.95321400000008
 31
0.0
  0
SPLINE
  5
BB41
330
1F
100
AcDbEntity
  8
AM_0
100
AcDbSpline
210
0.0
220
0.0
230
1.0
 70
     8
 71
     3
 72
    11
 73
     7
 74
     5
 42
0.0000000001
 43
0.0000000001
 44
0.0000000001
 40
0.0
 40
0.0
 40
0.0
 40
0.0
 40
0.5136454583776624
 40
1.027097869053666
 40
1.54034926844487
 40
2.053391998588248
 40
2.053391998588248
 40
2.053391998588248
 40
2.053391998588248
 10
0.0130513559240342
 20
-1.198375999999854
 30
0.0
 10
0.0141920191486744
 20
-1.027158202927801
 30
0.0
 10
0.0164729168928814
 20
-0.6847869590114031
 30
0.0
 10
0.0067131667344456
 20
-0.1713855882906474
 30
0.0
 10
-0.0118367773720838
 20
0.3415725805761611
 30
0.0
 10
-0.0329947891451733
 20
0.6830286688227218
 30
0.0
 10
-0.0435716440760246
 20
0.8537220000001468
 30
0.0
 11
0.0130513559240342
 21
-1.198375999999854
 31
0.0
 11
0.0142753559238997
 21
-0.6847319999998547
 31
0.0
 11
0.0052453559239609
 21
-0.1713589999998533
 31
0.0
 11
-0.0140386440760096
 21
0.3415300000001764
 31
0.0
 11
-0.0435716440760246
 21
0.8537220000001468
 31
0.0
  0
SPLINE
  5
BB42
330
1F
100
AcDbEntity
  8
AM_0
100
AcDbSpline
210
0.0
220
0.0
230
1.0
 70
     8
 71
     3
 72
    11
 73
     7
 74
     5
 42
0.0000000001
 43
0.0000000001
 44
0.0000000001
 40
0.0
 40
0.0
 40
0.0
 40
0.0
 40
0.0356101500278146
 40
0.0711368720268554
 40
0.106644821010124
 40
0.1421971124271813
 40
0.1421971124271813
 40
0.1421971124271813
 40
0.1421971124271813
 10
-0.0008376440760287
 20
-1.339729999999889
 30
0.0
 10
0.0011839235513316
 20
-1.328031303410834
 30
0.0
 10
0.0052223226450966
 20
-1.304661318126118
 30
0.0
 10
0.0093518812765781
 20
-1.269339585729607
 30
0.0
 10
0.01217594702676
 20
-1.233908834710892
 30
0.0
 10
0.0127594315911773
 20
-1.210225204525686
 30
0.0
 10
0.0130513559240342
 20
-1.198375999999854
 30
0.0
 11
-0.0008376440760287
 21
-1.339729999999889
 31
0.0
 11
0.0049053559239098
 21
-1.304585999999829
 31
0.0
 11
0.0091353559239167
 21
-1.269311999999871
 31
0.0
 11
0.0118503559239969
 21
-1.2339079999999
 31
0.0
 11
0.0130513559240342
 21
-1.198375999999854
 31
0.0
  0
SPLINE
  5
BB43
330
1F
100
AcDbEntity
  8
AM_0
100
AcDbSpline
210
0.0
220
0.0
230
1.0
 70
     8
 71
     3
 72
    11
 73
     7
 74
     5
 42
0.0000000001
 43
0.0000000001
 44
0.0000000001
 40
0.0
 40
0.0
 40
0.0
 40
0.0
 40
0.8128778023079442
 40
1.636405295960702
 40
2.46921574875291
 40
3.309351591342704
 40
3.309351591342704
 40
3.309351591342704
 40
3.309351591342704
 10
-0.4226856440760117
 20
4.140077000000161
 30
0.0
 10
-0.3803672583853298
 20
3.872427253665241
 30
0.0
 10
-0.2951760645009319
 20
3.333621222646228
 30
0.0
 10
-0.1924107660718875
 20
2.516879782975652
 30
0.0
 10
-0.1056469941090276
 20
1.689157112948923
 30
0.0
 10
-0.0643237419545773
 20
1.133012108326163
 30
0.0
 10
-0.0435716440760246
 20
0.8537220000001468
 30
0.0
 11
-0.4226856440760117
 21
4.140077000000161
 31
0.0
 11
-0.2999466440761012
 21
3.336519000000151
 31
0.0
 11
-0.1956076440761194
 21
2.519628000000153
 31
0.0
 11
-0.1100696440760771
 21
1.69122200000018
 31
0.0
 11
-0.0435716440760246
 21
0.8537220000001468
 31
0.0
  0
SPLINE
  5
BB44
330
1F
100
AcDbEntity
  8
AM_0
100
AcDbSpline
210
0.0
220
0.0
230
1.0
 70
     8
 71
     3
 72
    11
 73
     7
 74
     5
 42
0.0000000001
 43
0.0000000001
 44
0.0000000001
 40
0.0
 40
0.0
 40
0.0
 40
0.0
 40
0.0333893484961623
 40
0.066732648422889
 40
0.1000983312122619
 40
0.1335565120353761
 40
0.1335565120353761
 40
0.1335565120353761
 40
0.1335565120353761
 10
-0.763251644076064
 20
-1.99821299999985
 30
0.0
 10
-0.7743819127128489
 20
-1.998018978301366
 30
0.0
 10
-0.7966270997932807
 20
-1.997631202487386
 30
0.0
 10
-0.8299119458672892
 20
-1.995096641708812
 30
0.0
 10
-0.863094312314236
 20
-1.991254860910366
 30
0.0
 10
-0.8850384084344364
 20
-1.987406729173172
 30
0.0
 10
-0.8960256440759906
 20
-1.985479999999881
 30
0.0
 11
-0.763251644076064
 21
-1.99821299999985
 31
0.0
 11
-0.7966286440760371
 21
-1.997304999999869
 31
0.0
 11
-0.8298836440760908
 21
-1.994879999999852
 31
0.0
 11
-0.863015644076114
 21
-1.990937999999914
 31
0.0
 11
-0.8960256440759906
 21
-1.985479999999881
 31
0.0
  0
SPLINE
  5
BB45
330
1F
100
AcDbEntity
  8
AM_0
100
AcDbSpline
210
0.0
220
0.0
230
1.0
 70
     8
 71
     3
 72
    11
 73
     7
 74
     5
 42
0.0000000001
 43
0.0000000001
 44
0.0000000001
 40
0.0
 40
0.0
 40
0.0
 40
0.0
 40
0.3170316703563936
 40
0.602239091315254
 40
0.8251605849582354
 40
0.9631177983615295
 40
0.9631177983615295
 40
0.9631177983615295
 40
0.9631177983615295
 10
-1.742812644076053
 20
-6.328222999999866
 30
0.0
 10
-1.713874166347165
 20
-6.226584662886823
 30
0.0
 10
-1.658902110994142
 20
-6.033510640607151
 30
0.0
 10
-1.585141490074006
 20
-5.768534365667401
 30
0.0
 10
-1.527783171115136
 20
-5.560941333335842
 30
0.0
 10
-1.497929244580054
 20
-5.444409826355004
 30
0.0
 10
-1.486516644076033
 20
-5.39986199999987
 30
0.0
 11
-1.742812644076053
 21
-6.328222999999866
 31
0.0
 11
-1.656312644076052
 21
-6.023219999999923
 31
0.0
 11
-1.579671644076057
 21
-5.748502999999914
 31
0.0
 11
-1.521073644076096
 21
-5.533420999999862
 31
0.0
 11
-1.486516644076033
 21
-5.39986199999987
 31
0.0
  0
ELLIPSE
  5
BB46
330
1F
100
AcDbEntity
  8
AM_0
100
AcDbEllipse
 10
-23.53440264407601
 20
1.735926000000091
 30
0.0
 11
-22.57679905202598
 21
4.021968998752955
 31
0.0
210
0.0
220
0.0
230
0.9999999999999998
 40
0.03015369185318
 41
3.232683688762149
 42
3.35239839994193
  0
SPLINE
  5
BB47
330
1F
100
AcDbEntity
  8
AM_0
100
AcDbSpline
210
0.0
220
0.0
230
1.0
 70
     8
 71
     3
 72
    11
 73
     7
 74
     5
 42
0.0000000001
 43
0.0000000001
 44
0.0000000001
 40
0.0
 40
0.0
 40
0.0
 40
0.0
 40
0.2791931167418016
 40
0.554411905251966
 40
0.8233775288174312
 40
1.08784963363006
 40
1.08784963363006
 40
1.08784963363006
 40
1.08784963363006
 10
-0.0008376440760287
 20
-1.339729999999889
 30
0.0
 10
-0.0267953039615008
 20
-1.430109219510065
 30
0.0
 10
-0.0783411151223689
 20
-1.609581105739131
 30
0.0
 10
-0.260465051017723
 20
-1.823815079799045
 30
0.0
 10
-0.4955210774723477
 20
-1.970828621132951
 30
0.0
 10
-0.674510706783419
 20
-1.989136279778276
 30
0.0
 10
-0.763251644076064
 20
-1.99821299999985
 30
0.0
 11
-0.0008376440760287
 21
-1.339729999999889
 31
0.0
 11
-0.0967376440760575
 21
-1.601935999999881
 31
0.0
 11
-0.2715196440761076
 21
-1.814530999999846
 31
0.0
 11
-0.502911644076022
 21
-1.951644999999842
 31
0.0
 11
-0.763251644076064
 21
-1.99821299999985
 31
0.0
  0
ARC
  5
BB56
330
1F
100
AcDbEntity
  8
AM_0
100
AcDbCircle
 10
-23.84365164407611
 20
0.0000000000000853
 30
0.0
 40
23.0000002916052
100
AcDbArc
 50
346.4194719088973
 51
352.5052827078937
  0
LINE
  5
BB57
330
1F
100
AcDbEntity
  8
AM_0
100
AcDbLine
 10
-1.040142644076041
 20
-1.931793999999854
 30
0.0
 11
-1.040142644076041
 21
-2.207466999999894
 31
0.0
  0
LINE
  5
BB58
330
1F
100
AcDbEntity
  8
AM_0
100
AcDbLine
 10
-1.040142644076041
 20
-2.207466999999894
 30
0.0
 11
-1.040142644076041
 21
-2.999999999999886
 31
0.0
  0
LINE
  5
BB59
330
1F
100
AcDbEntity
  8
AM_0
100
AcDbLine
 10
-0.8960256440759906
 20
-1.985479999999881
 30
0.0
 11
-1.040214644076087
 21
-1.958240999999873
 31
0.0
  0
LINE
  5
BB5A
330
1F
100
AcDbEntity
  8
AM_0
100
AcDbLine
 10
-1.040142644076041
 20
-1.997004999999887
 30
0.0
 11
-0.7632546440760564
 21
-1.99821299999985
 31
0.0
  0
LINE
  5
BB5B
330
1F
100
AcDbEntity
  8
AM_0
100
AcDbLine
 10
-1.040142644076041
 20
-1.984850999999878
 30
0.0
 11
-0.8960256440759906
 21
-1.985479999999881
 31
0.0
  0
DIMENSION
  5
BD1D
330
1F
100
AcDbEntity
  8
AM_5
100
AcDbDimension
  2
*D5
 10
-47.00000000000023
 20
37.88781371033195
 30
0.0
 11
-23.50000000000019
 21
40.98781371033191
 31
0.0
 70
    32
  1
<>
 51
359.9999999999998
  3
AM_JIS$0
100
AcDbAlignedDimension
 13
-0.0000000000002274
 23
0.0000000000001137
 33
0.0
 14
-47.00000000000025
 24
25.00000000000005
 34
0.0
 50
180.0
100
AcDbRotatedDimension
1001
GENIUS_GENDTOL_13
1000

1000
h7
1000

1040
0.0
1001
ACAD
1000
DSTYLE
1002
{
1070
   287
1070
     3
1070
   147
1040
3.0
1070
    44
1040
2.0
1070
    41
1040
5.0
1070
    40
1040
0.5
1070
    42
1040
2.0
1070
    43
1040
12.0
1070
    48
1040
0.1
1070
    78
1070
     8
1070
   140
1040
6.4
1070
   176
1070
   256
1070
   177
1070
   256
1070
   271
1070
     1
1070
   272
1070
     3
1070
   275
1070
     0
1070
   284
1070
     0
1070
   289
1070
     3
1070
   340
1005
6B
1070
   371
1070
    -1
1070
   372
1070
    -1
1002
}
  0
DIMENSION
  5
BDB2
330
1F
100
AcDbEntity
  8
AM_5
100
AcDbDimension
  2
*D6
 10
-250.0000000000001
 20
-44.32420278639277
 30
0.0
 11
-125.0000000000002
 21
-41.22420278639277
 31
0.0
 70
    32
  1
<>
 51
359.9999999999998
  3
AM_JIS$0
100
AcDbAlignedDimension
 13
-0.0000000000002558
 23
0.0000000000001421
 33
0.0
 14
-250.0000000000001
 24
-25.40000000000037
 34
0.0
100
AcDbRotatedDimension
1001
GENIUS_GENDTOL_13
1000

1000
h7
1000

1040
0.0
1001
ACAD
1000
DSTYLE
1002
{
1070
   287
1070
     3
1070
   147
1040
3.0
1070
    44
1040
2.0
1070
    41
1040
5.0
1070
    40
1040
0.5
1070
    42
1040
2.0
1070
    43
1040
12.0
1070
    48
1040
0.1
1070
    78
1070
     8
1070
   140
1040
6.4
1070
   176
1070
   256
1070
   177
1070
   256
1070
   271
1070
     0
1070
   272
1070
     3
1070
   275
1070
     0
1070
   284
1070
     0
1070
   289
1070
     3
1070
   340
1005
6B
1070
   371
1070
    -1
1070
   372
1070
    -1
1002
}
  0
DIMENSION
  5
BE3E
330
1F
100
AcDbEntity
  8
AM_5
100
AcDbDimension
  2
*D7
 10
-350.0000000000002
 20
-55.5537586217718
 30
0.0
 11
-175.0000000000002
 21
-52.4537586217718
 31
0.0
 70
    32
  1
<>
 51
359.9999999999998
  3
AM_JIS$0
100
AcDbAlignedDimension
 13
-0.0000000000002558
 23
-0.0000000001513456
 33
0.0
 14
-350.0000000000002
 24
-23.06149800000059
 34
0.0
100
AcDbRotatedDimension
1001
GENIUS_GENDTOL_13
1000

1000
h7
1000

1040
0.0
1001
ACAD
1000
DSTYLE
1002
{
1070
   287
1070
     3
1070
   147
1040
3.0
1070
    44
1040
2.0
1070
    41
1040
5.0
1070
    40
1040
0.5
1070
    42
1040
2.0
1070
    43
1040
12.0
1070
    48
1040
0.1
1070
    78
1070
     8
1070
   140
1040
6.4
1070
   176
1070
   256
1070
   177
1070
   256
1070
   271
1070
     0
1070
   272
1070
     3
1070
   275
1070
     0
1070
   284
1070
     0
1070
   289
1070
     3
1070
   340
1005
6B
1070
   371
1070
    -1
1070
   372
1070
    -1
1002
}
  0
DIMENSION
  5
BECA
330
1F
100
AcDbEntity
  8
AM_5
100
AcDbDimension
  2
*D8
 10
-350.0000000000002
 20
-44.32420278639325
 30
0.0
 11
-300.0000000000002
 21
-41.22420278639324
 31
0.0
 70
    32
  1
<>
 51
359.9999999999998
  3
AM_JIS$0
100
AcDbAlignedDimension
 13
-250.0000000000001
 23
-25.40000000000037
 33
0.0
 14
-350.0000000000002
 24
-23.06149800000059
 34
0.0
100
AcDbRotatedDimension
1001
GENIUS_GENDTOL_13
1000

1000
h7
1000

1040
0.0
1001
ACAD
1000
DSTYLE
1002
{
1070
   287
1070
     3
1070
   147
1040
3.0
1070
    44
1040
2.0
1070
    41
1040
5.0
1070
    40
1040
0.5
1070
    42
1040
2.0
1070
    43
1040
12.0
1070
    48
1040
0.1
1070
    78
1070
     8
1070
   140
1040
6.4
1070
   176
1070
   256
1070
   177
1070
   256
1070
   271
1070
     1
1070
   272
1070
     3
1070
   275
1070
     0
1070
   284
1070
     0
1070
   289
1070
     3
1070
   340
1005
6B
1070
   371
1070
    -1
1070
   372
1070
    -1
1002
}
  0
DIMENSION
  5
BF8C
330
1F
100
AcDbEntity
  8
AM_5
100
AcDbDimension
  2
*D9
 10
21.37714338794458
 20
-24.99999999999996
 30
0.0
 11
18.27714338794459
 21
0.000000000000031
 31
0.0
 70
    32
  1
%%c<>
 51
359.9999999999998
  3
AM_JIS$0
100
AcDbAlignedDimension
 13
-25.00000000000025
 23
25.00000000000003
 33
0.0
 14
-25.00000000000019
 24
-24.99999999999994
 34
0.0
 50
90.0
100
AcDbRotatedDimension
1001
GENIUS_GENDTOL_13
1000

1000
h7
1000

1040
0.0
1001
ACAD
1000
DSTYLE
1002
{
1070
   287
1070
     3
1070
   147
1040
3.0
1070
    44
1040
2.0
1070
    41
1040
5.0
1070
    40
1040
0.5
1070
    42
1040
2.0
1070
    43
1040
12.0
1070
    48
1040
0.1
1070
    78
1070
     8
1070
   140
1040
6.4
1070
   176
1070
   256
1070
   177
1070
   256
1070
   271
1070
     1
1070
   272
1070
     3
1070
   275
1070
     0
1070
   284
1070
     0
1070
   289
1070
     3
1070
   340
1005
6B
1070
   371
1070
    -1
1070
   372
1070
    -1
1002
}
  0
DIMENSION
  5
C02A
330
1F
100
AcDbEntity
  8
AM_5
100
AcDbDimension
  2
*D10
 10
-369.7129864273132
 20
-25.40000000000054
 30
0.0
 11
-372.8129864273132
 21
-0.00000000000062
 31
0.0
 70
    32
  1
%%c50.8
 51
359.9999999999998
  3
AM_JIS$0
100
AcDbAlignedDimension
 13
-347.0000000000002
 23
25.39999999999941
 33
0.0
 14
-347.0000000000002
 24
-25.40000000000054
 34
0.0
 50
270.0
100
AcDbRotatedDimension
1001
GENIUS_GENDTOL_13
1000

1000
h7
1000

1040
0.0
1001
ACAD
1000
DSTYLE
1002
{
1070
   287
1070
     3
1070
   147
1040
3.0
1070
    44
1040
2.0
1070
    41
1040
5.0
1070
    40
1040
0.5
1070
    42
1040
2.0
1070
    43
1040
12.0
1070
    48
1040
0.1
1070
    78
1070
     8
1070
   140
1040
6.4
1070
   176
1070
   256
1070
   177
1070
   256
1070
   271
1070
     1
1070
   272
1070
     3
1070
   275
1070
     0
1070
   284
1070
     0
1070
   289
1070
     3
1070
   340
1005
6B
1070
   371
1070
    -1
1070
   372
1070
    -1
1002
}
  0
VIEWPORT
  5
110
330
101
100
AcDbEntity
 67
     1
  8
0
100
AcDbViewport
 10
420.5
 20
297.0
 30
0.0
 40
948.9782706766916
 41
628.452
 68
     1
 69
     1
1001
ACAD
1000
MVIEW
1002
{
1070
    16
1010
0.0
1020
0.0
1030
0.0
1010
0.0
1020
0.0
1030
1.0
1040
0.0
1040
628.452
1040
420.5
1040
297.0
1040
50.0
1040
0.0
1040
0.0
1070
     0
1070
   100
1070
     1
1070
     1
1070
     0
1070
     0
1070
     0
1070
     0
1040
0.0
1040
0.0
1040
0.0
1040
10.0
1040
10.0
1040
10.0
1040
10.0
1070
     0
1002
{
1002
}
1002
}
  0
ENDSEC
  0
SECTION
  2
OBJECTS
  0
DICTIONARY
  5
C
330
0
100
AcDbDictionary
  3
ACAD_GROUP
350
D
  3
ACAD_LAYOUT
350
1A
  3
ACAD_MLINESTYLE
350
17
  3
ACAD_PLOTSETTINGS
350
19
  3
ACAD_PLOTSTYLENAME
350
E
  3
ACDBVARIABLEDICTIONARY
350
34
  3
ACMDICTIONARY
350
43
  3
AMG
350
2B
  3
AMGSNAPSETTINGS
350
6E
  3
DWGPROPS
350
C3E4
  3
ACDBHEADERROUNDTRIPXREC
350
C3F1
  0
DICTIONARY
  5
74
330
1F
100
AcDbDictionary
280
     1
  3
ACAD_INDEX
360
C3E6
  3
ACAD_LAYOUTSELFREF
360
C414
  0
DICTIONARY
  5
C419
330
101
100
AcDbDictionary
280
     1
  3
ACAD_LAYOUTSELFREF
360
C41A
  0
DICTIONARY
  5
D
102
{ACAD_REACTORS
330
C
102
}
330
C
100
AcDbDictionary
  0
DICTIONARY
  5
1A
102
{ACAD_REACTORS
330
C
102
}
330
C
100
AcDbDictionary
  0
DICTIONARY
  5
17
102
{ACAD_REACTORS
330
C
102
}
330
C
100
AcDbDictionary
  3
STANDARD
350
18
  0
DICTIONARY
  5
19
102
{ACAD_REACTORS
330
C
102
}
330
C
100
AcDbDictionary
  3
ASAMI
350
399D
  0
ACDBDICTIONARYWDFLT
  5
E
102
{ACAD_REACTORS
330
C
102
}
330
C
100
AcDbDictionary
281
     1
  3
Normal
350
F
100
AcDbDictionaryWithDefault
340
F
  0
DICTIONARY
  5
34
102
{ACAD_REACTORS
330
C
102
}
330
C
100
AcDbDictionary
  3
INDEXCTL
350
35
  3
SORTENTS
350
B5E
  0
DICTIONARY
  5
43
102
{ACAD_REACTORS
330
C
102
}
330
C
100
AcDbDictionary
  3
ACMSTDDICTIONARY
350
260
  0
DICTIONARY
  5
2B
102
{ACAD_REACTORS
330
C
102
}
330
C
100
AcDbDictionary
  3
ACMGSETTINGS
350
2C
  0
DICTIONARY
  5
6E
102
{ACAD_REACTORS
330
C
102
}
330
C
100
AcDbDictionary
  0
XRECORD
  5
C3E4
102
{ACAD_REACTORS
330
C
102
}
330
C
100
AcDbXrecord
  1
DWGPROPS COOKIE
  2

  3

  4

  6

  7

  8

  9

300
AmdtFileType=82
301
=
302
=
303
=
304
=
305
=
306
=
307
=
308
=
309
=
 40
0.9843107754629629
 41
2452802.716478761
 42
2453075.661961435
  1

 90
        1
  0
DICTIONARY
  5
C3F1
102
{ACAD_REACTORS
330
C
102
}
330
C
100
AcDbDictionary
  3
TSTACKALIGN
350
C3F2
  3
TSTACKSIZE
350
C3F3
  3
HYPERLINKBASE
350
C3F4
  3
STYLESHEET
350
C3F5
  3
LAYOUTDICT
350
C3F6
  3
PLOTSETDICT
350
C3F7
  3
PLOTSTYLNAMDICT
350
C3F8
  3
LWETCUNION
350
C3F9
  3
INSUNITS
350
C3FA
  3
CEPSNTYPE
350
C3FB
  3
FINGERPRINTGUID
350
C3FC
  3
VERSIONGUID
350
C3FD
  3
PSVPSCALE
350
C3FE
  3
DIMSTYLEDATA
350
C3FF
  3
PUCSORTHOREF
350
C400
  3
PUCSORTHOVIEW
350
C401
  3
PUCSBASE
350
C402
  3
PUCSORGTOP
350
C403
  3
PUCSORGBOTTOM
350
C404
  3
PUCSORGLEFT
350
C405
  3
PUCSORGRIGHT
350
C406
  3
PUCSORGFRONT
350
C407
  3
PUCSORGBACK
350
C408
  3
UCSORTHOREF
350
C409
  3
UCSORTHOVIEW
350
C40A
  3
UCSBASE
350
C40B
  3
UCSORGTOP
350
C40C
  3
UCSORGBOTTOM
350
C40D
  3
UCSORGLEFT
350
C40E
  3
UCSORGRIGHT
350
C40F
  3
UCSORGFRONT
350
C410
  3
UCSORGBACK
350
C411
  0
DICTIONARY
  5
C3E6
102
{ACAD_REACTORS
330
74
102
}
330
74
100
AcDbDictionary
  3
*A1
350
C3E7
  0
XRECORD
  5
C414
102
{ACAD_REACTORS
330
74
102
}
330
74
100
AcDbXrecord
340
1F
  0
XRECORD
  5
C41A
102
{ACAD_REACTORS
330
C419
102
}
330
C419
100
AcDbXrecord
340
101
  0
MLINESTYLE
  5
18
102
{ACAD_REACTORS
330
17
102
}
330
17
100
AcDbMlineStyle
  2
STANDARD
 70
     0
  3

 62
   256
 51
90.0
 52
90.0
 71
     2
 49
0.5
 62
   256
  6
BYLAYER
 49
-0.5
 62
   256
  6
BYLAYER
  0
PLOTSETTINGS
  5
399D
102
{ACAD_REACTORS
330
19
102
}
330
19
100
AcDbPlotSettings
  1
asami
  2
RICOH imagio MF1540
  4
A4
  6

 40
5.831416606903076
 41
7.651742935180664
 42
4.90008544921875
 43
5.789077758789062
 44
296.9683227539062
 45
209.9733276367187
 46
0.0
 47
0.0
 48
-156.6707931774246
 49
-74.57609991074048
140
58.59973180214831
141
60.61068161925596
142
1.0
143
1.095343097833084
 70
  1712
 72
     1
 73
     1
 74
     4
  7
asami.ctb
 75
     0
147
0.9129559514076438
148
156.6707931774246
149
74.57609991074048
  0
ACDBPLACEHOLDER
  5
F
102
{ACAD_REACTORS
330
E
102
}
330
E
100
AcDbPlaceHolder
280
     0
  0
DICTIONARYVAR
  5
35
102
{ACAD_REACTORS
330
34
102
}
330
34
100
DictionaryVariables
280
     0
  1
1
  0
DICTIONARYVAR
  5
B5E
102
{ACAD_REACTORS
330
34
102
}
330
34
100
DictionaryVariables
280
     0
  1
96
  0
DICTIONARY
  5
260
102
{ACAD_REACTORS
330
43
102
}
330
43
100
AcDbDictionary
  0
DICTIONARY
  5
2C
102
{ACAD_REACTORS
330
2B
102
}
330
2B
100
AcDbDictionary
  3
DWGSETTINGS
350
2D
  0
XRECORD
  5
C3F2
102
{ACAD_REACTORS
330
C3F1
102
}
330
C3F1
100
AcDbXrecord
 90
        1
  0
XRECORD
  5
C3F3
102
{ACAD_REACTORS
330
C3F1
102
}
330
C3F1
100
AcDbXrecord
 90
       70
  0
XRECORD
  5
C3F4
102
{ACAD_REACTORS
330
C3F1
102
}
330
C3F1
100
AcDbXrecord
  1

  0
XRECORD
  5
C3F5
102
{ACAD_REACTORS
330
C3F1
102
}
330
C3F1
100
AcDbXrecord
  1
ASAMI.ctb
  0
XRECORD
  5
C3F6
102
{ACAD_REACTORS
330
C3F1
102
}
330
C3F1
100
AcDbXrecord
340
1A
  0
XRECORD
  5
C3F7
102
{ACAD_REACTORS
330
C3F1
102
}
330
C3F1
100
AcDbXrecord
340
19
  0
XRECORD
  5
C3F8
102
{ACAD_REACTORS
330
C3F1
102
}
330
C3F1
100
AcDbXrecord
340
E
  0
XRECORD
  5
C3F9
102
{ACAD_REACTORS
330
C3F1
102
}
330
C3F1
100
AcDbXrecord
 90
    10781
  0
XRECORD
  5
C3FA
102
{ACAD_REACTORS
330
C3F1
102
}
330
C3F1
100
AcDbXrecord
 90
        4
  0
XRECORD
  5
C3FB
102
{ACAD_REACTORS
330
C3F1
102
}
330
C3F1
100
AcDbXrecord
 90
        0
  0
XRECORD
  5
C3FC
102
{ACAD_REACTORS
330
C3F1
102
}
330
C3F1
100
AcDbXrecord
  1
{AFB28963-8C59-40AE-9337-C84526B81ACE}
  0
XRECORD
  5
C3FD
102
{ACAD_REACTORS
330
C3F1
102
}
330
C3F1
100
AcDbXrecord
  1
{5C2D0216-5EAE-4F47-92C9-1EB16DD4833F}
  0
XRECORD
  5
C3FE
102
{ACAD_REACTORS
330
C3F1
102
}
330
C3F1
100
AcDbXrecord
 40
0.0
  0
XRECORD
  5
C3FF
102
{ACAD_REACTORS
330
C3F1
102
}
330
C3F1
100
AcDbXrecord
1000
DSTYLE
1002
{
1070
    79
 70
     2
1070
   341
340
59
1070
   342
340
59
1070
   371
 70
    -1
1070
   372
 70
    -1
1002
}
  0
XRECORD
  5
C400
102
{ACAD_REACTORS
330
C3F1
102
}
330
C3F1
100
AcDbXrecord
340
0
  0
XRECORD
  5
C401
102
{ACAD_REACTORS
330
C3F1
102
}
330
C3F1
100
AcDbXrecord
 70
     0
  0
XRECORD
  5
C402
102
{ACAD_REACTORS
330
C3F1
102
}
330
C3F1
100
AcDbXrecord
340
0
  0
XRECORD
  5
C403
102
{ACAD_REACTORS
330
C3F1
102
}
330
C3F1
100
AcDbXrecord
 10
0.0
 20
0.0
 30
0.0
  0
XRECORD
  5
C404
102
{ACAD_REACTORS
330
C3F1
102
}
330
C3F1
100
AcDbXrecord
 10
0.0
 20
0.0
 30
0.0
  0
XRECORD
  5
C405
102
{ACAD_REACTORS
330
C3F1
102
}
330
C3F1
100
AcDbXrecord
 10
0.0
 20
0.0
 30
0.0
  0
XRECORD
  5
C406
102
{ACAD_REACTORS
330
C3F1
102
}
330
C3F1
100
AcDbXrecord
 10
0.0
 20
0.0
 30
0.0
  0
XRECORD
  5
C407
102
{ACAD_REACTORS
330
C3F1
102
}
330
C3F1
100
AcDbXrecord
 10
0.0
 20
0.0
 30
0.0
  0
XRECORD
  5
C408
102
{ACAD_REACTORS
330
C3F1
102
}
330
C3F1
100
AcDbXrecord
 10
0.0
 20
0.0
 30
0.0
  0
XRECORD
  5
C409
102
{ACAD_REACTORS
330
C3F1
102
}
330
C3F1
100
AcDbXrecord
340
0
  0
XRECORD
  5
C40A
102
{ACAD_REACTORS
330
C3F1
102
}
330
C3F1
100
AcDbXrecord
 70
     0
  0
XRECORD
  5
C40B
102
{ACAD_REACTORS
330
C3F1
102
}
330
C3F1
100
AcDbXrecord
340
0
  0
XRECORD
  5
C40C
102
{ACAD_REACTORS
330
C3F1
102
}
330
C3F1
100
AcDbXrecord
 10
0.0
 20
0.0
 30
0.0
  0
XRECORD
  5
C40D
102
{ACAD_REACTORS
330
C3F1
102
}
330
C3F1
100
AcDbXrecord
 10
0.0
 20
0.0
 30
0.0
  0
XRECORD
  5
C40E
102
{ACAD_REACTORS
330
C3F1
102
}
330
C3F1
100
AcDbXrecord
 10
0.0
 20
0.0
 30
0.0
  0
XRECORD
  5
C40F
102
{ACAD_REACTORS
330
C3F1
102
}
330
C3F1
100
AcDbXrecord
 10
0.0
 20
0.0
 30
0.0
  0
XRECORD
  5
C410
102
{ACAD_REACTORS
330
C3F1
102
}
330
C3F1
100
AcDbXrecord
 10
0.0
 20
0.0
 30
0.0
  0
XRECORD
  5
C411
102
{ACAD_REACTORS
330
C3F1
102
}
330
C3F1
100
AcDbXrecord
 10
0.0
 20
0.0
 30
0.0
  0
LAYER_INDEX
  5
C3E7
102
{ACAD_REACTORS
330
C3E6
102
}
330
C3E6
100
AcDbIndex
 40
2453152.416725393
100
AcDbLayerIndex
  8
0
360
C3E8
 90
        0
  8
AM_0
360
C3E9
 90
      479
  8
AM_5
360
C3EA
 90
        6
  8
AM_7
360
C3EB
 90
        1
  8
AM_6
360
C3EC
 90
        1
  8
Defpoints
360
C3ED
 90
        0
  8
AM_11
360
C3EE
 90
        4
  8
AM_4
360
C3EF
 90
        2
  0
XRECORD
  5
2D
102
{ACAD_REACTORS
330
2C
102
}
330
2C
100
AcDbXrecord
  1
VERSION
140
15.0
  1
PRODUCT
  2
AutoCAD Mechanical 2000
  0
IDBUFFER
  5
C3E8
330
0
100
AcDbIdBuffer
  0
IDBUFFER
  5
C3E9
330
0
100
AcDbIdBuffer
330
B930
330
B931
330
B932
330
B933
330
B934
330
B935
330
B936
330
B937
330
B938
330
B939
330
B93A
330
B93B
330
B93C
330
B93D
330
B93E
330
B93F
330
B940
330
B941
330
B942
330
B943
330
B944
330
B945
330
B946
330
B947
330
B948
330
B949
330
B94A
330
B94B
330
B94C
330
B94D
330
B94E
330
B94F
330
B950
330
B951
330
B952
330
B953
330
B954
330
B955
330
B956
330
B957
330
B958
330
B959
330
B95A
330
B95B
330
B95C
330
B95D
330
B95E
330
B95F
330
B960
330
B961
330
B962
330
B963
330
B964
330
B965
330
B966
330
B967
330
B968
330
B969
330
B96A
330
B96B
330
B96C
330
B96D
330
B96E
330
B96F
330
B970
330
B971
330
B972
330
B973
330
B974
330
B975
330
B976
330
B977
330
B978
330
B979
330
B97A
330
B97B
330
B97C
330
B97D
330
B97E
330
B97F
330
B980
330
B981
330
B982
330
B983
330
B984
330
B985
330
B988
330
B989
330
B98A
330
B98B
330
B98C
330
B98D
330
B98E
330
B98F
330
B990
330
B991
330
B992
330
B993
330
B994
330
B995
330
B996
330
B998
330
B99B
330
B99C
330
B99D
330
B99E
330
B99F
330
B9A0
330
B9A1
330
B9A4
330
B9A5
330
B9A6
330
B9A7
330
B9A8
330
B9A9
330
B9AA
330
B9AB
330
B9AC
330
B9AD
330
B9AE
330
B9AF
330
B9B0
330
B9B1
330
B9B2
330
B9B3
330
B9B4
330
B9B5
330
B9B6
330
B9B7
330
B9B8
330
B9B9
330
B9BA
330
B9BB
330
B9BC
330
B9BD
330
B9BE
330
B9BF
330
B9C0
330
B9C1
330
B9C2
330
B9C3
330
B9C4
330
B9C5
330
B9C6
330
B9C7
330
B9C8
330
B9C9
330
B9CA
330
B9CB
330
B9CC
330
B9CD
330
B9CE
330
B9CF
330
B9D0
330
B9D1
330
B9D2
330
B9D3
330
B9D4
330
B9D5
330
B9D6
330
B9D7
330
B9D8
330
B9D9
330
B9DA
330
B9DB
330
B9DC
330
B9DD
330
B9DE
330
B9DF
330
B9E0
330
B9E1
330
B9E2
330
B9E3
330
B9E4
330
B9E5
330
B9E6
330
B9E7
330
B9E8
330
B9E9
330
B9EA
330
B9EB
330
B9EC
330
B9ED
330
B9EE
330
B9EF
330
B9F0
330
B9F1
330
B9F2
330
B9F3
330
B9F4
330
B9F5
330
B9F6
330
B9F7
330
B9F8
330
B9F9
330
B9FA
330
B9FB
330
B9FC
330
B9FD
330
B9FE
330
B9FF
330
BA00
330
BA02
330
BA03
330
BA04
330
BA05
330
BA06
330
BA07
330
BA08
330
BA09
330
BA0A
330
BA0B
330
BA0C
330
BA0D
330
BA0E
330
BA0F
330
BA10
330
BA11
330
BA12
330
BA13
330
BA14
330
BA15
330
BA16
330
BA17
330
BA18
330
BA19
330
BB41
330
BB42
330
BB43
330
BB44
330
BB45
330
BB46
330
BB47
330
BB56
330
BB57
330
BB58
330
BB59
330
BB5A
330
BB5B
330
B839
330
B83A
330
B83B
330
B83C
330
B83D
330
B83E
330
B83F
330
B840
330
B841
330
B844
330
B845
330
B846
330
B847
330
B848
330
B849
330
B84A
330
B84B
330
B84C
330
B84D
330
B84E
330
B84F
330
B850
330
B851
330
B852
330
B853
330
B854
330
B855
330
B856
330
B857
330
B858
330
B859
330
B85A
330
B85B
330
B85C
330
B85D
330
B85E
330
B85F
330
B860
330
B861
330
B862
330
B863
330
B864
330
B865
330
B866
330
B867
330
B868
330
B869
330
B86A
330
B86B
330
B86C
330
B86D
330
B86E
330
B86F
330
B870
330
B871
330
B872
330
B873
330
B874
330
B875
330
B876
330
B877
330
B878
330
B879
330
B87A
330
B87B
330
B87C
330
B87D
330
B87E
330
B87F
330
B882
330
B883
330
B884
330
B885
330
B886
330
B887
330
B888
330
B889
330
B88A
330
B88B
330
B88C
330
B88E
330
B890
330
B891
330
B892
330
B893
330
B894
330
B895
330
B896
330
B897
330
B898
330
B89A
330
B89B
330
B89C
330
B89D
330
B89E
330
B89F
330
B8A0
330
B8A1
330
B8A2
330
B8A3
330
B8A4
330
B8A5
330
B8A6
330
B8A7
330
B8A8
330
B8A9
330
B8AA
330
B8AB
330
B8AC
330
B8AD
330
B8AE
330
B8AF
330
B8B0
330
B8B1
330
B8B2
330
B8B3
330
B8B4
330
B8B5
330
B8B6
330
B8B7
330
B8B8
330
B8B9
330
B8BA
330
B8BB
330
B8BC
330
B8BD
330
B8BE
330
B8BF
330
B8C0
330
B8C1
330
B8C2
330
B8C3
330
B8C4
330
B8C5
330
B8C6
330
B8C7
330
B8C8
330
B8C9
330
B8CA
330
B8CB
330
B8CC
330
B8CD
330
B8CE
330
B8CF
330
B8D0
330
B8D1
330
B8D2
330
B8D3
330
B8D4
330
B8D5
330
B8D6
330
B8D7
330
B8D8
330
B8D9
330
B8DA
330
B8DB
330
B8DC
330
B8DD
330
B8DE
330
B8DF
330
B8E0
330
B8E1
330
B8E2
330
B8E3
330
B8E4
330
B8E5
330
B8E6
330
B8E7
330
B8E8
330
B8E9
330
B8EA
330
B8EB
330
B8EC
330
B8ED
330
B8EE
330
B8EF
330
B8F0
330
B8F1
330
B8F2
330
B8F3
330
B8F4
330
B8F5
330
B8F6
330
B8F7
330
B8F8
330
B8F9
330
B8FA
330
B8FB
330
B8FC
330
B8FD
330
B8FE
330
B8FF
330
B900
330
B901
330
B902
330
B903
330
B904
330
B905
330
B906
330
B907
330
B908
330
B909
330
B90A
330
B90B
330
B90C
330
B90D
330
B90E
330
B90F
330
B910
330
B911
330
B912
330
B913
330
B914
330
B915
330
B916
330
B917
330
B918
330
B919
330
B91A
330
B91B
330
B91C
330
B91D
330
B91E
330
B91F
330
B920
330
B921
330
B922
330
B923
330
B924
330
B925
330
B926
330
B927
330
B928
330
B929
330
B92A
330
B92B
330
B92C
330
B92D
330
B92E
330
B92F
  0
IDBUFFER
  5
C3EA
330
0
100
AcDbIdBuffer
330
BD1D
330
BDB2
330
BE3E
330
BECA
330
BF8C
330
C02A
  0
IDBUFFER
  5
C3EB
330
0
100
AcDbIdBuffer
330
B987
  0
IDBUFFER
  5
C3EC
330
0
100
AcDbIdBuffer
330
388D
  0
IDBUFFER
  5
C3ED
330
0
100
AcDbIdBuffer
  0
IDBUFFER
  5
C3EE
330
0
100
AcDbIdBuffer
330
B837
330
B842
330
B899
330
BA01
  0
IDBUFFER
  5
C3EF
330
0
100
AcDbIdBuffer
330
B999
330
B99A
  0
ENDSEC
  0
EOF
