  0
SECTION
  2
HEADER
  9
$ACADVER
  1
AC1014
  9
$ACADMAINTVER
 70
     9
  9
$DWGCODEPAGE
  3
ANSI_932
  9
$INSBASE
 10
0.0
 20
0.0
 30
0.0
  9
$EXTMIN
 10
-374.6231016608279
 20
-71.50000101000029
 30
-0.00000001
  9
$EXTMAX
 10
22.28988236108548
 20
43.70000101
 30
0.00000001
  9
$LIMMIN
 10
-385.4589786696612
 20
-159.2617141114443
  9
$LIMMAX
 10
109.4552508277804
 20
119.6067138043948
  9
$ORTHOMODE
 70
     0
  9
$REGENMODE
 70
     1
  9
$FILLMODE
 70
     1
  9
$QTEXTMODE
 70
     0
  9
$MIRRTEXT
 70
     0
  9
$DRAGMODE
 70
     2
  9
$LTSCALE
 40
1.0
  9
$OSMODE
 70
    55
  9
$ATTMODE
 70
     1
  9
$TEXTSIZE
 40
2.5
  9
$TRACEWID
 40
1.0
  9
$TEXTSTYLE
  7
STANDARD
  9
$CLAYER
  8
AM_0
  9
$CELTYPE
  6
BYLAYER
  9
$CECOLOR
 62
   256
  9
$CELTSCALE
 40
1.0
  9
$DELOBJ
 70
     1
  9
$DISPSILH
 70
     0
  9
$DIMSCALE
 40
0.5
  9
$DIMASZ
 40
2.5
  9
$DIMEXO
 40
1.0
  9
$DIMDLI
 40
12.0
  9
$DIMRND
 40
0.0
  9
$DIMDLE
 40
0.0
  9
$DIMEXE
 40
1.0
  9
$DIMTP
 40
0.1
  9
$DIMTM
 40
0.1
  9
$DIMTXT
 40
3.2
  9
$DIMCEN
 40
0.0
  9
$DIMTSZ
 40
0.0
  9
$DIMTOL
 70
     0
  9
$DIMLIM
 70
     0
  9
$DIMTIH
 70
     0
  9
$DIMTOH
 70
     0
  9
$DIMSE1
 70
     0
  9
$DIMSE2
 70
     0
  9
$DIMTAD
 70
     3
  9
$DIMZIN
 70
     8
  9
$DIMBLK
  1
OPEN30
  9
$DIMASO
 70
     1
  9
$DIMSHO
 70
     1
  9
$DIMPOST
  1

  9
$DIMAPOST
  1
"
  9
$DIMALT
 70
     0
  9
$DIMALTD
 70
     2
  9
$DIMALTF
 40
0.0393701
  9
$DIMLFAC
 40
1.0
  9
$DIMTOFL
 70
     1
  9
$DIMTVP
 40
0.0
  9
$DIMTIX
 70
     0
  9
$DIMSOXD
 70
     0
  9
$DIMSAH
 70
     0
  9
$DIMBLK1
  1

  9
$DIMBLK2
  1

  9
$DIMSTYLE
  2
AM_JIS
  9
$DIMCLRD
 70
   256
  9
$DIMCLRE
 70
   256
  9
$DIMCLRT
 70
     2
  9
$DIMTFAC
 40
0.71
  9
$DIMGAP
 40
1.5
  9
$DIMJUST
 70
     0
  9
$DIMSD1
 70
     0
  9
$DIMSD2
 70
     0
  9
$DIMTOLJ
 70
     0
  9
$DIMTZIN
 70
     0
  9
$DIMALTZ
 70
     0
  9
$DIMALTTZ
 70
     0
  9
$DIMFIT
 70
     3
  9
$DIMUPT
 70
     0
  9
$DIMUNIT
 70
     2
  9
$DIMDEC
 70
     3
  9
$DIMTDEC
 70
     3
  9
$DIMALTU
 70
     2
  9
$DIMALTTD
 70
     2
  9
$DIMTXSTY
  7
ASAMI
  9
$DIMAUNIT
 70
     0
  9
$LUNITS
 70
     2
  9
$LUPREC
 70
     2
  9
$SKETCHINC
 40
1.0
  9
$FILLETRAD
 40
0.4
  9
$AUNITS
 70
     0
  9
$AUPREC
 70
     0
  9
$MENU
  1
.
  9
$ELEVATION
 40
0.0
  9
$PELEVATION
 40
0.0
  9
$THICKNESS
 40
0.0
  9
$LIMCHECK
 70
     1
  9
$BLIPMODE
 70
     0
  9
$CHAMFERA
 40
1.0
  9
$CHAMFERB
 40
1.0
  9
$CHAMFERC
 40
20.0
  9
$CHAMFERD
 40
0.0
  9
$SKPOLY
 70
     0
  9
$TDCREATE
 40
2452802.716478761
  9
$TDUPDATE
 40
2453152.411574259
  9
$TDINDWG
 40
0.9509537037
  9
$TDUSRTIMER
 40
0.9509537037
  9
$USRTIMER
 70
     1
  9
$ANGBASE
 50
0.0
  9
$ANGDIR
 70
     0
  9
$PDMODE
 70
     0
  9
$PDSIZE
 40
0.0
  9
$PLINEWID
 40
0.0
  9
$COORDS
 70
     1
  9
$SPLFRAME
 70
     0
  9
$SPLINETYPE
 70
     6
  9
$SPLINESEGS
 70
     8
  9
$ATTDIA
 70
     1
  9
$ATTREQ
 70
     1
  9
$HANDLING
 70
 12289
  9
$HANDSEED
  5
C546
  9
$SURFTAB1
 70
     6
  9
$SURFTAB2
 70
     6
  9
$SURFTYPE
 70
     6
  9
$SURFU
 70
     6
  9
$SURFV
 70
     6
  9
$UCSNAME
  2

  9
$UCSORG
 10
-0.0000000000002682
 20
0.000000000000161
 30
0.0
  9
$UCSXDIR
 10
1.0
 20
0.000000000000002
 30
0.0
  9
$UCSYDIR
 10
-0.000000000000002
 20
1.0
 30
0.0
  9
$PUCSNAME
  2

  9
$PUCSORG
 10
0.0
 20
0.0
 30
0.0
  9
$PUCSXDIR
 10
1.0
 20
0.0
 30
0.0
  9
$PUCSYDIR
 10
0.0
 20
1.0
 30
0.0
  9
$USERI1
 70
     0
  9
$USERI2
 70
     0
  9
$USERI3
 70
     0
  9
$USERI4
 70
     0
  9
$USERI5
 70
     0
  9
$USERR1
 40
0.0
  9
$USERR2
 40
0.0
  9
$USERR3
 40
0.0
  9
$USERR4
 40
0.0
  9
$USERR5
 40
0.0
  9
$WORLDVIEW
 70
     1
  9
$SHADEDGE
 70
     3
  9
$SHADEDIF
 70
    70
  9
$TILEMODE
 70
     1
  9
$MAXACTVP
 70
    64
  9
$PINSBASE
 10
0.0
 20
0.0
 30
0.0
  9
$PLIMCHECK
 70
     0
  9
$PEXTMIN
 10
1.000000000000000E+20
 20
1.000000000000000E+20
 30
1.000000000000000E+20
  9
$PEXTMAX
 10
-1.000000000000000E+20
 20
-1.000000000000000E+20
 30
-1.000000000000000E+20
  9
$PLIMMIN
 10
0.0
 20
0.0
  9
$PLIMMAX
 10
841.0
 20
594.0
  9
$UNITMODE
 70
     0
  9
$VISRETAIN
 70
     1
  9
$PLINEGEN
 70
     0
  9
$PSLTSCALE
 70
     0
  9
$TREEDEPTH
 70
  3020
  9
$PICKSTYLE
 70
     0
  9
$CMLSTYLE
  2
STANDARD
  9
$CMLJUST
 70
     0
  9
$CMLSCALE
 40
20.0
  9
$PROXYGRAPHICS
 70
     1
  9
$MEASUREMENT
 70
     1
  0
ENDSEC
  0
SECTION
  2
CLASSES
  0
CLASS
  1
ACDBDICTIONARYWDFLT
  2
AcDbDictionaryWithDefault
  3
AutoCAD 2000
 90
        0
280
     0
281
     0
  0
CLASS
  1
ACDBPLACEHOLDER
  2
AcDbPlaceHolder
  3
AutoCAD 2000
 90
        0
280
     0
281
     0
  0
CLASS
  1
LAYOUT
  2
AcDbLayout
  3
AutoCAD 2000
 90
        0
280
     0
281
     0
  0
CLASS
  1
AMGSETTINGSOBJ
  2
AmgSettingsObj
  3
"AcadM|Product Description: AutoCAD Mechanical 2000|Company: Autodesk"
 90
        0
280
     0
281
     0
  0
CLASS
  1
ACME_DOCUMENT
  2
AcMeDbDoc
  3
AcMeServices
 90
        0
280
     0
281
     0
  0
CLASS
  1
ACMESCOPE
  2
AcMeScope
  3
AcMeServices
 90
        0
280
     0
281
     0
  0
CLASS
  1
ACMECOMMANDHISTORY
  2
AcMeCommandHistory
  3
AcMeServices
 90
        0
280
     0
281
     0
  0
CLASS
  1
DICTIONARYVAR
  2
AcDbDictionaryVar
  3
AutoCAD 2000
 90
        0
280
     0
281
     0
  0
CLASS
  1
ACIMSYSVARMAN
  2
AcImSysVarManager
  3
AcMeServices
 90
        0
280
     0
281
     0
  0
CLASS
  1
ACIMREALSYSVAR
  2
AcImRealSysVar
  3
AcMeServices
 90
        0
280
     0
281
     0
  0
CLASS
  1
ACIMINTSYSVAR
  2
AcImIntSysVar
  3
AcMeServices
 90
        0
280
     0
281
     0
  0
CLASS
  1
ACMEDRAWINGMAN
  2
AcMeDrawingMan
  3
AcMeServices
 90
        0
280
     0
281
     0
  0
CLASS
  1
ACMEVIEW
  2
AcMeView
  3
AcMeServices
 90
        0
280
     0
281
     0
  0
CLASS
  1
ACDBENTITYCACHE
  2
AcMeEntityCache
  3
AcMeServices
 90
        0
280
     0
281
     0
  0
CLASS
  1
GSMANAGER
  2
AcMeGSManager
  3
AcMeServices
 90
        0
280
     0
281
     0
  0
CLASS
  1
AmdtInternalReactor
  2
AmdtInternalReactor
  3
AcMeServices
 90
        0
280
     0
281
     0
  0
CLASS
  1
ACMESTATEMGR
  2
AcMeStateMgr
  3
AcMeServices
 90
        0
280
     0
281
     0
  0
CLASS
  1
ACME_DATABASE
  2
AcMeDbDatabase
  3
AcMeServices
 90
        0
280
     0
281
     0
  0
CLASS
  1
ACRFINSADJUSTERMGR
  2
AcRfInsAdjusterMgr
  3
AcMeServices
 90
        0
280
     0
281
     0
  0
CLASS
  1
ACMDATADICTIONARY
  2
AcmDataDictionary
  3
"AcmSymBB|Product Description: AutoCAD Mechanical 2000|Company: Autodesk"
 90
        0
280
     0
281
     0
  0
CLASS
  1
ACMDATAENTRYBLOCK
  2
AcmDataEntryBlock
  3
"AcmSymBB|Product Description: AutoCAD Mechanical 2000|Company: Autodesk"
 90
        0
280
     0
281
     0
  0
CLASS
  1
AMGOBJPROPCFG
  2
AmgObjPropCfg
  3
"AmgLay|Product Description: AutoCAD Mechanical 2000|Company: Autodesk"
 90
        1
280
     0
281
     0
  0
CLASS
  1
ACAMGFILTERDAT
  2
AcAmgFilterDat
  3
"AcadM|Product Description: AutoCAD Mechanical 2000|Company: Autodesk"
 90
        0
280
     0
281
     0
  0
CLASS
  1
LAYER_INDEX
  2
AcDbLayerIndex
  3
AutoCAD 2000
 90
        0
280
     0
281
     0
  0
CLASS
  1
IDBUFFER
  2
AcDbIdBuffer
  3
AutoCAD 2000
 90
        0
280
     0
281
     0
  0
CLASS
  1
ACIMSTRSYSVAR
  2
AcImStrSysVar
  3
AcMeServices
 90
        0
280
     0
281
     0
  0
CLASS
  1
ACMSTANDARDJIS
  2
AcmStandardJIS
  3
"AcmSymBB|Product Description: AutoCAD Mechanical 2000|Company: Autodesk"
 90
        0
280
     0
281
     0
  0
CLASS
  1
ACMSURFSTANDARDJIS
  2
AcmSurfTextStdJIS
  3
"AcmSymBB|Product Description: AutoCAD Mechanical 2000|Company: Autodesk"
 90
        0
280
     0
281
     0
  0
CLASS
  1
ACMFCFSTANDARDJIS
  2
AcmFCFStdJIS
  3
"AcmSymBB|Product Description: AutoCAD Mechanical 2000|Company: Autodesk"
 90
        0
280
     0
281
     0
  0
CLASS
  1
ACMWELDSTANDARDJIS
  2
AcmWeldingStdJIS
  3
"AcmSymBB|Product Description: AutoCAD Mechanical 2000|Company: Autodesk"
 90
        0
280
     0
281
     0
  0
CLASS
  1
ACMIDSTANDARDJIS
  2
AcmIdStdJIS
  3
"AcmSymBB|Product Description: AutoCAD Mechanical 2000|Company: Autodesk"
 90
        0
280
     0
281
     0
  0
CLASS
  1
ACMDATUMSTANDARDJIS
  2
AcmDatumStdJIS
  3
"AcmSymBB|Product Description: AutoCAD Mechanical 2000|Company: Autodesk"
 90
        0
280
     0
281
     0
  0
CLASS
  1
ACMBOMSTANDARDJIS
  2
AcmBOMStdJIS
  3
"AcmSymBB|Product Description: AutoCAD Mechanical 2000|Company: Autodesk"
 90
        0
280
     0
281
     0
  0
CLASS
  1
ACMSTANDARDANSI
  2
AcmStandardANSI
  3
"AcmSymBB|Product Description: AutoCAD Mechanical 2000|Company: Autodesk"
 90
        0
280
     0
281
     0
  0
CLASS
  1
ACMSURFSTANDARDANSI
  2
AcmSurfTextStdANSI
  3
"AcmSymBB|Product Description: AutoCAD Mechanical 2000|Company: Autodesk"
 90
        0
280
     0
281
     0
  0
CLASS
  1
ACMFCFSTANDARDANSI
  2
AcmFCFStdANSI
  3
"AcmSymBB|Product Description: AutoCAD Mechanical 2000|Company: Autodesk"
 90
        0
280
     0
281
     0
  0
CLASS
  1
ACMWELDSTANDARDANSI
  2
AcmWeldingStdANSI
  3
"AcmSymBB|Product Description: AutoCAD Mechanical 2000|Company: Autodesk"
 90
        0
280
     0
281
     0
  0
CLASS
  1
ACMIDSTANDARDANSI
  2
AcmIdStdANSI
  3
"AcmSymBB|Product Description: AutoCAD Mechanical 2000|Company: Autodesk"
 90
        0
280
     0
281
     0
  0
CLASS
  1
ACMDATUMSTANDARDANSI
  2
AcmDatumStdANSI
  3
"AcmSymBB|Product Description: AutoCAD Mechanical 2000|Company: Autodesk"
 90
        0
280
     0
281
     0
  0
CLASS
  1
ACMBOMSTANDARDANSI
  2
AcmBOMStdANSI
  3
"AcmSymBB|Product Description: AutoCAD Mechanical 2000|Company: Autodesk"
 90
        0
280
     0
281
     0
  0
CLASS
  1
ACMSTANDARDBSI
  2
AcmStandardBSI
  3
"AcmSymBB|Product Description: AutoCAD Mechanical 2000|Company: Autodesk"
 90
        0
280
     0
281
     0
  0
CLASS
  1
ACMSURFSTANDARDBSI
  2
AcmSurfTextStdBSI
  3
"AcmSymBB|Product Description: AutoCAD Mechanical 2000|Company: Autodesk"
 90
        0
280
     0
281
     0
  0
CLASS
  1
ACMFCFSTANDARDBSI
  2
AcmFCFStdBSI
  3
"AcmSymBB|Product Description: AutoCAD Mechanical 2000|Company: Autodesk"
 90
        0
280
     0
281
     0
  0
CLASS
  1
ACMWELDSTANDARDBSI
  2
AcmWeldingStdBSI
  3
"AcmSymBB|Product Description: AutoCAD Mechanical 2000|Company: Autodesk"
 90
        0
280
     0
281
     0
  0
CLASS
  1
ACMIDSTANDARDBSI
  2
AcmIdStdBSI
  3
"AcmSymBB|Product Description: AutoCAD Mechanical 2000|Company: Autodesk"
 90
        0
280
     0
281
     0
  0
CLASS
  1
ACMDATUMSTANDARDBSI
  2
AcmDatumStdBSI
  3
"AcmSymBB|Product Description: AutoCAD Mechanical 2000|Company: Autodesk"
 90
        0
280
     0
281
     0
  0
CLASS
  1
ACMBOMSTANDARDBSI
  2
AcmBOMStdBSI
  3
"AcmSymBB|Product Description: AutoCAD Mechanical 2000|Company: Autodesk"
 90
        0
280
     0
281
     0
  0
CLASS
  1
STDPART2D
  2
AmgStdPart
  3
"AmgStdPart|Product Description: AutoCAD Mechanical 2000|Company: Autodesk"
 90
     1023
280
     0
281
     1
  0
CLASS
  1
PLOTSETTINGS
  2
AcDbPlotSettings
  3
AutoCAD 2000
 90
        0
280
     0
281
     0
  0
CLASS
  1
AMDTNOTE
  2
AmdtNote
  3
"AcmSymBB|Product Description: AutoCAD Mechanical 2000|Company: Autodesk"
 90
     1023
280
     0
281
     1
  0
CLASS
  1
LONG_TRANSACTION
  2
AcDbLongTransaction
  3
AutoCAD 2000
 90
        0
280
     0
281
     0
  0
CLASS
  1
LWPOLYLINE
  2
AcDbPolyline
  3
AutoCAD 2000
 90
        0
280
     0
281
     1
  0
CLASS
  1
HATCH
  2
AcDbHatch
  3
AutoCAD 2000
 90
        0
280
     0
281
     1
  0
CLASS
  1
XRECORD
  2
AcDbXrecord
  3
AutoCAD 2000
 90
        0
280
     0
281
     0
  0
ENDSEC
  0
SECTION
  2
TABLES
  0
TABLE
  2
VPORT
  5
8
330
0
100
AcDbSymbolTable
 70
     3
  0
VPORT
  5
C4E5
330
8
100
AcDbSymbolTableRecord
100
AcDbViewportTableRecord
  2
*ACTIVE
 70
     0
 10
0.0
 20
0.0
 11
1.0
 21
1.0
 12
-166.191651831019
 22
-4.29190783594106
 13
0.0
 23
0.0
 14
2.5
 24
2.5
 15
10.0
 25
10.0
 16
0.0
 26
0.0
 36
1.0
 17
0.0
 27
0.0
 37
0.0
 40
349.5099073312417
 41
1.56570841889117
 42
50.0
 43
0.0
 44
0.0
 50
0.0
 51
0.0
 71
     0
 72
   100
 73
     1
 74
     3
 75
     0
 76
     0
 77
     0
 78
     0
  0
ENDTAB
  0
TABLE
  2
LTYPE
  5
5
330
0
100
AcDbSymbolTable
 70
    12
  0
LTYPE
  5
14
330
5
100
AcDbSymbolTableRecord
100
AcDbLinetypeTableRecord
  2
BYBLOCK
 70
     0
  3

 72
    65
 73
     0
 40
0.0
  0
LTYPE
  5
15
330
5
100
AcDbSymbolTableRecord
100
AcDbLinetypeTableRecord
  2
BYLAYER
 70
     0
  3

 72
    65
 73
     0
 40
0.0
  0
LTYPE
  5
16
330
5
100
AcDbSymbolTableRecord
100
AcDbLinetypeTableRecord
  2
CONTINUOUS
 70
     0
  3
Solid line
 72
    65
 73
     0
 40
0.0
  0
LTYPE
  5
4B
330
5
100
AcDbSymbolTableRecord
100
AcDbLinetypeTableRecord
  2
AM_ISO02W050
 70
     0
  3
__ __ __ __ __ __ __ __ __ __ __ __ __ __ __
 72
    65
 73
     2
 40
7.5
 49
6.0
 74
     0
 49
-1.5
 74
     0
  0
LTYPE
  5
4C
330
5
100
AcDbSymbolTableRecord
100
AcDbLinetypeTableRecord
  2
AM_ISO08W050
 70
     0
  3
____ . ____ . ____ . ____ . ____ . ____ . ____
 72
    65
 73
     4
 40
18.0
 49
12.0
 74
     0
 49
-1.5
 74
     0
 49
3.0
 74
     0
 49
-1.5
 74
     0
  0
LTYPE
  5
4D
330
5
100
AcDbSymbolTableRecord
100
AcDbLinetypeTableRecord
  2
AM_ISO09W050
 70
     0
  3
_____ . . _____ . . _____ . . ____ .. ____
 72
    65
 73
     6
 40
22.5
 49
12.0
 74
     0
 49
-1.5
 74
     0
 49
3.0
 74
     0
 49
-1.5
 74
     0
 49
3.0
 74
     0
 49
-1.5
 74
     0
  0
LTYPE
  5
4E
330
5
100
AcDbSymbolTableRecord
100
AcDbLinetypeTableRecord
  2
AMCONSTR
 70
     0
  3
_______________________
 72
    65
 73
     2
 40
9999.0
 49
9999.0
 74
     0
 49
0.0
 74
     0
  0
LTYPE
  5
4F
330
5
100
AcDbSymbolTableRecord
100
AcDbLinetypeTableRecord
  2
AM_ISO02W050X2
 70
     0
  3
 _ _ _ _ _ _ _ _ _ _ _ _
 72
    65
 73
     2
 40
3.75
 49
3.0
 74
     0
 49
-0.75
 74
     0
  0
LTYPE
  5
50
330
5
100
AcDbSymbolTableRecord
100
AcDbLinetypeTableRecord
  2
AM_ISO08W050X2
 70
     0
  3
__ . __ . __ . __ . __ . __
 72
    65
 73
     4
 40
9.0
 49
6.0
 74
     0
 49
-0.75
 74
     0
 49
1.5
 74
     0
 49
-0.75
 74
     0
  0
LTYPE
  5
53
330
5
100
AcDbSymbolTableRecord
100
AcDbLinetypeTableRecord
  2
AMZIGZAG
 70
     0
  3
/\/-/\/-/\/-/\/-/\/-/\/
 72
    65
 73
     2
 40
11.00009999999999
 49
0.0001
 74
     4
 75
   135
340
52
 46
0.04
 50
0.0
 44
0.0
 45
0.0
 49
-11.0
 74
     0
  0
LTYPE
  5
166
330
5
100
AcDbSymbolTableRecord
100
AcDbLinetypeTableRecord
  2
ACJISTGL
 70
     0
  3
_ _ _ _ _
 72
    65
 73
     2
 40
3.0
 49
2.0
 74
     0
 49
-1.0
 74
     0
  0
LTYPE
  5
26A
330
5
100
AcDbSymbolTableRecord
100
AcDbLinetypeTableRecord
  2
ACJISTGB
 70
     0
  3
__ . . __ . .
 72
    65
 73
     6
 40
9.0
 49
4.0
 74
     0
 49
-1.0
 74
     0
 49
1.0
 74
     0
 49
-1.0
 74
     0
 49
1.0
 74
     0
 49
-1.0
 74
     0
  0
LTYPE
  5
A88A
330
5
100
AcDbSymbolTableRecord
100
AcDbLinetypeTableRecord
  2
ACANSTGBM
 70
     0
  3
__ . . __ . .
 72
    65
 73
     6
 40
9.0
 49
4.0
 74
     0
 49
-1.0
 74
     0
 49
1.0
 74
     0
 49
-1.0
 74
     0
 49
1.0
 74
     0
 49
-1.0
 74
     0
  0
LTYPE
  5
A88B
330
5
100
AcDbSymbolTableRecord
100
AcDbLinetypeTableRecord
  2
ACANSTGLM
 70
     0
  3
_ _ _ _ _
 72
    65
 73
     2
 40
3.0
 49
2.0
 74
     0
 49
-1.0
 74
     0
  0
ENDTAB
  0
TABLE
  2
LAYER
  5
2
330
0
100
AcDbSymbolTable
 70
     7
  0
LAYER
  5
10
330
2
100
AcDbSymbolTableRecord
100
AcDbLayerTableRecord
  2
0
 70
     0
 62
     7
  6
CONTINUOUS
  0
LAYER
  5
3F9
330
2
100
AcDbSymbolTableRecord
100
AcDbLayerTableRecord
  2
AM_0
 70
     0
 62
     7
  6
CONTINUOUS
  0
LAYER
  5
BA4
330
2
100
AcDbSymbolTableRecord
100
AcDbLayerTableRecord
  2
AM_5
 70
     0
 62
     3
  6
CONTINUOUS
  0
LAYER
  5
BA6
330
2
100
AcDbSymbolTableRecord
100
AcDbLayerTableRecord
  2
AM_7
 70
     0
 62
     4
  6
AM_ISO08W050
  0
LAYER
  5
E64
330
2
100
AcDbSymbolTableRecord
100
AcDbLayerTableRecord
  2
AM_6
 70
     0
 62
     2
  6
CONTINUOUS
  0
LAYER
  5
F4D
330
2
100
AcDbSymbolTableRecord
100
AcDbLayerTableRecord
  2
DEFPOINTS
 70
     0
 62
     7
  6
CONTINUOUS
  0
LAYER
  5
4E80
330
2
100
AcDbSymbolTableRecord
100
AcDbLayerTableRecord
  2
AM_11
 70
     0
 62
     3
  6
AM_ISO09W050
  0
ENDTAB
  0
TABLE
  2
STYLE
  5
3
330
0
100
AcDbSymbolTable
 70
     7
  0
STYLE
  5
11
330
3
100
AcDbSymbolTableRecord
100
AcDbTextStyleTableRecord
  2
STANDARD
 70
     0
 40
0.0
 41
1.0
 50
0.0
 71
     0
 42
2.5
  3
simplex.shx
  4
EXTFONT.SHX
  0
STYLE
  5
52
330
3
100
AcDbSymbolTableRecord
100
AcDbTextStyleTableRecord
  2

 70
     1
 40
0.0
 41
1.0
 50
0.0
 71
     0
 42
2.5
  3
ltypeshp.shx
  4

  0
STYLE
  5
6B
330
3
100
AcDbSymbolTableRecord
100
AcDbTextStyleTableRecord
  2
ASAMI
 70
     0
 40
0.0
 41
1.0
 50
0.0
 71
     0
 42
2.5
  3
simplex.shx
  4
EXTFONT.SHX
  0
STYLE
  5
262
330
3
100
AcDbSymbolTableRecord
100
AcDbTextStyleTableRecord
  2
ACJISTS
 70
     0
 40
1.0
 41
1.0
 50
0.0
 71
     0
 42
2.5
  3
simplex.shx
  4
bigfont.shx
  0
STYLE
  5
269
330
3
100
AcDbSymbolTableRecord
100
AcDbTextStyleTableRecord
  2
ACJISGDT
 70
     0
 40
0.0
 41
1.0
 50
0.0
 71
     0
 42
2.5
  3
amgdtans.shx
  4

  0
STYLE
  5
A88D
330
3
100
AcDbSymbolTableRecord
100
AcDbTextStyleTableRecord
  2
ACANSTS
 70
     0
 40
1.0
 41
1.0
 50
0.0
 71
     0
 42
2.5
  3
romans.shx
  4
extfont.shx
  0
STYLE
  5
A88E
330
3
100
AcDbSymbolTableRecord
100
AcDbTextStyleTableRecord
  2
ACANSGDT
 70
     0
 40
0.0
 41
1.0
 50
0.0
 71
     0
 42
2.5
  3
amgdtans.shx
  4

  0
ENDTAB
  0
TABLE
  2
VIEW
  5
6
330
0
100
AcDbSymbolTable
 70
     0
  0
ENDTAB
  0
TABLE
  2
UCS
  5
7
330
0
100
AcDbSymbolTable
 70
     0
  0
ENDTAB
  0
TABLE
  2
APPID
  5
9
330
0
100
AcDbSymbolTable
 70
    24
  0
APPID
  5
12
330
9
100
AcDbSymbolTableRecord
100
AcDbRegAppTableRecord
  2
ACAD
 70
     0
  0
APPID
  5
30
330
9
100
AcDbSymbolTableRecord
100
AcDbRegAppTableRecord
  2
MCAD_NO_VIS
 70
     0
  0
APPID
  5
31
330
9
100
AcDbSymbolTableRecord
100
AcDbRegAppTableRecord
  2
ACAD_TEMP_GRAPHIC
 70
     0
  0
APPID
  5
2C2
330
9
100
AcDbSymbolTableRecord
100
AcDbRegAppTableRecord
  2
GENIUS_GENDTOL_13
 70
     0
  0
APPID
  5
339
330
9
100
AcDbSymbolTableRecord
100
AcDbRegAppTableRecord
  2
GENIUS_GENODEF_13
 70
     0
  0
APPID
  5
33A
330
9
100
AcDbSymbolTableRecord
100
AcDbRegAppTableRecord
  2
GENIUS_GENOBJ-N-RSBK_13
 70
     0
  0
APPID
  5
33B
330
9
100
AcDbSymbolTableRecord
100
AcDbRegAppTableRecord
  2
GENIUS_GENOBJ-N-LIB_13
 70
     0
  0
APPID
  5
33C
330
9
100
AcDbSymbolTableRecord
100
AcDbRegAppTableRecord
  2
GENIUS_GENSCALE_13
 70
     0
  0
APPID
  5
378
330
9
100
AcDbSymbolTableRecord
100
AcDbRegAppTableRecord
  2
GENIUS_GENDIMSH_14
 70
     0
  0
APPID
  5
BB0
330
9
100
AcDbSymbolTableRecord
100
AcDbRegAppTableRecord
  2
GENIUS_GENOBJ-N-CEN_13
 70
     0
  0
APPID
  5
BB1
330
9
100
AcDbSymbolTableRecord
100
AcDbRegAppTableRecord
  2
GENIUS_GENFIL_13
 70
     0
  0
APPID
  5
BB2
330
9
100
AcDbSymbolTableRecord
100
AcDbRegAppTableRecord
  2
GENIUS_GENOBJ-N-CHA_13
 70
     0
  0
APPID
  5
1FAF
330
9
100
AcDbSymbolTableRecord
100
AcDbRegAppTableRecord
  2
GENIUS_GENOBJ-N-CRS_13
 70
     0
  0
APPID
  5
1FB0
330
9
100
AcDbSymbolTableRecord
100
AcDbRegAppTableRecord
  2
GENIUS_GENOENT_13
 70
     0
  0
APPID
  5
1FB1
330
9
100
AcDbSymbolTableRecord
100
AcDbRegAppTableRecord
  2
GENIUS_GENOREF_13
 70
     0
  0
APPID
  5
1FB2
330
9
100
AcDbSymbolTableRecord
100
AcDbRegAppTableRecord
  2
GENIUS_GENOLIS_13
 70
     0
  0
APPID
  5
1FB7
330
9
100
AcDbSymbolTableRecord
100
AcDbRegAppTableRecord
  2
GENIUS_GENOBJ-N-FIL_13
 70
     0
  0
APPID
  5
22A8
330
9
100
AcDbSymbolTableRecord
100
AcDbRegAppTableRecord
  2
GEVID1056506048
 70
     0
  0
APPID
  5
22A9
330
9
100
AcDbSymbolTableRecord
100
AcDbRegAppTableRecord
  2
GEVDC
 70
     0
  0
APPID
  5
22AC
330
9
100
AcDbSymbolTableRecord
100
AcDbRegAppTableRecord
  2
GENIUS_GENBH_13
 70
     0
  0
APPID
  5
22B8
330
9
100
AcDbSymbolTableRecord
100
AcDbRegAppTableRecord
  2
GENIUS_GENOBJ-NBEHI-BHF_13
 70
     0
  0
APPID
  5
22BA
330
9
100
AcDbSymbolTableRecord
100
AcDbRegAppTableRecord
  2
GENIUS_GENOBJ-NBEHI-BHB_13
 70
     0
  0
APPID
  5
35C9
330
9
100
AcDbSymbolTableRecord
100
AcDbRegAppTableRecord
  2
GENIUS_GENREC_14
 70
     0
  0
APPID
  5
35CA
330
9
100
AcDbSymbolTableRecord
100
AcDbRegAppTableRecord
  2
GENIUS_GENOBJ-N-REC_13
 70
     0
  0
ENDTAB
  0
TABLE
  2
DIMSTYLE
  5
A
330
0
100
AcDbSymbolTable
 70
     9
  0
DIMSTYLE
105
58
330
A
100
AcDbSymbolTableRecord
100
AcDbDimStyleTableRecord
  2
AM_JIS
 70
     0
  3

  4
"
  5
OPEN30
  6

  7

 40
1.0
 41
2.5
 42
1.0
 43
12.0
 44
1.0
 45
0.0
 46
0.0
 47
0.1
 48
0.1
140
3.2
141
0.0
142
0.0
143
0.0393701
144
1.0
145
0.0
146
0.71
147
1.5
 71
     0
 72
     0
 73
     0
 74
     0
 75
     0
 76
     0
 77
     3
 78
     8
170
     0
171
     2
172
     1
173
     0
174
     0
175
     0
176
   256
177
   256
178
     2
270
     2
271
     3
272
     3
273
     2
274
     2
340
6B
275
     0
280
     0
281
     0
282
     0
283
     0
284
     0
285
     0
286
     0
287
     3
288
     0
  0
DIMSTYLE
105
5F
330
A
100
AcDbSymbolTableRecord
100
AcDbDimStyleTableRecord
  2
AM_JIS$3
 70
     0
  3

  4
"
  5
OPEN30
  6

  7

 40
1.0
 41
2.5
 42
1.0
 43
10.0
 44
1.0
 45
0.0
 46
0.0
 47
0.1
 48
0.1
140
3.2
141
0.0
142
0.0
143
0.0393701
144
1.0
145
0.0
146
0.71
147
1.5
 71
     0
 72
     0
 73
     0
 74
     1
 75
     0
 76
     0
 77
     3
 78
     8
170
     0
171
     2
172
     0
173
     0
174
     0
175
     0
176
   256
177
   256
178
     2
270
     2
271
     2
272
     3
273
     2
274
     2
340
6B
275
     0
280
     0
281
     0
282
     0
283
     0
284
     0
285
     0
286
     0
287
     0
288
     1
  0
DIMSTYLE
105
60
330
A
100
AcDbSymbolTableRecord
100
AcDbDimStyleTableRecord
  2
AM_JIS$4
 70
     0
  3

  4
"
  5
OPEN30
  6

  7

 40
1.0
 41
2.5
 42
1.0
 43
10.0
 44
1.0
 45
0.0
 46
0.0
 47
0.1
 48
0.1
140
3.2
141
0.0
142
0.0
143
0.0393701
144
1.0
145
0.0
146
0.71
147
1.5
 71
     0
 72
     0
 73
     0
 74
     1
 75
     0
 76
     0
 77
     3
 78
     8
170
     0
171
     2
172
     0
173
     0
174
     0
175
     0
176
   256
177
   256
178
     2
270
     2
271
     2
272
     3
273
     2
274
     2
340
6B
275
     0
280
     0
281
     0
282
     0
283
     0
284
     0
285
     0
286
     0
287
     0
288
     1
  0
DIMSTYLE
105
61
330
A
100
AcDbSymbolTableRecord
100
AcDbDimStyleTableRecord
  2
AM_JIS$6
 70
     0
  3

  4
"
  5
OPEN30
  6

  7

 40
1.0
 41
2.5
 42
1.0
 43
10.0
 44
1.0
 45
0.0
 46
0.0
 47
0.1
 48
0.1
140
3.2
141
0.0
142
0.0
143
0.0393701
144
1.0
145
0.0
146
0.71
147
1.5
 71
     0
 72
     0
 73
     0
 74
     0
 75
     0
 76
     0
 77
     0
 78
     8
170
     0
171
     2
172
     1
173
     0
174
     0
175
     0
176
   256
177
   256
178
     2
270
     2
271
     2
272
     2
273
     2
274
     2
340
6B
275
     0
280
     0
281
     0
282
     0
283
     0
284
     0
285
     0
286
     0
287
     3
288
     0
  0
DIMSTYLE
105
62
330
A
100
AcDbSymbolTableRecord
100
AcDbDimStyleTableRecord
  2
AM_JIS$7
 70
     0
  3

  4
"
  5
OPEN30
  6

  7

 40
1.0
 41
2.5
 42
1.0
 43
10.0
 44
1.0
 45
0.0
 46
0.0
 47
0.1
 48
0.1
140
3.2
141
0.0
142
0.0
143
0.0393701
144
1.0
145
0.0
146
0.71
147
1.5
 71
     0
 72
     0
 73
     0
 74
     0
 75
     0
 76
     0
 77
     3
 78
     8
170
     0
171
     2
172
     1
173
     0
174
     0
175
     0
176
   256
177
   256
178
     2
270
     2
271
     2
272
     3
273
     2
274
     2
340
6B
275
     0
280
     0
281
     0
282
     0
283
     0
284
     0
285
     0
286
     0
287
     3
288
     0
  0
DIMSTYLE
105
63
330
A
100
AcDbSymbolTableRecord
100
AcDbDimStyleTableRecord
  2
AM_JIS$SF
 70
     0
  3

  4
"
  5
OPEN30
  6

  7

 40
1.0
 41
2.5
 42
1.0
 43
10.0
 44
1.0
 45
0.0
 46
0.0
 47
0.1
 48
0.1
140
3.2
141
0.0
142
0.0
143
0.0393701
144
1.0
145
0.0
146
0.71
147
1.5
 71
     0
 72
     0
 73
     0
 74
     0
 75
     1
 76
     1
 77
     3
 78
     8
170
     0
171
     2
172
     1
173
     0
174
     0
175
     0
176
   256
177
   256
178
     2
270
     2
271
     2
272
     2
273
     2
274
     2
340
6B
275
     0
280
     0
281
     0
282
     0
283
     0
284
     0
285
     0
286
     0
287
     3
288
     0
  0
DIMSTYLE
105
68
330
A
100
AcDbSymbolTableRecord
100
AcDbDimStyleTableRecord
  2
AM_JIS$SH
 70
     0
  3

  4
"
  5

  6
GENAXEH
  7
OPEN30
 40
1.0
 41
2.5
 42
1.0
 43
10.0
 44
1.0
 45
0.0
 46
0.0
 47
0.1
 48
0.1
140
3.2
141
0.0
142
0.0
143
0.0393701
144
2.0
145
0.0
146
0.71
147
1.5
 71
     0
 72
     0
 73
     0
 74
     0
 75
     1
 76
     1
 77
     3
 78
     8
170
     0
171
     2
172
     1
173
     1
174
     0
175
     0
176
   256
177
   256
178
     2
270
     2
271
     2
272
     2
273
     2
274
     2
340
6B
275
     0
280
     0
281
     0
282
     0
283
     0
284
     0
285
     0
286
     0
287
     3
288
     0
  0
DIMSTYLE
105
B34
330
A
100
AcDbSymbolTableRecord
100
AcDbDimStyleTableRecord
  2
AM_JIS$2
 70
     0
  3

  4
"
  5
OPEN30
  6

  7

 40
1.0
 41
2.5
 42
1.0
 43
12.0
 44
1.0
 45
0.0
 46
0.0
 47
0.1
 48
0.1
140
3.2
141
0.0
142
0.0
143
0.0393701
144
1.0
145
0.0
146
0.71
147
1.5
 71
     0
 72
     0
 73
     0
 74
     0
 75
     0
 76
     0
 77
     3
 78
     8
170
     0
171
     2
172
     1
173
     0
174
     0
175
     0
176
   256
177
   256
178
     2
270
     2
271
     3
272
     3
273
     2
274
     2
340
6B
275
     0
280
     0
281
     0
282
     0
283
     0
284
     0
285
     0
286
     0
287
     3
288
     0
  0
DIMSTYLE
105
3B48
102
{ACAD_REACTORS
330
BDF5
330
BEB7
330
BF4C
330
BFE1
330
C07F
330
C11D
102
}
330
A
100
AcDbSymbolTableRecord
100
AcDbDimStyleTableRecord
  2
AM_JIS$0
 70
     0
  3

  4
"
  5
OPEN30
  6

  7

 40
1.0
 41
2.5
 42
0.0
 43
10.0
 44
1.0
 45
0.0
 46
0.0
 47
0.1
 48
0.1000000001
140
3.799999999999999
141
0.0
142
0.0
143
0.0393701
144
1.0
145
0.0
146
0.71
147
1.5
 71
     0
 72
     0
 73
     0
 74
     0
 75
     0
 76
     0
 77
     3
 78
     1
170
     0
171
     2
172
     1
173
     0
174
     0
175
     0
176
     3
177
     3
178
     2
270
     2
271
     2
272
     2
273
     2
274
     2
340
11
275
     1
280
     0
281
     0
282
     0
283
     0
284
     8
285
     0
286
     0
287
     0
288
     0
  0
ENDTAB
  0
TABLE
  2
BLOCK_RECORD
  5
1
330
0
100
AcDbSymbolTable
 70
    11
  0
BLOCK_RECORD
  5
1F
102
{ACAD_XDICTIONARY
360
74
102
}
330
1
100
AcDbSymbolTableRecord
100
AcDbBlockTableRecord
  2
*MODEL_SPACE
  0
BLOCK_RECORD
  5
101
102
{ACAD_XDICTIONARY
360
C50E
102
}
330
1
100
AcDbSymbolTableRecord
100
AcDbBlockTableRecord
  2
*PAPER_SPACE
  0
BLOCK_RECORD
  5
59
330
1
100
AcDbSymbolTableRecord
100
AcDbBlockTableRecord
  2
_OPEN30
  0
BLOCK_RECORD
  5
64
330
1
100
AcDbSymbolTableRecord
100
AcDbBlockTableRecord
  2
GENAXEH
  0
BLOCK_RECORD
  5
BDF6
330
1
100
AcDbSymbolTableRecord
100
AcDbBlockTableRecord
  2
*D5
  0
BLOCK_RECORD
  5
BEB8
330
1
100
AcDbSymbolTableRecord
100
AcDbBlockTableRecord
  2
*D6
  0
BLOCK_RECORD
  5
BF4D
330
1
100
AcDbSymbolTableRecord
100
AcDbBlockTableRecord
  2
*D7
  0
BLOCK_RECORD
  5
BFE2
330
1
100
AcDbSymbolTableRecord
100
AcDbBlockTableRecord
  2
*D8
  0
BLOCK_RECORD
  5
C080
330
1
100
AcDbSymbolTableRecord
100
AcDbBlockTableRecord
  2
*D9
  0
BLOCK_RECORD
  5
C11E
330
1
100
AcDbSymbolTableRecord
100
AcDbBlockTableRecord
  2
*D10
  0
ENDTAB
  0
ENDSEC
  0
SECTION
  2
BLOCKS
  0
BLOCK
  5
20
330
1F
100
AcDbEntity
  8
0
100
AcDbBlockBegin
  2
*MODEL_SPACE
 70
     0
 10
0.0
 20
0.0
 30
0.0
  3
*MODEL_SPACE
  1

  0
ENDBLK
  5
21
330
1F
100
AcDbEntity
  8
0
100
AcDbBlockEnd
  0
BLOCK
  5
103
330
101
100
AcDbEntity
 67
     1
  8
0
100
AcDbBlockBegin
  2
*PAPER_SPACE
 70
     0
 10
0.0
 20
0.0
 30
0.0
  3
*PAPER_SPACE
  1

  0
ENDBLK
  5
104
330
101
100
AcDbEntity
 67
     1
  8
0
100
AcDbBlockEnd
  0
BLOCK
  5
5D
330
59
100
AcDbEntity
  8
0
100
AcDbBlockBegin
  2
_OPEN30
 70
     0
 10
0.0
 20
0.0
 30
0.0
  3
_OPEN30
  1

  0
LINE
  5
5A
330
59
100
AcDbEntity
  8
0
 62
     0
100
AcDbLine
 10
-1.0
 20
0.26794919
 30
0.0
 11
0.0
 21
0.0
 31
0.0
  0
LINE
  5
5B
330
59
100
AcDbEntity
  8
0
 62
     0
100
AcDbLine
 10
0.0
 20
0.0
 30
0.0
 11
-1.0
 21
-0.26794919
 31
0.0
  0
LINE
  5
5C
330
59
100
AcDbEntity
  8
0
 62
     0
100
AcDbLine
 10
0.0
 20
0.0
 30
0.0
 11
-1.0
 21
0.0
 31
0.0
  0
ENDBLK
  5
5E
330
59
100
AcDbEntity
  8
0
100
AcDbBlockEnd
  0
BLOCK
  5
66
330
64
100
AcDbEntity
  8
0
100
AcDbBlockBegin
  2
GENAXEH
 70
     0
 10
0.0
 20
0.0
 30
0.0
  3
GENAXEH
  1

  0
LINE
  5
65
330
64
100
AcDbEntity
  8
0
100
AcDbLine
 10
-1.0
 20
0.0
 30
0.0
 11
1.0
 21
0.0
 31
0.0
  0
ENDBLK
  5
67
330
64
100
AcDbEntity
  8
0
100
AcDbBlockEnd
  0
BLOCK
  5
BE00
330
BDF6
100
AcDbEntity
  8
0
100
AcDbBlockBegin
  2
*D5
 70
     1
 10
0.0
 20
0.0
 30
0.0
  3
*D5
  1

  0
LINE
  5
C510
330
BDF6
100
AcDbEntity
  8
AM_5
100
AcDbLine
 10
-0.000000000000256
 20
1.00000000000017
 30
0.0
 11
-0.0000000000002631
 21
40.00000101
 31
0.0
  0
LINE
  5
C511
330
BDF6
100
AcDbEntity
  8
AM_5
100
AcDbLine
 10
-65.00000000000035
 20
25.99999999999992
 30
0.0
 11
-65.00000000000037
 21
40.00000100999999
 31
0.0
  0
LINE
  5
C512
330
BDF6
100
AcDbEntity
  8
AM_5
100
AcDbLine
 10
-2.500000000000263
 20
39.00000101
 30
0.0
 11
-62.50000000000036
 21
39.00000100999999
 31
0.0
  0
INSERT
  5
C513
330
BDF6
100
AcDbEntity
  8
AM_5
100
AcDbBlockReference
  2
_OPEN30
 10
-0.000000000000263
 20
39.00000101
 30
0.0
 41
2.5
 42
2.5
 43
2.5
  0
INSERT
  5
C514
330
BDF6
100
AcDbEntity
  8
AM_5
100
AcDbBlockReference
  2
_OPEN30
 10
-65.00000000000037
 20
39.00000100999999
 30
0.0
 41
2.5
 42
2.5
 43
2.5
 50
180.0
  0
MTEXT
  5
C515
330
BDF6
100
AcDbEntity
  8
AM_5
 62
     2
100
AcDbMText
 10
-32.50000000000031
 20
42.10000101
 30
0.0
 40
3.2
 41
0.0
 71
     5
 72
     1
  1
69
  7
ASAMI
  0
POINT
  5
C516
330
BDF6
100
AcDbEntity
  8
DEFPOINTS
 62
     0
100
AcDbPoint
 10
-0.0000000000002558
 20
0.0000000000001705
 30
0.0
  0
POINT
  5
C517
330
BDF6
100
AcDbEntity
  8
DEFPOINTS
 62
     0
100
AcDbPoint
 10
-65.00000000000031
 20
25.00000000000005
 30
0.0
  0
POINT
  5
C518
330
BDF6
100
AcDbEntity
  8
DEFPOINTS
 62
     0
100
AcDbPoint
 10
-65.00000000000028
 20
39.00000101000012
 30
0.0
  0
ENDBLK
  5
BE01
330
BDF6
100
AcDbEntity
  8
0
100
AcDbBlockEnd
  0
BLOCK
  5
BEC2
330
BEB8
100
AcDbEntity
  8
0
100
AcDbBlockBegin
  2
*D6
 70
     1
 10
0.0
 20
0.0
 30
0.0
  3
*D6
  1

  0
LINE
  5
C519
330
BEB8
100
AcDbEntity
  8
AM_5
100
AcDbLine
 10
-0.0000000000002538
 20
-0.9999999999998294
 30
0.0
 11
-0.0000000000001774
 21
-40.00000100999989
 31
0.0
  0
LINE
  5
C51A
330
BEB8
100
AcDbEntity
  8
AM_5
100
AcDbLine
 10
-250.0000000000002
 20
-24.00000000000072
 30
0.0
 11
-250.0000000000001
 21
-40.00000101000039
 31
0.0
  0
LINE
  5
C51B
330
BEB8
100
AcDbEntity
  8
AM_5
100
AcDbLine
 10
-2.500000000000178
 20
-39.0000010099999
 30
0.0
 11
-247.5000000000001
 21
-39.00000101000038
 31
0.0
  0
INSERT
  5
C51C
330
BEB8
100
AcDbEntity
  8
AM_5
100
AcDbBlockReference
  2
_OPEN30
 10
-0.0000000000001794
 20
-39.00000100999989
 30
0.0
 41
2.5
 42
2.5
 43
2.5
 50
0.0000000000001018
  0
INSERT
  5
C51D
330
BEB8
100
AcDbEntity
  8
AM_5
100
AcDbBlockReference
  2
_OPEN30
 10
-250.0000000000001
 20
-39.00000101000039
 30
0.0
 41
2.5
 42
2.5
 43
2.5
 50
180.0000000000001
  0
MTEXT
  5
C51E
330
BEB8
100
AcDbEntity
  8
AM_5
 62
     2
100
AcDbMText
 10
-125.0000000000001
 20
-35.90000101000014
 30
0.0
 40
3.2
 41
0.0
 71
     5
 72
     1
  1
250
  7
ASAMI
  0
POINT
  5
C51F
330
BEB8
100
AcDbEntity
  8
DEFPOINTS
 62
     0
100
AcDbPoint
 10
-0.0000000000002558
 20
0.0000000000001705
 30
0.0
  0
POINT
  5
C520
330
BEB8
100
AcDbEntity
  8
DEFPOINTS
 62
     0
100
AcDbPoint
 10
-250.0000000000002
 20
-23.00000000000022
 30
0.0
  0
POINT
  5
C521
330
BEB8
100
AcDbEntity
  8
DEFPOINTS
 62
     0
100
AcDbPoint
 10
-250.0000000000002
 20
-39.00000100999989
 30
0.0
  0
ENDBLK
  5
BEC3
330
BEB8
100
AcDbEntity
  8
0
100
AcDbBlockEnd
  0
BLOCK
  5
BF57
330
BF4D
100
AcDbEntity
  8
0
100
AcDbBlockBegin
  2
*D7
 70
     1
 10
0.0
 20
0.0
 30
0.0
  3
*D7
  1

  0
LINE
  5
C522
330
BF4D
100
AcDbEntity
  8
AM_5
100
AcDbLine
 10
-0.0000000000002538
 20
-0.9999999999998294
 30
0.0
 11
-0.0000000000001578
 21
-50.00000100999989
 31
0.0
  0
LINE
  5
C523
330
BF4D
100
AcDbEntity
  8
AM_5
100
AcDbLine
 10
-350.0000000000001
 20
-20.04516200000124
 30
0.0
 11
-350.0
 21
-50.0000010100006
 31
0.0
  0
LINE
  5
C524
330
BF4D
100
AcDbEntity
  8
AM_5
100
AcDbLine
 10
-2.500000000000159
 20
-49.0000010099999
 30
0.0
 11
-347.5
 21
-49.0000010100006
 31
0.0
  0
INSERT
  5
C525
330
BF4D
100
AcDbEntity
  8
AM_5
100
AcDbBlockReference
  2
_OPEN30
 10
-0.0000000000001598
 20
-49.00000100999989
 30
0.0
 41
2.5
 42
2.5
 43
2.5
 50
0.0000000000001018
  0
INSERT
  5
C526
330
BF4D
100
AcDbEntity
  8
AM_5
100
AcDbBlockReference
  2
_OPEN30
 10
-350.0
 20
-49.0000010100006
 30
0.0
 41
2.5
 42
2.5
 43
2.5
 50
180.0000000000001
  0
MTEXT
  5
C527
330
BF4D
100
AcDbEntity
  8
AM_5
 62
     2
100
AcDbMText
 10
-175.0000000000001
 20
-45.90000101000025
 30
0.0
 40
3.2
 41
0.0
 71
     5
 72
     1
  1
350
  7
ASAMI
  0
POINT
  5
C528
330
BF4D
100
AcDbEntity
  8
DEFPOINTS
 62
     0
100
AcDbPoint
 10
-0.0000000000002558
 20
0.0000000000001705
 30
0.0
  0
POINT
  5
C529
330
BF4D
100
AcDbEntity
  8
DEFPOINTS
 62
     0
100
AcDbPoint
 10
-350.0000000000001
 20
-19.04516200000053
 30
0.0
  0
POINT
  5
C52A
330
BF4D
100
AcDbEntity
  8
DEFPOINTS
 62
     0
100
AcDbPoint
 10
-350.0000000000001
 20
-49.00000100999989
 30
0.0
  0
ENDBLK
  5
BF58
330
BF4D
100
AcDbEntity
  8
0
100
AcDbBlockEnd
  0
BLOCK
  5
BFEC
330
BFE2
100
AcDbEntity
  8
0
100
AcDbBlockBegin
  2
*D8
 70
     1
 10
0.0
 20
0.0
 30
0.0
  3
*D8
  1

  0
LINE
  5
C52B
330
BFE2
100
AcDbEntity
  8
AM_5
100
AcDbLine
 10
-250.0000000000002
 20
-24.00000000000072
 30
0.0
 11
-250.0000000000001
 21
-40.00000101000039
 31
0.0
  0
LINE
  5
C52C
330
BFE2
100
AcDbEntity
  8
AM_5
100
AcDbLine
 10
-350.0000000000001
 20
-20.04516200000124
 30
0.0
 11
-350.0000000000001
 21
-40.0000010100006
 31
0.0
  0
LINE
  5
C52D
330
BFE2
100
AcDbEntity
  8
AM_5
100
AcDbLine
 10
-252.5000000000001
 20
-39.0000010100004
 30
0.0
 11
-347.5000000000001
 21
-39.00000101000059
 31
0.0
  0
INSERT
  5
C52E
330
BFE2
100
AcDbEntity
  8
AM_5
100
AcDbBlockReference
  2
_OPEN30
 10
-250.0000000000001
 20
-39.00000101000039
 30
0.0
 41
2.5
 42
2.5
 43
2.5
 50
0.0000000000001018
  0
INSERT
  5
C52F
330
BFE2
100
AcDbEntity
  8
AM_5
100
AcDbBlockReference
  2
_OPEN30
 10
-350.0000000000001
 20
-39.0000010100006
 30
0.0
 41
2.5
 42
2.5
 43
2.5
 50
180.0000000000001
  0
MTEXT
  5
C530
330
BFE2
100
AcDbEntity
  8
AM_5
 62
     2
100
AcDbMText
 10
-300.0000000000001
 20
-35.90000101000049
 30
0.0
 40
3.2
 41
0.0
 71
     5
 72
     1
  1
100
  7
ASAMI
  0
POINT
  5
C531
330
BFE2
100
AcDbEntity
  8
DEFPOINTS
 62
     0
100
AcDbPoint
 10
-250.0000000000002
 20
-23.00000000000022
 30
0.0
  0
POINT
  5
C532
330
BFE2
100
AcDbEntity
  8
DEFPOINTS
 62
     0
100
AcDbPoint
 10
-350.0000000000001
 20
-19.04516200000053
 30
0.0
  0
POINT
  5
C533
330
BFE2
100
AcDbEntity
  8
DEFPOINTS
 62
     0
100
AcDbPoint
 10
-350.0000000000001
 20
-39.00000100999989
 30
0.0
  0
ENDBLK
  5
BFED
330
BFE2
100
AcDbEntity
  8
0
100
AcDbBlockEnd
  0
BLOCK
  5
C08A
330
C080
100
AcDbEntity
  8
0
100
AcDbBlockBegin
  2
*D9
 70
     1
 10
0.0
 20
0.0
 30
0.0
  3
*D9
  1

  0
LINE
  5
C534
330
C080
100
AcDbEntity
  8
AM_5
100
AcDbLine
 10
-348.0000000000003
 20
20.99999999999869
 30
0.0
 11
-370.9231016608279
 21
20.99999999999864
 31
0.0
  0
LINE
  5
C535
330
C080
100
AcDbEntity
  8
AM_5
100
AcDbLine
 10
-348.0000000000001
 20
-21.00000000000127
 30
0.0
 11
-370.9231016608278
 21
-21.00000000000132
 31
0.0
  0
LINE
  5
C536
330
C080
100
AcDbEntity
  8
AM_5
100
AcDbLine
 10
-369.9231016608279
 20
18.49999999999864
 30
0.0
 11
-369.9231016608278
 21
-18.50000000000132
 31
0.0
  0
INSERT
  5
C537
330
C080
100
AcDbEntity
  8
AM_5
100
AcDbBlockReference
  2
_OPEN30
 10
-369.9231016608279
 20
20.99999999999865
 30
0.0
 41
2.5
 42
2.5
 43
2.5
 50
90.0000000000001
  0
INSERT
  5
C538
330
C080
100
AcDbEntity
  8
AM_5
100
AcDbBlockReference
  2
_OPEN30
 10
-369.9231016608278
 20
-21.00000000000132
 30
0.0
 41
2.5
 42
2.5
 43
2.5
 50
270.0000000000001
  0
MTEXT
  5
C539
330
C080
100
AcDbEntity
  8
AM_5
 62
     2
100
AcDbMText
 10
-373.0231016608279
 20
-0.0000000000013278
 30
0.0
 40
3.2
 41
0.0
 71
     5
 72
     1
  1
%%c42
  7
ASAMI
 11
-0.000000000000002
 21
1.0
 31
0.0
  0
POINT
  5
C53A
330
C080
100
AcDbEntity
  8
DEFPOINTS
 62
     0
100
AcDbPoint
 10
-347.0000000000002
 20
20.99999999999946
 30
0.0
  0
POINT
  5
C53B
330
C080
100
AcDbEntity
  8
DEFPOINTS
 62
     0
100
AcDbPoint
 10
-347.0000000000001
 20
-21.0000000000005
 30
0.0
  0
POINT
  5
C53C
330
C080
100
AcDbEntity
  8
DEFPOINTS
 62
     0
100
AcDbPoint
 10
-369.9231016608279
 20
-21.0000000000005
 30
0.0
  0
ENDBLK
  5
C08B
330
C080
100
AcDbEntity
  8
0
100
AcDbBlockEnd
  0
BLOCK
  5
C128
330
C11E
100
AcDbEntity
  8
0
100
AcDbBlockBegin
  2
*D10
 70
     1
 10
0.0
 20
0.0
 30
0.0
  3
*D10
  1

  0
LINE
  5
C53D
330
C11E
100
AcDbEntity
  8
AM_5
100
AcDbLine
 10
-24.00000000000031
 20
25.00000000000005
 30
0.0
 11
22.28988236108539
 21
25.00000000000015
 31
0.0
  0
LINE
  5
C53E
330
C11E
100
AcDbEntity
  8
AM_5
100
AcDbLine
 10
-24.00000000000019
 20
-24.99999999999994
 30
0.0
 11
22.28988236108548
 21
-24.99999999999985
 31
0.0
  0
LINE
  5
C53F
330
C11E
100
AcDbEntity
  8
AM_5
100
AcDbLine
 10
21.28988236108539
 20
22.50000000000014
 30
0.0
 11
21.28988236108548
 21
-22.49999999999985
 31
0.0
  0
INSERT
  5
C540
330
C11E
100
AcDbEntity
  8
AM_5
100
AcDbBlockReference
  2
_OPEN30
 10
21.28988236108539
 20
25.00000000000014
 30
0.0
 41
2.5
 42
2.5
 43
2.5
 50
90.0000000000001
  0
INSERT
  5
C541
330
C11E
100
AcDbEntity
  8
AM_5
100
AcDbBlockReference
  2
_OPEN30
 10
21.28988236108548
 20
-24.99999999999985
 30
0.0
 41
2.5
 42
2.5
 43
2.5
 50
270.0000000000001
  0
MTEXT
  5
C542
330
C11E
100
AcDbEntity
  8
AM_5
 62
     2
100
AcDbMText
 10
18.18988236108543
 20
0.0000000000001389
 30
0.0
 40
3.2
 41
0.0
 71
     5
 72
     1
  1
%%c50
  7
ASAMI
 11
-0.000000000000002
 21
1.0
 31
0.0
  0
POINT
  5
C543
330
C11E
100
AcDbEntity
  8
DEFPOINTS
 62
     0
100
AcDbPoint
 10
-25.00000000000025
 20
25.00000000000011
 30
0.0
  0
POINT
  5
C544
330
C11E
100
AcDbEntity
  8
DEFPOINTS
 62
     0
100
AcDbPoint
 10
-25.00000000000025
 20
-24.99999999999988
 30
0.0
  0
POINT
  5
C545
330
C11E
100
AcDbEntity
  8
DEFPOINTS
 62
     0
100
AcDbPoint
 10
21.28988236108543
 20
-24.9999999999999
 30
0.0
  0
ENDBLK
  5
C129
330
C11E
100
AcDbEntity
  8
0
100
AcDbBlockEnd
  0
ENDSEC
  0
SECTION
  2
ENTITIES
  0
TEXT
  5
388D
330
1F
100
AcDbEntity
  8
AM_6
100
AcDbText
 10
-198.6904761904762
 20
-71.50000101000021
 30
0.0
 40
5.0
  1
WBMR2500LL
 50
359.9999999999998
 51
359.9999999999998
 72
     4
 11
-175.0
 21
-69.00000101000024
 31
0.0
100
AcDbText
  0
LINE
  5
B8EB
330
1F
100
AcDbEntity
  8
AM_11
100
AcDbLine
 10
-65.00000000000031
 20
25.00000000000005
 30
0.0
 11
-65.00000000000023
 21
-24.99999999999994
 31
0.0
  0
LINE
  5
B8EC
330
1F
100
AcDbEntity
  8
AM_0
100
AcDbLine
 10
-23.89997622258545
 20
-22.82888299999985
 30
0.0
 11
-23.89997622258551
 21
2.49326900000014
 31
0.0
  0
LINE
  5
B8ED
330
1F
100
AcDbEntity
  8
AM_0
100
AcDbLine
 10
-32.37221122258555
 20
-12.40228199999987
 30
0.0
 11
-33.71220222258546
 21
-19.93764099999987
 31
0.0
  0
ELLIPSE
  5
B8EE
330
1F
100
AcDbEntity
  8
AM_0
100
AcDbEllipse
 10
-29.28075622258555
 20
-13.09422299999988
 30
0.0
 11
0.3764226438639957
 21
2.116791438283001
 31
0.0
210
0.0
220
0.0
230
1.0
 40
0.9848079069767399
 41
-1.39742896687188
 42
4.88575603751495
  0
ELLIPSE
  5
B8EF
330
1F
100
AcDbEntity
  8
AM_0
100
AcDbEllipse
 10
-29.13543522258547
 20
-13.12006499999984
 30
0.0
 11
0.5252408984149942
 21
2.953662472022001
 31
0.0
210
0.0
220
0.0
230
1.0
 40
0.9848076666666699
 41
1.57079600496478
 42
3.14159300537504
  0
ELLIPSE
  5
B8F0
330
1F
100
AcDbEntity
  8
AM_0
100
AcDbEllipse
 10
-25.04660822258557
 20
1.382124000000146
 30
0.0
 11
4.377007486789953
 21
24.613853933519
 31
0.0
210
0.0
220
0.0
230
1.0
 40
0.9848077599999999
 41
3.316125205568839
 42
4.363003793981079
  0
ELLIPSE
  5
B8F1
330
1F
100
AcDbEntity
  8
AM_0
100
AcDbEllipse
 10
-25.13209122258553
 20
1.397325000000137
 30
0.0
 11
4.289467337053952
 21
24.121576854848
 31
0.0
210
0.0
220
0.0
230
1.0
 40
0.9848077551020399
 41
4.048957284575499
 42
4.35716598906539
  0
ELLIPSE
  5
B8F2
330
1F
100
AcDbEntity
  8
AM_0
100
AcDbEllipse
 10
-24.2528112225855
 20
0.0627440000001229
 30
0.0
 11
4.010603287822955
 21
22.553400653227
 31
0.0
210
0.0
220
0.0
230
1.0
 40
0.9848077606267599
 41
3.3358714421507
 42
4.394447905998959
  0
ELLIPSE
  5
B8F3
330
1F
100
AcDbEntity
  8
AM_0
100
AcDbEllipse
 10
-29.24716022258556
 20
-12.98485299999987
 30
0.0
 11
0.5252408984149942
 21
2.953662472022001
 31
0.0
210
0.0
220
0.0
230
1.0
 40
0.9848076666666699
 41
0.05547307667781
 42
2.474401053108899
  0
ELLIPSE
  5
B8F4
330
1F
100
AcDbEntity
  8
AM_0
100
AcDbEllipse
 10
-21.40928222258551
 20
0.0000000000001421
 30
0.0
 11
4.218989186207954
 21
22.988359614606
 31
0.0
210
0.0
220
0.0
230
1.0
 40
0.17343301599333
 41
2.22098621135795
 42
2.593875666844709
  0
ELLIPSE
  5
B8F5
330
1F
100
AcDbEntity
  8
AM_0
100
AcDbEllipse
 10
-28.11310122258547
 20
0.0000000000001137
 30
0.0
 11
4.218989186207954
 21
22.988359614606
 31
0.0
210
0.0
220
0.0
230
1.0
 40
0.17343301599333
 41
2.159343832898249
 42
2.65147010635079
  0
SPLINE
  5
B8F6
330
1F
100
AcDbEntity
  8
AM_0
100
AcDbSpline
210
0.0
220
0.0
230
1.0
 70
     8
 71
     3
 72
    11
 73
     7
 74
     5
 42
0.0000000001
 43
0.0000000001
 44
0.0000000001
 40
0.0
 40
0.0
 40
0.0
 40
0.0
 40
3.853983363161007
 40
7.72902125185314
 40
11.6376503637155
 40
15.58697904203162
 40
15.58697904203162
 40
15.58697904203162
 40
15.58697904203162
 10
-2.670386222585563
 20
-11.28923899999983
 30
0.0
 10
-3.312235020083774
 20
-12.40588353775553
 30
0.0
 10
-4.599439070770489
 20
-14.64527290450173
 30
0.0
 10
-7.215916493392528
 20
-17.54107900434838
 30
0.0
 10
-10.25565715110495
 20
-20.04170823117662
 30
0.0
 10
-12.59887304201196
 20
-21.2283473811071
 30
0.0
 10
-13.77654922258545
 20
-21.82473999999984
 30
0.0
 11
-2.670386222585563
 21
-11.28923899999983
 31
0.0
 11
-4.707945222585522
 21
-14.56055999999984
 31
0.0
 11
-7.274433222585457
 21
-17.46384399999982
 31
0.0
 11
-10.32117022258546
 21
-19.91226699999981
 31
0.0
 11
-13.77654922258545
 21
-21.82473999999984
 31
0.0
  0
LINE
  5
B8F7
330
1F
100
AcDbEntity
  8
AM_0
100
AcDbLine
 10
-350.0000000000001
 20
-19.04516200000053
 30
0.0
 11
-350.0000000000002
 21
19.04516199999947
 31
0.0
  0
LINE
  5
B8F8
330
1F
100
AcDbEntity
  8
AM_0
100
AcDbLine
 10
-347.0000000000001
 20
-21.0000000000005
 30
0.0
 11
-347.0000000000002
 21
20.99999999999946
 31
0.0
  0
LINE
  5
B8F9
330
1F
100
AcDbEntity
  8
AM_0
100
AcDbLine
 10
-348.8882280000002
 20
-20.49405100000054
 30
0.0
 11
-348.8882280000002
 21
20.49405099999948
 31
0.0
  0
LINE
  5
B8FA
330
1F
100
AcDbEntity
  8
AM_0
100
AcDbLine
 10
-250.0000000000001
 20
-23.0000000000003
 30
0.0
 11
-250.0000000000002
 21
22.99999999999969
 31
0.0
  0
LINE
  5
B8FB
330
1F
100
AcDbEntity
  8
AM_0
100
AcDbLine
 10
-254.0000000000001
 20
-21.00000000000033
 30
0.0
 11
-254.0000000000002
 21
20.99999999999966
 31
0.0
  0
ARC
  5
B8FD
330
1F
100
AcDbEntity
  8
AM_11
100
AcDbCircle
 10
-25.00000000000025
 20
0.0000000000001137
 30
0.0
 40
25.0
100
AcDbArc
 50
270.0
 51
90.0
  0
ELLIPSE
  5
B901
330
1F
100
AcDbEntity
  8
AM_0
100
AcDbEllipse
 10
-29.13543522258547
 20
-13.12006499999984
 30
0.0
 11
0.5252408984149942
 21
2.953662472022001
 31
0.0
210
0.0
220
0.0
230
1.0
 40
0.9848076666666699
 41
3.14159300537504
 42
4.03099303736477
  0
ELLIPSE
  5
B902
330
1F
100
AcDbEntity
  8
AM_0
100
AcDbEllipse
 10
-25.13209122258553
 20
1.397325000000137
 30
0.0
 11
4.289467337053952
 21
24.121576854848
 31
0.0
210
0.0
220
0.0
230
1.0
 40
0.9848077551020399
 41
3.31612520641936
 42
3.76662833930592
  0
ELLIPSE
  5
B903
330
1F
100
AcDbEntity
  8
AM_0
100
AcDbEllipse
 10
-36.79628922258553
 20
-22.45808099999988
 30
0.0
 11
0.0532205474069974
 21
1.298910148291
 31
0.0
210
0.0
220
0.0
230
0.9999999999999998
 40
0.7741
 41
3.18924174009368
 42
4.31395297479937
  0
ELLIPSE
  5
B904
330
1F
100
AcDbEntity
  8
AM_0
100
AcDbEllipse
 10
-34.12086122258552
 20
-18.39884099999989
 30
0.0
 11
-192.888170075933
 21
0.6572986093956189
 31
0.0
210
0.0
220
0.0
230
1.0
 40
0.02828547919897
 41
1.60275597187387
 42
1.62549239958752
  0
ELLIPSE
  5
B905
330
1F
100
AcDbEntity
  8
AM_0
100
AcDbEllipse
 10
-48.57376022258552
 20
-23.70163999999991
 30
0.0
 11
-0.710479597728
 21
0.0027706383579986
 31
0.0
210
0.0
220
0.0
230
1.0
 40
0.0297219504986
 41
2.740306550398399
 42
3.136422998852859
  0
ELLIPSE
  5
B906
330
1F
100
AcDbEntity
  8
AM_0
100
AcDbEllipse
 10
-34.12086422258551
 20
-18.39883899999989
 30
0.0
 11
-192.888200075759
 21
0.657298711625619
 31
0.0
210
0.0
220
0.0
230
1.0
 40
0.02828548516839
 41
1.525827286637239
 42
1.57077323659032
  0
ELLIPSE
  5
B907
330
1F
100
AcDbEntity
  8
AM_0
100
AcDbEllipse
 10
-48.57376022258552
 20
-23.70163999999991
 30
0.0
 11
-0.710479597728
 21
0.0027706383579986
 31
0.0
210
0.0
220
0.0
230
1.0
 40
0.0297219504986
 41
3.136422998852859
 42
3.31095249026004
  0
ELLIPSE
  5
B908
330
1F
100
AcDbEntity
  8
AM_0
100
AcDbEllipse
 10
-47.8888782225855
 20
-22.9177239999999
 30
0.0
 11
0.1400642395769984
 21
0.7876433258730003
 31
0.0
210
0.0
220
0.0
230
1.0
 40
0.8111599999999999
 41
2.859087205823369
 42
3.14159308078168
  0
ELLIPSE
  5
B909
330
1F
100
AcDbEntity
  8
AM_0
100
AcDbEllipse
 10
-47.8888782225855
 20
-22.9177239999999
 30
0.0
 11
0.1400642395769984
 21
0.7876433258730003
 31
0.0
210
0.0
220
0.0
230
1.0
 40
0.8111599999999999
 41
1.817627451691899
 42
2.77687854932398
  0
ELLIPSE
  5
B90A
330
1F
100
AcDbEntity
  8
AM_0
100
AcDbEllipse
 10
-47.42917322258551
 20
-22.99947199999991
 30
0.0
 11
0.8515040898999998
 21
0.1047995893380017
 31
0.0
210
0.0
220
0.0
230
0.9999999999999998
 40
0.9258330234786299
 41
4.391587717698349
 42
4.566119836393209
  0
ELLIPSE
  5
B90B
330
1F
100
AcDbEntity
  8
AM_0
100
AcDbEllipse
 10
-47.8888782225855
 20
-22.9177239999999
 30
0.0
 11
0.1400642395769984
 21
0.7876433258730003
 31
0.0
210
0.0
220
0.0
230
1.0
 40
0.8111599999999999
 41
3.14159308078168
 42
3.197638397695039
  0
ELLIPSE
  5
B90C
330
1F
100
AcDbEntity
  8
AM_0
100
AcDbEllipse
 10
-37.96717122258556
 20
-0.0000019999998813
 30
0.0
 11
-8.695316821987043
 21
22.96671039207998
 31
0.0
210
0.0
220
0.0
230
1.0
 40
0.14226326921388
 41
3.087781112254429
 42
3.11304296472355
  0
ELLIPSE
  5
B90D
330
1F
100
AcDbEntity
  8
AM_0
100
AcDbEllipse
 10
-35.97123822258552
 20
0.0000010000001112
 30
0.0
 11
132.5488965654119
 21
0.7316773405572623
 31
0.0
210
0.0
220
0.0
230
0.9999999999999998
 40
0.17343304515527
 41
4.68056992547528
 42
4.705073536754089
  0
ELLIPSE
  5
B90E
330
1F
100
AcDbEntity
  8
AM_0
100
AcDbEllipse
 10
-61.40192322258556
 20
0.0000000000000568
 30
0.0
 11
2.711410123519954
 21
22.99633469768
 31
0.0
210
0.0
220
0.0
230
1.0
 40
0.15145950040917
 41
2.620070292611839
 42
3.159446044482039
  0
ELLIPSE
  5
B90F
330
1F
100
AcDbEntity
  8
AM_0
100
AcDbEllipse
 10
-65.98404222258548
 20
0.0000000000000568
 30
0.0
 11
2.711410123519954
 21
22.99633469768
 31
0.0
210
0.0
220
0.0
230
1.0
 40
0.15145950040917
 41
2.59907640973093
 42
3.159446044482039
  0
ELLIPSE
  5
B910
330
1F
100
AcDbEntity
  8
AM_0
100
AcDbEllipse
 10
-35.97123822258552
 20
0.0000000000001137
 30
0.0
 11
132.5488945654429
 21
0.7316773295172619
 31
0.0
210
0.0
220
0.0
230
0.9999999999999998
 40
0.17343304022785
 41
4.76056044252632
 42
4.80262821788811
  0
ELLIPSE
  5
B911
330
1F
100
AcDbEntity
  8
AM_0
100
AcDbEllipse
 10
-37.38328222258544
 20
0.0000210000001175
 30
0.0
 11
-12.20856084641204
 21
21.56791130028397
 31
0.0
210
0.0
220
0.0
230
1.0
 40
0.65438667392848
 41
2.85164189178649
 42
2.86683635105821
  0
ELLIPSE
  5
B912
330
1F
100
AcDbEntity
  8
AM_0
100
AcDbEllipse
 10
-37.96717222258556
 20
0.0000000000001137
 30
0.0
 11
-8.695317530143045
 21
22.96671226251198
 31
0.0
210
0.0
220
0.0
230
0.9999999999999998
 40
0.14226325762782
 41
3.02299058624394
 42
3.08778110788042
  0
ELLIPSE
  5
B913
330
1F
100
AcDbEntity
  8
AM_0
100
AcDbEllipse
 10
-27.90974322258549
 20
-0.0000009999998838
 30
0.0
 11
8.723808700528953
 21
22.95640151623801
 31
0.0
210
0.0
220
0.0
230
0.9999999999999998
 40
0.1622546498777
 41
3.18913940208554
 42
3.20317504756144
  0
ELLIPSE
  5
B914
330
1F
100
AcDbEntity
  8
AM_0
100
AcDbEllipse
 10
-26.47877122258549
 20
-0.0000239999998826
 30
0.0
 11
36.13755253175798
 21
9.149253343473072
 31
0.0
210
0.0
220
0.0
230
1.0
 40
0.58393261376582
 41
4.278774253228129
 42
4.28924199963483
  0
ELLIPSE
  5
B915
330
1F
100
AcDbEntity
  8
AM_0
100
AcDbEllipse
 10
-56.84690322258555
 20
0.0000030000000493
 30
0.0
 11
-130.809963228434
 21
5.429590140198741
 31
0.0
210
0.0
220
0.0
230
1.0
 40
0.17085799679244
 41
1.496970095427419
 42
1.515840306775139
  0
ELLIPSE
  5
B916
330
1F
100
AcDbEntity
  8
AM_0
100
AcDbEllipse
 10
-65.98404222258548
 20
0.0000000000000568
 30
0.0
 11
2.711410123519954
 21
22.99633469768
 31
0.0
210
0.0
220
0.0
230
1.0
 40
0.15145950040917
 41
3.159446044482039
 42
3.471593649225169
  0
ELLIPSE
  5
B917
330
1F
100
AcDbEntity
  8
AM_0
100
AcDbEllipse
 10
-96.21917722258551
 20
0.0
 30
0.0
 11
132.5488945654429
 21
0.7316773295172619
 31
0.0
210
0.0
220
0.0
230
0.9999999999999998
 40
0.17343304022785
 41
5.20250966978965
 42
5.260106255450399
  0
SPLINE
  5
B918
330
1F
100
AcDbEntity
  8
AM_0
100
AcDbSpline
210
0.0
220
0.0
230
1.0
 70
     8
 71
     3
 72
    11
 73
     7
 74
     5
 42
0.0000000001
 43
0.0000000001
 44
0.0000000001
 40
0.0
 40
0.0
 40
0.0
 40
0.0
 40
1.250575964140068
 40
2.815862943503617
 40
4.4939373558838
 40
6.045250235769758
 40
6.045250235769758
 40
6.045250235769758
 40
6.045250235769758
 10
-19.56445722258547
 20
-23.55775099999985
 30
0.0
 10
-19.15893331948718
 20
-23.4610786000193
 30
0.0
 10
-18.24583426418541
 20
-23.24340591433645
 30
0.0
 10
-16.80357733775136
 20
-22.83694124201902
 30
0.0
 10
-15.28035109635974
 20
-22.35220440157074
 30
0.0
 10
-14.26452527872296
 20
-21.99589951437489
 30
0.0
 10
-13.77654922258545
 20
-21.82473999999984
 30
0.0
 11
-19.56445722258547
 21
-23.55775099999985
 31
0.0
 11
-18.34973822258552
 21
-23.26043299999986
 31
0.0
 11
-16.84222422258551
 21
-22.83909599999984
 31
0.0
 11
-15.24281322258548
 21
-22.33133799999984
 31
0.0
 11
-13.77654922258545
 21
-21.82473999999984
 31
0.0
  0
SPLINE
  5
B919
330
1F
100
AcDbEntity
  8
AM_0
100
AcDbSpline
210
0.0
220
0.0
230
1.0
 70
     8
 71
     3
 72
    11
 73
     7
 74
     5
 42
0.0000000001
 43
0.0000000001
 44
0.0000000001
 40
0.0
 40
0.0
 40
0.0
 40
0.0
 40
1.009632518250058
 40
2.020873149800224
 40
3.033526520388607
 40
4.047393822589928
 40
4.047393822589928
 40
4.047393822589928
 40
4.047393822589928
 10
-19.56445722258547
 20
-23.55775099999985
 30
0.0
 10
-19.89719780542002
 20
-23.60857140954973
 30
0.0
 10
-20.56320895060848
 20
-23.71029317391921
 30
0.0
 10
-21.56990989367204
 20
-23.80928742285743
 30
0.0
 10
-22.58088494793377
 20
-23.87261537499354
 30
0.0
 10
-23.25646690142316
 20
-23.87923513653559
 30
0.0
 10
-23.59446022258544
 20
-23.88254699999987
 30
0.0
 11
-19.56445722258547
 21
-23.55775099999985
 31
0.0
 11
-20.56383522258545
 21
-23.70128299999984
 31
0.0
 11
-21.56991822258544
 21
-23.80328599999984
 31
0.0
 11
-22.58076822258544
 21
-23.86369399999986
 31
0.0
 11
-23.59446022258544
 21
-23.88254699999987
 31
0.0
  0
SPLINE
  5
B91A
330
1F
100
AcDbEntity
  8
AM_0
100
AcDbSpline
210
0.0
220
0.0
230
1.0
 70
     8
 71
     3
 72
    11
 73
     7
 74
     5
 42
0.0000000001
 43
0.0000000001
 44
0.0000000001
 40
0.0
 40
0.0
 40
0.0
 40
0.0
 40
0.2064228407614233
 40
0.4233361907840047
 40
0.6465176137787977
 40
0.8695667630284063
 40
0.8695667630284063
 40
0.8695667630284063
 40
0.8695667630284063
 10
-27.61585622258553
 20
-23.31591299999988
 30
0.0
 10
-27.56163386114779
 20
-23.35860471486295
 30
0.0
 10
-27.45043353146674
 20
-23.44615775832221
 30
0.0
 10
-27.2534328167596
 20
-23.53745527085746
 30
0.0
 10
-27.03913698930392
 20
-23.59765484252265
 30
0.0
 10
-26.89013175521642
 20
-23.60473564714916
 30
0.0
 10
-26.81565122258553
 20
-23.60827499999988
 30
0.0
 11
-27.61585622258553
 21
-23.31591299999988
 31
0.0
 11
-27.44895822258547
 21
-23.43738499999986
 31
0.0
 11
-27.25337122258542
 21
-23.53117799999986
 31
0.0
 11
-27.03789222258547
 21
-23.58930499999985
 31
0.0
 11
-26.81565122258553
 21
-23.60827499999988
 31
0.0
  0
SPLINE
  5
B91B
330
1F
100
AcDbEntity
  8
AM_0
100
AcDbSpline
210
0.0
220
0.0
230
1.0
 70
     8
 71
     3
 72
    11
 73
     7
 74
     5
 42
0.0000000001
 43
0.0000000001
 44
0.0000000001
 40
0.0
 40
0.0
 40
0.0
 40
0.0
 40
0.1485719490684323
 40
0.2908385968008148
 40
0.4271717320577558
 40
0.5582654448322089
 40
0.5582654448322089
 40
0.5582654448322089
 40
0.5582654448322089
 10
-27.98725522258541
 20
-22.90461799999985
 30
0.0
 10
-27.96169923405236
 20
-22.94712081903588
 30
0.0
 10
-27.91167183728322
 20
-23.0303226638392
 30
0.0
 10
-27.81997450631711
 20
-23.13984286116422
 30
0.0
 10
-27.72240493699437
 20
-23.23584689006522
 30
0.0
 10
-27.65108670550912
 20
-23.2894725074311
 30
0.0
 10
-27.61612622258553
 20
-23.31575999999987
 30
0.0
 11
-27.98725522258541
 21
-22.90461799999985
 31
0.0
 11
-27.90735022258548
 21
-23.02987299999986
 31
0.0
 11
-27.81699422258543
 21
-23.13976199999987
 31
0.0
 11
-27.71917422258548
 21
-23.23472499999985
 31
0.0
 11
-27.61612622258553
 21
-23.31575999999987
 31
0.0
  0
SPLINE
  5
B91C
330
1F
100
AcDbEntity
  8
AM_0
100
AcDbSpline
210
0.0
220
0.0
230
1.0
 70
     8
 71
     3
 72
    11
 73
     7
 74
     5
 42
0.0000000001
 43
0.0000000001
 44
0.0000000001
 40
0.0
 40
0.0
 40
0.0
 40
0.0
 40
0.1206248609615136
 40
0.2959926160649464
 40
0.5285997222848888
 40
0.8197633186099563
 40
0.8197633186099563
 40
0.8197633186099563
 40
0.8197633186099563
 10
-27.16994522258551
 20
-23.73189699999986
 30
0.0
 10
-27.20811764693602
 20
-23.74465441788296
 30
0.0
 10
-27.30178619631287
 20
-23.77595892230564
 30
0.0
 10
-27.47555653272054
 20
-23.80765622805248
 30
0.0
 10
-27.70581023283765
 20
-23.8429123901523
 30
0.0
 10
-27.87937290895248
 20
-23.86224437143384
 30
0.0
 10
-27.97585622258543
 20
-23.87299099999987
 30
0.0
 11
-27.16994522258551
 21
-23.73189699999986
 31
0.0
 11
-27.28506622258544
 21
-23.76791799999986
 31
0.0
 11
-27.45678522258549
 21
-23.80350499999985
 31
0.0
 11
-27.68673522258552
 21
-23.83856299999988
 31
0.0
 11
-27.97585622258543
 21
-23.87299099999987
 31
0.0
  0
SPLINE
  5
B91D
330
1F
100
AcDbEntity
  8
AM_0
100
AcDbSpline
210
0.0
220
0.0
230
1.0
 70
     8
 71
     3
 72
    11
 73
     7
 74
     5
 42
0.0000000001
 43
0.0000000001
 44
0.0000000001
 40
0.0
 40
0.0
 40
0.0
 40
0.0
 40
0.1010308895387322
 40
0.1981837943846922
 40
0.2902263616945681
 40
0.3753411587630327
 40
0.3753411587630327
 40
0.3753411587630327
 40
0.3753411587630327
 10
-26.81565122258553
 20
-23.60827499999988
 30
0.0
 10
-26.84774793180538
 20
-23.61847251292619
 30
0.0
 10
-26.9107093453839
 20
-23.63847611592575
 30
0.0
 10
-27.00242661736877
 20
-23.66924897735012
 30
0.0
 10
-27.08871620655701
 20
-23.6995503455888
 30
0.0
 10
-27.14358409002307
 20
-23.7213995880334
 30
0.0
 10
-27.16994522258551
 20
-23.73189699999986
 30
0.0
 11
-26.81565122258553
 21
-23.60827499999988
 31
0.0
 11
-26.91185522258547
 21
-23.63912999999985
 31
0.0
 11
-27.00396922258551
 21
-23.67001199999987
 31
0.0
 11
-27.09066322258547
 21
-23.70093099999985
 31
0.0
 11
-27.16994522258551
 21
-23.73189699999986
 31
0.0
  0
SPLINE
  5
B91E
330
1F
100
AcDbEntity
  8
AM_0
100
AcDbSpline
210
0.0
220
0.0
230
1.0
 70
     8
 71
     3
 72
    11
 73
     7
 74
     5
 42
0.0000000001
 43
0.0000000001
 44
0.0000000001
 40
0.0
 40
0.0
 40
0.0
 40
0.0
 40
0.0835225920096126
 40
0.1688529133731068
 40
0.255820145920771
 40
0.3440428736614172
 40
0.3440428736614172
 40
0.3440428736614172
 40
0.3440428736614172
 10
-29.20995522258545
 20
-23.26421199999987
 30
0.0
 10
-29.21348168428439
 20
-23.23659505310045
 30
0.0
 10
-29.22061093299947
 20
-23.18076342922196
 30
0.0
 10
-29.2326543019627
 20
-23.09634207902253
 30
0.0
 10
-29.24564627012901
 20
-23.01047900747377
 30
0.0
 10
-29.25467733146246
 20
-22.95278482387858
 30
0.0
 10
-29.25922522258542
 20
-22.92373099999986
 30
0.0
 11
-29.20995522258545
 21
-23.26421199999987
 31
0.0
 11
-29.22073522258552
 21
-23.18138799999985
 31
0.0
 11
-29.23269522258545
 21
-23.09689999999986
 31
0.0
 11
-29.24565622258546
 21
-23.01090399999986
 31
0.0
 11
-29.25922522258542
 21
-22.92373099999986
 31
0.0
  0
SPLINE
  5
B91F
330
1F
100
AcDbEntity
  8
AM_0
100
AcDbSpline
210
0.0
220
0.0
230
1.0
 70
     8
 71
     3
 72
    11
 73
     7
 74
     5
 42
0.0000000001
 43
0.0000000001
 44
0.0000000001
 40
0.0
 40
0.0
 40
0.0
 40
0.0
 40
0.1716493280878707
 40
0.3433868301804785
 40
0.5151896878516525
 40
0.6870314006137687
 40
0.6870314006137687
 40
0.6870314006137687
 40
0.6870314006137687
 10
-29.20995522258545
 20
-23.26421199999987
 30
0.0
 10
-29.26061090199998
 20
-23.23757763093779
 30
0.0
 10
-29.36194828198606
 20
-23.18429521108816
 30
0.0
 10
-29.51903608519958
 20
-23.11465872136819
 30
0.0
 10
-29.67905242966109
 20
-23.05189647858769
 30
0.0
 10
-29.78815551293358
 20
-23.01691281136973
 30
0.0
 10
-29.84271322258553
 20
-22.99941899999987
 30
0.0
 11
-29.20995522258545
 21
-23.26421199999987
 31
0.0
 11
-29.36276322258549
 21
-23.18602499999986
 31
0.0
 11
-29.51949422258553
 21
-23.11581699999988
 31
0.0
 11
-29.67964222258547
 21
-23.05361699999985
 31
0.0
 11
-29.84271322258553
 21
-22.99941899999987
 31
0.0
  0
SPLINE
  5
B920
330
1F
100
AcDbEntity
  8
AM_0
100
AcDbSpline
210
0.0
220
0.0
230
1.0
 70
     8
 71
     3
 72
    11
 73
     7
 74
     5
 42
0.0000000001
 43
0.0000000001
 44
0.0000000001
 40
0.0
 40
0.0
 40
0.0
 40
0.0
 40
0.1063538860831127
 40
0.2126623405024073
 40
0.3189186526960007
 40
0.4251438830794266
 40
0.4251438830794266
 40
0.4251438830794266
 40
0.4251438830794266
 10
-32.06150722258553
 20
-22.99971099999987
 30
0.0
 10
-32.09546288565817
 20
-23.00990918244919
 30
0.0
 10
-32.16335970681142
 20
-23.03030119094474
 30
0.0
 10
-32.263993889315
 20
-23.06462026630101
 30
0.0
 10
-32.36372932907132
 20
-23.10134261319024
 30
0.0
 10
-32.42927845425716
 20
-23.12818551325688
 30
0.0
 10
-32.46204822258551
 20
-23.14160499999985
 30
0.0
 11
-32.06150722258553
 21
-22.99971099999987
 31
0.0
 11
-32.16317622258543
 21
-23.03092899999987
 31
0.0
 11
-32.26386722258553
 21
-23.06502899999987
 31
0.0
 11
-32.36350722258544
 21
-23.10193799999987
 31
0.0
 11
-32.46204822258551
 21
-23.14160499999985
 31
0.0
  0
SPLINE
  5
B921
330
1F
100
AcDbEntity
  8
AM_0
100
AcDbSpline
210
0.0
220
0.0
230
1.0
 70
     8
 71
     3
 72
    11
 73
     7
 74
     5
 42
0.0000000001
 43
0.0000000001
 44
0.0000000001
 40
0.0
 40
0.0
 40
0.0
 40
0.0
 40
0.1878256338735673
 40
0.3683805059900021
 40
0.5424968133968776
 40
0.7115473023550633
 40
0.7115473023550633
 40
0.7115473023550633
 40
0.7115473023550633
 10
-28.91325122258547
 20
-23.48961299999988
 30
0.0
 10
-28.8682790993373
 20
-23.44594884611444
 30
0.0
 10
-28.7800757312669
 20
-23.36031078505635
 30
0.0
 10
-28.66915056342299
 20
-23.21689793618884
 30
0.0
 10
-28.57583121534098
 20
-23.06879145847051
 30
0.0
 10
-28.52925335984641
 20
-22.96417101817267
 30
0.0
 10
-28.50630822258551
 20
-22.91263299999986
 30
0.0
 11
-28.91325122258547
 21
-23.48961299999988
 31
0.0
 11
-28.78168322258545
 21
-23.35556699999986
 31
0.0
 11
-28.67025022258554
 21
-23.21350099999986
 31
0.0
 11
-28.57867922258549
 21
-23.06540899999987
 31
0.0
 11
-28.50630822258551
 21
-22.91263299999986
 31
0.0
  0
SPLINE
  5
B922
330
1F
100
AcDbEntity
  8
AM_0
100
AcDbSpline
210
0.0
220
0.0
230
1.0
 70
     8
 71
     3
 72
    11
 73
     7
 74
     5
 42
0.0000000001
 43
0.0000000001
 44
0.0000000001
 40
0.0
 40
0.0
 40
0.0
 40
0.0
 40
0.0932983115067283
 40
0.1867256900314182
 40
0.2802647224457156
 40
0.3739061152695686
 40
0.3739061152695686
 40
0.3739061152695686
 40
0.3739061152695686
 10
-28.91325122258547
 20
-23.48961299999988
 30
0.0
 10
-28.93544863453791
 20
-23.46780887159221
 30
0.0
 10
-28.97987416589848
 20
-23.42417045138177
 30
0.0
 10
-29.05243879211019
 20
-23.36516099862421
 30
0.0
 10
-29.1287306758532
 20
-23.31084263654111
 30
0.0
 10
-29.18287050480966
 20
-23.27976121118338
 30
0.0
 10
-29.20995522258545
 20
-23.26421199999987
 30
0.0
 11
-28.91325122258547
 21
-23.48961299999988
 31
0.0
 11
-28.98082222258551
 21
-23.42527999999987
 31
0.0
 11
-29.05301522258548
 21
-23.36597699999987
 31
0.0
 11
-29.12951422258549
 21
-23.31214899999986
 31
0.0
 11
-29.20995522258545
 21
-23.26421199999987
 31
0.0
  0
SPLINE
  5
B923
330
1F
100
AcDbEntity
  8
AM_0
100
AcDbSpline
210
0.0
220
0.0
230
1.0
 70
     8
 71
     3
 72
    11
 73
     7
 74
     5
 42
0.0000000001
 43
0.0000000001
 44
0.0000000001
 40
0.0
 40
0.0
 40
0.0
 40
0.0
 40
0.1189078084609412
 40
0.238293891087855
 40
0.3582198827369043
 40
0.4787532059674494
 40
0.4787532059674494
 40
0.4787532059674494
 40
0.4787532059674494
 10
-39.38447422258548
 20
-23.27418499999987
 30
0.0
 10
-39.34950470244355
 20
-23.2554926588144
 30
0.0
 10
-39.27942500682094
 20
-23.21803279160905
 30
0.0
 10
-39.17903031329757
 20
-23.15320809159511
 30
0.0
 10
-39.08242505451738
 20
-23.08176460524729
 30
0.0
 10
-39.02383715866242
 20
-23.02697566215861
 30
0.0
 10
-38.99446922258551
 20
-22.99951199999989
 30
0.0
 11
-39.38447422258548
 21
-23.27418499999987
 31
0.0
 11
-39.28038622258554
 21
-23.21669799999989
 31
0.0
 11
-39.17988422258554
 21
-23.1522589999999
 31
0.0
 11
-39.08407222258551
 21
-23.08013199999987
 31
0.0
 11
-38.99446922258551
 21
-22.99951199999989
 31
0.0
  0
SPLINE
  5
B924
330
1F
100
AcDbEntity
  8
AM_0
100
AcDbSpline
210
0.0
220
0.0
230
1.0
 70
     8
 71
     3
 72
    11
 73
     7
 74
     5
 42
0.0000000001
 43
0.0000000001
 44
0.0000000001
 40
0.0
 40
0.0
 40
0.0
 40
0.0
 40
0.2423989402493006
 40
0.4709313295511713
 40
0.6787029682798336
 40
0.8672781697565829
 40
0.8672781697565829
 40
0.8672781697565829
 40
0.8672781697565829
 10
-40.13232422258545
 20
-23.62402099999988
 30
0.0
 10
-40.05129527985543
 20
-23.62061928801467
 30
0.0
 10
-39.89387269503419
 20
-23.61401046065636
 30
0.0
 10
-39.67537257855469
 20
-23.54954551389708
 30
0.0
 10
-39.4910111401461
 20
-23.44000763879633
 30
0.0
 10
-39.4188258005561
 20
-23.32750084967072
 30
0.0
 10
-39.38448122258546
 20
-23.2739719999999
 30
0.0
 11
-40.13232422258545
 21
-23.62402099999988
 31
0.0
 11
-39.89077722258548
 21
-23.6037159999999
 31
0.0
 11
-39.67190922258544
 21
-23.53795999999988
 31
0.0
 11
-39.49764522258544
 21
-23.4248179999999
 31
0.0
 11
-39.38448122258546
 21
-23.2739719999999
 31
0.0
  0
SPLINE
  5
B925
330
1F
100
AcDbEntity
  8
AM_0
100
AcDbSpline
210
0.0
220
0.0
230
1.0
 70
     8
 71
     3
 72
    11
 73
     7
 74
     5
 42
0.0000000001
 43
0.0000000001
 44
0.0000000001
 40
0.0
 40
0.0
 40
0.0
 40
0.0
 40
0.8253854552298541
 40
1.657259115600185
 40
2.49368625151584
 40
3.333440903418927
 40
3.333440903418927
 40
3.333440903418927
 40
3.333440903418927
 10
-36.80155622258553
 20
-23.75747899999987
 30
0.0
 10
-37.07645634474665
 20
-23.74627141407829
 30
0.0
 10
-37.62841752899632
 20
-23.72376814143793
 30
0.0
 10
-38.45897838242077
 20
-23.69045184312639
 30
0.0
 10
-39.29433386116452
 20
-23.65716318136189
 30
0.0
 10
-39.85262466692775
 20
-23.63508300479999
 30
0.0
 10
-40.13232422258545
 20
-23.62402099999988
 30
0.0
 11
-36.80155622258553
 21
-23.75747899999987
 31
0.0
 11
-37.62626022258553
 21
-23.7239459999999
 31
0.0
 11
-38.45746322258548
 21
-23.69054899999988
 31
0.0
 11
-39.29322722258552
 21
-23.65724899999989
 31
0.0
 11
-40.13232422258545
 21
-23.62402099999988
 31
0.0
  0
SPLINE
  5
B926
330
1F
100
AcDbEntity
  8
AM_0
100
AcDbSpline
210
0.0
220
0.0
230
1.0
 70
     8
 71
     3
 72
    11
 73
     7
 74
     5
 42
0.0000000001
 43
0.0000000001
 44
0.0000000001
 40
0.0
 40
0.0
 40
0.0
 40
0.0
 40
0.4288027903686796
 40
0.8631986829551062
 40
1.303213263852234
 40
1.748798368473039
 40
1.748798368473039
 40
1.748798368473039
 40
1.748798368473039
 10
-34.52083622258544
 20
-23.00005599999988
 30
0.0
 10
-34.38182412458466
 20
-23.0333141743723
 30
0.0
 10
-34.10198672006144
 20
-23.10026432712451
 30
0.0
 10
-33.67845200470586
 20
-23.19686065397575
 30
0.0
 10
-33.24873029303385
 20
-23.29144568837031
 30
0.0
 10
-32.95962907269368
 20
-23.35115470393506
 30
0.0
 10
-32.81416922258552
 20
-23.38119699999987
 30
0.0
 11
-34.52083622258544
 21
-23.00005599999988
 31
0.0
 11
-34.10362822258548
 21
-23.09909799999988
 31
0.0
 11
-33.68015822258553
 21
-23.19591199999988
 31
0.0
 11
-33.25034722258545
 21
-23.29012099999988
 31
0.0
 11
-32.81416922258552
 21
-23.38119699999987
 31
0.0
  0
SPLINE
  5
B927
330
1F
100
AcDbEntity
  8
AM_0
100
AcDbSpline
210
0.0
220
0.0
230
1.0
 70
     8
 71
     3
 72
    11
 73
     7
 74
     5
 42
0.0000000001
 43
0.0000000001
 44
0.0000000001
 40
0.0
 40
0.0
 40
0.0
 40
0.0
 40
0.1075174107993601
 40
0.2148515493993739
 40
0.3219612851379482
 40
0.4288251261928619
 40
0.4288251261928619
 40
0.4288251261928619
 40
0.4288251261928619
 10
-32.46204822258551
 20
-23.14160499999985
 30
0.0
 10
-32.49475413869232
 20
-23.15633769925156
 30
0.0
 10
-32.56011022100338
 20
-23.185777984667
 30
0.0
 10
-32.65190424561252
 20
-23.24180248926747
 30
0.0
 10
-32.73813518171531
 20
-23.30581403041937
 30
0.0
 10
-32.78884396684444
 20
-23.35608860169171
 30
0.0
 10
-32.81416922258552
 20
-23.38119699999987
 30
0.0
 11
-32.46204822258551
 21
-23.14160499999985
 31
0.0
 11
-32.55913922258548
 21
-23.18779299999988
 31
0.0
 11
-32.65106922258553
 21
-23.24319599999987
 31
0.0
 11
-32.73651822258546
 21
-23.30777899999986
 31
0.0
 11
-32.81416922258552
 21
-23.38119699999987
 31
0.0
  0
SPLINE
  5
B928
330
1F
100
AcDbEntity
  8
AM_0
100
AcDbSpline
210
0.0
220
0.0
230
1.0
 70
     8
 71
     3
 72
    11
 73
     7
 74
     5
 42
0.0000000001
 43
0.0000000001
 44
0.0000000001
 40
0.0
 40
0.0
 40
0.0
 40
0.0
 40
0.6986220849594745
 40
1.374862521467033
 40
2.02854283594656
 40
2.659436890627716
 40
2.659436890627716
 40
2.659436890627716
 40
2.659436890627716
 10
-34.14390622258542
 20
-23.85475999999988
 30
0.0
 10
-34.37665194250316
 20
-23.8470280527127
 30
0.0
 10
-34.83468694345122
 20
-23.83181186534621
 30
0.0
 10
-35.51043727281302
 20
-23.80766880027381
 30
0.0
 10
-36.16358433083992
 20
-23.78318963284546
 30
0.0
 10
-36.59142867960639
 20
-23.76594726040159
 30
0.0
 10
-36.80155622258553
 20
-23.75747899999987
 30
0.0
 11
-34.14390622258542
 21
-23.85475999999988
 31
0.0
 11
-34.84213322258551
 21
-23.83126799999988
 31
0.0
 11
-35.51794522258546
 21
-23.80719999999988
 31
0.0
 11
-36.1711622225855
 21
-23.78259299999987
 31
0.0
 11
-36.80155622258553
 21
-23.75747899999987
 31
0.0
  0
SPLINE
  5
B929
330
1F
100
AcDbEntity
  8
AM_0
100
AcDbSpline
210
0.0
220
0.0
230
1.0
 70
     8
 71
     3
 72
    11
 73
     7
 74
     5
 42
0.0000000001
 43
0.0000000001
 44
0.0000000001
 40
0.0
 40
0.0
 40
0.0
 40
0.0
 40
1.011070754976545
 40
2.022149366573605
 40
3.033183901842324
 40
4.044120440370871
 40
4.044120440370871
 40
4.044120440370871
 40
4.044120440370871
 10
-46.85459322258544
 20
-23.8025739999999
 30
0.0
 10
-46.51757216213151
 20
-23.8038788380893
 30
0.0
 10
-45.84352742236974
 20
-23.80648852440744
 30
0.0
 10
-44.83247478346487
 20
-23.81067591497082
 30
0.0
 10
-43.82146766955254
 20
-23.8150492498474
 30
0.0
 10
-43.14748448316364
 20
-23.81815913352354
 30
0.0
 10
-42.81050922258543
 20
-23.81971399999989
 30
0.0
 11
-46.85459322258544
 21
-23.8025739999999
 31
0.0
 11
-45.84353022258551
 21
-23.80653399999988
 31
0.0
 11
-44.83246022258549
 21
-23.81070699999992
 31
0.0
 11
-43.82143522258547
 21
-23.81509799999992
 31
0.0
 11
-42.81050922258543
 21
-23.81971399999989
 31
0.0
  0
SPLINE
  5
B92A
330
1F
100
AcDbEntity
  8
AM_0
100
AcDbSpline
210
0.0
220
0.0
230
1.0
 70
     8
 71
     3
 72
    11
 73
     7
 74
     5
 42
0.0000000001
 43
0.0000000001
 44
0.0000000001
 40
0.0
 40
0.0
 40
0.0
 40
0.0
 40
0.2598786439572063
 40
0.5198394523976071
 40
0.7794209121457781
 40
1.038187411407178
 40
1.038187411407178
 40
1.038187411407178
 40
1.038187411407178
 10
-27.97585622258543
 20
-23.87299099999987
 30
0.0
 10
-28.06264089218684
 20
-23.86823081635213
 30
0.0
 10
-28.23623766964857
 20
-23.85870894405406
 30
0.0
 10
-28.48664498424959
 20
-23.78228895590707
 30
0.0
 10
-28.7203442004268
 20
-23.66406484837654
 30
0.0
 10
-28.8490163157765
 20
-23.54770263353282
 30
0.0
 10
-28.91325122258547
 20
-23.48961299999988
 30
0.0
 11
-27.97585622258543
 21
-23.87299099999987
 31
0.0
 11
-28.2345642225855
 21
-23.84835199999986
 31
0.0
 11
-28.48403422258547
 21
-23.77524699999986
 31
0.0
 11
-28.71382522258545
 21
-23.65450499999985
 31
0.0
 11
-28.91325122258547
 21
-23.48961299999988
 31
0.0
  0
SPLINE
  5
B92B
330
1F
100
AcDbEntity
  8
AM_0
100
AcDbSpline
210
0.0
220
0.0
230
1.0
 70
     8
 71
     3
 72
    11
 73
     7
 74
     5
 42
0.0000000001
 43
0.0000000001
 44
0.0000000001
 40
0.0
 40
0.0
 40
0.0
 40
0.0
 40
0.3591281759483663
 40
0.7205592522339737
 40
1.083348560359255
 40
1.446852031491165
 40
1.446852031491165
 40
1.446852031491165
 40
1.446852031491165
 10
-32.81416922258552
 20
-23.38119699999987
 30
0.0
 10
-32.90489995688929
 20
-23.46047127352408
 30
0.0
 10
-33.08694323403378
 20
-23.61952816484471
 30
0.0
 10
-33.42582702002496
 20
-23.75773006974543
 30
0.0
 10
-33.77997971371678
 20
-23.84166993244932
 30
0.0
 10
-34.0225178904422
 20
-23.85039378476443
 30
0.0
 10
-34.14390622258542
 20
-23.85475999999988
 30
0.0
 11
-32.81416922258552
 21
-23.38119699999987
 31
0.0
 11
-33.09713122258552
 21
-23.60234299999987
 31
0.0
 11
-33.42770722258546
 21
-23.74846599999989
 31
0.0
 11
-33.7812602225855
 21
-23.82980699999987
 31
0.0
 11
-34.14390622258542
 21
-23.85475999999988
 31
0.0
  0
SPLINE
  5
B92C
330
1F
100
AcDbEntity
  8
AM_0
100
AcDbSpline
210
0.0
220
0.0
230
1.0
 70
     8
 71
     3
 72
    11
 73
     7
 74
     5
 42
0.0000000001
 43
0.0000000001
 44
0.0000000001
 40
0.0
 40
0.0
 40
0.0
 40
0.0
 40
0.0208317880653647
 40
0.0400127976843048
 40
0.0575077995133386
 40
0.0732855462789507
 40
0.0732855462789507
 40
0.0732855462789507
 40
0.0732855462789507
 10
-47.99293322258551
 20
-23.71049499999992
 30
0.0
 10
-47.98601957074241
 20
-23.71115595394158
 30
0.0
 10
-47.97274012725007
 20
-23.71242548569099
 30
0.0
 10
-47.95357997479787
 20
-23.71321156341018
 30
0.0
 10
-47.93608792694418
 20
-23.71329266493602
 30
0.0
 10
-47.92501021169364
 20
-23.71271359272493
 30
0.0
 10
-47.91975722258553
 20
-23.7124389999999
 30
0.0
 11
-47.99293322258551
 21
-23.71049499999992
 31
0.0
 11
-47.97217822258551
 21
-23.7122819999999
 31
0.0
 11
-47.95301522258546
 21
-23.71311299999991
 31
0.0
 11
-47.93552022258552
 21
-23.71312099999991
 31
0.0
 11
-47.91975722258553
 21
-23.7124389999999
 31
0.0
  0
SPLINE
  5
B92D
330
1F
100
AcDbEntity
  8
AM_0
100
AcDbSpline
210
0.0
220
0.0
230
1.0
 70
     8
 71
     3
 72
    11
 73
     7
 74
     5
 42
0.0000000001
 43
0.0000000001
 44
0.0000000001
 40
0.0
 40
0.0
 40
0.0
 40
0.0
 40
1.236362026012219
 40
2.782274269947461
 40
4.439212685911669
 40
5.971645996952935
 40
5.971645996952935
 40
5.971645996952935
 40
5.971645996952935
 10
-19.53167522258547
 20
-23.55122399999984
 30
0.0
 10
-19.13084416013339
 20
-23.45530377113858
 30
0.0
 10
-18.22882523024666
 20
-23.23944759057553
 30
0.0
 10
-16.80422570601022
 20
-22.83765463745049
 30
0.0
 10
-15.29969686628781
 20
-22.35948397020964
 30
0.0
 10
-14.29619098286873
 20
-22.00835965131183
 30
0.0
 10
-13.81402522258554
 20
-21.83965099999983
 30
0.0
 11
-19.53167522258547
 21
-23.55122399999984
 31
0.0
 11
-18.33098922258545
 21
-23.25636099999985
 31
0.0
 11
-16.84223222258549
 21
-22.83989099999985
 31
0.0
 11
-15.2627952225855
 21
-22.33906799999982
 31
0.0
 11
-13.81402522258554
 21
-21.83965099999983
 31
0.0
  0
SPLINE
  5
B92E
330
1F
100
AcDbEntity
  8
AM_0
100
AcDbSpline
210
0.0
220
0.0
230
1.0
 70
     8
 71
     3
 72
    11
 73
     7
 74
     5
 42
0.0000000001
 43
0.0000000001
 44
0.0000000001
 40
0.0
 40
0.0
 40
0.0
 40
0.0
 40
0.2179682489354721
 40
0.4436857804167309
 40
0.6833691283572909
 40
0.9437439283227082
 40
0.9437439283227082
 40
0.9437439283227082
 40
0.9437439283227082
 10
-70.1043872225855
 20
-19.48233899999993
 30
0.0
 10
-70.10991027454686
 20
-19.40965079953111
 30
0.0
 10
-70.12115273592243
 20
-19.2616901625594
 30
0.0
 10
-70.08226282018558
 20
-19.03529694248883
 30
0.0
 10
-69.99924913280977
 20
-18.80584919238236
 30
0.0
 10
-69.90462958477978
 20
-18.66784978156409
 30
0.0
 10
-69.85536222258542
 20
-18.59599499999996
 30
0.0
 11
-70.1043872225855
 21
-19.48233899999993
 31
0.0
 11
-70.11214922258545
 21
-19.26450899999994
 31
0.0
 11
-70.07676622258554
 21
-19.04158199999995
 31
0.0
 11
-69.99301822258553
 21
-18.81700599999996
 31
0.0
 11
-69.85536222258542
 21
-18.59599499999996
 31
0.0
  0
SPLINE
  5
B92F
330
1F
100
AcDbEntity
  8
AM_0
100
AcDbSpline
210
0.0
220
0.0
230
1.0
 70
     8
 71
     3
 72
    11
 73
     7
 74
     5
 42
0.0000000001
 43
0.0000000001
 44
0.0000000001
 40
0.0
 40
0.0
 40
0.0
 40
0.0
 40
1.388184355702377
 40
3.021604773012382
 40
4.354110194409172
 40
5.341551063294999
 40
5.341551063294999
 40
5.341551063294999
 40
5.341551063294999
 10
-69.85536222258542
 20
-18.59599499999996
 30
0.0
 10
-69.46741830637851
 20
-18.31446101740016
 30
0.0
 10
-68.62299646567938
 20
-17.70165737781563
 30
0.0
 10
-67.07686533907147
 20
-17.96480320914916
 30
0.0
 10
-65.88809655558262
 20
-18.67935562721765
 30
0.0
 10
-65.60754404511833
 20
-19.41958324123217
 30
0.0
 10
-65.48813222258548
 20
-19.73464699999993
 30
0.0
 11
-69.85536222258542
 21
-18.59599499999996
 31
0.0
 11
-68.6432932225855
 21
-17.91927899999996
 31
0.0
 11
-67.01894722258543
 21
-18.09121599999994
 31
0.0
 11
-65.92192122258552
 21
-18.84759199999996
 31
0.0
 11
-65.48813222258548
 21
-19.73464699999993
 31
0.0
  0
LINE
  5
B930
330
1F
100
AcDbEntity
  8
AM_0
100
AcDbLine
 10
-347.0000000000001
 20
-21.0000000000005
 30
0.0
 11
-254.0000000000001
 21
-21.00000000000033
 31
0.0
  0
LINE
  5
B932
330
1F
100
AcDbEntity
  8
AM_0
100
AcDbLine
 10
-348.8882280000002
 20
-20.49405100000054
 30
0.0
 11
-347.0000000000001
 21
-21.0000000000005
 31
0.0
  0
ARC
  5
B933
330
1F
100
AcDbEntity
  8
AM_0
100
AcDbCircle
 10
-348.5000000000001
 20
-19.04516200000053
 30
0.0
 40
1.5
100
AcDbArc
 50
180.0
 51
255.0000235199534
  0
LINE
  5
B934
330
1F
100
AcDbEntity
  8
AM_0
100
AcDbLine
 10
-64.05072222258548
 20
-22.99999999999994
 30
0.0
 11
-40.06126022258547
 21
-22.99999999999988
 31
0.0
  0
LINE
  5
B935
330
1F
100
AcDbEntity
  8
AM_11
100
AcDbLine
 10
-25.00000000000023
 20
-24.99999999999985
 30
0.0
 11
-65.00000000000023
 21
-24.99999999999994
 31
0.0
1001
GENIUS_GENODEF_13
1002
{
1000
HIER
1070
     0
1002
}
1002
{
1000
MANEDIT
1070
     0
1002
}
1002
{
1000
NOSEL
1070
     0
1002
}
1002
{
1000
BEHIND
1070
     0
1002
}
1002
{
1000
REACTOR
1002
}
1001
GENIUS_GENOBJ-N-CEN_13
1002
{
1000
OWNER
1000
GEN
1002
}
  0
LINE
  5
B936
330
1F
100
AcDbEntity
  8
AM_0
100
AcDbLine
 10
-250.0000000000002
 20
-23.00000000000028
 30
0.0
 11
-68.63284022258551
 21
-22.99999999999994
 31
0.0
  0
ARC
  5
B937
330
1F
100
AcDbEntity
  8
AM_0
100
AcDbCircle
 10
-254.0000000000001
 20
-26.00000000000033
 30
0.0
 40
5.0
100
AcDbArc
 50
36.86989764584565
 51
90.0
  0
LINE
  5
B938
330
1F
100
AcDbEntity
  8
AM_0
100
AcDbLine
 10
-70.1043872225855
 20
-19.48233899999993
 30
0.0
 11
-68.96857222258552
 21
-18.00188299999996
 31
0.0
  0
LINE
  5
B939
330
1F
100
AcDbEntity
  8
AM_0
100
AcDbLine
 10
-67.12549122258542
 20
-18.05170699999996
 30
0.0
 11
-67.42050422258547
 21
-21.88856199999995
 31
0.0
  0
LINE
  5
B93A
330
1F
100
AcDbEntity
  8
AM_0
100
AcDbLine
 10
-36.38778422258542
 20
-22.99999999999988
 30
0.0
 11
-29.46016222258549
 21
-22.99999999999988
 31
0.0
  0
LINE
  5
B93B
330
1F
100
AcDbEntity
  8
AM_0
100
AcDbLine
 10
-47.74763522258547
 20
-23.1179569999999
 30
0.0
 11
-39.65365522258548
 21
-23.10838599999988
 31
0.0
  0
LINE
  5
B93C
330
1F
100
AcDbEntity
  8
AM_0
100
AcDbLine
 10
-40.13232422258545
 20
-23.62402099999988
 30
0.0
 11
-48.25127622258548
 21
-23.63362099999992
 31
0.0
  0
LINE
  5
B93D
330
1F
100
AcDbEntity
  8
AM_0
100
AcDbLine
 10
-47.45728722258547
 20
-23.79467899999991
 30
0.0
 11
-46.85459322258544
 21
-23.8025739999999
 31
0.0
  0
LINE
  5
B93E
330
1F
100
AcDbEntity
  8
AM_0
100
AcDbLine
 10
-47.72665922258545
 20
-22.99999999999991
 30
0.0
 11
-47.74763522258547
 21
-23.1179569999999
 31
0.0
  0
LINE
  5
B93F
330
1F
100
AcDbEntity
  8
AM_0
100
AcDbLine
 10
-47.74763522258547
 20
-23.1179569999999
 30
0.0
 11
-48.25127622258548
 21
-23.63362099999992
 31
0.0
  0
LINE
  5
B940
330
1F
100
AcDbEntity
  8
AM_0
100
AcDbLine
 10
-48.25127622258548
 20
-23.63362099999992
 30
0.0
 11
-47.8734332225855
 21
-23.7008119999999
 31
0.0
  0
LINE
  5
B941
330
1F
100
AcDbEntity
  8
AM_0
100
AcDbLine
 10
-47.91975722258553
 20
-23.7124389999999
 30
0.0
 11
-47.45728722258547
 21
-23.79467899999991
 31
0.0
  0
LINE
  5
B942
330
1F
100
AcDbEntity
  8
AM_0
100
AcDbLine
 10
-48.25127622258548
 20
-23.63362099999992
 30
0.0
 11
-48.13860222258552
 21
-22.99999999999991
 31
0.0
  0
LINE
  5
B943
330
1F
100
AcDbEntity
  8
AM_0
100
AcDbLine
 10
-47.98760122258545
 20
-23.68050999999991
 30
0.0
 11
-47.99293322258551
 21
-23.71049499999992
 31
0.0
  0
LINE
  5
B944
330
1F
100
AcDbEntity
  8
AM_0
100
AcDbLine
 10
-48.02894222258544
 20
-23.70536699999991
 30
0.0
 11
-47.60559922258551
 21
-23.78064899999992
 31
0.0
  0
LINE
  5
B945
330
1F
100
AcDbEntity
  8
AM_0
100
AcDbLine
 10
-39.65411922258545
 20
-23.10796599999989
 30
0.0
 11
-39.62593322258544
 21
-22.99977599999988
 31
0.0
  0
LINE
  5
B946
330
1F
100
AcDbEntity
  8
AM_0
100
AcDbLine
 10
-39.38439122258546
 20
-23.27402799999987
 30
0.0
 11
-39.65387522258549
 21
-23.10825099999988
 31
0.0
  0
LINE
  5
B947
330
1F
100
AcDbEntity
  8
AM_0
100
AcDbLine
 10
-32.71724422258546
 20
-23.00004799999987
 30
0.0
 11
-32.46204822258551
 21
-23.14160499999985
 31
0.0
  0
LINE
  5
B948
330
1F
100
AcDbEntity
  8
AM_0
100
AcDbLine
 10
-25.14790322258545
 20
-23.60630299999985
 30
0.0
 11
-23.59446022258544
 21
-23.88254699999987
 31
0.0
  0
LINE
  5
B949
330
1F
100
AcDbEntity
  8
AM_0
100
AcDbLine
 10
-25.14790322258545
 20
-23.60630299999985
 30
0.0
 11
-25.23136022258552
 21
-23.09133299999984
 31
0.0
  0
LINE
  5
B94A
330
1F
100
AcDbEntity
  8
AM_0
100
AcDbLine
 10
-29.39248722258549
 20
-22.92548999999985
 30
0.0
 11
-29.36865022258553
 21
-22.99266099999988
 31
0.0
  0
ARC
  5
B94B
330
1F
100
AcDbEntity
  8
AM_0
100
AcDbCircle
 10
-27.1646782225855
 20
-22.43249899999986
 30
0.0
 40
1.296072287983969
100
AcDbArc
 50
201.642415849924
 51
269.7677576708899
  0
LINE
  5
B94C
330
1F
100
AcDbEntity
  8
AM_0
100
AcDbLine
 10
-27.47038422258549
 20
-22.89617499999985
 30
0.0
 11
-27.4206692225855
 21
-23.09328999999985
 31
0.0
  0
LINE
  5
B94D
330
1F
100
AcDbEntity
  8
AM_0
100
AcDbLine
 10
-27.61624022258547
 20
-23.31589699999986
 30
0.0
 11
-27.42104222258546
 21
-23.09372199999987
 31
0.0
  0
LINE
  5
B94E
330
1F
100
AcDbEntity
  8
AM_0
100
AcDbLine
 10
-27.42121822258548
 20
-23.09392199999988
 30
0.0
 11
-25.23136022258552
 21
-23.09133299999984
 31
0.0
  0
LINE
  5
B94F
330
1F
100
AcDbEntity
  8
AM_0
100
AcDbLine
 10
-25.14790322258545
 20
-23.60630299999985
 30
0.0
 11
-26.81565122258553
 21
-23.60827499999988
 31
0.0
  0
LINE
  5
B950
330
1F
100
AcDbEntity
  8
AM_0
100
AcDbLine
 10
-19.53147822258552
 20
-23.55117899999985
 30
0.0
 11
-19.56445722258547
 21
-23.55775099999985
 31
0.0
  0
LINE
  5
B951
330
1F
100
AcDbEntity
  8
AM_0
100
AcDbLine
 10
-13.77654922258545
 20
-21.82473999999984
 30
0.0
 11
-13.81411722258553
 21
-21.83968299999983
 31
0.0
  0
ELLIPSE
  5
B952
330
1F
100
AcDbEntity
  8
AM_0
100
AcDbEllipse
 10
-52.31193822258553
 20
8.704904000000084
 30
0.0
 11
-154.0597646456402
 21
88.8421023153077
 31
0.0
210
0.0
220
0.0
230
1.0
 40
0.08708642716879
 41
-1.65777853820479
 42
-1.6072896067602
  0
ELLIPSE
  5
B953
330
1F
100
AcDbEntity
  8
AM_0
100
AcDbEllipse
 10
-52.31193722258552
 20
8.704904000000084
 30
0.0
 11
-154.0597629130811
 21
88.8421013161877
 31
0.0
210
0.0
220
0.0
230
1.0
 40
0.08708642814817
 41
4.452289718153069
 42
4.497834200674909
  0
ELLIPSE
  5
B954
330
1F
100
AcDbEntity
  8
AM_0
100
AcDbEllipse
 10
-20.35462522258555
 20
26.81104700000014
 30
0.0
 11
0.1090828237409506
 21
24.99976201761899
 31
0.0
210
0.0
220
0.0
230
1.0
 40
0.9848077599999999
 41
1.9201812095835
 42
1.982599520822159
  0
ELLIPSE
  5
B955
330
1F
100
AcDbEntity
  8
AM_0
100
AcDbEllipse
 10
-20.35462522258555
 20
26.81104700000014
 30
0.0
 11
0.1090828237409506
 21
24.99976201761899
 31
0.0
210
0.0
220
0.0
230
1.0
 40
0.9848077599999999
 41
2.027029947520159
 42
2.212686043931769
  0
ELLIPSE
  5
B956
330
1F
100
AcDbEntity
  8
AM_0
100
AcDbEllipse
 10
-20.35462522258555
 20
26.81104700000014
 30
0.0
 11
0.1090828237409506
 21
24.99976201761899
 31
0.0
210
0.0
220
0.0
230
1.0
 40
0.9848077599999999
 41
2.49970386099349
 42
2.78800694101141
  0
ELLIPSE
  5
B957
330
1F
100
AcDbEntity
  8
AM_0
100
AcDbEllipse
 10
-27.6710072225855
 20
12.88244800000012
 30
0.0
 11
0.0083487499079962
 21
1.913378785809
 31
0.0
210
0.0
220
0.0
230
1.0
 40
0.9848081710173099
 41
1.04545218659924
 42
2.650818774191729
  0
ELLIPSE
  5
B958
330
1F
100
AcDbEntity
  8
AM_0
100
AcDbEllipse
 10
-25.79968422258554
 20
14.44835700000015
 30
0.0
 11
0.0013662536409994
 21
0.3131200192899999
 31
0.0
210
0.0
220
0.0
230
1.0
 40
0.9848078869964799
 41
0.260053816799883
 42
0.519185070161899
  0
ELLIPSE
  5
B959
330
1F
100
AcDbEntity
  8
AM_0
100
AcDbEllipse
 10
-24.63573622258556
 20
15.06747000000012
 30
0.0
 11
0.0026752475259988
 21
0.6131171635010001
 31
0.0
210
0.0
220
0.0
230
1.0
 40
0.98480892088537
 41
3.40164656057153
 42
4.97244291266826
  0
ELLIPSE
  5
B95A
330
1F
100
AcDbEntity
  8
AM_0
100
AcDbEllipse
 10
-24.67360322258556
 20
16.40107600000013
 30
0.0
 11
0.0013662536409994
 21
0.3131200192899999
 31
0.0
210
0.0
220
0.0
230
1.0
 40
0.9848078869964799
 41
-1.31074235224732
 42
0.519185070161899
  0
ELLIPSE
  5
B95B
330
1F
100
AcDbEntity
  8
AM_0
100
AcDbEllipse
 10
-25.35682522258557
 20
15.49616600000013
 30
0.0
 11
0.0025607280139988
 21
0.5868714133450001
 31
0.0
210
0.0
220
0.0
230
1.0
 40
0.9848077195051098
 41
3.401646863703979
 42
3.660778146161129
  0
ELLIPSE
  5
B95C
330
1F
100
AcDbEntity
  8
AM_0
100
AcDbEllipse
 10
-10.62325922258554
 20
5.425783000000137
 30
0.0
 11
0.0013662536409994
 21
0.3131200192899999
 31
0.0
210
0.0
220
0.0
230
1.0
 40
0.9848078869964799
 41
1.830850643191249
 42
2.62240793257078
  0
ELLIPSE
  5
B95D
330
1F
100
AcDbEntity
  8
AM_0
100
AcDbEllipse
 10
-9.940037222585544
 20
6.330693000000167
 30
0.0
 11
0.0025607280139988
 21
0.5868714133450001
 31
0.0
210
0.0
220
0.0
230
1.0
 40
0.9848077195051098
 41
0.260053859061322
 42
1.830850600929749
  0
ELLIPSE
  5
B95E
330
1F
100
AcDbEntity
  8
AM_0
100
AcDbEllipse
 10
-9.497178222585546
 20
7.378502000000167
 30
0.0
 11
0.0013662536409994
 21
0.3131200192899999
 31
0.0
210
0.0
220
0.0
230
1.0
 40
0.9848078869964799
 41
3.40164682144249
 42
6.023130788274059
  0
ELLIPSE
  5
B95F
330
1F
100
AcDbEntity
  8
AM_0
100
AcDbEllipse
 10
-10.66112622258555
 20
6.759389000000169
 30
0.0
 11
0.0026752475259988
 21
0.6131171635010001
 31
0.0
210
0.0
220
0.0
230
1.0
 40
0.98480892088537
 41
0.260053555929249
 42
0.519184617903524
  0
ELLIPSE
  5
B960
330
1F
100
AcDbEntity
  8
AM_0
100
AcDbEllipse
 10
-26.67882122258558
 20
16.2821090000001
 30
0.0
 11
0.0025607280139988
 21
0.5868714133450001
 31
0.0
210
0.0
220
0.0
230
1.0
 40
0.9848077195051098
 41
3.401646863703979
 42
3.660778146161129
  0
ELLIPSE
  5
B961
330
1F
100
AcDbEntity
  8
AM_0
100
AcDbEllipse
 10
-27.12168022258558
 20
15.23430000000013
 30
0.0
 11
0.0013662536409994
 21
0.3131200192899999
 31
0.0
210
0.0
220
0.0
230
1.0
 40
0.9848078869964799
 41
0.260053816799883
 42
0.519185070161899
  0
ELLIPSE
  5
B962
330
1F
100
AcDbEntity
  8
AM_0
100
AcDbEllipse
 10
-25.95773222258557
 20
15.85341300000013
 30
0.0
 11
0.0026752475259988
 21
0.6131171635010001
 31
0.0
210
0.0
220
0.0
230
1.0
 40
0.98480892088537
 41
3.40164656057153
 42
4.97244291266826
  0
ELLIPSE
  5
B963
330
1F
100
AcDbEntity
  8
AM_0
100
AcDbEllipse
 10
-25.99560022258557
 20
17.18702000000013
 30
0.0
 11
0.0013662536409994
 21
0.3131200192899999
 31
0.0
210
0.0
220
0.0
230
1.0
 40
0.9848078869964799
 41
-1.31074235224732
 42
0.519185070161899
  0
ELLIPSE
  5
B964
330
1F
100
AcDbEntity
  8
AM_0
100
AcDbEllipse
 10
-24.97144822258551
 20
17.56371400000011
 30
0.0
 11
0.0083487499079962
 21
1.913378785809
 31
0.0
210
0.0
220
0.0
230
1.0
 40
0.9848081710173099
 41
-0.177848482185287
 42
1.04545218659924
  0
ELLIPSE
  5
B965
330
1F
100
AcDbEntity
  8
AM_0
100
AcDbEllipse
 10
-19.25887622258565
 20
49.03433700000014
 30
0.0
 11
0.1312772644799406
 21
30.086316596743
 31
0.0
210
0.0
220
0.0
230
0.9999999999999998
 40
0.9848077232248499
 41
2.963743429185069
 42
3.16495987501093
  0
ELLIPSE
  5
B966
330
1F
100
AcDbEntity
  8
AM_0
100
AcDbEllipse
 10
-18.66213722258552
 20
17.04016500000014
 30
0.0
 11
0.0083487499079962
 21
1.913378785809
 31
0.0
210
0.0
220
0.0
230
1.0
 40
0.9848081710173099
 41
-0.280572908428719
 42
0.023367874461189
  0
ELLIPSE
  5
B967
330
1F
100
AcDbEntity
  8
AM_0
100
AcDbEllipse
 10
-18.50673222258552
 20
8.333685000000144
 30
0.0
 11
0.0432552535049804
 21
9.913302631447001
 31
0.0
210
0.0
220
0.0
230
1.0
 40
0.9848078312610699
 41
-0.953564541753329
 42
-0.5187466604897271
  0
ELLIPSE
  5
B968
330
1F
100
AcDbEntity
  8
AM_0
100
AcDbEllipse
 10
-12.06183022258557
 20
12.93584400000014
 30
0.0
 11
0.0083487499079962
 21
1.913378785809
 31
0.0
210
0.0
220
0.0
230
1.0
 40
0.9848081710173099
 41
-1.45486010256059
 42
-0.95356437891948
  0
ELLIPSE
  5
B969
330
1F
100
AcDbEntity
  8
AM_0
100
AcDbEllipse
 10
-4.232293222585497
 20
13.82710400000016
 30
0.0
 11
0.026557753688988
 21
6.086545059829
 31
0.0
210
0.0
220
0.0
230
1.0
 40
0.9848076176481399
 41
1.68673282775552
 42
2.355555745915919
  0
ELLIPSE
  5
B96A
330
1F
100
AcDbEntity
  8
AM_0
100
AcDbEllipse
 10
-9.831379222585553
 20
8.198242000000163
 30
0.0
 11
0.0083487499079962
 21
1.913378785809
 31
0.0
210
0.0
220
0.0
230
1.0
 40
0.9848081710173099
 41
4.187045184004269
 42
5.49714802680474
  0
ELLIPSE
  5
B96B
330
1F
100
AcDbEntity
  8
AM_0
100
AcDbEllipse
 10
-10.92598322258555
 20
6.300105000000144
 30
0.0
 11
0.0083487499079962
 21
1.913378785809
 31
0.0
210
0.0
220
0.0
230
1.0
 40
0.9848081710173099
 41
2.841463729328569
 42
4.187045184004269
  0
ELLIPSE
  5
B96C
330
1F
100
AcDbEntity
  8
AM_0
100
AcDbEllipse
 10
-20.37613122258551
 20
-24.22850299999984
 30
0.0
 11
0.1312772644799406
 21
30.086316596743
 31
0.0
210
0.0
220
0.0
230
0.9999999999999998
 40
0.9848077232248499
 41
-0.300128390757849
 42
-0.003309275063992
  0
ELLIPSE
  5
B96D
330
1F
100
AcDbEntity
  8
AM_0
100
AcDbEllipse
 10
-20.13223122258551
 20
7.770562000000154
 30
0.0
 11
0.0083487499079962
 21
1.913378785809
 31
0.0
210
0.0
220
0.0
230
1.0
 40
0.9848081710173099
 41
2.921481741251149
 42
3.138283731784409
  0
ELLIPSE
  5
B96E
330
1F
100
AcDbEntity
  8
AM_0
100
AcDbEllipse
 10
-18.37801222258562
 20
15.56996700000013
 30
0.0
 11
0.0432552535049804
 21
9.913302631447001
 31
0.0
210
0.0
220
0.0
230
1.0
 40
0.9848078312610699
 41
2.325749547057339
 42
2.921481667742509
  0
ELLIPSE
  5
B96F
330
1F
100
AcDbEntity
  8
AM_0
100
AcDbEllipse
 10
-34.22290522258552
 20
0.5633650000001183
 30
0.0
 11
0.0527376313869761
 21
12.086487944057
 31
0.0
210
0.0
220
0.0
230
1.0
 40
0.9848077247180199
 41
-0.8158435066536059
 42
-0.4907744171753711
  0
ELLIPSE
  5
B970
330
1F
100
AcDbEntity
  8
AM_0
100
AcDbEllipse
 10
-19.15924122258553
 20
11.81162500000013
 30
0.0
 11
0.0240513751009891
 21
5.512129527911995
 31
0.0
210
0.0
220
0.0
230
0.9999999999999998
 40
0.9848078310912098
 41
1.57509370716208
 42
4.716686058238829
  0
ELLIPSE
  5
B971
330
1F
100
AcDbEntity
  8
AM_0
100
AcDbEllipse
 10
-27.17680122258556
 20
15.23454100000015
 30
0.0
 11
0.0012450800769994
 21
0.28534928365
 31
0.0
210
0.0
220
0.0
230
1.0
 40
0.9848082368443199
 41
2.70567857759894
 42
3.401646733168789
  0
ELLIPSE
  5
B972
330
1F
100
AcDbEntity
  8
AM_0
100
AcDbEllipse
 10
-27.12168022258558
 20
15.23430000000013
 30
0.0
 11
0.0013662536409994
 21
0.3131200192899999
 31
0.0
210
0.0
220
0.0
230
1.0
 40
0.9848078869964799
 41
2.62240793257078
 42
3.40164682144249
  0
ELLIPSE
  5
B973
330
1F
100
AcDbEntity
  8
AM_0
100
AcDbEllipse
 10
-27.12168022258558
 20
15.23430000000013
 30
0.0
 11
0.0013662536409994
 21
0.3131200192899999
 31
0.0
210
0.0
220
0.0
230
1.0
 40
0.9848078869964799
 41
0.519185070161899
 42
2.62240793257078
  0
ELLIPSE
  5
B974
330
1F
100
AcDbEntity
  8
AM_0
100
AcDbEllipse
 10
-27.17680122258556
 20
15.23454100000015
 30
0.0
 11
0.0012450800769994
 21
0.28534928365
 31
0.0
210
0.0
220
0.0
230
1.0
 40
0.9848082368443199
 41
0.260053728526292
 42
0.4359134158864791
  0
ELLIPSE
  5
B975
330
1F
100
AcDbEntity
  8
AM_0
100
AcDbEllipse
 10
-26.67882122258558
 20
16.2821090000001
 30
0.0
 11
0.0025607280139988
 21
0.5868714133450001
 31
0.0
210
0.0
220
0.0
230
1.0
 40
0.9848077195051098
 41
3.660778146161129
 42
4.97244260953611
  0
ELLIPSE
  5
B976
330
1F
100
AcDbEntity
  8
AM_0
100
AcDbEllipse
 10
-26.73394222258556
 20
16.28235000000012
 30
0.0
 11
0.0026806722939988
 21
0.614642154347
 31
0.0
210
0.0
220
0.0
230
0.9999999999999998
 40
0.9848075646548899
 41
3.59566506629299
 42
3.66077619812052
  0
ELLIPSE
  5
B977
330
1F
100
AcDbEntity
  8
AM_0
100
AcDbEllipse
 10
-25.99560022258557
 20
17.18702000000013
 30
0.0
 11
0.0013662536409994
 21
0.3131200192899999
 31
0.0
210
0.0
220
0.0
230
1.0
 40
0.9848078869964799
 41
0.519185070161899
 42
1.830850643191249
  0
ELLIPSE
  5
B978
330
1F
100
AcDbEntity
  8
AM_0
100
AcDbEllipse
 10
-26.05072022258557
 20
17.18726000000015
 30
0.0
 11
0.0012450800769994
 21
0.28534928365
 31
0.0
210
0.0
220
0.0
230
1.0
 40
0.9848082368443199
 41
-1.310742263973649
 42
0.4359103859841961
  0
ELLIPSE
  5
B979
330
1F
100
AcDbEntity
  8
AM_0
100
AcDbEllipse
 10
-25.85480422258553
 20
14.44859800000011
 30
0.0
 11
0.0012450800769994
 21
0.28534928365
 31
0.0
210
0.0
220
0.0
230
1.0
 40
0.9848082368443199
 41
2.705665448025039
 42
3.401646733168789
  0
ELLIPSE
  5
B97A
330
1F
100
AcDbEntity
  8
AM_0
100
AcDbEllipse
 10
-25.79968422258554
 20
14.44835700000015
 30
0.0
 11
0.0013662536409994
 21
0.3131200192899999
 31
0.0
210
0.0
220
0.0
230
1.0
 40
0.9848078869964799
 41
2.62240793257078
 42
3.40164682144249
  0
ELLIPSE
  5
B97B
330
1F
100
AcDbEntity
  8
AM_0
100
AcDbEllipse
 10
-25.79968422258554
 20
14.44835700000015
 30
0.0
 11
0.0013662536409994
 21
0.3131200192899999
 31
0.0
210
0.0
220
0.0
230
1.0
 40
0.9848078869964799
 41
0.519185070161899
 42
2.62240793257078
  0
ELLIPSE
  5
B97C
330
1F
100
AcDbEntity
  8
AM_0
100
AcDbEllipse
 10
-25.85480422258553
 20
14.44859800000011
 30
0.0
 11
0.0012450800769994
 21
0.28534928365
 31
0.0
210
0.0
220
0.0
230
1.0
 40
0.9848082368443199
 41
0.260053728526292
 42
0.4359275554276511
  0
ELLIPSE
  5
B97D
330
1F
100
AcDbEntity
  8
AM_0
100
AcDbEllipse
 10
-26.01285322258556
 20
15.85365400000012
 30
0.0
 11
0.0025540739619988
 21
0.585346427861
 31
0.0
210
0.0
220
0.0
230
0.9999999999999998
 40
0.9848074321092301
 41
3.40164693621985
 42
4.972442537020399
  0
ELLIPSE
  5
B97E
330
1F
100
AcDbEntity
  8
AM_0
100
AcDbEllipse
 10
-27.19521722258557
 20
15.3178390000001
 30
0.0
 11
-0.0513232678510004
 21
0.1933026698659999
 31
0.0
210
0.0
220
0.0
230
1.0
 40
0.16781
 41
0.041958058580473
 42
1.525487778894409
  0
ELLIPSE
  5
B97F
330
1F
100
AcDbEntity
  8
AM_0
100
AcDbEllipse
 10
-27.20850322258556
 20
15.23467900000014
 30
0.0
 11
0.0003757379679998
 21
0.086112180265
 31
0.0
210
0.0
220
0.0
230
1.0
 40
0.9847990431177599
 41
0.260056048306478
 42
3.401649052951819
  0
ELLIPSE
  5
B980
330
1F
100
AcDbEntity
  8
AM_0
100
AcDbEllipse
 10
-27.15233122258561
 20
15.15121600000014
 30
0.0
 11
-0.0513232678510004
 21
0.1933026698659999
 31
0.0
210
0.0
220
0.0
230
1.0
 40
0.16781
 41
1.525487778894409
 42
3.00901933219698
  0
ELLIPSE
  5
B981
330
1F
100
AcDbEntity
  8
AM_0
100
AcDbEllipse
 10
-26.52825122258557
 20
15.49492400000014
 30
0.0
 11
-0.0513232678510004
 21
0.1933026698659999
 31
0.0
210
0.0
220
0.0
230
1.0
 40
0.16781
 41
0.041958058580473
 42
1.525487778894409
  0
ELLIPSE
  5
B982
330
1F
100
AcDbEntity
  8
AM_0
100
AcDbEllipse
 10
-25.91368122258561
 20
15.48008700000013
 30
0.0
 11
-0.0513232678510004
 21
0.1933026698659999
 31
0.0
210
0.0
220
0.0
230
1.0
 40
0.16781
 41
1.525487778894409
 42
3.00901933219698
  0
ELLIPSE
  5
B983
330
1F
100
AcDbEntity
  8
AM_0
100
AcDbEllipse
 10
-25.35682522258557
 20
15.49616600000013
 30
0.0
 11
0.0025607280139988
 21
0.5868714133450001
 31
0.0
210
0.0
220
0.0
230
1.0
 40
0.9848077195051098
 41
3.660778146161129
 42
4.97244260953611
  0
ELLIPSE
  5
B984
330
1F
100
AcDbEntity
  8
AM_0
100
AcDbEllipse
 10
-25.41194622258555
 20
15.49640600000015
 30
0.0
 11
0.0026837455039988
 21
0.6146421409360001
 31
0.0
210
0.0
220
0.0
230
1.0
 40
0.9848075646548901
 41
3.59567011397172
 42
3.66078123756406
  0
ELLIPSE
  5
B985
330
1F
100
AcDbEntity
  8
AM_0
100
AcDbEllipse
 10
-24.67360322258556
 20
16.40107600000013
 30
0.0
 11
0.0013662536409994
 21
0.3131200192899999
 31
0.0
210
0.0
220
0.0
230
1.0
 40
0.9848078869964799
 41
0.519185070161899
 42
1.830850643191249
  0
ELLIPSE
  5
B986
330
1F
100
AcDbEntity
  8
AM_0
100
AcDbEllipse
 10
-24.72872422258555
 20
16.40131700000011
 30
0.0
 11
0.0012450800769994
 21
0.28534928365
 31
0.0
210
0.0
220
0.0
230
1.0
 40
0.9848082368443199
 41
-1.310742263973649
 42
0.4359184657231451
  0
ELLIPSE
  5
B987
330
1F
100
AcDbEntity
  8
AM_0
100
AcDbEllipse
 10
-25.95543722258557
 20
16.48823200000015
 30
0.0
 11
0.1936875229159999
 21
0.0498512132910004
 31
0.0
210
0.0
220
0.0
230
1.0
 40
0.04465
 41
1.73957077086481
 42
2.6198503015092
  0
ELLIPSE
  5
B988
330
1F
100
AcDbEntity
  8
AM_0
100
AcDbEllipse
 10
-26.73394222258556
 20
16.28235000000012
 30
0.0
 11
0.0026819015779988
 21
0.6146421489839998
 31
0.0
210
0.0
220
0.0
230
1.0
 40
0.9848075646548901
 41
3.401646902775859
 42
3.59566708536456
  0
ELLIPSE
  5
B989
330
1F
100
AcDbEntity
  8
AM_0
100
AcDbEllipse
 10
-26.76564522258556
 20
16.28248800000011
 30
0.0
 11
0.0035512436869984
 21
0.813879252369
 31
0.0
210
0.0
220
0.0
230
1.0
 40
0.9848074732733197
 41
3.401646925833309
 42
4.972442547406919
  0
ELLIPSE
  5
B98A
330
1F
100
AcDbEntity
  8
AM_0
100
AcDbEllipse
 10
-19.19886922258553
 20
11.81179700000015
 30
0.0
 11
0.0229594376539896
 21
5.263083921635997
 31
0.0
210
0.0
220
0.0
230
1.0
 40
0.9848077210270499
 41
0.469137595243026
 42
0.51918413487401
  0
ELLIPSE
  5
B98B
330
1F
100
AcDbEntity
  8
AM_0
100
AcDbEllipse
 10
-19.19886922258553
 20
11.81179800000015
 30
0.0
 11
0.0229647007379896
 21
5.263083898672999
 31
0.0
210
0.0
220
0.0
230
1.0
 40
0.9848077210270501
 41
2.674467738102209
 42
3.141593005574859
  0
ELLIPSE
  5
B98C
330
1F
100
AcDbEntity
  8
AM_0
100
AcDbEllipse
 10
-19.19886922258553
 20
11.81179800000015
 30
0.0
 11
0.0229647007379896
 21
5.263083898672999
 31
0.0
210
0.0
220
0.0
230
1.0
 40
0.9848077210270501
 41
2.57538808066483
 42
2.62240685208139
  0
ELLIPSE
  5
B98D
330
1F
100
AcDbEntity
  8
AM_0
100
AcDbEllipse
 10
-19.19886922258553
 20
11.81179800000015
 30
0.0
 11
0.0229647007379896
 21
5.263083898672999
 31
0.0
210
0.0
220
0.0
230
1.0
 40
0.9848077210270501
 41
3.141593005574859
 42
5.814047012764489
  0
ELLIPSE
  5
B98E
330
1F
100
AcDbEntity
  8
AM_0
100
AcDbEllipse
 10
-26.12974222258557
 20
17.1654620000001
 30
0.0
 11
0.1936875229159999
 21
0.0498512132910004
 31
0.0
210
0.0
220
0.0
230
1.0
 40
0.04465
 41
1.73957077086481
 42
2.613924509923749
  0
ELLIPSE
  5
B98F
330
1F
100
AcDbEntity
  8
AM_0
100
AcDbEllipse
 10
-26.08242322258556
 20
17.18739900000014
 30
0.0
 11
0.0003757379679998
 21
0.086112180265
 31
0.0
210
0.0
220
0.0
230
1.0
 40
0.9847990431177599
 41
-1.31074458373775
 42
1.830848411698159
  0
ELLIPSE
  5
B990
330
1F
100
AcDbEntity
  8
AM_0
100
AcDbEllipse
 10
-25.9656452225856
 20
17.20903200000015
 30
0.0
 11
0.1936875229159999
 21
0.0498512132910004
 31
0.0
210
0.0
220
0.0
230
1.0
 40
0.04465
 41
0.256056746699429
 42
1.73957077086481
  0
ELLIPSE
  5
B991
330
1F
100
AcDbEntity
  8
AM_0
100
AcDbEllipse
 10
-24.69085722258554
 20
15.06771000000014
 30
0.0
 11
0.0025540739619988
 21
0.585346427861
 31
0.0
210
0.0
220
0.0
230
0.9999999999999998
 40
0.9848074321092301
 41
3.40164693621985
 42
4.972442537020399
  0
ELLIPSE
  5
B992
330
1F
100
AcDbEntity
  8
AM_0
100
AcDbEllipse
 10
-26.04455622258555
 20
15.85379200000011
 30
0.0
 11
0.0016847318529992
 21
0.386109324476
 31
0.0
210
0.0
220
0.0
230
1.0
 40
0.9848075563371301
 41
3.4016469048746
 42
4.972442568365579
  0
ELLIPSE
  5
B993
330
1F
100
AcDbEntity
  8
AM_0
100
AcDbEllipse
 10
-25.88650722258552
 20
14.44873600000011
 30
0.0
 11
0.0003757379679998
 21
0.086112180265
 31
0.0
210
0.0
220
0.0
230
1.0
 40
0.9847990431177599
 41
0.260056048306478
 42
3.401649052951819
  0
ELLIPSE
  5
B994
330
1F
100
AcDbEntity
  8
AM_0
100
AcDbEllipse
 10
-25.83033522258557
 20
14.36527300000011
 30
0.0
 11
-0.0513232678510004
 21
0.1933026698659999
 31
0.0
210
0.0
220
0.0
230
1.0
 40
0.16781
 41
1.525487778894409
 42
3.00901933219698
  0
ELLIPSE
  5
B995
330
1F
100
AcDbEntity
  8
AM_0
100
AcDbEllipse
 10
-25.87322022258553
 20
14.53189600000013
 30
0.0
 11
-0.0513232678510004
 21
0.1933026698659999
 31
0.0
210
0.0
220
0.0
230
1.0
 40
0.16781
 41
0.041958058580473
 42
1.525487778894409
  0
ELLIPSE
  5
B996
330
1F
100
AcDbEntity
  8
AM_0
100
AcDbEllipse
 10
-25.20625522258552
 20
14.70898000000011
 30
0.0
 11
-0.0513232678510004
 21
0.1933026698659999
 31
0.0
210
0.0
220
0.0
230
1.0
 40
0.16781
 41
0.041958058580473
 42
1.525487778894409
  0
ELLIPSE
  5
B997
330
1F
100
AcDbEntity
  8
AM_0
100
AcDbEllipse
 10
-25.6419352225856
 20
15.95131800000013
 30
0.0
 11
0.1936875229159999
 21
0.0498512132910004
 31
0.0
210
0.0
220
0.0
230
1.0
 40
0.04465
 41
0.256056746699429
 42
1.73957077086481
  0
ELLIPSE
  5
B998
330
1F
100
AcDbEntity
  8
AM_0
100
AcDbEllipse
 10
-24.59168522258556
 20
14.6941440000001
 30
0.0
 11
-0.0513232678510004
 21
0.1933026698659999
 31
0.0
210
0.0
220
0.0
230
1.0
 40
0.16781
 41
1.525487778894409
 42
3.00901933219698
  0
ELLIPSE
  5
B999
330
1F
100
AcDbEntity
  8
AM_0
100
AcDbEllipse
 10
-48.81166022258554
 20
14.77468500000009
 30
0.0
 11
-154.0597629130811
 21
88.8421013161877
 31
0.0
210
0.0
220
0.0
230
1.0
 40
0.08708642814817
 41
4.44386794817636
 42
4.487056150500059
  0
ELLIPSE
  5
B99A
330
1F
100
AcDbEntity
  8
AM_0
100
AcDbEllipse
 10
-48.81166122258554
 20
14.77468400000009
 30
0.0
 11
-154.0597681107572
 21
88.8421043135477
 31
0.0
210
0.0
220
0.0
230
1.0
 40
0.08708643083305
 41
-1.6591662012368
 42
-1.619527073349179
  0
ELLIPSE
  5
B99B
330
1F
100
AcDbEntity
  8
AM_0
100
AcDbEllipse
 10
-24.63344122258556
 20
15.70228900000012
 30
0.0
 11
0.1936875229159999
 21
0.0498512132910004
 31
0.0
210
0.0
220
0.0
230
1.0
 40
0.04465
 41
1.73957077086481
 42
2.6198503015092
  0
ELLIPSE
  5
B99C
330
1F
100
AcDbEntity
  8
AM_0
100
AcDbEllipse
 10
-25.41194622258555
 20
15.49640700000014
 30
0.0
 11
0.0026819015779988
 21
0.6146421489839998
 31
0.0
210
0.0
220
0.0
230
1.0
 40
0.9848075646548901
 41
3.401646902775859
 42
3.59566708536456
  0
ELLIPSE
  5
B99D
330
1F
100
AcDbEntity
  8
AM_0
100
AcDbEllipse
 10
-25.44364822258555
 20
15.49654500000014
 30
0.0
 11
0.0035512436869984
 21
0.813879252369
 31
0.0
210
0.0
220
0.0
230
1.0
 40
0.9848074732733197
 41
3.401646925833309
 42
4.972442547406919
  0
ELLIPSE
  5
B99E
330
1F
100
AcDbEntity
  8
AM_0
100
AcDbEllipse
 10
-24.80774622258556
 20
16.37951900000013
 30
0.0
 11
0.1936875229159999
 21
0.0498512132910004
 31
0.0
210
0.0
220
0.0
230
1.0
 40
0.04465
 41
1.73957077086481
 42
2.613924509923749
  0
ELLIPSE
  5
B99F
330
1F
100
AcDbEntity
  8
AM_0
100
AcDbEllipse
 10
-24.76042722258554
 20
16.40145500000011
 30
0.0
 11
0.0003757379679998
 21
0.086112180265
 31
0.0
210
0.0
220
0.0
230
1.0
 40
0.9847990431177599
 41
-1.31074458373775
 42
1.830848411698159
  0
ELLIPSE
  5
B9A0
330
1F
100
AcDbEntity
  8
AM_0
100
AcDbEllipse
 10
-24.64364822258559
 20
16.42308800000012
 30
0.0
 11
0.1936875229159999
 21
0.0498512132910004
 31
0.0
210
0.0
220
0.0
230
1.0
 40
0.04465
 41
0.256056746699429
 42
1.73957077086481
  0
ELLIPSE
  5
B9A1
330
1F
100
AcDbEntity
  8
AM_0
100
AcDbEllipse
 10
-24.72255922258554
 20
15.06784900000013
 30
0.0
 11
0.0016847318529992
 21
0.386109324476
 31
0.0
210
0.0
220
0.0
230
1.0
 40
0.9848075563371301
 41
3.4016469048746
 42
4.972442568365579
  0
ELLIPSE
  5
B9A2
330
1F
100
AcDbEntity
  8
AM_0
100
AcDbEllipse
 10
-20.0188522225855
 20
11.81537600000015
 30
0.0
 11
0.0211620678059904
 21
4.849953831417998
 31
0.0
210
0.0
220
0.0
230
1.0
 40
0.98480783505155
 41
0.0
 42
0.447188376343047
  0
ELLIPSE
  5
B9A3
330
1F
100
AcDbEntity
  8
AM_0
100
AcDbEllipse
 10
-19.19886922258553
 20
11.81179800000015
 30
0.0
 11
0.0229647007379896
 21
5.263083898672999
 31
0.0
210
0.0
220
0.0
230
1.0
 40
0.9848077210270501
 41
2.622407859970029
 42
2.674467738102209
  0
ELLIPSE
  5
B9A4
330
1F
100
AcDbEntity
  8
AM_0
100
AcDbEllipse
 10
-19.19886922258553
 20
11.81179800000015
 30
0.0
 11
0.0229647007379896
 21
5.263083898672999
 31
0.0
210
0.0
220
0.0
230
1.0
 40
0.9848077210270501
 41
0.5191851427626731
 42
0.570111386854746
  0
ELLIPSE
  5
B9A5
330
1F
100
AcDbEntity
  8
AM_0
100
AcDbEllipse
 10
-20.0188522225855
 20
11.81537600000015
 30
0.0
 11
0.0211620678059904
 21
4.849953831417998
 31
0.0
210
0.0
220
0.0
230
1.0
 40
0.98480783505155
 41
-0.5734729118740361
 42
0.0
  0
ELLIPSE
  5
B9A6
330
1F
100
AcDbEntity
  8
AM_0
100
AcDbEllipse
 10
-20.0188522225855
 20
11.81537600000015
 30
0.0
 11
0.0211620678059904
 21
4.849953831417998
 31
0.0
210
0.0
220
0.0
230
1.0
 40
0.98480783505155
 41
2.694362219600229
 42
3.715064907682229
  0
ELLIPSE
  5
B9A7
330
1F
100
AcDbEntity
  8
AM_0
100
AcDbEllipse
 10
-24.31993922258559
 20
15.16537500000015
 30
0.0
 11
0.1936875229159999
 21
0.0498512132910004
 31
0.0
210
0.0
220
0.0
230
1.0
 40
0.04465
 41
0.256056746699429
 42
1.73957077086481
  0
ELLIPSE
  5
B9A8
330
1F
100
AcDbEntity
  8
AM_0
100
AcDbEllipse
 10
-51.02389522258551
 20
10.93848100000008
 30
0.0
 11
-153.7645912177442
 21
88.67188377744174
 31
0.0
210
0.0
220
0.0
230
1.0
 40
0.08708643036842
 41
-1.656413506518379
 42
-1.62946410718771
  0
ELLIPSE
  5
B9A9
330
1F
100
AcDbEntity
  8
AM_0
100
AcDbEllipse
 10
-24.22969922258559
 20
23.55684500000012
 30
0.0
 11
0.0010908282369995
 21
0.249997620176
 31
0.0
210
0.0
220
0.0
230
1.0
 40
0.286892
 41
-1.050136798018469
 42
0.0
  0
ELLIPSE
  5
B9AA
330
1F
100
AcDbEntity
  8
AM_0
100
AcDbEllipse
 10
-50.09969722258557
 20
12.54111000000008
 30
0.0
 11
-153.7645574328491
 21
88.67186429460666
 31
0.0
210
0.0
220
0.0
230
0.9999999999999998
 40
0.08708641006628
 41
-1.656413486656159
 42
-1.62354601373847
  0
ELLIPSE
  5
B9AB
330
1F
100
AcDbEntity
  8
AM_0
100
AcDbEllipse
 10
-35.74935622258553
 20
19.25706800000011
 30
0.0
 11
0.0017453251799992
 21
0.3999961922820001
 31
0.0
210
0.0
220
0.0
230
1.0
 40
0.9848074999999999
 41
3.14159300503297
 42
3.864326954499519
  0
ELLIPSE
  5
B9AC
330
1F
100
AcDbEntity
  8
AM_0
100
AcDbEllipse
 10
-10.66112622258555
 20
6.759389000000169
 30
0.0
 11
0.0026752475259988
 21
0.6131171635010001
 31
0.0
210
0.0
220
0.0
230
1.0
 40
0.98480892088537
 41
0.519184617903524
 42
1.83085090406258
  0
ELLIPSE
  5
B9AD
330
1F
100
AcDbEntity
  8
AM_0
100
AcDbEllipse
 10
-10.71624722258553
 20
6.759630000000186
 30
0.0
 11
0.0025540739619988
 21
0.585346427861
 31
0.0
210
0.0
220
0.0
230
0.9999999999999998
 40
0.9848074321092301
 41
0.260053931577106
 42
0.4781445500840931
  0
ELLIPSE
  5
B9AE
330
1F
100
AcDbEntity
  8
AM_0
100
AcDbEllipse
 10
-10.67837922258553
 20
5.426023000000157
 30
0.0
 11
0.0012450800769994
 21
0.28534928365
 31
0.0
210
0.0
220
0.0
230
1.0
 40
0.9848082368443199
 41
2.705675547696909
 42
4.972442740071099
  0
ELLIPSE
  5
B9AF
330
1F
100
AcDbEntity
  8
AM_0
100
AcDbEllipse
 10
-10.62325922258554
 20
5.425783000000137
 30
0.0
 11
0.0013662536409994
 21
0.3131200192899999
 31
0.0
210
0.0
220
0.0
230
1.0
 40
0.9848078869964799
 41
2.62240793257078
 42
4.972442651797519
  0
ELLIPSE
  5
B9B0
330
1F
100
AcDbEntity
  8
AM_0
100
AcDbEllipse
 10
-9.99515822258553
 20
6.330934000000183
 30
0.0
 11
0.0026819015779988
 21
0.6146421489839998
 31
0.0
210
0.0
220
0.0
230
1.0
 40
0.9848075646548901
 41
0.260053898133154
 42
1.83085056185786
  0
ELLIPSE
  5
B9B1
330
1F
100
AcDbEntity
  8
AM_0
100
AcDbEllipse
 10
-9.552299222585531
 20
7.378743000000156
 30
0.0
 11
0.0012450800769994
 21
0.28534928365
 31
0.0
210
0.0
220
0.0
230
1.0
 40
0.9848082368443199
 41
3.401646733168789
 42
6.02313087654787
  0
ELLIPSE
  5
B9B2
330
1F
100
AcDbEntity
  8
AM_0
100
AcDbEllipse
 10
-10.74794922258553
 20
6.759768000000178
 30
0.0
 11
0.0016847318529992
 21
0.386109324476
 31
0.0
210
0.0
220
0.0
230
1.0
 40
0.9848075563371301
 41
0.260053900231892
 42
1.830850559759119
  0
ELLIPSE
  5
B9B3
330
1F
100
AcDbEntity
  8
AM_0
100
AcDbEllipse
 10
-11.08111122258554
 20
6.66193900000016
 30
0.0
 11
0.1936875229159999
 21
0.0498512132910004
 31
0.0
210
0.0
220
0.0
230
1.0
 40
0.04465
 41
1.73957077086481
 42
2.616823585514209
  0
ELLIPSE
  5
B9B4
330
1F
100
AcDbEntity
  8
AM_0
100
AcDbEllipse
 10
-10.80936522258554
 20
7.133170000000177
 30
0.0
 11
-0.0513232678510004
 21
0.1933026698659999
 31
0.0
210
0.0
220
0.0
230
1.0
 40
0.16781
 41
0.041958058580473
 42
1.525487778894409
  0
ELLIPSE
  5
B9B5
330
1F
100
AcDbEntity
  8
AM_0
100
AcDbEllipse
 10
-10.75740122258554
 20
5.404225000000167
 30
0.0
 11
0.1936875229159999
 21
0.0498512132910004
 31
0.0
210
0.0
220
0.0
230
1.0
 40
0.04465
 41
1.73957077086481
 42
2.6198503015092
  0
ELLIPSE
  5
B9B6
330
1F
100
AcDbEntity
  8
AM_0
100
AcDbEllipse
 10
-10.71008222258552
 20
5.426162000000147
 30
0.0
 11
0.0003757379679998
 21
0.086112180265
 31
0.0
210
0.0
220
0.0
230
1.0
 40
0.9847990431177599
 41
1.830848411698159
 42
4.97244042030945
  0
ELLIPSE
  5
B9B7
330
1F
100
AcDbEntity
  8
AM_0
100
AcDbEllipse
 10
-10.59330422258557
 20
5.447795000000155
 30
0.0
 11
0.1936875229159999
 21
0.0498512132910004
 31
0.0
210
0.0
220
0.0
230
1.0
 40
0.04465
 41
0.256056746699429
 42
1.73957077086481
  0
ELLIPSE
  5
B9B8
330
1F
100
AcDbEntity
  8
AM_0
100
AcDbEllipse
 10
-9.570715222585533
 20
7.462041000000169
 30
0.0
 11
-0.0513232678510004
 21
0.1933026698659999
 31
0.0
210
0.0
220
0.0
230
1.0
 40
0.16781
 41
0.041958058580473
 42
1.525487778894409
  0
ELLIPSE
  5
B9B9
330
1F
100
AcDbEntity
  8
AM_0
100
AcDbEllipse
 10
-10.02686022258552
 20
6.331072000000176
 30
0.0
 11
0.0035512436869984
 21
0.813879252369
 31
0.0
210
0.0
220
0.0
230
1.0
 40
0.9848074732733197
 41
0.260053921190573
 42
1.830850538800419
  0
ELLIPSE
  5
B9BA
330
1F
100
AcDbEntity
  8
AM_0
100
AcDbEllipse
 10
-10.19479522258558
 20
7.118333000000177
 30
0.0
 11
-0.0513232678510004
 21
0.1933026698659999
 31
0.0
210
0.0
220
0.0
230
1.0
 40
0.16781
 41
1.525487778894409
 42
3.00901933219698
  0
ELLIPSE
  5
B9BB
330
1F
100
AcDbEntity
  8
AM_0
100
AcDbEllipse
 10
-10.76760922258557
 20
6.125025000000164
 30
0.0
 11
0.1936875229159999
 21
0.0498512132910004
 31
0.0
210
0.0
220
0.0
230
1.0
 40
0.04465
 41
0.256056746699429
 42
1.73957077086481
  0
ELLIPSE
  5
B9BC
330
1F
100
AcDbEntity
  8
AM_0
100
AcDbEllipse
 10
-9.527830222585578
 20
7.295418000000154
 30
0.0
 11
-0.0513232678510004
 21
0.1933026698659999
 31
0.0
210
0.0
220
0.0
230
1.0
 40
0.16781
 41
1.525487778894409
 42
3.00901933219698
  0
ELLIPSE
  5
B9BD
330
1F
100
AcDbEntity
  8
AM_0
100
AcDbEllipse
 10
-9.584002222585525
 20
7.378881000000149
 30
0.0
 11
0.0003757379679998
 21
0.086112180265
 31
0.0
210
0.0
220
0.0
230
1.0
 40
0.9847990431177599
 41
3.401649052951819
 42
6.023128556762
  0
ELLIPSE
  5
B9BE
330
1F
100
AcDbEntity
  8
AM_0
100
AcDbEllipse
 10
-51.02389422258551
 20
10.93848200000007
 30
0.0
 11
-153.7645860200681
 21
88.67188078008267
 31
0.0
210
0.0
220
0.0
230
0.9999999999999998
 40
0.08708642767839
 41
4.429815782024929
 42
4.48377941831236
  0
ELLIPSE
  5
B9BF
330
1F
100
AcDbEntity
  8
AM_0
100
AcDbEllipse
 10
-50.09970322258556
 20
12.54110700000009
 30
0.0
 11
-153.7645851537881
 21
88.67188028052268
 31
0.0
210
0.0
220
0.0
230
1.0
 40
0.08708642253521
 41
4.431807756505699
 42
4.48345631220542
  0
ELLIPSE
  5
B9C0
330
1F
100
AcDbEntity
  8
AM_0
100
AcDbEllipse
 10
-52.62484922258551
 20
13.89989000000008
 30
0.0
 11
2.216218742711996
 21
1.700499420377005
 31
0.0
210
0.0
220
0.0
230
1.0
 40
0.9598048000263499
 41
3.136428426323379
 42
3.14153675306698
  0
ELLIPSE
  5
B9C1
330
1F
100
AcDbEntity
  8
AM_0
100
AcDbEllipse
 10
-52.61963922258548
 20
13.90387100000009
 30
0.0
 11
2.221519691026996
 21
1.704362127712004
 31
0.0
210
0.0
220
0.0
230
1.0
 40
0.95868035714286
 41
0.0
 42
1.57927460046977
  0
ELLIPSE
  5
B9C2
330
1F
100
AcDbEntity
  8
AM_0
100
AcDbEllipse
 10
-52.61963922258548
 20
13.90387100000009
 30
0.0
 11
2.221519691026996
 21
1.704362127712004
 31
0.0
210
0.0
220
0.0
230
1.0
 40
0.95868035714286
 41
3.141593015161949
 42
6.283184986629619
  0
ELLIPSE
  5
B9C3
330
1F
100
AcDbEntity
  8
AM_0
100
AcDbEllipse
 10
-52.72353922258554
 20
14.03929800000008
 30
0.0
 11
2.221519691026996
 21
1.704362127712004
 31
0.0
210
0.0
220
0.0
230
1.0
 40
0.95868035714286
 41
0.0
 42
0.9153949560175069
  0
ELLIPSE
  5
B9C4
330
1F
100
AcDbEntity
  8
AM_0
100
AcDbEllipse
 10
-29.13543522258547
 20
-13.12006499999984
 30
0.0
 11
0.5252408984149942
 21
2.953662472022001
 31
0.0
210
0.0
220
0.0
230
1.0
 40
0.9848076666666699
 41
0.020600889037093
 42
1.57079600496478
  0
ELLIPSE
  5
B9C5
330
1F
100
AcDbEntity
  8
AM_0
100
AcDbEllipse
 10
-52.35438122258557
 20
13.87505900000007
 30
0.0
 11
2.380199668956996
 21
1.826102279692004
 31
0.0
210
0.0
220
0.0
230
0.9999999999999998
 40
0.95868033333333
 41
-0.558547514965504
 42
0.0
  0
ELLIPSE
  5
B9C6
330
1F
100
AcDbEntity
  8
AM_0
100
AcDbEllipse
 10
-52.58434322258557
 20
14.17479700000009
 30
0.0
 11
2.380199668956996
 21
1.826102279692004
 31
0.0
210
0.0
220
0.0
230
0.9999999999999998
 40
0.95868033333333
 41
4.688674691064839
 42
6.217459572859599
  0
ELLIPSE
  5
B9C7
330
1F
100
AcDbEntity
  8
AM_0
100
AcDbEllipse
 10
-52.35438122258557
 20
13.87505900000007
 30
0.0
 11
2.380199668956996
 21
1.826102279692004
 31
0.0
210
0.0
220
0.0
230
0.9999999999999998
 40
0.95868033333333
 41
3.141593015060279
 42
5.72463747907799
  0
ELLIPSE
  5
B9C8
330
1F
100
AcDbEntity
  8
AM_0
100
AcDbEllipse
 10
-52.35438122258557
 20
13.87505900000007
 30
0.0
 11
2.380199668956996
 21
1.826102279692004
 31
0.0
210
0.0
220
0.0
230
0.9999999999999998
 40
0.95868033333333
 41
0.0
 42
3.141593015060279
  0
ELLIPSE
  5
B9C9
330
1F
100
AcDbEntity
  8
AM_0
100
AcDbEllipse
 10
-19.58473622258549
 20
11.81348100000013
 30
0.0
 11
0.0181077487409918
 21
4.149960494924999
 31
0.0
210
0.0
220
0.0
230
1.0
 40
0.9848077108433699
 41
-1.56649928810007
 42
4.716685716566509
  0
ELLIPSE
  5
B9CA
330
1F
100
AcDbEntity
  8
AM_0
100
AcDbEllipse
 10
-19.63486322258558
 20
11.81370000000015
 30
0.0
 11
0.0202894052159908
 21
4.649955735277
 31
0.0
210
0.0
220
0.0
230
0.9999999999999998
 40
0.9848077419354799
 41
3.141593005332119
 42
4.71238899970199
  0
ELLIPSE
  5
B9CB
330
1F
100
AcDbEntity
  8
AM_0
100
AcDbEllipse
 10
-19.94939322258557
 20
11.81507200000015
 30
0.0
 11
0.0202894052159908
 21
4.649955735277
 31
0.0
210
0.0
220
0.0
230
0.9999999999999998
 40
0.9848077419354799
 41
0.0
 42
0.8884997378741321
  0
ELLIPSE
  5
B9CC
330
1F
100
AcDbEntity
  8
AM_0
100
AcDbEllipse
 10
-19.94939322258557
 20
11.81507200000015
 30
0.0
 11
0.0202894052159908
 21
4.649955735277
 31
0.0
210
0.0
220
0.0
230
0.9999999999999998
 40
0.9848077419354799
 41
2.25372036908643
 42
3.141593005332119
  0
ELLIPSE
  5
B9CD
330
1F
100
AcDbEntity
  8
AM_0
100
AcDbEllipse
 10
-19.63486322258558
 20
11.81370000000015
 30
0.0
 11
0.0202894052159908
 21
4.649955735277
 31
0.0
210
0.0
220
0.0
230
0.9999999999999998
 40
0.9848077419354799
 41
4.71238899970199
 42
6.283184995035929
  0
ELLIPSE
  5
B9CE
330
1F
100
AcDbEntity
  8
AM_0
100
AcDbEllipse
 10
-19.63486322258558
 20
11.81370000000015
 30
0.0
 11
0.0202894052159908
 21
4.649955735277
 31
0.0
210
0.0
220
0.0
230
0.9999999999999998
 40
0.9848077419354799
 41
0.0
 42
3.141593005332119
  0
ELLIPSE
  5
B9CF
330
1F
100
AcDbEntity
  8
AM_0
100
AcDbEllipse
 10
-42.32575422258554
 20
10.73893100000009
 30
0.0
 11
3.966999448261993
 21
3.043503799487007
 31
0.0
210
0.0
220
0.0
230
1.0
 40
0.9586802
 41
4.153841128515689
 42
4.752866423096599
  0
ELLIPSE
  5
B9D0
330
1F
100
AcDbEntity
  8
AM_0
100
AcDbEllipse
 10
-61.9312302225855
 20
8.48106400000006
 30
0.0
 11
3.966999448261993
 21
3.043503799487007
 31
0.0
210
0.0
220
0.0
230
1.0
 40
0.9586802
 41
3.296690470354569
 42
4.153841128515689
  0
ELLIPSE
  5
B9D1
330
1F
100
AcDbEntity
  8
AM_0
100
AcDbEllipse
 10
-23.59072722258548
 20
1.735926000000148
 30
0.0
 11
-22.57679905202598
 21
4.021968998752955
 31
0.0
210
0.0
220
0.0
230
0.9999999999999998
 40
0.03015369185318
 41
3.945171235587229
 42
4.73145860907515
  0
ELLIPSE
  5
B9D2
330
1F
100
AcDbEntity
  8
AM_0
100
AcDbEllipse
 10
-4.995762222585483
 20
3.102621000000169
 30
0.0
 11
-1.305513627360014
 21
7.954486522172997
 31
0.0
210
0.0
220
0.0
230
0.9999999999999998
 40
0.45727286023769
 41
2.486296783191009
 42
3.9344697148904
  0
ELLIPSE
  5
B9D3
330
1F
100
AcDbEntity
  8
AM_0
100
AcDbEllipse
 10
-23.59072722258548
 20
1.735926000000148
 30
0.0
 11
-22.57679905202598
 21
4.021968998752955
 31
0.0
210
0.0
220
0.0
230
0.9999999999999998
 40
0.03015369185318
 41
3.232683688762149
 42
3.35239839994193
  0
ELLIPSE
  5
B9D4
330
1F
100
AcDbEntity
  8
AM_0
100
AcDbEllipse
 10
-23.34091622258554
 20
-0.0994159999998488
 30
0.0
 11
3.985940951597955
 21
22.414713400962
 31
0.0
210
0.0
220
0.0
230
0.9999999999999998
 40
0.98480771562989
 41
4.406261724087199
 42
4.608557026613509
  0
ELLIPSE
  5
B9D5
330
1F
100
AcDbEntity
  8
AM_0
100
AcDbEllipse
 10
-23.91046422258548
 20
-2.586757999999861
 30
0.0
 11
-22.715644365768
 21
0.0920818576949551
 31
0.0
210
0.0
220
0.0
230
1.0
 40
0.6963642228188799
 41
2.60595845425293
 42
2.625401095372779
  0
ELLIPSE
  5
B9D6
330
1F
100
AcDbEntity
  8
AM_0
100
AcDbEllipse
 10
-29.2210222225855
 20
-12.96264899999988
 30
0.0
 11
0.5690109732829935
 21
3.199801011357
 31
0.0
210
0.0
220
0.0
230
1.0
 40
0.9848076923076899
 41
0.241105675871022
 42
1.57079600496477
  0
ELLIPSE
  5
B9D7
330
1F
100
AcDbEntity
  8
AM_0
100
AcDbEllipse
 10
-56.85010022258558
 20
8.285293000000081
 30
0.0
 11
1.586799779304997
 21
1.217401519795002
 31
0.0
210
0.0
220
0.0
230
1.0
 40
0.95868
 41
1.79764638137252
 42
3.14159301492375
  0
ELLIPSE
  5
B9D8
330
1F
100
AcDbEntity
  8
AM_0
100
AcDbEllipse
 10
-47.02931622258557
 20
9.416305000000079
 30
0.0
 11
1.586799779304997
 21
1.217401519795002
 31
0.0
210
0.0
220
0.0
230
1.0
 40
0.95868
 41
3.3684428840029
 42
5.724637322816049
  0
ELLIPSE
  5
B9D9
330
1F
100
AcDbEntity
  8
AM_0
100
AcDbEllipse
 10
-4.995762222585483
 20
3.102621000000169
 30
0.0
 11
-1.305513627360014
 21
7.954486522172997
 31
0.0
210
0.0
220
0.0
230
0.9999999999999998
 40
0.45727286023769
 41
2.069480254685569
 42
2.486296783191009
  0
ELLIPSE
  5
B9DA
330
1F
100
AcDbEntity
  8
AM_0
100
AcDbEllipse
 10
2.161536777414511
 20
-2.407955999999813
 30
0.0
 11
-10.196825357891
 21
1.816524804097979
 31
0.0
210
0.0
220
0.0
230
1.0
 40
0.03015371187556
 41
0.230748984752367
 42
1.210105465733249
  0
ELLIPSE
  5
B9DB
330
1F
100
AcDbEntity
  8
AM_0
100
AcDbEllipse
 10
-56.85010022258558
 20
8.285293000000081
 30
0.0
 11
1.586799779304997
 21
1.217401519795002
 31
0.0
210
0.0
220
0.0
230
1.0
 40
0.95868
 41
3.14159301492375
 42
4.939239368538149
  0
ELLIPSE
  5
B9DC
330
1F
100
AcDbEntity
  8
AM_0
100
AcDbEllipse
 10
-57.63974122258554
 20
9.314536000000089
 30
0.0
 11
1.586799779304997
 21
1.217401519795002
 31
0.0
210
0.0
220
0.0
230
1.0
 40
0.95868
 41
3.486693809552629
 42
3.88159376671024
  0
ELLIPSE
  5
B9DD
330
1F
100
AcDbEntity
  8
AM_0
100
AcDbEllipse
 10
-42.29488622258563
 20
18.78562400000009
 30
0.0
 11
0.008726625898996
 21
1.999980961408999
 31
0.0
210
0.0
220
0.0
230
1.0
 40
0.9848079999999999
 41
-1.47062866879419
 42
-0.000001015467944
  0
ELLIPSE
  5
B9DE
330
1F
100
AcDbEntity
  8
AM_0
100
AcDbEllipse
 10
-42.29488622258563
 20
18.78562400000009
 30
0.0
 11
0.008726625898996
 21
1.999980961408999
 31
0.0
210
0.0
220
0.0
230
1.0
 40
0.9848079999999999
 41
2.45934503033852
 42
3.04142518586896
  0
ELLIPSE
  5
B9DF
330
1F
100
AcDbEntity
  8
AM_0
100
AcDbEllipse
 10
-42.29488622258563
 20
18.78562400000009
 30
0.0
 11
0.008726625898996
 21
1.999980961408999
 31
0.0
210
0.0
220
0.0
230
1.0
 40
0.9848079999999999
 41
-0.000001015467944
 42
0.6741838555037281
  0
ELLIPSE
  5
B9E0
330
1F
100
AcDbEntity
  8
AM_0
100
AcDbEllipse
 10
-43.4360562225855
 20
18.79060300000008
 30
0.0
 11
0.008726625898996
 21
1.999980961408999
 31
0.0
210
0.0
220
0.0
230
1.0
 40
0.9848079999999999
 41
-1.52077532546772
 42
-0.293909697168
  0
ELLIPSE
  5
B9E1
330
1F
100
AcDbEntity
  8
AM_0
100
AcDbEllipse
 10
-39.55134922258557
 20
15.58840200000008
 30
0.0
 11
0.0130899388489941
 21
2.999971442113999
 31
0.0
210
0.0
220
0.0
230
0.9999999999999998
 40
0.9848076666666701
 41
1.57079600496478
 42
2.35619483943865
  0
ELLIPSE
  5
B9E2
330
1F
100
AcDbEntity
  8
AM_0
100
AcDbEllipse
 10
-74.18901622258551
 20
5.981572000000028
 30
0.0
 11
-189.877291720051
 21
33.95266552544661
 31
0.0
210
0.0
220
0.0
230
0.9999999999999998
 40
0.02828545315553
 41
4.34568784345094
 42
4.36017414514298
  0
ELLIPSE
  5
B9E3
330
1F
100
AcDbEntity
  8
AM_0
100
AcDbEllipse
 10
-43.2232112225856
 20
18.48967200000009
 30
0.0
 11
0.3077516819419994
 21
0.3050777898540005
 31
0.0
210
0.0
220
0.0
230
1.0
 40
0.8391009369086599
 41
0.6981304635312049
 42
1.65490755634732
  0
ELLIPSE
  5
B9E4
330
1F
100
AcDbEntity
  8
AM_0
100
AcDbEllipse
 10
-22.72153722258556
 20
-1.199970999999862
 30
0.0
 11
6.032756178187949
 21
24.405014601599
 31
0.0
210
0.0
220
0.0
230
1.0
 40
0.8948268364620798
 41
-1.35303296099973
 42
-1.29548491760076
  0
ELLIPSE
  5
B9E5
330
1F
100
AcDbEntity
  8
AM_0
100
AcDbEllipse
 10
-22.66127722258553
 20
23.55000200000014
 30
0.0
 11
-5.027422510615999
 21
0.0471920595839901
 31
0.0
210
0.0
220
0.0
230
1.0
 40
0.02435017276482
 41
-1.26641036861247
 42
-0.9612455900405921
  0
ELLIPSE
  5
B9E6
330
1F
100
AcDbEntity
  8
AM_0
100
AcDbEllipse
 10
-65.10849422258551
 20
-13.48353799999995
 30
0.0
 11
1.544737824574301
 21
353.94416812431
 31
0.0
210
0.0
220
0.0
230
1.0
 40
0.0870904798126
 41
-1.477799924642449
 42
-1.47215922260405
  0
ELLIPSE
  5
B9E7
330
1F
100
AcDbEntity
  8
AM_0
100
AcDbEllipse
 10
-35.01265022258562
 20
23.45389400000013
 30
0.0
 11
0.0017453251799992
 21
0.3999961922820001
 31
0.0
210
0.0
220
0.0
230
1.0
 40
0.8111599999999999
 41
0.7853982937803431
 42
1.57079606171195
  0
ELLIPSE
  5
B9E8
330
1F
100
AcDbEntity
  8
AM_0
100
AcDbEllipse
 10
-35.01265022258562
 20
23.45389400000013
 30
0.0
 11
0.3077516819419994
 21
0.3050777898540005
 31
0.0
210
0.0
220
0.0
230
1.0
 40
0.8391009369086599
 41
0.6981304635312049
 42
1.48352991453887
  0
ELLIPSE
  5
B9E9
330
1F
100
AcDbEntity
  8
AM_0
100
AcDbEllipse
 10
-0.8197002225854532
 20
-1.198204999999802
 30
0.0
 11
0.1930482418569984
 21
0.7809606458750002
 31
0.0
210
0.0
220
0.0
230
1.0
 40
0.89482725829649
 41
3.355333427039909
 42
4.93015216755611
  0
ELLIPSE
  5
B9EA
330
1F
100
AcDbEntity
  8
AM_0
100
AcDbEllipse
 10
-0.8197002225854532
 20
-1.198204999999802
 30
0.0
 11
0.1930482418569984
 21
0.7809606458750002
 31
0.0
210
0.0
220
0.0
230
1.0
 40
0.89482725829649
 41
3.180801074741899
 42
3.355333427039909
  0
ELLIPSE
  5
B9EB
330
1F
100
AcDbEntity
  8
AM_0
100
AcDbEllipse
 10
-58.0117122225856
 20
18.74843100000009
 30
0.0
 11
-0.1787853552650016
 21
0.7919562322119998
 31
0.0
210
0.0
220
0.0
230
1.0
 40
0.9740788731422899
 41
0.171046997061266
 42
0.840590988789464
  0
ELLIPSE
  5
B9EC
330
1F
100
AcDbEntity
  8
AM_0
100
AcDbEllipse
 10
-57.97196822258555
 20
18.82202800000007
 30
0.0
 11
-0.803821341061
 21
0.0908847011509984
 31
0.0
210
0.0
220
0.0
230
1.0
 40
0.9177173175365899
 41
-1.32395914298705
 42
-1.023282388383129
  0
ELLIPSE
  5
B9ED
330
1F
100
AcDbEntity
  8
AM_0
100
AcDbEllipse
 10
-49.04402722258552
 20
19.8502160000001
 30
0.0
 11
0.7334063673759987
 21
0.6255206992520018
 31
0.0
210
0.0
220
0.0
230
1.0
 40
0.64632909028664
 41
0.605708488751123
 42
0.7661136757813751
  0
ELLIPSE
  5
B9EE
330
1F
100
AcDbEntity
  8
AM_0
100
AcDbEllipse
 10
-4.178347222585472
 20
-10.88200699999981
 30
0.0
 11
0.3553324275549996
 21
0.2480371373970007
 31
0.0
210
0.0
220
0.0
230
1.0
 40
0.8391009369086599
 41
-0.258643830395496
 42
0.6981304635312049
  0
ELLIPSE
  5
B9EF
330
1F
100
AcDbEntity
  8
AM_0
100
AcDbEllipse
 10
-50.6019232225855
 20
0.0000000000000853
 30
0.0
 11
-2.711418089685045
 21
22.99633375841799
 31
0.0
210
0.0
220
0.0
230
1.0
 40
0.15145950040917
 41
-0.017857704825777
 42
0.275422064703961
  0
ELLIPSE
  5
B9F0
330
1F
100
AcDbEntity
  8
AM_0
100
AcDbEllipse
 10
-35.13550622258552
 20
-0.0289989999998852
 30
0.0
 11
0.1961007098509545
 21
23.02859006414
 31
0.0
210
0.0
220
0.0
230
1.0
 40
0.6997475620863299
 41
0.024803492496291
 42
0.026959246992968
  0
ELLIPSE
  5
B9F1
330
1F
100
AcDbEntity
  8
AM_0
100
AcDbEllipse
 10
-35.55940222258553
 20
0.0000000000001137
 30
0.0
 11
0.1035771839439546
 21
22.999992778652
 31
0.0
210
0.0
220
0.0
230
1.0
 40
0.17632518045692
 41
-0.292967685337353
 42
-0.028785685772519
  0
ELLIPSE
  5
B9F2
330
1F
100
AcDbEntity
  8
AM_0
100
AcDbEllipse
 10
-35.55940222258553
 20
-0.0000599999998769
 30
0.0
 11
0.1035774541419546
 21
23.000052778044
 31
0.0
210
0.0
220
0.0
230
1.0
 40
0.17632498135023
 41
-0.02878571825944
 42
-0.020221349372287
  0
ELLIPSE
  5
B9F3
330
1F
100
AcDbEntity
  8
AM_0
100
AcDbEllipse
 10
3.384866777414544
 20
0.0000000000001705
 30
0.0
 11
130.440761721681
 21
0.0182617067602577
 31
0.0
210
0.0
220
0.0
230
1.0
 40
0.17632519521524
 41
1.863765833483769
 42
1.93814562989084
  0
ELLIPSE
  5
B9F4
330
1F
100
AcDbEntity
  8
AM_0
100
AcDbEllipse
 10
-46.03360122258552
 20
0.0000000000000853
 30
0.0
 11
0.1035771839439546
 21
22.999992778652
 31
0.0
210
0.0
220
0.0
230
1.0
 40
0.17632518045692
 41
-0.5914416978077871
 42
-0.420918602657137
  0
ELLIPSE
  5
B9F5
330
1F
100
AcDbEntity
  8
AM_0
100
AcDbEllipse
 10
2.518899777414475
 20
0.0000210000001744
 30
0.0
 11
130.8098724241309
 21
5.429631763088257
 31
0.0
210
0.0
220
0.0
230
0.9999999999999998
 40
0.17085792198759
 41
1.924711322150299
 42
1.941824910494689
  0
ELLIPSE
  5
B9F6
330
1F
100
AcDbEntity
  8
AM_0
100
AcDbEllipse
 10
-45.62268822258547
 20
0.0000000000000853
 30
0.0
 11
-2.711418089685045
 21
22.99633375841799
 31
0.0
210
0.0
220
0.0
230
1.0
 40
0.15145950040917
 41
-0.62720326747347
 42
-0.424620292431807
  0
ELLIPSE
  5
B9F7
330
1F
100
AcDbEntity
  8
AM_0
100
AcDbEllipse
 10
-23.81402222258546
 20
0.0000000000001421
 30
0.0
 11
130.8099533544429
 21
5.429635122328257
 31
0.0
210
0.0
220
0.0
230
1.0
 40
0.1708579919564801
 41
1.739238259912959
 42
1.837777425642199
  0
ELLIPSE
  5
B9F8
330
1F
100
AcDbEntity
  8
AM_0
100
AcDbEllipse
 10
-58.61064822258552
 20
0.0000000000000568
 30
0.0
 11
-2.711418089685045
 21
22.99633375841799
 31
0.0
210
0.0
220
0.0
230
1.0
 40
0.15145950040917
 41
-0.590285245523106
 42
-0.523158015335124
  0
ELLIPSE
  5
B9F9
330
1F
100
AcDbEntity
  8
AM_0
100
AcDbEllipse
 10
-57.17048122258555
 20
-0.0000049999999305
 30
0.0
 11
-1.569476614240045
 21
22.99993898893698
 31
0.0
210
0.0
220
0.0
230
1.0
 40
0.0348701316672
 41
0.570041951176508
 42
0.61828795273748
  0
ELLIPSE
  5
B9FA
330
1F
100
AcDbEntity
  8
AM_0
100
AcDbEllipse
 10
-57.17048522258554
 20
0.0000350000000822
 30
0.0
 11
-1.569473891041046
 21
22.99989908174202
 31
0.0
210
0.0
220
0.0
230
1.0
 40
0.03487014879289
 41
0.675669748421485
 42
0.7174152024990291
  0
ELLIPSE
  5
B9FB
330
1F
100
AcDbEntity
  8
AM_0
100
AcDbEllipse
 10
2.51895077741446
 20
0.0000000000001705
 30
0.0
 11
130.8099533544429
 21
5.429635122328257
 31
0.0
210
0.0
220
0.0
230
1.0
 40
0.1708579919564801
 41
2.052277268947699
 42
2.178020863790949
  0
ELLIPSE
  5
B9FC
330
1F
100
AcDbEntity
  8
AM_0
100
AcDbEllipse
 10
-62.17922922258551
 20
0.0000000000000568
 30
0.0
 11
-16.45308458268004
 21
22.99962003100497
 31
0.0
210
0.0
220
0.0
230
0.9999999999999998
 40
0.00808519364502
 41
-1.426412398665889
 42
-0.8513244475978179
  0
ELLIPSE
  5
B9FD
330
1F
100
AcDbEntity
  8
AM_0
100
AcDbEllipse
 10
-149.2531832225855
 20
-0.0000000000001137
 30
0.0
 11
308.2886631695219
 21
22.3241604468686
 31
0.0
210
0.0
220
0.0
230
1.0
 40
0.01795454813686
 41
-1.27721460139354
 42
-1.208214080787399
  0
ELLIPSE
  5
B9FE
330
1F
100
AcDbEntity
  8
AM_0
100
AcDbEllipse
 10
-13.8371962225855
 20
-0.0000019999998244
 30
0.0
 11
-129.167801543973
 21
22.98981944482273
 31
0.0
210
0.0
220
0.0
230
1.0
 40
0.00528625633111
 41
-1.491871532514809
 42
-1.448899822801719
  0
ELLIPSE
  5
B9FF
330
1F
100
AcDbEntity
  8
AM_0
100
AcDbEllipse
 10
-46.04690422258548
 20
-0.0000009999999122
 30
0.0
 11
130.8099563518619
 21
5.429635246744251
 31
0.0
210
0.0
220
0.0
230
0.9999999999999998
 40
0.17085799567949
 41
1.610602294518499
 42
1.64462262757849
  0
ELLIPSE
  5
BA00
330
1F
100
AcDbEntity
  8
AM_0
100
AcDbEllipse
 10
-50.6019232225855
 20
0.0000000000000853
 30
0.0
 11
-2.711418089685045
 21
22.99633375841799
 31
0.0
210
0.0
220
0.0
230
1.0
 40
0.15145950040917
 41
-0.2959811376628
 42
-0.017857704825777
  0
ELLIPSE
  5
BA01
330
1F
100
AcDbEntity
  8
AM_0
100
AcDbEllipse
 10
-55.18404222258553
 20
0.0000000000000568
 30
0.0
 11
-2.711418089685045
 21
22.99633375841799
 31
0.0
210
0.0
220
0.0
230
1.0
 40
0.15145950040917
 41
-0.330004868179095
 42
-0.017857704825777
  0
ELLIPSE
  5
BA02
330
1F
100
AcDbEntity
  8
AM_0
100
AcDbEllipse
 10
-28.96239122258552
 20
18.24345700000014
 30
0.0
 11
8.699326518876972
 21
12.47217434853701
 31
0.0
210
0.0
220
0.0
230
1.0
 40
0.95738756958355
 41
2.155273786486139
 42
3.000930923067479
  0
ELLIPSE
  5
BA03
330
1F
100
AcDbEntity
  8
AM_0
100
AcDbEllipse
 10
-43.41869122258557
 20
18.79052700000011
 30
0.0
 11
1.538758409708996
 21
1.525388949269002
 31
0.0
210
0.0
220
0.0
230
1.0
 40
0.8391000138459398
 41
-0.8226438954463908
 42
-0.7724968621389989
  0
SPLINE
  5
BA04
330
1F
100
AcDbEntity
  8
AM_0
100
AcDbSpline
210
0.0
220
0.0
230
1.0
 70
     8
 71
     3
 72
    11
 73
     7
 74
     5
 42
0.0000000001
 43
0.0000000001
 44
0.0000000001
 40
0.0
 40
0.0
 40
0.0
 40
0.0
 40
0.7814225455923243
 40
1.574614759645172
 40
2.380948055289674
 40
3.200348452707835
 40
3.200348452707835
 40
3.200348452707835
 40
3.200348452707835
 10
-17.79324122258555
 20
1.805060000000139
 30
0.0
 10
-17.54011577762823
 20
1.87318766842899
 30
0.0
 10
-17.03005235045973
 20
2.010469133947709
 30
0.0
 10
-16.2273237393773
 20
1.956194849900501
 30
0.0
 10
-15.43969862274519
 20
1.752997343537041
 30
0.0
 10
-14.9685353733256
 20
1.480416751615992
 30
0.0
 10
-14.73106022258554
 20
1.343031000000166
 30
0.0
 11
-17.79324122258555
 21
1.805060000000139
 31
0.0
 11
-17.02873922258555
 21
1.966794000000135
 31
0.0
 11
-16.23629222258552
 21
1.932419000000152
 31
0.0
 11
-15.45826822258556
 21
1.720636000000183
 31
0.0
 11
-14.73106022258554
 21
1.343031000000166
 31
0.0
  0
SPLINE
  5
BA05
330
1F
100
AcDbEntity
  8
AM_0
100
AcDbSpline
210
0.0
220
0.0
230
1.0
 70
     8
 71
     3
 72
    11
 73
     7
 74
     5
 42
0.0000000001
 43
0.0000000001
 44
0.0000000001
 40
0.0
 40
0.0
 40
0.0
 40
0.0
 40
0.086643065804455
 40
0.1732554148778219
 40
0.2599143370554539
 40
0.3467109384866136
 40
0.3467109384866136
 40
0.3467109384866136
 40
0.3467109384866136
 10
-18.09450722258549
 20
1.636401000000148
 30
0.0
 10
-18.07149062191474
 20
1.653875339347295
 30
0.0
 10
-18.02546558042684
 20
1.688817823032472
 30
0.0
 10
-17.9513557255057
 20
1.733925450339131
 30
0.0
 10
-17.87419992749023
 20
1.773735361917948
 30
0.0
 10
-17.82024173388172
 20
1.794612930159008
 30
0.0
 10
-17.79324122258555
 20
1.805060000000139
 30
0.0
 11
-18.09450722258549
 21
1.636401000000148
 31
0.0
 11
-18.02461322258551
 21
1.687605000000132
 31
0.0
 11
-17.95086922258548
 21
1.733031000000153
 31
0.0
 11
-17.87361722258555
 21
1.772298000000148
 31
0.0
 11
-17.79324122258555
 21
1.805060000000139
 31
0.0
  0
SPLINE
  5
BA06
330
1F
100
AcDbEntity
  8
AM_0
100
AcDbSpline
210
0.0
220
0.0
230
1.0
 70
     8
 71
     3
 72
    11
 73
     7
 74
     5
 42
0.0000000001
 43
0.0000000001
 44
0.0000000001
 40
0.0
 40
0.0
 40
0.0
 40
0.0
 40
0.3582716903636651
 40
0.716040102179184
 40
1.073303579531625
 40
1.430040415534101
 40
1.430040415534101
 40
1.430040415534101
 40
1.430040415534101
 10
-26.96924922258557
 20
3.244844000000114
 30
0.0
 10
-26.85682223582779
 20
3.204559863365423
 30
0.0
 10
-26.63212619298938
 20
3.124048178831193
 30
0.0
 10
-26.29310997288742
 20
3.009690821413144
 30
0.0
 10
-25.95317599512721
 20
2.899741778260039
 30
0.0
 10
-25.72538280724257
 20
2.830773635956205
 30
0.0
 10
-25.6115702225855
 20
2.796315000000106
 30
0.0
 11
-26.96924922258557
 21
3.244844000000114
 31
0.0
 11
-26.63159922258552
 21
3.125048000000106
 31
0.0
 11
-26.29271622258551
 21
3.01034600000014
 31
0.0
 11
-25.95267522258558
 21
2.900759000000107
 31
0.0
 11
-25.6115702225855
 21
2.796315000000106
 31
0.0
  0
SPLINE
  5
BA07
330
1F
100
AcDbEntity
  8
AM_0
100
AcDbSpline
210
0.0
220
0.0
230
1.0
 70
     8
 71
     3
 72
    11
 73
     7
 74
     5
 42
0.0000000001
 43
0.0000000001
 44
0.0000000001
 40
0.0
 40
0.0
 40
0.0
 40
0.0
 40
0.0250061580415424
 40
0.0498962781698941
 40
0.0747199701192448
 40
0.0995276323226901
 40
0.0995276323226901
 40
0.0995276323226901
 40
0.0995276323226901
 10
-27.05913822258554
 20
3.287279000000125
 30
0.0
 10
-27.05189404913432
 20
3.283152650526207
 30
0.0
 10
-27.03743931790241
 20
3.274919099381134
 30
0.0
 10
-27.01511667770253
 20
3.263847633628105
 30
0.0
 10
-26.9924430493779
 20
3.253673937359391
 30
0.0
 10
-26.97697883332513
 20
3.247786678638399
 30
0.0
 10
-26.96924922258557
 20
3.244844000000114
 30
0.0
 11
-27.05913822258554
 21
3.287279000000125
 31
0.0
 11
-27.03729222258556
 21
3.275111000000151
 31
0.0
 11
-27.0150282225855
 21
3.263983000000109
 31
0.0
 11
-26.99234722258557
 21
3.253894000000116
 31
0.0
 11
-26.96924922258557
 21
3.244844000000114
 31
0.0
  0
SPLINE
  5
BA08
330
1F
100
AcDbEntity
  8
AM_0
100
AcDbSpline
210
0.0
220
0.0
230
1.0
 70
     8
 71
     3
 72
    11
 73
     7
 74
     5
 42
0.0000000001
 43
0.0000000001
 44
0.0000000001
 40
0.0
 40
0.0
 40
0.0
 40
0.0
 40
1.582701134987324
 40
3.199394678007108
 40
4.848004590491271
 40
6.502188478818077
 40
6.502188478818077
 40
6.502188478818077
 40
6.502188478818077
 10
-32.29963022258556
 20
5.943648000000109
 30
0.0
 10
-31.77835787411378
 20
6.058180343620445
 30
0.0
 10
-30.72461756861622
 20
6.289704895248141
 30
0.0
 10
-29.1032782257462
 20
5.854911167648015
 30
0.0
 10
-27.78005542839984
 20
4.792563919297882
 30
0.0
 10
-27.29971417459936
 20
3.789604855995007
 30
0.0
 10
-27.05913822258554
 20
3.287279000000125
 30
0.0
 11
-32.29963022258556
 21
5.943648000000109
 31
0.0
 11
-30.73183722258551
 21
6.160369000000116
 31
0.0
 11
-29.16634822258555
 21
5.756708000000116
 31
0.0
 11
-27.88321822258552
 21
4.721579000000133
 31
0.0
 11
-27.05913822258554
 21
3.287279000000125
 31
0.0
  0
SPLINE
  5
BA09
330
1F
100
AcDbEntity
  8
AM_0
100
AcDbSpline
210
0.0
220
0.0
230
1.0
 70
     8
 71
     3
 72
    11
 73
     7
 74
     5
 42
0.0000000001
 43
0.0000000001
 44
0.0000000001
 40
0.0
 40
0.0
 40
0.0
 40
0.0
 40
0.0231319963686751
 40
0.0461857309251181
 40
0.0691998451379399
 40
0.0922149332324737
 40
0.0922149332324737
 40
0.0922149332324737
 40
0.0922149332324737
 10
-32.38032622258555
 20
5.988072000000101
 30
0.0
 10
-32.37385064950324
 20
5.983883871978679
 30
0.0
 10
-32.36092141195717
 20
5.975521785507865
 30
0.0
 10
-32.34090882189224
 20
5.964034496088702
 30
0.0
 10
-32.3205339847746
 20
5.95328566560472
 30
0.0
 10
-32.30659824159896
 20
5.946860600515296
 30
0.0
 10
-32.29963022258556
 20
5.943648000000109
 30
0.0
 11
-32.38032622258555
 21
5.988072000000101
 31
0.0
 11
-32.36079222258553
 21
5.975682000000119
 31
0.0
 11
-32.34083122258556
 21
5.964148000000108
 31
0.0
 11
-32.32044422258553
 21
5.953470000000123
 31
0.0
 11
-32.29963022258556
 21
5.943648000000109
 31
0.0
  0
SPLINE
  5
BA0A
330
1F
100
AcDbEntity
  8
AM_0
100
AcDbSpline
210
0.0
220
0.0
230
1.0
 70
     8
 71
     3
 72
    11
 73
     7
 74
     5
 42
0.0000000001
 43
0.0000000001
 44
0.0000000001
 40
0.0
 40
0.0
 40
0.0
 40
0.0
 40
3.996869079713555
 40
8.031015837414006
 40
12.08645524380842
 40
16.14056354889277
 40
16.14056354889277
 40
16.14056354889277
 40
16.14056354889277
 10
-42.40809622258561
 20
18.34918600000008
 30
0.0
 10
-41.85578967152809
 20
17.13379215696004
 30
0.0
 10
-40.74602536096723
 20
14.69166883305834
 30
0.0
 10
-38.40956479775006
 20
11.38644366911822
 30
0.0
 10
-35.65749747391472
 20
8.390450676640719
 30
0.0
 10
-33.47259709649927
 20
6.788777259312278
 30
0.0
 10
-32.38032622258555
 20
5.988072000000101
 30
0.0
 11
-42.40809622258561
 21
18.34918600000008
 31
0.0
 11
-40.64151922258548
 21
14.76391500000011
 31
0.0
 11
-38.3466632225855
 21
11.44608800000008
 31
0.0
 11
-35.57039922258553
 21
8.489917000000104
 31
0.0
 11
-32.38032622258555
 21
5.988072000000101
 31
0.0
  0
SPLINE
  5
BA0B
330
1F
100
AcDbEntity
  8
AM_0
100
AcDbSpline
210
0.0
220
0.0
230
1.0
 70
     8
 71
     3
 72
    11
 73
     7
 74
     5
 42
0.0000000001
 43
0.0000000001
 44
0.0000000001
 40
0.0
 40
0.0
 40
0.0
 40
0.0
 40
0.1884385586232448
 40
0.3725370414442832
 40
0.5570083613669221
 40
0.7458408017366889
 40
0.7458408017366889
 40
0.7458408017366889
 40
0.7458408017366889
 10
-42.06500522258553
 20
18.88462200000009
 30
0.0
 10
-42.12868029946458
 20
18.87553872911328
 30
0.0
 10
-42.25456390273332
 20
18.85758139125454
 30
0.0
 10
-42.39372238832422
 20
18.71867116979273
 30
0.0
 10
-42.4561300613702
 20
18.53402394174442
 30
0.0
 10
-42.42423171961878
 20
18.41127664559699
 30
0.0
 10
-42.40809622258561
 20
18.34918600000008
 30
0.0
 11
-42.06500522258553
 21
18.88462200000009
 31
0.0
 11
-42.24763522258555
 21
18.83819600000009
 31
0.0
 11
-42.38095122258559
 21
18.7112350000001
 31
0.0
 11
-42.43764622258558
 21
18.53569200000009
 31
0.0
 11
-42.40809622258561
 21
18.34918600000008
 31
0.0
  0
SPLINE
  5
BA0C
330
1F
100
AcDbEntity
  8
AM_0
100
AcDbSpline
210
0.0
220
0.0
230
1.0
 70
     8
 71
     3
 72
    11
 73
     7
 74
     5
 42
0.0000000001
 43
0.0000000001
 44
0.0000000001
 40
0.0
 40
0.0
 40
0.0
 40
0.0
 40
1.209592798058087
 40
2.418586044699697
 40
3.609773720647552
 40
4.775994104191337
 40
4.775994104191337
 40
4.775994104191337
 40
4.775994104191337
 10
-29.35688222258551
 20
10.29540500000013
 30
0.0
 10
-29.69709589199427
 20
10.51955685292646
 30
0.0
 10
-30.37735459919649
 20
10.96774945480998
 30
0.0
 10
-31.03518530221641
 20
12.0093967349054
 30
0.0
 10
-31.37467961889651
 20
13.17678038670976
 30
0.0
 10
-31.27165497693311
 20
13.96354500176335
 30
0.0
 10
-31.22068822258558
 20
14.35276100000012
 30
0.0
 11
-29.35688222258551
 21
10.29540500000013
 31
0.0
 11
-30.31761722258551
 21
11.03032200000012
 31
0.0
 11
-30.98542222258555
 21
12.0381420000001
 31
0.0
 11
-31.29345522258557
 21
13.18881300000012
 31
0.0
 11
-31.22068822258558
 21
14.35276100000012
 31
0.0
  0
SPLINE
  5
BA0D
330
1F
100
AcDbEntity
  8
AM_0
100
AcDbSpline
210
0.0
220
0.0
230
1.0
 70
     8
 71
     3
 72
    11
 73
     7
 74
     5
 42
0.0000000001
 43
0.0000000001
 44
0.0000000001
 40
0.0
 40
0.0
 40
0.0
 40
0.0
 40
0.8989852319704267
 40
1.79995251834931
 40
2.702533109265171
 40
3.606330188615435
 40
3.606330188615435
 40
3.606330188615435
 40
3.606330188615435
 10
-29.35688222258551
 20
10.29540500000013
 30
0.0
 10
-29.09409260839591
 20
10.1510912703511
 30
0.0
 10
-28.56793398972777
 20
9.862145632673827
 30
0.0
 10
-27.82092779672208
 20
9.356840204975636
 30
0.0
 10
-27.10502872187817
 20
8.805780300390365
 30
0.0
 10
-26.66297428818113
 20
8.396529968754627
 30
0.0
 10
-26.44179822258553
 20
8.19176700000014
 30
0.0
 11
-29.35688222258551
 21
10.29540500000013
 31
0.0
 11
-28.57565622258556
 21
9.850590000000124
 31
0.0
 11
-27.8267662225856
 21
9.349685000000135
 31
0.0
 11
-27.11423922258558
 21
8.795648000000142
 31
0.0
 11
-26.44179822258553
 21
8.19176700000014
 31
0.0
  0
SPLINE
  5
BA0E
330
1F
100
AcDbEntity
  8
AM_0
100
AcDbSpline
210
0.0
220
0.0
230
1.0
 70
     8
 71
     3
 72
    11
 73
     7
 74
     5
 42
0.0000000001
 43
0.0000000001
 44
0.0000000001
 40
0.0
 40
0.0
 40
0.0
 40
0.0
 40
1.56367119388317
 40
3.143233336681078
 40
4.735300887172557
 40
6.335564336344875
 40
6.335564336344875
 40
6.335564336344875
 40
6.335564336344875
 10
-21.01508122258548
 20
5.03778700000015
 30
0.0
 10
-21.51145137567134
 20
5.19927980511
 30
0.0
 10
-22.50923608809443
 20
5.52390660046257
 30
0.0
 10
-23.91805941874366
 20
6.247492543190644
 30
0.0
 10
-25.25315144252652
 20
7.121181693870674
 30
0.0
 10
-26.04490505409163
 20
7.834294955805789
 30
0.0
 10
-26.44179822258553
 20
8.19176700000014
 30
0.0
 11
-21.01508122258548
 21
5.03778700000015
 31
0.0
 11
-22.48869322258548
 21
5.56079300000016
 31
0.0
 11
-23.9003892225856
 21
6.269405000000148
 31
0.0
 11
-25.22563722258559
 21
7.15167300000013
 31
0.0
 11
-26.44179822258553
 21
8.19176700000014
 31
0.0
  0
SPLINE
  5
BA0F
330
1F
100
AcDbEntity
  8
AM_0
100
AcDbSpline
210
0.0
220
0.0
230
1.0
 70
     8
 71
     3
 72
    11
 73
     7
 74
     5
 42
0.0000000001
 43
0.0000000001
 44
0.0000000001
 40
0.0
 40
0.0
 40
0.0
 40
0.0
 40
0.1473323097015339
 40
0.2952357497190245
 40
0.4437129403073932
 40
0.5927649825274694
 40
0.5927649825274694
 40
0.5927649825274694
 40
0.5927649825274694
 10
-20.43297522258552
 20
4.930537000000157
 30
0.0
 10
-20.4818552623921
 20
4.935402392943127
 30
0.0
 10
-20.57980482435733
 20
4.945152039413104
 30
0.0
 10
-20.72586086037206
 20
4.968934715413007
 30
0.0
 10
-20.87136784955148
 20
4.99885683517988
 30
0.0
 10
-20.96711510097931
 20
5.024793574402413
 30
0.0
 10
-21.01508122258548
 20
5.03778700000015
 30
0.0
 11
-20.43297522258552
 21
4.930537000000157
 31
0.0
 11
-20.57942422258548
 21
4.946646000000157
 31
0.0
 11
-20.72548722258551
 21
4.96990600000015
 31
0.0
 11
-20.87082022258556
 21
5.000300000000152
 31
0.0
 11
-21.01508122258548
 21
5.03778700000015
 31
0.0
  0
SPLINE
  5
BA10
330
1F
100
AcDbEntity
  8
AM_0
100
AcDbSpline
210
0.0
220
0.0
230
1.0
 70
     8
 71
     3
 72
    11
 73
     7
 74
     5
 42
0.0000000001
 43
0.0000000001
 44
0.0000000001
 40
0.0
 40
0.0
 40
0.0
 40
0.0
 40
2.064840856357194
 40
4.134764426854419
 40
6.210101120428745
 40
8.291196299738171
 40
8.291196299738171
 40
8.291196299738171
 40
8.291196299738171
 10
-20.43297522258552
 20
4.930537000000157
 30
0.0
 10
-19.74821701938992
 20
4.857708399828164
 30
0.0
 10
-18.37701504474237
 20
4.711871928062482
 30
0.0
 10
-16.3455402619345
 20
4.302073005715215
 30
0.0
 10
-14.33838099971504
 20
3.764686438278997
 30
0.0
 10
-13.038831963905
 20
3.282347563235532
 30
0.0
 10
-12.38815722258556
 20
3.040844000000163
 30
0.0
 11
-20.43297522258552
 21
4.930537000000157
 31
0.0
 11
-18.38334422258554
 21
4.680376000000137
 31
0.0
 11
-16.35223022258554
 21
4.281428000000175
 31
0.0
 11
-14.35029422258554
 21
3.734368000000159
 31
0.0
 11
-12.38815722258556
 21
3.040844000000163
 31
0.0
  0
SPLINE
  5
BA11
330
1F
100
AcDbEntity
  8
AM_0
100
AcDbSpline
210
0.0
220
0.0
230
1.0
 70
     8
 71
     3
 72
    11
 73
     7
 74
     5
 42
0.0000000001
 43
0.0000000001
 44
0.0000000001
 40
0.0
 40
0.0
 40
0.0
 40
0.0
 40
0.1145190137051116
 40
0.2293591165263427
 40
0.3445221516418961
 40
0.4600061408784669
 40
0.4600061408784669
 40
0.4600061408784669
 40
0.4600061408784669
 10
-11.95111222258555
 20
2.898184000000185
 30
0.0
 10
-11.98797447545313
 20
2.908114193503364
 30
0.0
 10
-12.06180233579997
 20
2.928002422847442
 30
0.0
 10
-12.17145397097686
 20
2.962211401311348
 30
0.0
 10
-12.2804790010493
 20
2.999376187340442
 30
0.0
 10
-12.35223120010066
 20
3.027008578605217
 30
0.0
 10
-12.38815722258556
 20
3.040844000000163
 30
0.0
 11
-11.95111222258555
 21
2.898184000000185
 31
0.0
 11
-12.06149222258551
 21
2.928694000000177
 31
0.0
 11
-12.17119622258548
 21
2.962654000000156
 31
0.0
 11
-12.28012022258559
 21
3.00004500000017
 31
0.0
 11
-12.38815722258556
 21
3.040844000000163
 31
0.0
  0
SPLINE
  5
BA12
330
1F
100
AcDbEntity
  8
AM_0
100
AcDbSpline
210
0.0
220
0.0
230
1.0
 70
     8
 71
     3
 72
    11
 73
     7
 74
     5
 42
0.0000000001
 43
0.0000000001
 44
0.0000000001
 40
0.0
 40
0.0
 40
0.0
 40
0.0
 40
0.1327606399502847
 40
0.2651041931819553
 40
0.3968707513103583
 40
0.5279775360356832
 40
0.5279775360356832
 40
0.5279775360356832
 40
0.5279775360356832
 10
-14.42599022258554
 20
1.044156000000157
 30
0.0
 10
-14.39998138067544
 20
1.008298713337743
 30
0.0
 10
-14.3480454073873
 20
0.936696790856102
 30
0.0
 10
-14.256891319567
 20
0.8404172083355218
 30
0.0
 10
-14.15907543376297
 20
0.7519034971742027
 30
0.0
 10
-14.0883194305931
 20
0.7001231787319247
 30
0.0
 10
-14.0530302225855
 20
0.6742980000001353
 30
0.0
 11
-14.42599022258554
 21
1.044156000000157
 31
0.0
 11
-14.3457182225855
 21
0.9384120000001416
 31
0.0
 11
-14.2555772225856
 21
0.841513000000134
 31
0.0
 11
-14.15748122258554
 21
0.7535380000001624
 31
0.0
 11
-14.0530302225855
 21
0.6742980000001353
 31
0.0
  0
SPLINE
  5
BA13
330
1F
100
AcDbEntity
  8
AM_0
100
AcDbSpline
210
0.0
220
0.0
230
1.0
 70
     8
 71
     3
 72
    11
 73
     7
 74
     5
 42
0.0000000001
 43
0.0000000001
 44
0.0000000001
 40
0.0
 40
0.0
 40
0.0
 40
0.0
 40
0.1066382956774887
 40
0.2138777819919912
 40
0.3215964309344716
 40
0.4296335334548937
 40
0.4296335334548937
 40
0.4296335334548937
 40
0.4296335334548937
 10
-14.73106022258554
 20
1.343031000000166
 30
0.0
 10
-14.70191377977263
 20
1.322634180376468
 30
0.0
 10
-14.64345657636201
 20
1.281725550759948
 30
0.0
 10
-14.56336829804493
 20
1.210169613063174
 30
0.0
 10
-14.48926233258796
 20
1.131726475773408
 30
0.0
 10
-14.44710166884175
 20
1.073374867410257
 30
0.0
 10
-14.42599022258554
 20
1.044156000000157
 30
0.0
 11
-14.73106022258554
 21
1.343031000000166
 31
0.0
 11
-14.64491222258556
 21
1.280180000000143
 31
0.0
 11
-14.56453622258556
 21
1.209187000000156
 31
0.0
 11
-14.4911652225856
 21
1.130320000000153
 31
0.0
 11
-14.42599022258554
 21
1.044156000000157
 31
0.0
  0
SPLINE
  5
BA14
330
1F
100
AcDbEntity
  8
AM_0
100
AcDbSpline
210
0.0
220
0.0
230
1.0
 70
     8
 71
     3
 72
    11
 73
     7
 74
     5
 42
0.0000000001
 43
0.0000000001
 44
0.0000000001
 40
0.0
 40
0.0
 40
0.0
 40
0.0
 40
1.544743944234743
 40
3.221399803904481
 40
4.805881781396563
 40
6.100172979994819
 40
6.100172979994819
 40
6.100172979994819
 40
6.100172979994819
 10
-26.96924922258557
 20
3.244844000000114
 30
0.0
 10
-27.45816707969187
 20
3.407396834069062
 30
0.0
 10
-28.47775346155523
 20
3.746383544292573
 30
0.0
 10
-29.93885702086883
 20
4.408492480511235
 30
0.0
 10
-31.27107747344302
 20
5.146357470139933
 30
0.0
 10
-32.03628866069712
 20
5.727011155998244
 30
0.0
 10
-32.38032622258555
 20
5.988072000000101
 30
0.0
 11
-26.96924922258557
 21
3.244844000000114
 31
0.0
 11
-28.42675822258553
 21
3.756607000000144
 31
0.0
 11
-29.95690022258548
 21
4.44205600000015
 31
0.0
 11
-31.33271422258559
 21
5.228007000000104
 31
0.0
 11
-32.38032622258555
 21
5.988072000000101
 31
0.0
  0
SPLINE
  5
BA15
330
1F
100
AcDbEntity
  8
AM_0
100
AcDbSpline
210
0.0
220
0.0
230
1.0
 70
     8
 71
     3
 72
    11
 73
     7
 74
     5
 42
0.0000000001
 43
0.0000000001
 44
0.0000000001
 40
0.0
 40
0.0
 40
0.0
 40
0.0
 40
0.1004944695443716
 40
0.2049603698036877
 40
0.3140284921172254
 40
0.4284344670836127
 40
0.4284344670836127
 40
0.4284344670836127
 40
0.4284344670836127
 10
-31.88668122258553
 20
5.83379200000013
 30
0.0
 10
-31.91976111374938
 20
5.839120990369025
 30
0.0
 10
-31.98722817692956
 20
5.84998956693489
 30
0.0
 10
-32.08940763186653
 20
5.872843040959192
 30
0.0
 10
-32.19505537105412
 20
5.901572064361954
 30
0.0
 10
-32.26422124517271
 20
5.92940111527766
 30
0.0
 10
-32.29963022258556
 20
5.943648000000109
 30
0.0
 11
-31.88668122258553
 21
5.83379200000013
 31
0.0
 11
-31.98573422258556
 21
5.850752000000113
 31
0.0
 11
-32.08774522258551
 21
5.873266000000114
 31
0.0
 11
-32.19266222258551
 21
5.903070000000127
 31
0.0
 11
-32.29963022258556
 21
5.943648000000109
 31
0.0
  0
SPLINE
  5
BA16
330
1F
100
AcDbEntity
  8
AM_0
100
AcDbSpline
210
0.0
220
0.0
230
1.0
 70
     8
 71
     3
 72
    11
 73
     7
 74
     5
 42
0.0000000001
 43
0.0000000001
 44
0.0000000001
 40
0.0
 40
0.0
 40
0.0
 40
0.0
 40
1.099628302615934
 40
2.392756322693226
 40
3.751621425998515
 40
5.032636158242459
 40
5.032636158242459
 40
5.032636158242459
 40
5.032636158242459
 10
-31.88668122258553
 20
5.83379200000013
 30
0.0
 10
-31.59270438514351
 20
5.614274606630615
 30
0.0
 10
-30.95302010742766
 20
5.136611718474218
 30
0.0
 10
-29.85573866080806
 20
4.529988287614115
 30
0.0
 10
-28.66056104039133
 20
3.986901672328126
 30
0.0
 10
-27.8255193353776
 20
3.707652863892414
 30
0.0
 10
-27.42031122258555
 20
3.572146000000145
 30
0.0
 11
-31.88668122258553
 21
5.83379200000013
 31
0.0
 11
-30.99204622258554
 21
5.194409000000121
 31
0.0
 11
-29.86777622258552
 21
4.55550600000015
 31
0.0
 11
-28.62820622258556
 21
3.99874700000015
 31
0.0
 11
-27.42031122258555
 21
3.572146000000145
 31
0.0
  0
SPLINE
  5
BA17
330
1F
100
AcDbEntity
  8
AM_0
100
AcDbSpline
210
0.0
220
0.0
230
1.0
 70
     8
 71
     3
 72
    11
 73
     7
 74
     5
 42
0.0000000001
 43
0.0000000001
 44
0.0000000001
 40
0.0
 40
0.0
 40
0.0
 40
0.0
 40
0.1169983602106951
 40
0.2334111576172113
 40
0.348084526809889
 40
0.4607685668510656
 40
0.4607685668510656
 40
0.4607685668510656
 40
0.4607685668510656
 10
-27.05913822258554
 20
3.287279000000125
 30
0.0
 10
-27.0920897252918
 20
3.308183558283813
 30
0.0
 10
-27.15782781237304
 20
3.349888050036391
 30
0.0
 10
-27.24922384601273
 20
3.421580184412692
 30
0.0
 10
-27.33692926529833
 20
3.495341427928718
 30
0.0
 10
-27.39267983872427
 20
3.546694251417453
 30
0.0
 10
-27.42031122258555
 20
3.572146000000145
 30
0.0
 11
-27.05913822258554
 21
3.287279000000125
 31
0.0
 11
-27.15687422258548
 21
3.35159300000015
 31
0.0
 11
-27.24924422258556
 21
3.422443000000129
 31
0.0
 11
-27.33686322258558
 21
3.496422000000109
 31
0.0
 11
-27.42031122258555
 21
3.572146000000145
 31
0.0
  0
SPLINE
  5
BA18
330
1F
100
AcDbEntity
  8
AM_0
100
AcDbSpline
210
0.0
220
0.0
230
1.0
 70
     8
 71
     3
 72
    11
 73
     7
 74
     5
 42
0.0000000001
 43
0.0000000001
 44
0.0000000001
 40
0.0
 40
0.0
 40
0.0
 40
0.0
 40
1.385191213865051
 40
2.763469621500466
 40
4.119252611864308
 40
5.451822685505875
 40
5.451822685505875
 40
5.451822685505875
 40
5.451822685505875
 10
-27.42031122258555
 20
3.572146000000145
 30
0.0
 10
-27.64249685102805
 20
3.981613888604197
 30
0.0
 10
-28.0857592890142
 20
4.798506213512832
 30
0.0
 10
-29.20605702705149
 20
5.660265573235925
 30
0.0
 10
-30.55015723986903
 20
6.048770038908747
 30
0.0
 10
-31.44374516011842
 20
5.905037654625455
 30
0.0
 10
-31.88668122258553
 20
5.83379200000013
 30
0.0
 11
-27.42031122258555
 21
3.572146000000145
 31
0.0
 11
-28.16433122258553
 21
4.740559000000132
 31
0.0
 11
-29.25285822258553
 21
5.585994000000141
 31
0.0
 11
-30.5591102225855
 21
5.949110000000132
 31
0.0
 11
-31.88668122258553
 21
5.83379200000013
 31
0.0
  0
SPLINE
  5
BA19
330
1F
100
AcDbEntity
  8
AM_0
100
AcDbSpline
210
0.0
220
0.0
230
1.0
 70
     8
 71
     3
 72
    11
 73
     7
 74
     5
 42
0.0000000001
 43
0.0000000001
 44
0.0000000001
 40
0.0
 40
0.0
 40
0.0
 40
0.0
 40
0.0793721657825013
 40
0.1586488125329548
 40
0.2378374641693971
 40
0.3169456473617936
 40
0.3169456473617936
 40
0.3169456473617936
 40
0.3169456473617936
 10
-31.1312472225855
 20
14.65664500000011
 30
0.0
 10
-31.13999587350459
 20
14.63167358418923
 30
0.0
 10
-31.15748264693324
 20
14.5817608039771
 30
0.0
 10
-31.18081724315917
 20
14.50597752755616
 30
0.0
 10
-31.20219916721902
 20
14.42971235526274
 30
0.0
 10
-31.2145272930855
 20
14.37840275753228
 30
0.0
 10
-31.22068822258558
 20
14.35276100000012
 30
0.0
 11
-31.1312472225855
 21
14.65664500000011
 31
0.0
 11
-31.15701222258559
 21
14.58157100000011
 31
0.0
 11
-31.18050422258551
 21
14.50585500000011
 31
0.0
 11
-31.20172622258547
 21
14.42956300000011
 31
0.0
 11
-31.22068822258558
 21
14.35276100000012
 31
0.0
  0
SPLINE
  5
BA1A
330
1F
100
AcDbEntity
  8
AM_0
100
AcDbSpline
210
0.0
220
0.0
230
1.0
 70
     8
 71
     3
 72
    11
 73
     7
 74
     5
 42
0.0000000001
 43
0.0000000001
 44
0.0000000001
 40
0.0
 40
0.0
 40
0.0
 40
0.0
 40
1.23137811604925
 40
2.461858322154972
 40
3.691529046076231
 40
4.920485357169972
 40
4.920485357169972
 40
4.920485357169972
 40
4.920485357169972
 10
-13.62890322258553
 20
16.92168900000018
 30
0.0
 10
-13.98675011469831
 20
17.12302847386208
 30
0.0
 10
-14.70218296016063
 20
17.52556060663664
 30
0.0
 10
-15.81884148132575
 20
18.04478484863621
 30
0.0
 10
-16.95997246014639
 20
18.50561606078495
 30
0.0
 10
-17.74162467768166
 20
18.75286130126572
 30
0.0
 10
-18.13233722258561
 20
18.87644800000015
 30
0.0
 11
-13.62890322258553
 21
16.92168900000018
 31
0.0
 11
-14.70976422258556
 21
17.51163100000013
 31
0.0
 11
-15.82329122258554
 21
18.03521400000016
 31
0.0
 11
-16.96548122258556
 21
18.49072700000013
 31
0.0
 11
-18.13233722258561
 21
18.87644800000015
 31
0.0
  0
SPLINE
  5
BA1B
330
1F
100
AcDbEntity
  8
AM_0
100
AcDbSpline
210
0.0
220
0.0
230
1.0
 70
     8
 71
     3
 72
    11
 73
     7
 74
     5
 42
0.0000000001
 43
0.0000000001
 44
0.0000000001
 40
0.0
 40
0.0
 40
0.0
 40
0.0
 40
0.5540143899223111
 40
1.115327421769095
 40
1.6825266735034
 40
2.254056413654329
 40
2.254056413654329
 40
2.254056413654329
 40
2.254056413654329
 10
-31.1312472225855
 20
14.65664500000011
 30
0.0
 10
-31.06640917832005
 20
14.82959737614169
 30
0.0
 10
-30.93587890679899
 20
15.17778062062003
 30
0.0
 10
-30.70885099413219
 20
15.69088919521818
 30
0.0
 10
-30.45996218013103
 20
16.20024752315826
 30
0.0
 10
-30.27438345507747
 20
16.53144400380935
 30
0.0
 10
-30.18124122258561
 20
16.69767200000012
 30
0.0
 11
-31.1312472225855
 21
14.65664500000011
 31
0.0
 11
-30.93180722258555
 21
15.17351600000012
 31
0.0
 11
-30.70644322258553
 21
15.68760100000014
 31
0.0
 11
-30.45591522258561
 21
16.19647300000013
 31
0.0
 11
-30.18124122258561
 21
16.69767200000012
 31
0.0
  0
SPLINE
  5
BA1C
330
1F
100
AcDbEntity
  8
AM_0
100
AcDbSpline
210
0.0
220
0.0
230
1.0
 70
     8
 71
     3
 72
    11
 73
     7
 74
     5
 42
0.0000000001
 43
0.0000000001
 44
0.0000000001
 40
0.0
 40
0.0
 40
0.0
 40
0.0
 40
0.3241317140083839
 40
0.6488257025976696
 40
0.9737786036848277
 40
1.298689979915315
 40
1.298689979915315
 40
1.298689979915315
 40
1.298689979915315
 10
-29.25705022258554
 20
18.30029700000011
 30
0.0
 10
-29.20241740278145
 20
18.39351745528237
 30
0.0
 10
-29.09305699106509
 20
18.58012007631877
 30
0.0
 10
-28.92020216191263
 20
18.85490908316761
 30
0.0
 10
-28.74152850406057
 20
19.12626073082997
 30
0.0
 10
-28.6168296604193
 20
19.30340534999016
 30
0.0
 10
-28.55448422258561
 20
19.39197200000012
 30
0.0
 11
-29.25705022258554
 21
18.30029700000011
 31
0.0
 11
-29.09170122258555
 21
18.57908200000014
 31
0.0
 11
-28.91930222258551
 21
18.85422700000015
 31
0.0
 11
-28.74013222258563
 21
19.12532200000015
 31
0.0
 11
-28.55448422258561
 21
19.39197200000012
 31
0.0
  0
SPLINE
  5
BA1D
330
1F
100
AcDbEntity
  8
AM_0
100
AcDbSpline
210
0.0
220
0.0
230
1.0
 70
     8
 71
     3
 72
    11
 73
     7
 74
     5
 42
0.0000000001
 43
0.0000000001
 44
0.0000000001
 40
0.0
 40
0.0
 40
0.0
 40
0.0
 40
0.7011383939394407
 40
1.403979519561037
 40
2.107678593024909
 40
2.811143195882853
 40
2.811143195882853
 40
2.811143195882853
 40
2.811143195882853
 10
-27.50838922258557
 20
20.29810300000014
 30
0.0
 10
-27.29607449993647
 20
20.39749118734369
 30
0.0
 10
-26.87092944315847
 20
20.59650892866667
 30
0.0
 10
-26.17854418655102
 20
20.74189857211319
 30
0.0
 10
-25.47052041605191
 20
20.77594008034254
 30
0.0
 10
-25.00882931043334
 20
20.68456895183377
 30
0.0
 10
-24.77802222258557
 20
20.63889100000011
 30
0.0
 11
-27.50838922258557
 21
20.29810300000014
 31
0.0
 11
-26.86244922258558
 21
20.57078700000011
 31
0.0
 11
-26.17635022258557
 21
20.72327900000016
 31
0.0
 11
-25.47306522258563
 21
20.74741600000015
 31
0.0
 11
-24.77802222258557
 21
20.63889100000011
 31
0.0
  0
SPLINE
  5
BA1E
330
1F
100
AcDbEntity
  8
AM_0
100
AcDbSpline
210
0.0
220
0.0
230
1.0
 70
     8
 71
     3
 72
    11
 73
     7
 74
     5
 42
0.0000000001
 43
0.0000000001
 44
0.0000000001
 40
0.0
 40
0.0
 40
0.0
 40
0.0
 40
0.3482465541494868
 40
0.6969183994969402
 40
1.046045398409938
 40
1.39558106382483
 40
1.39558106382483
 40
1.39558106382483
 40
1.39558106382483
 10
-27.50838922258557
 20
20.29810300000014
 30
0.0
 10
-27.60927593216891
 20
20.24041960334157
 30
0.0
 10
-27.81117255780831
 20
20.12498236498893
 30
0.0
 10
-28.08731622107098
 20
19.91059464065494
 30
0.0
 10
-28.34108973929351
 20
19.66923412886826
 30
0.0
 10
-28.48332499575144
 20
19.4844287421627
 30
0.0
 10
-28.55448422258561
 20
19.39197200000012
 30
0.0
 11
-27.50838922258557
 21
20.29810300000014
 31
0.0
 11
-27.80657522258556
 21
20.11821200000014
 31
0.0
 11
-28.08341822258554
 21
19.90624500000012
 31
0.0
 11
-28.33423522258553
 21
19.66338600000011
 31
0.0
 11
-28.55448422258561
 21
19.39197200000012
 31
0.0
  0
SPLINE
  5
BA1F
330
1F
100
AcDbEntity
  8
AM_0
100
AcDbSpline
210
0.0
220
0.0
230
1.0
 70
     8
 71
     3
 72
    11
 73
     7
 74
     5
 42
0.0000000001
 43
0.0000000001
 44
0.0000000001
 40
0.0
 40
0.0
 40
0.0
 40
0.0
 40
1.478829402886612
 40
2.957464139719511
 40
4.435918706289599
 40
5.91420490269137
 40
5.91420490269137
 40
5.91420490269137
 40
5.91420490269137
 10
-18.94357422258562
 20
19.72348200000016
 30
0.0
 10
-19.43526335813364
 20
19.76004880600076
 30
0.0
 10
-20.4185769056155
 20
19.83317760452191
 30
0.0
 10
-21.88447826459766
 20
20.03223807473643
 30
0.0
 10
-23.34086830731527
 20
20.29099245223394
 30
0.0
 10
-24.29898910407012
 20
20.5229292199203
 30
0.0
 10
-24.77802222258557
 20
20.63889100000011
 30
0.0
 11
-18.94357422258562
 21
19.72348200000016
 31
0.0
 11
-20.41714522258561
 21
19.84808100000014
 31
0.0
 11
-21.88298222258558
 21
20.04220100000015
 31
0.0
 11
-23.33773622258556
 21
20.30586500000015
 31
0.0
 11
-24.77802222258557
 21
20.63889100000011
 31
0.0
  0
SPLINE
  5
BA20
330
1F
100
AcDbEntity
  8
AM_0
100
AcDbSpline
210
0.0
220
0.0
230
1.0
 70
     8
 71
     3
 72
    11
 73
     7
 74
     5
 42
0.0000000001
 43
0.0000000001
 44
0.0000000001
 40
0.0
 40
0.0
 40
0.0
 40
0.0
 40
2.591571663778508
 40
5.200708108701453
 40
7.809925433342118
 40
10.40166623034204
 40
10.40166623034204
 40
10.40166623034204
 40
10.40166623034204
 10
-21.99842822258557
 20
7.38205100000016
 30
0.0
 10
-22.65870436951063
 20
7.968700942931482
 30
0.0
 10
-23.98373178792618
 20
9.145976940278906
 30
0.0
 10
-24.5837057102165
 20
11.82465451380329
 30
0.0
 10
-23.97063545186144
 20
14.50039205703787
 30
0.0
 10
-22.63989942974621
 20
15.67132623013992
 30
0.0
 10
-21.9767672225856
 20
16.25482600000015
 30
0.0
 11
-21.99842822258557
 21
7.38205100000016
 31
0.0
 11
-23.74944222258551
 21
9.292599000000137
 31
0.0
 11
-24.38107822258558
 21
11.82412600000015
 31
0.0
 11
-23.73709222258554
 21
14.35262300000013
 31
0.0
 11
-21.9767672225856
 21
16.25482600000015
 31
0.0
  0
SPLINE
  5
BA21
330
1F
100
AcDbEntity
  8
AM_0
100
AcDbSpline
210
0.0
220
0.0
230
1.0
 70
     8
 71
     3
 72
    11
 73
     7
 74
     5
 42
0.0000000001
 43
0.0000000001
 44
0.0000000001
 40
0.0
 40
0.0
 40
0.0
 40
0.0
 40
0.0808208124928516
 40
0.1710961156548647
 40
0.2711569458783167
 40
0.3775152563998501
 40
0.3775152563998501
 40
0.3775152563998501
 40
0.3775152563998501
 10
-43.50415122258559
 20
18.72136300000011
 30
0.0
 10
-43.51526471473964
 20
18.69671546593226
 30
0.0
 10
-43.53879176526376
 20
18.64453710729659
 30
0.0
 10
-43.55381517647464
 20
18.55458914743028
 30
0.0
 10
-43.55312559386971
 20
18.45477576210925
 30
0.0
 10
-43.5342143293452
 20
18.38830587993814
 30
0.0
 10
-43.52447022258556
 20
18.35405700000012
 30
0.0
 11
-43.50415122258559
 21
18.72136300000011
 31
0.0
 11
-43.53435722258561
 21
18.64639900000008
 31
0.0
 11
-43.55080122258558
 21
18.55763400000012
 31
0.0
 11
-43.54880922258561
 21
18.45759300000008
 31
0.0
 11
-43.52447022258556
 21
18.35405700000012
 31
0.0
  0
SPLINE
  5
BA22
330
1F
100
AcDbEntity
  8
AM_0
100
AcDbSpline
210
0.0
220
0.0
230
1.0
 70
     8
 71
     3
 72
    11
 73
     7
 74
     5
 42
0.0000000001
 43
0.0000000001
 44
0.0000000001
 40
0.0
 40
0.0
 40
0.0
 40
0.0
 40
2.75187512151873
 40
5.519230030679842
 40
8.29889119391483
 40
11.08705804660677
 40
11.08705804660677
 40
11.08705804660677
 40
11.08705804660677
 10
-9.773321222585622
 20
19.23915800000014
 30
0.0
 10
-10.53532999810476
 20
19.75191543485175
 30
0.0
 10
-12.06363398421214
 20
20.78031465644342
 30
0.0
 10
-14.57121018189396
 20
21.96782500974231
 30
0.0
 10
-17.19478648640713
 20
22.90537839331551
 30
0.0
 10
-19.01651932079973
 20
23.27155899923707
 30
0.0
 10
-19.92877722258558
 20
23.45492900000013
 30
0.0
 11
-9.773321222585622
 21
19.23915800000014
 31
0.0
 11
-12.09399622258556
 21
20.71810500000015
 31
0.0
 11
-14.58488922258558
 21
21.92380200000013
 31
0.0
 11
-17.20935822258556
 21
22.83959600000014
 31
0.0
 11
-19.92877722258558
 21
23.45492900000013
 31
0.0
  0
SPLINE
  5
BA23
330
1F
100
AcDbEntity
  8
AM_0
100
AcDbSpline
210
0.0
220
0.0
230
1.0
 70
     8
 71
     3
 72
    11
 73
     7
 74
     5
 42
0.0000000001
 43
0.0000000001
 44
0.0000000001
 40
0.0
 40
0.0
 40
0.0
 40
0.0
 40
0.0174267610873913
 40
0.0348370046239269
 40
0.0522475744020976
 40
0.069674644867315
 40
0.069674644867315
 40
0.069674644867315
 40
0.069674644867315
 10
-9.677506222585606
 20
19.15001100000017
 30
0.0
 10
-9.681301046362694
 20
19.15440974853991
 30
0.0
 10
-9.688887097081261
 20
19.16320307636773
 30
0.0
 10
-9.700783047089466
 20
19.17592810159444
 30
0.0
 10
-9.713016680196929
 20
19.18832895985994
 30
0.0
 10
-9.721495703106052
 20
19.1962650669866
 30
0.0
 10
-9.725737222585593
 20
19.20023500000013
 30
0.0
 11
-9.677506222585606
 21
19.15001100000017
 31
0.0
 11
-9.688977222585521
 21
19.16313000000013
 31
0.0
 11
-9.700839222585585
 21
19.17587400000013
 31
0.0
 11
-9.71309322258557
 21
19.18824200000017
 31
0.0
 11
-9.725737222585593
 21
19.20023500000013
 31
0.0
  0
SPLINE
  5
BA24
330
1F
100
AcDbEntity
  8
AM_0
100
AcDbSpline
210
0.0
220
0.0
230
1.0
 70
     8
 71
     3
 72
    11
 73
     7
 74
     5
 42
0.0000000001
 43
0.0000000001
 44
0.0000000001
 40
0.0
 40
0.0
 40
0.0
 40
0.0
 40
1.666348239794134
 40
3.308745969145039
 40
4.931219205261435
 40
6.556461084670486
 40
6.556461084670486
 40
6.556461084670486
 40
6.556461084670486
 10
-5.437434222585551
 20
15.15093800000016
 30
0.0
 10
-5.996781428053161
 20
15.18878762850726
 30
0.0
 10
-7.107436312336019
 20
15.26394287083042
 30
0.0
 10
-8.595227696260813
 20
16.09599831202711
 30
0.0
 10
-9.560293346381106
 20
17.50669749959716
 30
0.0
 10
-9.638413065102055
 20
18.60192860882997
 30
0.0
 10
-9.677506222585606
 20
19.15001100000017
 30
0.0
 11
-5.437434222585551
 21
15.15093800000016
 31
0.0
 11
-7.086973222585555
 21
15.38702600000016
 31
0.0
 11
-8.515017222585555
 21
16.19829700000016
 31
0.0
 11
-9.419282222585565
 21
17.54541400000016
 31
0.0
 11
-9.677506222585606
 21
19.15001100000017
 31
0.0
  0
SPLINE
  5
BA25
330
1F
100
AcDbEntity
  8
AM_0
100
AcDbSpline
210
0.0
220
0.0
230
1.0
 70
     8
 71
     3
 72
    11
 73
     7
 74
     5
 42
0.0000000001
 43
0.0000000001
 44
0.0000000001
 40
0.0
 40
0.0
 40
0.0
 40
0.0
 40
0.0132471555059769
 40
0.0264905870854284
 40
0.0397404929341168
 40
0.0530080170814723
 40
0.0530080170814723
 40
0.0530080170814723
 40
0.0530080170814723
 10
-5.388640222585621
 20
15.09946400000018
 30
0.0
 10
-5.39145855914707
 20
15.10286376111661
 30
0.0
 10
-5.397094440003409
 20
15.10966232763783
 30
0.0
 10
-5.405909125042872
 20
15.11955371181592
 30
0.0
 10
-5.414965769941332
 20
15.12923334386122
 30
0.0
 10
-5.421232017263277
 20
15.13546840042073
 30
0.0
 10
-5.424367222585573
 20
15.13858800000017
 30
0.0
 11
-5.388640222585621
 21
15.09946400000018
 31
0.0
 11
-5.39715522258561
 21
15.10961200000016
 31
0.0
 11
-5.405947222585581
 21
15.11951600000017
 31
0.0
 11
-5.41501822258553
 21
15.12917400000017
 31
0.0
 11
-5.424367222585573
 21
15.13858800000017
 31
0.0
  0
SPLINE
  5
BA26
330
1F
100
AcDbEntity
  8
AM_0
100
AcDbSpline
210
0.0
220
0.0
230
1.0
 70
     8
 71
     3
 72
    11
 73
     7
 74
     5
 42
0.0000000001
 43
0.0000000001
 44
0.0000000001
 40
0.0
 40
0.0
 40
0.0
 40
0.0
 40
3.020514151881598
 40
6.045764649442757
 40
9.082515691646248
 40
12.13658894378187
 40
12.13658894378187
 40
12.13658894378187
 40
12.13658894378187
 10
-0.4790102225854867
 20
4.140077000000189
 30
0.0
 10
-0.6790685186962274
 20
5.128398341102065
 30
0.0
 10
-1.079498814214167
 20
7.106590769898142
 30
0.0
 10
-2.157971523670808
 20
9.946892643779943
 30
0.0
 10
-3.553343992996038
 20
12.659288561373
 30
0.0
 10
-4.775716010362421
 20
14.28453146524451
 30
0.0
 10
-5.388640222585621
 20
15.09946400000018
 30
0.0
 11
-0.4790102225854867
 21
4.140077000000189
 31
0.0
 11
-1.158424222585551
 21
7.083188000000177
 31
0.0
 11
-2.208429222585493
 21
9.920375000000206
 31
0.0
 11
-3.622797222585575
 21
12.60764500000016
 31
0.0
 11
-5.388640222585621
 21
15.09946400000018
 31
0.0
  0
SPLINE
  5
BA27
330
1F
100
AcDbEntity
  8
AM_0
100
AcDbSpline
210
0.0
220
0.0
230
1.0
 70
     8
 71
     3
 72
    11
 73
     7
 74
     5
 42
0.0000000001
 43
0.0000000001
 44
0.0000000001
 40
0.0
 40
0.0
 40
0.0
 40
0.0
 40
0.6942012402935305
 40
1.385148112210543
 40
2.074863377392497
 40
2.765430195321076
 40
2.765430195321076
 40
2.765430195321076
 40
2.765430195321076
 10
-7.97624222258554
 20
10.45583200000018
 30
0.0
 10
-7.815143379914842
 20
10.28852292989281
 30
0.0
 10
-7.493700915032084
 20
9.954689123262122
 30
0.0
 10
-7.152249084387301
 20
9.346345971649839
 30
0.0
 10
-6.918537249786586
 20
8.691011505299513
 30
0.0
 10
-6.871932149186589
 20
8.231744282041917
 30
0.0
 10
-6.848615222585578
 20
8.001969000000173
 30
0.0
 11
-7.97624222258554
 21
10.45583200000018
 31
0.0
 11
-7.516429222585486
 21
9.93574800000016
 31
0.0
 11
-7.169933222585598
 21
9.337962000000175
 31
0.0
 11
-6.945885222585559
 21
8.685651000000177
 31
0.0
 11
-6.848615222585578
 21
8.001969000000173
 31
0.0
  0
SPLINE
  5
BA28
330
1F
100
AcDbEntity
  8
AM_0
100
AcDbSpline
210
0.0
220
0.0
230
1.0
 70
     8
 71
     3
 72
    11
 73
     7
 74
     5
 42
0.0000000001
 43
0.0000000001
 44
0.0000000001
 40
0.0
 40
0.0
 40
0.0
 40
0.0
 40
0.8159827479824592
 40
1.629963810077853
 40
2.443091993412488
 40
3.256473591018997
 40
3.256473591018997
 40
3.256473591018997
 40
3.256473591018997
 10
-7.97624222258554
 20
10.45583200000018
 30
0.0
 10
-8.167608582803822
 20
10.65003221655437
 30
0.0
 10
-8.549871862748592
 20
11.03795625744281
 30
0.0
 10
-8.994167632676029
 20
11.72583670774457
 30
0.0
 10
-9.341021849566443
 20
12.46624806878146
 30
0.0
 10
-9.471355329485666
 20
12.99374262793887
 30
0.0
 10
-9.536532222585549
 20
13.25753100000014
 30
0.0
 11
-7.97624222258554
 21
10.45583200000018
 31
0.0
 11
-8.528828222585559
 21
11.05622900000017
 31
0.0
 11
-8.978143222585515
 21
11.73496400000016
 31
0.0
 11
-9.315785222585589
 21
12.47467700000018
 31
0.0
 11
-9.536532222585549
 21
13.25753100000014
 31
0.0
  0
SPLINE
  5
BA29
330
1F
100
AcDbEntity
  8
AM_0
100
AcDbSpline
210
0.0
220
0.0
230
1.0
 70
     8
 71
     3
 72
    11
 73
     7
 74
     5
 42
0.0000000001
 43
0.0000000001
 44
0.0000000001
 40
0.0
 40
0.0
 40
0.0
 40
0.0
 40
0.347347867113096
 40
0.693918383494685
 40
1.04001931612852
 40
1.385974372511576
 40
1.385974372511576
 40
1.385974372511576
 40
1.385974372511576
 10
-10.1080612225856
 20
14.50746000000015
 30
0.0
 10
-10.03993710299255
 20
14.4136541789699
 30
0.0
 10
-9.903841322880532
 20
14.22625247061132
 30
0.0
 10
-9.744072471591485
 20
13.91742027883677
 30
0.0
 10
-9.616010646014544
 20
13.59471727705068
 30
0.0
 10
-9.563021307244584
 20
13.36991063026088
 30
0.0
 10
-9.536532222585549
 20
13.25753100000014
 30
0.0
 11
-10.1080612225856
 21
14.50746000000015
 31
0.0
 11
-9.911079222585556
 21
14.22136800000015
 31
0.0
 11
-9.749258222585524
 21
13.91489600000016
 31
0.0
 11
-9.624081222585516
 21
13.59222500000015
 31
0.0
 11
-9.536532222585549
 21
13.25753100000014
 31
0.0
  0
SPLINE
  5
BA2A
330
1F
100
AcDbEntity
  8
AM_0
100
AcDbSpline
210
0.0
220
0.0
230
1.0
 70
     8
 71
     3
 72
    11
 73
     7
 74
     5
 42
0.0000000001
 43
0.0000000001
 44
0.0000000001
 40
0.0
 40
0.0
 40
0.0
 40
0.0
 40
1.140379325489514
 40
2.276256671153164
 40
3.407625188340186
 40
4.534692355384398
 40
4.534692355384398
 40
4.534692355384398
 40
4.534692355384398
 10
-13.50845622258552
 20
17.46801800000014
 30
0.0
 10
-13.18457468468567
 20
17.26840003668779
 30
0.0
 10
-12.53809022567338
 20
16.86995216016504
 30
0.0
 10
-11.64981777277368
 20
16.15838381028421
 30
0.0
 10
-10.82651000483163
 20
15.37898355326728
 30
0.0
 10
-10.347239882077
 20
14.79759875496325
 30
0.0
 10
-10.1080612225856
 20
14.50746000000015
 30
0.0
 11
-13.50845622258552
 21
17.46801800000014
 31
0.0
 11
-12.55014622258554
 21
16.84987000000018
 31
0.0
 11
-11.65895222258561
 21
16.14560400000016
 31
0.0
 11
-10.84266322258562
 21
15.36223500000017
 31
0.0
 11
-10.1080612225856
 21
14.50746000000015
 31
0.0
  0
SPLINE
  5
BA2B
330
1F
100
AcDbEntity
  8
AM_0
100
AcDbSpline
210
0.0
220
0.0
230
1.0
 70
     8
 71
     3
 72
    11
 73
     7
 74
     5
 42
0.0000000001
 43
0.0000000001
 44
0.0000000001
 40
0.0
 40
0.0
 40
0.0
 40
0.0
 40
1.279450460133928
 40
2.556514802475339
 40
3.830868876488594
 40
5.102211654927589
 40
5.102211654927589
 40
5.102211654927589
 40
5.102211654927589
 10
-18.14953322258551
 20
19.56864700000014
 30
0.0
 10
-17.7473902671847
 20
19.42633313790226
 30
0.0
 10
-16.94385433498007
 20
19.14197082268408
 30
0.0
 10
-15.76890036661422
 20
18.64015370973883
 30
0.0
 10
-14.61877071367223
 20
18.08997816516692
 30
0.0
 10
-13.87826907404644
 20
17.67517449847141
 30
0.0
 10
-13.50845622258552
 20
17.46801800000014
 30
0.0
 11
-18.14953322258551
 21
19.56864700000014
 31
0.0
 11
-16.94797222258555
 21
19.12905100000014
 31
0.0
 11
-15.77180422258558
 21
18.63153500000015
 31
0.0
 11
-14.6242312225855
 21
18.07741000000015
 31
0.0
 11
-13.50845622258552
 21
17.46801800000014
 31
0.0
  0
SPLINE
  5
BA2C
330
1F
100
AcDbEntity
  8
AM_0
100
AcDbSpline
210
0.0
220
0.0
230
1.0
 70
     8
 71
     3
 72
    11
 73
     7
 74
     5
 42
0.0000000001
 43
0.0000000001
 44
0.0000000001
 40
0.0
 40
0.0
 40
0.0
 40
0.0
 40
0.2030857046914577
 40
0.406014344791904
 40
0.608741392503835
 40
0.8112240477338731
 40
0.8112240477338731
 40
0.8112240477338731
 40
0.8112240477338731
 10
-18.94357422258562
 20
19.72348200000016
 30
0.0
 10
-18.87606494357162
 20
19.7181089739379
 30
0.0
 10
-18.74109859659075
 20
19.70736707726168
 30
0.0
 10
-18.54071278434008
 20
19.67425510490022
 30
0.0
 10
-18.34272284242259
 20
19.62984080745803
 30
0.0
 10
-18.21390386450894
 20
19.58903673248745
 30
0.0
 10
-18.14953322258551
 20
19.56864700000014
 30
0.0
 11
-18.94357422258562
 21
19.72348200000016
 31
0.0
 11
-18.74137522258556
 21
19.70452500000016
 31
0.0
 11
-18.54101322258552
 21
19.67235200000016
 31
0.0
 11
-18.34342022258553
 21
19.62701700000013
 31
0.0
 11
-18.14953322258551
 21
19.56864700000014
 31
0.0
  0
SPLINE
  5
BA2D
330
1F
100
AcDbEntity
  8
AM_0
100
AcDbSpline
210
0.0
220
0.0
230
1.0
 70
     8
 71
     3
 72
    11
 73
     7
 74
     5
 42
0.0000000001
 43
0.0000000001
 44
0.0000000001
 40
0.0
 40
0.0
 40
0.0
 40
0.0
 40
1.644454348654903
 40
3.29283042199657
 40
4.942941109276905
 40
6.591518471215736
 40
6.591518471215736
 40
6.591518471215736
 40
6.591518471215736
 10
-20.10666122258553
 20
23.45925300000016
 30
0.0
 10
-20.54049846682228
 20
23.11085772270263
 30
0.0
 10
-21.40920757825882
 20
22.41323630870375
 30
0.0
 10
-23.12249726898321
 20
22.17776007848979
 30
0.0
 10
-24.74361538401925
 20
22.70232628968222
 30
0.0
 10
-25.56923520036416
 20
23.44208338337157
 30
0.0
 10
-25.98185322258561
 20
23.81179000000014
 30
0.0
 11
-20.10666122258553
 21
23.45925300000016
 31
0.0
 11
-21.47616822258552
 21
22.54893400000014
 31
0.0
 11
-23.10631022258561
 21
22.30443300000016
 31
0.0
 11
-24.68022422258556
 21
22.8000740000001
 31
0.0
 11
-25.98185322258561
 21
23.81179000000014
 31
0.0
  0
SPLINE
  5
BA2E
330
1F
100
AcDbEntity
  8
AM_0
100
AcDbSpline
210
0.0
220
0.0
230
1.0
 70
     8
 71
     3
 72
    11
 73
     7
 74
     5
 42
0.0000000001
 43
0.0000000001
 44
0.0000000001
 40
0.0
 40
0.0
 40
0.0
 40
0.0
 40
0.8128778023079442
 40
1.636405295960702
 40
2.46921574875291
 40
3.309351591342702
 40
3.309351591342702
 40
3.309351591342702
 40
3.309351591342702
 10
-0.4790102225854867
 20
4.140077000000189
 30
0.0
 10
-0.4366918368948047
 20
3.87242725366527
 30
0.0
 10
-0.3515006430104064
 20
3.333621222646256
 30
0.0
 10
-0.2487353445813646
 20
2.51687978297568
 30
0.0
 10
-0.1619715726184951
 20
1.689157112948953
 30
0.0
 10
-0.1206483204640688
 20
1.133012108326192
 30
0.0
 10
-0.099896222585528
 20
0.8537220000001752
 30
0.0
 11
-0.4790102225854867
 21
4.140077000000189
 31
0.0
 11
-0.3562712225855762
 21
3.33651900000018
 31
0.0
 11
-0.2519322225855944
 21
2.519628000000182
 31
0.0
 11
-0.1663942225855521
 21
1.691222000000209
 31
0.0
 11
-0.099896222585528
 21
0.8537220000001752
 31
0.0
  0
SPLINE
  5
BA2F
330
1F
100
AcDbEntity
  8
AM_0
100
AcDbSpline
210
0.0
220
0.0
230
1.0
 70
     8
 71
     3
 72
    11
 73
     7
 74
     5
 42
0.0000000001
 43
0.0000000001
 44
0.0000000001
 40
0.0
 40
0.0
 40
0.0
 40
0.0
 40
0.3867705104632776
 40
0.7808510961776492
 40
1.178710176256359
 40
1.576816484395278
 40
1.576816484395278
 40
1.576816484395278
 40
1.576816484395278
 10
-24.22860822258562
 20
23.80684300000012
 30
0.0
 10
-24.0996870937557
 20
23.80566085059676
 30
0.0
 10
-23.83940818922722
 20
23.80327420882215
 30
0.0
 10
-23.446655925064
 20
23.79160188893771
 30
0.0
 10
-23.05032243167096
 20
23.77454794700964
 30
0.0
 10
-22.78549971039399
 20
23.75819634194778
 30
0.0
 10
-22.65304722258551
 20
23.75001800000015
 30
0.0
 11
-24.22860822258562
 21
23.80684300000012
 31
0.0
 11
-23.84186822258559
 21
23.80198500000014
 31
0.0
 11
-23.44794722258561
 21
23.79077100000015
 31
0.0
 11
-23.05047122258551
 21
23.77331600000013
 31
0.0
 11
-22.65304722258551
 21
23.75001800000015
 31
0.0
  0
SPLINE
  5
BA30
330
1F
100
AcDbEntity
  8
AM_0
100
AcDbSpline
210
0.0
220
0.0
230
1.0
 70
     8
 71
     3
 72
    11
 73
     7
 74
     5
 42
0.0000000001
 43
0.0000000001
 44
0.0000000001
 40
0.0
 40
0.0
 40
0.0
 40
0.0
 40
0.1538349953033906
 40
0.3076457399638242
 40
0.461437777625072
 40
0.6152166539540368
 40
0.6152166539540368
 40
0.6152166539540368
 40
0.6152166539540368
 10
-0.0657062225855327
 20
0.2394700000002103
 30
0.0
 10
-0.0680290082986406
 20
0.2906958709998682
 30
0.0
 10
-0.0726742135594928
 20
0.3931395377214792
 30
0.0
 10
-0.0808271469206557
 20
0.54673710582925
 30
0.0
 10
-0.089769424873892
 20
0.7002720045910836
 30
0.0
 10
-0.096520719647012
 20
0.8025734607315881
 30
0.0
 10
-0.099896222585528
 20
0.8537220000001752
 30
0.0
 11
-0.0657062225855327
 21
0.2394700000002103
 31
0.0
 11
-0.0728722225855165
 21
0.3931380000001923
 31
0.0
 11
-0.0809592225855625
 21
0.5467360000001804
 31
0.0
 11
-0.0899672225855852
 21
0.7002640000001748
 31
0.0
 11
-0.099896222585528
 21
0.8537220000001752
 31
0.0
  0
SPLINE
  5
BA31
330
1F
100
AcDbEntity
  8
AM_0
100
AcDbSpline
210
0.0
220
0.0
230
1.0
 70
     8
 71
     3
 72
    11
 73
     7
 74
     5
 42
0.0000000001
 43
0.0000000001
 44
0.0000000001
 40
0.0
 40
0.0
 40
0.0
 40
0.0
 40
0.1194116632703784
 40
0.2385253400879142
 40
0.3574722722887675
 40
0.4765032714654655
 40
0.4765032714654655
 40
0.4765032714654655
 40
0.4765032714654655
 10
-34.29921022258563
 20
19.10705400000011
 30
0.0
 10
-34.31670163743153
 20
19.07092649510642
 30
0.0
 10
-34.35164081808167
 20
18.998761639888
 30
0.0
 10
-34.44171619219845
 20
18.91716307203321
 30
0.0
 10
-34.55005404218052
 20
18.86230803332002
 30
0.0
 10
-34.6297781081331
 20
18.85567212583001
 30
0.0
 10
-34.66965422258553
 20
18.8523530000001
 30
0.0
 11
-34.29921022258563
 21
19.10705400000011
 31
0.0
 11
-34.35799122258558
 21
19.0031120000001
 31
0.0
 11
-34.44482222258554
 21
18.9215740000001
 31
0.0
 11
-34.55190822258552
 21
18.86979600000012
 31
0.0
 11
-34.66965422258553
 21
18.8523530000001
 31
0.0
  0
SPLINE
  5
BA32
330
1F
100
AcDbEntity
  8
AM_0
100
AcDbSpline
210
0.0
220
0.0
230
1.0
 70
     8
 71
     3
 72
    11
 73
     7
 74
     5
 42
0.0000000001
 43
0.0000000001
 44
0.0000000001
 40
0.0
 40
0.0
 40
0.0
 40
0.0
 40
0.1199077106779004
 40
0.2373838496678616
 40
0.3522867109464127
 40
0.4647853660539491
 40
0.4647853660539491
 40
0.4647853660539491
 40
0.4647853660539491
 10
-25.98185322258561
 20
23.81179000000014
 30
0.0
 10
-25.94229290342921
 20
23.80576442850742
 30
0.0
 10
-25.86397449669504
 20
23.79383547623818
 30
0.0
 10
-25.75120748823216
 20
23.76016481511049
 30
0.0
 10
-25.64278330070761
 20
23.72188952320651
 30
0.0
 10
-25.57304949469962
 20
23.69211758630915
 30
0.0
 10
-25.53855122258559
 20
23.67738900000011
 30
0.0
 11
-25.98185322258561
 21
23.81179000000014
 31
0.0
 11
-25.86376722258555
 21
23.79096800000013
 31
0.0
 11
-25.7507232225856
 21
23.75900400000011
 31
0.0
 11
-25.6424762225856
 21
23.72046500000016
 31
0.0
 11
-25.53855122258559
 21
23.67738900000011
 31
0.0
  0
SPLINE
  5
BA33
330
1F
100
AcDbEntity
  8
AM_0
100
AcDbSpline
210
0.0
220
0.0
230
1.0
 70
     8
 71
     3
 72
    11
 73
     7
 74
     5
 42
0.0000000001
 43
0.0000000001
 44
0.0000000001
 40
0.0
 40
0.0
 40
0.0
 40
0.0
 40
1.391750144587701
 40
2.783665725567072
 40
4.174044067694518
 40
5.562403826558904
 40
5.562403826558904
 40
5.562403826558904
 40
5.562403826558904
 10
-25.53855122258559
 20
23.67738900000011
 30
0.0
 10
-25.17627367364167
 20
23.3821138660926
 30
0.0
 10
-24.45167551206836
 20
22.79152849912353
 30
0.0
 10
-23.0815458756009
 20
22.3806264832216
 30
0.0
 10
-21.64254298589807
 20
22.54827134826162
 30
0.0
 10
-20.87881287595315
 20
23.09378987803534
 30
0.0
 10
-20.49722522258556
 20
23.36635100000015
 30
0.0
 11
-25.53855122258559
 21
23.67738900000011
 31
0.0
 11
-24.40443922258563
 21
22.87069300000013
 31
0.0
 11
-23.06935622258558
 21
22.47701500000013
 31
0.0
 11
-21.69067222258556
 21
22.65696600000015
 31
0.0
 11
-20.49722522258556
 21
23.36635100000015
 31
0.0
  0
SPLINE
  5
BA34
330
1F
100
AcDbEntity
  8
AM_0
100
AcDbSpline
210
0.0
220
0.0
230
1.0
 70
     8
 71
     3
 72
    11
 73
     7
 74
     5
 42
0.0000000001
 43
0.0000000001
 44
0.0000000001
 40
0.0
 40
0.0
 40
0.0
 40
0.0
 40
0.1034172386404324
 40
0.2050729124122667
 40
0.3046355309445103
 40
0.4020711548455992
 40
0.4020711548455992
 40
0.4020711548455992
 40
0.4020711548455992
 10
-20.10666122258553
 20
23.45925300000016
 30
0.0
 10
-20.14081582467582
 20
23.45446484624786
 30
0.0
 10
-20.2085432540195
 20
23.44497009809979
 30
0.0
 10
-20.30756457959823
 20
23.42205980908576
 30
0.0
 10
-20.4037186927362
 20
23.39621253965516
 30
0.0
 10
-20.46628154349007
 20
23.37623293981623
 30
0.0
 10
-20.49722522258556
 20
23.36635100000015
 30
0.0
 11
-20.10666122258553
 21
23.45925300000016
 31
0.0
 11
-20.20885322258558
 21
23.44338100000015
 31
0.0
 11
-20.30808622258561
 21
23.42132000000014
 31
0.0
 11
-20.4041832225856
 21
23.39528000000015
 31
0.0
 11
-20.49722522258556
 21
23.36635100000015
 31
0.0
  0
SPLINE
  5
BA35
330
1F
100
AcDbEntity
  8
AM_0
100
AcDbSpline
210
0.0
220
0.0
230
1.0
 70
     8
 71
     3
 72
    11
 73
     7
 74
     5
 42
0.0000000001
 43
0.0000000001
 44
0.0000000001
 40
0.0
 40
0.0
 40
0.0
 40
0.0
 40
0.0411152558789795
 40
0.0822563454732271
 40
0.1233957784786184
 40
0.1645400563552882
 40
0.1645400563552882
 40
0.1645400563552882
 40
0.1645400563552882
 10
-19.9425452225856
 20
23.45707600000014
 30
0.0
 10
-19.95615207529871
 20
23.4587609324643
 30
0.0
 10
-19.98337433024142
 20
23.46213185607666
 30
0.0
 10
-20.02451430816981
 20
23.46370741476718
 30
0.0
 10
-20.06568413450353
 20
23.46310274534809
 30
0.0
 10
-20.09300165707224
 20
23.46053629882032
 30
0.0
 10
-20.10666122258553
 20
23.45925300000016
 30
0.0
 11
-19.9425452225856
 21
23.45707600000014
 31
0.0
 11
-19.98341622258553
 21
23.46155100000015
 31
0.0
 11
-20.02451822258555
 21
23.46334400000015
 31
0.0
 11
-20.06565022258561
 21
23.46256200000013
 31
0.0
 11
-20.10666122258553
 21
23.45925300000016
 31
0.0
  0
SPLINE
  5
BA36
330
1F
100
AcDbEntity
  8
AM_0
100
AcDbSpline
210
0.0
220
0.0
230
1.0
 70
     8
 71
     3
 72
    11
 73
     7
 74
     5
 42
0.0000000001
 43
0.0000000001
 44
0.0000000001
 40
0.0
 40
0.0
 40
0.0
 40
0.0
 40
0.6167850946204338
 40
1.283163662493144
 40
1.990835380205458
 40
2.727131474344933
 40
2.727131474344933
 40
2.727131474344933
 40
2.727131474344933
 10
-19.9425482225856
 20
23.45707700000013
 30
0.0
 10
-20.14615101573177
 20
23.48566053834851
 30
0.0
 10
-20.56972757104405
 20
23.54512591465868
 30
0.0
 10
-21.22860525473012
 20
23.62452330543436
 30
0.0
 10
-21.92839502245941
 20
23.69699513506367
 30
0.0
 10
-22.40845898645549
 20
23.73213087487776
 30
0.0
 10
-22.65324922258557
 20
23.75004700000013
 30
0.0
 11
-19.9425482225856
 21
23.45707700000013
 31
0.0
 11
-20.55360922258555
 21
23.54091200000013
 31
0.0
 11
-21.21514722258561
 21
23.62108600000013
 31
0.0
 11
-21.91920222258553
 21
23.69254100000014
 31
0.0
 11
-22.65324922258557
 21
23.75004700000013
 31
0.0
  0
SPLINE
  5
BA37
330
1F
100
AcDbEntity
  8
AM_0
100
AcDbSpline
210
0.0
220
0.0
230
1.0
 70
     8
 71
     3
 72
    11
 73
     7
 74
     5
 42
0.0000000001
 43
0.0000000001
 44
0.0000000001
 40
0.0
 40
0.0
 40
0.0
 40
0.0
 40
0.8489496055243527
 40
1.771372125048407
 40
2.734358289362284
 40
3.686592124259993
 40
3.686592124259993
 40
3.686592124259993
 40
3.686592124259993
 10
-20.49722522258556
 20
23.36635100000015
 30
0.0
 10
-20.77711490634192
 20
23.40825099273446
 30
0.0
 10
-21.36111751458674
 20
23.49567724122591
 30
0.0
 10
-22.26741126187194
 20
23.5942874658062
 30
0.0
 10
-23.21106103897787
 20
23.66531767079786
 30
0.0
 10
-23.84950660411254
 20
23.67574941204741
 30
0.0
 10
-24.16693722258557
 20
23.68093600000014
 30
0.0
 11
-20.49722522258556
 21
23.36635100000015
 31
0.0
 11
-21.33760922258554
 21
23.48664300000015
 31
0.0
 11
-22.2544632225856
 21
23.58784600000015
 31
0.0
 11
-23.21502722258557
 21
23.65610400000014
 31
0.0
 11
-24.16693722258557
 21
23.68093600000014
 31
0.0
  0
SPLINE
  5
BA38
330
1F
100
AcDbEntity
  8
AM_0
100
AcDbSpline
210
0.0
220
0.0
230
1.0
 70
     8
 71
     3
 72
    11
 73
     7
 74
     5
 42
0.0000000001
 43
0.0000000001
 44
0.0000000001
 40
0.0
 40
0.0
 40
0.0
 40
0.0
 40
0.5538261373174665
 40
1.107841568959032
 40
1.661131960889004
 40
2.212748998371519
 40
2.212748998371519
 40
2.212748998371519
 40
2.212748998371519
 10
-34.28104422258556
 20
21.23803900000012
 30
0.0
 10
-34.28145577153906
 20
21.42264813937241
 30
0.0
 10
-34.28227901011092
 20
21.79192951637093
 30
0.0
 10
-34.27844570920919
 20
22.34563294215214
 30
0.0
 10
-34.27121326792797
 20
22.89856638290248
 30
0.0
 10
-34.26291971757535
 20
23.26677734303978
 30
0.0
 10
-34.2587792225855
 20
23.45060400000011
 30
0.0
 11
-34.28104422258556
 21
21.23803900000012
 31
0.0
 11
-34.2814342225856
 21
21.79186500000011
 31
0.0
 11
-34.2778752225856
 21
22.3458690000001
 31
0.0
 11
-34.27033422258555
 21
22.89910800000012
 31
0.0
 11
-34.2587792225855
 21
23.45060400000011
 31
0.0
  0
SPLINE
  5
BA39
330
1F
100
AcDbEntity
  8
AM_0
100
AcDbSpline
210
0.0
220
0.0
230
1.0
 70
     8
 71
     3
 72
    11
 73
     7
 74
     5
 42
0.0000000001
 43
0.0000000001
 44
0.0000000001
 40
0.0
 40
0.0
 40
0.0
 40
0.0
 40
0.1587218942049207
 40
0.3174668150338495
 40
0.4765645319565425
 40
0.636184146180539
 40
0.636184146180539
 40
0.636184146180539
 40
0.636184146180539
 10
-34.2587792225855
 20
23.45060400000011
 30
0.0
 10
-34.25108342861452
 20
23.50373498278482
 30
0.0
 10
-34.23569072420304
 20
23.61000465634669
 30
0.0
 10
-34.13650310734268
 20
23.74099947984007
 30
0.0
 10
-33.9996810417271
 20
23.83150419931463
 30
0.0
 10
-33.89266024422406
 20
23.84301311784829
 30
0.0
 10
-33.83906222258551
 20
23.84877700000012
 30
0.0
 11
-34.2587792225855
 21
23.45060400000011
 31
0.0
 11
-34.22302322258551
 21
23.6052460000001
 31
0.0
 11
-34.13035822258561
 21
23.73413800000011
 31
0.0
 11
-33.99592122258556
 21
23.81921900000012
 31
0.0
 11
-33.83906222258551
 21
23.84877700000012
 31
0.0
  0
SPLINE
  5
BA3A
330
1F
100
AcDbEntity
  8
AM_0
100
AcDbSpline
210
0.0
220
0.0
230
1.0
 70
     8
 71
     3
 72
    11
 73
     7
 74
     5
 42
0.0000000001
 43
0.0000000001
 44
0.0000000001
 40
0.0
 40
0.0
 40
0.0
 40
0.0
 40
0.036643440231529
 40
0.0733148897529129
 40
0.1099947889076387
 40
0.146706355981242
 40
0.146706355981242
 40
0.146706355981242
 40
0.146706355981242
 10
-34.29921022258563
 20
19.10705400000011
 30
0.0
 10
-34.29515746375529
 20
19.11858691120153
 30
0.0
 10
-34.28704884827148
 20
19.14166154906086
 30
0.0
 10
-34.2790531364807
 20
19.17751336457664
 30
0.0
 10
-34.27390689197909
 20
19.21390601102903
 30
0.0
 10
-34.2733571914474
 20
19.23838314977008
 30
0.0
 10
-34.27308222258554
 20
19.25062700000012
 30
0.0
 11
-34.29921022258563
 21
19.10705400000011
 31
0.0
 11
-34.28774622258558
 21
19.14185800000012
 31
0.0
 11
-34.27952922258552
 21
19.1775970000001
 31
0.0
 11
-34.27462822258561
 21
19.21394800000013
 31
0.0
 11
-34.27308222258554
 21
19.25062700000012
 31
0.0
  0
SPLINE
  5
BA3B
330
1F
100
AcDbEntity
  8
AM_0
100
AcDbSpline
210
0.0
220
0.0
230
1.0
 70
     8
 71
     3
 72
    11
 73
     7
 74
     5
 42
0.0000000001
 43
0.0000000001
 44
0.0000000001
 40
0.0
 40
0.0
 40
0.0
 40
0.0
 40
0.0748459327551867
 40
0.1496055830820813
 40
0.2243342093105775
 40
0.2990846253964614
 40
0.2990846253964614
 40
0.2990846253964614
 40
0.2990846253964614
 10
-18.35209722258554
 20
1.486315000000161
 30
0.0
 10
-18.32916045714507
 20
1.496159779955396
 30
0.0
 10
-18.28331336777867
 20
1.515837990798666
 30
0.0
 10
-18.21747292290137
 20
1.551460433352183
 30
0.0
 10
-18.15399603754678
 20
1.591089993232328
 30
0.0
 10
-18.11433875454627
 20
1.621295863354281
 30
0.0
 10
-18.09450722258549
 20
1.636401000000148
 30
0.0
 11
-18.35209722258554
 21
1.486315000000161
 31
0.0
 11
-18.28377222258558
 21
1.516870000000153
 31
0.0
 11
-18.21785322258557
 21
1.552136000000132
 31
0.0
 11
-18.1546662225856
 21
1.592033000000157
 31
0.0
 11
-18.09450722258549
 21
1.636401000000148
 31
0.0
  0
SPLINE
  5
BA3C
330
1F
100
AcDbEntity
  8
AM_0
100
AcDbSpline
210
0.0
220
0.0
230
1.0
 70
     8
 71
     3
 72
    11
 73
     7
 74
     5
 42
0.0000000001
 43
0.0000000001
 44
0.0000000001
 40
0.0
 40
0.0
 40
0.0
 40
0.0
 40
0.1595972549200237
 40
0.3190425743119593
 40
0.4783129423783072
 40
0.6374038569680828
 40
0.6374038569680828
 40
0.6374038569680828
 40
0.6374038569680828
 10
-8.29081722258553
 20
4.407231000000166
 30
0.0
 10
-8.317973687539547
 20
4.361474028727261
 30
0.0
 10
-8.372260764673068
 20
4.270003646514602
 30
0.0
 10
-8.461279039885802
 20
4.137650430963922
 30
0.0
 10
-8.555130649867397
 20
4.008887482913896
 30
0.0
 10
-8.622411673306302
 20
3.926796403306839
 30
0.0
 10
-8.656033222585563
 20
3.885774000000168
 30
0.0
 11
-8.29081722258553
 21
4.407231000000166
 31
0.0
 11
-8.373560222585581
 21
4.270758000000171
 31
0.0
 11
-8.462134222585575
 21
4.138178000000181
 31
0.0
 11
-8.556354222585525
 21
4.009766000000183
 31
0.0
 11
-8.656033222585563
 21
3.885774000000168
 31
0.0
  0
SPLINE
  5
BA3D
330
1F
100
AcDbEntity
  8
AM_0
100
AcDbSpline
210
0.0
220
0.0
230
1.0
 70
     8
 71
     3
 72
    11
 73
     7
 74
     5
 42
0.0000000001
 43
0.0000000001
 44
0.0000000001
 40
0.0
 40
0.0
 40
0.0
 40
0.0
 40
0.8970856693343758
 40
1.788519282186132
 40
2.692057770536272
 40
3.619929896106339
 40
3.619929896106339
 40
3.619929896106339
 40
3.619929896106339
 10
-11.95111222258555
 20
2.898184000000185
 30
0.0
 10
-11.65526965645454
 20
2.843148824366354
 30
0.0
 10
-11.06544846980096
 20
2.73342522027329
 30
0.0
 10
-10.16464811270105
 20
2.868877453962284
 30
0.0
 10
-9.312544681034713
 20
3.23051307563001
 30
0.0
 10
-8.876800262401443
 20
3.665427480958534
 30
0.0
 10
-8.656033222585563
 20
3.885774000000168
 30
0.0
 11
-11.95111222258555
 21
2.898184000000185
 31
0.0
 11
-11.06141022258549
 21
2.783323000000166
 31
0.0
 11
-10.17829122258552
 21
2.904792000000156
 31
0.0
 11
-9.353600222585498
 21
3.273935000000165
 31
0.0
 11
-8.656033222585563
 21
3.885774000000168
 31
0.0
  0
SPLINE
  5
BA3E
330
1F
100
AcDbEntity
  8
AM_0
100
AcDbSpline
210
0.0
220
0.0
230
1.0
 70
     8
 71
     3
 72
    11
 73
     7
 74
     5
 42
0.0000000001
 43
0.0000000001
 44
0.0000000001
 40
0.0
 40
0.0
 40
0.0
 40
0.0
 40
0.015362562611731
 40
0.0307263285888778
 40
0.0461039310352631
 40
0.0615083526408315
 40
0.0615083526408315
 40
0.0615083526408315
 40
0.0615083526408315
 10
-9.725737222585593
 20
19.20023500000013
 30
0.0
 10
-9.729533795134109
 20
19.20367205917791
 30
0.0
 10
-9.737127237620596
 20
19.21054644676187
 30
0.0
 10
-9.748900812294401
 20
19.22042802358182
 30
0.0
 10
-9.760931139987899
 20
19.23001773380542
 30
0.0
 10
-9.769188796863183
 20
19.23610947543744
 30
0.0
 10
-9.773321222585622
 20
19.23915800000014
 30
0.0
 11
-9.725737222585593
 21
19.20023500000013
 31
0.0
 11
-9.737190222585553
 21
19.21047400000014
 31
0.0
 11
-9.748938222585564
 21
19.22037500000016
 31
0.0
 11
-9.760982222585511
 21
19.22993600000017
 31
0.0
 11
-9.773321222585622
 21
19.23915800000014
 31
0.0
  0
SPLINE
  5
BA3F
330
1F
100
AcDbEntity
  8
AM_0
100
AcDbSpline
210
0.0
220
0.0
230
1.0
 70
     8
 71
     3
 72
    11
 73
     7
 74
     5
 42
0.0000000001
 43
0.0000000001
 44
0.0000000001
 40
0.0
 40
0.0
 40
0.0
 40
0.0
 40
1.562934546195076
 40
3.223729626248629
 40
4.733755809222966
 40
5.91670837552849
 40
5.91670837552849
 40
5.91670837552849
 40
5.91670837552849
 10
-5.42428622258555
 20
15.13850700000017
 30
0.0
 10
-5.795736581039197
 20
15.50380518890046
 30
0.0
 10
-6.561895041188964
 20
16.25727410213147
 30
0.0
 10
-7.700860249382809
 20
17.34948430381628
 30
0.0
 10
-8.769322003603519
 20
18.3316800339787
 30
0.0
 10
-9.433848670891071
 20
18.93516181298926
 30
0.0
 10
-9.725757222585542
 20
19.20025500000014
 30
0.0
 11
-5.42428622258555
 21
15.13850700000017
 31
0.0
 11
-6.540867222585546
 21
16.23213000000018
 31
0.0
 11
-7.741316222585595
 21
17.37980700000017
 31
0.0
 11
-8.8507342225856
 21
18.40419500000018
 31
0.0
 11
-9.725757222585542
 21
19.20025500000014
 31
0.0
  0
SPLINE
  5
BA40
330
1F
100
AcDbEntity
  8
AM_0
100
AcDbSpline
210
0.0
220
0.0
230
1.0
 70
     8
 71
     3
 72
    11
 73
     7
 74
     5
 42
0.0000000001
 43
0.0000000001
 44
0.0000000001
 40
0.0
 40
0.0
 40
0.0
 40
0.0
 40
0.1159053670586368
 40
0.2330988190984212
 40
0.3499271316343946
 40
0.465889689527045
 40
0.465889689527045
 40
0.465889689527045
 40
0.465889689527045
 10
-5.437434222585551
 20
15.15093800000016
 30
0.0
 10
-5.46750532566075
 20
15.17528304218061
 30
0.0
 10
-5.527981719409368
 20
15.22424367901025
 30
0.0
 10
-5.629088689509908
 20
15.28303070840437
 30
0.0
 10
-5.732770690532428
 20
15.336537454104
 30
0.0
 10
-5.80396997583202
 20
15.36745881712338
 30
0.0
 10
-5.839437222585587
 20
15.38286200000015
 30
0.0
 11
-5.437434222585551
 21
15.15093800000016
 31
0.0
 11
-5.529347222585528
 21
15.22155000000017
 31
0.0
 11
-5.629623222585536
 21
15.28220500000017
 31
0.0
 11
-5.733590222585547
 21
15.33549400000018
 31
0.0
 11
-5.839437222585587
 21
15.38286200000015
 31
0.0
  0
SPLINE
  5
BA41
330
1F
100
AcDbEntity
  8
AM_0
100
AcDbSpline
210
0.0
220
0.0
230
1.0
 70
     8
 71
     3
 72
    11
 73
     7
 74
     5
 42
0.0000000001
 43
0.0000000001
 44
0.0000000001
 40
0.0
 40
0.0
 40
0.0
 40
0.0
 40
1.322604798784594
 40
2.699296985967346
 40
3.963428566708818
 40
4.997318247905509
 40
4.997318247905509
 40
4.997318247905509
 40
4.997318247905509
 10
-5.839437222585587
 20
15.38286200000015
 30
0.0
 10
-6.150345935659871
 20
15.69544898574656
 30
0.0
 10
-6.784877847901242
 20
16.33340607561441
 30
0.0
 10
-7.739421207833911
 20
17.24701869205762
 30
0.0
 10
-8.644953785203615
 20
18.07209255211474
 30
0.0
 10
-9.223166725766212
 20
18.57454808691129
 30
0.0
 10
-9.48330722258558
 20
18.80060500000016
 30
0.0
 11
-5.839437222585587
 21
15.38286200000015
 31
0.0
 11
-6.775899222585593
 21
16.31684400000017
 31
0.0
 11
-7.770538222585599
 21
17.26867100000018
 31
0.0
 11
-8.705300222585577
 21
18.11969900000016
 31
0.0
 11
-9.48330722258558
 21
18.80060500000016
 31
0.0
  0
SPLINE
  5
BA42
330
1F
100
AcDbEntity
  8
AM_0
100
AcDbSpline
210
0.0
220
0.0
230
1.0
 70
     8
 71
     3
 72
    11
 73
     7
 74
     5
 42
0.0000000001
 43
0.0000000001
 44
0.0000000001
 40
0.0
 40
0.0
 40
0.0
 40
0.0
 40
0.0949114711402479
 40
0.1930385525499852
 40
0.2949221747274855
 40
0.4013699834273254
 40
0.4013699834273254
 40
0.4013699834273254
 40
0.4013699834273254
 10
-9.48330722258558
 20
18.80060500000016
 30
0.0
 10
-9.495097349912279
 20
18.82997649304531
 30
0.0
 10
-9.519077055275426
 20
18.88971458829925
 30
0.0
 10
-9.562630923016715
 20
18.97790094556041
 30
0.0
 10
-9.613216968484442
 20
19.06692257112821
 30
0.0
 10
-9.655765747479279
 20
19.12191327286412
 30
0.0
 10
-9.677506222585606
 20
19.15001100000017
 30
0.0
 11
-9.48330722258558
 21
18.80060500000016
 31
0.0
 11
-9.519772222585601
 21
18.88823200000018
 31
0.0
 11
-9.562913222585592
 21
18.97636700000015
 31
0.0
 11
-9.61441522258562
 21
19.06427500000018
 31
0.0
 11
-9.677506222585606
 21
19.15001100000017
 31
0.0
  0
SPLINE
  5
BA43
330
1F
100
AcDbEntity
  8
AM_0
100
AcDbSpline
210
0.0
220
0.0
230
1.0
 70
     8
 71
     3
 72
    11
 73
     7
 74
     5
 42
0.0000000001
 43
0.0000000001
 44
0.0000000001
 40
0.0
 40
0.0
 40
0.0
 40
0.0
 40
1.371771527377988
 40
2.740198513584474
 40
4.121007624210847
 40
5.519215975952831
 40
5.519215975952831
 40
5.519215975952831
 40
5.519215975952831
 10
-9.48330722258558
 20
18.80060500000016
 30
0.0
 10
-9.421933825482433
 20
18.34175002281302
 30
0.0
 10
-9.299336666874598
 20
17.42515881112461
 30
0.0
 10
-8.464187094419902
 20
16.26485463243472
 30
0.0
 10
-7.234485114431574
 20
15.54317275792087
 30
0.0
 10
-6.306390099988155
 20
15.43652149809137
 30
0.0
 10
-5.839437222585587
 20
15.38286200000015
 30
0.0
 11
-9.48330722258558
 21
18.80060500000016
 31
0.0
 11
-9.190742222585612
 21
17.46039500000017
 31
0.0
 11
-8.402779222585508
 21
16.34159800000017
 31
0.0
 11
-7.213937222585599
 21
15.63925300000016
 31
0.0
 11
-5.839437222585587
 21
15.38286200000015
 31
0.0
  0
SPLINE
  5
BA44
330
1F
100
AcDbEntity
  8
AM_0
100
AcDbSpline
210
0.0
220
0.0
230
1.0
 70
     8
 71
     3
 72
    11
 73
     7
 74
     5
 42
0.0000000001
 43
0.0000000001
 44
0.0000000001
 40
0.0
 40
0.0
 40
0.0
 40
0.0
 40
0.2449495215447413
 40
0.4903045946551155
 40
0.7358746274401008
 40
0.9814735180910592
 40
0.9814735180910592
 40
0.9814735180910592
 40
0.9814735180910592
 10
-7.68400122258555
 20
5.459502000000185
 30
0.0
 10
-7.643432013032146
 20
5.530360896070243
 30
0.0
 10
-7.562226425366088
 20
5.672196005999179
 30
0.0
 10
-7.443323233445889
 20
5.886749113243389
 30
0.0
 10
-7.326304760693204
 20
6.102582073382203
 30
0.0
 10
-7.250263891175753
 20
6.247577184806776
 30
0.0
 10
-7.212241222585532
 20
6.320079000000163
 30
0.0
 11
-7.68400122258555
 21
5.459502000000185
 31
0.0
 11
-7.562788222585538
 21
5.672358000000173
 31
0.0
 11
-7.443689222585533
 21
5.886868000000163
 31
0.0
 11
-7.326808222585498
 21
6.102839000000187
 31
0.0
 11
-7.212241222585532
 21
6.320079000000163
 31
0.0
  0
SPLINE
  5
BA45
330
1F
100
AcDbEntity
  8
AM_0
100
AcDbSpline
210
0.0
220
0.0
230
1.0
 70
     8
 71
     3
 72
    11
 73
     7
 74
     5
 42
0.0000000001
 43
0.0000000001
 44
0.0000000001
 40
0.0
 40
0.0
 40
0.0
 40
0.0
 40
0.4406685135802559
 40
0.8782991358417325
 40
1.311436480956443
 40
1.739621350442737
 40
1.739621350442737
 40
1.739621350442737
 40
1.739621350442737
 10
-7.212241222585532
 20
6.320079000000163
 30
0.0
 10
-7.149531818721991
 20
6.453193785330494
 30
0.0
 10
-7.024545318608753
 20
6.71850568604585
 30
0.0
 10
-6.909302252188276
 20
7.14200550376587
 30
0.0
 10
-6.843405696633581
 20
7.571504984037197
 30
0.0
 10
-6.846885383162927
 20
7.859032074125033
 30
0.0
 10
-6.848615222585578
 20
8.001969000000173
 30
0.0
 11
-7.212241222585532
 21
6.320079000000163
 31
0.0
 11
-7.036147222585498
 21
6.724034000000187
 31
0.0
 11
-6.917077222585533
 21
7.145155000000158
 31
0.0
 11
-6.855084222585503
 21
7.573833000000178
 31
0.0
 11
-6.848615222585578
 21
8.001969000000173
 31
0.0
  0
SPLINE
  5
BA46
330
1F
100
AcDbEntity
  8
AM_0
100
AcDbSpline
210
0.0
220
0.0
230
1.0
 70
     8
 71
     3
 72
    11
 73
     7
 74
     5
 42
0.0000000001
 43
0.0000000001
 44
0.0000000001
 40
0.0
 40
0.0
 40
0.0
 40
0.0
 40
0.2746223990373084
 40
0.5490217937469292
 40
0.8232001506042808
 40
1.097155319644759
 40
1.097155319644759
 40
1.097155319644759
 40
1.097155319644759
 10
-4.136766222585521
 20
-1.382644999999826
 30
0.0
 10
-4.226702169042738
 20
-1.365579140808636
 30
0.0
 10
-4.406501030386023
 20
-1.331461280583744
 30
0.0
 10
-4.676085388935161
 20
-1.280278652970056
 30
0.0
 10
-4.945447929350036
 20
-1.22912007225013
 30
0.0
 10
-5.124947154208356
 20
-1.195011394650879
 30
0.0
 10
-5.214660222585536
 20
-1.177963999999832
 30
0.0
 11
-4.136766222585521
 21
-1.382644999999826
 31
0.0
 11
-4.406573222585535
 21
-1.331442999999836
 31
0.0
 11
-4.676157222585544
 21
-1.280261999999822
 31
0.0
 11
-4.945520222585543
 21
-1.229101999999841
 31
0.0
 11
-5.214660222585536
 21
-1.177963999999832
 31
0.0
  0
SPLINE
  5
BA47
330
1F
100
AcDbEntity
  8
AM_0
100
AcDbSpline
210
0.0
220
0.0
230
1.0
 70
     8
 71
     3
 72
    11
 73
     7
 74
     5
 42
0.0000000001
 43
0.0000000001
 44
0.0000000001
 40
0.0
 40
0.0
 40
0.0
 40
0.0
 40
0.2960515081958191
 40
0.5953491184518967
 40
0.8974392692677904
 40
1.201685477502181
 40
1.201685477502181
 40
1.201685477502181
 40
1.201685477502181
 10
-1.468638222585497
 20
-1.87254199999981
 30
0.0
 10
-1.399349774001308
 20
-1.802215476303982
 30
0.0
 10
-1.260013153036651
 20
-1.660791322982648
 30
0.0
 10
-1.069045064100448
 20
-1.430144727975424
 30
0.0
 10
-0.8906267548238794
 20
-1.186226656557928
 30
0.0
 10
-0.7865004867268172
 20
-1.01289100559498
 30
0.0
 10
-0.7342522225855248
 20
-0.9259149999998044
 30
0.0
 11
-1.468638222585497
 21
-1.87254199999981
 31
0.0
 11
-1.263901222585474
 21
-1.658697999999787
 31
0.0
 11
-1.071990222585469
 21
-1.429025999999794
 31
0.0
 11
-0.8948562225855596
 21
-1.184317999999791
 31
0.0
 11
-0.7342522225855248
 21
-0.9259149999998044
 31
0.0
  0
SPLINE
  5
BA48
330
1F
100
AcDbEntity
  8
AM_0
100
AcDbSpline
210
0.0
220
0.0
230
1.0
 70
     8
 71
     3
 72
    11
 73
     7
 74
     5
 42
0.0000000001
 43
0.0000000001
 44
0.0000000001
 40
0.0
 40
0.0
 40
0.0
 40
0.0
 40
0.1931423035303545
 40
0.3873918396430845
 40
0.5818685574783884
 40
0.7755967190269767
 40
0.7755967190269767
 40
0.7755967190269767
 40
0.7755967190269767
 10
-58.22562822258553
 20
19.30375900000007
 30
0.0
 10
-58.28927042827628
 20
19.29201282811714
 30
0.0
 10
-58.41691968320818
 20
19.26845314672514
 30
0.0
 10
-58.59058592312361
 20
19.17687350260027
 30
0.0
 10
-58.74175184318466
 20
19.05108138308188
 30
0.0
 10
-58.81153961889179
 20
18.94126654418482
 30
0.0
 10
-58.8463662225856
 20
18.8864650000001
 30
0.0
 11
-58.22562822258553
 21
19.30375900000007
 31
0.0
 11
-58.41356522258556
 21
19.25922100000008
 31
0.0
 11
-58.58673922258557
 21
19.17122300000005
 31
0.0
 11
-58.73417522258555
 21
19.04440100000005
 31
0.0
 11
-58.8463662225856
 21
18.8864650000001
 31
0.0
  0
SPLINE
  5
BA49
330
1F
100
AcDbEntity
  8
AM_0
100
AcDbSpline
210
0.0
220
0.0
230
1.0
 70
     8
 71
     3
 72
    11
 73
     7
 74
     5
 42
0.0000000001
 43
0.0000000001
 44
0.0000000001
 40
0.0
 40
0.0
 40
0.0
 40
0.0
 40
0.1126158052185047
 40
0.2246615831531831
 40
0.3360692752844192
 40
0.4467998471288669
 40
0.4467998471288669
 40
0.4467998471288669
 40
0.4467998471288669
 10
-58.8463662225856
 20
18.8864650000001
 30
0.0
 10
-58.86287938941669
 20
18.8526730816753
 30
0.0
 10
-58.89582213840246
 20
18.78526028953745
 30
0.0
 10
-58.92595801489275
 20
18.67684996670716
 30
0.0
 10
-58.94240463499337
 20
18.56617405411903
 30
0.0
 10
-58.9397529991556
 20
18.49203402033066
 30
0.0
 10
-58.93843122258553
 20
18.45507700000007
 30
0.0
 11
-58.8463662225856
 21
18.8864650000001
 31
0.0
 11
-58.89269022258563
 21
18.78381800000005
 31
0.0
 11
-58.92374222258556
 21
18.67616100000009
 31
0.0
 11
-58.93902122258563
 21
18.56580600000006
 31
0.0
 11
-58.93843122258553
 21
18.45507700000007
 31
0.0
  0
SPLINE
  5
BA4A
330
1F
100
AcDbEntity
  8
AM_0
100
AcDbSpline
210
0.0
220
0.0
230
1.0
 70
     8
 71
     3
 72
    11
 73
     7
 74
     5
 42
0.0000000001
 43
0.0000000001
 44
0.0000000001
 40
0.0
 40
0.0
 40
0.0
 40
0.0
 40
0.2652673468182713
 40
0.5287023674305992
 40
0.7933466539077257
 40
1.061330518879058
 40
1.061330518879058
 40
1.061330518879058
 40
1.061330518879058
 10
-46.46603522258553
 20
19.8914630000001
 30
0.0
 10
-46.48177450840699
 20
19.97953379196264
 30
0.0
 10
-46.51314436140729
 20
20.15506702954572
 30
0.0
 10
-46.67456992465118
 20
20.37441143148186
 30
0.0
 10
-46.90022771865686
 20
20.5283938227674
 30
0.0
 10
-47.07799784837326
 20
20.5541101937075
 30
0.0
 10
-47.16744022258555
 20
20.56704900000008
 30
0.0
 11
-46.46603522258553
 21
19.8914630000001
 31
0.0
 11
-46.53243722258557
 21
20.1482850000001
 31
0.0
 11
-46.68483622258563
 21
20.36316300000009
 31
0.0
 11
-46.9058942225856
 21
20.50866200000009
 31
0.0
 11
-47.16744022258555
 21
20.56704900000008
 31
0.0
  0
SPLINE
  5
BA4B
330
1F
100
AcDbEntity
  8
AM_0
100
AcDbSpline
210
0.0
220
0.0
230
1.0
 70
     8
 71
     3
 72
    11
 73
     7
 74
     5
 42
0.0000000001
 43
0.0000000001
 44
0.0000000001
 40
0.0
 40
0.0
 40
0.0
 40
0.0
 40
0.0320077753835355
 40
0.0640515680584989
 40
0.0961847960321012
 40
0.1284563891132722
 40
0.1284563891132722
 40
0.1284563891132722
 40
0.1284563891132722
 10
-47.16744022258555
 20
20.56704900000008
 30
0.0
 10
-47.17810517854892
 20
20.56740431164133
 30
0.0
 10
-47.199447091398
 20
20.56811533474428
 30
0.0
 10
-47.2315145957291
 20
20.56752974895002
 30
0.0
 10
-47.2636305352926
 20
20.56583762730133
 30
0.0
 10
-47.28498703296563
 20
20.56361879805272
 30
0.0
 10
-47.29568822258554
 20
20.56250700000009
 30
0.0
 11
-47.16744022258555
 21
20.56704900000008
 31
0.0
 11
-47.19943822258559
 21
20.5678400000001
 31
0.0
 11
-47.23147822258553
 21
20.5673470000001
 31
0.0
 11
-47.26356222258559
 21
20.56556900000009
 31
0.0
 11
-47.29568822258554
 21
20.56250700000009
 31
0.0
  0
SPLINE
  5
BA4C
330
1F
100
AcDbEntity
  8
AM_0
100
AcDbSpline
210
0.0
220
0.0
230
1.0
 70
     8
 71
     3
 72
    11
 73
     7
 74
     5
 42
0.0000000001
 43
0.0000000001
 44
0.0000000001
 40
0.0
 40
0.0
 40
0.0
 40
0.0
 40
0.2958702597102805
 40
0.5900931962890024
 40
0.8863958849335318
 40
1.187555492851001
 40
1.187555492851001
 40
1.187555492851001
 40
1.187555492851001
 10
-58.11042022258556
 20
7.686200000000098
 30
0.0
 10
-58.09163724032575
 20
7.58789770071587
 30
0.0
 10
-58.05417585421555
 20
7.391840421947838
 30
0.0
 10
-57.85625782065749
 20
7.157523816287821
 30
0.0
 10
-57.5844461795193
 20
7.01300347741379
 30
0.0
 10
-57.3825399900696
 20
7.014433949583546
 30
0.0
 10
-57.28076622258555
 20
7.015155000000049
 30
0.0
 11
-58.11042022258556
 21
7.686200000000098
 31
0.0
 11
-58.03036522258555
 21
7.401366000000052
 31
0.0
 11
-57.84476822258551
 21
7.173066000000062
 31
0.0
 11
-57.58106122258556
 21
7.037959000000057
 31
0.0
 11
-57.28076622258555
 21
7.015155000000049
 31
0.0
  0
SPLINE
  5
BA4D
330
1F
100
AcDbEntity
  8
AM_0
100
AcDbSpline
210
0.0
220
0.0
230
1.0
 70
     8
 71
     3
 72
    11
 73
     7
 74
     5
 42
0.0000000001
 43
0.0000000001
 44
0.0000000001
 40
0.0
 40
0.0
 40
0.0
 40
0.0
 40
0.3053395429829852
 40
0.6121566859263956
 40
0.9168769234902992
 40
1.21707792903993
 40
1.21707792903993
 40
1.21707792903993
 40
1.21707792903993
 10
-46.35082622258557
 20
8.273903000000075
 30
0.0
 10
-46.25031413961213
 20
8.296792141880489
 30
0.0
 10
-46.04880357531551
 20
8.342681190839975
 30
0.0
 10
-45.8075369903913
 20
8.545587566906375
 30
0.0
 10
-45.64942372026989
 20
8.81698860246745
 30
0.0
 10
-45.64180441443412
 20
9.021228143545467
 30
0.0
 10
-45.63802322258555
 20
9.1225850000001
 30
0.0
 11
-46.35082622258557
 21
8.273903000000075
 31
0.0
 11
-46.05934822258547
 21
8.364858000000083
 31
0.0
 11
-45.82079622258556
 21
8.557808000000079
 31
0.0
 11
-45.67332622258556
 21
8.824467000000083
 31
0.0
 11
-45.63802322258555
 21
9.1225850000001
 31
0.0
  0
SPLINE
  5
BA4E
330
1F
100
AcDbEntity
  8
AM_0
100
AcDbSpline
210
0.0
220
0.0
230
1.0
 70
     8
 71
     3
 72
    11
 73
     7
 74
     5
 42
0.0000000001
 43
0.0000000001
 44
0.0000000001
 40
0.0
 40
0.0
 40
0.0
 40
0.0
 40
0.0914320782056522
 40
0.1868412051956775
 40
0.2874355534911903
 40
0.3927781833282999
 40
0.3927781833282999
 40
0.3927781833282999
 40
0.3927781833282999
 10
-3.781601222585578
 20
-10.71847999999983
 30
0.0
 10
-3.76750038520577
 20
-10.74566097197523
 30
0.0
 10
-3.738685362053987
 20
-10.80120521489239
 30
0.0
 10
-3.72067310403401
 20
-10.89644514507755
 30
0.0
 10
-3.725726697578197
 20
-10.99874008310768
 30
0.0
 10
-3.754704335462846
 20
-11.06161810228908
 30
0.0
 10
-3.76952722258548
 20
-11.09378199999983
 30
0.0
 11
-3.781601222585578
 21
-10.71847999999983
 31
0.0
 11
-3.743395222585519
 21
-10.80154699999982
 31
0.0
 11
-3.724687222585572
 21
-10.89510399999983
 31
0.0
 11
-3.731737222585508
 21
-10.99545099999983
 31
0.0
 11
-3.76952722258548
 21
-11.09378199999983
 31
0.0
  0
SPLINE
  5
BA4F
330
1F
100
AcDbEntity
  8
AM_0
100
AcDbSpline
210
0.0
220
0.0
230
1.0
 70
     8
 71
     3
 72
    11
 73
     7
 74
     5
 42
0.0000000001
 43
0.0000000001
 44
0.0000000001
 40
0.0
 40
0.0
 40
0.0
 40
0.0
 40
0.1945941334470273
 40
0.3892928262135811
 40
0.5803084888698055
 40
0.7670157582971298
 40
0.7670157582971298
 40
0.7670157582971298
 40
0.7670157582971298
 10
-2.969706222585529
 20
-10.69066099999983
 30
0.0
 10
-2.906936180099881
 20
-10.71169702389315
 30
0.0
 10
-2.781362367529441
 20
-10.75378037475612
 30
0.0
 10
-2.65810414178606
 20
-10.91456798456416
 30
0.0
 10
-2.608070879823935
 20
-11.10778832842737
 30
0.0
 10
-2.649772996256944
 20
-11.2292171242491
 30
0.0
 10
-2.670386222585563
 20
-11.28923899999983
 30
0.0
 11
-2.969706222585529
 21
-10.69066099999983
 31
0.0
 11
-2.792112222585529
 21
-10.77020499999983
 31
0.0
 11
-2.669606222585485
 21
-10.92153199999981
 31
0.0
 11
-2.626802222585553
 21
-11.10768999999982
 31
0.0
 11
-2.670386222585563
 21
-11.28923899999983
 31
0.0
  0
SPLINE
  5
BA50
330
1F
100
AcDbEntity
  8
AM_0
100
AcDbSpline
210
0.0
220
0.0
230
1.0
 70
     8
 71
     3
 72
    11
 73
     7
 74
     5
 42
0.0000000001
 43
0.0000000001
 44
0.0000000001
 40
0.0
 40
0.0
 40
0.0
 40
0.0
 40
1.33850081604949
 40
2.693938222957229
 40
4.058300099708839
 40
5.426280734217882
 40
5.426280734217882
 40
5.426280734217882
 40
5.426280734217882
 10
-35.50718222258552
 20
5.925200000000131
 30
0.0
 10
-35.67928547736225
 20
5.509895513735872
 30
0.0
 10
-36.02566967883534
 20
4.674031525983521
 30
0.0
 10
-36.97782501110788
 20
3.67669816058343
 30
0.0
 10
-38.17115816837682
 20
2.964461413525035
 30
0.0
 10
-39.07724352657622
 20
2.816783666758415
 30
0.0
 10
-39.53088622258547
 20
2.742847000000097
 30
0.0
 11
-35.50718222258552
 21
5.925200000000131
 31
0.0
 11
-36.0940132225856
 21
4.722198000000105
 31
0.0
 11
-37.0144422225855
 21
3.727200000000124
 31
0.0
 11
-38.19714022258557
 21
3.046973000000122
 31
0.0
 11
-39.53088622258547
 21
2.742847000000097
 31
0.0
  0
SPLINE
  5
BA51
330
1F
100
AcDbEntity
  8
AM_0
100
AcDbSpline
210
0.0
220
0.0
230
1.0
 70
     8
 71
     3
 72
    11
 73
     7
 74
     5
 42
0.0000000001
 43
0.0000000001
 44
0.0000000001
 40
0.0
 40
0.0
 40
0.0
 40
0.0
 40
1.06462543875532
 40
2.076374068984253
 40
3.028909614288946
 40
3.915538557496356
 40
3.915538557496356
 40
3.915538557496356
 40
3.915538557496356
 10
-39.24986522258558
 20
7.062124000000096
 30
0.0
 10
-38.91779889141044
 20
6.936793205611648
 30
0.0
 10
-38.27015898526571
 20
6.692356428093333
 30
0.0
 10
-37.30830210039927
 20
6.384382826084339
 30
0.0
 10
-36.3936844632023
 20
6.125038696045363
 30
0.0
 10
-35.79553809563245
 20
5.990202274136054
 30
0.0
 10
-35.50718222258552
 20
5.925200000000131
 30
0.0
 11
-39.24986522258558
 21
7.062124000000096
 31
0.0
 11
-38.25058222258559
 21
6.694890000000128
 31
0.0
 11
-37.28780122258553
 21
6.38394300000013
 31
0.0
 11
-36.37036422258558
 21
6.127753000000126
 31
0.0
 11
-35.50718222258552
 21
5.925200000000131
 31
0.0
  0
SPLINE
  5
BA52
330
1F
100
AcDbEntity
  8
AM_0
100
AcDbSpline
210
0.0
220
0.0
230
1.0
 70
     8
 71
     3
 72
    11
 73
     7
 74
     5
 42
0.0000000001
 43
0.0000000001
 44
0.0000000001
 40
0.0
 40
0.0
 40
0.0
 40
0.0
 40
0.0472413083328436
 40
0.0944687424892487
 40
0.1416861721736849
 40
0.1888960871492179
 40
0.1888960871492179
 40
0.1888960871492179
 40
0.1888960871492179
 10
-64.24996922258555
 20
3.289166000000051
 30
0.0
 10
-64.25952522193544
 20
3.301682275693679
 30
0.0
 10
-64.2786344141587
 20
3.326711151208622
 30
0.0
 10
-64.30690494838525
 20
3.364544891534375
 30
0.0
 10
-64.33490696555408
 20
3.402564812766578
 30
0.0
 10
-64.35330829171263
 20
3.428101615011433
 30
0.0
 10
-64.36250822258552
 20
3.440869000000049
 30
0.0
 11
-64.24996922258555
 21
3.289166000000051
 31
0.0
 11
-64.27857222258552
 21
3.326764000000054
 31
0.0
 11
-64.30686322258549
 21
3.364580000000046
 31
0.0
 11
-64.33484222258556
 21
3.402615000000054
 31
0.0
 11
-64.36250822258552
 21
3.440869000000049
 31
0.0
  0
SPLINE
  5
BA53
330
1F
100
AcDbEntity
  8
AM_0
100
AcDbSpline
210
0.0
220
0.0
230
1.0
 70
     8
 71
     3
 72
    11
 73
     7
 74
     5
 42
0.0000000001
 43
0.0000000001
 44
0.0000000001
 40
0.0
 40
0.0
 40
0.0
 40
0.0
 40
1.317393848127817
 40
2.634821081883769
 40
3.951326732188429
 40
5.264359836707113
 40
5.264359836707113
 40
5.264359836707113
 40
5.264359836707113
 10
-59.65567322258556
 20
1.161865000000091
 30
0.0
 10
-60.09758486057831
 20
1.161869091588421
 30
0.0
 10
-60.98141933556677
 20
1.161877274868772
 30
0.0
 10
-62.24473867746965
 20
1.598832909708879
 30
0.0
 10
-63.3796128021552
 20
2.295457863446708
 30
0.0
 10
-63.96010594715849
 20
2.958221701183424
 30
0.0
 10
-64.24996922258555
 20
3.289166000000051
 30
0.0
 11
-59.65567322258556
 21
1.161865000000091
 31
0.0
 11
-60.97105122258557
 21
1.234716000000048
 31
0.0
 11
-62.22382222258551
 21
1.642367000000064
 31
0.0
 11
-63.33660022258555
 21
2.345867000000055
 31
0.0
 11
-64.24996922258555
 21
3.289166000000051
 31
0.0
  0
SPLINE
  5
BA54
330
1F
100
AcDbEntity
  8
AM_0
100
AcDbSpline
210
0.0
220
0.0
230
1.0
 70
     8
 71
     3
 72
    11
 73
     7
 74
     5
 42
0.0000000001
 43
0.0000000001
 44
0.0000000001
 40
0.0
 40
0.0
 40
0.0
 40
0.0
 40
0.029068986119226
 40
0.0571544173069261
 40
0.0847562581332284
 40
0.1123759862274572
 40
0.1123759862274572
 40
0.1123759862274572
 40
0.1123759862274572
 10
-44.28200322258553
 20
20.98496000000011
 30
0.0
 10
-44.28517833276605
 20
20.9941332763075
 30
0.0
 10
-44.29142112264214
 20
21.01216944929248
 30
0.0
 10
-44.29579258676164
 20
21.04020675868064
 30
0.0
 10
-44.29644696068293
 20
21.06810147794143
 30
0.0
 10
-44.29346812358449
 20
21.0863018608358
 30
0.0
 10
-44.29197822258558
 20
21.09540500000008
 30
0.0
 11
-44.28200322258553
 21
20.98496000000011
 31
0.0
 11
-44.29067622258557
 21
21.01270500000009
 31
0.0
 11
-44.29519822258552
 21
21.04042400000008
 31
0.0
 11
-44.29559422258555
 21
21.06802300000009
 31
0.0
 11
-44.29197822258558
 21
21.09540500000008
 31
0.0
  0
SPLINE
  5
BA55
330
1F
100
AcDbEntity
  8
AM_0
100
AcDbSpline
210
0.0
220
0.0
230
1.0
 70
     8
 71
     3
 72
    11
 73
     7
 74
     5
 42
0.0000000001
 43
0.0000000001
 44
0.0000000001
 40
0.0
 40
0.0
 40
0.0
 40
0.0
 40
1.157662360893288
 40
2.388109017116125
 40
3.685518633956107
 40
5.01074719384642
 40
5.01074719384642
 40
5.01074719384642
 40
5.01074719384642
 10
-33.77142122258558
 20
-12.15346499999987
 30
0.0
 10
-33.70222375826145
 20
-11.76804741106962
 30
0.0
 10
-33.55947826173643
 20
-10.97298034266355
 30
0.0
 10
-32.73188386914366
 20
-9.996544985008879
 30
0.0
 10
-31.53411460941668
 20
-9.402179620346268
 30
0.0
 10
-30.64826781364568
 20
-9.458832230904981
 30
0.0
 10
-30.20064622258556
 20
-9.487458999999887
 30
0.0
 11
-33.77142122258558
 21
-12.15346499999987
 31
0.0
 11
-33.47135622258545
 21
-11.03536699999989
 31
0.0
 11
-32.69522922258548
 21
-10.08057599999989
 31
0.0
 11
-31.52549122258554
 21
-9.519340999999883
 31
0.0
 11
-30.20064622258556
 21
-9.487458999999887
 31
0.0
  0
SPLINE
  5
BA56
330
1F
100
AcDbEntity
  8
AM_0
100
AcDbSpline
210
0.0
220
0.0
230
1.0
 70
     8
 71
     3
 72
    11
 73
     7
 74
     5
 42
0.0000000001
 43
0.0000000001
 44
0.0000000001
 40
0.0
 40
0.0
 40
0.0
 40
0.0
 40
1.655651656237138
 40
3.309488988455796
 40
4.959745641286769
 40
6.603485597380214
 40
6.603485597380214
 40
6.603485597380214
 40
6.603485597380214
 10
-29.42278122258557
 20
3.47320900000011
 30
0.0
 10
-29.96358110570463
 20
3.586081587373567
 30
0.0
 10
-31.04458824352757
 20
3.811703072185142
 30
0.0
 10
-32.60676104502206
 20
4.364836202848294
 30
0.0
 10
-34.10985530457826
 20
5.05247056760191
 30
0.0
 10
-35.04202130186615
 20
5.634674124428938
 30
0.0
 10
-35.50718222258552
 20
5.925200000000131
 30
0.0
 11
-29.42278122258557
 21
3.47320900000011
 31
0.0
 11
-31.03551622258549
 21
3.847733000000118
 31
0.0
 11
-32.59863222258553
 21
4.387961000000132
 31
0.0
 11
-34.0946392225855
 21
5.084603000000129
 31
0.0
 11
-35.50718222258552
 21
5.925200000000131
 31
0.0
  0
SPLINE
  5
BA57
330
1F
100
AcDbEntity
  8
AM_0
100
AcDbSpline
210
0.0
220
0.0
230
1.0
 70
     8
 71
     3
 72
    11
 73
     7
 74
     5
 42
0.0000000001
 43
0.0000000001
 44
0.0000000001
 40
0.0
 40
0.0
 40
0.0
 40
0.0
 40
0.175753294549511
 40
0.3530452570210302
 40
0.5318253464633046
 40
0.7120393020078484
 40
0.7120393020078484
 40
0.7120393020078484
 40
0.7120393020078484
 10
-7.565758222585515
 20
-1.226043999999831
 30
0.0
 10
-7.588757781685766
 20
-1.172162268036051
 30
0.0
 10
-7.634958254198847
 20
-1.06392708553976
 30
0.0
 10
-7.7021371210646
 20
-0.8998683190467763
 30
0.0
 10
-7.768233558990207
 20
-0.7337690180366155
 30
0.0
 10
-7.810815309148517
 20
-0.621935231949804
 30
0.0
 10
-7.832191222585521
 20
-0.5657949999998096
 30
0.0
 11
-7.565758222585515
 21
-1.226043999999831
 31
0.0
 11
-7.634359222585572
 21
-1.064231999999833
 31
0.0
 11
-7.70167822258557
 21
-0.9002179999998247
 31
0.0
 11
-7.76764422258546
 21
-0.7340529999998183
 31
0.0
 11
-7.832191222585521
 21
-0.5657949999998096
 31
0.0
  0
SPLINE
  5
BA58
330
1F
100
AcDbEntity
  8
AM_0
100
AcDbSpline
210
0.0
220
0.0
230
1.0
 70
     8
 71
     3
 72
    11
 73
     7
 74
     5
 42
0.0000000001
 43
0.0000000001
 44
0.0000000001
 40
0.0
 40
0.0
 40
0.0
 40
0.0
 40
0.3168094479730195
 40
0.6017478243301382
 40
0.8244641761433303
 40
0.9622081800527784
 40
0.9622081800527784
 40
0.9622081800527784
 40
0.9622081800527784
 10
-1.798746222585492
 20
-6.326854999999795
 30
0.0
 10
-1.769833018884687
 20
-6.225286489313797
 30
0.0
 10
-1.714915283530861
 20
-6.032367273309365
 30
0.0
 10
-1.641221806704431
 20
-5.767613262043088
 30
0.0
 10
-1.583933483420053
 20
-5.560238643832
 30
0.0
 10
-1.554114903205513
 20
-5.443842047371707
 30
0.0
 10
-1.542720222585472
 20
-5.399362999999823
 30
0.0
 11
-1.798746222585492
 21
-6.326854999999795
 31
0.0
 11
-1.712320222585532
 21
-6.022061999999834
 31
0.0
 11
-1.635759222585448
 21
-5.747601999999801
 31
0.0
 11
-1.577222222585561
 21
-5.532715999999822
 31
0.0
 11
-1.542720222585472
 21
-5.399362999999823
 31
0.0
  0
SPLINE
  5
BA59
330
1F
100
AcDbEntity
  8
AM_0
100
AcDbSpline
210
0.0
220
0.0
230
1.0
 70
     8
 71
     3
 72
    11
 73
     7
 74
     5
 42
0.0000000001
 43
0.0000000001
 44
0.0000000001
 40
0.0
 40
0.0
 40
0.0
 40
0.0
 40
1.434248045933849
 40
2.809838057379473
 40
4.106160026960358
 40
5.326182126245875
 40
5.326182126245875
 40
5.326182126245875
 40
5.326182126245875
 10
-30.20064622258556
 20
-9.487458999999887
 30
0.0
 10
-29.73698332123167
 20
-9.629372113638567
 30
0.0
 10
-28.82862045491111
 20
-9.907394362770201
 30
0.0
 10
-27.82959275503932
 20
-10.90259156285773
 30
0.0
 10
-27.20607263670766
 20
-12.07655604556795
 30
0.0
 10
-27.15933800252403
 20
-12.92294062615813
 30
0.0
 10
-27.13667922258551
 20
-13.33330099999989
 30
0.0
 11
-30.20064622258556
 21
-9.487458999999887
 31
0.0
 11
-28.86821022258553
 21
-10.01819599999987
 31
0.0
 11
-27.86915222258554
 21
-10.96378099999987
 31
0.0
 11
-27.28843522258549
 21
-12.12275399999987
 31
0.0
 11
-27.13667922258551
 21
-13.33330099999989
 31
0.0
  0
SPLINE
  5
BA5A
330
1F
100
AcDbEntity
  8
AM_0
100
AcDbSpline
210
0.0
220
0.0
230
1.0
 70
     8
 71
     3
 72
    11
 73
     7
 74
     5
 42
0.0000000001
 43
0.0000000001
 44
0.0000000001
 40
0.0
 40
0.0
 40
0.0
 40
0.0
 40
0.1512063993619701
 40
0.3576463461019241
 40
0.6275432486870014
 40
0.9464173959896617
 40
0.9464173959896617
 40
0.9464173959896617
 40
0.9464173959896617
 10
-44.29197822258558
 20
21.09540500000008
 30
0.0
 10
-44.26911393953925
 20
21.1415387903451
 30
0.0
 10
-44.21503337600317
 20
21.25065838857869
 30
0.0
 10
-44.01878410715135
 20
21.3496201978093
 30
0.0
 10
-43.76756279408971
 20
21.42818942387244
 30
0.0
 10
-43.57129788144479
 20
21.44813280749973
 30
0.0
 10
-43.46500222258552
 20
21.45893400000011
 30
0.0
 11
-44.29197822258558
 21
21.09540500000008
 31
0.0
 11
-44.21306022258554
 21
21.2243830000001
 31
0.0
 11
-44.03834322258555
 21
21.3343440000001
 31
0.0
 11
-43.78087922258552
 21
21.41531700000013
 31
0.0
 11
-43.46500222258552
 21
21.45893400000011
 31
0.0
  0
SPLINE
  5
BA5B
330
1F
100
AcDbEntity
  8
AM_0
100
AcDbSpline
210
0.0
220
0.0
230
1.0
 70
     8
 71
     3
 72
    11
 73
     7
 74
     5
 42
0.0000000001
 43
0.0000000001
 44
0.0000000001
 40
0.0
 40
0.0
 40
0.0
 40
0.0
 40
0.2766948058963484
 40
0.5533890502961695
 40
0.830083403491162
 40
1.106779435369102
 40
1.106779435369102
 40
1.106779435369102
 40
1.106779435369102
 10
-43.46500222258552
 20
21.45893400000011
 30
0.0
 10
-43.4696137562195
 20
21.36681773910991
 30
0.0
 10
-43.47883681412929
 20
21.18258540426094
 30
0.0
 10
-43.49215779386557
 20
20.90621165531362
 30
0.0
 10
-43.50513937522936
 20
20.62982134892012
 30
0.0
 10
-43.51345326506026
 20
20.44554530263761
 30
0.0
 10
-43.5176102225856
 20
20.35340700000011
 30
0.0
 11
-43.46500222258552
 21
21.45893400000011
 31
0.0
 11
-43.47875122258559
 21
21.18258100000008
 31
0.0
 11
-43.49210122258554
 21
20.9062090000001
 31
0.0
 11
-43.50505422258558
 21
20.62981800000011
 31
0.0
 11
-43.5176102225856
 21
20.35340700000011
 31
0.0
  0
SPLINE
  5
BA5C
330
1F
100
AcDbEntity
  8
AM_0
100
AcDbSpline
210
0.0
220
0.0
230
1.0
 70
     8
 71
     3
 72
    11
 73
     7
 74
     5
 42
0.0000000001
 43
0.0000000001
 44
0.0000000001
 40
0.0
 40
0.0
 40
0.0
 40
0.0
 40
0.1490676036200527
 40
0.297986530556762
 40
0.44673714161103
 40
0.5953046539950913
 40
0.5953046539950913
 40
0.5953046539950913
 40
0.5953046539950913
 10
-43.91911722258564
 20
19.91671000000008
 30
0.0
 10
-43.89041863578134
 20
19.95730558863233
 30
0.0
 10
-43.83305008549934
 20
20.03845627676754
 30
0.0
 10
-43.73572598897689
 20
20.15140106889887
 30
0.0
 10
-43.63146045562333
 20
20.25774090347757
 30
0.0
 10
-43.55554471642855
 20
20.32153139594834
 30
0.0
 10
-43.5176102225856
 20
20.35340700000011
 30
0.0
 11
-43.91911722258564
 21
19.91671000000008
 31
0.0
 11
-43.83113222258552
 21
20.03704200000009
 31
0.0
 11
-43.73451222258561
 21
20.15036200000008
 31
0.0
 11
-43.62980422258553
 21
20.25601700000009
 31
0.0
 11
-43.5176102225856
 21
20.35340700000011
 31
0.0
  0
SPLINE
  5
BA5D
330
1F
100
AcDbEntity
  8
AM_0
100
AcDbSpline
210
0.0
220
0.0
230
1.0
 70
     8
 71
     3
 72
    11
 73
     7
 74
     5
 42
0.0000000001
 43
0.0000000001
 44
0.0000000001
 40
0.0
 40
0.0
 40
0.0
 40
0.0
 40
0.0657609878651422
 40
0.131528789257674
 40
0.1973470913475881
 40
0.2631900328750747
 40
0.2631900328750747
 40
0.2631900328750747
 40
0.2631900328750747
 10
-43.54356722258555
 20
17.23874300000011
 30
0.0
 10
-43.5602834696962
 20
17.25292638131633
 30
0.0
 10
-43.59371769589583
 20
17.28129461349569
 30
0.0
 10
-43.6420235899139
 20
17.32597052051419
 30
0.0
 10
-43.68905819144281
 20
17.37202183601813
 30
0.0
 10
-43.71908367252165
 20
17.40403661489565
 30
0.0
 10
-43.73409922258551
 20
17.42004700000012
 30
0.0
 11
-43.54356722258555
 21
17.23874300000011
 31
0.0
 11
-43.59340622258557
 21
17.28164500000008
 31
0.0
 11
-43.64179622258561
 21
17.32618500000012
 31
0.0
 11
-43.6887172225856
 21
17.37234200000011
 31
0.0
 11
-43.73409922258551
 21
17.42004700000012
 31
0.0
  0
SPLINE
  5
BA5E
330
1F
100
AcDbEntity
  8
AM_0
100
AcDbSpline
210
0.0
220
0.0
230
1.0
 70
     8
 71
     3
 72
    11
 73
     7
 74
     5
 42
0.0000000001
 43
0.0000000001
 44
0.0000000001
 40
0.0
 40
0.0
 40
0.0
 40
0.0
 40
0.047835215573946
 40
0.0950103388911299
 40
0.1414872061802186
 40
0.1870683510209985
 40
0.1870683510209985
 40
0.1870683510209985
 40
0.1870683510209985
 10
-43.54356722258555
 20
17.23874300000011
 30
0.0
 10
-43.55946975175335
 20
17.23757899290563
 30
0.0
 10
-43.59105536639582
 20
17.23526704119407
 30
0.0
 10
-43.6380884840436
 20
17.23177726269993
 30
0.0
 10
-43.68437010472852
 20
17.2283135494046
 30
0.0
 10
-43.71496808920688
 20
17.22599098363016
 30
0.0
 10
-43.73011822258556
 20
17.22484100000008
 30
0.0
 11
-43.54356722258555
 21
17.23874300000011
 31
0.0
 11
-43.59127422258561
 21
17.23524300000008
 31
0.0
 11
-43.63832022258551
 21
17.23175500000007
 31
0.0
 11
-43.6846672225856
 21
17.22828300000009
 31
0.0
 11
-43.73011822258556
 21
17.22484100000008
 31
0.0
  0
SPLINE
  5
BA5F
330
1F
100
AcDbEntity
  8
AM_0
100
AcDbSpline
210
0.0
220
0.0
230
1.0
 70
     8
 71
     3
 72
    11
 73
     7
 74
     5
 42
0.0000000001
 43
0.0000000001
 44
0.0000000001
 40
0.0
 40
0.0
 40
0.0
 40
0.0
 40
2.970780090181182
 40
5.936943746046823
 40
8.895786540862715
 40
11.84538052870207
 40
11.84538052870207
 40
11.84538052870207
 40
11.84538052870207
 10
-43.54356722258555
 20
17.23874300000011
 30
0.0
 10
-43.43237595652022
 20
16.25140555498775
 30
0.0
 10
-43.2101662097054
 20
14.27826493485977
 30
0.0
 10
-42.17486289265453
 20
11.47528692759701
 30
0.0
 10
-40.67838183758285
 20
8.891352495424062
 30
0.0
 10
-39.27265727445758
 20
7.500621168598488
 30
0.0
 10
-38.57089522258553
 20
6.80634400000008
 30
0.0
 11
-43.54356722258555
 21
17.23874300000011
 31
0.0
 11
-43.09262622258557
 21
14.30238700000012
 31
0.0
 11
-42.09643322258552
 21
11.5085140000001
 31
0.0
 11
-40.5741482225855
 21
8.971311000000127
 31
0.0
 11
-38.57089522258553
 21
6.80634400000008
 31
0.0
  0
LINE
  5
BA60
330
1F
100
AcDbEntity
  8
AM_0
100
AcDbLine
 10
-254.0000000000002
 20
20.99999999999966
 30
0.0
 11
-347.0000000000002
 21
20.99999999999946
 31
0.0
  0
LINE
  5
BA64
330
1F
100
AcDbEntity
  8
AM_0
100
AcDbLine
 10
-347.0000000000002
 20
20.99999999999946
 30
0.0
 11
-348.8882280000002
 21
20.49405099999948
 31
0.0
  0
ARC
  5
BA65
330
1F
100
AcDbEntity
  8
AM_0
100
AcDbCircle
 10
-348.5000000000002
 20
19.04516199999947
 30
0.0
 40
1.50000010476833
100
AcDbArc
 50
104.9999764800465
 51
180.0
  0
LINE
  5
BA66
330
1F
100
AcDbEntity
  8
AM_0
100
AcDbLine
 10
-54.1571882225856
 20
14.57219100000008
 30
0.0
 11
-52.74850122258553
 21
15.57981500000005
 31
0.0
  0
LINE
  5
BA67
330
1F
100
AcDbEntity
  8
AM_0
100
AcDbLine
 10
-58.22562822258553
 20
19.30375900000007
 30
0.0
 11
-52.76065822258553
 21
19.93313300000005
 31
0.0
  0
LINE
  5
BA68
330
1F
100
AcDbEntity
  8
AM_0
100
AcDbLine
 10
-52.6656222225856
 20
17.92296600000008
 30
0.0
 11
-56.77407222258555
 21
17.44981600000005
 31
0.0
  0
LINE
  5
BA69
330
1F
100
AcDbEntity
  8
AM_0
100
AcDbLine
 10
-52.49077722258556
 20
12.22792700000008
 30
0.0
 11
-54.02832622258557
 21
12.89624700000007
 31
0.0
  0
LINE
  5
BA6A
330
1F
100
AcDbEntity
  8
AM_0
100
AcDbLine
 10
-53.01027822258555
 20
12.90506100000007
 30
0.0
 11
-54.06422822258554
 21
13.36317700000006
 31
0.0
  0
LINE
  5
BA6B
330
1F
100
AcDbEntity
  8
AM_0
100
AcDbLine
 10
-57.28076622258555
 20
7.015155000000049
 30
0.0
 11
-51.81579622258556
 21
7.64452900000009
 31
0.0
  0
LINE
  5
BA6C
330
1F
100
AcDbEntity
  8
AM_0
100
AcDbLine
 10
-52.04314122258558
 20
9.8271510000001
 30
0.0
 11
-56.15159022258552
 21
9.354001000000096
 31
0.0
  0
LINE
  5
BA6D
330
1F
100
AcDbEntity
  8
AM_0
100
AcDbLine
 10
-48.79583822258561
 20
20.6296310000001
 30
0.0
 11
-58.08749422258561
 21
19.5595560000001
 31
0.0
  0
LINE
  5
BA6E
330
1F
100
AcDbEntity
  8
AM_0
100
AcDbLine
 10
-35.33909822258553
 20
23.00000000000011
 30
0.0
 11
-53.25072222258561
 21
23.00000000000005
 31
0.0
  0
LINE
  5
BA6F
330
1F
100
AcDbEntity
  8
AM_0
100
AcDbLine
 10
-41.95376122258557
 20
5.900898000000097
 30
0.0
 11
-61.55923722258552
 21
3.643031000000064
 31
0.0
  0
LINE
  5
BA70
330
1F
100
AcDbEntity
  8
AM_7
100
AcDbLine
 10
7.289881361085434
 20
0.000000000000199
 30
0.0
 11
-355.9231006608279
 21
-0.0000000000005357
 31
0.0
1001
GENIUS_GENODEF_13
1002
{
1000
HIER
1070
     0
1002
}
1002
{
1000
MANEDIT
1070
     0
1002
}
1002
{
1000
NOSEL
1070
     0
1002
}
1002
{
1000
BEHIND
1070
     0
1002
}
1002
{
1000
REACTOR
1002
}
1001
GENIUS_GENOBJ-N-CEN_13
1002
{
1000
OWNER
1000
GEN
1002
}
  0
LINE
  5
BA71
330
1F
100
AcDbEntity
  8
AM_11
100
AcDbLine
 10
-25.00000000000031
 20
25.00000000000011
 30
0.0
 11
-65.00000000000031
 21
25.00000000000005
 31
0.0
1001
GENIUS_GENODEF_13
1002
{
1000
HIER
1070
     0
1002
}
1002
{
1000
MANEDIT
1070
     0
1002
}
1002
{
1000
NOSEL
1070
     0
1002
}
1002
{
1000
BEHIND
1070
     0
1002
}
1002
{
1000
REACTOR
1002
}
1001
GENIUS_GENOBJ-N-CEN_13
1002
{
1000
OWNER
1000
GEN
1002
}
  0
LINE
  5
BA72
330
1F
100
AcDbEntity
  8
AM_0
100
AcDbLine
 10
-57.83284022258553
 20
23.00000000000005
 30
0.0
 11
-250.0000000000002
 21
22.99999999999978
 31
0.0
  0
ARC
  5
BA74
330
1F
100
AcDbEntity
  8
AM_0
100
AcDbCircle
 10
-254.0000000000002
 20
25.99999999999966
 30
0.0
 40
5.0
100
AcDbArc
 50
270.0
 51
323.1301023541543
  0
LINE
  5
BA75
330
1F
100
AcDbEntity
  8
AM_0
100
AcDbLine
 10
-56.77407222258555
 20
17.44981600000005
 30
0.0
 11
-58.22562822258553
 21
19.30375900000007
 31
0.0
  0
LINE
  5
BA76
330
1F
100
AcDbEntity
  8
AM_0
100
AcDbLine
 10
-59.65567322258556
 20
1.161865000000091
 30
0.0
 11
-61.55923722258552
 21
3.643031000000064
 31
0.0
  0
LINE
  5
BA77
330
1F
100
AcDbEntity
  8
AM_0
100
AcDbLine
 10
-58.11042022258556
 20
7.686200000000098
 30
0.0
 11
-58.52442522258553
 21
13.07063800000008
 31
0.0
  0
LINE
  5
BA78
330
1F
100
AcDbEntity
  8
AM_0
100
AcDbLine
 10
-56.46283122258552
 20
13.40190800000004
 30
0.0
 11
-56.15159022258552
 21
9.354001000000096
 31
0.0
  0
LINE
  5
BA79
330
1F
100
AcDbEntity
  8
AM_0
100
AcDbLine
 10
-58.88036122258561
 20
17.29454600000008
 30
0.0
 11
-58.28589922258555
 21
9.563142000000084
 31
0.0
  0
LINE
  5
BA7A
330
1F
100
AcDbEntity
  8
AM_0
100
AcDbLine
 10
-58.28589922258555
 20
9.563142000000084
 30
0.0
 11
-58.34418422258551
 21
9.493746000000101
 31
0.0
  0
LINE
  5
BA7B
330
1F
100
AcDbEntity
  8
AM_0
100
AcDbLine
 10
-55.35601622258553
 20
7.076840000000061
 30
0.0
 11
-55.20726222258559
 21
7.253950000000088
 31
0.0
  0
LINE
  5
BA7C
330
1F
100
AcDbEntity
  8
AM_0
100
AcDbLine
 10
-58.28589922258555
 20
9.563142000000084
 30
0.0
 11
-58.2831292225855
 21
9.932414000000051
 31
0.0
  0
LINE
  5
BA7D
330
1F
100
AcDbEntity
  8
AM_0
100
AcDbLine
 10
-55.35601622258553
 20
7.076840000000061
 30
0.0
 11
-55.46878922258549
 21
7.223832000000072
 31
0.0
  0
LINE
  5
BA7E
330
1F
100
AcDbEntity
  8
AM_0
100
AcDbLine
 10
-56.15159022258552
 20
9.354001000000096
 30
0.0
 11
-58.11042022258556
 21
7.686200000000098
 31
0.0
  0
LINE
  5
BA7F
330
1F
100
AcDbEntity
  8
AM_0
100
AcDbLine
 10
-56.15159022258552
 20
9.354001000000096
 30
0.0
 11
-57.28076622258555
 21
7.015155000000049
 31
0.0
  0
LINE
  5
BA80
330
1F
100
AcDbEntity
  8
AM_0
100
AcDbLine
 10
-56.77407222258555
 20
17.44981600000005
 30
0.0
 11
-58.93843122258553
 21
18.45507700000007
 31
0.0
  0
LINE
  5
BA81
330
1F
100
AcDbEntity
  8
AM_0
100
AcDbLine
 10
-58.52442522258553
 20
13.07063800000008
 30
0.0
 11
-58.93843122258553
 21
18.45507700000007
 31
0.0
  0
LINE
  5
BA82
330
1F
100
AcDbEntity
  8
AM_0
100
AcDbLine
 10
-54.8491862225855
 20
12.20997200000005
 30
0.0
 11
-54.84115922258553
 21
12.19950800000009
 31
0.0
  0
LINE
  5
BA83
330
1F
100
AcDbEntity
  8
AM_0
100
AcDbLine
 10
-58.52442522258553
 20
13.07063800000008
 30
0.0
 11
-56.46283122258552
 21
13.40190800000004
 31
0.0
  0
LINE
  5
BA84
330
1F
100
AcDbEntity
  8
AM_0
100
AcDbLine
 10
-54.02832622258557
 20
12.89624700000007
 30
0.0
 11
-54.1571882225856
 21
14.57219100000008
 31
0.0
  0
LINE
  5
BA85
330
1F
100
AcDbEntity
  8
AM_0
100
AcDbLine
 10
-56.46283122258552
 20
13.40190800000004
 30
0.0
 11
-56.77407222258555
 21
17.44981600000005
 31
0.0
  0
LINE
  5
BA87
330
1F
100
AcDbEntity
  8
AM_0
100
AcDbLine
 10
-58.92460322258554
 20
19.33350000000007
 30
0.0
 11
-58.88378722258559
 21
18.80265600000006
 31
0.0
  0
LINE
  5
BA88
330
1F
100
AcDbEntity
  8
AM_0
100
AcDbLine
 10
-58.70570822258557
 20
19.14693400000007
 30
0.0
 11
-58.84644522258563
 21
18.88631700000007
 31
0.0
  0
LINE
  5
BA89
330
1F
100
AcDbEntity
  8
AM_0
100
AcDbLine
 10
-58.08749422258561
 20
19.5595560000001
 30
0.0
 11
-58.22562822258553
 21
19.30375900000007
 31
0.0
  0
LINE
  5
BA8A
330
1F
100
AcDbEntity
  8
AM_0
100
AcDbLine
 10
-4.136595222585498
 20
-1.382660999999814
 30
0.0
 11
-7.742070222585454
 21
-0.720862999999838
 31
0.0
  0
LINE
  5
BA8B
330
1F
100
AcDbEntity
  8
AM_0
100
AcDbLine
 10
-7.144369222585538
 20
-0.8813839999998265
 30
0.0
 11
-1.096467222585516
 21
-1.991499999999803
 31
0.0
  0
LINE
  5
BA8D
330
1F
100
AcDbEntity
  8
AM_0
100
AcDbLine
 10
-28.55448422258561
 20
19.39197200000012
 30
0.0
 11
-26.59747522258553
 21
18.53040700000013
 31
0.0
  0
LINE
  5
BA8E
330
1F
100
AcDbEntity
  8
AM_0
100
AcDbLine
 10
-46.05202922258553
 20
14.50702400000008
 30
0.0
 11
-46.46603522258553
 21
19.8914630000001
 31
0.0
  0
LINE
  5
BA8F
330
1F
100
AcDbEntity
  8
AM_0
100
AcDbLine
 10
-43.72091722258559
 20
18.30785300000007
 30
0.0
 11
-43.68645322258553
 21
19.08298300000012
 31
0.0
  0
LINE
  5
BA90
330
1F
100
AcDbEntity
  8
AM_0
100
AcDbLine
 10
-48.55717322258553
 20
18.39611700000008
 30
0.0
 11
-47.29568822258554
 21
20.56250700000009
 31
0.0
  0
LINE
  5
BA91
330
1F
100
AcDbEntity
  8
AM_0
100
AcDbLine
 10
-48.55717322258553
 20
18.39611700000008
 30
0.0
 11
-46.46603522258553
 21
19.8914630000001
 31
0.0
  0
LINE
  5
BA92
330
1F
100
AcDbEntity
  8
AM_0
100
AcDbLine
 10
-45.06515922258557
 20
9.642508000000077
 30
0.0
 11
-45.77392222258558
 21
18.8604820000001
 31
0.0
  0
LINE
  5
BA93
330
1F
100
AcDbEntity
  8
AM_0
100
AcDbLine
 10
-52.76065822258553
 20
19.93313300000005
 30
0.0
 11
-52.6656222225856
 21
17.92296600000008
 31
0.0
  0
LINE
  5
BA94
330
1F
100
AcDbEntity
  8
AM_0
100
AcDbLine
 10
-29.25705022258554
 20
18.30029700000011
 30
0.0
 11
-30.18124122258561
 21
16.69767200000012
 31
0.0
  0
LINE
  5
BA95
330
1F
100
AcDbEntity
  8
AM_0
100
AcDbLine
 10
-31.1312472225855
 20
14.65664500000011
 30
0.0
 11
-29.29703422258552
 21
13.84914200000014
 31
0.0
  0
LINE
  5
BA96
330
1F
100
AcDbEntity
  8
AM_0
100
AcDbLine
 10
-33.77142122258558
 20
-12.15346499999987
 30
0.0
 11
-32.37221122258555
 21
-12.40228199999987
 31
0.0
  0
LINE
  5
BA97
330
1F
100
AcDbEntity
  8
AM_0
100
AcDbLine
 10
-39.53088622258547
 20
2.742847000000097
 30
0.0
 11
-41.95376122258557
 21
5.900898000000097
 31
0.0
  0
LINE
  5
BA98
330
1F
100
AcDbEntity
  8
AM_0
100
AcDbLine
 10
-41.64967822258557
 20
13.4762170000001
 30
0.0
 11
-32.90061922258558
 21
4.514308000000113
 31
0.0
  0
LINE
  5
BA99
330
1F
100
AcDbEntity
  8
AM_0
100
AcDbLine
 10
-45.63802322258555
 20
9.1225850000001
 30
0.0
 11
-46.05202922258553
 21
14.50702400000008
 31
0.0
  0
LINE
  5
BA9A
330
1F
100
AcDbEntity
  8
AM_0
100
AcDbLine
 10
-48.24593222258551
 20
14.34820900000008
 30
0.0
 11
-47.93469122258551
 21
10.30030100000007
 31
0.0
  0
LINE
  5
BA9B
330
1F
100
AcDbEntity
  8
AM_0
100
AcDbLine
 10
-47.93469122258551
 20
10.30030100000007
 30
0.0
 11
-45.63802322258555
 21
9.1225850000001
 31
0.0
  0
LINE
  5
BA9C
330
1F
100
AcDbEntity
  8
AM_0
100
AcDbLine
 10
-47.93469122258551
 20
10.30030100000007
 30
0.0
 11
-46.35082622258557
 21
8.273903000000075
 31
0.0
  0
LINE
  5
BA9D
330
1F
100
AcDbEntity
  8
AM_0
100
AcDbLine
 10
-51.81579622258556
 20
7.64452900000009
 30
0.0
 11
-46.35082622258557
 21
8.273903000000075
 31
0.0
  0
LINE
  5
BA9E
330
1F
100
AcDbEntity
  8
AM_0
100
AcDbLine
 10
-48.31296922258554
 20
7.887954000000092
 30
0.0
 11
-48.48610822258553
 21
8.027993000000094
 31
0.0
  0
LINE
  5
BA9F
330
1F
100
AcDbEntity
  8
AM_0
100
AcDbLine
 10
-48.31296922258554
 20
7.887954000000092
 30
0.0
 11
-48.42574222258559
 21
8.034945000000078
 31
0.0
  0
LINE
  5
BAA0
330
1F
100
AcDbEntity
  8
AM_0
100
AcDbLine
 10
-51.81579622258556
 20
7.64452900000009
 30
0.0
 11
-52.04314122258558
 21
9.8271510000001
 31
0.0
  0
LINE
  5
BAA1
330
1F
100
AcDbEntity
  8
AM_0
100
AcDbLine
 10
-52.04314122258558
 20
9.8271510000001
 30
0.0
 11
-47.93469122258551
 21
10.30030100000007
 31
0.0
  0
LINE
  5
BAA2
330
1F
100
AcDbEntity
  8
AM_0
100
AcDbLine
 10
-45.06515922258557
 20
9.642508000000077
 30
0.0
 11
-45.74626022258558
 21
10.5302760000001
 31
0.0
  0
LINE
  5
BAA3
330
1F
100
AcDbEntity
  8
AM_0
100
AcDbLine
 10
-46.05202922258553
 20
14.50702400000008
 30
0.0
 11
-48.24593222258551
 21
14.34820900000008
 31
0.0
  0
LINE
  5
BAA4
330
1F
100
AcDbEntity
  8
AM_0
100
AcDbLine
 10
-48.24593222258551
 20
14.34820900000008
 30
0.0
 11
-48.55717322258553
 21
18.39611700000008
 31
0.0
  0
LINE
  5
BAA5
330
1F
100
AcDbEntity
  8
AM_0
100
AcDbLine
 10
-52.74850122258553
 20
15.57981500000005
 30
0.0
 11
-51.21095322258549
 21
14.91149500000008
 31
0.0
  0
LINE
  5
BAA6
330
1F
100
AcDbEntity
  8
AM_0
100
AcDbLine
 10
-50.39812022258556
 20
15.60823400000009
 30
0.0
 11
-50.50202022258563
 21
15.74366100000008
 31
0.0
  0
LINE
  5
BAA7
330
1F
100
AcDbEntity
  8
AM_0
100
AcDbLine
 10
-51.08209122258557
 20
13.2355510000001
 30
0.0
 11
-52.49077722258556
 21
12.22792700000008
 31
0.0
  0
LINE
  5
BAA8
330
1F
100
AcDbEntity
  8
AM_0
100
AcDbLine
 10
-52.49077722258556
 20
12.22792700000008
 30
0.0
 11
-53.01027822258555
 21
12.90506100000007
 31
0.0
  0
LINE
  5
BAA9
330
1F
100
AcDbEntity
  8
AM_0
100
AcDbLine
 10
-51.08209122258557
 20
13.2355510000001
 30
0.0
 11
-51.60159122258557
 21
13.91268400000009
 31
0.0
  0
LINE
  5
BAAA
330
1F
100
AcDbEntity
  8
AM_0
100
AcDbLine
 10
-51.60159122258557
 20
13.91268400000009
 30
0.0
 11
-53.01027822258555
 21
12.90506100000007
 31
0.0
  0
LINE
  5
BAAB
330
1F
100
AcDbEntity
  8
AM_0
100
AcDbLine
 10
-51.08209122258557
 20
13.2355510000001
 30
0.0
 11
-51.21095322258549
 21
14.91149500000008
 31
0.0
  0
LINE
  5
BAAC
330
1F
100
AcDbEntity
  8
AM_0
100
AcDbLine
 10
-51.69455222258554
 20
15.12169900000009
 30
0.0
 11
-51.60159122258557
 21
13.91268400000009
 31
0.0
  0
LINE
  5
BAAD
330
1F
100
AcDbEntity
  8
AM_0
100
AcDbLine
 10
-52.6656222225856
 20
17.92296600000008
 30
0.0
 11
-48.55717322258553
 21
18.39611700000008
 31
0.0
  0
LINE
  5
BAAE
330
1F
100
AcDbEntity
  8
AM_0
100
AcDbLine
 10
-42.50052922258553
 20
16.79652700000008
 30
0.0
 11
-42.50574422258554
 21
15.60129300000011
 31
0.0
  0
LINE
  5
BAAF
330
1F
100
AcDbEntity
  8
AM_0
100
AcDbLine
 10
-43.52447022258556
 20
18.35405700000012
 30
0.0
 11
-42.40809622258561
 21
18.34918600000008
 31
0.0
  0
LINE
  5
BAB0
330
1F
100
AcDbEntity
  8
AM_0
100
AcDbLine
 10
-18.7384202225856
 20
10.30977400000014
 30
0.0
 11
-17.87901522258556
 21
11.80603900000014
 31
0.0
  0
LINE
  5
BAB1
330
1F
100
AcDbEntity
  8
AM_0
100
AcDbLine
 10
-17.87901522258556
 20
11.80603900000014
 30
0.0
 11
-18.72533022258556
 21
13.30974600000013
 31
0.0
  0
LINE
  5
BAB2
330
1F
100
AcDbEntity
  8
AM_0
100
AcDbLine
 10
-18.31313122258558
 20
11.80793300000013
 30
0.0
 11
-17.87901522258556
 21
11.80603900000014
 31
0.0
  0
LINE
  5
BAB3
330
1F
100
AcDbEntity
  8
AM_0
100
AcDbLine
 10
-19.1725362225855
 20
10.31166800000014
 30
0.0
 11
-18.31313122258558
 21
11.80793300000013
 31
0.0
  0
LINE
  5
BAB4
330
1F
100
AcDbEntity
  8
AM_0
100
AcDbLine
 10
-21.29045622258553
 20
11.82092400000013
 30
0.0
 11
-20.44414122258552
 21
10.31721700000014
 31
0.0
  0
LINE
  5
BAB5
330
1F
100
AcDbEntity
  8
AM_0
100
AcDbLine
 10
-29.35688222258551
 20
10.29540500000013
 30
0.0
 11
-28.56646322258558
 21
11.19878400000013
 31
0.0
  0
LINE
  5
BAB6
330
1F
100
AcDbEntity
  8
AM_0
100
AcDbLine
 10
-26.44179822258553
 20
8.19176700000014
 30
0.0
 11
-25.5178632225855
 21
8.807858000000123
 31
0.0
  0
LINE
  5
BAB7
330
1F
100
AcDbEntity
  8
AM_0
100
AcDbLine
 10
-20.44414122258552
 20
10.31721700000014
 30
0.0
 11
-18.7384202225856
 21
10.30977400000014
 31
0.0
  0
LINE
  5
BAB8
330
1F
100
AcDbEntity
  8
AM_0
100
AcDbLine
 10
-19.9696832225855
 20
7.165117000000151
 30
0.0
 11
-19.65515222258551
 21
7.16374400000015
 31
0.0
  0
LINE
  5
BAB9
330
1F
100
AcDbEntity
  8
AM_0
100
AcDbLine
 10
-21.01508122258548
 20
5.03778700000015
 30
0.0
 11
-20.55179622258555
 21
5.905142000000154
 31
0.0
  0
LINE
  5
BABA
330
1F
100
AcDbEntity
  8
AM_0
100
AcDbLine
 10
-20.43297522258552
 20
4.930537000000157
 30
0.0
 11
-20.14681422258553
 21
5.857221000000151
 31
0.0
  0
LINE
  5
BABB
330
1F
100
AcDbEntity
  8
AM_0
100
AcDbLine
 10
-24.05154722258552
 20
15.22257600000011
 30
0.0
 11
-24.37525722258553
 21
16.48029000000013
 31
0.0
  0
LINE
  5
BABC
330
1F
100
AcDbEntity
  8
AM_0
100
AcDbLine
 10
-24.7976442225856
 20
15.64463300000011
 30
0.0
 11
-24.9719502225856
 21
16.32186300000012
 31
0.0
  0
LINE
  5
BABD
330
1F
100
AcDbEntity
  8
AM_0
100
AcDbLine
 10
-25.25889422258552
 20
14.90175200000012
 30
0.0
 11
-25.21068822258559
 21
14.92837900000012
 31
0.0
  0
LINE
  5
BABE
330
1F
100
AcDbEntity
  8
AM_0
100
AcDbLine
 10
-25.45512622258556
 20
16.00173500000011
 30
0.0
 11
-25.37354422258554
 21
16.00852000000014
 31
0.0
  0
LINE
  5
BABF
330
1F
100
AcDbEntity
  8
AM_0
100
AcDbLine
 10
-24.54510022258551
 20
14.5013990000001
 30
0.0
 11
-24.48306422258548
 21
14.47429000000011
 31
0.0
  0
LINE
  5
BAC0
330
1F
100
AcDbEntity
  8
AM_0
100
AcDbLine
 10
-25.11393822258554
 20
14.96144900000013
 30
0.0
 11
-25.07228222258558
 21
14.98537900000013
 31
0.0
  0
LINE
  5
BAC1
330
1F
100
AcDbEntity
  8
AM_0
100
AcDbLine
 10
-24.45683922258556
 20
16.47350400000013
 30
0.0
 11
-24.37525722258553
 21
16.48029000000013
 31
0.0
  0
LINE
  5
BAC2
330
1F
100
AcDbEntity
  8
AM_0
100
AcDbLine
 10
-24.13312922258555
 20
15.21579100000013
 30
0.0
 11
-24.05154722258552
 21
15.22257600000011
 31
0.0
  0
LINE
  5
BAC3
330
1F
100
AcDbEntity
  8
AM_0
100
AcDbLine
 10
-24.13312922258555
 20
15.21579100000013
 30
0.0
 11
-24.45683922258556
 21
16.47350400000013
 31
0.0
  0
LINE
  5
BAC4
330
1F
100
AcDbEntity
  8
AM_0
100
AcDbLine
 10
-24.66817022258553
 20
15.70244000000013
 30
0.0
 11
-24.84247522258553
 21
16.37967100000014
 31
0.0
  0
LINE
  5
BAC5
330
1F
100
AcDbEntity
  8
AM_0
100
AcDbLine
 10
-24.67837822258556
 20
16.42324000000013
 30
0.0
 11
-24.35466822258556
 21
15.16552600000011
 31
0.0
  0
LINE
  5
BAC6
330
1F
100
AcDbEntity
  8
AM_0
100
AcDbLine
 10
-26.11964122258561
 20
16.43057600000014
 30
0.0
 11
-26.29394622258562
 21
17.10780600000015
 31
0.0
  0
LINE
  5
BAC7
330
1F
100
AcDbEntity
  8
AM_0
100
AcDbLine
 10
-26.53268522258562
 20
15.71432300000014
 30
0.0
 11
-27.19965022258552
 21
15.53723800000011
 31
0.0
  0
LINE
  5
BAC8
330
1F
100
AcDbEntity
  8
AM_0
100
AcDbLine
 10
-25.80506022258552
 20
15.26023400000013
 30
0.0
 11
-27.0437102225855
 21
14.93136200000015
 31
0.0
  0
LINE
  5
BAC9
330
1F
100
AcDbEntity
  8
AM_0
100
AcDbLine
 10
-27.24785522258557
 20
15.51061100000015
 30
0.0
 11
-27.19965022258552
 21
15.53723800000011
 31
0.0
  0
LINE
  5
BACA
330
1F
100
AcDbEntity
  8
AM_0
100
AcDbLine
 10
-27.10574622258553
 20
14.95847100000014
 30
0.0
 11
-27.0437102225855
 21
14.93136200000015
 31
0.0
  0
LINE
  5
BACB
330
1F
100
AcDbEntity
  8
AM_0
100
AcDbLine
 10
-26.58089022258556
 20
15.68769500000013
 30
0.0
 11
-26.53268522258562
 21
15.71432300000014
 31
0.0
  0
LINE
  5
BACC
330
1F
100
AcDbEntity
  8
AM_0
100
AcDbLine
 10
-26.58089022258556
 20
15.68769500000013
 30
0.0
 11
-27.24785522258557
 21
15.51061100000015
 31
0.0
  0
LINE
  5
BACD
330
1F
100
AcDbEntity
  8
AM_0
100
AcDbLine
 10
-27.10574622258553
 20
14.95847100000014
 30
0.0
 11
-25.86709622258556
 21
15.28734200000013
 31
0.0
  0
LINE
  5
BACE
330
1F
100
AcDbEntity
  8
AM_0
100
AcDbLine
 10
-25.86709622258556
 20
15.28734200000013
 30
0.0
 11
-25.80506022258552
 21
15.26023400000013
 31
0.0
  0
LINE
  5
BACF
330
1F
100
AcDbEntity
  8
AM_0
100
AcDbLine
 10
-26.43593522258558
 20
15.74739200000013
 30
0.0
 11
-26.39427922258559
 21
15.77132300000011
 31
0.0
  0
LINE
  5
BAD0
330
1F
100
AcDbEntity
  8
AM_0
100
AcDbLine
 10
-25.77883522258557
 20
17.25944800000013
 30
0.0
 11
-25.69725322258554
 21
17.26623300000011
 31
0.0
  0
LINE
  5
BAD1
330
1F
100
AcDbEntity
  8
AM_0
100
AcDbLine
 10
-25.92585922258553
 20
14.72466700000012
 30
0.0
 11
-25.87765422258559
 21
14.75129500000014
 31
0.0
  0
LINE
  5
BAD2
330
1F
100
AcDbEntity
  8
AM_0
100
AcDbLine
 10
-25.78375022258552
 20
14.17252800000011
 30
0.0
 11
-25.72171422258549
 21
14.14541900000011
 31
0.0
  0
LINE
  5
BAD3
330
1F
100
AcDbEntity
  8
AM_0
100
AcDbLine
 10
-27.22994622258553
 20
15.31799100000012
 30
0.0
 11
-26.56298122258553
 21
15.49507500000015
 31
0.0
  0
LINE
  5
BAD4
330
1F
100
AcDbEntity
  8
AM_0
100
AcDbLine
 10
-25.94841122258557
 20
15.48023900000015
 30
0.0
 11
-27.18706122258558
 21
15.1513680000001
 31
0.0
  0
LINE
  5
BAD5
330
1F
100
AcDbEntity
  8
AM_0
100
AcDbLine
 10
-25.99016722258554
 20
16.48838400000011
 30
0.0
 11
-26.16447222258554
 21
17.16561400000012
 31
0.0
  0
LINE
  5
BAD6
330
1F
100
AcDbEntity
  8
AM_0
100
AcDbLine
 10
-26.00037422258557
 20
17.2091830000001
 30
0.0
 11
-25.67666522258557
 21
15.95147000000014
 31
0.0
  0
LINE
  5
BAD7
330
1F
100
AcDbEntity
  8
AM_0
100
AcDbLine
 10
-29.29703422258552
 20
13.84914200000014
 30
0.0
 11
-26.59747522258553
 21
18.53040700000013
 31
0.0
  0
LINE
  5
BAD8
330
1F
100
AcDbEntity
  8
AM_0
100
AcDbLine
 10
-24.48306422258548
 20
14.47429000000011
 30
0.0
 11
-25.72171422258549
 21
14.14541900000011
 31
0.0
  0
LINE
  5
BAD9
330
1F
100
AcDbEntity
  8
AM_0
100
AcDbLine
 10
-25.21068822258559
 20
14.92837900000012
 30
0.0
 11
-25.87765422258559
 21
14.75129500000014
 31
0.0
  0
LINE
  5
BADA
330
1F
100
AcDbEntity
  8
AM_0
100
AcDbLine
 10
-25.37354422258554
 20
16.00852000000014
 30
0.0
 11
-25.69725322258554
 21
17.26623300000011
 31
0.0
  0
LINE
  5
BADB
330
1F
100
AcDbEntity
  8
AM_0
100
AcDbLine
 10
-25.25889422258552
 20
14.90175200000012
 30
0.0
 11
-25.92585922258553
 21
14.72466700000012
 31
0.0
  0
LINE
  5
BADC
330
1F
100
AcDbEntity
  8
AM_0
100
AcDbLine
 10
-25.78375022258552
 20
14.17252800000011
 30
0.0
 11
-24.54510022258551
 21
14.5013990000001
 31
0.0
  0
LINE
  5
BADD
330
1F
100
AcDbEntity
  8
AM_0
100
AcDbLine
 10
-25.45512622258556
 20
16.00173500000011
 30
0.0
 11
-25.77883522258557
 21
17.25944800000013
 31
0.0
  0
LINE
  5
BADE
330
1F
100
AcDbEntity
  8
AM_0
100
AcDbLine
 10
-25.9079502225855
 20
14.53204700000014
 30
0.0
 11
-25.24098422258549
 21
14.70913200000012
 31
0.0
  0
LINE
  5
BADF
330
1F
100
AcDbEntity
  8
AM_0
100
AcDbLine
 10
-24.62641422258553
 20
14.69429500000012
 30
0.0
 11
-25.86506422258554
 21
14.36542400000013
 31
0.0
  0
LINE
  5
BAE0
330
1F
100
AcDbEntity
  8
AM_0
100
AcDbLine
 10
-19.61457422258556
 20
16.46365600000015
 30
0.0
 11
-19.92910422258555
 21
16.46502800000013
 31
0.0
  0
LINE
  5
BAE1
330
1F
100
AcDbEntity
  8
AM_0
100
AcDbLine
 10
-18.31313122258558
 20
11.80793300000013
 30
0.0
 11
-19.15944722258558
 21
13.31164000000015
 31
0.0
  0
LINE
  5
BAE2
330
1F
100
AcDbEntity
  8
AM_0
100
AcDbLine
 10
-20.43105122258549
 20
13.31718800000015
 30
0.0
 11
-21.29045622258553
 21
11.82092400000013
 31
0.0
  0
LINE
  5
BAE3
330
1F
100
AcDbEntity
  8
AM_0
100
AcDbLine
 10
-18.72533022258556
 20
13.30974600000013
 30
0.0
 11
-20.43105122258549
 21
13.31718800000015
 31
0.0
  0
LINE
  5
BAE4
330
1F
100
AcDbEntity
  8
AM_0
100
AcDbLine
 10
-7.212241222585532
 20
6.320079000000163
 30
0.0
 11
-8.205352222585531
 21
7.231548000000174
 31
0.0
  0
LINE
  5
BAE5
330
1F
100
AcDbEntity
  8
AM_0
100
AcDbLine
 10
-10.08617422258549
 20
6.898480000000176
 30
0.0
 11
-9.419208222585496
 21
7.075564000000184
 31
0.0
  0
LINE
  5
BAE6
330
1F
100
AcDbEntity
  8
AM_0
100
AcDbLine
 10
-10.8137982225856
 20
7.352569000000158
 30
0.0
 11
-9.575148222585596
 21
7.681440000000179
 31
0.0
  0
LINE
  5
BAE7
330
1F
100
AcDbEntity
  8
AM_0
100
AcDbLine
 10
-10.86200422258553
 20
7.32594100000017
 30
0.0
 11
-10.8137982225856
 21
7.352569000000158
 31
0.0
  0
LINE
  5
BAE8
330
1F
100
AcDbEntity
  8
AM_0
100
AcDbLine
 10
-9.623354222585533
 20
7.654812000000163
 30
0.0
 11
-9.575148222585596
 21
7.681440000000179
 31
0.0
  0
LINE
  5
BAE9
330
1F
100
AcDbEntity
  8
AM_0
100
AcDbLine
 10
-9.623354222585533
 20
7.654812000000163
 30
0.0
 11
-10.86200422258553
 21
7.32594100000017
 31
0.0
  0
LINE
  5
BAEA
330
1F
100
AcDbEntity
  8
AM_0
100
AcDbLine
 10
-10.58079922258553
 20
6.175441000000148
 30
0.0
 11
-10.49921822258551
 21
6.182226000000184
 31
0.0
  0
LINE
  5
BAEB
330
1F
100
AcDbEntity
  8
AM_0
100
AcDbLine
 10
-10.14821022258553
 20
6.925588000000175
 30
0.0
 11
-10.08617422258549
 21
6.898480000000176
 31
0.0
  0
LINE
  5
BAEC
330
1F
100
AcDbEntity
  8
AM_0
100
AcDbLine
 10
-10.14821022258553
 20
6.925588000000175
 30
0.0
 11
-9.48124422258553
 21
7.10267300000018
 31
0.0
  0
LINE
  5
BAED
330
1F
100
AcDbEntity
  8
AM_0
100
AcDbLine
 10
-9.48124422258553
 20
7.10267300000018
 30
0.0
 11
-9.419208222585496
 21
7.075564000000184
 31
0.0
  0
LINE
  5
BAEE
330
1F
100
AcDbEntity
  8
AM_0
100
AcDbLine
 10
-10.84409422258551
 20
7.133321000000137
 30
0.0
 11
-9.605444222585504
 21
7.462193000000183
 31
0.0
  0
LINE
  5
BAEF
330
1F
100
AcDbEntity
  8
AM_0
100
AcDbLine
 10
-9.562559222585548
 20
7.29556900000017
 30
0.0
 11
-10.22952422258555
 21
7.118485000000134
 31
0.0
  0
LINE
  5
BAF0
330
1F
100
AcDbEntity
  8
AM_0
100
AcDbLine
 10
-7.97624222258554
 20
10.45583200000018
 30
0.0
 11
-8.492219222585561
 21
9.544523000000168
 31
0.0
  0
LINE
  5
BAF1
330
1F
100
AcDbEntity
  8
AM_0
100
AcDbLine
 10
-12.38815722258556
 20
3.040844000000163
 30
0.0
 11
-11.49104222258557
 21
4.474687000000159
 31
0.0
  0
LINE
  5
BAF2
330
1F
100
AcDbEntity
  8
AM_0
100
AcDbLine
 10
-8.29081722258553
 20
4.407231000000166
 30
0.0
 11
-9.299956222585535
 21
5.333411000000182
 31
0.0
  0
LINE
  5
BAF3
330
1F
100
AcDbEntity
  8
AM_0
100
AcDbLine
 10
-10.40649422258553
 20
5.498211000000139
 30
0.0
 11
-10.32491222258551
 21
5.504996000000176
 31
0.0
  0
LINE
  5
BAF4
330
1F
100
AcDbEntity
  8
AM_0
100
AcDbLine
 10
-7.68400122258555
 20
5.459502000000185
 30
0.0
 11
-8.29081722258553
 21
4.407231000000166
 31
0.0
  0
LINE
  5
BAF5
330
1F
100
AcDbEntity
  8
AM_0
100
AcDbLine
 10
-10.49921822258551
 20
6.182226000000184
 30
0.0
 11
-10.32491222258551
 21
5.504996000000176
 31
0.0
  0
LINE
  5
BAF6
330
1F
100
AcDbEntity
  8
AM_0
100
AcDbLine
 10
-11.24531422258559
 20
6.604283000000179
 30
0.0
 11
-10.92160522258558
 21
5.346569000000158
 31
0.0
  0
LINE
  5
BAF7
330
1F
100
AcDbEntity
  8
AM_0
100
AcDbLine
 10
-9.299956222585535
 20
5.333411000000182
 30
0.0
 11
-8.205352222585531
 21
7.231548000000174
 31
0.0
  0
LINE
  5
BAF8
330
1F
100
AcDbEntity
  8
AM_0
100
AcDbLine
 10
-10.40649422258553
 20
5.498211000000139
 30
0.0
 11
-10.58079922258553
 21
6.175441000000148
 31
0.0
  0
LINE
  5
BAF9
330
1F
100
AcDbEntity
  8
AM_0
100
AcDbLine
 10
-10.79213122258551
 20
5.404377000000181
 30
0.0
 11
-11.11584022258551
 21
6.662090000000148
 31
0.0
  0
LINE
  5
BAFA
330
1F
100
AcDbEntity
  8
AM_0
100
AcDbLine
 10
-10.80233822258554
 20
6.12517600000018
 30
0.0
 11
-10.62803322258554
 21
5.447946000000172
 31
0.0
  0
LINE
  5
BAFB
330
1F
100
AcDbEntity
  8
AM_0
100
AcDbLine
 10
-13.50845622258552
 20
17.46801800000014
 30
0.0
 11
-13.62890322258553
 21
16.92168900000018
 31
0.0
  0
LINE
  5
BAFC
330
1F
100
AcDbEntity
  8
AM_0
100
AcDbLine
 10
-10.1080612225856
 20
14.50746000000015
 30
0.0
 11
-10.52037222258553
 21
14.03656400000016
 31
0.0
  0
LINE
  5
BAFD
330
1F
100
AcDbEntity
  8
AM_0
100
AcDbLine
 10
-9.536532222585549
 20
13.25753100000014
 30
0.0
 11
-10.1892032225856
 21
13.14901100000014
 31
0.0
  0
LINE
  5
BAFE
330
1F
100
AcDbEntity
  8
AM_0
100
AcDbLine
 10
-33.57942622258551
 20
23.84764400000011
 30
0.0
 11
-26.03670822258559
 21
23.8147320000001
 31
0.0
  0
LINE
  5
BAFF
330
1F
100
AcDbEntity
  8
AM_0
100
AcDbLine
 10
-42.06500522258553
 20
18.88462200000009
 30
0.0
 11
-38.95925722258559
 21
18.87107000000009
 31
0.0
  0
LINE
  5
BB00
330
1F
100
AcDbEntity
  8
AM_0
100
AcDbLine
 10
-47.16765722258557
 20
20.56705900000008
 30
0.0
 11
-48.67127722258553
 21
20.6343380000001
 31
0.0
  0
LINE
  5
BB01
330
1F
100
AcDbEntity
  8
AM_0
100
AcDbLine
 10
-47.29568822258554
 20
20.56250700000009
 30
0.0
 11
-48.79583822258561
 21
20.6296310000001
 31
0.0
  0
LINE
  5
BB02
330
1F
100
AcDbEntity
  8
AM_0
100
AcDbLine
 10
-52.76065822258553
 20
19.93313300000005
 30
0.0
 11
-47.29568822258554
 21
20.56250700000009
 31
0.0
  0
LINE
  5
BB03
330
1F
100
AcDbEntity
  8
AM_0
100
AcDbLine
 10
-46.59128422258558
 20
20.25025500000009
 30
0.0
 11
-46.6584162225856
 21
21.12335400000009
 31
0.0
  0
LINE
  5
BB04
330
1F
100
AcDbEntity
  8
AM_0
100
AcDbLine
 10
-43.5176102225856
 20
20.35340700000011
 30
0.0
 11
-44.05771722258563
 21
20.35576300000008
 31
0.0
  0
LINE
  5
BB05
330
1F
100
AcDbEntity
  8
AM_0
100
AcDbLine
 10
-43.15200722258552
 20
18.88936500000011
 30
0.0
 11
-42.06500522258553
 21
18.88462200000009
 31
0.0
  0
LINE
  5
BB06
330
1F
100
AcDbEntity
  8
AM_0
100
AcDbLine
 10
-34.99175922258561
 20
18.9537600000001
 30
0.0
 11
-40.33428922258562
 21
18.97707100000008
 31
0.0
  0
LINE
  5
BB07
330
1F
100
AcDbEntity
  8
AM_0
100
AcDbLine
 10
-34.66965422258553
 20
18.8523530000001
 30
0.0
 11
-38.95925722258559
 21
18.87107000000009
 31
0.0
  0
LINE
  5
BB08
330
1F
100
AcDbEntity
  8
AM_0
100
AcDbLine
 10
-35.71511422258558
 20
18.95691600000012
 30
0.0
 11
-35.81403022258561
 21
18.85734700000011
 31
0.0
  0
LINE
  5
BB09
330
1F
100
AcDbEntity
  8
AM_0
100
AcDbLine
 10
-36.05784422258554
 20
18.8584100000001
 30
0.0
 11
-36.08083422258559
 21
18.95851200000012
 31
0.0
  0
LINE
  5
BB0A
330
1F
100
AcDbEntity
  8
AM_0
100
AcDbLine
 10
-40.33428922258562
 20
18.97707100000008
 30
0.0
 11
-41.4233652225856
 21
18.9818230000001
 31
0.0
  0
LINE
  5
BB0B
330
1F
100
AcDbEntity
  8
AM_0
100
AcDbLine
 10
-35.33711122258555
 20
23.45530900000011
 30
0.0
 11
-35.33914222258554
 21
22.9899380000001
 31
0.0
  0
LINE
  5
BB0C
330
1F
100
AcDbEntity
  8
AM_0
100
AcDbLine
 10
-35.33711122258555
 20
23.45530900000011
 30
0.0
 11
-34.2587792225855
 21
23.45060400000011
 31
0.0
  0
LINE
  5
BB0D
330
1F
100
AcDbEntity
  8
AM_0
100
AcDbLine
 10
-34.94144722258553
 20
23.85358700000011
 30
0.0
 11
-33.83906222258551
 21
23.84877700000012
 31
0.0
  0
LINE
  5
BB0E
330
1F
100
AcDbEntity
  8
AM_0
100
AcDbLine
 10
-33.57942622258551
 20
23.84764400000011
 30
0.0
 11
-33.83906222258551
 21
23.84877700000012
 31
0.0
  0
LINE
  5
BB0F
330
1F
100
AcDbEntity
  8
AM_0
100
AcDbLine
 10
-34.69501022258552
 20
19.2524680000001
 30
0.0
 11
-34.27308222258554
 21
19.25062700000012
 31
0.0
  0
LINE
  5
BB10
330
1F
100
AcDbEntity
  8
AM_0
100
AcDbLine
 10
-34.28903122258552
 20
22.01470100000011
 30
0.0
 11
-34.29934522258562
 21
19.65074500000011
 31
0.0
  0
LINE
  5
BB11
330
1F
100
AcDbEntity
  8
AM_0
100
AcDbLine
 10
-34.29934522258562
 20
19.65074500000011
 30
0.0
 11
-34.99175922258561
 21
18.9537600000001
 31
0.0
  0
LINE
  5
BB12
330
1F
100
AcDbEntity
  8
AM_0
100
AcDbLine
 10
-24.77802222258557
 20
20.63889100000011
 30
0.0
 11
-24.62987222258559
 21
19.44545800000014
 31
0.0
  0
LINE
  5
BB13
330
1F
100
AcDbEntity
  8
AM_0
100
AcDbLine
 10
-25.98185322258561
 20
23.81179000000014
 30
0.0
 11
-26.03670822258559
 21
23.8147320000001
 31
0.0
  0
LINE
  5
BB14
330
1F
100
AcDbEntity
  8
AM_0
100
AcDbLine
 10
-26.03670822258559
 20
23.8147320000001
 30
0.0
 11
-24.22860822258562
 21
23.80684300000012
 31
0.0
  0
LINE
  5
BB15
330
1F
100
AcDbEntity
  8
AM_0
100
AcDbLine
 10
-19.92877722258558
 20
23.45492900000013
 30
0.0
 11
-19.9425452225856
 21
23.45707600000014
 31
0.0
  0
LINE
  5
BB16
330
1F
100
AcDbEntity
  8
AM_0
100
AcDbLine
 10
-18.94357422258562
 20
19.72348200000016
 30
0.0
 11
-18.69781822258559
 21
18.95321400000014
 31
0.0
  0
LINE
  5
BB17
330
1F
100
AcDbEntity
  8
AM_0
100
AcDbLine
 10
-18.14953322258551
 20
19.56864700000014
 30
0.0
 11
-18.13233722258561
 21
18.87644800000015
 31
0.0
  0
LINE
  5
BB18
330
1F
100
AcDbEntity
  8
AM_0
100
AcDbLine
 10
-4.137266222585509
 20
-10.48303699999982
 30
0.0
 11
-4.03992922258547
 21
-10.50034599999983
 31
0.0
  0
LINE
  5
BB19
330
1F
100
AcDbEntity
  8
AM_0
100
AcDbLine
 10
-4.137266222585509
 20
-10.48303699999982
 30
0.0
 11
-4.186199222585543
 21
-10.47433499999982
 31
0.0
  0
LINE
  5
BB1A
330
1F
100
AcDbEntity
  8
AM_0
100
AcDbLine
 10
-4.35190222258555
 20
-10.95271299999981
 30
0.0
 11
-4.508812222585476
 21
-10.92480999999983
 31
0.0
  0
LINE
  5
BB1B
330
1F
100
AcDbEntity
  8
AM_0
100
AcDbLine
 10
-3.76952722258548
 20
-11.09378199999983
 30
0.0
 11
-2.670386222585563
 21
-11.28923899999983
 31
0.0
  0
LINE
  5
BB1C
330
1F
100
AcDbEntity
  8
AM_0
100
AcDbLine
 10
-3.781601222585578
 20
-10.71847999999983
 30
0.0
 11
-4.35190222258555
 21
-10.95271299999981
 31
0.0
  0
LINE
  5
BB1D
330
1F
100
AcDbEntity
  8
AM_0
100
AcDbLine
 10
-4.03992922258547
 20
-10.50034599999983
 30
0.0
 11
-2.969706222585529
 21
-10.69066099999983
 31
0.0
  0
LINE
  5
BB1E
330
1F
100
AcDbEntity
  8
AM_0
100
AcDbLine
 10
-0.985207222585501
 20
-1.985336999999788
 30
0.0
 11
-1.096467222585516
 21
-1.962953999999797
 31
0.0
  0
LINE
  5
BB1F
330
1F
100
AcDbEntity
  8
AM_0
100
AcDbLine
 10
-1.096467222585516
 20
-1.984850999999821
 30
0.0
 11
-0.985207222585501
 21
-1.985336999999788
 31
0.0
  0
LINE
  5
BB20
330
1F
100
AcDbEntity
  8
AM_0
100
AcDbLine
 10
-1.096467222585516
 20
-1.99700499999983
 30
0.0
 11
-0.8601222225854883
 21
-1.998036999999811
 31
0.0
  0
LINE
  5
BB21
330
1F
100
AcDbEntity
  8
AM_0
100
AcDbLine
 10
-1.096467222585516
 20
-1.991499999999803
 30
0.0
 11
-1.096467222585516
 21
-1.940688999999792
 31
0.0
  0
LINE
  5
BB22
330
1F
100
AcDbEntity
  8
AM_0
100
AcDbLine
 10
-1.096467222585516
 20
-1.991499999999803
 30
0.0
 11
-1.096467222585516
 21
-2.207466999999809
 31
0.0
  0
ARC
  5
BB23
330
1F
100
AcDbEntity
  8
AM_0
100
AcDbCircle
 10
-23.89997622258547
 20
0.0000000000001421
 30
0.0
 40
23.0000006445482
100
AcDbArc
 50
346.4207201888129
 51
352.505282707893
  0
LINE
  5
BB24
330
1F
100
AcDbEntity
  8
AM_0
100
AcDbLine
 10
-1.096467222585516
 20
-2.207466999999809
 30
0.0
 11
-1.096467222585516
 21
-2.999999999999829
 31
0.0
  0
LINE
  5
BB25
330
1F
100
AcDbEntity
  8
AM_0
100
AcDbLine
 10
-1.096467222585516
 20
-1.940688999999792
 30
0.0
 11
-4.136595222585498
 21
-1.382660999999814
 31
0.0
  0
LINE
  5
BB26
330
1F
100
AcDbEntity
  8
AM_0
100
AcDbLine
 10
-5.424367222585573
 20
15.13858800000017
 30
0.0
 11
-5.437434222585551
 21
15.15093800000016
 31
0.0
  0
DIMENSION
  5
BDF5
330
1F
100
AcDbEntity
  8
AM_5
100
AcDbDimension
  2
*D5
 10
-65.00000000000028
 20
39.00000101000012
 30
0.0
 11
-32.50000000000023
 21
42.10000101000006
 31
0.0
 70
    32
  1
69
 51
359.9999999999998
  3
AM_JIS$0
100
AcDbAlignedDimension
 13
-0.0000000000002558
 23
0.0000000000001705
 33
0.0
 14
-65.00000000000031
 24
25.00000000000005
 34
0.0
 50
180.0
100
AcDbRotatedDimension
1001
GENIUS_GENDTOL_13
1000

1000
h7
1000

1040
0.0
1001
ACAD
1000
DSTYLE
1002
{
1070
   287
1070
     3
1070
   147
1040
3.0
1070
    44
1040
2.0
1070
    41
1040
5.0
1070
    40
1040
0.5
1070
    42
1040
2.0
1070
    43
1040
12.0
1070
    48
1040
0.1
1070
    78
1070
     8
1070
   140
1040
6.4
1070
   176
1070
   256
1070
   177
1070
   256
1070
   271
1070
     1
1070
   272
1070
     3
1070
   275
1070
     0
1070
   284
1070
     0
1070
   289
1070
     3
1070
   340
1005
6B
1070
   371
1070
    -1
1070
   372
1070
    -1
1002
}
  0
DIMENSION
  5
BEB7
330
1F
100
AcDbEntity
  8
AM_5
100
AcDbDimension
  2
*D6
 10
-250.0000000000002
 20
-39.00000100999989
 30
0.0
 11
-125.0000000000002
 21
-35.90000100999989
 31
0.0
 70
    32
  1
<>
 51
359.9999999999998
  3
AM_JIS$0
100
AcDbAlignedDimension
 13
-0.0000000000002558
 23
0.0000000000001705
 33
0.0
 14
-250.0000000000002
 24
-23.00000000000022
 34
0.0
100
AcDbRotatedDimension
1001
GENIUS_GENDTOL_13
1000

1000
h7
1000

1040
0.0
1001
ACAD
1000
DSTYLE
1002
{
1070
   287
1070
     3
1070
   147
1040
3.0
1070
    44
1040
2.0
1070
    41
1040
5.0
1070
    40
1040
0.5
1070
    42
1040
2.0
1070
    43
1040
12.0
1070
    48
1040
0.1
1070
    78
1070
     8
1070
   140
1040
6.4
1070
   176
1070
   256
1070
   177
1070
   256
1070
   271
1070
     1
1070
   272
1070
     3
1070
   275
1070
     0
1070
   284
1070
     0
1070
   289
1070
     3
1070
   340
1005
6B
1070
   371
1070
    -1
1070
   372
1070
    -1
1002
}
  0
DIMENSION
  5
BF4C
330
1F
100
AcDbEntity
  8
AM_5
100
AcDbDimension
  2
*D7
 10
-350.0000000000001
 20
-49.00000100999989
 30
0.0
 11
-175.0000000000002
 21
-45.90000100999989
 31
0.0
 70
    32
  1
<>
 51
359.9999999999998
  3
AM_JIS$0
100
AcDbAlignedDimension
 13
-0.0000000000002558
 23
0.0000000000001705
 33
0.0
 14
-350.0000000000001
 24
-19.04516200000053
 34
0.0
100
AcDbRotatedDimension
1001
GENIUS_GENDTOL_13
1000

1000
h7
1000

1040
0.0
1001
ACAD
1000
DSTYLE
1002
{
1070
   287
1070
     3
1070
   147
1040
3.0
1070
    44
1040
2.0
1070
    41
1040
5.0
1070
    40
1040
0.5
1070
    42
1040
2.0
1070
    43
1040
12.0
1070
    48
1040
0.1
1070
    78
1070
     8
1070
   140
1040
6.4
1070
   176
1070
   256
1070
   177
1070
   256
1070
   271
1070
     1
1070
   272
1070
     3
1070
   275
1070
     0
1070
   284
1070
     0
1070
   289
1070
     3
1070
   340
1005
6B
1070
   371
1070
    -1
1070
   372
1070
    -1
1002
}
  0
DIMENSION
  5
BFE1
330
1F
100
AcDbEntity
  8
AM_5
100
AcDbDimension
  2
*D8
 10
-350.0000000000001
 20
-39.00000100999989
 30
0.0
 11
-300.0000000000002
 21
-35.90000100999989
 31
0.0
 70
    32
  1
<>
 51
359.9999999999998
  3
AM_JIS$0
100
AcDbAlignedDimension
 13
-250.0000000000002
 23
-23.00000000000022
 33
0.0
 14
-350.0000000000001
 24
-19.04516200000053
 34
0.0
100
AcDbRotatedDimension
1001
GENIUS_GENDTOL_13
1000

1000
h7
1000

1040
0.0
1001
ACAD
1000
DSTYLE
1002
{
1070
   287
1070
     3
1070
   147
1040
3.0
1070
    44
1040
2.0
1070
    41
1040
5.0
1070
    40
1040
0.5
1070
    42
1040
2.0
1070
    43
1040
12.0
1070
    48
1040
0.1
1070
    78
1070
     8
1070
   140
1040
6.4
1070
   176
1070
   256
1070
   177
1070
   256
1070
   271
1070
     1
1070
   272
1070
     3
1070
   275
1070
     0
1070
   284
1070
     0
1070
   289
1070
     3
1070
   340
1005
6B
1070
   371
1070
    -1
1070
   372
1070
    -1
1002
}
  0
DIMENSION
  5
C07F
330
1F
100
AcDbEntity
  8
AM_5
100
AcDbDimension
  2
*D9
 10
-369.9231016608279
 20
-21.0000000000005
 30
0.0
 11
-373.0231016608279
 21
-0.0000000000005738
 31
0.0
 70
    32
  1
%%c<>
 51
359.9999999999998
  3
AM_JIS$0
100
AcDbAlignedDimension
 13
-347.0000000000002
 23
20.99999999999946
 33
0.0
 14
-347.0000000000001
 24
-21.0000000000005
 34
0.0
 50
270.0
100
AcDbRotatedDimension
1001
GENIUS_GENDTOL_13
1000

1000
h7
1000

1040
0.0
1001
ACAD
1000
DSTYLE
1002
{
1070
   287
1070
     3
1070
   147
1040
3.0
1070
    44
1040
2.0
1070
    41
1040
5.0
1070
    40
1040
0.5
1070
    42
1040
2.0
1070
    43
1040
12.0
1070
    48
1040
0.1
1070
    78
1070
     8
1070
   140
1040
6.4
1070
   176
1070
   256
1070
   177
1070
   256
1070
   271
1070
     1
1070
   272
1070
     3
1070
   275
1070
     0
1070
   284
1070
     0
1070
   289
1070
     3
1070
   340
1005
6B
1070
   371
1070
    -1
1070
   372
1070
    -1
1002
}
  0
DIMENSION
  5
C11D
330
1F
100
AcDbEntity
  8
AM_5
100
AcDbDimension
  2
*D10
 10
21.28988236108543
 20
-24.9999999999999
 30
0.0
 11
18.18988236108543
 21
0.0000000000001021
 31
0.0
 70
    32
  1
%%c<>
 51
359.9999999999998
  3
AM_JIS$0
100
AcDbAlignedDimension
 13
-25.00000000000025
 23
25.00000000000011
 33
0.0
 14
-25.00000000000025
 24
-24.99999999999988
 34
0.0
 50
90.0
100
AcDbRotatedDimension
1001
GENIUS_GENDTOL_13
1000

1000
h7
1000

1040
0.0
1001
ACAD
1000
DSTYLE
1002
{
1070
   287
1070
     3
1070
   147
1040
3.0
1070
    44
1040
2.0
1070
    41
1040
5.0
1070
    40
1040
0.5
1070
    42
1040
2.0
1070
    43
1040
12.0
1070
    48
1040
0.1
1070
    78
1070
     8
1070
   140
1040
6.4
1070
   176
1070
   256
1070
   177
1070
   256
1070
   271
1070
     1
1070
   272
1070
     3
1070
   275
1070
     0
1070
   284
1070
     0
1070
   289
1070
     3
1070
   340
1005
6B
1070
   371
1070
    -1
1070
   372
1070
    -1
1002
}
  0
VIEWPORT
  5
110
330
101
100
AcDbEntity
 67
     1
  8
0
100
AcDbViewport
 10
420.5
 20
297.0
 30
0.0
 40
948.9782706766916
 41
628.452
 68
     1
 69
     1
1001
ACAD
1000
MVIEW
1002
{
1070
    16
1010
0.0
1020
0.0
1030
0.0
1010
0.0
1020
0.0
1030
1.0
1040
0.0
1040
628.452
1040
420.5
1040
297.0
1040
50.0
1040
0.0
1040
0.0
1070
     0
1070
   100
1070
     1
1070
     1
1070
     0
1070
     0
1070
     0
1070
     0
1040
0.0
1040
0.0
1040
0.0
1040
10.0
1040
10.0
1040
10.0
1040
10.0
1070
     0
1002
{
1002
}
1002
}
  0
ENDSEC
  0
SECTION
  2
OBJECTS
  0
DICTIONARY
  5
C
330
0
100
AcDbDictionary
  3
ACAD_GROUP
350
D
  3
ACAD_LAYOUT
350
1A
  3
ACAD_MLINESTYLE
350
17
  3
ACAD_PLOTSETTINGS
350
19
  3
ACAD_PLOTSTYLENAME
350
E
  3
ACDBVARIABLEDICTIONARY
350
34
  3
ACMDICTIONARY
350
43
  3
AMG
350
2B
  3
AMGSNAPSETTINGS
350
6E
  3
DWGPROPS
350
C4DA
  3
ACDBHEADERROUNDTRIPXREC
350
C4E6
  0
DICTIONARY
  5
74
330
1F
100
AcDbDictionary
280
     1
  3
ACAD_INDEX
360
C4DC
  3
ACAD_LAYOUTSELFREF
360
C509
  0
DICTIONARY
  5
C50E
330
101
100
AcDbDictionary
280
     1
  3
ACAD_LAYOUTSELFREF
360
C50F
  0
DICTIONARY
  5
D
102
{ACAD_REACTORS
330
C
102
}
330
C
100
AcDbDictionary
  0
DICTIONARY
  5
1A
102
{ACAD_REACTORS
330
C
102
}
330
C
100
AcDbDictionary
  0
DICTIONARY
  5
17
102
{ACAD_REACTORS
330
C
102
}
330
C
100
AcDbDictionary
  3
STANDARD
350
18
  0
DICTIONARY
  5
19
102
{ACAD_REACTORS
330
C
102
}
330
C
100
AcDbDictionary
  3
ASAMI
350
399D
  0
ACDBDICTIONARYWDFLT
  5
E
102
{ACAD_REACTORS
330
C
102
}
330
C
100
AcDbDictionary
281
     1
  3
Normal
350
F
100
AcDbDictionaryWithDefault
340
F
  0
DICTIONARY
  5
34
102
{ACAD_REACTORS
330
C
102
}
330
C
100
AcDbDictionary
  3
INDEXCTL
350
35
  3
SORTENTS
350
B5E
  0
DICTIONARY
  5
43
102
{ACAD_REACTORS
330
C
102
}
330
C
100
AcDbDictionary
  3
ACMSTDDICTIONARY
350
260
  0
DICTIONARY
  5
2B
102
{ACAD_REACTORS
330
C
102
}
330
C
100
AcDbDictionary
  3
ACMGSETTINGS
350
2C
  0
DICTIONARY
  5
6E
102
{ACAD_REACTORS
330
C
102
}
330
C
100
AcDbDictionary
  0
XRECORD
  5
C4DA
102
{ACAD_REACTORS
330
C
102
}
330
C
100
AcDbXrecord
  1
DWGPROPS COOKIE
  2

  3

  4

  6

  7

  8

  9

300
AmdtFileType=82
301
=
302
=
303
=
304
=
305
=
306
=
307
=
308
=
309
=
 40
0.9508529745370369
 41
2452802.716478761
 42
2453075.666186157
  1

 90
        1
  0
DICTIONARY
  5
C4E6
102
{ACAD_REACTORS
330
C
102
}
330
C
100
AcDbDictionary
  3
TSTACKALIGN
350
C4E7
  3
TSTACKSIZE
350
C4E8
  3
HYPERLINKBASE
350
C4E9
  3
STYLESHEET
350
C4EA
  3
LAYOUTDICT
350
C4EB
  3
PLOTSETDICT
350
C4EC
  3
PLOTSTYLNAMDICT
350
C4ED
  3
LWETCUNION
350
C4EE
  3
INSUNITS
350
C4EF
  3
CEPSNTYPE
350
C4F0
  3
FINGERPRINTGUID
350
C4F1
  3
VERSIONGUID
350
C4F2
  3
PSVPSCALE
350
C4F3
  3
DIMSTYLEDATA
350
C4F4
  3
PUCSORTHOREF
350
C4F5
  3
PUCSORTHOVIEW
350
C4F6
  3
PUCSBASE
350
C4F7
  3
PUCSORGTOP
350
C4F8
  3
PUCSORGBOTTOM
350
C4F9
  3
PUCSORGLEFT
350
C4FA
  3
PUCSORGRIGHT
350
C4FB
  3
PUCSORGFRONT
350
C4FC
  3
PUCSORGBACK
350
C4FD
  3
UCSORTHOREF
350
C4FE
  3
UCSORTHOVIEW
350
C4FF
  3
UCSBASE
350
C500
  3
UCSORGTOP
350
C501
  3
UCSORGBOTTOM
350
C502
  3
UCSORGLEFT
350
C503
  3
UCSORGRIGHT
350
C504
  3
UCSORGFRONT
350
C505
  3
UCSORGBACK
350
C506
  0
DICTIONARY
  5
C4DC
102
{ACAD_REACTORS
330
74
102
}
330
74
100
AcDbDictionary
  3
*A1
350
C4DD
  0
XRECORD
  5
C509
102
{ACAD_REACTORS
330
74
102
}
330
74
100
AcDbXrecord
340
1F
  0
XRECORD
  5
C50F
102
{ACAD_REACTORS
330
C50E
102
}
330
C50E
100
AcDbXrecord
340
101
  0
MLINESTYLE
  5
18
102
{ACAD_REACTORS
330
17
102
}
330
17
100
AcDbMlineStyle
  2
STANDARD
 70
     0
  3

 62
   256
 51
90.0
 52
90.0
 71
     2
 49
0.5
 62
   256
  6
BYLAYER
 49
-0.5
 62
   256
  6
BYLAYER
  0
PLOTSETTINGS
  5
399D
102
{ACAD_REACTORS
330
19
102
}
330
19
100
AcDbPlotSettings
  1
asami
  2
RICOH imagio MF1540
  4
A4
  6

 40
5.831416606903076
 41
7.651742935180664
 42
4.90008544921875
 43
5.789077758789062
 44
296.9683227539062
 45
209.9733276367187
 46
0.0
 47
0.0
 48
-156.6707931774246
 49
-74.57609991074048
140
58.59973180214831
141
60.61068161925596
142
1.0
143
1.095343097833084
 70
  1712
 72
     1
 73
     1
 74
     4
  7
asami.ctb
 75
     0
147
0.9129559514076438
148
156.6707931774246
149
74.57609991074048
  0
ACDBPLACEHOLDER
  5
F
102
{ACAD_REACTORS
330
E
102
}
330
E
100
AcDbPlaceHolder
280
     0
  0
DICTIONARYVAR
  5
35
102
{ACAD_REACTORS
330
34
102
}
330
34
100
DictionaryVariables
280
     0
  1
1
  0
DICTIONARYVAR
  5
B5E
102
{ACAD_REACTORS
330
34
102
}
330
34
100
DictionaryVariables
280
     0
  1
96
  0
DICTIONARY
  5
260
102
{ACAD_REACTORS
330
43
102
}
330
43
100
AcDbDictionary
  0
DICTIONARY
  5
2C
102
{ACAD_REACTORS
330
2B
102
}
330
2B
100
AcDbDictionary
  3
DWGSETTINGS
350
2D
  0
XRECORD
  5
C4E7
102
{ACAD_REACTORS
330
C4E6
102
}
330
C4E6
100
AcDbXrecord
 90
        1
  0
XRECORD
  5
C4E8
102
{ACAD_REACTORS
330
C4E6
102
}
330
C4E6
100
AcDbXrecord
 90
       70
  0
XRECORD
  5
C4E9
102
{ACAD_REACTORS
330
C4E6
102
}
330
C4E6
100
AcDbXrecord
  1

  0
XRECORD
  5
C4EA
102
{ACAD_REACTORS
330
C4E6
102
}
330
C4E6
100
AcDbXrecord
  1
ASAMI.ctb
  0
XRECORD
  5
C4EB
102
{ACAD_REACTORS
330
C4E6
102
}
330
C4E6
100
AcDbXrecord
340
1A
  0
XRECORD
  5
C4EC
102
{ACAD_REACTORS
330
C4E6
102
}
330
C4E6
100
AcDbXrecord
340
19
  0
XRECORD
  5
C4ED
102
{ACAD_REACTORS
330
C4E6
102
}
330
C4E6
100
AcDbXrecord
340
E
  0
XRECORD
  5
C4EE
102
{ACAD_REACTORS
330
C4E6
102
}
330
C4E6
100
AcDbXrecord
 90
    10781
  0
XRECORD
  5
C4EF
102
{ACAD_REACTORS
330
C4E6
102
}
330
C4E6
100
AcDbXrecord
 90
        4
  0
XRECORD
  5
C4F0
102
{ACAD_REACTORS
330
C4E6
102
}
330
C4E6
100
AcDbXrecord
 90
        0
  0
XRECORD
  5
C4F1
102
{ACAD_REACTORS
330
C4E6
102
}
330
C4E6
100
AcDbXrecord
  1
{AFB28963-8C59-40AE-9337-C84526B81ACE}
  0
XRECORD
  5
C4F2
102
{ACAD_REACTORS
330
C4E6
102
}
330
C4E6
100
AcDbXrecord
  1
{861ADAB7-901B-477E-9236-ACEA5E60DA5D}
  0
XRECORD
  5
C4F3
102
{ACAD_REACTORS
330
C4E6
102
}
330
C4E6
100
AcDbXrecord
 40
0.0
  0
XRECORD
  5
C4F4
102
{ACAD_REACTORS
330
C4E6
102
}
330
C4E6
100
AcDbXrecord
1000
DSTYLE
1002
{
1070
    79
 70
     2
1070
   341
340
59
1070
   342
340
59
1070
   371
 70
    -1
1070
   372
 70
    -1
1002
}
  0
XRECORD
  5
C4F5
102
{ACAD_REACTORS
330
C4E6
102
}
330
C4E6
100
AcDbXrecord
340
0
  0
XRECORD
  5
C4F6
102
{ACAD_REACTORS
330
C4E6
102
}
330
C4E6
100
AcDbXrecord
 70
     0
  0
XRECORD
  5
C4F7
102
{ACAD_REACTORS
330
C4E6
102
}
330
C4E6
100
AcDbXrecord
340
0
  0
XRECORD
  5
C4F8
102
{ACAD_REACTORS
330
C4E6
102
}
330
C4E6
100
AcDbXrecord
 10
0.0
 20
0.0
 30
0.0
  0
XRECORD
  5
C4F9
102
{ACAD_REACTORS
330
C4E6
102
}
330
C4E6
100
AcDbXrecord
 10
0.0
 20
0.0
 30
0.0
  0
XRECORD
  5
C4FA
102
{ACAD_REACTORS
330
C4E6
102
}
330
C4E6
100
AcDbXrecord
 10
0.0
 20
0.0
 30
0.0
  0
XRECORD
  5
C4FB
102
{ACAD_REACTORS
330
C4E6
102
}
330
C4E6
100
AcDbXrecord
 10
0.0
 20
0.0
 30
0.0
  0
XRECORD
  5
C4FC
102
{ACAD_REACTORS
330
C4E6
102
}
330
C4E6
100
AcDbXrecord
 10
0.0
 20
0.0
 30
0.0
  0
XRECORD
  5
C4FD
102
{ACAD_REACTORS
330
C4E6
102
}
330
C4E6
100
AcDbXrecord
 10
0.0
 20
0.0
 30
0.0
  0
XRECORD
  5
C4FE
102
{ACAD_REACTORS
330
C4E6
102
}
330
C4E6
100
AcDbXrecord
340
0
  0
XRECORD
  5
C4FF
102
{ACAD_REACTORS
330
C4E6
102
}
330
C4E6
100
AcDbXrecord
 70
     0
  0
XRECORD
  5
C500
102
{ACAD_REACTORS
330
C4E6
102
}
330
C4E6
100
AcDbXrecord
340
0
  0
XRECORD
  5
C501
102
{ACAD_REACTORS
330
C4E6
102
}
330
C4E6
100
AcDbXrecord
 10
0.0
 20
0.0
 30
0.0
  0
XRECORD
  5
C502
102
{ACAD_REACTORS
330
C4E6
102
}
330
C4E6
100
AcDbXrecord
 10
0.0
 20
0.0
 30
0.0
  0
XRECORD
  5
C503
102
{ACAD_REACTORS
330
C4E6
102
}
330
C4E6
100
AcDbXrecord
 10
0.0
 20
0.0
 30
0.0
  0
XRECORD
  5
C504
102
{ACAD_REACTORS
330
C4E6
102
}
330
C4E6
100
AcDbXrecord
 10
0.0
 20
0.0
 30
0.0
  0
XRECORD
  5
C505
102
{ACAD_REACTORS
330
C4E6
102
}
330
C4E6
100
AcDbXrecord
 10
0.0
 20
0.0
 30
0.0
  0
XRECORD
  5
C506
102
{ACAD_REACTORS
330
C4E6
102
}
330
C4E6
100
AcDbXrecord
 10
0.0
 20
0.0
 30
0.0
  0
LAYER_INDEX
  5
C4DD
102
{ACAD_REACTORS
330
C4DC
102
}
330
C4DC
100
AcDbIndex
 40
2453152.411574259
100
AcDbLayerIndex
  8
0
360
C4DE
 90
        0
  8
AM_0
360
C4DF
 90
      556
  8
AM_5
360
C4E0
 90
        6
  8
AM_7
360
C4E1
 90
        1
  8
AM_6
360
C4E2
 90
        1
  8
Defpoints
360
C4E3
 90
        0
  8
AM_11
360
C4E4
 90
        4
  0
XRECORD
  5
2D
102
{ACAD_REACTORS
330
2C
102
}
330
2C
100
AcDbXrecord
  1
VERSION
140
15.0
  1
PRODUCT
  2
AutoCAD Mechanical 2000
  0
IDBUFFER
  5
C4DE
330
0
100
AcDbIdBuffer
  0
IDBUFFER
  5
C4DF
330
0
100
AcDbIdBuffer
330
BAEB
330
BAEC
330
BAED
330
BAEE
330
BAEF
330
BAF0
330
BAF1
330
BAF2
330
BAF3
330
BAF4
330
BAF5
330
BAF6
330
BAF7
330
BAF8
330
BAF9
330
BAFA
330
BAFB
330
BAFC
330
BAFD
330
BAFE
330
BAFF
330
BB00
330
BB01
330
BB02
330
BB03
330
BB04
330
BB05
330
BB06
330
BB07
330
BB08
330
BB09
330
BB0A
330
BB0B
330
BB0C
330
BB0D
330
BB0E
330
BB0F
330
BB10
330
BB11
330
BB12
330
BB13
330
BB14
330
BB15
330
BB16
330
BB17
330
BB18
330
BB19
330
BB1A
330
BB1B
330
BB1C
330
BB1D
330
BB1E
330
BB1F
330
BB20
330
BB21
330
BB22
330
BB23
330
BB24
330
BB25
330
BB26
330
B8EC
330
B8ED
330
B8EE
330
B8EF
330
B8F0
330
B8F1
330
B8F2
330
B8F3
330
B8F4
330
B8F5
330
B8F6
330
B8F7
330
B8F8
330
B8F9
330
B8FA
330
B8FB
330
B901
330
B902
330
B903
330
B904
330
B905
330
B906
330
B907
330
B908
330
B909
330
B90A
330
B90B
330
B90C
330
B90D
330
B90E
330
B90F
330
B910
330
B911
330
B912
330
B913
330
B914
330
B915
330
B916
330
B917
330
B918
330
B919
330
B91A
330
B91B
330
B91C
330
B91D
330
B91E
330
B91F
330
B920
330
B921
330
B922
330
B923
330
B924
330
B925
330
B926
330
B927
330
B928
330
B929
330
B92A
330
B92B
330
B92C
330
B92D
330
B92E
330
B92F
330
B930
330
B932
330
B933
330
B934
330
B936
330
B937
330
B938
330
B939
330
B93A
330
B93B
330
B93C
330
B93D
330
B93E
330
B93F
330
B940
330
B941
330
B942
330
B943
330
B944
330
B945
330
B946
330
B947
330
B948
330
B949
330
B94A
330
B94B
330
B94C
330
B94D
330
B94E
330
B94F
330
B950
330
B951
330
B952
330
B953
330
B954
330
B955
330
B956
330
B957
330
B958
330
B959
330
B95A
330
B95B
330
B95C
330
B95D
330
B95E
330
B95F
330
B960
330
B961
330
B962
330
B963
330
B964
330
B965
330
B966
330
B967
330
B968
330
B969
330
B96A
330
B96B
330
B96C
330
B96D
330
B96E
330
B96F
330
B970
330
B971
330
B972
330
B973
330
B974
330
B975
330
B976
330
B977
330
B978
330
B979
330
B97A
330
B97B
330
B97C
330
B97D
330
B97E
330
B97F
330
B980
330
B981
330
B982
330
B983
330
B984
330
B985
330
B986
330
B987
330
B988
330
B989
330
B98A
330
B98B
330
B98C
330
B98D
330
B98E
330
B98F
330
B990
330
B991
330
B992
330
B993
330
B994
330
B995
330
B996
330
B997
330
B998
330
B999
330
B99A
330
B99B
330
B99C
330
B99D
330
B99E
330
B99F
330
B9A0
330
B9A1
330
B9A2
330
B9A3
330
B9A4
330
B9A5
330
B9A6
330
B9A7
330
B9A8
330
B9A9
330
B9AA
330
B9AB
330
B9AC
330
B9AD
330
B9AE
330
B9AF
330
B9B0
330
B9B1
330
B9B2
330
B9B3
330
B9B4
330
B9B5
330
B9B6
330
B9B7
330
B9B8
330
B9B9
330
B9BA
330
B9BB
330
B9BC
330
B9BD
330
B9BE
330
B9BF
330
B9C0
330
B9C1
330
B9C2
330
B9C3
330
B9C4
330
B9C5
330
B9C6
330
B9C7
330
B9C8
330
B9C9
330
B9CA
330
B9CB
330
B9CC
330
B9CD
330
B9CE
330
B9CF
330
B9D0
330
B9D1
330
B9D2
330
B9D3
330
B9D4
330
B9D5
330
B9D6
330
B9D7
330
B9D8
330
B9D9
330
B9DA
330
B9DB
330
B9DC
330
B9DD
330
B9DE
330
B9DF
330
B9E0
330
B9E1
330
B9E2
330
B9E3
330
B9E4
330
B9E5
330
B9E6
330
B9E7
330
B9E8
330
B9E9
330
B9EA
330
B9EB
330
B9EC
330
B9ED
330
B9EE
330
B9EF
330
B9F0
330
B9F1
330
B9F2
330
B9F3
330
B9F4
330
B9F5
330
B9F6
330
B9F7
330
B9F8
330
B9F9
330
B9FA
330
B9FB
330
B9FC
330
B9FD
330
B9FE
330
B9FF
330
BA00
330
BA01
330
BA02
330
BA03
330
BA04
330
BA05
330
BA06
330
BA07
330
BA08
330
BA09
330
BA0A
330
BA0B
330
BA0C
330
BA0D
330
BA0E
330
BA0F
330
BA10
330
BA11
330
BA12
330
BA13
330
BA14
330
BA15
330
BA16
330
BA17
330
BA18
330
BA19
330
BA1A
330
BA1B
330
BA1C
330
BA1D
330
BA1E
330
BA1F
330
BA20
330
BA21
330
BA22
330
BA23
330
BA24
330
BA25
330
BA26
330
BA27
330
BA28
330
BA29
330
BA2A
330
BA2B
330
BA2C
330
BA2D
330
BA2E
330
BA2F
330
BA30
330
BA31
330
BA32
330
BA33
330
BA34
330
BA35
330
BA36
330
BA37
330
BA38
330
BA39
330
BA3A
330
BA3B
330
BA3C
330
BA3D
330
BA3E
330
BA3F
330
BA40
330
BA41
330
BA42
330
BA43
330
BA44
330
BA45
330
BA46
330
BA47
330
BA48
330
BA49
330
BA4A
330
BA4B
330
BA4C
330
BA4D
330
BA4E
330
BA4F
330
BA50
330
BA51
330
BA52
330
BA53
330
BA54
330
BA55
330
BA56
330
BA57
330
BA58
330
BA59
330
BA5A
330
BA5B
330
BA5C
330
BA5D
330
BA5E
330
BA5F
330
BA60
330
BA64
330
BA65
330
BA66
330
BA67
330
BA68
330
BA69
330
BA6A
330
BA6B
330
BA6C
330
BA6D
330
BA6E
330
BA6F
330
BA72
330
BA74
330
BA75
330
BA76
330
BA77
330
BA78
330
BA79
330
BA7A
330
BA7B
330
BA7C
330
BA7D
330
BA7E
330
BA7F
330
BA80
330
BA81
330
BA82
330
BA83
330
BA84
330
BA85
330
BA87
330
BA88
330
BA89
330
BA8A
330
BA8B
330
BA8D
330
BA8E
330
BA8F
330
BA90
330
BA91
330
BA92
330
BA93
330
BA94
330
BA95
330
BA96
330
BA97
330
BA98
330
BA99
330
BA9A
330
BA9B
330
BA9C
330
BA9D
330
BA9E
330
BA9F
330
BAA0
330
BAA1
330
BAA2
330
BAA3
330
BAA4
330
BAA5
330
BAA6
330
BAA7
330
BAA8
330
BAA9
330
BAAA
330
BAAB
330
BAAC
330
BAAD
330
BAAE
330
BAAF
330
BAB0
330
BAB1
330
BAB2
330
BAB3
330
BAB4
330
BAB5
330
BAB6
330
BAB7
330
BAB8
330
BAB9
330
BABA
330
BABB
330
BABC
330
BABD
330
BABE
330
BABF
330
BAC0
330
BAC1
330
BAC2
330
BAC3
330
BAC4
330
BAC5
330
BAC6
330
BAC7
330
BAC8
330
BAC9
330
BACA
330
BACB
330
BACC
330
BACD
330
BACE
330
BACF
330
BAD0
330
BAD1
330
BAD2
330
BAD3
330
BAD4
330
BAD5
330
BAD6
330
BAD7
330
BAD8
330
BAD9
330
BADA
330
BADB
330
BADC
330
BADD
330
BADE
330
BADF
330
BAE0
330
BAE1
330
BAE2
330
BAE3
330
BAE4
330
BAE5
330
BAE6
330
BAE7
330
BAE8
330
BAE9
330
BAEA
  0
IDBUFFER
  5
C4E0
330
0
100
AcDbIdBuffer
330
BDF5
330
BEB7
330
BF4C
330
BFE1
330
C07F
330
C11D
  0
IDBUFFER
  5
C4E1
330
0
100
AcDbIdBuffer
330
BA70
  0
IDBUFFER
  5
C4E2
330
0
100
AcDbIdBuffer
330
388D
  0
IDBUFFER
  5
C4E3
330
0
100
AcDbIdBuffer
  0
IDBUFFER
  5
C4E4
330
0
100
AcDbIdBuffer
330
B8EB
330
B8FD
330
B935
330
BA71
  0
ENDSEC
  0
EOF
