  0
SECTION
  2
HEADER
  9
$ACADVER
  1
AC1014
  9
$ACADMAINTVER
 70
     9
  9
$DWGCODEPAGE
  3
ANSI_932
  9
$INSBASE
 10
0.0
 20
0.0
 30
0.0
  9
$EXTMIN
 10
-222.2323376122657
 20
-79.58493606809319
 30
-0.00000001
  9
$EXTMAX
 10
18.25058175939227
 20
44.10000100999968
 30
0.00000001
  9
$LIMMIN
 10
-236.7984290168021
 20
-112.0705492206462
  9
$LIMMAX
 10
116.2431553488284
 20
84.87516819693974
  9
$ORTHOMODE
 70
     0
  9
$REGENMODE
 70
     1
  9
$FILLMODE
 70
     1
  9
$QTEXTMODE
 70
     0
  9
$MIRRTEXT
 70
     0
  9
$DRAGMODE
 70
     2
  9
$LTSCALE
 40
1.0
  9
$OSMODE
 70
    55
  9
$ATTMODE
 70
     1
  9
$TEXTSIZE
 40
2.5
  9
$TRACEWID
 40
1.0
  9
$TEXTSTYLE
  7
STANDARD
  9
$CLAYER
  8
AM_0
  9
$CELTYPE
  6
BYLAYER
  9
$CECOLOR
 62
   256
  9
$CELTSCALE
 40
1.0
  9
$DELOBJ
 70
     1
  9
$DISPSILH
 70
     0
  9
$DIMSCALE
 40
0.5
  9
$DIMASZ
 40
2.5
  9
$DIMEXO
 40
1.0
  9
$DIMDLI
 40
12.0
  9
$DIMRND
 40
0.0
  9
$DIMDLE
 40
0.0
  9
$DIMEXE
 40
1.0
  9
$DIMTP
 40
0.1
  9
$DIMTM
 40
0.1
  9
$DIMTXT
 40
3.2
  9
$DIMCEN
 40
0.0
  9
$DIMTSZ
 40
0.0
  9
$DIMTOL
 70
     0
  9
$DIMLIM
 70
     0
  9
$DIMTIH
 70
     0
  9
$DIMTOH
 70
     0
  9
$DIMSE1
 70
     0
  9
$DIMSE2
 70
     0
  9
$DIMTAD
 70
     3
  9
$DIMZIN
 70
     8
  9
$DIMBLK
  1
OPEN30
  9
$DIMASO
 70
     1
  9
$DIMSHO
 70
     1
  9
$DIMPOST
  1

  9
$DIMAPOST
  1
"
  9
$DIMALT
 70
     0
  9
$DIMALTD
 70
     2
  9
$DIMALTF
 40
0.0393701
  9
$DIMLFAC
 40
1.0
  9
$DIMTOFL
 70
     1
  9
$DIMTVP
 40
0.0
  9
$DIMTIX
 70
     0
  9
$DIMSOXD
 70
     0
  9
$DIMSAH
 70
     0
  9
$DIMBLK1
  1

  9
$DIMBLK2
  1

  9
$DIMSTYLE
  2
AM_JIS
  9
$DIMCLRD
 70
   256
  9
$DIMCLRE
 70
   256
  9
$DIMCLRT
 70
     2
  9
$DIMTFAC
 40
0.71
  9
$DIMGAP
 40
1.5
  9
$DIMJUST
 70
     0
  9
$DIMSD1
 70
     0
  9
$DIMSD2
 70
     0
  9
$DIMTOLJ
 70
     0
  9
$DIMTZIN
 70
     0
  9
$DIMALTZ
 70
     0
  9
$DIMALTTZ
 70
     0
  9
$DIMFIT
 70
     3
  9
$DIMUPT
 70
     0
  9
$DIMUNIT
 70
     2
  9
$DIMDEC
 70
     3
  9
$DIMTDEC
 70
     3
  9
$DIMALTU
 70
     2
  9
$DIMALTTD
 70
     2
  9
$DIMTXSTY
  7
ASAMI
  9
$DIMAUNIT
 70
     0
  9
$LUNITS
 70
     2
  9
$LUPREC
 70
     2
  9
$SKETCHINC
 40
1.0
  9
$FILLETRAD
 40
0.4
  9
$AUNITS
 70
     0
  9
$AUPREC
 70
     0
  9
$MENU
  1
.
  9
$ELEVATION
 40
0.0
  9
$PELEVATION
 40
0.0
  9
$THICKNESS
 40
0.0
  9
$LIMCHECK
 70
     1
  9
$BLIPMODE
 70
     0
  9
$CHAMFERA
 40
1.0
  9
$CHAMFERB
 40
1.0
  9
$CHAMFERC
 40
20.0
  9
$CHAMFERD
 40
0.0
  9
$SKPOLY
 70
     0
  9
$TDCREATE
 40
2452802.716478761
  9
$TDUPDATE
 40
2453152.412275046
  9
$TDINDWG
 40
0.9457482755
  9
$TDUSRTIMER
 40
0.9457482755
  9
$USRTIMER
 70
     1
  9
$ANGBASE
 50
0.0
  9
$ANGDIR
 70
     0
  9
$PDMODE
 70
     0
  9
$PDSIZE
 40
0.0
  9
$PLINEWID
 40
0.0
  9
$COORDS
 70
     1
  9
$SPLFRAME
 70
     0
  9
$SPLINETYPE
 70
     6
  9
$SPLINESEGS
 70
     8
  9
$ATTDIA
 70
     1
  9
$ATTREQ
 70
     1
  9
$HANDLING
 70
 12289
  9
$HANDSEED
  5
D1FF
  9
$SURFTAB1
 70
     6
  9
$SURFTAB2
 70
     6
  9
$SURFTYPE
 70
     6
  9
$SURFU
 70
     6
  9
$SURFV
 70
     6
  9
$UCSNAME
  2

  9
$UCSORG
 10
-0.0000000000002682
 20
0.000000000000161
 30
0.0
  9
$UCSXDIR
 10
1.0
 20
0.000000000000002
 30
0.0
  9
$UCSYDIR
 10
-0.000000000000002
 20
1.0
 30
0.0
  9
$PUCSNAME
  2

  9
$PUCSORG
 10
0.0
 20
0.0
 30
0.0
  9
$PUCSXDIR
 10
1.0
 20
0.0
 30
0.0
  9
$PUCSYDIR
 10
0.0
 20
1.0
 30
0.0
  9
$USERI1
 70
     0
  9
$USERI2
 70
     0
  9
$USERI3
 70
     0
  9
$USERI4
 70
     0
  9
$USERI5
 70
     0
  9
$USERR1
 40
0.0
  9
$USERR2
 40
0.0
  9
$USERR3
 40
0.0
  9
$USERR4
 40
0.0
  9
$USERR5
 40
0.0
  9
$WORLDVIEW
 70
     1
  9
$SHADEDGE
 70
     3
  9
$SHADEDIF
 70
    70
  9
$TILEMODE
 70
     1
  9
$MAXACTVP
 70
    64
  9
$PINSBASE
 10
0.0
 20
0.0
 30
0.0
  9
$PLIMCHECK
 70
     0
  9
$PEXTMIN
 10
1.000000000000000E+20
 20
1.000000000000000E+20
 30
1.000000000000000E+20
  9
$PEXTMAX
 10
-1.000000000000000E+20
 20
-1.000000000000000E+20
 30
-1.000000000000000E+20
  9
$PLIMMIN
 10
0.0
 20
0.0
  9
$PLIMMAX
 10
841.0
 20
594.0
  9
$UNITMODE
 70
     0
  9
$VISRETAIN
 70
     1
  9
$PLINEGEN
 70
     0
  9
$PSLTSCALE
 70
     0
  9
$TREEDEPTH
 70
  3020
  9
$PICKSTYLE
 70
     0
  9
$CMLSTYLE
  2
STANDARD
  9
$CMLJUST
 70
     0
  9
$CMLSCALE
 40
20.0
  9
$PROXYGRAPHICS
 70
     1
  9
$MEASUREMENT
 70
     1
  0
ENDSEC
  0
SECTION
  2
CLASSES
  0
CLASS
  1
ACDBDICTIONARYWDFLT
  2
AcDbDictionaryWithDefault
  3
AutoCAD 2000
 90
        0
280
     0
281
     0
  0
CLASS
  1
ACDBPLACEHOLDER
  2
AcDbPlaceHolder
  3
AutoCAD 2000
 90
        0
280
     0
281
     0
  0
CLASS
  1
LAYOUT
  2
AcDbLayout
  3
AutoCAD 2000
 90
        0
280
     0
281
     0
  0
CLASS
  1
AMGSETTINGSOBJ
  2
AmgSettingsObj
  3
"AcadM|Product Description: AutoCAD Mechanical 2000|Company: Autodesk"
 90
        0
280
     0
281
     0
  0
CLASS
  1
ACME_DOCUMENT
  2
AcMeDbDoc
  3
AcMeServices
 90
        0
280
     0
281
     0
  0
CLASS
  1
ACMESCOPE
  2
AcMeScope
  3
AcMeServices
 90
        0
280
     0
281
     0
  0
CLASS
  1
ACMECOMMANDHISTORY
  2
AcMeCommandHistory
  3
AcMeServices
 90
        0
280
     0
281
     0
  0
CLASS
  1
DICTIONARYVAR
  2
AcDbDictionaryVar
  3
AutoCAD 2000
 90
        0
280
     0
281
     0
  0
CLASS
  1
ACIMSYSVARMAN
  2
AcImSysVarManager
  3
AcMeServices
 90
        0
280
     0
281
     0
  0
CLASS
  1
ACIMREALSYSVAR
  2
AcImRealSysVar
  3
AcMeServices
 90
        0
280
     0
281
     0
  0
CLASS
  1
ACIMINTSYSVAR
  2
AcImIntSysVar
  3
AcMeServices
 90
        0
280
     0
281
     0
  0
CLASS
  1
ACMEDRAWINGMAN
  2
AcMeDrawingMan
  3
AcMeServices
 90
        0
280
     0
281
     0
  0
CLASS
  1
ACMEVIEW
  2
AcMeView
  3
AcMeServices
 90
        0
280
     0
281
     0
  0
CLASS
  1
ACDBENTITYCACHE
  2
AcMeEntityCache
  3
AcMeServices
 90
        0
280
     0
281
     0
  0
CLASS
  1
GSMANAGER
  2
AcMeGSManager
  3
AcMeServices
 90
        0
280
     0
281
     0
  0
CLASS
  1
AmdtInternalReactor
  2
AmdtInternalReactor
  3
AcMeServices
 90
        0
280
     0
281
     0
  0
CLASS
  1
ACMESTATEMGR
  2
AcMeStateMgr
  3
AcMeServices
 90
        0
280
     0
281
     0
  0
CLASS
  1
ACME_DATABASE
  2
AcMeDbDatabase
  3
AcMeServices
 90
        0
280
     0
281
     0
  0
CLASS
  1
ACRFINSADJUSTERMGR
  2
AcRfInsAdjusterMgr
  3
AcMeServices
 90
        0
280
     0
281
     0
  0
CLASS
  1
ACMDATADICTIONARY
  2
AcmDataDictionary
  3
"AcmSymBB|Product Description: AutoCAD Mechanical 2000|Company: Autodesk"
 90
        0
280
     0
281
     0
  0
CLASS
  1
ACMDATAENTRYBLOCK
  2
AcmDataEntryBlock
  3
"AcmSymBB|Product Description: AutoCAD Mechanical 2000|Company: Autodesk"
 90
        0
280
     0
281
     0
  0
CLASS
  1
AMGOBJPROPCFG
  2
AmgObjPropCfg
  3
"AmgLay|Product Description: AutoCAD Mechanical 2000|Company: Autodesk"
 90
        1
280
     0
281
     0
  0
CLASS
  1
ACAMGFILTERDAT
  2
AcAmgFilterDat
  3
"AcadM|Product Description: AutoCAD Mechanical 2000|Company: Autodesk"
 90
        0
280
     0
281
     0
  0
CLASS
  1
LAYER_INDEX
  2
AcDbLayerIndex
  3
AutoCAD 2000
 90
        0
280
     0
281
     0
  0
CLASS
  1
IDBUFFER
  2
AcDbIdBuffer
  3
AutoCAD 2000
 90
        0
280
     0
281
     0
  0
CLASS
  1
ACIMSTRSYSVAR
  2
AcImStrSysVar
  3
AcMeServices
 90
        0
280
     0
281
     0
  0
CLASS
  1
ACMSTANDARDJIS
  2
AcmStandardJIS
  3
"AcmSymBB|Product Description: AutoCAD Mechanical 2000|Company: Autodesk"
 90
        0
280
     0
281
     0
  0
CLASS
  1
ACMSURFSTANDARDJIS
  2
AcmSurfTextStdJIS
  3
"AcmSymBB|Product Description: AutoCAD Mechanical 2000|Company: Autodesk"
 90
        0
280
     0
281
     0
  0
CLASS
  1
ACMFCFSTANDARDJIS
  2
AcmFCFStdJIS
  3
"AcmSymBB|Product Description: AutoCAD Mechanical 2000|Company: Autodesk"
 90
        0
280
     0
281
     0
  0
CLASS
  1
ACMWELDSTANDARDJIS
  2
AcmWeldingStdJIS
  3
"AcmSymBB|Product Description: AutoCAD Mechanical 2000|Company: Autodesk"
 90
        0
280
     0
281
     0
  0
CLASS
  1
ACMIDSTANDARDJIS
  2
AcmIdStdJIS
  3
"AcmSymBB|Product Description: AutoCAD Mechanical 2000|Company: Autodesk"
 90
        0
280
     0
281
     0
  0
CLASS
  1
ACMDATUMSTANDARDJIS
  2
AcmDatumStdJIS
  3
"AcmSymBB|Product Description: AutoCAD Mechanical 2000|Company: Autodesk"
 90
        0
280
     0
281
     0
  0
CLASS
  1
ACMBOMSTANDARDJIS
  2
AcmBOMStdJIS
  3
"AcmSymBB|Product Description: AutoCAD Mechanical 2000|Company: Autodesk"
 90
        0
280
     0
281
     0
  0
CLASS
  1
ACMSTANDARDANSI
  2
AcmStandardANSI
  3
"AcmSymBB|Product Description: AutoCAD Mechanical 2000|Company: Autodesk"
 90
        0
280
     0
281
     0
  0
CLASS
  1
ACMSURFSTANDARDANSI
  2
AcmSurfTextStdANSI
  3
"AcmSymBB|Product Description: AutoCAD Mechanical 2000|Company: Autodesk"
 90
        0
280
     0
281
     0
  0
CLASS
  1
ACMFCFSTANDARDANSI
  2
AcmFCFStdANSI
  3
"AcmSymBB|Product Description: AutoCAD Mechanical 2000|Company: Autodesk"
 90
        0
280
     0
281
     0
  0
CLASS
  1
ACMWELDSTANDARDANSI
  2
AcmWeldingStdANSI
  3
"AcmSymBB|Product Description: AutoCAD Mechanical 2000|Company: Autodesk"
 90
        0
280
     0
281
     0
  0
CLASS
  1
ACMIDSTANDARDANSI
  2
AcmIdStdANSI
  3
"AcmSymBB|Product Description: AutoCAD Mechanical 2000|Company: Autodesk"
 90
        0
280
     0
281
     0
  0
CLASS
  1
ACMDATUMSTANDARDANSI
  2
AcmDatumStdANSI
  3
"AcmSymBB|Product Description: AutoCAD Mechanical 2000|Company: Autodesk"
 90
        0
280
     0
281
     0
  0
CLASS
  1
ACMBOMSTANDARDANSI
  2
AcmBOMStdANSI
  3
"AcmSymBB|Product Description: AutoCAD Mechanical 2000|Company: Autodesk"
 90
        0
280
     0
281
     0
  0
CLASS
  1
ACMSTANDARDBSI
  2
AcmStandardBSI
  3
"AcmSymBB|Product Description: AutoCAD Mechanical 2000|Company: Autodesk"
 90
        0
280
     0
281
     0
  0
CLASS
  1
ACMSURFSTANDARDBSI
  2
AcmSurfTextStdBSI
  3
"AcmSymBB|Product Description: AutoCAD Mechanical 2000|Company: Autodesk"
 90
        0
280
     0
281
     0
  0
CLASS
  1
ACMFCFSTANDARDBSI
  2
AcmFCFStdBSI
  3
"AcmSymBB|Product Description: AutoCAD Mechanical 2000|Company: Autodesk"
 90
        0
280
     0
281
     0
  0
CLASS
  1
ACMWELDSTANDARDBSI
  2
AcmWeldingStdBSI
  3
"AcmSymBB|Product Description: AutoCAD Mechanical 2000|Company: Autodesk"
 90
        0
280
     0
281
     0
  0
CLASS
  1
ACMIDSTANDARDBSI
  2
AcmIdStdBSI
  3
"AcmSymBB|Product Description: AutoCAD Mechanical 2000|Company: Autodesk"
 90
        0
280
     0
281
     0
  0
CLASS
  1
ACMDATUMSTANDARDBSI
  2
AcmDatumStdBSI
  3
"AcmSymBB|Product Description: AutoCAD Mechanical 2000|Company: Autodesk"
 90
        0
280
     0
281
     0
  0
CLASS
  1
ACMBOMSTANDARDBSI
  2
AcmBOMStdBSI
  3
"AcmSymBB|Product Description: AutoCAD Mechanical 2000|Company: Autodesk"
 90
        0
280
     0
281
     0
  0
CLASS
  1
STDPART2D
  2
AmgStdPart
  3
"AmgStdPart|Product Description: AutoCAD Mechanical 2000|Company: Autodesk"
 90
     1023
280
     0
281
     1
  0
CLASS
  1
PLOTSETTINGS
  2
AcDbPlotSettings
  3
AutoCAD 2000
 90
        0
280
     0
281
     0
  0
CLASS
  1
AMDTNOTE
  2
AmdtNote
  3
"AcmSymBB|Product Description: AutoCAD Mechanical 2000|Company: Autodesk"
 90
     1023
280
     0
281
     1
  0
CLASS
  1
LONG_TRANSACTION
  2
AcDbLongTransaction
  3
AutoCAD 2000
 90
        0
280
     0
281
     0
  0
CLASS
  1
LWPOLYLINE
  2
AcDbPolyline
  3
AutoCAD 2000
 90
        0
280
     0
281
     1
  0
CLASS
  1
HATCH
  2
AcDbHatch
  3
AutoCAD 2000
 90
        0
280
     0
281
     1
  0
CLASS
  1
XRECORD
  2
AcDbXrecord
  3
AutoCAD 2000
 90
        0
280
     0
281
     0
  0
ENDSEC
  0
SECTION
  2
TABLES
  0
TABLE
  2
VPORT
  5
8
330
0
100
AcDbSymbolTable
 70
     3
  0
VPORT
  5
D19E
330
8
100
AcDbSymbolTableRecord
100
AcDbViewportTableRecord
  2
*ACTIVE
 70
     0
 10
0.0
 20
0.0
 11
1.0
 21
1.0
 12
-104.7764286428598
 22
-13.55596561947582
 13
0.0
 23
0.0
 14
2.5
 24
2.5
 15
10.0
 25
10.0
 16
0.0
 26
0.0
 36
1.0
 17
0.0
 27
0.0
 37
0.0
 40
181.8083942087237
 41
1.56570841889117
 42
50.0
 43
0.0
 44
0.0
 50
0.0
 51
0.0
 71
     0
 72
   100
 73
     1
 74
     3
 75
     0
 76
     0
 77
     0
 78
     0
  0
ENDTAB
  0
TABLE
  2
LTYPE
  5
5
330
0
100
AcDbSymbolTable
 70
    12
  0
LTYPE
  5
14
330
5
100
AcDbSymbolTableRecord
100
AcDbLinetypeTableRecord
  2
BYBLOCK
 70
     0
  3

 72
    65
 73
     0
 40
0.0
  0
LTYPE
  5
15
330
5
100
AcDbSymbolTableRecord
100
AcDbLinetypeTableRecord
  2
BYLAYER
 70
     0
  3

 72
    65
 73
     0
 40
0.0
  0
LTYPE
  5
16
330
5
100
AcDbSymbolTableRecord
100
AcDbLinetypeTableRecord
  2
CONTINUOUS
 70
     0
  3
Solid line
 72
    65
 73
     0
 40
0.0
  0
LTYPE
  5
4B
330
5
100
AcDbSymbolTableRecord
100
AcDbLinetypeTableRecord
  2
AM_ISO02W050
 70
     0
  3
__ __ __ __ __ __ __ __ __ __ __ __ __ __ __
 72
    65
 73
     2
 40
7.5
 49
6.0
 74
     0
 49
-1.5
 74
     0
  0
LTYPE
  5
4C
330
5
100
AcDbSymbolTableRecord
100
AcDbLinetypeTableRecord
  2
AM_ISO08W050
 70
     0
  3
____ . ____ . ____ . ____ . ____ . ____ . ____
 72
    65
 73
     4
 40
18.0
 49
12.0
 74
     0
 49
-1.5
 74
     0
 49
3.0
 74
     0
 49
-1.5
 74
     0
  0
LTYPE
  5
4D
330
5
100
AcDbSymbolTableRecord
100
AcDbLinetypeTableRecord
  2
AM_ISO09W050
 70
     0
  3
_____ . . _____ . . _____ . . ____ .. ____
 72
    65
 73
     6
 40
22.5
 49
12.0
 74
     0
 49
-1.5
 74
     0
 49
3.0
 74
     0
 49
-1.5
 74
     0
 49
3.0
 74
     0
 49
-1.5
 74
     0
  0
LTYPE
  5
4E
330
5
100
AcDbSymbolTableRecord
100
AcDbLinetypeTableRecord
  2
AMCONSTR
 70
     0
  3
_______________________
 72
    65
 73
     2
 40
9999.0
 49
9999.0
 74
     0
 49
0.0
 74
     0
  0
LTYPE
  5
4F
330
5
100
AcDbSymbolTableRecord
100
AcDbLinetypeTableRecord
  2
AM_ISO02W050X2
 70
     0
  3
 _ _ _ _ _ _ _ _ _ _ _ _
 72
    65
 73
     2
 40
3.75
 49
3.0
 74
     0
 49
-0.75
 74
     0
  0
LTYPE
  5
50
330
5
100
AcDbSymbolTableRecord
100
AcDbLinetypeTableRecord
  2
AM_ISO08W050X2
 70
     0
  3
__ . __ . __ . __ . __ . __
 72
    65
 73
     4
 40
9.0
 49
6.0
 74
     0
 49
-0.75
 74
     0
 49
1.5
 74
     0
 49
-0.75
 74
     0
  0
LTYPE
  5
53
330
5
100
AcDbSymbolTableRecord
100
AcDbLinetypeTableRecord
  2
AMZIGZAG
 70
     0
  3
/\/-/\/-/\/-/\/-/\/-/\/
 72
    65
 73
     2
 40
11.00009999999999
 49
0.0001
 74
     4
 75
   135
340
52
 46
0.04
 50
0.0
 44
0.0
 45
0.0
 49
-11.0
 74
     0
  0
LTYPE
  5
166
330
5
100
AcDbSymbolTableRecord
100
AcDbLinetypeTableRecord
  2
ACJISTGL
 70
     0
  3
_ _ _ _ _
 72
    65
 73
     2
 40
3.0
 49
2.0
 74
     0
 49
-1.0
 74
     0
  0
LTYPE
  5
26A
330
5
100
AcDbSymbolTableRecord
100
AcDbLinetypeTableRecord
  2
ACJISTGB
 70
     0
  3
__ . . __ . .
 72
    65
 73
     6
 40
9.0
 49
4.0
 74
     0
 49
-1.0
 74
     0
 49
1.0
 74
     0
 49
-1.0
 74
     0
 49
1.0
 74
     0
 49
-1.0
 74
     0
  0
LTYPE
  5
A88A
330
5
100
AcDbSymbolTableRecord
100
AcDbLinetypeTableRecord
  2
ACANSTGBM
 70
     0
  3
__ . . __ . .
 72
    65
 73
     6
 40
9.0
 49
4.0
 74
     0
 49
-1.0
 74
     0
 49
1.0
 74
     0
 49
-1.0
 74
     0
 49
1.0
 74
     0
 49
-1.0
 74
     0
  0
LTYPE
  5
A88B
330
5
100
AcDbSymbolTableRecord
100
AcDbLinetypeTableRecord
  2
ACANSTGLM
 70
     0
  3
_ _ _ _ _
 72
    65
 73
     2
 40
3.0
 49
2.0
 74
     0
 49
-1.0
 74
     0
  0
ENDTAB
  0
TABLE
  2
LAYER
  5
2
330
0
100
AcDbSymbolTable
 70
     8
  0
LAYER
  5
10
330
2
100
AcDbSymbolTableRecord
100
AcDbLayerTableRecord
  2
0
 70
     0
 62
     7
  6
CONTINUOUS
  0
LAYER
  5
3F9
330
2
100
AcDbSymbolTableRecord
100
AcDbLayerTableRecord
  2
AM_0
 70
     0
 62
     7
  6
CONTINUOUS
  0
LAYER
  5
BA4
330
2
100
AcDbSymbolTableRecord
100
AcDbLayerTableRecord
  2
AM_5
 70
     0
 62
     3
  6
CONTINUOUS
  0
LAYER
  5
BA6
330
2
100
AcDbSymbolTableRecord
100
AcDbLayerTableRecord
  2
AM_7
 70
     0
 62
     4
  6
AM_ISO08W050
  0
LAYER
  5
E64
330
2
100
AcDbSymbolTableRecord
100
AcDbLayerTableRecord
  2
AM_6
 70
     0
 62
     2
  6
CONTINUOUS
  0
LAYER
  5
F4D
330
2
100
AcDbSymbolTableRecord
100
AcDbLayerTableRecord
  2
DEFPOINTS
 70
     0
 62
     7
  6
CONTINUOUS
  0
LAYER
  5
4E80
330
2
100
AcDbSymbolTableRecord
100
AcDbLayerTableRecord
  2
AM_11
 70
     0
 62
     3
  6
AM_ISO09W050
  0
LAYER
  5
78BF
330
2
100
AcDbSymbolTableRecord
100
AcDbLayerTableRecord
  2
AM_4
 70
     0
 62
     3
  6
CONTINUOUS
  0
ENDTAB
  0
TABLE
  2
STYLE
  5
3
330
0
100
AcDbSymbolTable
 70
     7
  0
STYLE
  5
11
330
3
100
AcDbSymbolTableRecord
100
AcDbTextStyleTableRecord
  2
STANDARD
 70
     0
 40
0.0
 41
1.0
 50
0.0
 71
     0
 42
2.5
  3
simplex.shx
  4
EXTFONT.SHX
  0
STYLE
  5
52
330
3
100
AcDbSymbolTableRecord
100
AcDbTextStyleTableRecord
  2

 70
     1
 40
0.0
 41
1.0
 50
0.0
 71
     0
 42
2.5
  3
ltypeshp.shx
  4

  0
STYLE
  5
6B
330
3
100
AcDbSymbolTableRecord
100
AcDbTextStyleTableRecord
  2
ASAMI
 70
     0
 40
0.0
 41
1.0
 50
0.0
 71
     0
 42
2.5
  3
simplex.shx
  4
EXTFONT.SHX
  0
STYLE
  5
262
330
3
100
AcDbSymbolTableRecord
100
AcDbTextStyleTableRecord
  2
ACJISTS
 70
     0
 40
1.0
 41
1.0
 50
0.0
 71
     0
 42
2.5
  3
simplex.shx
  4
bigfont.shx
  0
STYLE
  5
269
330
3
100
AcDbSymbolTableRecord
100
AcDbTextStyleTableRecord
  2
ACJISGDT
 70
     0
 40
0.0
 41
1.0
 50
0.0
 71
     0
 42
2.5
  3
amgdtans.shx
  4

  0
STYLE
  5
A88D
330
3
100
AcDbSymbolTableRecord
100
AcDbTextStyleTableRecord
  2
ACANSTS
 70
     0
 40
1.0
 41
1.0
 50
0.0
 71
     0
 42
2.5
  3
romans.shx
  4
extfont.shx
  0
STYLE
  5
A88E
330
3
100
AcDbSymbolTableRecord
100
AcDbTextStyleTableRecord
  2
ACANSGDT
 70
     0
 40
0.0
 41
1.0
 50
0.0
 71
     0
 42
2.5
  3
amgdtans.shx
  4

  0
ENDTAB
  0
TABLE
  2
VIEW
  5
6
330
0
100
AcDbSymbolTable
 70
     0
  0
ENDTAB
  0
TABLE
  2
UCS
  5
7
330
0
100
AcDbSymbolTable
 70
     0
  0
ENDTAB
  0
TABLE
  2
APPID
  5
9
330
0
100
AcDbSymbolTable
 70
    24
  0
APPID
  5
12
330
9
100
AcDbSymbolTableRecord
100
AcDbRegAppTableRecord
  2
ACAD
 70
     0
  0
APPID
  5
30
330
9
100
AcDbSymbolTableRecord
100
AcDbRegAppTableRecord
  2
MCAD_NO_VIS
 70
     0
  0
APPID
  5
31
330
9
100
AcDbSymbolTableRecord
100
AcDbRegAppTableRecord
  2
ACAD_TEMP_GRAPHIC
 70
     0
  0
APPID
  5
2C2
330
9
100
AcDbSymbolTableRecord
100
AcDbRegAppTableRecord
  2
GENIUS_GENDTOL_13
 70
     0
  0
APPID
  5
339
330
9
100
AcDbSymbolTableRecord
100
AcDbRegAppTableRecord
  2
GENIUS_GENODEF_13
 70
     0
  0
APPID
  5
33A
330
9
100
AcDbSymbolTableRecord
100
AcDbRegAppTableRecord
  2
GENIUS_GENOBJ-N-RSBK_13
 70
     0
  0
APPID
  5
33B
330
9
100
AcDbSymbolTableRecord
100
AcDbRegAppTableRecord
  2
GENIUS_GENOBJ-N-LIB_13
 70
     0
  0
APPID
  5
33C
330
9
100
AcDbSymbolTableRecord
100
AcDbRegAppTableRecord
  2
GENIUS_GENSCALE_13
 70
     0
  0
APPID
  5
378
330
9
100
AcDbSymbolTableRecord
100
AcDbRegAppTableRecord
  2
GENIUS_GENDIMSH_14
 70
     0
  0
APPID
  5
BB0
330
9
100
AcDbSymbolTableRecord
100
AcDbRegAppTableRecord
  2
GENIUS_GENOBJ-N-CEN_13
 70
     0
  0
APPID
  5
BB1
330
9
100
AcDbSymbolTableRecord
100
AcDbRegAppTableRecord
  2
GENIUS_GENFIL_13
 70
     0
  0
APPID
  5
BB2
330
9
100
AcDbSymbolTableRecord
100
AcDbRegAppTableRecord
  2
GENIUS_GENOBJ-N-CHA_13
 70
     0
  0
APPID
  5
1FAF
330
9
100
AcDbSymbolTableRecord
100
AcDbRegAppTableRecord
  2
GENIUS_GENOBJ-N-CRS_13
 70
     0
  0
APPID
  5
1FB0
330
9
100
AcDbSymbolTableRecord
100
AcDbRegAppTableRecord
  2
GENIUS_GENOENT_13
 70
     0
  0
APPID
  5
1FB1
330
9
100
AcDbSymbolTableRecord
100
AcDbRegAppTableRecord
  2
GENIUS_GENOREF_13
 70
     0
  0
APPID
  5
1FB2
330
9
100
AcDbSymbolTableRecord
100
AcDbRegAppTableRecord
  2
GENIUS_GENOLIS_13
 70
     0
  0
APPID
  5
1FB7
330
9
100
AcDbSymbolTableRecord
100
AcDbRegAppTableRecord
  2
GENIUS_GENOBJ-N-FIL_13
 70
     0
  0
APPID
  5
22A8
330
9
100
AcDbSymbolTableRecord
100
AcDbRegAppTableRecord
  2
GEVID1056506048
 70
     0
  0
APPID
  5
22A9
330
9
100
AcDbSymbolTableRecord
100
AcDbRegAppTableRecord
  2
GEVDC
 70
     0
  0
APPID
  5
22AC
330
9
100
AcDbSymbolTableRecord
100
AcDbRegAppTableRecord
  2
GENIUS_GENBH_13
 70
     0
  0
APPID
  5
22B8
330
9
100
AcDbSymbolTableRecord
100
AcDbRegAppTableRecord
  2
GENIUS_GENOBJ-NBEHI-BHF_13
 70
     0
  0
APPID
  5
22BA
330
9
100
AcDbSymbolTableRecord
100
AcDbRegAppTableRecord
  2
GENIUS_GENOBJ-NBEHI-BHB_13
 70
     0
  0
APPID
  5
35C9
330
9
100
AcDbSymbolTableRecord
100
AcDbRegAppTableRecord
  2
GENIUS_GENREC_14
 70
     0
  0
APPID
  5
35CA
330
9
100
AcDbSymbolTableRecord
100
AcDbRegAppTableRecord
  2
GENIUS_GENOBJ-N-REC_13
 70
     0
  0
ENDTAB
  0
TABLE
  2
DIMSTYLE
  5
A
330
0
100
AcDbSymbolTable
 70
     9
  0
DIMSTYLE
105
58
330
A
100
AcDbSymbolTableRecord
100
AcDbDimStyleTableRecord
  2
AM_JIS
 70
     0
  3

  4
"
  5
OPEN30
  6

  7

 40
1.0
 41
2.5
 42
1.0
 43
12.0
 44
1.0
 45
0.0
 46
0.0
 47
0.1
 48
0.1
140
3.2
141
0.0
142
0.0
143
0.0393701
144
1.0
145
0.0
146
0.71
147
1.5
 71
     0
 72
     0
 73
     0
 74
     0
 75
     0
 76
     0
 77
     3
 78
     8
170
     0
171
     2
172
     1
173
     0
174
     0
175
     0
176
   256
177
   256
178
     2
270
     2
271
     3
272
     3
273
     2
274
     2
340
6B
275
     0
280
     0
281
     0
282
     0
283
     0
284
     0
285
     0
286
     0
287
     3
288
     0
  0
DIMSTYLE
105
5F
330
A
100
AcDbSymbolTableRecord
100
AcDbDimStyleTableRecord
  2
AM_JIS$3
 70
     0
  3

  4
"
  5
OPEN30
  6

  7

 40
1.0
 41
2.5
 42
1.0
 43
10.0
 44
1.0
 45
0.0
 46
0.0
 47
0.1
 48
0.1
140
3.2
141
0.0
142
0.0
143
0.0393701
144
1.0
145
0.0
146
0.71
147
1.5
 71
     0
 72
     0
 73
     0
 74
     1
 75
     0
 76
     0
 77
     3
 78
     8
170
     0
171
     2
172
     0
173
     0
174
     0
175
     0
176
   256
177
   256
178
     2
270
     2
271
     2
272
     3
273
     2
274
     2
340
6B
275
     0
280
     0
281
     0
282
     0
283
     0
284
     0
285
     0
286
     0
287
     0
288
     1
  0
DIMSTYLE
105
60
330
A
100
AcDbSymbolTableRecord
100
AcDbDimStyleTableRecord
  2
AM_JIS$4
 70
     0
  3

  4
"
  5
OPEN30
  6

  7

 40
1.0
 41
2.5
 42
1.0
 43
10.0
 44
1.0
 45
0.0
 46
0.0
 47
0.1
 48
0.1
140
3.2
141
0.0
142
0.0
143
0.0393701
144
1.0
145
0.0
146
0.71
147
1.5
 71
     0
 72
     0
 73
     0
 74
     1
 75
     0
 76
     0
 77
     3
 78
     8
170
     0
171
     2
172
     0
173
     0
174
     0
175
     0
176
   256
177
   256
178
     2
270
     2
271
     2
272
     3
273
     2
274
     2
340
6B
275
     0
280
     0
281
     0
282
     0
283
     0
284
     0
285
     0
286
     0
287
     0
288
     1
  0
DIMSTYLE
105
61
330
A
100
AcDbSymbolTableRecord
100
AcDbDimStyleTableRecord
  2
AM_JIS$6
 70
     0
  3

  4
"
  5
OPEN30
  6

  7

 40
1.0
 41
2.5
 42
1.0
 43
10.0
 44
1.0
 45
0.0
 46
0.0
 47
0.1
 48
0.1
140
3.2
141
0.0
142
0.0
143
0.0393701
144
1.0
145
0.0
146
0.71
147
1.5
 71
     0
 72
     0
 73
     0
 74
     0
 75
     0
 76
     0
 77
     0
 78
     8
170
     0
171
     2
172
     1
173
     0
174
     0
175
     0
176
   256
177
   256
178
     2
270
     2
271
     2
272
     2
273
     2
274
     2
340
6B
275
     0
280
     0
281
     0
282
     0
283
     0
284
     0
285
     0
286
     0
287
     3
288
     0
  0
DIMSTYLE
105
62
330
A
100
AcDbSymbolTableRecord
100
AcDbDimStyleTableRecord
  2
AM_JIS$7
 70
     0
  3

  4
"
  5
OPEN30
  6

  7

 40
1.0
 41
2.5
 42
1.0
 43
10.0
 44
1.0
 45
0.0
 46
0.0
 47
0.1
 48
0.1
140
3.2
141
0.0
142
0.0
143
0.0393701
144
1.0
145
0.0
146
0.71
147
1.5
 71
     0
 72
     0
 73
     0
 74
     0
 75
     0
 76
     0
 77
     3
 78
     8
170
     0
171
     2
172
     1
173
     0
174
     0
175
     0
176
   256
177
   256
178
     2
270
     2
271
     2
272
     3
273
     2
274
     2
340
6B
275
     0
280
     0
281
     0
282
     0
283
     0
284
     0
285
     0
286
     0
287
     3
288
     0
  0
DIMSTYLE
105
63
330
A
100
AcDbSymbolTableRecord
100
AcDbDimStyleTableRecord
  2
AM_JIS$SF
 70
     0
  3

  4
"
  5
OPEN30
  6

  7

 40
1.0
 41
2.5
 42
1.0
 43
10.0
 44
1.0
 45
0.0
 46
0.0
 47
0.1
 48
0.1
140
3.2
141
0.0
142
0.0
143
0.0393701
144
1.0
145
0.0
146
0.71
147
1.5
 71
     0
 72
     0
 73
     0
 74
     0
 75
     1
 76
     1
 77
     3
 78
     8
170
     0
171
     2
172
     1
173
     0
174
     0
175
     0
176
   256
177
   256
178
     2
270
     2
271
     2
272
     2
273
     2
274
     2
340
6B
275
     0
280
     0
281
     0
282
     0
283
     0
284
     0
285
     0
286
     0
287
     3
288
     0
  0
DIMSTYLE
105
68
330
A
100
AcDbSymbolTableRecord
100
AcDbDimStyleTableRecord
  2
AM_JIS$SH
 70
     0
  3

  4
"
  5

  6
GENAXEH
  7
OPEN30
 40
1.0
 41
2.5
 42
1.0
 43
10.0
 44
1.0
 45
0.0
 46
0.0
 47
0.1
 48
0.1
140
3.2
141
0.0
142
0.0
143
0.0393701
144
2.0
145
0.0
146
0.71
147
1.5
 71
     0
 72
     0
 73
     0
 74
     0
 75
     1
 76
     1
 77
     3
 78
     8
170
     0
171
     2
172
     1
173
     1
174
     0
175
     0
176
   256
177
   256
178
     2
270
     2
271
     2
272
     2
273
     2
274
     2
340
6B
275
     0
280
     0
281
     0
282
     0
283
     0
284
     0
285
     0
286
     0
287
     3
288
     0
  0
DIMSTYLE
105
B34
330
A
100
AcDbSymbolTableRecord
100
AcDbDimStyleTableRecord
  2
AM_JIS$2
 70
     0
  3

  4
"
  5
OPEN30
  6

  7

 40
1.0
 41
2.5
 42
1.0
 43
12.0
 44
1.0
 45
0.0
 46
0.0
 47
0.1
 48
0.1
140
3.2
141
0.0
142
0.0
143
0.0393701
144
1.0
145
0.0
146
0.71
147
1.5
 71
     0
 72
     0
 73
     0
 74
     0
 75
     0
 76
     0
 77
     3
 78
     8
170
     0
171
     2
172
     1
173
     0
174
     0
175
     0
176
   256
177
   256
178
     2
270
     2
271
     3
272
     3
273
     2
274
     2
340
6B
275
     0
280
     0
281
     0
282
     0
283
     0
284
     0
285
     0
286
     0
287
     3
288
     0
  0
DIMSTYLE
105
3B48
102
{ACAD_REACTORS
330
CB43
330
CBD8
330
CC64
330
CCF0
330
CDA0
330
CE3E
102
}
330
A
100
AcDbSymbolTableRecord
100
AcDbDimStyleTableRecord
  2
AM_JIS$0
 70
     0
  3

  4
"
  5
OPEN30
  6

  7

 40
1.0
 41
2.5
 42
0.0
 43
10.0
 44
1.0
 45
0.0
 46
0.0
 47
0.1
 48
0.1000000001
140
3.799999999999999
141
0.0
142
0.0
143
0.0393701
144
1.0
145
0.0
146
0.71
147
1.5
 71
     0
 72
     0
 73
     0
 74
     0
 75
     0
 76
     0
 77
     3
 78
     1
170
     0
171
     2
172
     1
173
     0
174
     0
175
     0
176
     3
177
     3
178
     2
270
     2
271
     2
272
     2
273
     2
274
     2
340
11
275
     1
280
     0
281
     0
282
     0
283
     0
284
     8
285
     0
286
     0
287
     0
288
     0
  0
ENDTAB
  0
TABLE
  2
BLOCK_RECORD
  5
1
330
0
100
AcDbSymbolTable
 70
    11
  0
BLOCK_RECORD
  5
1F
102
{ACAD_XDICTIONARY
360
74
102
}
330
1
100
AcDbSymbolTableRecord
100
AcDbBlockTableRecord
  2
*MODEL_SPACE
  0
BLOCK_RECORD
  5
101
102
{ACAD_XDICTIONARY
360
D1C7
102
}
330
1
100
AcDbSymbolTableRecord
100
AcDbBlockTableRecord
  2
*PAPER_SPACE
  0
BLOCK_RECORD
  5
59
330
1
100
AcDbSymbolTableRecord
100
AcDbBlockTableRecord
  2
_OPEN30
  0
BLOCK_RECORD
  5
64
330
1
100
AcDbSymbolTableRecord
100
AcDbBlockTableRecord
  2
GENAXEH
  0
BLOCK_RECORD
  5
CB44
330
1
100
AcDbSymbolTableRecord
100
AcDbBlockTableRecord
  2
*D5
  0
BLOCK_RECORD
  5
CBD9
330
1
100
AcDbSymbolTableRecord
100
AcDbBlockTableRecord
  2
*D6
  0
BLOCK_RECORD
  5
CC65
330
1
100
AcDbSymbolTableRecord
100
AcDbBlockTableRecord
  2
*D7
  0
BLOCK_RECORD
  5
CCF1
330
1
100
AcDbSymbolTableRecord
100
AcDbBlockTableRecord
  2
*D8
  0
BLOCK_RECORD
  5
CDA1
330
1
100
AcDbSymbolTableRecord
100
AcDbBlockTableRecord
  2
*D9
  0
BLOCK_RECORD
  5
CE3F
330
1
100
AcDbSymbolTableRecord
100
AcDbBlockTableRecord
  2
*D10
  0
ENDTAB
  0
ENDSEC
  0
SECTION
  2
BLOCKS
  0
BLOCK
  5
20
330
1F
100
AcDbEntity
  8
0
100
AcDbBlockBegin
  2
*MODEL_SPACE
 70
     0
 10
0.0
 20
0.0
 30
0.0
  3
*MODEL_SPACE
  1

  0
ENDBLK
  5
21
330
1F
100
AcDbEntity
  8
0
100
AcDbBlockEnd
  0
BLOCK
  5
103
330
101
100
AcDbEntity
 67
     1
  8
0
100
AcDbBlockBegin
  2
*PAPER_SPACE
 70
     0
 10
0.0
 20
0.0
 30
0.0
  3
*PAPER_SPACE
  1

  0
ENDBLK
  5
104
330
101
100
AcDbEntity
 67
     1
  8
0
100
AcDbBlockEnd
  0
BLOCK
  5
5D
330
59
100
AcDbEntity
  8
0
100
AcDbBlockBegin
  2
_OPEN30
 70
     0
 10
0.0
 20
0.0
 30
0.0
  3
_OPEN30
  1

  0
LINE
  5
5A
330
59
100
AcDbEntity
  8
0
 62
     0
100
AcDbLine
 10
-1.0
 20
0.26794919
 30
0.0
 11
0.0
 21
0.0
 31
0.0
  0
LINE
  5
5B
330
59
100
AcDbEntity
  8
0
 62
     0
100
AcDbLine
 10
0.0
 20
0.0
 30
0.0
 11
-1.0
 21
-0.26794919
 31
0.0
  0
LINE
  5
5C
330
59
100
AcDbEntity
  8
0
 62
     0
100
AcDbLine
 10
0.0
 20
0.0
 30
0.0
 11
-1.0
 21
0.0
 31
0.0
  0
ENDBLK
  5
5E
330
59
100
AcDbEntity
  8
0
100
AcDbBlockEnd
  0
BLOCK
  5
66
330
64
100
AcDbEntity
  8
0
100
AcDbBlockBegin
  2
GENAXEH
 70
     0
 10
0.0
 20
0.0
 30
0.0
  3
GENAXEH
  1

  0
LINE
  5
65
330
64
100
AcDbEntity
  8
0
100
AcDbLine
 10
-1.0
 20
0.0
 30
0.0
 11
1.0
 21
0.0
 31
0.0
  0
ENDBLK
  5
67
330
64
100
AcDbEntity
  8
0
100
AcDbBlockEnd
  0
BLOCK
  5
CB4E
330
CB44
100
AcDbEntity
  8
0
100
AcDbBlockBegin
  2
*D5
 70
     1
 10
0.0
 20
0.0
 30
0.0
  3
*D5
  1

  0
LINE
  5
D1C9
330
CB44
100
AcDbEntity
  8
AM_5
100
AcDbLine
 10
-0.0000000000002844
 20
1.00000000000017
 30
0.0
 11
-0.0000000000002916
 21
40.40000100999968
 31
0.0
  0
LINE
  5
D1CA
330
CB44
100
AcDbEntity
  8
AM_5
100
AcDbLine
 10
-65.00000000000041
 20
25.99999999999989
 30
0.0
 11
-65.00000000000042
 21
40.40000100999967
 31
0.0
  0
LINE
  5
D1CB
330
CB44
100
AcDbEntity
  8
AM_5
100
AcDbLine
 10
-2.500000000000291
 20
39.40000100999968
 30
0.0
 11
-62.50000000000042
 21
39.40000100999967
 31
0.0
  0
INSERT
  5
D1CC
330
CB44
100
AcDbEntity
  8
AM_5
100
AcDbBlockReference
  2
_OPEN30
 10
-0.0000000000002915
 20
39.40000100999968
 30
0.0
 41
2.5
 42
2.5
 43
2.5
  0
INSERT
  5
D1CD
330
CB44
100
AcDbEntity
  8
AM_5
100
AcDbBlockReference
  2
_OPEN30
 10
-65.00000000000042
 20
39.40000100999967
 30
0.0
 41
2.5
 42
2.5
 43
2.5
 50
180.0
  0
MTEXT
  5
D1CE
330
CB44
100
AcDbEntity
  8
AM_5
 62
     2
100
AcDbMText
 10
-32.50000000000035
 20
42.50000100999968
 30
0.0
 40
3.2
 41
0.0
 71
     5
 72
     1
  1
69
  7
ASAMI
  0
POINT
  5
D1CF
330
CB44
100
AcDbEntity
  8
DEFPOINTS
 62
     0
100
AcDbPoint
 10
-0.0000000000002842
 20
0.0000000000001705
 30
0.0
  0
POINT
  5
D1D0
330
CB44
100
AcDbEntity
  8
DEFPOINTS
 62
     0
100
AcDbPoint
 10
-65.00000000000037
 20
25.00000000000003
 30
0.0
  0
POINT
  5
D1D1
330
CB44
100
AcDbEntity
  8
DEFPOINTS
 62
     0
100
AcDbPoint
 10
-65.00000000000034
 20
39.40000100999979
 30
0.0
  0
ENDBLK
  5
CB4F
330
CB44
100
AcDbEntity
  8
0
100
AcDbBlockEnd
  0
BLOCK
  5
CBE3
330
CBD9
100
AcDbEntity
  8
0
100
AcDbBlockBegin
  2
*D6
 70
     1
 10
0.0
 20
0.0
 30
0.0
  3
*D6
  1

  0
LINE
  5
D1D2
330
CBD9
100
AcDbEntity
  8
AM_5
100
AcDbLine
 10
-0.0000000000002823
 20
-0.9999999999998863
 30
0.0
 11
-0.00000000000019
 21
-48.08493606809287
 31
0.0
  0
LINE
  5
D1D3
330
CBD9
100
AcDbEntity
  8
AM_5
100
AcDbLine
 10
-99.9999762225855
 20
-26.40000000000026
 30
0.0
 11
-99.99997622258547
 21
-48.08493606809307
 31
0.0
  0
LINE
  5
D1D4
330
CBD9
100
AcDbEntity
  8
AM_5
100
AcDbLine
 10
-2.500000000000191
 20
-47.08493606809287
 30
0.0
 11
-97.49997622258547
 21
-47.08493606809307
 31
0.0
  0
INSERT
  5
D1D5
330
CBD9
100
AcDbEntity
  8
AM_5
100
AcDbBlockReference
  2
_OPEN30
 10
-0.0000000000001919
 20
-47.08493606809287
 30
0.0
 41
2.5
 42
2.5
 43
2.5
 50
0.0000000000001018
  0
INSERT
  5
D1D6
330
CBD9
100
AcDbEntity
  8
AM_5
100
AcDbBlockReference
  2
_OPEN30
 10
-99.99997622258547
 20
-47.08493606809307
 30
0.0
 41
2.5
 42
2.5
 43
2.5
 50
180.0000000000001
  0
MTEXT
  5
D1D7
330
CBD9
100
AcDbEntity
  8
AM_5
 62
     2
100
AcDbMText
 10
-49.99998811129283
 20
-43.98493606809297
 30
0.0
 40
3.2
 41
0.0
 71
     5
 72
     1
  1
100
  7
ASAMI
  0
POINT
  5
D1D8
330
CBD9
100
AcDbEntity
  8
DEFPOINTS
 62
     0
100
AcDbPoint
 10
-0.0000000000002842
 20
0.0000000000001137
 30
0.0
  0
POINT
  5
D1D9
330
CBD9
100
AcDbEntity
  8
DEFPOINTS
 62
     0
100
AcDbPoint
 10
-99.99997622258556
 20
-25.40000000000006
 30
0.0
  0
POINT
  5
D1DA
330
CBD9
100
AcDbEntity
  8
DEFPOINTS
 62
     0
100
AcDbPoint
 10
-99.99997622258556
 20
-47.08493606809287
 30
0.0
  0
ENDBLK
  5
CBE4
330
CBD9
100
AcDbEntity
  8
0
100
AcDbBlockEnd
  0
BLOCK
  5
CC6F
330
CC65
100
AcDbEntity
  8
0
100
AcDbBlockBegin
  2
*D7
 70
     1
 10
0.0
 20
0.0
 30
0.0
  3
*D7
  1

  0
LINE
  5
D1DB
330
CC65
100
AcDbEntity
  8
AM_5
100
AcDbLine
 10
-0.0000000000002823
 20
-0.9999999999998863
 30
0.0
 11
-0.0000000000001704
 21
-58.08493606809287
 31
0.0
  0
LINE
  5
D1DC
330
CC65
100
AcDbEntity
  8
AM_5
100
AcDbLine
 10
-199.9999762225854
 20
-24.06149800000068
 30
0.0
 11
-199.9999762225854
 21
-58.08493606809328
 31
0.0
  0
LINE
  5
D1DD
330
CC65
100
AcDbEntity
  8
AM_5
100
AcDbLine
 10
-2.500000000000172
 20
-57.08493606809287
 30
0.0
 11
-197.4999762225854
 21
-57.08493606809327
 31
0.0
  0
INSERT
  5
D1DE
330
CC65
100
AcDbEntity
  8
AM_5
100
AcDbBlockReference
  2
_OPEN30
 10
-0.0000000000001723
 20
-57.08493606809287
 30
0.0
 41
2.5
 42
2.5
 43
2.5
 50
0.0000000000001018
  0
INSERT
  5
D1DF
330
CC65
100
AcDbEntity
  8
AM_5
100
AcDbBlockReference
  2
_OPEN30
 10
-199.9999762225854
 20
-57.08493606809327
 30
0.0
 41
2.5
 42
2.5
 43
2.5
 50
180.0000000000001
  0
MTEXT
  5
D1E0
330
CC65
100
AcDbEntity
  8
AM_5
 62
     2
100
AcDbMText
 10
-99.9999881112928
 20
-53.98493606809307
 30
0.0
 40
3.2
 41
0.0
 71
     5
 72
     1
  1
200
  7
ASAMI
  0
POINT
  5
D1E1
330
CC65
100
AcDbEntity
  8
DEFPOINTS
 62
     0
100
AcDbPoint
 10
-0.0000000000002842
 20
0.0000000000001137
 30
0.0
  0
POINT
  5
D1E2
330
CC65
100
AcDbEntity
  8
DEFPOINTS
 62
     0
100
AcDbPoint
 10
-199.9999762225855
 20
-23.06149800000028
 30
0.0
  0
POINT
  5
D1E3
330
CC65
100
AcDbEntity
  8
DEFPOINTS
 62
     0
100
AcDbPoint
 10
-199.9999762225855
 20
-57.08493606809287
 30
0.0
  0
ENDBLK
  5
CC70
330
CC65
100
AcDbEntity
  8
0
100
AcDbBlockEnd
  0
BLOCK
  5
CCFB
330
CCF1
100
AcDbEntity
  8
0
100
AcDbBlockBegin
  2
*D8
 70
     1
 10
0.0
 20
0.0
 30
0.0
  3
*D8
  1

  0
LINE
  5
D1E4
330
CCF1
100
AcDbEntity
  8
AM_5
100
AcDbLine
 10
-99.9999762225855
 20
-26.40000000000026
 30
0.0
 11
-99.99997622258547
 21
-48.08493606809307
 31
0.0
  0
LINE
  5
D1E5
330
CCF1
100
AcDbEntity
  8
AM_5
100
AcDbLine
 10
-199.9999762225854
 20
-24.06149800000068
 30
0.0
 11
-199.9999762225854
 21
-48.08493606809328
 31
0.0
  0
LINE
  5
D1E6
330
CCF1
100
AcDbEntity
  8
AM_5
100
AcDbLine
 10
-102.4999762225854
 20
-47.08493606809308
 30
0.0
 11
-197.4999762225854
 21
-47.08493606809327
 31
0.0
  0
INSERT
  5
D1E7
330
CCF1
100
AcDbEntity
  8
AM_5
100
AcDbBlockReference
  2
_OPEN30
 10
-99.99997622258547
 20
-47.08493606809307
 30
0.0
 41
2.5
 42
2.5
 43
2.5
 50
0.0000000000001018
  0
INSERT
  5
D1E8
330
CCF1
100
AcDbEntity
  8
AM_5
100
AcDbBlockReference
  2
_OPEN30
 10
-199.9999762225854
 20
-47.08493606809327
 30
0.0
 41
2.5
 42
2.5
 43
2.5
 50
180.0000000000001
  0
MTEXT
  5
D1E9
330
CCF1
100
AcDbEntity
  8
AM_5
 62
     2
100
AcDbMText
 10
-149.9999762225854
 20
-43.98493606809317
 30
0.0
 40
3.2
 41
0.0
 71
     5
 72
     1
  1
100
  7
ASAMI
  0
POINT
  5
D1EA
330
CCF1
100
AcDbEntity
  8
DEFPOINTS
 62
     0
100
AcDbPoint
 10
-99.99997622258556
 20
-25.40000000000006
 30
0.0
  0
POINT
  5
D1EB
330
CCF1
100
AcDbEntity
  8
DEFPOINTS
 62
     0
100
AcDbPoint
 10
-199.9999762225855
 20
-23.06149800000028
 30
0.0
  0
POINT
  5
D1EC
330
CCF1
100
AcDbEntity
  8
DEFPOINTS
 62
     0
100
AcDbPoint
 10
-199.9999762225855
 20
-47.08493606809287
 30
0.0
  0
ENDBLK
  5
CCFC
330
CCF1
100
AcDbEntity
  8
0
100
AcDbBlockEnd
  0
BLOCK
  5
CDAB
330
CDA1
100
AcDbEntity
  8
0
100
AcDbBlockBegin
  2
*D9
 70
     1
 10
0.0
 20
0.0
 30
0.0
  3
*D9
  1

  0
LINE
  5
D1ED
330
CDA1
100
AcDbEntity
  8
AM_5
100
AcDbLine
 10
-24.00000000000045
 20
25.00000000000005
 30
0.0
 11
18.25058175939217
 21
25.00000000000014
 31
0.0
  0
LINE
  5
D1EE
330
CDA1
100
AcDbEntity
  8
AM_5
100
AcDbLine
 10
-24.00000000000023
 20
-24.99999999999994
 30
0.0
 11
18.25058175939227
 21
-24.99999999999986
 31
0.0
  0
LINE
  5
D1EF
330
CDA1
100
AcDbEntity
  8
AM_5
100
AcDbLine
 10
17.25058175939217
 20
22.50000000000013
 30
0.0
 11
17.25058175939226
 21
-22.49999999999986
 31
0.0
  0
INSERT
  5
D1F0
330
CDA1
100
AcDbEntity
  8
AM_5
100
AcDbBlockReference
  2
_OPEN30
 10
17.25058175939217
 20
25.00000000000014
 30
0.0
 41
2.5
 42
2.5
 43
2.5
 50
90.0000000000001
  0
INSERT
  5
D1F1
330
CDA1
100
AcDbEntity
  8
AM_5
100
AcDbBlockReference
  2
_OPEN30
 10
17.25058175939227
 20
-24.99999999999986
 30
0.0
 41
2.5
 42
2.5
 43
2.5
 50
270.0000000000001
  0
MTEXT
  5
D1F2
330
CDA1
100
AcDbEntity
  8
AM_5
 62
     2
100
AcDbMText
 10
14.15058175939222
 20
0.000000000000131
 30
0.0
 40
3.2
 41
0.0
 71
     5
 72
     1
  1
%%c50
  7
ASAMI
 11
-0.000000000000002
 21
1.0
 31
0.0
  0
POINT
  5
D1F3
330
CDA1
100
AcDbEntity
  8
DEFPOINTS
 62
     0
100
AcDbPoint
 10
-25.00000000000039
 20
25.00000000000011
 30
0.0
  0
POINT
  5
D1F4
330
CDA1
100
AcDbEntity
  8
DEFPOINTS
 62
     0
100
AcDbPoint
 10
-25.00000000000028
 20
-24.99999999999988
 30
0.0
  0
POINT
  5
D1F5
330
CDA1
100
AcDbEntity
  8
DEFPOINTS
 62
     0
100
AcDbPoint
 10
17.25058175939221
 20
-24.9999999999999
 30
0.0
  0
ENDBLK
  5
CDAC
330
CDA1
100
AcDbEntity
  8
0
100
AcDbBlockEnd
  0
BLOCK
  5
CE49
330
CE3F
100
AcDbEntity
  8
0
100
AcDbBlockBegin
  2
*D10
 70
     1
 10
0.0
 20
0.0
 30
0.0
  3
*D10
  1

  0
LINE
  5
D1F6
330
CE3F
100
AcDbEntity
  8
AM_5
100
AcDbLine
 10
-197.9999762225856
 20
25.39999999999931
 30
0.0
 11
-218.5323376122658
 21
25.39999999999927
 31
0.0
  0
LINE
  5
D1F7
330
CE3F
100
AcDbEntity
  8
AM_5
100
AcDbLine
 10
-197.9999762225854
 20
-25.40000000000067
 30
0.0
 11
-218.5323376122657
 21
-25.40000000000071
 31
0.0
  0
LINE
  5
D1F8
330
CE3F
100
AcDbEntity
  8
AM_5
100
AcDbLine
 10
-217.5323376122658
 20
22.89999999999927
 30
0.0
 11
-217.5323376122657
 21
-22.90000000000071
 31
0.0
  0
INSERT
  5
D1F9
330
CE3F
100
AcDbEntity
  8
AM_5
100
AcDbBlockReference
  2
_OPEN30
 10
-217.5323376122658
 20
25.39999999999927
 30
0.0
 41
2.5
 42
2.5
 43
2.5
 50
90.0000000000001
  0
INSERT
  5
D1FA
330
CE3F
100
AcDbEntity
  8
AM_5
100
AcDbBlockReference
  2
_OPEN30
 10
-217.5323376122657
 20
-25.40000000000071
 30
0.0
 41
2.5
 42
2.5
 43
2.5
 50
270.0000000000001
  0
MTEXT
  5
D1FB
330
CE3F
100
AcDbEntity
  8
AM_5
 62
     2
100
AcDbMText
 10
-220.6323376122657
 20
-0.0000000000007165
 30
0.0
 40
3.2
 41
0.0
 71
     5
 72
     1
  1
%%c50.8
  7
ASAMI
 11
-0.000000000000002
 21
1.0
 31
0.0
  0
POINT
  5
D1FC
330
CE3F
100
AcDbEntity
  8
DEFPOINTS
 62
     0
100
AcDbPoint
 10
-196.9999762225856
 20
25.39999999999975
 30
0.0
  0
POINT
  5
D1FD
330
CE3F
100
AcDbEntity
  8
DEFPOINTS
 62
     0
100
AcDbPoint
 10
-196.9999762225855
 20
-25.40000000000023
 30
0.0
  0
POINT
  5
D1FE
330
CE3F
100
AcDbEntity
  8
DEFPOINTS
 62
     0
100
AcDbPoint
 10
-217.5323376122658
 20
-25.40000000000022
 30
0.0
  0
ENDBLK
  5
CE4A
330
CE3F
100
AcDbEntity
  8
0
100
AcDbBlockEnd
  0
ENDSEC
  0
SECTION
  2
ENTITIES
  0
TEXT
  5
388D
330
1F
100
AcDbEntity
  8
AM_6
100
AcDbText
 10
-129.5237976351022
 20
-79.58493606809302
 30
0.0
 40
5.0
  1
WBMR2500SL-C
 50
359.9999999999998
 51
359.9999999999998
 72
     4
 11
-99.99998811129275
 21
-77.08493606809307
 31
0.0
100
AcDbText
  0
LINE
  5
C60D
330
1F
100
AcDbEntity
  8
AM_0
100
AcDbLine
 10
-1.096467222585545
 20
-1.940688999999849
 30
0.0
 11
-4.136595222585526
 21
-1.38266099999987
 31
0.0
  0
LINE
  5
C60E
330
1F
100
AcDbEntity
  8
AM_0
100
AcDbLine
 10
-7.144369222585567
 20
-0.8813839999998549
 30
0.0
 11
-1.096467222585545
 21
-1.991499999999859
 31
0.0
  0
LINE
  5
C60F
330
1F
100
AcDbEntity
  8
AM_0
100
AcDbLine
 10
-3.781601222585607
 20
-10.71847999999985
 30
0.0
 11
-4.351902222585579
 21
-10.95271299999984
 31
0.0
  0
LINE
  5
C610
330
1F
100
AcDbEntity
  8
AM_0
100
AcDbLine
 10
-4.039929222585499
 20
-10.50034599999986
 30
0.0
 11
-2.969706222585557
 21
-10.69066099999986
 31
0.0
  0
ELLIPSE
  5
C611
330
1F
100
AcDbEntity
  8
AM_0
100
AcDbEllipse
 10
2.161536777414482
 20
-2.407955999999842
 30
0.0
 11
-10.196825357891
 21
1.816524804097979
 31
0.0
210
0.0
220
0.0
230
1.0
 40
0.03015371187556
 41
0.230748984752367
 42
1.210105465733249
  0
SPLINE
  5
C612
330
1F
100
AcDbEntity
  8
AM_0
100
AcDbSpline
210
0.0
220
0.0
230
1.0
 70
     8
 71
     3
 72
    11
 73
     7
 74
     5
 42
0.0000000001
 43
0.0000000001
 44
0.0000000001
 40
0.0
 40
0.0
 40
0.0
 40
0.0
 40
3.853983363161023
 40
7.729021251853156
 40
11.63765036371554
 40
15.58697904203164
 40
15.58697904203164
 40
15.58697904203164
 40
15.58697904203164
 10
-2.670386222585591
 20
-11.28923899999986
 30
0.0
 10
-3.312235020083813
 20
-12.40588353775556
 30
0.0
 10
-4.599439070770547
 20
-14.64527290450175
 30
0.0
 10
-7.215916493392592
 20
-17.54107900434841
 30
0.0
 10
-10.25565715110499
 20
-20.04170823117668
 30
0.0
 10
-12.59887304201201
 20
-21.22834738110715
 30
0.0
 10
-13.77654922258551
 20
-21.82473999999988
 30
0.0
 11
-2.670386222585591
 21
-11.28923899999986
 31
0.0
 11
-4.707945222585578
 21
-14.56055999999986
 31
0.0
 11
-7.274433222585514
 21
-17.46384399999985
 31
0.0
 11
-10.32117022258552
 21
-19.91226699999987
 31
0.0
 11
-13.77654922258551
 21
-21.82473999999988
 31
0.0
  0
ELLIPSE
  5
C613
330
1F
100
AcDbEntity
  8
AM_0
100
AcDbEllipse
 10
-4.1783472225855
 20
-10.88200699999987
 30
0.0
 11
0.3553324275549996
 21
0.2480371373970007
 31
0.0
210
0.0
220
0.0
230
1.0
 40
0.8391009369086599
 41
-0.258643830395496
 42
0.6981304635312049
  0
ELLIPSE
  5
C614
330
1F
100
AcDbEntity
  8
AM_0
100
AcDbEllipse
 10
-24.25281122258553
 20
0.0627440000000945
 30
0.0
 11
4.010603287822955
 21
22.553400653227
 31
0.0
210
0.0
220
0.0
230
1.0
 40
0.9848077606267599
 41
3.3358714421507
 42
4.394447905998959
  0
ELLIPSE
  5
C615
330
1F
100
AcDbEntity
  8
AM_0
100
AcDbEllipse
 10
-4.99576222258554
 20
3.102621000000141
 30
0.0
 11
-1.305513627360014
 21
7.954486522172997
 31
0.0
210
0.0
220
0.0
230
0.9999999999999998
 40
0.45727286023769
 41
2.486296783191009
 42
3.9344697148904
  0
ELLIPSE
  5
C616
330
1F
100
AcDbEntity
  8
AM_0
100
AcDbEllipse
 10
-25.04660822258563
 20
1.382124000000089
 30
0.0
 11
4.377007486789953
 21
24.613853933519
 31
0.0
210
0.0
220
0.0
230
1.0
 40
0.9848077599999999
 41
3.316125205568839
 42
4.363003793981079
  0
SPLINE
  5
C617
330
1F
100
AcDbEntity
  8
AM_0
100
AcDbSpline
210
0.0
220
0.0
230
1.0
 70
     8
 71
     3
 72
    11
 73
     7
 74
     5
 42
0.0000000001
 43
0.0000000001
 44
0.0000000001
 40
0.0
 40
0.0
 40
0.0
 40
0.0
 40
3.020514151881598
 40
6.04576464944273
 40
9.082515691646246
 40
12.13658894378183
 40
12.13658894378183
 40
12.13658894378183
 40
12.13658894378183
 10
-0.4790102225855435
 20
4.140077000000161
 30
0.0
 10
-0.6790685186962829
 20
5.128398341102037
 30
0.0
 10
-1.079498814214217
 20
7.106590769898105
 30
0.0
 10
-2.157971523670879
 20
9.946892643779898
 30
0.0
 10
-3.55334399299608
 20
12.65928856137296
 30
0.0
 10
-4.775716010362458
 20
14.28453146524446
 30
0.0
 10
-5.38864022258565
 20
15.09946400000012
 30
0.0
 11
-0.4790102225855435
 21
4.140077000000161
 31
0.0
 11
-1.158424222585608
 21
7.083188000000149
 31
0.0
 11
-2.20842922258555
 21
9.920375000000149
 31
0.0
 11
-3.622797222585631
 21
12.60764500000013
 31
0.0
 11
-5.38864022258565
 21
15.09946400000012
 31
0.0
  0
ELLIPSE
  5
C618
330
1F
100
AcDbEntity
  8
AM_0
100
AcDbEllipse
 10
-50.09970322258562
 20
12.54110700000006
 30
0.0
 11
-153.7645851537881
 21
88.67188028052268
 31
0.0
210
0.0
220
0.0
230
1.0
 40
0.08708642253521
 41
4.431807756505699
 42
4.48345631220542
  0
ELLIPSE
  5
C619
330
1F
100
AcDbEntity
  8
AM_0
100
AcDbEllipse
 10
-51.02389422258557
 20
10.93848200000005
 30
0.0
 11
-153.7645860200681
 21
88.67188078008267
 31
0.0
210
0.0
220
0.0
230
0.9999999999999998
 40
0.08708642767839
 41
4.429815782024929
 42
4.48377941831236
  0
ELLIPSE
  5
C61A
330
1F
100
AcDbEntity
  8
AM_0
100
AcDbEllipse
 10
-48.8116602225856
 20
14.77468500000006
 30
0.0
 11
-154.0597629130811
 21
88.8421013161877
 31
0.0
210
0.0
220
0.0
230
1.0
 40
0.08708642814817
 41
4.44386794817636
 42
4.487056150500059
  0
LINE
  5
C61B
330
1F
100
AcDbEntity
  8
AM_7
100
AcDbLine
 10
3.250580759392221
 20
0.0000000000001705
 30
0.0
 11
-203.5323366122657
 21
-0.0000000000002558
 31
0.0
1001
GENIUS_GENODEF_13
1002
{
1000
HIER
1070
     0
1002
}
1002
{
1000
MANEDIT
1070
     0
1002
}
1002
{
1000
NOSEL
1070
     0
1002
}
1002
{
1000
BEHIND
1070
     0
1002
}
1002
{
1000
REACTOR
1002
}
1001
GENIUS_GENOBJ-N-CEN_13
1002
{
1000
OWNER
1000
GEN
1002
}
  0
ARC
  5
C620
330
1F
100
AcDbEntity
  8
AM_11
100
AcDbCircle
 10
-25.00000000000028
 20
0.0000000000001137
 30
0.0
 40
25.0
100
AcDbArc
 50
270.0
 51
90.0
  0
LINE
  5
C622
330
1F
100
AcDbEntity
  8
AM_0
100
AcDbLine
 10
-23.89997622258551
 20
-22.82888299999987
 30
0.0
 11
-23.89997622258556
 21
2.493269000000111
 31
0.0
  0
LINE
  5
C623
330
1F
100
AcDbEntity
  8
AM_0
100
AcDbLine
 10
-95.72914422258561
 20
-23.00000000000002
 30
0.0
 11
-95.72914422258568
 21
22.99999999999994
 31
0.0
  0
LINE
  5
C624
330
1F
100
AcDbEntity
  8
AM_0
100
AcDbLine
 10
-99.99997622258554
 20
-25.40000000000006
 30
0.0
 11
-99.99997622258561
 21
25.39999999999997
 31
0.0
  0
LINE
  5
C625
330
1F
100
AcDbEntity
  8
AM_0
100
AcDbLine
 10
-177.7699762225855
 20
-25.4000000000002
 30
0.0
 11
-177.7699762225855
 21
25.3999999999998
 31
0.0
  0
LINE
  5
C626
330
1F
100
AcDbEntity
  8
AM_0
100
AcDbLine
 10
-199.9999762225855
 20
-12.15206600000021
 30
0.0
 11
-199.9999762225855
 21
12.15206599999976
 31
0.0
  0
SPLINE
  5
C627
330
1F
100
AcDbEntity
  8
AM_0
100
AcDbSpline
210
0.0
220
0.0
230
1.0
 70
     8
 71
     3
 72
    11
 73
     7
 74
     5
 42
0.0000000001
 43
0.0000000001
 44
0.0000000001
 40
0.0
 40
0.0
 40
0.0
 40
0.0
 40
7.056201540253381
 40
13.95419028150432
 40
20.85218569764235
 40
27.90840240297459
 40
27.90840240297459
 40
27.90840240297459
 40
27.90840240297459
 10
-189.6776102225855
 20
-15.35740900000021
 30
0.0
 10
-189.3055991213932
 20
-13.25634941498332
 30
0.0
 10
-188.569918080644
 20
-9.10133980041221
 30
0.0
 10
-184.099998293794
 20
0.3041107904731688
 30
0.0
 10
-179.6299573490326
 20
-9.101307758010415
 30
0.0
 10
-178.8943276029289
 20
-13.25633783872698
 30
0.0
 10
-178.5223422225855
 20
-15.35740900000019
 30
0.0
 11
-189.6776102225855
 21
-15.35740900000021
 31
0.0
 11
-187.9848252225855
 21
-8.507266000000214
 31
0.0
 11
-184.0999802225855
 21
-2.807246000000191
 31
0.0
 11
-180.2150852225855
 21
-8.507240000000194
 31
0.0
 11
-178.5223422225855
 21
-15.35740900000019
 31
0.0
  0
SPLINE
  5
C628
330
1F
100
AcDbEntity
  8
AM_0
100
AcDbSpline
210
0.0
220
0.0
230
1.0
 70
     8
 71
     3
 72
    11
 73
     7
 74
     5
 42
0.0000000001
 43
0.0000000001
 44
0.0000000001
 40
0.0
 40
0.0
 40
0.0
 40
0.0
 40
1.434248045933849
 40
2.809838057379473
 40
4.106160026960371
 40
5.326182126245861
 40
5.326182126245861
 40
5.326182126245861
 40
5.326182126245861
 10
-30.20064622258562
 20
-9.487458999999915
 30
0.0
 10
-29.73698332123173
 20
-9.629372113638595
 30
0.0
 10
-28.82862045491116
 20
-9.907394362770229
 30
0.0
 10
-27.82959275503938
 20
-10.90259156285777
 30
0.0
 10
-27.20607263670768
 20
-12.07655604556797
 30
0.0
 10
-27.15933800252406
 20
-12.92294062615813
 30
0.0
 10
-27.13667922258554
 20
-13.33330099999989
 30
0.0
 11
-30.20064622258562
 21
-9.487458999999915
 31
0.0
 11
-28.86821022258558
 21
-10.0181959999999
 31
0.0
 11
-27.8691522225856
 21
-10.96378099999989
 31
0.0
 11
-27.28843522258552
 21
-12.1227539999999
 31
0.0
 11
-27.13667922258554
 21
-13.33330099999989
 31
0.0
  0
SPLINE
  5
C629
330
1F
100
AcDbEntity
  8
AM_0
100
AcDbSpline
210
0.0
220
0.0
230
1.0
 70
     8
 71
     3
 72
    11
 73
     7
 74
     5
 42
0.0000000001
 43
0.0000000001
 44
0.0000000001
 40
0.0
 40
0.0
 40
0.0
 40
0.0
 40
1.157662360893316
 40
2.388109017116152
 40
3.685518633956134
 40
5.010747193846447
 40
5.010747193846447
 40
5.010747193846447
 40
5.010747193846447
 10
-33.77142122258564
 20
-12.15346499999992
 30
0.0
 10
-33.70222375826152
 20
-11.76804741106967
 30
0.0
 10
-33.55947826173651
 20
-10.97298034266359
 30
0.0
 10
-32.7318838691437
 20
-9.996544985008908
 30
0.0
 10
-31.53411460941674
 20
-9.402179620346299
 30
0.0
 10
-30.64826781364574
 20
-9.458832230905008
 30
0.0
 10
-30.20064622258562
 20
-9.487458999999915
 30
0.0
 11
-33.77142122258564
 21
-12.15346499999992
 31
0.0
 11
-33.47135622258551
 21
-11.03536699999992
 31
0.0
 11
-32.69522922258554
 21
-10.08057599999992
 31
0.0
 11
-31.5254912225856
 21
-9.519340999999911
 31
0.0
 11
-30.20064622258562
 21
-9.487458999999915
 31
0.0
  0
ELLIPSE
  5
C62A
330
1F
100
AcDbEntity
  8
AM_0
100
AcDbEllipse
 10
-29.24716022258562
 20
-12.9848529999999
 30
0.0
 11
0.5252408984149942
 21
2.953662472022001
 31
0.0
210
0.0
220
0.0
230
1.0
 40
0.9848076666666699
 41
0.05547307667781
 42
2.474401053108899
  0
ELLIPSE
  5
C62B
330
1F
100
AcDbEntity
  8
AM_0
100
AcDbEllipse
 10
-29.22102222258556
 20
-12.96264899999988
 30
0.0
 11
0.5690109732829935
 21
3.199801011357
 31
0.0
210
0.0
220
0.0
230
1.0
 40
0.9848076923076899
 41
0.241105675871022
 42
1.57079600496477
  0
ELLIPSE
  5
C62C
330
1F
100
AcDbEntity
  8
AM_0
100
AcDbEllipse
 10
-25.13209122258558
 20
1.39732500000008
 30
0.0
 11
4.289467337053952
 21
24.121576854848
 31
0.0
210
0.0
220
0.0
230
1.0
 40
0.9848077551020399
 41
4.048957284575499
 42
4.35716598906539
  0
ELLIPSE
  5
C62D
330
1F
100
AcDbEntity
  8
AM_0
100
AcDbEllipse
 10
-29.13543522258553
 20
-13.12006499999989
 30
0.0
 11
0.5252408984149942
 21
2.953662472022001
 31
0.0
210
0.0
220
0.0
230
1.0
 40
0.9848076666666699
 41
0.020600889037093
 42
1.57079600496478
  0
ELLIPSE
  5
C62E
330
1F
100
AcDbEntity
  8
AM_0
100
AcDbEllipse
 10
-29.2807562225856
 20
-13.09422299999988
 30
0.0
 11
0.3764226438639957
 21
2.116791438283001
 31
0.0
210
0.0
220
0.0
230
1.0
 40
0.9848079069767399
 41
-1.39742896687188
 42
4.88575603751495
  0
LINE
  5
C62F
330
1F
100
AcDbEntity
  8
AM_0
100
AcDbLine
 10
-199.9999762225855
 20
-12.15206600000021
 30
0.0
 11
-199.9999762225855
 21
12.15206599999976
 31
0.0
  0
LINE
  5
C631
330
1F
100
AcDbEntity
  8
AM_11
100
AcDbLine
 10
-65.00000000000037
 20
25.00000000000003
 30
0.0
 11
-65.00000000000028
 21
-24.99999999999997
 31
0.0
  0
SPLINE
  5
C632
330
1F
100
AcDbEntity
  8
AM_0
100
AcDbSpline
210
0.0
220
0.0
230
1.0
 70
     8
 71
     3
 72
    11
 73
     7
 74
     5
 42
0.0000000001
 43
0.0000000001
 44
0.0000000001
 40
0.0
 40
0.0
 40
0.0
 40
0.0
 40
1.388184355702377
 40
3.021604773012382
 40
4.354110194409172
 40
5.341551063294999
 40
5.341551063294999
 40
5.341551063294999
 40
5.341551063294999
 10
-69.85536222258549
 20
-18.59599499999998
 30
0.0
 10
-69.46741830637856
 20
-18.31446101740019
 30
0.0
 10
-68.62299646567944
 20
-17.70165737781566
 30
0.0
 10
-67.07686533907154
 20
-17.96480320914918
 30
0.0
 10
-65.88809655558268
 20
-18.67935562721767
 30
0.0
 10
-65.60754404511839
 20
-19.4195832412322
 30
0.0
 10
-65.48813222258553
 20
-19.73464699999996
 30
0.0
 11
-69.85536222258549
 21
-18.59599499999998
 31
0.0
 11
-68.64329322258555
 21
-17.91927899999999
 31
0.0
 11
-67.0189472225855
 21
-18.09121599999997
 31
0.0
 11
-65.92192122258558
 21
-18.84759199999999
 31
0.0
 11
-65.48813222258553
 21
-19.73464699999996
 31
0.0
  0
SPLINE
  5
C633
330
1F
100
AcDbEntity
  8
AM_0
100
AcDbSpline
210
0.0
220
0.0
230
1.0
 70
     8
 71
     3
 72
    11
 73
     7
 74
     5
 42
0.0000000001
 43
0.0000000001
 44
0.0000000001
 40
0.0
 40
0.0
 40
0.0
 40
0.0
 40
1.295428795480856
 40
6.339558492468519
 40
11.38367253380433
 40
12.67910120486461
 40
12.67910120486461
 40
12.67910120486461
 40
12.67910120486461
 10
-189.6776102225855
 20
-24.90000000000023
 30
0.0
 10
-189.4134998632067
 20
-24.55475745981836
 30
0.0
 10
-188.1209988183096
 20
-22.86521243410432
 30
0.0
 10
-184.0999721251735
 20
-21.66695859517744
 30
0.0
 10
-180.0789528215473
 20
-22.86521867094354
 30
0.0
 10
-178.7864529701308
 20
-24.55475783200601
 30
0.0
 10
-178.5223422225855
 20
-24.9000000000002
 30
0.0
 11
-189.6776102225855
 21
-24.90000000000023
 31
0.0
 11
-188.8457452225855
 21
-23.90695600000023
 31
0.0
 11
-184.0999682225855
 21
-22.19790800000021
 31
0.0
 11
-179.3542082225855
 21
-23.9069570000002
 31
0.0
 11
-178.5223422225855
 21
-24.9000000000002
 31
0.0
  0
SPLINE
  5
C634
330
1F
100
AcDbEntity
  8
AM_0
100
AcDbSpline
210
0.0
220
0.0
230
1.0
 70
     8
 71
     3
 72
    11
 73
     7
 74
     5
 42
0.0000000001
 43
0.0000000001
 44
0.0000000001
 40
0.0
 40
0.0
 40
0.0
 40
0.0
 40
0.9640257900207158
 40
1.927388957061062
 40
2.888781846074151
 40
3.843058799320933
 40
3.843058799320933
 40
3.843058799320933
 40
3.843058799320933
 10
-199.9999762225855
 20
-12.15206600000021
 30
0.0
 10
-199.9880264249909
 20
-12.47433247603145
 30
0.0
 10
-199.9641350434933
 20
-13.11864391828055
 30
0.0
 10
-199.7296938245321
 20
-14.05290978516982
 30
0.0
 10
-199.3200881042062
 20
-14.95627585725653
 30
0.0
 10
-198.7844422808659
 20
-15.32475219909262
 30
0.0
 10
-198.5176142225855
 20
-15.50830600000023
 30
0.0
 11
-199.9999762225855
 21
-12.15206600000021
 31
0.0
 11
-199.9309722225855
 21
-13.11361900000025
 31
0.0
 11
-199.7000652225854
 21
-14.04890000000023
 31
0.0
 11
-199.2528112225855
 21
-14.89992300000023
 31
0.0
 11
-198.5176142225855
 21
-15.50830600000023
 31
0.0
  0
SPLINE
  5
C635
330
1F
100
AcDbEntity
  8
AM_0
100
AcDbSpline
210
0.0
220
0.0
230
1.0
 70
     8
 71
     3
 72
    11
 73
     7
 74
     5
 42
0.0000000001
 43
0.0000000001
 44
0.0000000001
 40
0.0
 40
0.0
 40
0.0
 40
0.0
 40
0.4124702172642234
 40
0.8249385626872548
 40
1.23740669823351
 40
1.649877070397393
 40
1.649877070397393
 40
1.649877070397393
 40
1.649877070397393
 10
-196.9999762225855
 20
-16.15549400000023
 30
0.0
 10
-197.1266522046693
 20
-16.10204558201595
 30
0.0
 10
-197.3800035939655
 20
-15.99514898860296
 30
0.0
 10
-197.7595686510318
 20
-15.83371377663302
 30
0.0
 10
-198.1388247982905
 20
-15.67155404806463
 30
0.0
 10
-198.3913508529331
 20
-15.56272211437869
 30
0.0
 10
-198.5176142225855
 20
-15.50830600000023
 30
0.0
 11
-196.9999762225855
 21
-16.15549400000023
 31
0.0
 11
-197.3799272225855
 21
-15.99496700000026
 31
0.0
 11
-197.7595172225855
 21
-15.83359300000023
 31
0.0
 11
-198.1387462225855
 21
-15.67137300000024
 31
0.0
 11
-198.5176142225855
 21
-15.50830600000023
 31
0.0
  0
SPLINE
  5
C636
330
1F
100
AcDbEntity
  8
AM_0
100
AcDbSpline
210
0.0
220
0.0
230
1.0
 70
     8
 71
     3
 72
    11
 73
     7
 74
     5
 42
0.0000000001
 43
0.0000000001
 44
0.0000000001
 40
0.0
 40
0.0
 40
0.0
 40
0.0
 40
0.2179682489354721
 40
0.4436857804167028
 40
0.6833691283572894
 40
0.9437439283227069
 40
0.9437439283227069
 40
0.9437439283227069
 40
0.9437439283227069
 10
-70.10438722258555
 20
-19.48233899999996
 30
0.0
 10
-70.10991027454692
 20
-19.40965079953113
 30
0.0
 10
-70.12115273592249
 20
-19.26169016255944
 30
0.0
 10
-70.08226282018563
 20
-19.03529694248888
 30
0.0
 10
-69.99924913280984
 20
-18.8058491923824
 30
0.0
 10
-69.90462958477985
 20
-18.66784978156413
 30
0.0
 10
-69.85536222258549
 20
-18.59599499999998
 30
0.0
 11
-70.10438722258555
 21
-19.48233899999996
 31
0.0
 11
-70.11214922258552
 21
-19.26450899999997
 31
0.0
 11
-70.07676622258561
 21
-19.041582
 31
0.0
 11
-69.99301822258559
 21
-18.81700599999999
 31
0.0
 11
-69.85536222258549
 21
-18.59599499999998
 31
0.0
  0
SPLINE
  5
C637
330
1F
100
AcDbEntity
  8
AM_0
100
AcDbSpline
210
0.0
220
0.0
230
1.0
 70
     8
 71
     3
 72
    11
 73
     7
 74
     5
 42
0.0000000001
 43
0.0000000001
 44
0.0000000001
 40
0.0
 40
0.0
 40
0.0
 40
0.0
 40
1.236362026012219
 40
2.782274269947461
 40
4.43921268591166
 40
5.971645996952926
 40
5.971645996952926
 40
5.971645996952926
 40
5.971645996952926
 10
-19.53167522258553
 20
-23.55122399999987
 30
0.0
 10
-19.13084416013345
 20
-23.4553037711386
 30
0.0
 10
-18.22882523024672
 20
-23.23944759057555
 30
0.0
 10
-16.80422570601028
 20
-22.83765463745052
 30
0.0
 10
-15.29969686628787
 20
-22.3594839702097
 30
0.0
 10
-14.29619098286878
 20
-22.00835965131188
 30
0.0
 10
-13.81402522258559
 20
-21.83965099999988
 30
0.0
 11
-19.53167522258553
 21
-23.55122399999987
 31
0.0
 11
-18.33098922258551
 21
-23.25636099999988
 31
0.0
 11
-16.84223222258555
 21
-22.83989099999988
 31
0.0
 11
-15.26279522258556
 21
-22.33906799999988
 31
0.0
 11
-13.81402522258559
 21
-21.83965099999988
 31
0.0
  0
SPLINE
  5
C638
330
1F
100
AcDbEntity
  8
AM_0
100
AcDbSpline
210
0.0
220
0.0
230
1.0
 70
     8
 71
     3
 72
    11
 73
     7
 74
     5
 42
0.0000000001
 43
0.0000000001
 44
0.0000000001
 40
0.0
 40
0.0
 40
0.0
 40
0.0
 40
0.0208317880653671
 40
0.040012797684306
 40
0.0575077995133398
 40
0.0732855462789507
 40
0.0732855462789507
 40
0.0732855462789507
 40
0.0732855462789507
 10
-47.99293322258558
 20
-23.71049499999995
 30
0.0
 10
-47.98601957074246
 20
-23.71115595394162
 30
0.0
 10
-47.97274012725013
 20
-23.71242548569106
 30
0.0
 10
-47.95357997479794
 20
-23.71321156341021
 30
0.0
 10
-47.93608792694423
 20
-23.71329266493604
 30
0.0
 10
-47.92501021169369
 20
-23.71271359272497
 30
0.0
 10
-47.91975722258558
 20
-23.71243899999996
 30
0.0
 11
-47.99293322258558
 21
-23.71049499999995
 31
0.0
 11
-47.97217822258557
 21
-23.71228199999996
 31
0.0
 11
-47.95301522258552
 21
-23.71311299999993
 31
0.0
 11
-47.93552022258558
 21
-23.71312099999994
 31
0.0
 11
-47.91975722258558
 21
-23.71243899999996
 31
0.0
  0
SPLINE
  5
C639
330
1F
100
AcDbEntity
  8
AM_0
100
AcDbSpline
210
0.0
220
0.0
230
1.0
 70
     8
 71
     3
 72
    11
 73
     7
 74
     5
 42
0.0000000001
 43
0.0000000001
 44
0.0000000001
 40
0.0
 40
0.0
 40
0.0
 40
0.0
 40
0.3591281759483487
 40
0.7205592522339562
 40
1.083348560359237
 40
1.446852031491147
 40
1.446852031491147
 40
1.446852031491147
 40
1.446852031491147
 10
-32.81416922258557
 20
-23.38119699999992
 30
0.0
 10
-32.90489995688935
 20
-23.46047127352413
 30
0.0
 10
-33.08694323403385
 20
-23.61952816484473
 30
0.0
 10
-33.42582702002502
 20
-23.75773006974547
 30
0.0
 10
-33.77997971371682
 20
-23.84166993244934
 30
0.0
 10
-34.02251789044225
 20
-23.85039378476446
 30
0.0
 10
-34.14390622258548
 20
-23.85475999999991
 30
0.0
 11
-32.81416922258557
 21
-23.38119699999992
 31
0.0
 11
-33.09713122258557
 21
-23.6023429999999
 31
0.0
 11
-33.42770722258552
 21
-23.74846599999992
 31
0.0
 11
-33.78126022258555
 21
-23.8298069999999
 31
0.0
 11
-34.14390622258548
 21
-23.85475999999991
 31
0.0
  0
SPLINE
  5
C63A
330
1F
100
AcDbEntity
  8
AM_0
100
AcDbSpline
210
0.0
220
0.0
230
1.0
 70
     8
 71
     3
 72
    11
 73
     7
 74
     5
 42
0.0000000001
 43
0.0000000001
 44
0.0000000001
 40
0.0
 40
0.0
 40
0.0
 40
0.0
 40
0.2598786439572036
 40
0.5198394523976044
 40
0.7794209121457754
 40
1.038187411407193
 40
1.038187411407193
 40
1.038187411407193
 40
1.038187411407193
 10
-27.97585622258549
 20
-23.8729909999999
 30
0.0
 10
-28.06264089218689
 20
-23.86823081635216
 30
0.0
 10
-28.23623766964864
 20
-23.85870894405413
 30
0.0
 10
-28.48664498424964
 20
-23.78228895590712
 30
0.0
 10
-28.72034420042687
 20
-23.6640648483766
 30
0.0
 10
-28.84901631577656
 20
-23.54770263353285
 30
0.0
 10
-28.91325122258553
 20
-23.4896129999999
 30
0.0
 11
-27.97585622258549
 21
-23.8729909999999
 31
0.0
 11
-28.23456422258556
 21
-23.84835199999991
 31
0.0
 11
-28.48403422258553
 21
-23.77524699999992
 31
0.0
 11
-28.71382522258551
 21
-23.65450499999991
 31
0.0
 11
-28.91325122258553
 21
-23.4896129999999
 31
0.0
  0
SPLINE
  5
C63B
330
1F
100
AcDbEntity
  8
AM_0
100
AcDbSpline
210
0.0
220
0.0
230
1.0
 70
     8
 71
     3
 72
    11
 73
     7
 74
     5
 42
0.0000000001
 43
0.0000000001
 44
0.0000000001
 40
0.0
 40
0.0
 40
0.0
 40
0.0
 40
1.011070754976545
 40
2.022149366573605
 40
3.033183901842324
 40
4.044120440370871
 40
4.044120440370871
 40
4.044120440370871
 40
4.044120440370871
 10
-46.85459322258549
 20
-23.80257399999993
 30
0.0
 10
-46.51757216213155
 20
-23.80387883808933
 30
0.0
 10
-45.84352742236981
 20
-23.80648852440752
 30
0.0
 10
-44.83247478346493
 20
-23.81067591497084
 30
0.0
 10
-43.8214676695526
 20
-23.81504924984742
 30
0.0
 10
-43.14748448316371
 20
-23.81815913352359
 30
0.0
 10
-42.81050922258549
 20
-23.81971399999994
 30
0.0
 11
-46.85459322258549
 21
-23.80257399999993
 31
0.0
 11
-45.84353022258556
 21
-23.80653399999994
 31
0.0
 11
-44.83246022258555
 21
-23.81070699999995
 31
0.0
 11
-43.82143522258553
 21
-23.81509799999995
 31
0.0
 11
-42.81050922258549
 21
-23.81971399999994
 31
0.0
  0
SPLINE
  5
C63C
330
1F
100
AcDbEntity
  8
AM_0
100
AcDbSpline
210
0.0
220
0.0
230
1.0
 70
     8
 71
     3
 72
    11
 73
     7
 74
     5
 42
0.0000000001
 43
0.0000000001
 44
0.0000000001
 40
0.0
 40
0.0
 40
0.0
 40
0.0
 40
0.6986220849594745
 40
1.374862521467033
 40
2.02854283594656
 40
2.659436890627715
 40
2.659436890627715
 40
2.659436890627715
 40
2.659436890627715
 10
-34.14390622258548
 20
-23.85475999999991
 30
0.0
 10
-34.37665194250321
 20
-23.84702805271273
 30
0.0
 10
-34.83468694345128
 20
-23.83181186534623
 30
0.0
 10
-35.51043727281308
 20
-23.80766880027385
 30
0.0
 10
-36.16358433083997
 20
-23.78318963284546
 30
0.0
 10
-36.59142867960646
 20
-23.76594726040164
 30
0.0
 10
-36.80155622258558
 20
-23.75747899999993
 30
0.0
 11
-34.14390622258548
 21
-23.85475999999991
 31
0.0
 11
-34.84213322258557
 21
-23.8312679999999
 31
0.0
 11
-35.51794522258552
 21
-23.8071999999999
 31
0.0
 11
-36.17116222258556
 21
-23.7825929999999
 31
0.0
 11
-36.80155622258558
 21
-23.75747899999993
 31
0.0
  0
SPLINE
  5
C63D
330
1F
100
AcDbEntity
  8
AM_0
100
AcDbSpline
210
0.0
220
0.0
230
1.0
 70
     8
 71
     3
 72
    11
 73
     7
 74
     5
 42
0.0000000001
 43
0.0000000001
 44
0.0000000001
 40
0.0
 40
0.0
 40
0.0
 40
0.0
 40
0.1075174107993479
 40
0.2148515493993617
 40
0.3219612851379531
 40
0.4288251261928668
 40
0.4288251261928668
 40
0.4288251261928668
 40
0.4288251261928668
 10
-32.46204822258556
 20
-23.14160499999991
 30
0.0
 10
-32.49475413869238
 20
-23.1563376992516
 30
0.0
 10
-32.56011022100345
 20
-23.18577798466702
 30
0.0
 10
-32.65190424561259
 20
-23.2418024892675
 30
0.0
 10
-32.73813518171535
 20
-23.30581403041942
 30
0.0
 10
-32.7888439668445
 20
-23.35608860169177
 30
0.0
 10
-32.81416922258557
 20
-23.38119699999992
 30
0.0
 11
-32.46204822258556
 21
-23.14160499999991
 31
0.0
 11
-32.55913922258554
 21
-23.18779299999991
 31
0.0
 11
-32.65106922258559
 21
-23.24319599999989
 31
0.0
 11
-32.73651822258552
 21
-23.30777899999992
 31
0.0
 11
-32.81416922258557
 21
-23.38119699999992
 31
0.0
  0
SPLINE
  5
C63E
330
1F
100
AcDbEntity
  8
AM_0
100
AcDbSpline
210
0.0
220
0.0
230
1.0
 70
     8
 71
     3
 72
    11
 73
     7
 74
     5
 42
0.0000000001
 43
0.0000000001
 44
0.0000000001
 40
0.0
 40
0.0
 40
0.0
 40
0.0
 40
0.4288027903686796
 40
0.8631986829551062
 40
1.303213263852234
 40
1.748798368473045
 40
1.748798368473045
 40
1.748798368473045
 40
1.748798368473045
 10
-34.5208362225855
 20
-23.00005599999991
 30
0.0
 10
-34.38182412458472
 20
-23.03331417437232
 30
0.0
 10
-34.10198672006149
 20
-23.10026432712454
 30
0.0
 10
-33.67845200470592
 20
-23.19686065397578
 30
0.0
 10
-33.2487302930339
 20
-23.29144568837033
 30
0.0
 10
-32.95962907269374
 20
-23.35115470393512
 30
0.0
 10
-32.81416922258557
 20
-23.38119699999992
 30
0.0
 11
-34.5208362225855
 21
-23.00005599999991
 31
0.0
 11
-34.10362822258554
 21
-23.09909799999991
 31
0.0
 11
-33.68015822258559
 21
-23.1959119999999
 31
0.0
 11
-33.2503472225855
 21
-23.29012099999991
 31
0.0
 11
-32.81416922258557
 21
-23.38119699999992
 31
0.0
  0
SPLINE
  5
C63F
330
1F
100
AcDbEntity
  8
AM_0
100
AcDbSpline
210
0.0
220
0.0
230
1.0
 70
     8
 71
     3
 72
    11
 73
     7
 74
     5
 42
0.0000000001
 43
0.0000000001
 44
0.0000000001
 40
0.0
 40
0.0
 40
0.0
 40
0.0
 40
0.8253854552298552
 40
1.657259115600186
 40
2.493686251515842
 40
3.333440903418928
 40
3.333440903418928
 40
3.333440903418928
 40
3.333440903418928
 10
-36.80155622258558
 20
-23.75747899999993
 30
0.0
 10
-37.07645634474671
 20
-23.74627141407833
 30
0.0
 10
-37.62841752899638
 20
-23.72376814143796
 30
0.0
 10
-38.45897838242082
 20
-23.69045184312642
 30
0.0
 10
-39.29433386116457
 20
-23.65716318136192
 30
0.0
 10
-39.85262466692781
 20
-23.63508300480001
 30
0.0
 10
-40.13232422258551
 20
-23.62402099999991
 30
0.0
 11
-36.80155622258558
 21
-23.75747899999993
 31
0.0
 11
-37.62626022258558
 21
-23.72394599999992
 31
0.0
 11
-38.45746322258554
 21
-23.69054899999992
 31
0.0
 11
-39.29322722258558
 21
-23.65724899999992
 31
0.0
 11
-40.13232422258551
 21
-23.62402099999991
 31
0.0
  0
SPLINE
  5
C640
330
1F
100
AcDbEntity
  8
AM_0
100
AcDbSpline
210
0.0
220
0.0
230
1.0
 70
     8
 71
     3
 72
    11
 73
     7
 74
     5
 42
0.0000000001
 43
0.0000000001
 44
0.0000000001
 40
0.0
 40
0.0
 40
0.0
 40
0.0
 40
0.242398940249303
 40
0.4709313295511573
 40
0.678702968279835
 40
0.8672781697565843
 40
0.8672781697565843
 40
0.8672781697565843
 40
0.8672781697565843
 10
-40.13232422258551
 20
-23.62402099999991
 30
0.0
 10
-40.05129527985549
 20
-23.62061928801468
 30
0.0
 10
-39.89387269503426
 20
-23.61401046065634
 30
0.0
 10
-39.67537257855472
 20
-23.54954551389716
 30
0.0
 10
-39.49101114014617
 20
-23.44000763879635
 30
0.0
 10
-39.41882580055615
 20
-23.32750084967075
 30
0.0
 10
-39.38448122258552
 20
-23.27397199999992
 30
0.0
 11
-40.13232422258551
 21
-23.62402099999991
 31
0.0
 11
-39.89077722258554
 21
-23.6037159999999
 31
0.0
 11
-39.67190922258549
 21
-23.53795999999994
 31
0.0
 11
-39.4976452225855
 21
-23.42481799999993
 31
0.0
 11
-39.38448122258552
 21
-23.27397199999992
 31
0.0
  0
SPLINE
  5
C641
330
1F
100
AcDbEntity
  8
AM_0
100
AcDbSpline
210
0.0
220
0.0
230
1.0
 70
     8
 71
     3
 72
    11
 73
     7
 74
     5
 42
0.0000000001
 43
0.0000000001
 44
0.0000000001
 40
0.0
 40
0.0
 40
0.0
 40
0.0
 40
0.1189078084609412
 40
0.2382938910878703
 40
0.3582198827369026
 40
0.4787532059674667
 40
0.4787532059674667
 40
0.4787532059674667
 40
0.4787532059674667
 10
-39.38447422258553
 20
-23.27418499999993
 30
0.0
 10
-39.34950470244361
 20
-23.25549265881446
 30
0.0
 10
-39.279425006821
 20
-23.21803279160911
 30
0.0
 10
-39.17903031329764
 20
-23.15320809159512
 30
0.0
 10
-39.08242505451742
 20
-23.08176460524735
 30
0.0
 10
-39.02383715866248
 20
-23.02697566215864
 30
0.0
 10
-38.99446922258556
 20
-22.99951199999992
 30
0.0
 11
-39.38447422258553
 21
-23.27418499999993
 31
0.0
 11
-39.2803862225856
 21
-23.21669799999995
 31
0.0
 11
-39.17988422258559
 21
-23.15225899999993
 31
0.0
 11
-39.08407222258557
 21
-23.08013199999993
 31
0.0
 11
-38.99446922258556
 21
-22.99951199999992
 31
0.0
  0
SPLINE
  5
C642
330
1F
100
AcDbEntity
  8
AM_0
100
AcDbSpline
210
0.0
220
0.0
230
1.0
 70
     8
 71
     3
 72
    11
 73
     7
 74
     5
 42
0.0000000001
 43
0.0000000001
 44
0.0000000001
 40
0.0
 40
0.0
 40
0.0
 40
0.0
 40
0.0932983115067283
 40
0.1867256900314182
 40
0.2802647224456993
 40
0.3739061152695668
 40
0.3739061152695668
 40
0.3739061152695668
 40
0.3739061152695668
 10
-28.91325122258553
 20
-23.4896129999999
 30
0.0
 10
-28.93544863453796
 20
-23.46780887159224
 30
0.0
 10
-28.97987416589854
 20
-23.42417045138181
 30
0.0
 10
-29.05243879211024
 20
-23.36516099862422
 30
0.0
 10
-29.12873067585327
 20
-23.31084263654118
 30
0.0
 10
-29.18287050480971
 20
-23.27976121118342
 30
0.0
 10
-29.2099552225855
 20
-23.2642119999999
 30
0.0
 11
-28.91325122258553
 21
-23.4896129999999
 31
0.0
 11
-28.98082222258557
 21
-23.4252799999999
 31
0.0
 11
-29.05301522258554
 21
-23.3659769999999
 31
0.0
 11
-29.12951422258555
 21
-23.31214899999991
 31
0.0
 11
-29.2099552225855
 21
-23.2642119999999
 31
0.0
  0
SPLINE
  5
C643
330
1F
100
AcDbEntity
  8
AM_0
100
AcDbSpline
210
0.0
220
0.0
230
1.0
 70
     8
 71
     3
 72
    11
 73
     7
 74
     5
 42
0.0000000001
 43
0.0000000001
 44
0.0000000001
 40
0.0
 40
0.0
 40
0.0
 40
0.0
 40
0.1878256338735471
 40
0.3683805059899818
 40
0.5424968133968815
 40
0.7115473023550417
 40
0.7115473023550417
 40
0.7115473023550417
 40
0.7115473023550417
 10
-28.91325122258553
 20
-23.4896129999999
 30
0.0
 10
-28.86827909933735
 20
-23.44594884611448
 30
0.0
 10
-28.78007573126695
 20
-23.3603107850564
 30
0.0
 10
-28.66915056342304
 20
-23.2168979361889
 30
0.0
 10
-28.57583121534106
 20
-23.06879145847055
 30
0.0
 10
-28.52925335984647
 20
-22.96417101817271
 30
0.0
 10
-28.50630822258557
 20
-22.91263299999991
 30
0.0
 11
-28.91325122258553
 21
-23.4896129999999
 31
0.0
 11
-28.78168322258551
 21
-23.35556699999992
 31
0.0
 11
-28.67025022258559
 21
-23.21350099999992
 31
0.0
 11
-28.57867922258554
 21
-23.0654089999999
 31
0.0
 11
-28.50630822258557
 21
-22.91263299999991
 31
0.0
  0
SPLINE
  5
C644
330
1F
100
AcDbEntity
  8
AM_0
100
AcDbSpline
210
0.0
220
0.0
230
1.0
 70
     8
 71
     3
 72
    11
 73
     7
 74
     5
 42
0.0000000001
 43
0.0000000001
 44
0.0000000001
 40
0.0
 40
0.0
 40
0.0
 40
0.0
 40
0.1063538860831127
 40
0.2126623405024164
 40
0.3189186526959999
 40
0.4251438830794365
 40
0.4251438830794365
 40
0.4251438830794365
 40
0.4251438830794365
 10
-32.06150722258559
 20
-22.9997109999999
 30
0.0
 10
-32.09546288565823
 20
-23.00990918244921
 30
0.0
 10
-32.16335970681149
 20
-23.03030119094477
 30
0.0
 10
-32.26399388931504
 20
-23.06462026630108
 30
0.0
 10
-32.36372932907139
 20
-23.10134261319025
 30
0.0
 10
-32.42927845425722
 20
-23.12818551325692
 30
0.0
 10
-32.46204822258556
 20
-23.14160499999991
 30
0.0
 11
-32.06150722258559
 21
-22.9997109999999
 31
0.0
 11
-32.16317622258549
 21
-23.0309289999999
 31
0.0
 11
-32.26386722258558
 21
-23.06502899999992
 31
0.0
 11
-32.36350722258549
 21
-23.1019379999999
 31
0.0
 11
-32.46204822258556
 21
-23.14160499999991
 31
0.0
  0
SPLINE
  5
C645
330
1F
100
AcDbEntity
  8
AM_0
100
AcDbSpline
210
0.0
220
0.0
230
1.0
 70
     8
 71
     3
 72
    11
 73
     7
 74
     5
 42
0.0000000001
 43
0.0000000001
 44
0.0000000001
 40
0.0
 40
0.0
 40
0.0
 40
0.0
 40
0.1716493280878577
 40
0.3433868301804772
 40
0.5151896878516409
 40
0.6870314006137662
 40
0.6870314006137662
 40
0.6870314006137662
 40
0.6870314006137662
 10
-29.2099552225855
 20
-23.2642119999999
 30
0.0
 10
-29.26061090200004
 20
-23.23757763093783
 30
0.0
 10
-29.36194828198613
 20
-23.18429521108822
 30
0.0
 10
-29.51903608519963
 20
-23.11465872136821
 30
0.0
 10
-29.67905242966116
 20
-23.05189647858776
 30
0.0
 10
-29.78815551293363
 20
-23.01691281136978
 30
0.0
 10
-29.84271322258559
 20
-22.9994189999999
 30
0.0
 11
-29.2099552225855
 21
-23.2642119999999
 31
0.0
 11
-29.36276322258555
 21
-23.18602499999991
 31
0.0
 11
-29.51949422258559
 21
-23.1158169999999
 31
0.0
 11
-29.67964222258553
 21
-23.05361699999991
 31
0.0
 11
-29.84271322258559
 21
-22.9994189999999
 31
0.0
  0
SPLINE
  5
C646
330
1F
100
AcDbEntity
  8
AM_0
100
AcDbSpline
210
0.0
220
0.0
230
1.0
 70
     8
 71
     3
 72
    11
 73
     7
 74
     5
 42
0.0000000001
 43
0.0000000001
 44
0.0000000001
 40
0.0
 40
0.0
 40
0.0
 40
0.0
 40
0.0835225920095844
 40
0.1688529133730786
 40
0.255820145920771
 40
0.3440428736613891
 40
0.3440428736613891
 40
0.3440428736613891
 40
0.3440428736613891
 10
-29.2099552225855
 20
-23.2642119999999
 30
0.0
 10
-29.21348168428444
 20
-23.23659505310049
 30
0.0
 10
-29.22061093299952
 20
-23.18076342922201
 30
0.0
 10
-29.23265430196276
 20
-23.09634207902258
 30
0.0
 10
-29.24564627012907
 20
-23.01047900747382
 30
0.0
 10
-29.25467733146251
 20
-22.95278482387863
 30
0.0
 10
-29.25922522258548
 20
-22.92373099999991
 30
0.0
 11
-29.2099552225855
 21
-23.2642119999999
 31
0.0
 11
-29.22073522258557
 21
-23.18138799999991
 31
0.0
 11
-29.2326952225855
 21
-23.09689999999992
 31
0.0
 11
-29.24565622258552
 21
-23.01090399999989
 31
0.0
 11
-29.25922522258548
 21
-22.92373099999991
 31
0.0
  0
SPLINE
  5
C647
330
1F
100
AcDbEntity
  8
AM_0
100
AcDbSpline
210
0.0
220
0.0
230
1.0
 70
     8
 71
     3
 72
    11
 73
     7
 74
     5
 42
0.0000000001
 43
0.0000000001
 44
0.0000000001
 40
0.0
 40
0.0
 40
0.0
 40
0.0
 40
0.1010308895387495
 40
0.1981837943847006
 40
0.290226361694586
 40
0.3753411587630402
 40
0.3753411587630402
 40
0.3753411587630402
 40
0.3753411587630402
 10
-26.81565122258558
 20
-23.60827499999988
 30
0.0
 10
-26.84774793180544
 20
-23.61847251292622
 30
0.0
 10
-26.91070934538393
 20
-23.63847611592582
 30
0.0
 10
-27.00242661736885
 20
-23.66924897735013
 30
0.0
 10
-27.08871620655706
 20
-23.69955034558888
 30
0.0
 10
-27.14358409002312
 20
-23.72139958803344
 30
0.0
 10
-27.16994522258556
 20
-23.73189699999989
 30
0.0
 11
-26.81565122258558
 21
-23.60827499999988
 31
0.0
 11
-26.91185522258553
 21
-23.6391299999999
 31
0.0
 11
-27.00396922258557
 21
-23.6700119999999
 31
0.0
 11
-27.09066322258553
 21
-23.70093099999991
 31
0.0
 11
-27.16994522258556
 21
-23.73189699999989
 31
0.0
  0
SPLINE
  5
C648
330
1F
100
AcDbEntity
  8
AM_0
100
AcDbSpline
210
0.0
220
0.0
230
1.0
 70
     8
 71
     3
 72
    11
 73
     7
 74
     5
 42
0.0000000001
 43
0.0000000001
 44
0.0000000001
 40
0.0
 40
0.0
 40
0.0
 40
0.0
 40
0.1206248609615136
 40
0.2959926160649522
 40
0.5285997222848904
 40
0.8197633186099578
 40
0.8197633186099578
 40
0.8197633186099578
 40
0.8197633186099578
 10
-27.16994522258556
 20
-23.73189699999989
 30
0.0
 10
-27.20811764693608
 20
-23.74465441788299
 30
0.0
 10
-27.30178619631294
 20
-23.77595892230567
 30
0.0
 10
-27.47555653272058
 20
-23.80765622805256
 30
0.0
 10
-27.70581023283771
 20
-23.8429123901523
 30
0.0
 10
-27.87937290895255
 20
-23.86224437143385
 30
0.0
 10
-27.97585622258549
 20
-23.8729909999999
 30
0.0
 11
-27.16994522258556
 21
-23.73189699999989
 31
0.0
 11
-27.28506622258549
 21
-23.76791799999989
 31
0.0
 11
-27.45678522258555
 21
-23.80350499999991
 31
0.0
 11
-27.68673522258558
 21
-23.8385629999999
 31
0.0
 11
-27.97585622258549
 21
-23.8729909999999
 31
0.0
  0
SPLINE
  5
C649
330
1F
100
AcDbEntity
  8
AM_0
100
AcDbSpline
210
0.0
220
0.0
230
1.0
 70
     8
 71
     3
 72
    11
 73
     7
 74
     5
 42
0.0000000001
 43
0.0000000001
 44
0.0000000001
 40
0.0
 40
0.0
 40
0.0
 40
0.0
 40
0.1485719490684083
 40
0.2908385968007909
 40
0.4271717320577516
 40
0.5582654448321871
 40
0.5582654448321871
 40
0.5582654448321871
 40
0.5582654448321871
 10
-27.98725522258547
 20
-22.90461799999991
 30
0.0
 10
-27.96169923405241
 20
-22.94712081903593
 30
0.0
 10
-27.91167183728326
 20
-23.03032266383922
 30
0.0
 10
-27.81997450631715
 20
-23.13984286116423
 30
0.0
 10
-27.72240493699445
 20
-23.23584689006529
 30
0.0
 10
-27.65108670550918
 20
-23.28947250743114
 30
0.0
 10
-27.61612622258559
 20
-23.31575999999989
 30
0.0
 11
-27.98725522258547
 21
-22.90461799999991
 31
0.0
 11
-27.90735022258553
 21
-23.02987299999989
 31
0.0
 11
-27.81699422258549
 21
-23.1397619999999
 31
0.0
 11
-27.71917422258553
 21
-23.23472499999991
 31
0.0
 11
-27.61612622258559
 21
-23.31575999999989
 31
0.0
  0
SPLINE
  5
C64A
330
1F
100
AcDbEntity
  8
AM_0
100
AcDbSpline
210
0.0
220
0.0
230
1.0
 70
     8
 71
     3
 72
    11
 73
     7
 74
     5
 42
0.0000000001
 43
0.0000000001
 44
0.0000000001
 40
0.0
 40
0.0
 40
0.0
 40
0.0
 40
0.2064228407614233
 40
0.4233361907840047
 40
0.6465176137788051
 40
0.869566763028409
 40
0.869566763028409
 40
0.869566763028409
 40
0.869566763028409
 10
-27.61585622258559
 20
-23.31591299999991
 30
0.0
 10
-27.56163386114784
 20
-23.35860471486298
 30
0.0
 10
-27.4504335314668
 20
-23.44615775832224
 30
0.0
 10
-27.25343281675964
 20
-23.53745527085747
 30
0.0
 10
-27.03913698930398
 20
-23.59765484252274
 30
0.0
 10
-26.89013175521648
 20
-23.60473564714919
 30
0.0
 10
-26.81565122258558
 20
-23.60827499999988
 30
0.0
 11
-27.61585622258559
 21
-23.31591299999991
 31
0.0
 11
-27.44895822258553
 21
-23.43738499999989
 31
0.0
 11
-27.25337122258548
 21
-23.53117799999989
 31
0.0
 11
-27.03789222258552
 21
-23.58930499999991
 31
0.0
 11
-26.81565122258558
 21
-23.60827499999988
 31
0.0
  0
SPLINE
  5
C64B
330
1F
100
AcDbEntity
  8
AM_0
100
AcDbSpline
210
0.0
220
0.0
230
1.0
 70
     8
 71
     3
 72
    11
 73
     7
 74
     5
 42
0.0000000001
 43
0.0000000001
 44
0.0000000001
 40
0.0
 40
0.0
 40
0.0
 40
0.0
 40
1.009632518250058
 40
2.020873149800227
 40
3.033526520388608
 40
4.047393822589929
 40
4.047393822589929
 40
4.047393822589929
 40
4.047393822589929
 10
-19.56445722258553
 20
-23.55775099999988
 30
0.0
 10
-19.89719780542008
 20
-23.60857140954976
 30
0.0
 10
-20.56320895060854
 20
-23.71029317391923
 30
0.0
 10
-21.56990989367208
 20
-23.8092874228575
 30
0.0
 10
-22.58088494793383
 20
-23.87261537499357
 30
0.0
 10
-23.25646690142322
 20
-23.8792351365356
 30
0.0
 10
-23.59446022258549
 20
-23.8825469999999
 30
0.0
 11
-19.56445722258553
 21
-23.55775099999988
 31
0.0
 11
-20.5638352225855
 21
-23.70128299999987
 31
0.0
 11
-21.5699182225855
 21
-23.8032859999999
 31
0.0
 11
-22.5807682225855
 21
-23.86369399999989
 31
0.0
 11
-23.59446022258549
 21
-23.8825469999999
 31
0.0
  0
SPLINE
  5
C64C
330
1F
100
AcDbEntity
  8
AM_0
100
AcDbSpline
210
0.0
220
0.0
230
1.0
 70
     8
 71
     3
 72
    11
 73
     7
 74
     5
 42
0.0000000001
 43
0.0000000001
 44
0.0000000001
 40
0.0
 40
0.0
 40
0.0
 40
0.0
 40
1.250575964140068
 40
2.815862943503617
 40
4.4939373558838
 40
6.045250235769758
 40
6.045250235769758
 40
6.045250235769758
 40
6.045250235769758
 10
-19.56445722258553
 20
-23.55775099999988
 30
0.0
 10
-19.15893331948724
 20
-23.46107860001933
 30
0.0
 10
-18.24583426418547
 20
-23.24340591433648
 30
0.0
 10
-16.80357733775142
 20
-22.83694124201905
 30
0.0
 10
-15.2803510963598
 20
-22.35220440157076
 30
0.0
 10
-14.26452527872302
 20
-21.99589951437493
 30
0.0
 10
-13.77654922258551
 20
-21.82473999999988
 30
0.0
 11
-19.56445722258553
 21
-23.55775099999988
 31
0.0
 11
-18.34973822258558
 21
-23.26043299999989
 31
0.0
 11
-16.84222422258557
 21
-22.83909599999986
 31
0.0
 11
-15.24281322258554
 21
-22.33133799999987
 31
0.0
 11
-13.77654922258551
 21
-21.82473999999988
 31
0.0
  0
ELLIPSE
  5
C64D
330
1F
100
AcDbEntity
  8
AM_0
100
AcDbEllipse
 10
-28.11310122258552
 20
0.0000000000001137
 30
0.0
 11
4.218989186207954
 21
22.988359614606
 31
0.0
210
0.0
220
0.0
230
1.0
 40
0.17343301599333
 41
2.159343832898249
 42
2.65147010635079
  0
ELLIPSE
  5
C64E
330
1F
100
AcDbEntity
  8
AM_0
100
AcDbEllipse
 10
-21.40928222258554
 20
0.0000000000001137
 30
0.0
 11
4.218989186207954
 21
22.988359614606
 31
0.0
210
0.0
220
0.0
230
1.0
 40
0.17343301599333
 41
2.22098621135795
 42
2.593875666844709
  0
ELLIPSE
  5
C64F
330
1F
100
AcDbEntity
  8
AM_0
100
AcDbEllipse
 10
-96.21917722258558
 20
-0.0000000000000568
 30
0.0
 11
132.5488945654429
 21
0.7316773295172619
 31
0.0
210
0.0
220
0.0
230
0.9999999999999998
 40
0.17343304022785
 41
5.20250966978965
 42
5.260106255450399
  0
ELLIPSE
  5
C650
330
1F
100
AcDbEntity
  8
AM_0
100
AcDbEllipse
 10
-65.98404222258555
 20
0.0
 30
0.0
 11
2.711410123519954
 21
22.99633469768
 31
0.0
210
0.0
220
0.0
230
1.0
 40
0.15145950040917
 41
3.159446044482039
 42
3.471593649225169
  0
ELLIPSE
  5
C651
330
1F
100
AcDbEntity
  8
AM_0
100
AcDbEllipse
 10
-56.8469032225856
 20
0.0000030000000493
 30
0.0
 11
-130.809963228434
 21
5.429590140198741
 31
0.0
210
0.0
220
0.0
230
1.0
 40
0.17085799679244
 41
1.496970095427419
 42
1.515840306775139
  0
ELLIPSE
  5
C652
330
1F
100
AcDbEntity
  8
AM_0
100
AcDbEllipse
 10
-26.47877122258552
 20
-0.0000239999998826
 30
0.0
 11
36.13755253175798
 21
9.149253343473072
 31
0.0
210
0.0
220
0.0
230
1.0
 40
0.58393261376582
 41
4.278774253228129
 42
4.28924199963483
  0
ELLIPSE
  5
C653
330
1F
100
AcDbEntity
  8
AM_0
100
AcDbEllipse
 10
-27.90974322258554
 20
-0.0000009999998838
 30
0.0
 11
8.723808700528953
 21
22.95640151623801
 31
0.0
210
0.0
220
0.0
230
0.9999999999999998
 40
0.1622546498777
 41
3.18913940208554
 42
3.20317504756144
  0
ELLIPSE
  5
C654
330
1F
100
AcDbEntity
  8
AM_0
100
AcDbEllipse
 10
-37.96717222258561
 20
0.0000000000000568
 30
0.0
 11
-8.695317530143045
 21
22.96671226251198
 31
0.0
210
0.0
220
0.0
230
0.9999999999999998
 40
0.14226325762782
 41
3.02299058624394
 42
3.08778110788042
  0
ELLIPSE
  5
C655
330
1F
100
AcDbEntity
  8
AM_0
100
AcDbEllipse
 10
-37.3832822225855
 20
0.0000210000000607
 30
0.0
 11
-12.20856084641204
 21
21.56791130028397
 31
0.0
210
0.0
220
0.0
230
1.0
 40
0.65438667392848
 41
2.85164189178649
 42
2.86683635105821
  0
ELLIPSE
  5
C656
330
1F
100
AcDbEntity
  8
AM_0
100
AcDbEllipse
 10
-35.97123822258558
 20
0.0000000000000853
 30
0.0
 11
132.5488945654429
 21
0.7316773295172619
 31
0.0
210
0.0
220
0.0
230
0.9999999999999998
 40
0.17343304022785
 41
4.76056044252632
 42
4.80262821788811
  0
ELLIPSE
  5
C657
330
1F
100
AcDbEntity
  8
AM_0
100
AcDbEllipse
 10
-65.98404222258555
 20
0.0
 30
0.0
 11
2.711410123519954
 21
22.99633469768
 31
0.0
210
0.0
220
0.0
230
1.0
 40
0.15145950040917
 41
2.59907640973093
 42
3.159446044482039
  0
ELLIPSE
  5
C658
330
1F
100
AcDbEntity
  8
AM_0
100
AcDbEllipse
 10
-61.40192322258562
 20
0.0000000000000284
 30
0.0
 11
2.711410123519954
 21
22.99633469768
 31
0.0
210
0.0
220
0.0
230
1.0
 40
0.15145950040917
 41
2.620070292611839
 42
3.159446044482039
  0
ELLIPSE
  5
C659
330
1F
100
AcDbEntity
  8
AM_0
100
AcDbEllipse
 10
-35.97123822258558
 20
0.0000010000000827
 30
0.0
 11
132.5488965654119
 21
0.7316773405572623
 31
0.0
210
0.0
220
0.0
230
0.9999999999999998
 40
0.17343304515527
 41
4.68056992547528
 42
4.705073536754089
  0
ELLIPSE
  5
C65A
330
1F
100
AcDbEntity
  8
AM_0
100
AcDbEllipse
 10
-37.96717122258562
 20
-0.0000019999999381
 30
0.0
 11
-8.695316821987043
 21
22.96671039207998
 31
0.0
210
0.0
220
0.0
230
1.0
 40
0.14226326921388
 41
3.087781112254429
 42
3.11304296472355
  0
ELLIPSE
  5
C65B
330
1F
100
AcDbEntity
  8
AM_0
100
AcDbEllipse
 10
-47.88887822258556
 20
-22.91772399999993
 30
0.0
 11
0.1400642395769984
 21
0.7876433258730003
 31
0.0
210
0.0
220
0.0
230
1.0
 40
0.8111599999999999
 41
3.14159308078168
 42
3.197638397695039
  0
ELLIPSE
  5
C65C
330
1F
100
AcDbEntity
  8
AM_0
100
AcDbEllipse
 10
-47.42917322258557
 20
-22.99947199999994
 30
0.0
 11
0.8515040898999998
 21
0.1047995893380017
 31
0.0
210
0.0
220
0.0
230
1.0
 40
0.9258330234786299
 41
4.391587717698349
 42
4.566119836393209
  0
ELLIPSE
  5
C65D
330
1F
100
AcDbEntity
  8
AM_0
100
AcDbEllipse
 10
-47.88887822258556
 20
-22.91772399999993
 30
0.0
 11
0.1400642395769984
 21
0.7876433258730003
 31
0.0
210
0.0
220
0.0
230
1.0
 40
0.8111599999999999
 41
1.817627451691899
 42
2.77687854932398
  0
ELLIPSE
  5
C65E
330
1F
100
AcDbEntity
  8
AM_0
100
AcDbEllipse
 10
-47.88887822258556
 20
-22.91772399999993
 30
0.0
 11
0.1400642395769984
 21
0.7876433258730003
 31
0.0
210
0.0
220
0.0
230
1.0
 40
0.8111599999999999
 41
2.859087205823369
 42
3.14159308078168
  0
ELLIPSE
  5
C65F
330
1F
100
AcDbEntity
  8
AM_0
100
AcDbEllipse
 10
-48.57376022258558
 20
-23.70163999999994
 30
0.0
 11
-0.710479597728
 21
0.0027706383579986
 31
0.0
210
0.0
220
0.0
230
1.0
 40
0.0297219504986
 41
3.136422998852859
 42
3.31095249026004
  0
ELLIPSE
  5
C660
330
1F
100
AcDbEntity
  8
AM_0
100
AcDbEllipse
 10
-34.12086422258556
 20
-18.39883899999992
 30
0.0
 11
-192.888200075759
 21
0.657298711625619
 31
0.0
210
0.0
220
0.0
230
1.0
 40
0.02828548516839
 41
1.525827286637239
 42
1.57077323659032
  0
ELLIPSE
  5
C661
330
1F
100
AcDbEntity
  8
AM_0
100
AcDbEllipse
 10
-48.57376022258558
 20
-23.70163999999994
 30
0.0
 11
-0.710479597728
 21
0.0027706383579986
 31
0.0
210
0.0
220
0.0
230
1.0
 40
0.0297219504986
 41
2.740306550398399
 42
3.136422998852859
  0
ELLIPSE
  5
C662
330
1F
100
AcDbEntity
  8
AM_0
100
AcDbEllipse
 10
-34.12086122258557
 20
-18.39884099999991
 30
0.0
 11
-192.888170075933
 21
0.6572986093956189
 31
0.0
210
0.0
220
0.0
230
1.0
 40
0.02828547919897
 41
1.60275597187387
 42
1.62549239958752
  0
ELLIPSE
  5
C663
330
1F
100
AcDbEntity
  8
AM_0
100
AcDbEllipse
 10
-36.79628922258558
 20
-22.4580809999999
 30
0.0
 11
0.0532205474069974
 21
1.298910148291
 31
0.0
210
0.0
220
0.0
230
0.9999999999999998
 40
0.7741
 41
3.18924174009368
 42
4.31395297479937
  0
ELLIPSE
  5
C664
330
1F
100
AcDbEntity
  8
AM_0
100
AcDbEllipse
 10
-25.13209122258558
 20
1.39732500000008
 30
0.0
 11
4.289467337053952
 21
24.121576854848
 31
0.0
210
0.0
220
0.0
230
1.0
 40
0.9848077551020399
 41
3.31612520641936
 42
3.76662833930592
  0
ELLIPSE
  5
C665
330
1F
100
AcDbEntity
  8
AM_0
100
AcDbEllipse
 10
-29.13543522258553
 20
-13.12006499999989
 30
0.0
 11
0.5252408984149942
 21
2.953662472022001
 31
0.0
210
0.0
220
0.0
230
1.0
 40
0.9848076666666699
 41
3.14159300537504
 42
4.03099303736477
  0
ELLIPSE
  5
C666
330
1F
100
AcDbEntity
  8
AM_0
100
AcDbEllipse
 10
-29.13543522258553
 20
-13.12006499999989
 30
0.0
 11
0.5252408984149942
 21
2.953662472022001
 31
0.0
210
0.0
220
0.0
230
1.0
 40
0.9848076666666699
 41
1.57079600496478
 42
3.14159300537504
  0
ARC
  5
C667
330
1F
100
AcDbEntity
  8
AM_0
100
AcDbCircle
 10
-184.0999762225855
 20
-25.4000000000002
 30
0.0
 40
5.60000009267466
100
AcDbArc
 50
5.122516014781527
 51
174.8774839852176
  0
LINE
  5
C66A
330
1F
100
AcDbEntity
  8
AM_0
100
AcDbLine
 10
-199.9999762225855
 20
-23.06149800000025
 30
0.0
 11
-199.9999762225855
 21
-12.15206600000021
 31
0.0
  0
LINE
  5
C66B
330
1F
100
AcDbEntity
  8
AM_0
100
AcDbLine
 10
-198.5176142225855
 20
-24.99335000000025
 30
0.0
 11
-198.5176142225855
 21
-15.50830600000023
 31
0.0
  0
LINE
  5
C66C
330
1F
100
AcDbEntity
  8
AM_0
100
AcDbLine
 10
-189.6776102225855
 20
-24.90000000000023
 30
0.0
 11
-189.6776102225855
 21
-15.35740900000021
 31
0.0
  0
LINE
  5
C66D
330
1F
100
AcDbEntity
  8
AM_0
100
AcDbLine
 10
-196.9999762225855
 20
-25.40000000000023
 30
0.0
 11
-196.9999762225855
 21
-16.15549400000023
 31
0.0
  0
LINE
  5
C66E
330
1F
100
AcDbEntity
  8
AM_0
100
AcDbLine
 10
-190.4699762225855
 20
-25.40000000000023
 30
0.0
 11
-190.4699762225855
 21
-16.15549400000023
 31
0.0
  0
LINE
  5
C66F
330
1F
100
AcDbEntity
  8
AM_0
100
AcDbLine
 10
-196.9999762225855
 20
-25.40000000000023
 30
0.0
 11
-190.4699762225855
 21
-25.40000000000023
 31
0.0
  0
ARC
  5
C670
330
1F
100
AcDbEntity
  8
AM_0
100
AcDbCircle
 10
-197.9999762225855
 20
-23.06149800000025
 30
0.0
 40
2.0
100
AcDbArc
 50
180.0
 51
255.0000050721315
  0
LINE
  5
C671
330
1F
100
AcDbEntity
  8
AM_0
100
AcDbLine
 10
-198.5176142225855
 20
-24.99335000000025
 30
0.0
 11
-196.9999762225855
 21
-25.40000000000023
 31
0.0
  0
LINE
  5
C672
330
1F
100
AcDbEntity
  8
AM_0
100
AcDbLine
 10
-190.4699762225855
 20
-24.90000000000023
 30
0.0
 11
-189.6776102225855
 21
-24.90000000000023
 31
0.0
  0
LINE
  5
C673
330
1F
100
AcDbEntity
  8
AM_0
100
AcDbLine
 10
-190.4699762225855
 20
-16.15549400000023
 30
0.0
 11
-196.9999762225855
 21
-16.15549400000023
 31
0.0
  0
LINE
  5
C674
330
1F
100
AcDbEntity
  8
AM_0
100
AcDbLine
 10
-189.6776102225855
 20
-15.35740900000021
 30
0.0
 11
-190.4699762225855
 21
-15.35740900000024
 31
0.0
  0
LINE
  5
C675
330
1F
100
AcDbEntity
  8
AM_0
100
AcDbLine
 10
-190.4699762225855
 20
-15.35740900000024
 30
0.0
 11
-190.4699762225855
 21
-16.15549400000023
 31
0.0
  0
ARC
  5
C676
330
1F
100
AcDbEntity
  8
AM_0
100
AcDbCircle
 10
-95.72914422258561
 20
-28.00000000000002
 30
0.0
 40
5.0
100
AcDbArc
 50
90.0
 51
148.6677526686942
  0
LINE
  5
C677
330
1F
100
AcDbEntity
  8
AM_0
100
AcDbLine
 10
-143.9699762225855
 20
-25.40000000000015
 30
0.0
 11
-99.99997622258554
 21
-25.40000000000006
 31
0.0
  0
LINE
  5
C678
330
1F
100
AcDbEntity
  8
AM_0
100
AcDbLine
 10
-167.5699762225855
 20
-25.40000000000017
 30
0.0
 11
-164.7699762225855
 21
-22.60000000000016
 31
0.0
  0
LINE
  5
C67A
330
1F
100
AcDbEntity
  8
AM_0
100
AcDbLine
 10
-177.7699762225855
 20
-15.35740900000019
 30
0.0
 11
-178.5223422225855
 21
-15.35740900000019
 31
0.0
  0
LINE
  5
C67B
330
1F
100
AcDbEntity
  8
AM_0
100
AcDbLine
 10
-178.5223422225855
 20
-24.9000000000002
 30
0.0
 11
-177.7699762225855
 21
-24.9000000000002
 31
0.0
  0
LINE
  5
C67C
330
1F
100
AcDbEntity
  8
AM_0
100
AcDbLine
 10
-178.5223422225855
 20
-15.35740900000019
 30
0.0
 11
-178.5223422225855
 21
-24.9000000000002
 31
0.0
  0
LINE
  5
C67D
330
1F
100
AcDbEntity
  8
AM_0
100
AcDbLine
 10
-177.7699762225855
 20
-25.4000000000002
 30
0.0
 11
-167.5699762225855
 21
-25.40000000000017
 31
0.0
  0
LINE
  5
C67E
330
1F
100
AcDbEntity
  8
AM_0
100
AcDbLine
 10
-164.7699762225855
 20
-22.60000000000016
 30
0.0
 11
-146.7699762225855
 21
-22.60000000000013
 31
0.0
  0
LINE
  5
C67F
330
1F
100
AcDbEntity
  8
AM_0
100
AcDbLine
 10
-146.7699762225855
 20
-22.60000000000013
 30
0.0
 11
-143.9699762225855
 21
-25.40000000000015
 31
0.0
  0
LINE
  5
C680
330
1F
100
AcDbEntity
  8
AM_0
100
AcDbLine
 10
-64.05072222258553
 20
-22.99999999999997
 30
0.0
 11
-40.06126022258553
 21
-22.99999999999994
 31
0.0
  0
LINE
  5
C681
330
1F
100
AcDbEntity
  8
AM_11
100
AcDbLine
 10
-25.00000000000028
 20
-24.99999999999988
 30
0.0
 11
-65.00000000000028
 21
-24.99999999999997
 31
0.0
1001
GENIUS_GENODEF_13
1002
{
1000
HIER
1070
     0
1002
}
1002
{
1000
MANEDIT
1070
     0
1002
}
1002
{
1000
NOSEL
1070
     0
1002
}
1002
{
1000
BEHIND
1070
     0
1002
}
1002
{
1000
REACTOR
1002
}
1001
GENIUS_GENOBJ-N-CEN_13
1002
{
1000
OWNER
1000
GEN
1002
}
  0
LINE
  5
C682
330
1F
100
AcDbEntity
  8
AM_0
100
AcDbLine
 10
-95.72914422258561
 20
-23.00000000000002
 30
0.0
 11
-68.63284022258557
 21
-23.0
 31
0.0
  0
LINE
  5
C683
330
1F
100
AcDbEntity
  8
AM_0
100
AcDbLine
 10
-67.12549122258548
 20
-18.05170699999996
 30
0.0
 11
-67.42050422258552
 21
-21.88856199999997
 31
0.0
  0
LINE
  5
C684
330
1F
100
AcDbEntity
  8
AM_0
100
AcDbLine
 10
-70.10438722258555
 20
-19.48233899999996
 30
0.0
 11
-68.96857222258558
 21
-18.00188299999996
 31
0.0
  0
LINE
  5
C685
330
1F
100
AcDbEntity
  8
AM_0
100
AcDbLine
 10
-27.42121822258553
 20
-23.0939219999999
 30
0.0
 11
-25.23136022258558
 21
-23.0913329999999
 31
0.0
  0
LINE
  5
C686
330
1F
100
AcDbEntity
  8
AM_0
100
AcDbLine
 10
-40.13232422258551
 20
-23.62402099999991
 30
0.0
 11
-48.25127622258555
 21
-23.63362099999994
 31
0.0
  0
LINE
  5
C687
330
1F
100
AcDbEntity
  8
AM_0
100
AcDbLine
 10
-47.74763522258552
 20
-23.11795699999993
 30
0.0
 11
-39.65365522258554
 21
-23.10838599999994
 31
0.0
  0
LINE
  5
C688
330
1F
100
AcDbEntity
  8
AM_0
100
AcDbLine
 10
-48.0289422225855
 20
-23.70536699999993
 30
0.0
 11
-47.60559922258557
 21
-23.78064899999992
 31
0.0
  0
LINE
  5
C689
330
1F
100
AcDbEntity
  8
AM_0
100
AcDbLine
 10
-47.98760122258551
 20
-23.68050999999994
 30
0.0
 11
-47.99293322258558
 21
-23.71049499999995
 31
0.0
  0
LINE
  5
C68A
330
1F
100
AcDbEntity
  8
AM_0
100
AcDbLine
 10
-47.91975722258558
 20
-23.71243899999996
 30
0.0
 11
-47.45728722258554
 21
-23.79467899999994
 31
0.0
  0
LINE
  5
C68B
330
1F
100
AcDbEntity
  8
AM_0
100
AcDbLine
 10
-47.45728722258554
 20
-23.79467899999994
 30
0.0
 11
-46.85459322258549
 21
-23.80257399999993
 31
0.0
  0
LINE
  5
C68C
330
1F
100
AcDbEntity
  8
AM_0
100
AcDbLine
 10
-48.25127622258555
 20
-23.63362099999994
 30
0.0
 11
-47.87343322258556
 21
-23.70081199999992
 31
0.0
  0
LINE
  5
C68D
330
1F
100
AcDbEntity
  8
AM_0
100
AcDbLine
 10
-47.74763522258552
 20
-23.11795699999993
 30
0.0
 11
-48.25127622258555
 21
-23.63362099999994
 31
0.0
  0
LINE
  5
C68E
330
1F
100
AcDbEntity
  8
AM_0
100
AcDbLine
 10
-48.25127622258555
 20
-23.63362099999994
 30
0.0
 11
-48.13860222258558
 21
-22.99999999999994
 31
0.0
  0
LINE
  5
C68F
330
1F
100
AcDbEntity
  8
AM_0
100
AcDbLine
 10
-47.72665922258551
 20
-22.99999999999994
 30
0.0
 11
-47.74763522258552
 21
-23.11795699999993
 31
0.0
  0
LINE
  5
C690
330
1F
100
AcDbEntity
  8
AM_0
100
AcDbLine
 10
-39.38439122258552
 20
-23.27402799999993
 30
0.0
 11
-39.65387522258555
 21
-23.10825099999993
 31
0.0
  0
LINE
  5
C691
330
1F
100
AcDbEntity
  8
AM_0
100
AcDbLine
 10
-39.6541192225855
 20
-23.10796599999992
 30
0.0
 11
-39.6259332225855
 21
-22.99977599999994
 31
0.0
  0
LINE
  5
C692
330
1F
100
AcDbEntity
  8
AM_0
100
AcDbLine
 10
-36.38778422258548
 20
-22.99999999999991
 30
0.0
 11
-29.46016222258555
 21
-22.99999999999991
 31
0.0
  0
LINE
  5
C693
330
1F
100
AcDbEntity
  8
AM_0
100
AcDbLine
 10
-29.39248722258554
 20
-22.92548999999991
 30
0.0
 11
-29.36865022258558
 21
-22.99266099999991
 31
0.0
  0
LINE
  5
C694
330
1F
100
AcDbEntity
  8
AM_0
100
AcDbLine
 10
-27.61624022258553
 20
-23.31589699999989
 30
0.0
 11
-27.42104222258552
 21
-23.0937219999999
 31
0.0
  0
LINE
  5
C695
330
1F
100
AcDbEntity
  8
AM_0
100
AcDbLine
 10
-32.71724422258552
 20
-23.0000479999999
 30
0.0
 11
-32.46204822258556
 21
-23.14160499999991
 31
0.0
  0
LINE
  5
C696
330
1F
100
AcDbEntity
  8
AM_0
100
AcDbLine
 10
-27.47038422258555
 20
-22.89617499999991
 30
0.0
 11
-27.42066922258556
 21
-23.09328999999991
 31
0.0
  0
ARC
  5
C697
330
1F
100
AcDbEntity
  8
AM_0
100
AcDbCircle
 10
-27.16467822258556
 20
-22.43249899999989
 30
0.0
 40
1.296072287983969
100
AcDbArc
 50
201.642415849924
 51
269.7677576708899
  0
LINE
  5
C698
330
1F
100
AcDbEntity
  8
AM_0
100
AcDbLine
 10
-33.77142122258564
 20
-12.15346499999992
 30
0.0
 11
-32.3722112225856
 21
-12.4022819999999
 31
0.0
  0
LINE
  5
C699
330
1F
100
AcDbEntity
  8
AM_0
100
AcDbLine
 10
-32.3722112225856
 20
-12.4022819999999
 30
0.0
 11
-33.71220222258552
 21
-19.93764099999992
 31
0.0
  0
LINE
  5
C69A
330
1F
100
AcDbEntity
  8
AM_0
100
AcDbLine
 10
-25.14790322258551
 20
-23.60630299999991
 30
0.0
 11
-23.59446022258549
 21
-23.8825469999999
 31
0.0
  0
LINE
  5
C69B
330
1F
100
AcDbEntity
  8
AM_0
100
AcDbLine
 10
-25.14790322258551
 20
-23.60630299999991
 30
0.0
 11
-25.23136022258558
 21
-23.0913329999999
 31
0.0
  0
LINE
  5
C69C
330
1F
100
AcDbEntity
  8
AM_0
100
AcDbLine
 10
-25.14790322258551
 20
-23.60630299999991
 30
0.0
 11
-26.81565122258558
 21
-23.60827499999988
 31
0.0
  0
LINE
  5
C69D
330
1F
100
AcDbEntity
  8
AM_0
100
AcDbLine
 10
-19.53147822258557
 20
-23.55117899999987
 30
0.0
 11
-19.56445722258553
 21
-23.55775099999988
 31
0.0
  0
LINE
  5
C69E
330
1F
100
AcDbEntity
  8
AM_0
100
AcDbLine
 10
-13.77654922258551
 20
-21.82473999999988
 30
0.0
 11
-13.81411722258559
 21
-21.83968299999986
 31
0.0
  0
ELLIPSE
  5
C69F
330
1F
100
AcDbEntity
  8
AM_0
100
AcDbEllipse
 10
-4.99576222258554
 20
3.102621000000141
 30
0.0
 11
-1.305513627360014
 21
7.954486522172997
 31
0.0
210
0.0
220
0.0
230
0.9999999999999998
 40
0.45727286023769
 41
2.069480254685569
 42
2.486296783191009
  0
ELLIPSE
  5
C6A0
330
1F
100
AcDbEntity
  8
AM_0
100
AcDbEllipse
 10
-23.91046422258551
 20
-2.586757999999917
 30
0.0
 11
-22.715644365768
 21
0.0920818576949551
 31
0.0
210
0.0
220
0.0
230
1.0
 40
0.6963642228188799
 41
2.60595845425293
 42
2.625401095372779
  0
SPLINE
  5
C6A1
330
1F
100
AcDbEntity
  8
AM_0
100
AcDbSpline
210
0.0
220
0.0
230
1.0
 70
     8
 71
     3
 72
    11
 73
     7
 74
     5
 42
0.0000000001
 43
0.0000000001
 44
0.0000000001
 40
0.0
 40
0.0
 40
0.0
 40
0.0
 40
2.970780090181182
 40
5.936943746046823
 40
8.895786540862715
 40
11.84538052870203
 40
11.84538052870203
 40
11.84538052870203
 40
11.84538052870203
 10
-43.5435672225856
 20
17.23874300000005
 30
0.0
 10
-43.43237595652027
 20
16.25140555498769
 30
0.0
 10
-43.21016620970546
 20
14.27826493485971
 30
0.0
 10
-42.1748628926546
 20
11.47528692759696
 30
0.0
 10
-40.67838183758293
 20
8.891352495424007
 30
0.0
 10
-39.27265727445764
 20
7.500621168598466
 30
0.0
 10
-38.57089522258559
 20
6.80634400000008
 30
0.0
 11
-43.5435672225856
 21
17.23874300000005
 31
0.0
 11
-43.09262622258564
 21
14.30238700000006
 31
0.0
 11
-42.09643322258557
 21
11.50851400000004
 31
0.0
 11
-40.57414822258556
 21
8.971311000000071
 31
0.0
 11
-38.57089522258559
 21
6.80634400000008
 31
0.0
  0
SPLINE
  5
C6A2
330
1F
100
AcDbEntity
  8
AM_0
100
AcDbSpline
210
0.0
220
0.0
230
1.0
 70
     8
 71
     3
 72
    11
 73
     7
 74
     5
 42
0.0000000001
 43
0.0000000001
 44
0.0000000001
 40
0.0
 40
0.0
 40
0.0
 40
0.0
 40
0.0478352155739419
 40
0.0950103388911257
 40
0.1414872061802144
 40
0.1870683510209944
 40
0.1870683510209944
 40
0.1870683510209944
 40
0.1870683510209944
 10
-43.5435672225856
 20
17.23874300000005
 30
0.0
 10
-43.5594697517534
 20
17.23757899290559
 30
0.0
 10
-43.59105536639588
 20
17.23526704119409
 30
0.0
 10
-43.63808848404366
 20
17.23177726269993
 30
0.0
 10
-43.68437010472857
 20
17.2283135494046
 30
0.0
 10
-43.71496808920693
 20
17.22599098363016
 30
0.0
 10
-43.73011822258561
 20
17.22484100000008
 30
0.0
 11
-43.5435672225856
 21
17.23874300000005
 31
0.0
 11
-43.59127422258566
 21
17.23524300000008
 31
0.0
 11
-43.63832022258558
 21
17.23175500000007
 31
0.0
 11
-43.68466722258566
 21
17.22828300000009
 31
0.0
 11
-43.73011822258561
 21
17.22484100000008
 31
0.0
  0
SPLINE
  5
C6A3
330
1F
100
AcDbEntity
  8
AM_0
100
AcDbSpline
210
0.0
220
0.0
230
1.0
 70
     8
 71
     3
 72
    11
 73
     7
 74
     5
 42
0.0000000001
 43
0.0000000001
 44
0.0000000001
 40
0.0
 40
0.0
 40
0.0
 40
0.0
 40
0.0657609878651793
 40
0.1315287892576726
 40
0.1973470913475867
 40
0.2631900328750734
 40
0.2631900328750734
 40
0.2631900328750734
 40
0.2631900328750734
 10
-43.5435672225856
 20
17.23874300000005
 30
0.0
 10
-43.56028346969624
 20
17.2529263813163
 30
0.0
 10
-43.59371769589585
 20
17.28129461349569
 30
0.0
 10
-43.64202358991398
 20
17.32597052051413
 30
0.0
 10
-43.68905819144289
 20
17.37202183601808
 30
0.0
 10
-43.7190836725217
 20
17.40403661489559
 30
0.0
 10
-43.73409922258557
 20
17.42004700000006
 30
0.0
 11
-43.5435672225856
 21
17.23874300000005
 31
0.0
 11
-43.59340622258563
 21
17.28164500000008
 31
0.0
 11
-43.64179622258567
 21
17.32618500000006
 31
0.0
 11
-43.68871722258567
 21
17.37234200000006
 31
0.0
 11
-43.73409922258557
 21
17.42004700000006
 31
0.0
  0
SPLINE
  5
C6A4
330
1F
100
AcDbEntity
  8
AM_0
100
AcDbSpline
210
0.0
220
0.0
230
1.0
 70
     8
 71
     3
 72
    11
 73
     7
 74
     5
 42
0.0000000001
 43
0.0000000001
 44
0.0000000001
 40
0.0
 40
0.0
 40
0.0
 40
0.0
 40
0.1490676036200298
 40
0.2979865305567607
 40
0.4467371416110085
 40
0.5953046539950511
 40
0.5953046539950511
 40
0.5953046539950511
 40
0.5953046539950511
 10
-43.91911722258569
 20
19.91671000000008
 30
0.0
 10
-43.8904186357814
 20
19.95730558863232
 30
0.0
 10
-43.83305008549939
 20
20.03845627676753
 30
0.0
 10
-43.73572598897697
 20
20.15140106889887
 30
0.0
 10
-43.63146045562339
 20
20.25774090347755
 30
0.0
 10
-43.5555447164286
 20
20.3215313959483
 30
0.0
 10
-43.51761022258566
 20
20.35340700000006
 30
0.0
 11
-43.91911722258569
 21
19.91671000000008
 31
0.0
 11
-43.83113222258558
 21
20.03704200000007
 31
0.0
 11
-43.73451222258566
 21
20.15036200000008
 31
0.0
 11
-43.62980422258559
 21
20.25601700000007
 31
0.0
 11
-43.51761022258566
 21
20.35340700000006
 31
0.0
  0
SPLINE
  5
C6A5
330
1F
100
AcDbEntity
  8
AM_0
100
AcDbSpline
210
0.0
220
0.0
230
1.0
 70
     8
 71
     3
 72
    11
 73
     7
 74
     5
 42
0.0000000001
 43
0.0000000001
 44
0.0000000001
 40
0.0
 40
0.0
 40
0.0
 40
0.0
 40
0.2766948058962916
 40
0.5533890502961412
 40
0.830083403491162
 40
1.106779435369102
 40
1.106779435369102
 40
1.106779435369102
 40
1.106779435369102
 10
-43.46500222258558
 20
21.45893400000005
 30
0.0
 10
-43.46961375621956
 20
21.36681773910987
 30
0.0
 10
-43.47883681412934
 20
21.18258540426091
 30
0.0
 10
-43.49215779386563
 20
20.90621165531359
 30
0.0
 10
-43.5051393752294
 20
20.62982134892007
 30
0.0
 10
-43.5134532650603
 20
20.44554530263755
 30
0.0
 10
-43.51761022258566
 20
20.35340700000006
 30
0.0
 11
-43.46500222258558
 21
21.45893400000005
 31
0.0
 11
-43.47875122258566
 21
21.18258100000008
 31
0.0
 11
-43.4921012225856
 21
20.90620900000007
 31
0.0
 11
-43.50505422258564
 21
20.62981800000005
 31
0.0
 11
-43.51761022258566
 21
20.35340700000006
 31
0.0
  0
SPLINE
  5
C6A6
330
1F
100
AcDbEntity
  8
AM_0
100
AcDbSpline
210
0.0
220
0.0
230
1.0
 70
     8
 71
     3
 72
    11
 73
     7
 74
     5
 42
0.0000000001
 43
0.0000000001
 44
0.0000000001
 40
0.0
 40
0.0
 40
0.0
 40
0.0
 40
0.1512063993619458
 40
0.357646346101915
 40
0.6275432486869838
 40
0.9464173959896442
 40
0.9464173959896442
 40
0.9464173959896442
 40
0.9464173959896442
 10
-44.29197822258564
 20
21.09540500000005
 30
0.0
 10
-44.26911393953931
 20
21.14153879034506
 30
0.0
 10
-44.21503337600319
 20
21.25065838857863
 30
0.0
 10
-44.01878410715144
 20
21.34962019780929
 30
0.0
 10
-43.76756279408975
 20
21.42818942387236
 30
0.0
 10
-43.57129788144485
 20
21.44813280749967
 30
0.0
 10
-43.46500222258558
 20
21.45893400000005
 30
0.0
 11
-44.29197822258564
 21
21.09540500000005
 31
0.0
 11
-44.21306022258559
 21
21.22438300000004
 31
0.0
 11
-44.0383432225856
 21
21.33434400000007
 31
0.0
 11
-43.78087922258558
 21
21.41531700000007
 31
0.0
 11
-43.46500222258558
 21
21.45893400000005
 31
0.0
  0
SPLINE
  5
C6A7
330
1F
100
AcDbEntity
  8
AM_0
100
AcDbSpline
210
0.0
220
0.0
230
1.0
 70
     8
 71
     3
 72
    11
 73
     7
 74
     5
 42
0.0000000001
 43
0.0000000001
 44
0.0000000001
 40
0.0
 40
0.0
 40
0.0
 40
0.0
 40
0.4124703721638723
 40
0.8249385077101386
 40
1.237406853133148
 40
1.649877070397382
 40
1.649877070397382
 40
1.649877070397382
 40
1.649877070397382
 10
-198.5176142225856
 20
15.50830599999977
 30
0.0
 10
-198.3913508529332
 20
15.56272211437822
 30
0.0
 10
-198.1388247982905
 20
15.67155404806413
 30
0.0
 10
-197.759568651032
 20
15.83371377663259
 30
0.0
 10
-197.3800035939656
 20
15.99514898860243
 30
0.0
 10
-197.1266522046694
 20
16.10204558201544
 30
0.0
 10
-196.9999762225855
 20
16.15549399999975
 30
0.0
 11
-198.5176142225856
 21
15.50830599999977
 31
0.0
 11
-198.1387462225855
 21
15.67137299999976
 31
0.0
 11
-197.7595172225855
 21
15.83359299999978
 31
0.0
 11
-197.3799272225855
 21
15.99496699999974
 31
0.0
 11
-196.9999762225855
 21
16.15549399999975
 31
0.0
  0
SPLINE
  5
C6A8
330
1F
100
AcDbEntity
  8
AM_0
100
AcDbSpline
210
0.0
220
0.0
230
1.0
 70
     8
 71
     3
 72
    11
 73
     7
 74
     5
 42
0.0000000001
 43
0.0000000001
 44
0.0000000001
 40
0.0
 40
0.0
 40
0.0
 40
0.0
 40
0.9542956284428363
 40
1.915674981406533
 40
2.879031040568456
 40
3.843052626116202
 40
3.843052626116202
 40
3.843052626116202
 40
3.843052626116202
 10
-198.5176142225856
 20
15.50830599999977
 30
0.0
 10
-198.7844499240459
 20
15.32474881308439
 30
0.0
 10
-199.3201020450431
 20
14.95627189654969
 30
0.0
 10
-199.729656957392
 20
14.05288442842493
 30
0.0
 10
-199.9641491453621
 20
13.11864207194817
 30
0.0
 10
-199.9880311146845
 20
12.47433218437212
 30
0.0
 10
-199.9999762225855
 20
12.15206599999976
 30
0.0
 11
-198.5176142225856
 21
15.50830599999977
 31
0.0
 11
-199.2528222225856
 21
14.89990699999975
 31
0.0
 11
-199.7000452225855
 21
14.04888299999976
 31
0.0
 11
-199.9309752225855
 21
13.11361499999975
 31
0.0
 11
-199.9999762225855
 21
12.15206599999976
 31
0.0
  0
SPLINE
  5
C6A9
330
1F
100
AcDbEntity
  8
AM_0
100
AcDbSpline
210
0.0
220
0.0
230
1.0
 70
     8
 71
     3
 72
    11
 73
     7
 74
     5
 42
0.0000000001
 43
0.0000000001
 44
0.0000000001
 40
0.0
 40
0.0
 40
0.0
 40
0.0
 40
0.175753294549511
 40
0.3530452570210302
 40
0.5318253464633046
 40
0.7120393020078219
 40
0.7120393020078219
 40
0.7120393020078219
 40
0.7120393020078219
 10
-7.565758222585543
 20
-1.226043999999859
 30
0.0
 10
-7.588757781685796
 20
-1.17216226803608
 30
0.0
 10
-7.634958254198878
 20
-1.063927085539788
 30
0.0
 10
-7.702137121064628
 20
-0.8998683190468049
 30
0.0
 10
-7.76823355899023
 20
-0.733769018036651
 30
0.0
 10
-7.810815309148543
 20
-0.6219352319498509
 30
0.0
 10
-7.832191222585549
 20
-0.5657949999998664
 30
0.0
 11
-7.565758222585543
 21
-1.226043999999859
 31
0.0
 11
-7.634359222585601
 21
-1.064231999999861
 31
0.0
 11
-7.701678222585599
 21
-0.9002179999998531
 31
0.0
 11
-7.767644222585488
 21
-0.7340529999998467
 31
0.0
 11
-7.832191222585549
 21
-0.5657949999998664
 31
0.0
  0
SPLINE
  5
C6AA
330
1F
100
AcDbEntity
  8
AM_0
100
AcDbSpline
210
0.0
220
0.0
230
1.0
 70
     8
 71
     3
 72
    11
 73
     7
 74
     5
 42
0.0000000001
 43
0.0000000001
 44
0.0000000001
 40
0.0
 40
0.0
 40
0.0
 40
0.0
 40
1.655651656237131
 40
3.30948898845578
 40
4.959745641286753
 40
6.603485597380198
 40
6.603485597380198
 40
6.603485597380198
 40
6.603485597380198
 10
-29.42278122258562
 20
3.47320900000011
 30
0.0
 10
-29.96358110570469
 20
3.586081587373558
 30
0.0
 10
-31.04458824352763
 20
3.811703072185116
 30
0.0
 10
-32.60676104502211
 20
4.364836202848232
 30
0.0
 10
-34.10985530457832
 20
5.052470567601855
 30
0.0
 10
-35.04202130186621
 20
5.634674124428883
 30
0.0
 10
-35.50718222258558
 20
5.925200000000074
 30
0.0
 11
-29.42278122258562
 21
3.47320900000011
 31
0.0
 11
-31.03551622258555
 21
3.84773300000009
 31
0.0
 11
-32.59863222258559
 21
4.387961000000075
 31
0.0
 11
-34.09463922258555
 21
5.084603000000072
 31
0.0
 11
-35.50718222258558
 21
5.925200000000074
 31
0.0
  0
SPLINE
  5
C6AB
330
1F
100
AcDbEntity
  8
AM_0
100
AcDbSpline
210
0.0
220
0.0
230
1.0
 70
     8
 71
     3
 72
    11
 73
     7
 74
     5
 42
0.0000000001
 43
0.0000000001
 44
0.0000000001
 40
0.0
 40
0.0
 40
0.0
 40
0.0
 40
0.029068986119226
 40
0.0571544173069541
 40
0.0847562581332281
 40
0.112375986227485
 40
0.112375986227485
 40
0.112375986227485
 40
0.112375986227485
 10
-44.28200322258558
 20
20.98496000000005
 30
0.0
 10
-44.2851783327661
 20
20.99413327630745
 30
0.0
 10
-44.29142112264218
 20
21.01216944929243
 30
0.0
 10
-44.2957925867617
 20
21.04020675868059
 30
0.0
 10
-44.29644696068297
 20
21.06810147794139
 30
0.0
 10
-44.29346812358455
 20
21.08630186083576
 30
0.0
 10
-44.29197822258564
 20
21.09540500000005
 30
0.0
 11
-44.28200322258558
 21
20.98496000000005
 31
0.0
 11
-44.29067622258563
 21
21.01270500000004
 31
0.0
 11
-44.29519822258558
 21
21.04042400000005
 31
0.0
 11
-44.2955942225856
 21
21.06802300000004
 31
0.0
 11
-44.29197822258564
 21
21.09540500000005
 31
0.0
  0
SPLINE
  5
C6AC
330
1F
100
AcDbEntity
  8
AM_0
100
AcDbSpline
210
0.0
220
0.0
230
1.0
 70
     8
 71
     3
 72
    11
 73
     7
 74
     5
 42
0.0000000001
 43
0.0000000001
 44
0.0000000001
 40
0.0
 40
0.0
 40
0.0
 40
0.0
 40
1.31739384812782
 40
2.634821081883763
 40
3.951326732188423
 40
5.264359836707106
 40
5.264359836707106
 40
5.264359836707106
 40
5.264359836707106
 10
-59.65567322258562
 20
1.161865000000034
 30
0.0
 10
-60.09758486057837
 20
1.161869091588391
 30
0.0
 10
-60.98141933556681
 20
1.161877274868794
 30
0.0
 10
-62.24473867746971
 20
1.598832909708839
 30
0.0
 10
-63.37961280215525
 20
2.295457863446682
 30
0.0
 10
-63.96010594715853
 20
2.958221701183396
 30
0.0
 10
-64.24996922258561
 20
3.289166000000022
 30
0.0
 11
-59.65567322258562
 21
1.161865000000034
 31
0.0
 11
-60.97105122258563
 21
1.234716000000048
 31
0.0
 11
-62.22382222258556
 21
1.642367000000035
 31
0.0
 11
-63.33660022258562
 21
2.345867000000026
 31
0.0
 11
-64.24996922258561
 21
3.289166000000022
 31
0.0
  0
SPLINE
  5
C6AD
330
1F
100
AcDbEntity
  8
AM_0
100
AcDbSpline
210
0.0
220
0.0
230
1.0
 70
     8
 71
     3
 72
    11
 73
     7
 74
     5
 42
0.0000000001
 43
0.0000000001
 44
0.0000000001
 40
0.0
 40
0.0
 40
0.0
 40
0.0
 40
0.0472413083328436
 40
0.0944687424892715
 40
0.1416861721736848
 40
0.1888960871492178
 40
0.1888960871492178
 40
0.1888960871492178
 40
0.1888960871492178
 10
-64.24996922258561
 20
3.289166000000022
 30
0.0
 10
-64.25952522193549
 20
3.301682275693649
 30
0.0
 10
-64.27863441415877
 20
3.326711151208596
 30
0.0
 10
-64.30690494838528
 20
3.36454489153437
 30
0.0
 10
-64.33490696555416
 20
3.402564812766552
 30
0.0
 10
-64.35330829171269
 20
3.428101615011403
 30
0.0
 10
-64.36250822258557
 20
3.44086900000002
 30
0.0
 11
-64.24996922258561
 21
3.289166000000022
 31
0.0
 11
-64.27857222258558
 21
3.326764000000025
 31
0.0
 11
-64.30686322258555
 21
3.364580000000046
 31
0.0
 11
-64.33484222258562
 21
3.402615000000025
 31
0.0
 11
-64.36250822258557
 21
3.44086900000002
 31
0.0
  0
SPLINE
  5
C6AE
330
1F
100
AcDbEntity
  8
AM_0
100
AcDbSpline
210
0.0
220
0.0
230
1.0
 70
     8
 71
     3
 72
    11
 73
     7
 74
     5
 42
0.0000000001
 43
0.0000000001
 44
0.0000000001
 40
0.0
 40
0.0
 40
0.0
 40
0.0
 40
1.06462543875533
 40
2.076374068984263
 40
3.028909614288949
 40
3.915538557496364
 40
3.915538557496364
 40
3.915538557496364
 40
3.915538557496364
 10
-39.24986522258564
 20
7.062124000000068
 30
0.0
 10
-38.9177988914105
 20
6.936793205611609
 30
0.0
 10
-38.27015898526578
 20
6.692356428093274
 30
0.0
 10
-37.30830210039934
 20
6.384382826084275
 30
0.0
 10
-36.39368446320235
 20
6.125038696045345
 30
0.0
 10
-35.7955380956325
 20
5.990202274136011
 30
0.0
 10
-35.50718222258558
 20
5.925200000000074
 30
0.0
 11
-39.24986522258564
 21
7.062124000000068
 31
0.0
 11
-38.25058222258565
 21
6.694890000000071
 31
0.0
 11
-37.28780122258558
 21
6.383943000000073
 31
0.0
 11
-36.37036422258563
 21
6.127753000000097
 31
0.0
 11
-35.50718222258558
 21
5.925200000000074
 31
0.0
  0
SPLINE
  5
C6AF
330
1F
100
AcDbEntity
  8
AM_0
100
AcDbSpline
210
0.0
220
0.0
230
1.0
 70
     8
 71
     3
 72
    11
 73
     7
 74
     5
 42
0.0000000001
 43
0.0000000001
 44
0.0000000001
 40
0.0
 40
0.0
 40
0.0
 40
0.0
 40
1.338500816049438
 40
2.693938222957199
 40
4.058300099708823
 40
5.42628073421786
 40
5.42628073421786
 40
5.42628073421786
 40
5.42628073421786
 10
-35.50718222258558
 20
5.925200000000074
 30
0.0
 10
-35.67928547736231
 20
5.509895513735837
 30
0.0
 10
-36.0256696788354
 20
4.674031525983505
 30
0.0
 10
-36.97782501110794
 20
3.676698160583408
 30
0.0
 10
-38.17115816837684
 20
2.964461413524966
 30
0.0
 10
-39.07724352657628
 20
2.816783666758373
 30
0.0
 10
-39.53088622258553
 20
2.742847000000068
 30
0.0
 11
-35.50718222258558
 21
5.925200000000074
 31
0.0
 11
-36.09401322258566
 21
4.722198000000105
 31
0.0
 11
-37.01444222258555
 21
3.727200000000095
 31
0.0
 11
-38.19714022258563
 21
3.046973000000065
 31
0.0
 11
-39.53088622258553
 21
2.742847000000068
 31
0.0
  0
SPLINE
  5
C6B0
330
1F
100
AcDbEntity
  8
AM_0
100
AcDbSpline
210
0.0
220
0.0
230
1.0
 70
     8
 71
     3
 72
    11
 73
     7
 74
     5
 42
0.0000000001
 43
0.0000000001
 44
0.0000000001
 40
0.0
 40
0.0
 40
0.0
 40
0.0
 40
0.3053395429829767
 40
0.6121566859263873
 40
0.9168769234902907
 40
1.217077929039922
 40
1.217077929039922
 40
1.217077929039922
 40
1.217077929039922
 10
-46.35082622258562
 20
8.273903000000075
 30
0.0
 10
-46.25031413961219
 20
8.296792141880477
 30
0.0
 10
-46.04880357531557
 20
8.342681190839941
 30
0.0
 10
-45.80753699039135
 20
8.545587566906347
 30
0.0
 10
-45.64942372026997
 20
8.81698860246742
 30
0.0
 10
-45.64180441443419
 20
9.021228143545441
 30
0.0
 10
-45.63802322258561
 20
9.122585000000071
 30
0.0
 11
-46.35082622258562
 21
8.273903000000075
 31
0.0
 11
-46.05934822258553
 21
8.364858000000054
 31
0.0
 11
-45.82079622258561
 21
8.557808000000051
 31
0.0
 11
-45.67332622258561
 21
8.824467000000055
 31
0.0
 11
-45.63802322258561
 21
9.122585000000071
 31
0.0
  0
SPLINE
  5
C6B1
330
1F
100
AcDbEntity
  8
AM_0
100
AcDbSpline
210
0.0
220
0.0
230
1.0
 70
     8
 71
     3
 72
    11
 73
     7
 74
     5
 42
0.0000000001
 43
0.0000000001
 44
0.0000000001
 40
0.0
 40
0.0
 40
0.0
 40
0.0
 40
0.2958702597102258
 40
0.5900931962889477
 40
0.8863958849334771
 40
1.187555492850946
 40
1.187555492850946
 40
1.187555492850946
 40
1.187555492850946
 10
-58.11042022258561
 20
7.686200000000042
 30
0.0
 10
-58.0916372403258
 20
7.587897700715833
 30
0.0
 10
-58.05417585421558
 20
7.391840421947822
 30
0.0
 10
-57.85625782065756
 20
7.157523816287827
 30
0.0
 10
-57.58444617951937
 20
7.013003477413787
 30
0.0
 10
-57.38253999006966
 20
7.014433949583545
 30
0.0
 10
-57.28076622258561
 20
7.015155000000049
 30
0.0
 11
-58.11042022258561
 21
7.686200000000042
 31
0.0
 11
-58.0303652225856
 21
7.401366000000052
 31
0.0
 11
-57.84476822258557
 21
7.173066000000062
 31
0.0
 11
-57.58106122258562
 21
7.037959000000057
 31
0.0
 11
-57.28076622258561
 21
7.015155000000049
 31
0.0
  0
SPLINE
  5
C6B2
330
1F
100
AcDbEntity
  8
AM_0
100
AcDbSpline
210
0.0
220
0.0
230
1.0
 70
     8
 71
     3
 72
    11
 73
     7
 74
     5
 42
0.0000000001
 43
0.0000000001
 44
0.0000000001
 40
0.0
 40
0.0
 40
0.0
 40
0.0
 40
0.0320077753835348
 40
0.0640515680584982
 40
0.0961847960321005
 40
0.1284563891132715
 40
0.1284563891132715
 40
0.1284563891132715
 40
0.1284563891132715
 10
-47.16744022258561
 20
20.56704900000005
 30
0.0
 10
-47.17810517854897
 20
20.56740431164129
 30
0.0
 10
-47.19944709139805
 20
20.56811533474421
 30
0.0
 10
-47.23151459572915
 20
20.56752974894997
 30
0.0
 10
-47.26363053529264
 20
20.56583762730127
 30
0.0
 10
-47.28498703296569
 20
20.56361879805266
 30
0.0
 10
-47.29568822258559
 20
20.56250700000004
 30
0.0
 11
-47.16744022258561
 21
20.56704900000005
 31
0.0
 11
-47.19943822258565
 21
20.56784000000004
 31
0.0
 11
-47.23147822258559
 21
20.56734700000004
 31
0.0
 11
-47.26356222258565
 21
20.56556900000003
 31
0.0
 11
-47.29568822258559
 21
20.56250700000004
 31
0.0
  0
SPLINE
  5
C6B3
330
1F
100
AcDbEntity
  8
AM_0
100
AcDbSpline
210
0.0
220
0.0
230
1.0
 70
     8
 71
     3
 72
    11
 73
     7
 74
     5
 42
0.0000000001
 43
0.0000000001
 44
0.0000000001
 40
0.0
 40
0.0
 40
0.0
 40
0.0
 40
0.2652673468182713
 40
0.5287023674305992
 40
0.7933466539077414
 40
1.061330518879073
 40
1.061330518879073
 40
1.061330518879073
 40
1.061330518879073
 10
-46.46603522258558
 20
19.89146300000004
 30
0.0
 10
-46.48177450840705
 20
19.97953379196258
 30
0.0
 10
-46.51314436140736
 20
20.15506702954566
 30
0.0
 10
-46.67456992465124
 20
20.3744114314818
 30
0.0
 10
-46.90022771865692
 20
20.52839382276738
 30
0.0
 10
-47.07799784837331
 20
20.55411019370747
 30
0.0
 10
-47.16744022258561
 20
20.56704900000005
 30
0.0
 11
-46.46603522258558
 21
19.89146300000004
 31
0.0
 11
-46.53243722258562
 21
20.14828500000004
 31
0.0
 11
-46.68483622258569
 21
20.36316300000004
 31
0.0
 11
-46.90589422258566
 21
20.50866200000007
 31
0.0
 11
-47.16744022258561
 21
20.56704900000005
 31
0.0
  0
SPLINE
  5
C6B4
330
1F
100
AcDbEntity
  8
AM_0
100
AcDbSpline
210
0.0
220
0.0
230
1.0
 70
     8
 71
     3
 72
    11
 73
     7
 74
     5
 42
0.0000000001
 43
0.0000000001
 44
0.0000000001
 40
0.0
 40
0.0
 40
0.0
 40
0.0
 40
0.1126158052184788
 40
0.2246615831531844
 40
0.3360692752844207
 40
0.4467998471288683
 40
0.4467998471288683
 40
0.4467998471288683
 40
0.4467998471288683
 10
-58.84636622258565
 20
18.88646500000004
 30
0.0
 10
-58.86287938941673
 20
18.85267308167525
 30
0.0
 10
-58.89582213840251
 20
18.78526028953741
 30
0.0
 10
-58.92595801489283
 20
18.67684996670711
 30
0.0
 10
-58.94240463499341
 20
18.56617405411896
 30
0.0
 10
-58.93975299915565
 20
18.4920340203306
 30
0.0
 10
-58.93843122258559
 20
18.45507700000001
 30
0.0
 11
-58.84636622258565
 21
18.88646500000004
 31
0.0
 11
-58.89269022258568
 21
18.78381800000002
 31
0.0
 11
-58.92374222258561
 21
18.67616100000003
 31
0.0
 11
-58.9390212225857
 21
18.565806
 31
0.0
 11
-58.93843122258559
 21
18.45507700000001
 31
0.0
  0
SPLINE
  5
C6B5
330
1F
100
AcDbEntity
  8
AM_0
100
AcDbSpline
210
0.0
220
0.0
230
1.0
 70
     8
 71
     3
 72
    11
 73
     7
 74
     5
 42
0.0000000001
 43
0.0000000001
 44
0.0000000001
 40
0.0
 40
0.0
 40
0.0
 40
0.0
 40
0.1931423035303611
 40
0.3873918396430653
 40
0.5818685574783878
 40
0.7755967190269991
 40
0.7755967190269991
 40
0.7755967190269991
 40
0.7755967190269991
 10
-58.22562822258558
 20
19.30375900000004
 30
0.0
 10
-58.28927042827633
 20
19.29201282811709
 30
0.0
 10
-58.41691968320822
 20
19.26845314672507
 30
0.0
 10
-58.59058592312369
 20
19.17687350260028
 30
0.0
 10
-58.74175184318473
 20
19.05108138308185
 30
0.0
 10
-58.81153961889183
 20
18.94126654418477
 30
0.0
 10
-58.84636622258565
 20
18.88646500000004
 30
0.0
 11
-58.22562822258558
 21
19.30375900000004
 31
0.0
 11
-58.41356522258561
 21
19.25922100000002
 31
0.0
 11
-58.58673922258564
 21
19.17122300000005
 31
0.0
 11
-58.7341752225856
 21
19.04440100000002
 31
0.0
 11
-58.84636622258565
 21
18.88646500000004
 31
0.0
  0
SPLINE
  5
C6B6
330
1F
100
AcDbEntity
  8
AM_0
100
AcDbSpline
210
0.0
220
0.0
230
1.0
 70
     8
 71
     3
 72
    11
 73
     7
 74
     5
 42
0.0000000001
 43
0.0000000001
 44
0.0000000001
 40
0.0
 40
0.0
 40
0.0
 40
0.0
 40
0.2746223990373084
 40
0.5490217937469292
 40
0.8232001506042861
 40
1.097155319644759
 40
1.097155319644759
 40
1.097155319644759
 40
1.097155319644759
 10
-4.136766222585549
 20
-1.382644999999854
 30
0.0
 10
-4.226702169042766
 20
-1.365579140808663
 30
0.0
 10
-4.40650103038605
 20
-1.331461280583769
 30
0.0
 10
-4.676085388935193
 20
-1.280278652970095
 30
0.0
 10
-4.945447929350058
 20
-1.229120072250114
 30
0.0
 10
-5.124947154208385
 20
-1.195011394650892
 30
0.0
 10
-5.214660222585564
 20
-1.17796399999986
 30
0.0
 11
-4.136766222585549
 21
-1.382644999999854
 31
0.0
 11
-4.406573222585564
 21
-1.331442999999865
 31
0.0
 11
-4.676157222585572
 21
-1.280261999999851
 31
0.0
 11
-4.945520222585571
 21
-1.229101999999841
 31
0.0
 11
-5.214660222585564
 21
-1.17796399999986
 31
0.0
  0
SPLINE
  5
C6B7
330
1F
100
AcDbEntity
  8
AM_0
100
AcDbSpline
210
0.0
220
0.0
230
1.0
 70
     8
 71
     3
 72
    11
 73
     7
 74
     5
 42
0.0000000001
 43
0.0000000001
 44
0.0000000001
 40
0.0
 40
0.0
 40
0.0
 40
0.0
 40
0.4406685135802298
 40
0.8782991358417611
 40
1.311436480956443
 40
1.739621350442738
 40
1.739621350442738
 40
1.739621350442738
 40
1.739621350442738
 10
-7.212241222585589
 20
6.320079000000134
 30
0.0
 10
-7.149531818722046
 20
6.453193785330457
 30
0.0
 10
-7.024545318608792
 20
6.718505686045816
 30
0.0
 10
-6.909302252188346
 20
7.142005503765844
 30
0.0
 10
-6.843405696633634
 20
7.571504984037177
 30
0.0
 10
-6.846885383162983
 20
7.859032074125006
 30
0.0
 10
-6.848615222585635
 20
8.001969000000144
 30
0.0
 11
-7.212241222585589
 21
6.320079000000134
 31
0.0
 11
-7.036147222585555
 21
6.724034000000131
 31
0.0
 11
-6.917077222585589
 21
7.145155000000158
 31
0.0
 11
-6.85508422258556
 21
7.573833000000149
 31
0.0
 11
-6.848615222585635
 21
8.001969000000144
 31
0.0
  0
SPLINE
  5
C6B8
330
1F
100
AcDbEntity
  8
AM_0
100
AcDbSpline
210
0.0
220
0.0
230
1.0
 70
     8
 71
     3
 72
    11
 73
     7
 74
     5
 42
0.0000000001
 43
0.0000000001
 44
0.0000000001
 40
0.0
 40
0.0
 40
0.0
 40
0.0
 40
0.2449495215447413
 40
0.4903045946551155
 40
0.7358746274400759
 40
0.9814735180910593
 40
0.9814735180910593
 40
0.9814735180910593
 40
0.9814735180910593
 10
-7.684001222585607
 20
5.459502000000156
 30
0.0
 10
-7.643432013032201
 20
5.530360896070215
 30
0.0
 10
-7.562226425366141
 20
5.67219600599915
 30
0.0
 10
-7.443323233445957
 20
5.886749113243355
 30
0.0
 10
-7.326304760693245
 20
6.102582073382158
 30
0.0
 10
-7.250263891175808
 20
6.247577184806737
 30
0.0
 10
-7.212241222585589
 20
6.320079000000134
 30
0.0
 11
-7.684001222585607
 21
5.459502000000156
 31
0.0
 11
-7.562788222585595
 21
5.672358000000144
 31
0.0
 11
-7.443689222585589
 21
5.886868000000134
 31
0.0
 11
-7.326808222585555
 21
6.10283900000013
 31
0.0
 11
-7.212241222585589
 21
6.320079000000134
 31
0.0
  0
SPLINE
  5
C6B9
330
1F
100
AcDbEntity
  8
AM_0
100
AcDbSpline
210
0.0
220
0.0
230
1.0
 70
     8
 71
     3
 72
    11
 73
     7
 74
     5
 42
0.0000000001
 43
0.0000000001
 44
0.0000000001
 40
0.0
 40
0.0
 40
0.0
 40
0.0
 40
1.371771527378016
 40
2.740198513584479
 40
4.121007624210852
 40
5.519215975952831
 40
5.519215975952831
 40
5.519215975952831
 40
5.519215975952831
 10
-9.483307222585665
 20
18.80060500000013
 30
0.0
 10
-9.421933825482522
 20
18.34175002281298
 30
0.0
 10
-9.299336666874694
 20
17.42515881112457
 30
0.0
 10
-8.464187094419976
 20
16.26485463243469
 30
0.0
 10
-7.234485114431666
 20
15.54317275792084
 30
0.0
 10
-6.306390099988241
 20
15.43652149809136
 30
0.0
 10
-5.839437222585672
 20
15.38286200000015
 30
0.0
 11
-9.483307222585665
 21
18.80060500000013
 31
0.0
 11
-9.190742222585697
 21
17.46039500000011
 31
0.0
 11
-8.402779222585593
 21
16.34159800000014
 31
0.0
 11
-7.213937222585684
 21
15.63925300000013
 31
0.0
 11
-5.839437222585672
 21
15.38286200000015
 31
0.0
  0
SPLINE
  5
C6BA
330
1F
100
AcDbEntity
  8
AM_0
100
AcDbSpline
210
0.0
220
0.0
230
1.0
 70
     8
 71
     3
 72
    11
 73
     7
 74
     5
 42
0.0000000001
 43
0.0000000001
 44
0.0000000001
 40
0.0
 40
0.0
 40
0.0
 40
0.0
 40
0.0949114711402217
 40
0.1930385525499845
 40
0.2949221747274603
 40
0.4013699834273003
 40
0.4013699834273003
 40
0.4013699834273003
 40
0.4013699834273003
 10
-9.483307222585665
 20
18.80060500000013
 30
0.0
 10
-9.495097349912366
 20
18.82997649304527
 30
0.0
 10
-9.519077055275525
 20
18.88971458829921
 30
0.0
 10
-9.562630923016786
 20
18.97790094556037
 30
0.0
 10
-9.613216968484534
 20
19.06692257112815
 30
0.0
 10
-9.655765747479366
 20
19.12191327286406
 30
0.0
 10
-9.677506222585691
 20
19.15001100000012
 30
0.0
 11
-9.483307222585665
 21
18.80060500000013
 31
0.0
 11
-9.519772222585686
 21
18.88823200000013
 31
0.0
 11
-9.562913222585677
 21
18.97636700000012
 31
0.0
 11
-9.614415222585705
 21
19.06427500000012
 31
0.0
 11
-9.677506222585691
 21
19.15001100000012
 31
0.0
  0
SPLINE
  5
C6BB
330
1F
100
AcDbEntity
  8
AM_0
100
AcDbSpline
210
0.0
220
0.0
230
1.0
 70
     8
 71
     3
 72
    11
 73
     7
 74
     5
 42
0.0000000001
 43
0.0000000001
 44
0.0000000001
 40
0.0
 40
0.0
 40
0.0
 40
0.0
 40
1.322604798784574
 40
2.699296985967326
 40
3.963428566708799
 40
4.997318247905489
 40
4.997318247905489
 40
4.997318247905489
 40
4.997318247905489
 10
-5.839437222585672
 20
15.38286200000015
 30
0.0
 10
-6.150345935659958
 20
15.69544898574655
 30
0.0
 10
-6.784877847901336
 20
16.33340607561438
 30
0.0
 10
-7.739421207833995
 20
17.2470186920576
 30
0.0
 10
-8.6449537852037
 20
18.07209255211471
 30
0.0
 10
-9.223166725766295
 20
18.57454808691127
 30
0.0
 10
-9.483307222585665
 20
18.80060500000013
 30
0.0
 11
-5.839437222585672
 21
15.38286200000015
 31
0.0
 11
-6.775899222585678
 21
16.31684400000014
 31
0.0
 11
-7.770538222585685
 21
17.26867100000015
 31
0.0
 11
-8.705300222585663
 21
18.11969900000013
 31
0.0
 11
-9.483307222585665
 21
18.80060500000013
 31
0.0
  0
SPLINE
  5
C6BC
330
1F
100
AcDbEntity
  8
AM_0
100
AcDbSpline
210
0.0
220
0.0
230
1.0
 70
     8
 71
     3
 72
    11
 73
     7
 74
     5
 42
0.0000000001
 43
0.0000000001
 44
0.0000000001
 40
0.0
 40
0.0
 40
0.0
 40
0.0
 40
0.1159053670586819
 40
0.2330988190984662
 40
0.3499271316344397
 40
0.4658896895271017
 40
0.4658896895271017
 40
0.4658896895271017
 40
0.4658896895271017
 10
-5.437434222585579
 20
15.15093800000014
 30
0.0
 10
-5.4675053256608
 20
15.17528304218058
 30
0.0
 10
-5.527981719409445
 20
15.2242436790102
 30
0.0
 10
-5.629088689509992
 20
15.28303070840435
 30
0.0
 10
-5.732770690532518
 20
15.33653745410396
 30
0.0
 10
-5.803969975832107
 20
15.36745881712337
 30
0.0
 10
-5.839437222585672
 20
15.38286200000015
 30
0.0
 11
-5.437434222585579
 21
15.15093800000014
 31
0.0
 11
-5.529347222585613
 21
15.22155000000014
 31
0.0
 11
-5.629623222585621
 21
15.28220500000014
 31
0.0
 11
-5.733590222585633
 21
15.33549400000015
 31
0.0
 11
-5.839437222585672
 21
15.38286200000015
 31
0.0
  0
SPLINE
  5
C6BD
330
1F
100
AcDbEntity
  8
AM_0
100
AcDbSpline
210
0.0
220
0.0
230
1.0
 70
     8
 71
     3
 72
    11
 73
     7
 74
     5
 42
0.0000000001
 43
0.0000000001
 44
0.0000000001
 40
0.0
 40
0.0
 40
0.0
 40
0.0
 40
1.562934546195117
 40
3.22372962624867
 40
4.733755809222987
 40
5.91670837552855
 40
5.91670837552855
 40
5.91670837552855
 40
5.91670837552855
 10
-5.424286222585578
 20
15.13850700000014
 30
0.0
 10
-5.795736581039248
 20
15.50380518890042
 30
0.0
 10
-6.56189504118905
 20
16.25727410213142
 30
0.0
 10
-7.700860249382879
 20
17.34948430381626
 30
0.0
 10
-8.769322003603633
 20
18.33168003397863
 30
0.0
 10
-9.43384867089116
 20
18.93516181298923
 30
0.0
 10
-9.725757222585627
 20
19.20025500000014
 30
0.0
 11
-5.424286222585578
 21
15.13850700000014
 31
0.0
 11
-6.540867222585632
 21
16.23213000000015
 31
0.0
 11
-7.74131622258568
 21
17.37980700000014
 31
0.0
 11
-8.850734222585685
 21
18.40419500000012
 31
0.0
 11
-9.725757222585627
 21
19.20025500000014
 31
0.0
  0
SPLINE
  5
C6BE
330
1F
100
AcDbEntity
  8
AM_0
100
AcDbSpline
210
0.0
220
0.0
230
1.0
 70
     8
 71
     3
 72
    11
 73
     7
 74
     5
 42
0.0000000001
 43
0.0000000001
 44
0.0000000001
 40
0.0
 40
0.0
 40
0.0
 40
0.0
 40
0.015362562611731
 40
0.0307263285888595
 40
0.0461039310352271
 40
0.0615083526408295
 40
0.0615083526408295
 40
0.0615083526408295
 40
0.0615083526408295
 10
-9.725737222585678
 20
19.20023500000013
 30
0.0
 10
-9.729533795134193
 20
19.20367205917791
 30
0.0
 10
-9.737127237620672
 20
19.21054644676187
 30
0.0
 10
-9.748900812294483
 20
19.2204280235818
 30
0.0
 10
-9.760931139988009
 20
19.23001773380536
 30
0.0
 10
-9.769188796863272
 20
19.23610947543742
 30
0.0
 10
-9.773321222585707
 20
19.23915800000014
 30
0.0
 11
-9.725737222585678
 21
19.20023500000013
 31
0.0
 11
-9.737190222585638
 21
19.21047400000014
 31
0.0
 11
-9.74893822258565
 21
19.22037500000013
 31
0.0
 11
-9.760982222585596
 21
19.22993600000012
 31
0.0
 11
-9.773321222585707
 21
19.23915800000014
 31
0.0
  0
SPLINE
  5
C6BF
330
1F
100
AcDbEntity
  8
AM_0
100
AcDbSpline
210
0.0
220
0.0
230
1.0
 70
     8
 71
     3
 72
    11
 73
     7
 74
     5
 42
0.0000000001
 43
0.0000000001
 44
0.0000000001
 40
0.0
 40
0.0
 40
0.0
 40
0.0
 40
0.8970856693343758
 40
1.788519282186136
 40
2.692057770536264
 40
3.61992989610635
 40
3.61992989610635
 40
3.61992989610635
 40
3.61992989610635
 10
-11.9511122225856
 20
2.898184000000128
 30
0.0
 10
-11.6552696564546
 20
2.843148824366293
 30
0.0
 10
-11.06544846980102
 20
2.733425220273221
 30
0.0
 10
-10.16464811270111
 20
2.868877453962273
 30
0.0
 10
-9.312544681034756
 20
3.230513075629944
 30
0.0
 10
-8.876800262401497
 20
3.66542748095849
 30
0.0
 10
-8.65603322258562
 20
3.885774000000139
 30
0.0
 11
-11.9511122225856
 21
2.898184000000128
 31
0.0
 11
-11.06141022258555
 21
2.783323000000109
 31
0.0
 11
-10.17829122258558
 21
2.904792000000128
 31
0.0
 11
-9.353600222585555
 21
3.273935000000108
 31
0.0
 11
-8.65603322258562
 21
3.885774000000139
 31
0.0
  0
SPLINE
  5
C6C0
330
1F
100
AcDbEntity
  8
AM_0
100
AcDbSpline
210
0.0
220
0.0
230
1.0
 70
     8
 71
     3
 72
    11
 73
     7
 74
     5
 42
0.0000000001
 43
0.0000000001
 44
0.0000000001
 40
0.0
 40
0.0
 40
0.0
 40
0.0
 40
0.159597254920048
 40
0.3190425743119836
 40
0.4783129423783315
 40
0.6374038569680849
 40
0.6374038569680849
 40
0.6374038569680849
 40
0.6374038569680849
 10
-8.290817222585587
 20
4.407231000000138
 30
0.0
 10
-8.317973687539602
 20
4.361474028727223
 30
0.0
 10
-8.372260764673118
 20
4.270003646514551
 30
0.0
 10
-8.461279039885861
 20
4.137650430963867
 30
0.0
 10
-8.555130649867445
 20
4.008887482913842
 30
0.0
 10
-8.622411673306357
 20
3.926796403306801
 30
0.0
 10
-8.65603322258562
 20
3.885774000000139
 30
0.0
 11
-8.290817222585587
 21
4.407231000000138
 31
0.0
 11
-8.373560222585638
 21
4.270758000000114
 31
0.0
 11
-8.462134222585632
 21
4.138178000000124
 31
0.0
 11
-8.556354222585582
 21
4.009766000000126
 31
0.0
 11
-8.65603322258562
 21
3.885774000000139
 31
0.0
  0
SPLINE
  5
C6C1
330
1F
100
AcDbEntity
  8
AM_0
100
AcDbSpline
210
0.0
220
0.0
230
1.0
 70
     8
 71
     3
 72
    11
 73
     7
 74
     5
 42
0.0000000001
 43
0.0000000001
 44
0.0000000001
 40
0.0
 40
0.0
 40
0.0
 40
0.0
 40
0.0748459327551867
 40
0.1496055830821081
 40
0.2243342093105891
 40
0.2990846253964731
 40
0.2990846253964731
 40
0.2990846253964731
 40
0.2990846253964731
 10
-18.35209722258559
 20
1.486315000000104
 30
0.0
 10
-18.32916045714512
 20
1.496159779955334
 30
0.0
 10
-18.28331336777871
 20
1.515837990798597
 30
0.0
 10
-18.21747292290145
 20
1.551460433352198
 30
0.0
 10
-18.15399603754682
 20
1.591089993232291
 30
0.0
 10
-18.11433875454632
 20
1.621295863354248
 30
0.0
 10
-18.09450722258555
 20
1.63640100000012
 30
0.0
 11
-18.35209722258559
 21
1.486315000000104
 31
0.0
 11
-18.28377222258564
 21
1.516870000000096
 31
0.0
 11
-18.21785322258563
 21
1.552136000000132
 31
0.0
 11
-18.15466622258566
 21
1.592033000000128
 31
0.0
 11
-18.09450722258555
 21
1.63640100000012
 31
0.0
  0
SPLINE
  5
C6C2
330
1F
100
AcDbEntity
  8
AM_0
100
AcDbSpline
210
0.0
220
0.0
230
1.0
 70
     8
 71
     3
 72
    11
 73
     7
 74
     5
 42
0.0000000001
 43
0.0000000001
 44
0.0000000001
 40
0.0
 40
0.0
 40
0.0
 40
0.0
 40
0.036643440231502
 40
0.0733148897529136
 40
0.1099947889076113
 40
0.1467063559812145
 40
0.1467063559812145
 40
0.1467063559812145
 40
0.1467063559812145
 10
-34.29921022258568
 20
19.10705400000009
 30
0.0
 10
-34.29515746375534
 20
19.11858691120149
 30
0.0
 10
-34.28704884827153
 20
19.14166154906082
 30
0.0
 10
-34.27905313648077
 20
19.17751336457659
 30
0.0
 10
-34.27390689197913
 20
19.21390601102897
 30
0.0
 10
-34.27335719144746
 20
19.23838314977002
 30
0.0
 10
-34.2730822225856
 20
19.25062700000006
 30
0.0
 11
-34.29921022258568
 21
19.10705400000009
 31
0.0
 11
-34.28774622258563
 21
19.14185800000007
 31
0.0
 11
-34.27952922258558
 21
19.17759700000007
 31
0.0
 11
-34.27462822258567
 21
19.21394800000007
 31
0.0
 11
-34.2730822225856
 21
19.25062700000006
 31
0.0
  0
SPLINE
  5
C6C3
330
1F
100
AcDbEntity
  8
AM_0
100
AcDbSpline
210
0.0
220
0.0
230
1.0
 70
     8
 71
     3
 72
    11
 73
     7
 74
     5
 42
0.0000000001
 43
0.0000000001
 44
0.0000000001
 40
0.0
 40
0.0
 40
0.0
 40
0.0
 40
0.1587218942049207
 40
0.3174668150338495
 40
0.4765645319565425
 40
0.636184146180539
 40
0.636184146180539
 40
0.636184146180539
 40
0.636184146180539
 10
-34.25877922258556
 20
23.45060400000008
 30
0.0
 10
-34.25108342861457
 20
23.50373498278479
 30
0.0
 10
-34.23569072420309
 20
23.61000465634666
 30
0.0
 10
-34.13650310734274
 20
23.74099947984004
 30
0.0
 10
-33.99968104172716
 20
23.83150419931461
 30
0.0
 10
-33.89266024422411
 20
23.84301311784826
 30
0.0
 10
-33.83906222258556
 20
23.84877700000009
 30
0.0
 11
-34.25877922258556
 21
23.45060400000008
 31
0.0
 11
-34.22302322258556
 21
23.60524600000008
 31
0.0
 11
-34.13035822258567
 21
23.73413800000008
 31
0.0
 11
-33.99592122258562
 21
23.81921900000008
 31
0.0
 11
-33.83906222258556
 21
23.84877700000009
 31
0.0
  0
SPLINE
  5
C6C4
330
1F
100
AcDbEntity
  8
AM_0
100
AcDbSpline
210
0.0
220
0.0
230
1.0
 70
     8
 71
     3
 72
    11
 73
     7
 74
     5
 42
0.0000000001
 43
0.0000000001
 44
0.0000000001
 40
0.0
 40
0.0
 40
0.0
 40
0.0
 40
0.5538261373174949
 40
1.107841568959061
 40
1.661131960889004
 40
2.212748998371547
 40
2.212748998371547
 40
2.212748998371547
 40
2.212748998371547
 10
-34.28104422258562
 20
21.23803900000007
 30
0.0
 10
-34.28145577153912
 20
21.42264813937236
 30
0.0
 10
-34.282279010111
 20
21.79192951637089
 30
0.0
 10
-34.27844570920923
 20
22.34563294215211
 30
0.0
 10
-34.27121326792804
 20
22.89856638290244
 30
0.0
 10
-34.26291971757541
 20
23.26677734303974
 30
0.0
 10
-34.25877922258556
 20
23.45060400000008
 30
0.0
 11
-34.28104422258562
 21
21.23803900000007
 31
0.0
 11
-34.28143422258566
 21
21.79186500000008
 31
0.0
 11
-34.27787522258566
 21
22.34586900000008
 31
0.0
 11
-34.2703342225856
 21
22.89910800000007
 31
0.0
 11
-34.25877922258556
 21
23.45060400000008
 31
0.0
  0
SPLINE
  5
C6C5
330
1F
100
AcDbEntity
  8
AM_0
100
AcDbSpline
210
0.0
220
0.0
230
1.0
 70
     8
 71
     3
 72
    11
 73
     7
 74
     5
 42
0.0000000001
 43
0.0000000001
 44
0.0000000001
 40
0.0
 40
0.0
 40
0.0
 40
0.0
 40
0.8489496055243527
 40
1.771372125048407
 40
2.734358289362282
 40
3.68659212425999
 40
3.68659212425999
 40
3.68659212425999
 40
3.68659212425999
 10
-20.49722522258565
 20
23.36635100000012
 30
0.0
 10
-20.77711490634201
 20
23.40825099273443
 30
0.0
 10
-21.36111751458682
 20
23.49567724122588
 30
0.0
 10
-22.26741126187203
 20
23.59428746580618
 30
0.0
 10
-23.21106103897795
 20
23.66531767079779
 30
0.0
 10
-23.84950660411264
 20
23.67574941204736
 30
0.0
 10
-24.16693722258566
 20
23.68093600000008
 30
0.0
 11
-20.49722522258565
 21
23.36635100000012
 31
0.0
 11
-21.33760922258562
 21
23.48664300000013
 31
0.0
 11
-22.25446322258568
 21
23.58784600000012
 31
0.0
 11
-23.21502722258566
 21
23.65610400000008
 31
0.0
 11
-24.16693722258566
 21
23.68093600000008
 31
0.0
  0
SPLINE
  5
C6C6
330
1F
100
AcDbEntity
  8
AM_0
100
AcDbSpline
210
0.0
220
0.0
230
1.0
 70
     8
 71
     3
 72
    11
 73
     7
 74
     5
 42
0.0000000001
 43
0.0000000001
 44
0.0000000001
 40
0.0
 40
0.0
 40
0.0
 40
0.0
 40
0.6167850946204338
 40
1.283163662493144
 40
1.990835380205458
 40
2.727131474344933
 40
2.727131474344933
 40
2.727131474344933
 40
2.727131474344933
 10
-19.94254822258568
 20
23.45707700000011
 30
0.0
 10
-20.14615101573185
 20
23.48566053834848
 30
0.0
 10
-20.56972757104414
 20
23.54512591465866
 30
0.0
 10
-21.22860525473021
 20
23.62452330543434
 30
0.0
 10
-21.92839502245949
 20
23.69699513506363
 30
0.0
 10
-22.40845898645558
 20
23.73213087487773
 30
0.0
 10
-22.65324922258565
 20
23.7500470000001
 30
0.0
 11
-19.94254822258568
 21
23.45707700000011
 31
0.0
 11
-20.55360922258563
 21
23.5409120000001
 31
0.0
 11
-21.2151472225857
 21
23.6210860000001
 31
0.0
 11
-21.91920222258562
 21
23.69254100000012
 31
0.0
 11
-22.65324922258565
 21
23.7500470000001
 31
0.0
  0
SPLINE
  5
C6C7
330
1F
100
AcDbEntity
  8
AM_0
100
AcDbSpline
210
0.0
220
0.0
230
1.0
 70
     8
 71
     3
 72
    11
 73
     7
 74
     5
 42
0.0000000001
 43
0.0000000001
 44
0.0000000001
 40
0.0
 40
0.0
 40
0.0
 40
0.0
 40
0.0411152558789764
 40
0.0822563454732252
 40
0.1233957784786165
 40
0.1645400563552886
 40
0.1645400563552886
 40
0.1645400563552886
 40
0.1645400563552886
 10
-19.94254522258569
 20
23.45707600000011
 30
0.0
 10
-19.95615207529879
 20
23.45876093246425
 30
0.0
 10
-19.9833743302415
 20
23.46213185607657
 30
0.0
 10
-20.0245143081699
 20
23.46370741476717
 30
0.0
 10
-20.06568413450361
 20
23.46310274534806
 30
0.0
 10
-20.09300165707233
 20
23.46053629882027
 30
0.0
 10
-20.10666122258561
 20
23.4592530000001
 30
0.0
 11
-19.94254522258569
 21
23.45707600000011
 31
0.0
 11
-19.98341622258561
 21
23.4615510000001
 31
0.0
 11
-20.02451822258564
 21
23.46334400000011
 31
0.0
 11
-20.0656502225857
 21
23.4625620000001
 31
0.0
 11
-20.10666122258561
 21
23.4592530000001
 31
0.0
  0
SPLINE
  5
C6C8
330
1F
100
AcDbEntity
  8
AM_0
100
AcDbSpline
210
0.0
220
0.0
230
1.0
 70
     8
 71
     3
 72
    11
 73
     7
 74
     5
 42
0.0000000001
 43
0.0000000001
 44
0.0000000001
 40
0.0
 40
0.0
 40
0.0
 40
0.0
 40
0.1034172386404324
 40
0.2050729124122606
 40
0.3046355309445042
 40
0.4020711548455931
 40
0.4020711548455931
 40
0.4020711548455931
 40
0.4020711548455931
 10
-20.10666122258561
 20
23.4592530000001
 30
0.0
 10
-20.14081582467591
 20
23.45446484624781
 30
0.0
 10
-20.20854325401959
 20
23.44497009809973
 30
0.0
 10
-20.30756457959832
 20
23.42205980908574
 30
0.0
 10
-20.40371869273629
 20
23.39621253965512
 30
0.0
 10
-20.46628154349016
 20
23.3762329398162
 30
0.0
 10
-20.49722522258565
 20
23.36635100000012
 30
0.0
 11
-20.10666122258561
 21
23.4592530000001
 31
0.0
 11
-20.20885322258567
 21
23.4433810000001
 31
0.0
 11
-20.30808622258569
 21
23.42132000000012
 31
0.0
 11
-20.40418322258568
 21
23.39528000000012
 31
0.0
 11
-20.49722522258565
 21
23.36635100000012
 31
0.0
  0
SPLINE
  5
C6C9
330
1F
100
AcDbEntity
  8
AM_0
100
AcDbSpline
210
0.0
220
0.0
230
1.0
 70
     8
 71
     3
 72
    11
 73
     7
 74
     5
 42
0.0000000001
 43
0.0000000001
 44
0.0000000001
 40
0.0
 40
0.0
 40
0.0
 40
0.0
 40
1.391750144587718
 40
2.783665725567089
 40
4.174044067694534
 40
5.56240382655892
 40
5.56240382655892
 40
5.56240382655892
 40
5.56240382655892
 10
-25.53855122258568
 20
23.67738900000011
 30
0.0
 10
-25.17627367364176
 20
23.38211386609259
 30
0.0
 10
-24.45167551206846
 20
22.7915284991235
 30
0.0
 10
-23.08154587560098
 20
22.38062648322157
 30
0.0
 10
-21.64254298589816
 20
22.54827134826161
 30
0.0
 10
-20.87881287595325
 20
23.09378987803531
 30
0.0
 10
-20.49722522258565
 20
23.36635100000012
 30
0.0
 11
-25.53855122258568
 21
23.67738900000011
 31
0.0
 11
-24.40443922258572
 21
22.8706930000001
 31
0.0
 11
-23.06935622258567
 21
22.4770150000001
 31
0.0
 11
-21.69067222258564
 21
22.65696600000012
 31
0.0
 11
-20.49722522258565
 21
23.36635100000012
 31
0.0
  0
SPLINE
  5
C6CA
330
1F
100
AcDbEntity
  8
AM_0
100
AcDbSpline
210
0.0
220
0.0
230
1.0
 70
     8
 71
     3
 72
    11
 73
     7
 74
     5
 42
0.0000000001
 43
0.0000000001
 44
0.0000000001
 40
0.0
 40
0.0
 40
0.0
 40
0.0
 40
0.1199077106779004
 40
0.2373838496678461
 40
0.3522867109464163
 40
0.4647853660539309
 40
0.4647853660539309
 40
0.4647853660539309
 40
0.4647853660539309
 10
-25.9818532225857
 20
23.81179000000008
 30
0.0
 10
-25.9422929034293
 20
23.80576442850736
 30
0.0
 10
-25.86397449669514
 20
23.7938354762381
 30
0.0
 10
-25.75120748823222
 20
23.76016481511054
 30
0.0
 10
-25.64278330070773
 20
23.72188952320642
 30
0.0
 10
-25.57304949469971
 20
23.69211758630912
 30
0.0
 10
-25.53855122258568
 20
23.67738900000011
 30
0.0
 11
-25.9818532225857
 21
23.81179000000008
 31
0.0
 11
-25.86376722258563
 21
23.79096800000007
 31
0.0
 11
-25.75072322258569
 21
23.75900400000011
 31
0.0
 11
-25.64247622258568
 21
23.7204650000001
 31
0.0
 11
-25.53855122258568
 21
23.67738900000011
 31
0.0
  0
SPLINE
  5
C6CB
330
1F
100
AcDbEntity
  8
AM_0
100
AcDbSpline
210
0.0
220
0.0
230
1.0
 70
     8
 71
     3
 72
    11
 73
     7
 74
     5
 42
0.0000000001
 43
0.0000000001
 44
0.0000000001
 40
0.0
 40
0.0
 40
0.0
 40
0.0
 40
0.1194116632703536
 40
0.2385253400879089
 40
0.3574722722887621
 40
0.4765032714654601
 40
0.4765032714654601
 40
0.4765032714654601
 40
0.4765032714654601
 10
-34.29921022258568
 20
19.10705400000009
 30
0.0
 10
-34.31670163743158
 20
19.0709264951064
 30
0.0
 10
-34.35164081808173
 20
18.99876163988799
 30
0.0
 10
-34.44171619219849
 20
18.91716307203318
 30
0.0
 10
-34.55005404218058
 20
18.86230803331999
 30
0.0
 10
-34.62977810813316
 20
18.85567212582997
 30
0.0
 10
-34.66965422258559
 20
18.85235300000007
 30
0.0
 11
-34.29921022258568
 21
19.10705400000009
 31
0.0
 11
-34.35799122258563
 21
19.0031120000001
 31
0.0
 11
-34.4448222225856
 21
18.92157400000007
 31
0.0
 11
-34.55190822258558
 21
18.86979600000009
 31
0.0
 11
-34.66965422258559
 21
18.85235300000007
 31
0.0
  0
SPLINE
  5
C6CC
330
1F
100
AcDbEntity
  8
AM_0
100
AcDbSpline
210
0.0
220
0.0
230
1.0
 70
     8
 71
     3
 72
    11
 73
     7
 74
     5
 42
0.0000000001
 43
0.0000000001
 44
0.0000000001
 40
0.0
 40
0.0
 40
0.0
 40
0.0
 40
0.3867705104632776
 40
0.7808510961776492
 40
1.17871017625636
 40
1.576816484395279
 40
1.576816484395279
 40
1.576816484395279
 40
1.576816484395279
 10
-24.2286082225857
 20
23.8068430000001
 30
0.0
 10
-24.09968709375578
 20
23.80566085059673
 30
0.0
 10
-23.8394081892273
 20
23.80327420882211
 30
0.0
 10
-23.44665592506408
 20
23.7916018889377
 30
0.0
 10
-23.05032243167104
 20
23.77454794700958
 30
0.0
 10
-22.78549971039408
 20
23.75819634194772
 30
0.0
 10
-22.6530472225856
 20
23.75001800000009
 30
0.0
 11
-24.2286082225857
 21
23.8068430000001
 31
0.0
 11
-23.84186822258567
 21
23.80198500000011
 31
0.0
 11
-23.44794722258569
 21
23.79077100000011
 31
0.0
 11
-23.0504712225856
 21
23.77331600000008
 31
0.0
 11
-22.6530472225856
 21
23.75001800000009
 31
0.0
  0
SPLINE
  5
C6CD
330
1F
100
AcDbEntity
  8
AM_0
100
AcDbSpline
210
0.0
220
0.0
230
1.0
 70
     8
 71
     3
 72
    11
 73
     7
 74
     5
 42
0.0000000001
 43
0.0000000001
 44
0.0000000001
 40
0.0
 40
0.0
 40
0.0
 40
0.0
 40
1.644454348654888
 40
3.292830421996558
 40
4.94294110927691
 40
6.591518471215707
 40
6.591518471215707
 40
6.591518471215707
 40
6.591518471215707
 10
-20.10666122258561
 20
23.4592530000001
 30
0.0
 10
-20.54049846682237
 20
23.11085772270259
 30
0.0
 10
-21.40920757825891
 20
22.41323630870374
 30
0.0
 10
-23.1224972689833
 20
22.17776007848971
 30
0.0
 10
-24.74361538401931
 20
22.70232628968223
 30
0.0
 10
-25.56923520036425
 20
23.44208338337154
 30
0.0
 10
-25.9818532225857
 20
23.81179000000008
 30
0.0
 11
-20.10666122258561
 21
23.4592530000001
 31
0.0
 11
-21.47616822258561
 21
22.54893400000011
 31
0.0
 11
-23.1063102225857
 21
22.3044330000001
 31
0.0
 11
-24.68022422258565
 21
22.8000740000001
 31
0.0
 11
-25.9818532225857
 21
23.81179000000008
 31
0.0
  0
SPLINE
  5
C6CE
330
1F
100
AcDbEntity
  8
AM_0
100
AcDbSpline
210
0.0
220
0.0
230
1.0
 70
     8
 71
     3
 72
    11
 73
     7
 74
     5
 42
0.0000000001
 43
0.0000000001
 44
0.0000000001
 40
0.0
 40
0.0
 40
0.0
 40
0.0
 40
0.2030857046914577
 40
0.406014344791904
 40
0.6087413925038286
 40
0.8112240477338668
 40
0.8112240477338668
 40
0.8112240477338668
 40
0.8112240477338668
 10
-18.9435742225857
 20
19.7234820000001
 30
0.0
 10
-18.87606494357171
 20
19.71810897393785
 30
0.0
 10
-18.74109859659084
 20
19.70736707726162
 30
0.0
 10
-18.54071278434017
 20
19.67425510490015
 30
0.0
 10
-18.34272284242267
 20
19.62984080745801
 30
0.0
 10
-18.21390386450902
 20
19.58903673248742
 30
0.0
 10
-18.1495332225856
 20
19.56864700000011
 30
0.0
 11
-18.9435742225857
 21
19.7234820000001
 31
0.0
 11
-18.74137522258564
 21
19.7045250000001
 31
0.0
 11
-18.5410132225856
 21
19.6723520000001
 31
0.0
 11
-18.34342022258562
 21
19.6270170000001
 31
0.0
 11
-18.1495332225856
 21
19.56864700000011
 31
0.0
  0
SPLINE
  5
C6CF
330
1F
100
AcDbEntity
  8
AM_0
100
AcDbSpline
210
0.0
220
0.0
230
1.0
 70
     8
 71
     3
 72
    11
 73
     7
 74
     5
 42
0.0000000001
 43
0.0000000001
 44
0.0000000001
 40
0.0
 40
0.0
 40
0.0
 40
0.0
 40
1.279450460133928
 40
2.55651480247535
 40
3.830868876488593
 40
5.102211654927574
 40
5.102211654927574
 40
5.102211654927574
 40
5.102211654927574
 10
-18.1495332225856
 20
19.56864700000011
 30
0.0
 10
-17.74739026718479
 20
19.42633313790224
 30
0.0
 10
-16.94385433498015
 20
19.14197082268406
 30
0.0
 10
-15.76890036661432
 20
18.64015370973876
 30
0.0
 10
-14.61877071367231
 20
18.0899781651669
 30
0.0
 10
-13.87826907404653
 20
17.6751744984714
 30
0.0
 10
-13.5084562225856
 20
17.46801800000014
 30
0.0
 11
-18.1495332225856
 21
19.56864700000011
 31
0.0
 11
-16.94797222258563
 21
19.12905100000011
 31
0.0
 11
-15.77180422258567
 21
18.63153500000009
 31
0.0
 11
-14.62423122258559
 21
18.07741000000012
 31
0.0
 11
-13.5084562225856
 21
17.46801800000014
 31
0.0
  0
SPLINE
  5
C6D0
330
1F
100
AcDbEntity
  8
AM_0
100
AcDbSpline
210
0.0
220
0.0
230
1.0
 70
     8
 71
     3
 72
    11
 73
     7
 74
     5
 42
0.0000000001
 43
0.0000000001
 44
0.0000000001
 40
0.0
 40
0.0
 40
0.0
 40
0.0
 40
1.140379325489545
 40
2.276256671153177
 40
3.407625188340219
 40
4.534692355384406
 40
4.534692355384406
 40
4.534692355384406
 40
4.534692355384406
 10
-13.5084562225856
 20
17.46801800000014
 30
0.0
 10
-13.18457468468576
 20
17.26840003668776
 30
0.0
 10
-12.53809022567349
 20
16.86995216016497
 30
0.0
 10
-11.64981777277375
 20
16.1583838102842
 30
0.0
 10
-10.82651000483174
 20
15.37898355326722
 30
0.0
 10
-10.34723988207708
 20
14.79759875496323
 30
0.0
 10
-10.10806122258566
 20
14.50746000000015
 30
0.0
 11
-13.5084562225856
 21
17.46801800000014
 31
0.0
 11
-12.55014622258562
 21
16.84987000000012
 31
0.0
 11
-11.65895222258569
 21
16.14560400000013
 31
0.0
 11
-10.84266322258571
 21
15.36223500000011
 31
0.0
 11
-10.10806122258566
 21
14.50746000000015
 31
0.0
  0
SPLINE
  5
C6D1
330
1F
100
AcDbEntity
  8
AM_0
100
AcDbSpline
210
0.0
220
0.0
230
1.0
 70
     8
 71
     3
 72
    11
 73
     7
 74
     5
 42
0.0000000001
 43
0.0000000001
 44
0.0000000001
 40
0.0
 40
0.0
 40
0.0
 40
0.0
 40
0.3473478671131194
 40
0.6939183834947335
 40
1.040019316128542
 40
1.38597437251157
 40
1.38597437251157
 40
1.38597437251157
 40
1.38597437251157
 10
-10.10806122258566
 20
14.50746000000015
 30
0.0
 10
-10.03993710299261
 20
14.41365417896989
 30
0.0
 10
-9.903841322880587
 20
14.22625247061129
 30
0.0
 10
-9.744072471591557
 20
13.91742027883672
 30
0.0
 10
-9.616010646014593
 20
13.59471727705065
 30
0.0
 10
-9.563021307244643
 20
13.36991063026087
 30
0.0
 10
-9.536532222585606
 20
13.25753100000014
 30
0.0
 11
-10.10806122258566
 21
14.50746000000015
 31
0.0
 11
-9.911079222585613
 21
14.22136800000012
 31
0.0
 11
-9.749258222585581
 21
13.91489600000011
 31
0.0
 11
-9.624081222585573
 21
13.59222500000012
 31
0.0
 11
-9.536532222585606
 21
13.25753100000014
 31
0.0
  0
SPLINE
  5
C6D2
330
1F
100
AcDbEntity
  8
AM_0
100
AcDbSpline
210
0.0
220
0.0
230
1.0
 70
     8
 71
     3
 72
    11
 73
     7
 74
     5
 42
0.0000000001
 43
0.0000000001
 44
0.0000000001
 40
0.0
 40
0.0
 40
0.0
 40
0.0
 40
0.8159827479824592
 40
1.629963810077829
 40
2.443091993412464
 40
3.256473591019027
 40
3.256473591019027
 40
3.256473591019027
 40
3.256473591019027
 10
-7.976242222585597
 20
10.45583200000015
 30
0.0
 10
-8.167608582803879
 20
10.65003221655434
 30
0.0
 10
-8.54987186274864
 20
11.03795625744278
 30
0.0
 10
-8.994167632676093
 20
11.72583670774451
 30
0.0
 10
-9.341021849566509
 20
12.46624806878142
 30
0.0
 10
-9.471355329485724
 20
12.99374262793885
 30
0.0
 10
-9.536532222585606
 20
13.25753100000014
 30
0.0
 11
-7.976242222585597
 21
10.45583200000015
 31
0.0
 11
-8.528828222585616
 21
11.05622900000014
 31
0.0
 11
-8.978143222585572
 21
11.7349640000001
 31
0.0
 11
-9.315785222585645
 21
12.47467700000012
 31
0.0
 11
-9.536532222585606
 21
13.25753100000014
 31
0.0
  0
SPLINE
  5
C6D3
330
1F
100
AcDbEntity
  8
AM_0
100
AcDbSpline
210
0.0
220
0.0
230
1.0
 70
     8
 71
     3
 72
    11
 73
     7
 74
     5
 42
0.0000000001
 43
0.0000000001
 44
0.0000000001
 40
0.0
 40
0.0
 40
0.0
 40
0.0
 40
0.6942012402935092
 40
1.385148112210546
 40
2.0748633773925
 40
2.765430195321079
 40
2.765430195321079
 40
2.765430195321079
 40
2.765430195321079
 10
-7.976242222585597
 20
10.45583200000015
 30
0.0
 10
-7.815143379914896
 20
10.28852292989279
 30
0.0
 10
-7.493700915032122
 20
9.954689123262113
 30
0.0
 10
-7.152249084387369
 20
9.346345971649817
 30
0.0
 10
-6.91853724978664
 20
8.691011505299487
 30
0.0
 10
-6.871932149186646
 20
8.231744282041889
 30
0.0
 10
-6.848615222585635
 20
8.001969000000144
 30
0.0
 11
-7.976242222585597
 21
10.45583200000015
 31
0.0
 11
-7.516429222585543
 21
9.93574800000016
 31
0.0
 11
-7.169933222585655
 21
9.337962000000146
 31
0.0
 11
-6.945885222585616
 21
8.685651000000149
 31
0.0
 11
-6.848615222585635
 21
8.001969000000144
 31
0.0
  0
SPLINE
  5
C6D4
330
1F
100
AcDbEntity
  8
AM_0
100
AcDbSpline
210
0.0
220
0.0
230
1.0
 70
     8
 71
     3
 72
    11
 73
     7
 74
     5
 42
0.0000000001
 43
0.0000000001
 44
0.0000000001
 40
0.0
 40
0.0
 40
0.0
 40
0.0
 40
0.0132471555059987
 40
0.0264905870854502
 40
0.0397404929341386
 40
0.0530080170814941
 40
0.0530080170814941
 40
0.0530080170814941
 40
0.0530080170814941
 10
-5.38864022258565
 20
15.09946400000012
 30
0.0
 10
-5.391458559147096
 20
15.10286376111656
 30
0.0
 10
-5.39709444000343
 20
15.1096623276378
 30
0.0
 10
-5.4059091250429
 20
15.11955371181589
 30
0.0
 10
-5.41496576994136
 20
15.12923334386119
 30
0.0
 10
-5.421232017263306
 20
15.1354684004207
 30
0.0
 10
-5.424367222585601
 20
15.13858800000014
 30
0.0
 11
-5.38864022258565
 21
15.09946400000012
 31
0.0
 11
-5.397155222585638
 21
15.10961200000014
 31
0.0
 11
-5.405947222585609
 21
15.11951600000014
 31
0.0
 11
-5.415018222585558
 21
15.12917400000015
 31
0.0
 11
-5.424367222585601
 21
15.13858800000014
 31
0.0
  0
SPLINE
  5
C6D5
330
1F
100
AcDbEntity
  8
AM_0
100
AcDbSpline
210
0.0
220
0.0
230
1.0
 70
     8
 71
     3
 72
    11
 73
     7
 74
     5
 42
0.0000000001
 43
0.0000000001
 44
0.0000000001
 40
0.0
 40
0.0
 40
0.0
 40
0.0
 40
1.666348239794191
 40
3.308745969145095
 40
4.931219205261467
 40
6.556461084670518
 40
6.556461084670518
 40
6.556461084670518
 40
6.556461084670518
 10
-5.437434222585579
 20
15.15093800000014
 30
0.0
 10
-5.996781428053211
 20
15.18878762850723
 30
0.0
 10
-7.107436312336089
 20
15.26394287083038
 30
0.0
 10
-8.595227696260892
 20
16.09599831202708
 30
0.0
 10
-9.560293346381195
 20
17.5066974995971
 30
0.0
 10
-9.638413065102142
 20
18.60192860882992
 30
0.0
 10
-9.677506222585691
 20
19.15001100000012
 30
0.0
 11
-5.437434222585579
 21
15.15093800000014
 31
0.0
 11
-7.08697322258564
 21
15.38702600000013
 31
0.0
 11
-8.51501722258564
 21
16.19829700000013
 31
0.0
 11
-9.41928222258565
 21
17.5454140000001
 31
0.0
 11
-9.677506222585691
 21
19.15001100000012
 31
0.0
  0
SPLINE
  5
C6D6
330
1F
100
AcDbEntity
  8
AM_0
100
AcDbSpline
210
0.0
220
0.0
230
1.0
 70
     8
 71
     3
 72
    11
 73
     7
 74
     5
 42
0.0000000001
 43
0.0000000001
 44
0.0000000001
 40
0.0
 40
0.0
 40
0.0
 40
0.0
 40
0.0174267610874341
 40
0.0348370046239697
 40
0.0522475744021
 40
0.0696746448673565
 40
0.0696746448673565
 40
0.0696746448673565
 40
0.0696746448673565
 10
-9.677506222585691
 20
19.15001100000012
 30
0.0
 10
-9.681301046362777
 20
19.15440974853988
 30
0.0
 10
-9.688887097081337
 20
19.16320307636773
 30
0.0
 10
-9.700783047089528
 20
19.17592810159444
 30
0.0
 10
-9.713016680197046
 20
19.18832895985988
 30
0.0
 10
-9.721495703106144
 20
19.19626506698657
 30
0.0
 10
-9.725737222585678
 20
19.20023500000013
 30
0.0
 11
-9.677506222585691
 21
19.15001100000012
 31
0.0
 11
-9.688977222585606
 21
19.16313000000013
 31
0.0
 11
-9.70083922258567
 21
19.17587400000013
 31
0.0
 11
-9.713093222585655
 21
19.18824200000011
 31
0.0
 11
-9.725737222585678
 21
19.20023500000013
 31
0.0
  0
SPLINE
  5
C6D7
330
1F
100
AcDbEntity
  8
AM_0
100
AcDbSpline
210
0.0
220
0.0
230
1.0
 70
     8
 71
     3
 72
    11
 73
     7
 74
     5
 42
0.0000000001
 43
0.0000000001
 44
0.0000000001
 40
0.0
 40
0.0
 40
0.0
 40
0.0
 40
2.751875121518714
 40
5.519230030679839
 40
8.298891193914817
 40
11.08705804660675
 40
11.08705804660675
 40
11.08705804660675
 40
11.08705804660675
 10
-9.773321222585707
 20
19.23915800000014
 30
0.0
 10
-10.53532999810484
 20
19.75191543485173
 30
0.0
 10
-12.06363398421224
 20
20.78031465644338
 30
0.0
 10
-14.57121018189403
 20
21.96782500974232
 30
0.0
 10
-17.19478648640722
 20
22.90537839331547
 30
0.0
 10
-19.01651932079982
 20
23.27155899923704
 30
0.0
 10
-19.92877722258566
 20
23.4549290000001
 30
0.0
 11
-9.773321222585707
 21
19.23915800000014
 31
0.0
 11
-12.09399622258564
 21
20.71810500000012
 31
0.0
 11
-14.58488922258567
 21
21.92380200000013
 31
0.0
 11
-17.20935822258565
 21
22.83959600000011
 31
0.0
 11
-19.92877722258566
 21
23.4549290000001
 31
0.0
  0
SPLINE
  5
C6D8
330
1F
100
AcDbEntity
  8
AM_0
100
AcDbSpline
210
0.0
220
0.0
230
1.0
 70
     8
 71
     3
 72
    11
 73
     7
 74
     5
 42
0.0000000001
 43
0.0000000001
 44
0.0000000001
 40
0.0
 40
0.0
 40
0.0
 40
0.0
 40
0.0808208124927988
 40
0.1710961156548679
 40
0.271156945878263
 40
0.3775152563998518
 40
0.3775152563998518
 40
0.3775152563998518
 40
0.3775152563998518
 10
-43.50415122258564
 20
18.72136300000005
 30
0.0
 10
-43.51526471473969
 20
18.69671546593222
 30
0.0
 10
-43.53879176526382
 20
18.64453710729655
 30
0.0
 10
-43.5538151764747
 20
18.55458914743026
 30
0.0
 10
-43.55312559386975
 20
18.45477576210921
 30
0.0
 10
-43.53421432934526
 20
18.3883058799381
 30
0.0
 10
-43.52447022258561
 20
18.35405700000007
 30
0.0
 11
-43.50415122258564
 21
18.72136300000005
 31
0.0
 11
-43.53435722258566
 21
18.64639900000008
 31
0.0
 11
-43.55080122258565
 21
18.55763400000006
 31
0.0
 11
-43.54880922258567
 21
18.45759300000008
 31
0.0
 11
-43.52447022258561
 21
18.35405700000007
 31
0.0
  0
SPLINE
  5
C6D9
330
1F
100
AcDbEntity
  8
AM_0
100
AcDbSpline
210
0.0
220
0.0
230
1.0
 70
     8
 71
     3
 72
    11
 73
     7
 74
     5
 42
0.0000000001
 43
0.0000000001
 44
0.0000000001
 40
0.0
 40
0.0
 40
0.0
 40
0.0
 40
2.591571663778529
 40
5.200708108701447
 40
7.809925433342139
 40
10.40166623034205
 40
10.40166623034205
 40
10.40166623034205
 40
10.40166623034205
 10
-21.99842822258563
 20
7.382051000000103
 30
0.0
 10
-22.65870436951068
 20
7.968700942931433
 30
0.0
 10
-23.98373178792622
 20
9.145976940278865
 30
0.0
 10
-24.58370571021657
 20
11.82465451380326
 30
0.0
 10
-23.9706354518615
 20
14.50039205703783
 30
0.0
 10
-22.63989942974629
 20
15.67132623013989
 30
0.0
 10
-21.97676722258569
 20
16.25482600000012
 30
0.0
 11
-21.99842822258563
 21
7.382051000000103
 31
0.0
 11
-23.74944222258557
 21
9.292599000000109
 31
0.0
 11
-24.38107822258564
 21
11.82412600000009
 31
0.0
 11
-23.7370922225856
 21
14.3526230000001
 31
0.0
 11
-21.97676722258569
 21
16.25482600000012
 31
0.0
  0
SPLINE
  5
C6DA
330
1F
100
AcDbEntity
  8
AM_0
100
AcDbSpline
210
0.0
220
0.0
230
1.0
 70
     8
 71
     3
 72
    11
 73
     7
 74
     5
 42
0.0000000001
 43
0.0000000001
 44
0.0000000001
 40
0.0
 40
0.0
 40
0.0
 40
0.0
 40
1.478829402886615
 40
2.957464139719514
 40
4.435918706289596
 40
5.91420490269138
 40
5.91420490269138
 40
5.91420490269138
 40
5.91420490269138
 10
-18.9435742225857
 20
19.7234820000001
 30
0.0
 10
-19.43526335813372
 20
19.76004880600071
 30
0.0
 10
-20.41857690561559
 20
19.83317760452188
 30
0.0
 10
-21.88447826459774
 20
20.03223807473641
 30
0.0
 10
-23.34086830731537
 20
20.29099245223387
 30
0.0
 10
-24.29898910407021
 20
20.52292921992027
 30
0.0
 10
-24.77802222258566
 20
20.63889100000011
 30
0.0
 11
-18.9435742225857
 21
19.7234820000001
 31
0.0
 11
-20.4171452225857
 21
19.84808100000012
 31
0.0
 11
-21.88298222258566
 21
20.04220100000011
 31
0.0
 11
-23.33773622258564
 21
20.30586500000009
 31
0.0
 11
-24.77802222258566
 21
20.63889100000011
 31
0.0
  0
SPLINE
  5
C6DB
330
1F
100
AcDbEntity
  8
AM_0
100
AcDbSpline
210
0.0
220
0.0
230
1.0
 70
     8
 71
     3
 72
    11
 73
     7
 74
     5
 42
0.0000000001
 43
0.0000000001
 44
0.0000000001
 40
0.0
 40
0.0
 40
0.0
 40
0.0
 40
0.3482465541494868
 40
0.6969183994969229
 40
1.046045398409901
 40
1.395581063824816
 40
1.395581063824816
 40
1.395581063824816
 40
1.395581063824816
 10
-27.50838922258563
 20
20.29810300000008
 30
0.0
 10
-27.60927593216897
 20
20.24041960334151
 30
0.0
 10
-27.81117255780836
 20
20.12498236498887
 30
0.0
 10
-28.08731622107103
 20
19.91059464065491
 30
0.0
 10
-28.34108973929359
 20
19.66923412886826
 30
0.0
 10
-28.4833249957515
 20
19.48442874216268
 30
0.0
 10
-28.55448422258567
 20
19.39197200000009
 30
0.0
 11
-27.50838922258563
 21
20.29810300000008
 31
0.0
 11
-27.80657522258562
 21
20.11821200000008
 31
0.0
 11
-28.0834182225856
 21
19.90624500000009
 31
0.0
 11
-28.33423522258559
 21
19.66338600000011
 31
0.0
 11
-28.55448422258567
 21
19.39197200000009
 31
0.0
  0
SPLINE
  5
C6DC
330
1F
100
AcDbEntity
  8
AM_0
100
AcDbSpline
210
0.0
220
0.0
230
1.0
 70
     8
 71
     3
 72
    11
 73
     7
 74
     5
 42
0.0000000001
 43
0.0000000001
 44
0.0000000001
 40
0.0
 40
0.0
 40
0.0
 40
0.0
 40
0.7011383939394366
 40
1.403979519561021
 40
2.107678593024893
 40
2.811143195882829
 40
2.811143195882829
 40
2.811143195882829
 40
2.811143195882829
 10
-27.50838922258563
 20
20.29810300000008
 30
0.0
 10
-27.29607449993654
 20
20.39749118734367
 30
0.0
 10
-26.87092944315857
 20
20.59650892866671
 30
0.0
 10
-26.17854418655109
 20
20.74189857211311
 30
0.0
 10
-25.47052041605199
 20
20.77594008034247
 30
0.0
 10
-25.00882931043343
 20
20.68456895183375
 30
0.0
 10
-24.77802222258566
 20
20.63889100000011
 30
0.0
 11
-27.50838922258563
 21
20.29810300000008
 31
0.0
 11
-26.86244922258566
 21
20.57078700000011
 31
0.0
 11
-26.17635022258565
 21
20.7232790000001
 31
0.0
 11
-25.47306522258571
 21
20.7474160000001
 31
0.0
 11
-24.77802222258566
 21
20.63889100000011
 31
0.0
  0
SPLINE
  5
C6DD
330
1F
100
AcDbEntity
  8
AM_0
100
AcDbSpline
210
0.0
220
0.0
230
1.0
 70
     8
 71
     3
 72
    11
 73
     7
 74
     5
 42
0.0000000001
 43
0.0000000001
 44
0.0000000001
 40
0.0
 40
0.0
 40
0.0
 40
0.0
 40
0.324131714008335
 40
0.6488257025976207
 40
0.9737786036847788
 40
1.298689979915289
 40
1.298689979915289
 40
1.298689979915289
 40
1.298689979915289
 10
-29.2570502225856
 20
18.30029700000011
 30
0.0
 10
-29.2024174027815
 20
18.39351745528235
 30
0.0
 10
-29.09305699106513
 20
18.58012007631873
 30
0.0
 10
-28.92020216191269
 20
18.85490908316755
 30
0.0
 10
-28.74152850406062
 20
19.12626073082992
 30
0.0
 10
-28.61682966041934
 20
19.30340534999013
 30
0.0
 10
-28.55448422258567
 20
19.39197200000009
 30
0.0
 11
-29.2570502225856
 21
18.30029700000011
 31
0.0
 11
-29.09170122258561
 21
18.57908200000008
 31
0.0
 11
-28.91930222258557
 21
18.85422700000009
 31
0.0
 11
-28.74013222258568
 21
19.12532200000009
 31
0.0
 11
-28.55448422258567
 21
19.39197200000009
 31
0.0
  0
SPLINE
  5
C6DE
330
1F
100
AcDbEntity
  8
AM_0
100
AcDbSpline
210
0.0
220
0.0
230
1.0
 70
     8
 71
     3
 72
    11
 73
     7
 74
     5
 42
0.0000000001
 43
0.0000000001
 44
0.0000000001
 40
0.0
 40
0.0
 40
0.0
 40
0.0
 40
0.5540143899223214
 40
1.115327421769068
 40
1.682526673503373
 40
2.254056413654301
 40
2.254056413654301
 40
2.254056413654301
 40
2.254056413654301
 10
-31.13124722258556
 20
14.65664500000008
 30
0.0
 10
-31.06640917832009
 20
14.82959737614166
 30
0.0
 10
-30.93587890679902
 20
15.17778062061998
 30
0.0
 10
-30.70885099413225
 20
15.69088919521813
 30
0.0
 10
-30.45996218013109
 20
16.2002475231582
 30
0.0
 10
-30.27438345507753
 20
16.53144400380929
 30
0.0
 10
-30.18124122258567
 20
16.69767200000007
 30
0.0
 11
-31.13124722258556
 21
14.65664500000008
 31
0.0
 11
-30.93180722258557
 21
15.17351600000009
 31
0.0
 11
-30.70644322258559
 21
15.68760100000008
 31
0.0
 11
-30.45591522258567
 21
16.19647300000008
 31
0.0
 11
-30.18124122258567
 21
16.69767200000007
 31
0.0
  0
SPLINE
  5
C6DF
330
1F
100
AcDbEntity
  8
AM_0
100
AcDbSpline
210
0.0
220
0.0
230
1.0
 70
     8
 71
     3
 72
    11
 73
     7
 74
     5
 42
0.0000000001
 43
0.0000000001
 44
0.0000000001
 40
0.0
 40
0.0
 40
0.0
 40
0.0
 40
1.231378116049277
 40
2.461858322154975
 40
3.691529046076245
 40
4.920485357169977
 40
4.920485357169977
 40
4.920485357169977
 40
4.920485357169977
 10
-13.62890322258562
 20
16.92168900000012
 30
0.0
 10
-13.98675011469839
 20
17.12302847386206
 30
0.0
 10
-14.70218296016069
 20
17.52556060663667
 30
0.0
 10
-15.81884148132585
 20
18.04478484863613
 30
0.0
 10
-16.95997246014647
 20
18.50561606078494
 30
0.0
 10
-17.74162467768174
 20
18.75286130126568
 30
0.0
 10
-18.1323372225857
 20
18.87644800000009
 30
0.0
 11
-13.62890322258562
 21
16.92168900000012
 31
0.0
 11
-14.70976422258564
 21
17.51163100000013
 31
0.0
 11
-15.82329122258562
 21
18.0352140000001
 31
0.0
 11
-16.96548122258565
 21
18.4907270000001
 31
0.0
 11
-18.1323372225857
 21
18.87644800000009
 31
0.0
  0
SPLINE
  5
C6E0
330
1F
100
AcDbEntity
  8
AM_0
100
AcDbSpline
210
0.0
220
0.0
230
1.0
 70
     8
 71
     3
 72
    11
 73
     7
 74
     5
 42
0.0000000001
 43
0.0000000001
 44
0.0000000001
 40
0.0
 40
0.0
 40
0.0
 40
0.0
 40
0.0793721657825013
 40
0.1586488125329548
 40
0.2378374641693971
 40
0.3169456473617936
 40
0.3169456473617936
 40
0.3169456473617936
 40
0.3169456473617936
 10
-31.13124722258556
 20
14.65664500000008
 30
0.0
 10
-31.13999587350465
 20
14.6316735841892
 30
0.0
 10
-31.1574826469333
 20
14.58176080397707
 30
0.0
 10
-31.18081724315922
 20
14.50597752755613
 30
0.0
 10
-31.20219916721907
 20
14.42971235526271
 30
0.0
 10
-31.21452729308556
 20
14.37840275753226
 30
0.0
 10
-31.22068822258563
 20
14.3527610000001
 30
0.0
 11
-31.13124722258556
 21
14.65664500000008
 31
0.0
 11
-31.15701222258564
 21
14.58157100000008
 31
0.0
 11
-31.18050422258557
 21
14.50585500000008
 31
0.0
 11
-31.20172622258553
 21
14.42956300000008
 31
0.0
 11
-31.22068822258563
 21
14.3527610000001
 31
0.0
  0
SPLINE
  5
C6E1
330
1F
100
AcDbEntity
  8
AM_0
100
AcDbSpline
210
0.0
220
0.0
230
1.0
 70
     8
 71
     3
 72
    11
 73
     7
 74
     5
 42
0.0000000001
 43
0.0000000001
 44
0.0000000001
 40
0.0
 40
0.0
 40
0.0
 40
0.0
 40
1.385191213865075
 40
2.763469621500473
 40
4.119252611864315
 40
5.451822685505882
 40
5.451822685505882
 40
5.451822685505882
 40
5.451822685505882
 10
-27.42031122258561
 20
3.572146000000088
 30
0.0
 10
-27.6424968510281
 20
3.981613888604153
 30
0.0
 10
-28.08575928901424
 20
4.7985062135128
 30
0.0
 10
-29.20605702705156
 20
5.660265573235864
 30
0.0
 10
-30.55015723986908
 20
6.048770038908691
 30
0.0
 10
-31.44374516011848
 20
5.905037654625399
 30
0.0
 10
-31.88668122258559
 20
5.833792000000073
 30
0.0
 11
-27.42031122258561
 21
3.572146000000088
 31
0.0
 11
-28.16433122258558
 21
4.740559000000104
 31
0.0
 11
-29.25285822258558
 21
5.585994000000084
 31
0.0
 11
-30.55911022258555
 21
5.949110000000075
 31
0.0
 11
-31.88668122258559
 21
5.833792000000073
 31
0.0
  0
SPLINE
  5
C6E2
330
1F
100
AcDbEntity
  8
AM_0
100
AcDbSpline
210
0.0
220
0.0
230
1.0
 70
     8
 71
     3
 72
    11
 73
     7
 74
     5
 42
0.0000000001
 43
0.0000000001
 44
0.0000000001
 40
0.0
 40
0.0
 40
0.0
 40
0.0
 40
0.1169983602106795
 40
0.2334111576172129
 40
0.348084526809909
 40
0.4607685668510475
 40
0.4607685668510475
 40
0.4607685668510475
 40
0.4607685668510475
 10
-27.0591382225856
 20
3.287279000000097
 30
0.0
 10
-27.09208972529186
 20
3.308183558283773
 30
0.0
 10
-27.15782781237312
 20
3.349888050036331
 30
0.0
 10
-27.24922384601278
 20
3.421580184412663
 30
0.0
 10
-27.33692926529836
 20
3.495341427928718
 30
0.0
 10
-27.39267983872433
 20
3.54669425141742
 30
0.0
 10
-27.42031122258561
 20
3.572146000000088
 30
0.0
 11
-27.0591382225856
 21
3.287279000000097
 31
0.0
 11
-27.15687422258554
 21
3.351593000000093
 31
0.0
 11
-27.24924422258562
 21
3.4224430000001
 31
0.0
 11
-27.33686322258563
 21
3.496422000000109
 31
0.0
 11
-27.42031122258561
 21
3.572146000000088
 31
0.0
  0
SPLINE
  5
C6E3
330
1F
100
AcDbEntity
  8
AM_0
100
AcDbSpline
210
0.0
220
0.0
230
1.0
 70
     8
 71
     3
 72
    11
 73
     7
 74
     5
 42
0.0000000001
 43
0.0000000001
 44
0.0000000001
 40
0.0
 40
0.0
 40
0.0
 40
0.0
 40
1.099628302615917
 40
2.392756322693223
 40
3.751621425998513
 40
5.032636158242456
 40
5.032636158242456
 40
5.032636158242456
 40
5.032636158242456
 10
-31.88668122258559
 20
5.833792000000073
 30
0.0
 10
-31.59270438514356
 20
5.614274606630571
 30
0.0
 10
-30.9530201074277
 20
5.136611718474196
 30
0.0
 10
-29.85573866080812
 20
4.529988287614048
 30
0.0
 10
-28.66056104039138
 20
3.986901672328072
 30
0.0
 10
-27.82551933537765
 20
3.707652863892358
 30
0.0
 10
-27.42031122258561
 20
3.572146000000088
 30
0.0
 11
-31.88668122258559
 21
5.833792000000073
 31
0.0
 11
-30.9920462225856
 21
5.194409000000092
 31
0.0
 11
-29.86777622258557
 21
4.555506000000093
 31
0.0
 11
-28.62820622258562
 21
3.998747000000093
 31
0.0
 11
-27.42031122258561
 21
3.572146000000088
 31
0.0
  0
SPLINE
  5
C6E4
330
1F
100
AcDbEntity
  8
AM_0
100
AcDbSpline
210
0.0
220
0.0
230
1.0
 70
     8
 71
     3
 72
    11
 73
     7
 74
     5
 42
0.0000000001
 43
0.0000000001
 44
0.0000000001
 40
0.0
 40
0.0
 40
0.0
 40
0.0
 40
0.1004944695443764
 40
0.2049603698036924
 40
0.3140284921172225
 40
0.4284344670836198
 40
0.4284344670836198
 40
0.4284344670836198
 40
0.4284344670836198
 10
-31.88668122258559
 20
5.833792000000073
 30
0.0
 10
-31.91976111374944
 20
5.83912099036898
 30
0.0
 10
-31.98722817692963
 20
5.849989566934867
 30
0.0
 10
-32.08940763186657
 20
5.872843040959171
 30
0.0
 10
-32.19505537105419
 20
5.901572064361884
 30
0.0
 10
-32.26422124517277
 20
5.929401115277617
 30
0.0
 10
-32.29963022258562
 20
5.943648000000081
 30
0.0
 11
-31.88668122258559
 21
5.833792000000073
 31
0.0
 11
-31.98573422258562
 21
5.850752000000085
 31
0.0
 11
-32.08774522258556
 21
5.873266000000086
 31
0.0
 11
-32.19266222258557
 21
5.90307000000007
 31
0.0
 11
-32.29963022258562
 21
5.943648000000081
 31
0.0
  0
SPLINE
  5
C6E5
330
1F
100
AcDbEntity
  8
AM_0
100
AcDbSpline
210
0.0
220
0.0
230
1.0
 70
     8
 71
     3
 72
    11
 73
     7
 74
     5
 42
0.0000000001
 43
0.0000000001
 44
0.0000000001
 40
0.0
 40
0.0
 40
0.0
 40
0.0
 40
1.544743944234724
 40
3.221399803904463
 40
4.805881781396573
 40
6.100172979994828
 40
6.100172979994828
 40
6.100172979994828
 40
6.100172979994828
 10
-26.96924922258563
 20
3.244844000000114
 30
0.0
 10
-27.45816707969193
 20
3.407396834069039
 30
0.0
 10
-28.47775346155529
 20
3.746383544292507
 30
0.0
 10
-29.93885702086891
 20
4.408492480511169
 30
0.0
 10
-31.27107747344306
 20
5.146357470139939
 30
0.0
 10
-32.03628866069718
 20
5.727011155998248
 30
0.0
 10
-32.38032622258561
 20
5.988072000000101
 30
0.0
 11
-26.96924922258563
 21
3.244844000000114
 31
0.0
 11
-28.42675822258559
 21
3.756607000000087
 31
0.0
 11
-29.95690022258554
 21
4.442056000000093
 31
0.0
 11
-31.33271422258565
 21
5.228007000000104
 31
0.0
 11
-32.38032622258561
 21
5.988072000000101
 31
0.0
  0
SPLINE
  5
C6E6
330
1F
100
AcDbEntity
  8
AM_0
100
AcDbSpline
210
0.0
220
0.0
230
1.0
 70
     8
 71
     3
 72
    11
 73
     7
 74
     5
 42
0.0000000001
 43
0.0000000001
 44
0.0000000001
 40
0.0
 40
0.0
 40
0.0
 40
0.0
 40
0.1066382956774552
 40
0.2138777819919765
 40
0.3215964309344569
 40
0.4296335334548791
 40
0.4296335334548791
 40
0.4296335334548791
 40
0.4296335334548791
 10
-14.73106022258559
 20
1.343031000000109
 30
0.0
 10
-14.70191377977268
 20
1.322634180376434
 30
0.0
 10
-14.64345657636204
 20
1.281725550759952
 30
0.0
 10
-14.563368298045
 20
1.210169613063142
 30
0.0
 10
-14.48926233258801
 20
1.131726475773381
 30
0.0
 10
-14.4471016688418
 20
1.073374867410229
 30
0.0
 10
-14.42599022258559
 20
1.044156000000128
 30
0.0
 11
-14.73106022258559
 21
1.343031000000109
 31
0.0
 11
-14.64491222258561
 21
1.280180000000143
 31
0.0
 11
-14.56453622258561
 21
1.209187000000127
 31
0.0
 11
-14.49116522258566
 21
1.130320000000125
 31
0.0
 11
-14.42599022258559
 21
1.044156000000128
 31
0.0
  0
SPLINE
  5
C6E7
330
1F
100
AcDbEntity
  8
AM_0
100
AcDbSpline
210
0.0
220
0.0
230
1.0
 70
     8
 71
     3
 72
    11
 73
     7
 74
     5
 42
0.0000000001
 43
0.0000000001
 44
0.0000000001
 40
0.0
 40
0.0
 40
0.0
 40
0.0
 40
0.1327606399502621
 40
0.2651041931819327
 40
0.396870751310397
 40
0.5279775360357047
 40
0.5279775360357047
 40
0.5279775360357047
 40
0.5279775360357047
 10
-14.42599022258559
 20
1.044156000000128
 30
0.0
 10
-14.39998138067549
 20
1.008298713337725
 30
0.0
 10
-14.34804540738734
 20
0.9366967908560997
 30
0.0
 10
-14.25689131956705
 20
0.8404172083355032
 30
0.0
 10
-14.15907543376299
 20
0.7519034971741901
 30
0.0
 10
-14.0883194305931
 20
0.7001231787319155
 30
0.0
 10
-14.0530302225855
 20
0.6742980000001353
 30
0.0
 11
-14.42599022258559
 21
1.044156000000128
 31
0.0
 11
-14.34571822258556
 21
0.9384120000001416
 31
0.0
 11
-14.25557722258565
 21
0.841513000000134
 31
0.0
 11
-14.15748122258554
 21
0.753538000000134
 31
0.0
 11
-14.0530302225855
 21
0.6742980000001353
 31
0.0
  0
SPLINE
  5
C6E8
330
1F
100
AcDbEntity
  8
AM_0
100
AcDbSpline
210
0.0
220
0.0
230
1.0
 70
     8
 71
     3
 72
    11
 73
     7
 74
     5
 42
0.0000000001
 43
0.0000000001
 44
0.0000000001
 40
0.0
 40
0.0
 40
0.0
 40
0.0
 40
0.1145190137051116
 40
0.2293591165263511
 40
0.3445221516418953
 40
0.4600061408784661
 40
0.4600061408784661
 40
0.4600061408784661
 40
0.4600061408784661
 10
-11.9511122225856
 20
2.898184000000128
 30
0.0
 10
-11.98797447545318
 20
2.908114193503304
 30
0.0
 10
-12.06180233580003
 20
2.928002422847376
 30
0.0
 10
-12.17145397097691
 20
2.962211401311336
 30
0.0
 10
-12.28047900104936
 20
2.999376187340375
 30
0.0
 10
-12.35223120010072
 20
3.027008578605157
 30
0.0
 10
-12.38815722258562
 20
3.040844000000106
 30
0.0
 11
-11.9511122225856
 21
2.898184000000128
 31
0.0
 11
-12.06149222258557
 21
2.92869400000012
 31
0.0
 11
-12.17119622258553
 21
2.962654000000128
 31
0.0
 11
-12.28012022258565
 21
3.000045000000113
 31
0.0
 11
-12.38815722258562
 21
3.040844000000106
 31
0.0
  0
SPLINE
  5
C6E9
330
1F
100
AcDbEntity
  8
AM_0
100
AcDbSpline
210
0.0
220
0.0
230
1.0
 70
     8
 71
     3
 72
    11
 73
     7
 74
     5
 42
0.0000000001
 43
0.0000000001
 44
0.0000000001
 40
0.0
 40
0.0
 40
0.0
 40
0.0
 40
2.064840856357194
 40
4.134764426854424
 40
6.210101120428744
 40
8.29119629973818
 40
8.29119629973818
 40
8.29119629973818
 40
8.29119629973818
 10
-20.43297522258558
 20
4.930537000000128
 30
0.0
 10
-19.74821701938997
 20
4.857708399828139
 30
0.0
 10
-18.37701504474243
 20
4.711871928062466
 30
0.0
 10
-16.34554026193456
 20
4.302073005715137
 30
0.0
 10
-14.33838099971509
 20
3.764686438278985
 30
0.0
 10
-13.03883196390505
 20
3.282347563235491
 30
0.0
 10
-12.38815722258562
 20
3.040844000000106
 30
0.0
 11
-20.43297522258558
 21
4.930537000000128
 31
0.0
 11
-18.3833442225856
 21
4.680376000000109
 31
0.0
 11
-16.3522302225856
 21
4.281428000000119
 31
0.0
 11
-14.3502942225856
 21
3.734368000000131
 31
0.0
 11
-12.38815722258562
 21
3.040844000000106
 31
0.0
  0
SPLINE
  5
C6EA
330
1F
100
AcDbEntity
  8
AM_0
100
AcDbSpline
210
0.0
220
0.0
230
1.0
 70
     8
 71
     3
 72
    11
 73
     7
 74
     5
 42
0.0000000001
 43
0.0000000001
 44
0.0000000001
 40
0.0
 40
0.0
 40
0.0
 40
0.0
 40
0.1473323097015308
 40
0.2952357497190213
 40
0.4437129403073901
 40
0.5927649825274734
 40
0.5927649825274734
 40
0.5927649825274734
 40
0.5927649825274734
 10
-20.43297522258558
 20
4.930537000000128
 30
0.0
 10
-20.48185526239216
 20
4.935402392943086
 30
0.0
 10
-20.57980482435739
 20
4.945152039413041
 30
0.0
 10
-20.72586086037211
 20
4.968934715412952
 30
0.0
 10
-20.87136784955153
 20
4.998856835179816
 30
0.0
 10
-20.96711510097937
 20
5.024793574402372
 30
0.0
 10
-21.01508122258553
 20
5.037787000000122
 30
0.0
 11
-20.43297522258558
 21
4.930537000000128
 31
0.0
 11
-20.57942422258554
 21
4.9466460000001
 31
0.0
 11
-20.72548722258557
 21
4.969906000000094
 31
0.0
 11
-20.87082022258562
 21
5.000300000000095
 31
0.0
 11
-21.01508122258553
 21
5.037787000000122
 31
0.0
  0
SPLINE
  5
C6EB
330
1F
100
AcDbEntity
  8
AM_0
100
AcDbSpline
210
0.0
220
0.0
230
1.0
 70
     8
 71
     3
 72
    11
 73
     7
 74
     5
 42
0.0000000001
 43
0.0000000001
 44
0.0000000001
 40
0.0
 40
0.0
 40
0.0
 40
0.0
 40
1.56367119388316
 40
3.143233336681082
 40
4.735300887172559
 40
6.335564336344859
 40
6.335564336344859
 40
6.335564336344859
 40
6.335564336344859
 10
-21.01508122258553
 20
5.037787000000122
 30
0.0
 10
-21.5114513756714
 20
5.199279805109958
 30
0.0
 10
-22.5092360880945
 20
5.523906600462502
 30
0.0
 10
-23.91805941874371
 20
6.247492543190622
 30
0.0
 10
-25.25315144252657
 20
7.121181693870643
 30
0.0
 10
-26.0449050540917
 20
7.834294955805742
 30
0.0
 10
-26.44179822258559
 20
8.191767000000083
 30
0.0
 11
-21.01508122258553
 21
5.037787000000122
 31
0.0
 11
-22.48869322258554
 21
5.560793000000103
 31
0.0
 11
-23.90038922258566
 21
6.269405000000119
 31
0.0
 11
-25.22563722258564
 21
7.151673000000101
 31
0.0
 11
-26.44179822258559
 21
8.191767000000083
 31
0.0
  0
SPLINE
  5
C6EC
330
1F
100
AcDbEntity
  8
AM_0
100
AcDbSpline
210
0.0
220
0.0
230
1.0
 70
     8
 71
     3
 72
    11
 73
     7
 74
     5
 42
0.0000000001
 43
0.0000000001
 44
0.0000000001
 40
0.0
 40
0.0
 40
0.0
 40
0.0
 40
0.8989852319704267
 40
1.799952518349326
 40
2.702533109265187
 40
3.606330188615451
 40
3.606330188615451
 40
3.606330188615451
 40
3.606330188615451
 10
-29.35688222258557
 20
10.2954050000001
 30
0.0
 10
-29.09409260839597
 20
10.15109127035107
 30
0.0
 10
-28.56793398972781
 20
9.862145632673801
 30
0.0
 10
-27.82092779672214
 20
9.356840204975576
 30
0.0
 10
-27.10502872187821
 20
8.805780300390308
 30
0.0
 10
-26.66297428818119
 20
8.39652996875457
 30
0.0
 10
-26.44179822258559
 20
8.191767000000083
 30
0.0
 11
-29.35688222258557
 21
10.2954050000001
 31
0.0
 11
-28.57565622258562
 21
9.850590000000096
 31
0.0
 11
-27.82676622258566
 21
9.349685000000079
 31
0.0
 11
-27.11423922258564
 21
8.795648000000085
 31
0.0
 11
-26.44179822258559
 21
8.191767000000083
 31
0.0
  0
SPLINE
  5
C6ED
330
1F
100
AcDbEntity
  8
AM_0
100
AcDbSpline
210
0.0
220
0.0
230
1.0
 70
     8
 71
     3
 72
    11
 73
     7
 74
     5
 42
0.0000000001
 43
0.0000000001
 44
0.0000000001
 40
0.0
 40
0.0
 40
0.0
 40
0.0
 40
1.20959279805807
 40
2.418586044699703
 40
3.609773720647559
 40
4.775994104191343
 40
4.775994104191343
 40
4.775994104191343
 40
4.775994104191343
 10
-29.35688222258557
 20
10.2954050000001
 30
0.0
 10
-29.69709589199434
 20
10.51955685292642
 30
0.0
 10
-30.37735459919657
 20
10.96774945480992
 30
0.0
 10
-31.03518530221645
 20
12.00939673490537
 30
0.0
 10
-31.37467961889656
 20
13.17678038670973
 30
0.0
 10
-31.27165497693316
 20
13.96354500176332
 30
0.0
 10
-31.22068822258563
 20
14.3527610000001
 30
0.0
 11
-29.35688222258557
 21
10.2954050000001
 31
0.0
 11
-30.31761722258556
 21
11.03032200000007
 31
0.0
 11
-30.98542222258561
 21
12.03814200000008
 31
0.0
 11
-31.29345522258563
 21
13.18881300000009
 31
0.0
 11
-31.22068822258563
 21
14.3527610000001
 31
0.0
  0
SPLINE
  5
C6EE
330
1F
100
AcDbEntity
  8
AM_0
100
AcDbSpline
210
0.0
220
0.0
230
1.0
 70
     8
 71
     3
 72
    11
 73
     7
 74
     5
 42
0.0000000001
 43
0.0000000001
 44
0.0000000001
 40
0.0
 40
0.0
 40
0.0
 40
0.0
 40
0.1884385586232518
 40
0.3725370414442902
 40
0.5570083613669291
 40
0.7458408017366678
 40
0.7458408017366678
 40
0.7458408017366678
 40
0.7458408017366678
 10
-42.0650052225856
 20
18.88462200000009
 30
0.0
 10
-42.12868029946465
 20
18.87553872911326
 30
0.0
 10
-42.25456390273336
 20
18.85758139125451
 30
0.0
 10
-42.39372238832427
 20
18.71867116979269
 30
0.0
 10
-42.45613006137026
 20
18.5340239417444
 30
0.0
 10
-42.42423171961884
 20
18.41127664559699
 30
0.0
 10
-42.40809622258566
 20
18.34918600000008
 30
0.0
 11
-42.0650052225856
 21
18.88462200000009
 31
0.0
 11
-42.24763522258561
 21
18.83819600000006
 31
0.0
 11
-42.38095122258565
 21
18.71123500000007
 31
0.0
 11
-42.43764622258564
 21
18.53569200000007
 31
0.0
 11
-42.40809622258566
 21
18.34918600000008
 31
0.0
  0
SPLINE
  5
C6EF
330
1F
100
AcDbEntity
  8
AM_0
100
AcDbSpline
210
0.0
220
0.0
230
1.0
 70
     8
 71
     3
 72
    11
 73
     7
 74
     5
 42
0.0000000001
 43
0.0000000001
 44
0.0000000001
 40
0.0
 40
0.0
 40
0.0
 40
0.0
 40
3.996869079713606
 40
8.03101583741401
 40
12.08645524380843
 40
16.14056354889278
 40
16.14056354889278
 40
16.14056354889278
 40
16.14056354889278
 10
-42.40809622258566
 20
18.34918600000008
 30
0.0
 10
-41.85578967152816
 20
17.13379215696002
 30
0.0
 10
-40.74602536096733
 20
14.6916688330583
 30
0.0
 10
-38.40956479775008
 20
11.38644366911821
 30
0.0
 10
-35.65749747391478
 20
8.390450676640718
 30
0.0
 10
-33.47259709649933
 20
6.788777259312277
 30
0.0
 10
-32.38032622258561
 20
5.988072000000101
 30
0.0
 11
-42.40809622258566
 21
18.34918600000008
 31
0.0
 11
-40.64151922258554
 21
14.76391500000005
 31
0.0
 11
-38.34666322258556
 21
11.44608800000008
 31
0.0
 11
-35.57039922258559
 21
8.489917000000104
 31
0.0
 11
-32.38032622258561
 21
5.988072000000101
 31
0.0
  0
SPLINE
  5
C6F0
330
1F
100
AcDbEntity
  8
AM_0
100
AcDbSpline
210
0.0
220
0.0
230
1.0
 70
     8
 71
     3
 72
    11
 73
     7
 74
     5
 42
0.0000000001
 43
0.0000000001
 44
0.0000000001
 40
0.0
 40
0.0
 40
0.0
 40
0.0
 40
0.0231319963686903
 40
0.0461857309251333
 40
0.0691998451379551
 40
0.0922149332324889
 40
0.0922149332324889
 40
0.0922149332324889
 40
0.0922149332324889
 10
-32.38032622258561
 20
5.988072000000101
 30
0.0
 10
-32.3738506495033
 20
5.983883871978667
 30
0.0
 10
-32.36092141195723
 20
5.975521785507834
 30
0.0
 10
-32.3409088218923
 20
5.964034496088675
 30
0.0
 10
-32.32053398477466
 20
5.953285665604694
 30
0.0
 10
-32.30659824159902
 20
5.946860600515267
 30
0.0
 10
-32.29963022258562
 20
5.943648000000081
 30
0.0
 11
-32.38032622258561
 21
5.988072000000101
 31
0.0
 11
-32.36079222258558
 21
5.975682000000091
 31
0.0
 11
-32.34083122258562
 21
5.964148000000079
 31
0.0
 11
-32.32044422258559
 21
5.953470000000095
 31
0.0
 11
-32.29963022258562
 21
5.943648000000081
 31
0.0
  0
SPLINE
  5
C6F1
330
1F
100
AcDbEntity
  8
AM_0
100
AcDbSpline
210
0.0
220
0.0
230
1.0
 70
     8
 71
     3
 72
    11
 73
     7
 74
     5
 42
0.0000000001
 43
0.0000000001
 44
0.0000000001
 40
0.0
 40
0.0
 40
0.0
 40
0.0
 40
1.582701134987324
 40
3.199394678007101
 40
4.848004590491282
 40
6.502188478818087
 40
6.502188478818087
 40
6.502188478818087
 40
6.502188478818087
 10
-32.29963022258562
 20
5.943648000000081
 30
0.0
 10
-31.77835787411384
 20
6.058180343620414
 30
0.0
 10
-30.72461756861628
 20
6.289704895248104
 30
0.0
 10
-29.10327822574624
 20
5.854911167648029
 30
0.0
 10
-27.78005542839991
 20
4.79256391929785
 30
0.0
 10
-27.29971417459942
 20
3.789604855994975
 30
0.0
 10
-27.0591382225856
 20
3.287279000000097
 30
0.0
 11
-32.29963022258562
 21
5.943648000000081
 31
0.0
 11
-30.73183722258557
 21
6.160369000000088
 31
0.0
 11
-29.16634822258561
 21
5.756708000000116
 31
0.0
 11
-27.88321822258558
 21
4.721579000000104
 31
0.0
 11
-27.0591382225856
 21
3.287279000000097
 31
0.0
  0
SPLINE
  5
C6F2
330
1F
100
AcDbEntity
  8
AM_0
100
AcDbSpline
210
0.0
220
0.0
230
1.0
 70
     8
 71
     3
 72
    11
 73
     7
 74
     5
 42
0.0000000001
 43
0.0000000001
 44
0.0000000001
 40
0.0
 40
0.0
 40
0.0
 40
0.0
 40
0.0250061580415563
 40
0.0498962781698825
 40
0.0747199701192333
 40
0.0995276323226785
 40
0.0995276323226785
 40
0.0995276323226785
 40
0.0995276323226785
 10
-27.0591382225856
 20
3.287279000000097
 30
0.0
 10
-27.05189404913438
 20
3.283152650526163
 30
0.0
 10
-27.03743931790249
 20
3.274919099381061
 30
0.0
 10
-27.01511667770256
 20
3.263847633628119
 30
0.0
 10
-26.99244304937796
 20
3.253673937359387
 30
0.0
 10
-26.97697883332518
 20
3.247786678638398
 30
0.0
 10
-26.96924922258563
 20
3.244844000000114
 30
0.0
 11
-27.0591382225856
 21
3.287279000000097
 31
0.0
 11
-27.03729222258562
 21
3.275111000000094
 31
0.0
 11
-27.01502822258555
 21
3.263983000000109
 31
0.0
 11
-26.99234722258563
 21
3.253894000000116
 31
0.0
 11
-26.96924922258563
 21
3.244844000000114
 31
0.0
  0
SPLINE
  5
C6F3
330
1F
100
AcDbEntity
  8
AM_0
100
AcDbSpline
210
0.0
220
0.0
230
1.0
 70
     8
 71
     3
 72
    11
 73
     7
 74
     5
 42
0.0000000001
 43
0.0000000001
 44
0.0000000001
 40
0.0
 40
0.0
 40
0.0
 40
0.0
 40
0.3582716903636651
 40
0.7160401021792023
 40
1.073303579531626
 40
1.430040415534102
 40
1.430040415534102
 40
1.430040415534102
 40
1.430040415534102
 10
-26.96924922258563
 20
3.244844000000114
 30
0.0
 10
-26.85682223582784
 20
3.20455986336543
 30
0.0
 10
-26.63212619298942
 20
3.124048178831213
 30
0.0
 10
-26.29310997288751
 20
3.009690821413054
 30
0.0
 10
-25.95317599512726
 20
2.899741778260058
 30
0.0
 10
-25.72538280724263
 20
2.830773635956212
 30
0.0
 10
-25.61157022258555
 20
2.796315000000106
 30
0.0
 11
-26.96924922258563
 21
3.244844000000114
 31
0.0
 11
-26.63159922258557
 21
3.125048000000106
 31
0.0
 11
-26.29271622258556
 21
3.010346000000083
 31
0.0
 11
-25.95267522258564
 21
2.900759000000107
 31
0.0
 11
-25.61157022258555
 21
2.796315000000106
 31
0.0
  0
SPLINE
  5
C6F4
330
1F
100
AcDbEntity
  8
AM_0
100
AcDbSpline
210
0.0
220
0.0
230
1.0
 70
     8
 71
     3
 72
    11
 73
     7
 74
     5
 42
0.0000000001
 43
0.0000000001
 44
0.0000000001
 40
0.0
 40
0.0
 40
0.0
 40
0.0
 40
0.0866430658044718
 40
0.1732554148778089
 40
0.2599143370554537
 40
0.3467109384866134
 40
0.3467109384866134
 40
0.3467109384866134
 40
0.3467109384866134
 10
-18.09450722258555
 20
1.63640100000012
 30
0.0
 10
-18.07149062191479
 20
1.653875339347283
 30
0.0
 10
-18.02546558042692
 20
1.688817823032484
 30
0.0
 10
-17.95135572550574
 20
1.733925450339057
 30
0.0
 10
-17.87419992749029
 20
1.77373536191793
 30
0.0
 10
-17.82024173388178
 20
1.794612930158983
 30
0.0
 10
-17.7932412225856
 20
1.805060000000111
 30
0.0
 11
-18.09450722258555
 21
1.63640100000012
 31
0.0
 11
-18.02461322258557
 21
1.687605000000132
 31
0.0
 11
-17.95086922258553
 21
1.733031000000096
 31
0.0
 11
-17.8736172225856
 21
1.77229800000012
 31
0.0
 11
-17.7932412225856
 21
1.805060000000111
 31
0.0
  0
SPLINE
  5
C6F5
330
1F
100
AcDbEntity
  8
AM_0
100
AcDbSpline
210
0.0
220
0.0
230
1.0
 70
     8
 71
     3
 72
    11
 73
     7
 74
     5
 42
0.0000000001
 43
0.0000000001
 44
0.0000000001
 40
0.0
 40
0.0
 40
0.0
 40
0.0
 40
0.7814225455923243
 40
1.574614759645173
 40
2.380948055289675
 40
3.200348452707836
 40
3.200348452707836
 40
3.200348452707836
 40
3.200348452707836
 10
-17.7932412225856
 20
1.805060000000111
 30
0.0
 10
-17.54011577762828
 20
1.873187668428965
 30
0.0
 10
-17.03005235045979
 20
2.01046913394769
 30
0.0
 10
-16.22732373937736
 20
1.956194849900434
 30
0.0
 10
-15.43969862274525
 20
1.752997343536986
 30
0.0
 10
-14.96853537332565
 20
1.480416751615936
 30
0.0
 10
-14.73106022258559
 20
1.343031000000109
 30
0.0
 11
-17.7932412225856
 21
1.805060000000111
 31
0.0
 11
-17.02873922258561
 21
1.966794000000106
 31
0.0
 11
-16.23629222258557
 21
1.932419000000095
 31
0.0
 11
-15.45826822258561
 21
1.720636000000126
 31
0.0
 11
-14.73106022258559
 21
1.343031000000109
 31
0.0
  0
ELLIPSE
  5
C6F6
330
1F
100
AcDbEntity
  8
AM_0
100
AcDbEllipse
 10
-43.41869122258564
 20
18.79052700000005
 30
0.0
 11
1.538758409708996
 21
1.525388949269002
 31
0.0
210
0.0
220
0.0
230
1.0
 40
0.8391000138459398
 41
-0.8226438954463908
 42
-0.7724968621389989
  0
ELLIPSE
  5
C6F7
330
1F
100
AcDbEntity
  8
AM_0
100
AcDbEllipse
 10
-28.96239122258558
 20
18.24345700000009
 30
0.0
 11
8.699326518876972
 21
12.47217434853701
 31
0.0
210
0.0
220
0.0
230
1.0
 40
0.95738756958355
 41
2.155273786486139
 42
3.000930923067479
  0
ELLIPSE
  5
C6F8
330
1F
100
AcDbEntity
  8
AM_0
100
AcDbEllipse
 10
-55.18404222258559
 20
0.0000000000000568
 30
0.0
 11
-2.711418089685045
 21
22.99633375841799
 31
0.0
210
0.0
220
0.0
230
1.0
 40
0.15145950040917
 41
-0.330004868179095
 42
-0.017857704825777
  0
ELLIPSE
  5
C6F9
330
1F
100
AcDbEntity
  8
AM_0
100
AcDbEllipse
 10
-50.60192322258555
 20
0.0000000000000568
 30
0.0
 11
-2.711418089685045
 21
22.99633375841799
 31
0.0
210
0.0
220
0.0
230
1.0
 40
0.15145950040917
 41
-0.2959811376628
 42
-0.017857704825777
  0
ELLIPSE
  5
C6FA
330
1F
100
AcDbEntity
  8
AM_0
100
AcDbEllipse
 10
-46.04690422258554
 20
-0.0000009999999406
 30
0.0
 11
130.8099563518619
 21
5.429635246744251
 31
0.0
210
0.0
220
0.0
230
0.9999999999999998
 40
0.17085799567949
 41
1.610602294518499
 42
1.64462262757849
  0
ELLIPSE
  5
C6FB
330
1F
100
AcDbEntity
  8
AM_0
100
AcDbEllipse
 10
-13.83719622258553
 20
-0.0000019999998813
 30
0.0
 11
-129.167801543973
 21
22.98981944482273
 31
0.0
210
0.0
220
0.0
230
1.0
 40
0.00528625633111
 41
-1.491871532514809
 42
-1.448899822801719
  0
ELLIPSE
  5
C6FC
330
1F
100
AcDbEntity
  8
AM_0
100
AcDbEllipse
 10
-149.2531832225855
 20
-0.0000000000001421
 30
0.0
 11
308.2886631695219
 21
22.3241604468686
 31
0.0
210
0.0
220
0.0
230
1.0
 40
0.01795454813686
 41
-1.27721460139354
 42
-1.208214080787399
  0
ELLIPSE
  5
C6FD
330
1F
100
AcDbEntity
  8
AM_0
100
AcDbEllipse
 10
-62.17922922258558
 20
0.0000000000000284
 30
0.0
 11
-16.45308458268004
 21
22.99962003100497
 31
0.0
210
0.0
220
0.0
230
0.9999999999999998
 40
0.00808519364502
 41
-1.426412398665889
 42
-0.8513244475978179
  0
ELLIPSE
  5
C6FE
330
1F
100
AcDbEntity
  8
AM_0
100
AcDbEllipse
 10
2.518950777414431
 20
0.0000000000001705
 30
0.0
 11
130.8099533544429
 21
5.429635122328257
 31
0.0
210
0.0
220
0.0
230
1.0
 40
0.1708579919564802
 41
2.052277268947699
 42
2.178020863790949
  0
ELLIPSE
  5
C6FF
330
1F
100
AcDbEntity
  8
AM_0
100
AcDbEllipse
 10
-57.1704852225856
 20
0.0000350000000253
 30
0.0
 11
-1.569473891041046
 21
22.99989908174202
 31
0.0
210
0.0
220
0.0
230
1.0
 40
0.03487014879289
 41
0.675669748421485
 42
0.7174152024990291
  0
ELLIPSE
  5
C700
330
1F
100
AcDbEntity
  8
AM_0
100
AcDbEllipse
 10
-57.1704812225856
 20
-0.000004999999959
 30
0.0
 11
-1.569476614240045
 21
22.99993898893698
 31
0.0
210
0.0
220
0.0
230
1.0
 40
0.0348701316672
 41
0.570041951176508
 42
0.61828795273748
  0
ELLIPSE
  5
C701
330
1F
100
AcDbEntity
  8
AM_0
100
AcDbEllipse
 10
-58.61064822258558
 20
0.0000000000000284
 30
0.0
 11
-2.711418089685045
 21
22.99633375841799
 31
0.0
210
0.0
220
0.0
230
1.0
 40
0.15145950040917
 41
-0.590285245523106
 42
-0.523158015335124
  0
ELLIPSE
  5
C702
330
1F
100
AcDbEntity
  8
AM_0
100
AcDbEllipse
 10
-23.81402222258549
 20
0.0000000000001137
 30
0.0
 11
130.8099533544429
 21
5.429635122328257
 31
0.0
210
0.0
220
0.0
230
1.0
 40
0.1708579919564802
 41
1.739238259912959
 42
1.837777425642199
  0
ELLIPSE
  5
C703
330
1F
100
AcDbEntity
  8
AM_0
100
AcDbEllipse
 10
-45.62268822258554
 20
0.0000000000000568
 30
0.0
 11
-2.711418089685045
 21
22.99633375841799
 31
0.0
210
0.0
220
0.0
230
1.0
 40
0.15145950040917
 41
-0.62720326747347
 42
-0.424620292431807
  0
ELLIPSE
  5
C704
330
1F
100
AcDbEntity
  8
AM_0
100
AcDbEllipse
 10
2.518899777414446
 20
0.0000210000001744
 30
0.0
 11
130.8098724241309
 21
5.429631763088257
 31
0.0
210
0.0
220
0.0
230
0.9999999999999998
 40
0.17085792198759
 41
1.924711322150299
 42
1.941824910494689
  0
ELLIPSE
  5
C705
330
1F
100
AcDbEntity
  8
AM_0
100
AcDbEllipse
 10
-46.03360122258559
 20
0.0000000000000568
 30
0.0
 11
0.1035771839439546
 21
22.999992778652
 31
0.0
210
0.0
220
0.0
230
1.0
 40
0.17632518045692
 41
-0.5914416978077871
 42
-0.420918602657137
  0
ELLIPSE
  5
C706
330
1F
100
AcDbEntity
  8
AM_0
100
AcDbEllipse
 10
3.384866777414515
 20
0.0000000000001705
 30
0.0
 11
130.440761721681
 21
0.0182617067602577
 31
0.0
210
0.0
220
0.0
230
1.0
 40
0.17632519521524
 41
1.863765833483769
 42
1.93814562989084
  0
ELLIPSE
  5
C707
330
1F
100
AcDbEntity
  8
AM_0
100
AcDbEllipse
 10
-35.55940222258559
 20
-0.0000599999999054
 30
0.0
 11
0.1035774541419546
 21
23.000052778044
 31
0.0
210
0.0
220
0.0
230
1.0
 40
0.17632498135023
 41
-0.02878571825944
 42
-0.020221349372287
  0
ELLIPSE
  5
C708
330
1F
100
AcDbEntity
  8
AM_0
100
AcDbEllipse
 10
-35.55940222258559
 20
0.0000000000000853
 30
0.0
 11
0.1035771839439546
 21
22.999992778652
 31
0.0
210
0.0
220
0.0
230
1.0
 40
0.17632518045692
 41
-0.292967685337353
 42
-0.028785685772519
  0
ELLIPSE
  5
C709
330
1F
100
AcDbEntity
  8
AM_0
100
AcDbEllipse
 10
-35.13550622258557
 20
-0.0289989999999136
 30
0.0
 11
0.1961007098509545
 21
23.02859006414
 31
0.0
210
0.0
220
0.0
230
1.0
 40
0.6997475620863299
 41
0.024803492496291
 42
0.026959246992968
  0
ELLIPSE
  5
C70A
330
1F
100
AcDbEntity
  8
AM_0
100
AcDbEllipse
 10
-50.60192322258555
 20
0.0000000000000568
 30
0.0
 11
-2.711418089685045
 21
22.99633375841799
 31
0.0
210
0.0
220
0.0
230
1.0
 40
0.15145950040917
 41
-0.017857704825777
 42
0.275422064703961
  0
ELLIPSE
  5
C70B
330
1F
100
AcDbEntity
  8
AM_0
100
AcDbEllipse
 10
-49.04402722258558
 20
19.85021600000004
 30
0.0
 11
0.7334063673759987
 21
0.6255206992520018
 31
0.0
210
0.0
220
0.0
230
1.0
 40
0.64632909028664
 41
0.605708488751123
 42
0.7661136757813751
  0
ELLIPSE
  5
C70C
330
1F
100
AcDbEntity
  8
AM_0
100
AcDbEllipse
 10
-57.97196822258562
 20
18.82202800000004
 30
0.0
 11
-0.803821341061
 21
0.0908847011509984
 31
0.0
210
0.0
220
0.0
230
1.0
 40
0.9177173175365899
 41
-1.32395914298705
 42
-1.023282388383129
  0
ELLIPSE
  5
C70D
330
1F
100
AcDbEntity
  8
AM_0
100
AcDbEllipse
 10
-58.01171222258566
 20
18.74843100000004
 30
0.0
 11
-0.1787853552650016
 21
0.7919562322119998
 31
0.0
210
0.0
220
0.0
230
1.0
 40
0.9740788731422899
 41
0.171046997061266
 42
0.840590988789464
  0
ELLIPSE
  5
C70E
330
1F
100
AcDbEntity
  8
AM_0
100
AcDbEllipse
 10
-35.01265022258567
 20
23.4538940000001
 30
0.0
 11
0.3077516819419994
 21
0.3050777898540005
 31
0.0
210
0.0
220
0.0
230
1.0
 40
0.8391009369086599
 41
0.6981304635312049
 42
1.48352991453887
  0
ELLIPSE
  5
C70F
330
1F
100
AcDbEntity
  8
AM_0
100
AcDbEllipse
 10
-35.01265022258567
 20
23.4538940000001
 30
0.0
 11
0.0017453251799992
 21
0.3999961922820001
 31
0.0
210
0.0
220
0.0
230
1.0
 40
0.8111599999999999
 41
0.7853982937803431
 42
1.57079606171195
  0
ELLIPSE
  5
C710
330
1F
100
AcDbEntity
  8
AM_0
100
AcDbEllipse
 10
-65.10849422258556
 20
-13.48353799999998
 30
0.0
 11
1.544737824574301
 21
353.94416812431
 31
0.0
210
0.0
220
0.0
230
1.0
 40
0.0870904798126
 41
-1.477799924642449
 42
-1.47215922260405
  0
ELLIPSE
  5
C711
330
1F
100
AcDbEntity
  8
AM_0
100
AcDbEllipse
 10
-22.66127722258562
 20
23.55000200000012
 30
0.0
 11
-5.027422510615999
 21
0.0471920595839901
 31
0.0
210
0.0
220
0.0
230
1.0
 40
0.02435017276482
 41
-1.26641036861247
 42
-0.9612455900405921
  0
ELLIPSE
  5
C712
330
1F
100
AcDbEntity
  8
AM_0
100
AcDbEllipse
 10
-43.22321122258566
 20
18.48967200000006
 30
0.0
 11
0.3077516819419994
 21
0.3050777898540005
 31
0.0
210
0.0
220
0.0
230
1.0
 40
0.8391009369086599
 41
0.6981304635312049
 42
1.65490755634732
  0
ELLIPSE
  5
C713
330
1F
100
AcDbEntity
  8
AM_0
100
AcDbEllipse
 10
-74.18901622258556
 20
5.981571999999999
 30
0.0
 11
-189.877291720051
 21
33.95266552544661
 31
0.0
210
0.0
220
0.0
230
0.9999999999999998
 40
0.02828545315553
 41
4.34568784345094
 42
4.36017414514298
  0
ELLIPSE
  5
C714
330
1F
100
AcDbEntity
  8
AM_0
100
AcDbEllipse
 10
-39.55134922258563
 20
15.58840200000008
 30
0.0
 11
0.0130899388489941
 21
2.999971442113999
 31
0.0
210
0.0
220
0.0
230
0.9999999999999998
 40
0.9848076666666701
 41
1.57079600496478
 42
2.35619483943865
  0
ELLIPSE
  5
C715
330
1F
100
AcDbEntity
  8
AM_0
100
AcDbEllipse
 10
-43.43605622258556
 20
18.79060300000008
 30
0.0
 11
0.008726625898996
 21
1.999980961408999
 31
0.0
210
0.0
220
0.0
230
1.0
 40
0.9848079999999999
 41
-1.52077532546772
 42
-0.293909697168
  0
ELLIPSE
  5
C716
330
1F
100
AcDbEntity
  8
AM_0
100
AcDbEllipse
 10
-42.29488622258569
 20
18.78562400000006
 30
0.0
 11
0.008726625898996
 21
1.999980961408999
 31
0.0
210
0.0
220
0.0
230
1.0
 40
0.9848079999999999
 41
-0.000001015467944
 42
0.6741838555037281
  0
ELLIPSE
  5
C717
330
1F
100
AcDbEntity
  8
AM_0
100
AcDbEllipse
 10
-42.29488622258569
 20
18.78562400000006
 30
0.0
 11
0.008726625898996
 21
1.999980961408999
 31
0.0
210
0.0
220
0.0
230
1.0
 40
0.9848079999999999
 41
2.45934503033852
 42
3.04142518586896
  0
ELLIPSE
  5
C718
330
1F
100
AcDbEntity
  8
AM_0
100
AcDbEllipse
 10
-42.29488622258569
 20
18.78562400000006
 30
0.0
 11
0.008726625898996
 21
1.999980961408999
 31
0.0
210
0.0
220
0.0
230
1.0
 40
0.9848079999999999
 41
-1.47062866879419
 42
-0.000001015467944
  0
ELLIPSE
  5
C719
330
1F
100
AcDbEntity
  8
AM_0
100
AcDbEllipse
 10
-57.63974122258559
 20
9.314536000000032
 30
0.0
 11
1.586799779304997
 21
1.217401519795002
 31
0.0
210
0.0
220
0.0
230
1.0
 40
0.95868
 41
3.486693809552629
 42
3.88159376671024
  0
ELLIPSE
  5
C71A
330
1F
100
AcDbEntity
  8
AM_0
100
AcDbEllipse
 10
-56.85010022258563
 20
8.285293000000024
 30
0.0
 11
1.586799779304997
 21
1.217401519795002
 31
0.0
210
0.0
220
0.0
230
1.0
 40
0.95868
 41
3.14159301492375
 42
4.939239368538149
  0
ELLIPSE
  5
C71B
330
1F
100
AcDbEntity
  8
AM_0
100
AcDbEllipse
 10
-47.02931622258563
 20
9.41630500000005
 30
0.0
 11
1.586799779304997
 21
1.217401519795002
 31
0.0
210
0.0
220
0.0
230
1.0
 40
0.95868
 41
3.3684428840029
 42
5.724637322816049
  0
ELLIPSE
  5
C71C
330
1F
100
AcDbEntity
  8
AM_0
100
AcDbEllipse
 10
-56.85010022258563
 20
8.285293000000024
 30
0.0
 11
1.586799779304997
 21
1.217401519795002
 31
0.0
210
0.0
220
0.0
230
1.0
 40
0.95868
 41
1.79764638137252
 42
3.14159301492375
  0
ELLIPSE
  5
C71D
330
1F
100
AcDbEntity
  8
AM_0
100
AcDbEllipse
 10
-23.59072722258554
 20
1.735926000000119
 30
0.0
 11
-22.57679905202598
 21
4.021968998752955
 31
0.0
210
0.0
220
0.0
230
0.9999999999999998
 40
0.03015369185318
 41
3.945171235587229
 42
4.73145860907515
  0
ELLIPSE
  5
C71E
330
1F
100
AcDbEntity
  8
AM_0
100
AcDbEllipse
 10
-61.93123022258555
 20
8.481064000000031
 30
0.0
 11
3.966999448261993
 21
3.043503799487007
 31
0.0
210
0.0
220
0.0
230
1.0
 40
0.9586802
 41
3.296690470354569
 42
4.153841128515689
  0
ELLIPSE
  5
C71F
330
1F
100
AcDbEntity
  8
AM_0
100
AcDbEllipse
 10
-42.3257542225856
 20
10.73893100000009
 30
0.0
 11
3.966999448261993
 21
3.043503799487007
 31
0.0
210
0.0
220
0.0
230
1.0
 40
0.9586802
 41
4.153841128515689
 42
4.752866423096599
  0
ELLIPSE
  5
C720
330
1F
100
AcDbEntity
  8
AM_0
100
AcDbEllipse
 10
-19.63486322258563
 20
11.81370000000009
 30
0.0
 11
0.0202894052159908
 21
4.649955735277
 31
0.0
210
0.0
220
0.0
230
0.9999999999999998
 40
0.9848077419354799
 41
0.0
 42
3.141593005332119
  0
ELLIPSE
  5
C721
330
1F
100
AcDbEntity
  8
AM_0
100
AcDbEllipse
 10
-19.63486322258563
 20
11.81370000000009
 30
0.0
 11
0.0202894052159908
 21
4.649955735277
 31
0.0
210
0.0
220
0.0
230
0.9999999999999998
 40
0.9848077419354799
 41
4.71238899970199
 42
6.283184995035929
  0
ELLIPSE
  5
C722
330
1F
100
AcDbEntity
  8
AM_0
100
AcDbEllipse
 10
-19.94939322258562
 20
11.81507200000009
 30
0.0
 11
0.0202894052159908
 21
4.649955735277
 31
0.0
210
0.0
220
0.0
230
0.9999999999999998
 40
0.9848077419354799
 41
2.25372036908643
 42
3.141593005332119
  0
ELLIPSE
  5
C723
330
1F
100
AcDbEntity
  8
AM_0
100
AcDbEllipse
 10
-19.94939322258562
 20
11.81507200000009
 30
0.0
 11
0.0202894052159908
 21
4.649955735277
 31
0.0
210
0.0
220
0.0
230
0.9999999999999998
 40
0.9848077419354799
 41
0.0
 42
0.8884997378741321
  0
ELLIPSE
  5
C724
330
1F
100
AcDbEntity
  8
AM_0
100
AcDbEllipse
 10
-19.63486322258563
 20
11.81370000000009
 30
0.0
 11
0.0202894052159908
 21
4.649955735277
 31
0.0
210
0.0
220
0.0
230
0.9999999999999998
 40
0.9848077419354799
 41
3.141593005332119
 42
4.71238899970199
  0
ELLIPSE
  5
C725
330
1F
100
AcDbEntity
  8
AM_0
100
AcDbEllipse
 10
-19.58473622258554
 20
11.8134810000001
 30
0.0
 11
0.0181077487409918
 21
4.149960494924999
 31
0.0
210
0.0
220
0.0
230
1.0
 40
0.9848077108433699
 41
-1.56649928810007
 42
4.716685716566509
  0
ELLIPSE
  5
C726
330
1F
100
AcDbEntity
  8
AM_0
100
AcDbEllipse
 10
-52.35438122258563
 20
13.87505900000002
 30
0.0
 11
2.380199668956996
 21
1.826102279692004
 31
0.0
210
0.0
220
0.0
230
0.9999999999999998
 40
0.95868033333333
 41
0.0
 42
3.141593015060279
  0
ELLIPSE
  5
C727
330
1F
100
AcDbEntity
  8
AM_0
100
AcDbEllipse
 10
-52.35438122258563
 20
13.87505900000002
 30
0.0
 11
2.380199668956996
 21
1.826102279692004
 31
0.0
210
0.0
220
0.0
230
0.9999999999999998
 40
0.95868033333333
 41
3.141593015060279
 42
5.72463747907799
  0
ELLIPSE
  5
C728
330
1F
100
AcDbEntity
  8
AM_0
100
AcDbEllipse
 10
-52.58434322258563
 20
14.17479700000004
 30
0.0
 11
2.380199668956996
 21
1.826102279692004
 31
0.0
210
0.0
220
0.0
230
0.9999999999999998
 40
0.95868033333333
 41
4.688674691064839
 42
6.217459572859599
  0
ELLIPSE
  5
C729
330
1F
100
AcDbEntity
  8
AM_0
100
AcDbEllipse
 10
-52.35438122258563
 20
13.87505900000002
 30
0.0
 11
2.380199668956996
 21
1.826102279692004
 31
0.0
210
0.0
220
0.0
230
0.9999999999999998
 40
0.95868033333333
 41
-0.558547514965504
 42
0.0
  0
ELLIPSE
  5
C72A
330
1F
100
AcDbEntity
  8
AM_0
100
AcDbEllipse
 10
-52.7235392225856
 20
14.03929800000003
 30
0.0
 11
2.221519691026996
 21
1.704362127712004
 31
0.0
210
0.0
220
0.0
230
1.0
 40
0.95868035714286
 41
0.0
 42
0.9153949560175069
  0
ELLIPSE
  5
C72B
330
1F
100
AcDbEntity
  8
AM_0
100
AcDbEllipse
 10
-52.61963922258553
 20
13.90387100000003
 30
0.0
 11
2.221519691026996
 21
1.704362127712004
 31
0.0
210
0.0
220
0.0
230
1.0
 40
0.95868035714286
 41
3.141593015161949
 42
6.283184986629619
  0
ELLIPSE
  5
C72C
330
1F
100
AcDbEntity
  8
AM_0
100
AcDbEllipse
 10
-52.61963922258553
 20
13.90387100000003
 30
0.0
 11
2.221519691026996
 21
1.704362127712004
 31
0.0
210
0.0
220
0.0
230
1.0
 40
0.95868035714286
 41
0.0
 42
1.57927460046977
  0
ELLIPSE
  5
C72D
330
1F
100
AcDbEntity
  8
AM_0
100
AcDbEllipse
 10
-52.62484922258557
 20
13.89989000000002
 30
0.0
 11
2.216218742711996
 21
1.700499420377005
 31
0.0
210
0.0
220
0.0
230
1.0
 40
0.9598048000263499
 41
3.136428426323379
 42
3.14153675306698
  0
ELLIPSE
  5
C72E
330
1F
100
AcDbEntity
  8
AM_0
100
AcDbEllipse
 10
-9.584002222585581
 20
7.378881000000149
 30
0.0
 11
0.0003757379679998
 21
0.086112180265
 31
0.0
210
0.0
220
0.0
230
1.0
 40
0.9847990431177599
 41
3.401649052951819
 42
6.023128556762
  0
ELLIPSE
  5
C72F
330
1F
100
AcDbEntity
  8
AM_0
100
AcDbEllipse
 10
-9.527830222585635
 20
7.295418000000125
 30
0.0
 11
-0.0513232678510004
 21
0.1933026698659999
 31
0.0
210
0.0
220
0.0
230
1.0
 40
0.16781
 41
1.525487778894409
 42
3.00901933219698
  0
ELLIPSE
  5
C730
330
1F
100
AcDbEntity
  8
AM_0
100
AcDbEllipse
 10
-10.76760922258563
 20
6.125025000000107
 30
0.0
 11
0.1936875229159999
 21
0.0498512132910004
 31
0.0
210
0.0
220
0.0
230
1.0
 40
0.04465
 41
0.256056746699429
 42
1.73957077086481
  0
ELLIPSE
  5
C731
330
1F
100
AcDbEntity
  8
AM_0
100
AcDbEllipse
 10
-10.19479522258563
 20
7.11833300000012
 30
0.0
 11
-0.0513232678510004
 21
0.1933026698659999
 31
0.0
210
0.0
220
0.0
230
1.0
 40
0.16781
 41
1.525487778894409
 42
3.00901933219698
  0
ELLIPSE
  5
C732
330
1F
100
AcDbEntity
  8
AM_0
100
AcDbEllipse
 10
-10.02686022258558
 20
6.331072000000119
 30
0.0
 11
0.0035512436869984
 21
0.813879252369
 31
0.0
210
0.0
220
0.0
230
1.0
 40
0.9848074732733197
 41
0.260053921190573
 42
1.830850538800419
  0
ELLIPSE
  5
C733
330
1F
100
AcDbEntity
  8
AM_0
100
AcDbEllipse
 10
-9.57071522258559
 20
7.462041000000112
 30
0.0
 11
-0.0513232678510004
 21
0.1933026698659999
 31
0.0
210
0.0
220
0.0
230
1.0
 40
0.16781
 41
0.041958058580473
 42
1.525487778894409
  0
ELLIPSE
  5
C734
330
1F
100
AcDbEntity
  8
AM_0
100
AcDbEllipse
 10
-10.59330422258563
 20
5.447795000000127
 30
0.0
 11
0.1936875229159999
 21
0.0498512132910004
 31
0.0
210
0.0
220
0.0
230
1.0
 40
0.04465
 41
0.256056746699429
 42
1.73957077086481
  0
ELLIPSE
  5
C735
330
1F
100
AcDbEntity
  8
AM_0
100
AcDbEllipse
 10
-10.71008222258558
 20
5.426162000000147
 30
0.0
 11
0.0003757379679998
 21
0.086112180265
 31
0.0
210
0.0
220
0.0
230
1.0
 40
0.9847990431177599
 41
1.830848411698159
 42
4.97244042030945
  0
ELLIPSE
  5
C736
330
1F
100
AcDbEntity
  8
AM_0
100
AcDbEllipse
 10
-10.7574012225856
 20
5.40422500000011
 30
0.0
 11
0.1936875229159999
 21
0.0498512132910004
 31
0.0
210
0.0
220
0.0
230
1.0
 40
0.04465
 41
1.73957077086481
 42
2.6198503015092
  0
ELLIPSE
  5
C737
330
1F
100
AcDbEntity
  8
AM_0
100
AcDbEllipse
 10
-10.80936522258559
 20
7.13317000000012
 30
0.0
 11
-0.0513232678510004
 21
0.1933026698659999
 31
0.0
210
0.0
220
0.0
230
1.0
 40
0.16781
 41
0.041958058580473
 42
1.525487778894409
  0
ELLIPSE
  5
C738
330
1F
100
AcDbEntity
  8
AM_0
100
AcDbEllipse
 10
-11.0811112225856
 20
6.661939000000131
 30
0.0
 11
0.1936875229159999
 21
0.0498512132910004
 31
0.0
210
0.0
220
0.0
230
1.0
 40
0.04465
 41
1.73957077086481
 42
2.616823585514209
  0
ELLIPSE
  5
C739
330
1F
100
AcDbEntity
  8
AM_0
100
AcDbEllipse
 10
-10.74794922258558
 20
6.759768000000121
 30
0.0
 11
0.0016847318529992
 21
0.386109324476
 31
0.0
210
0.0
220
0.0
230
1.0
 40
0.9848075563371301
 41
0.260053900231892
 42
1.830850559759119
  0
ELLIPSE
  5
C73A
330
1F
100
AcDbEntity
  8
AM_0
100
AcDbEllipse
 10
-9.552299222585588
 20
7.378743000000127
 30
0.0
 11
0.0012450800769994
 21
0.28534928365
 31
0.0
210
0.0
220
0.0
230
1.0
 40
0.9848082368443199
 41
3.401646733168789
 42
6.02313087654787
  0
ELLIPSE
  5
C73B
330
1F
100
AcDbEntity
  8
AM_0
100
AcDbEllipse
 10
-9.995158222585587
 20
6.330934000000127
 30
0.0
 11
0.0026819015779988
 21
0.6146421489839998
 31
0.0
210
0.0
220
0.0
230
1.0
 40
0.9848075646548901
 41
0.260053898133154
 42
1.83085056185786
  0
ELLIPSE
  5
C73C
330
1F
100
AcDbEntity
  8
AM_0
100
AcDbEllipse
 10
-10.6232592225856
 20
5.425783000000137
 30
0.0
 11
0.0013662536409994
 21
0.3131200192899999
 31
0.0
210
0.0
220
0.0
230
1.0
 40
0.9848078869964799
 41
2.62240793257078
 42
4.972442651797519
  0
ELLIPSE
  5
C73D
330
1F
100
AcDbEntity
  8
AM_0
100
AcDbEllipse
 10
-10.67837922258559
 20
5.426023000000128
 30
0.0
 11
0.0012450800769994
 21
0.28534928365
 31
0.0
210
0.0
220
0.0
230
1.0
 40
0.9848082368443199
 41
2.705675547696909
 42
4.972442740071099
  0
ELLIPSE
  5
C73E
330
1F
100
AcDbEntity
  8
AM_0
100
AcDbEllipse
 10
-10.71624722258559
 20
6.759630000000129
 30
0.0
 11
0.0025540739619988
 21
0.585346427861
 31
0.0
210
0.0
220
0.0
230
0.9999999999999998
 40
0.9848074321092301
 41
0.260053931577106
 42
0.4781445500840931
  0
ELLIPSE
  5
C73F
330
1F
100
AcDbEntity
  8
AM_0
100
AcDbEllipse
 10
-10.6611262225856
 20
6.759389000000112
 30
0.0
 11
0.0026752475259988
 21
0.6131171635010001
 31
0.0
210
0.0
220
0.0
230
1.0
 40
0.98480892088537
 41
0.519184617903524
 42
1.83085090406258
  0
ELLIPSE
  5
C740
330
1F
100
AcDbEntity
  8
AM_0
100
AcDbEllipse
 10
-35.74935622258559
 20
19.25706800000009
 30
0.0
 11
0.0017453251799992
 21
0.3999961922820001
 31
0.0
210
0.0
220
0.0
230
1.0
 40
0.9848074999999999
 41
3.14159300503297
 42
3.864326954499519
  0
ELLIPSE
  5
C741
330
1F
100
AcDbEntity
  8
AM_0
100
AcDbEllipse
 10
-50.09969722258563
 20
12.54111000000006
 30
0.0
 11
-153.7645574328491
 21
88.67186429460666
 31
0.0
210
0.0
220
0.0
230
0.9999999999999998
 40
0.08708641006628
 41
-1.656413486656159
 42
-1.62354601373847
  0
ELLIPSE
  5
C742
330
1F
100
AcDbEntity
  8
AM_0
100
AcDbEllipse
 10
-24.22969922258568
 20
23.55684500000012
 30
0.0
 11
0.0010908282369995
 21
0.249997620176
 31
0.0
210
0.0
220
0.0
230
1.0
 40
0.286892
 41
-1.050136798018469
 42
0.0
  0
ELLIPSE
  5
C743
330
1F
100
AcDbEntity
  8
AM_0
100
AcDbEllipse
 10
-51.02389522258556
 20
10.93848100000005
 30
0.0
 11
-153.7645912177442
 21
88.67188377744174
 31
0.0
210
0.0
220
0.0
230
1.0
 40
0.08708643036842
 41
-1.656413506518379
 42
-1.62946410718771
  0
ELLIPSE
  5
C744
330
1F
100
AcDbEntity
  8
AM_0
100
AcDbEllipse
 10
-24.31993922258561
 20
15.16537500000009
 30
0.0
 11
0.1936875229159999
 21
0.0498512132910004
 31
0.0
210
0.0
220
0.0
230
1.0
 40
0.04465
 41
0.256056746699429
 42
1.73957077086481
  0
ELLIPSE
  5
C745
330
1F
100
AcDbEntity
  8
AM_0
100
AcDbEllipse
 10
-20.01885222258556
 20
11.81537600000012
 30
0.0
 11
0.0211620678059904
 21
4.849953831417998
 31
0.0
210
0.0
220
0.0
230
1.0
 40
0.98480783505155
 41
2.694362219600229
 42
3.715064907682229
  0
ELLIPSE
  5
C746
330
1F
100
AcDbEntity
  8
AM_0
100
AcDbEllipse
 10
-20.01885222258556
 20
11.81537600000012
 30
0.0
 11
0.0211620678059904
 21
4.849953831417998
 31
0.0
210
0.0
220
0.0
230
1.0
 40
0.98480783505155
 41
-0.5734729118740361
 42
0.0
  0
ELLIPSE
  5
C747
330
1F
100
AcDbEntity
  8
AM_0
100
AcDbEllipse
 10
-19.19886922258558
 20
11.81179800000012
 30
0.0
 11
0.0229647007379896
 21
5.263083898672999
 31
0.0
210
0.0
220
0.0
230
1.0
 40
0.9848077210270501
 41
0.5191851427626731
 42
0.570111386854746
  0
ELLIPSE
  5
C748
330
1F
100
AcDbEntity
  8
AM_0
100
AcDbEllipse
 10
-19.19886922258558
 20
11.81179800000012
 30
0.0
 11
0.0229647007379896
 21
5.263083898672999
 31
0.0
210
0.0
220
0.0
230
1.0
 40
0.9848077210270501
 41
2.622407859970029
 42
2.674467738102209
  0
ELLIPSE
  5
C749
330
1F
100
AcDbEntity
  8
AM_0
100
AcDbEllipse
 10
-20.01885222258556
 20
11.81537600000012
 30
0.0
 11
0.0211620678059904
 21
4.849953831417998
 31
0.0
210
0.0
220
0.0
230
1.0
 40
0.98480783505155
 41
0.0
 42
0.447188376343047
  0
ELLIPSE
  5
C74A
330
1F
100
AcDbEntity
  8
AM_0
100
AcDbEllipse
 10
-24.72255922258557
 20
15.06784900000008
 30
0.0
 11
0.0016847318529992
 21
0.386109324476
 31
0.0
210
0.0
220
0.0
230
1.0
 40
0.9848075563371301
 41
3.4016469048746
 42
4.972442568365579
  0
ELLIPSE
  5
C74B
330
1F
100
AcDbEntity
  8
AM_0
100
AcDbEllipse
 10
-24.64364822258568
 20
16.42308800000012
 30
0.0
 11
0.1936875229159999
 21
0.0498512132910004
 31
0.0
210
0.0
220
0.0
230
1.0
 40
0.04465
 41
0.256056746699429
 42
1.73957077086481
  0
ELLIPSE
  5
C74C
330
1F
100
AcDbEntity
  8
AM_0
100
AcDbEllipse
 10
-24.76042722258563
 20
16.40145500000011
 30
0.0
 11
0.0003757379679998
 21
0.086112180265
 31
0.0
210
0.0
220
0.0
230
1.0
 40
0.9847990431177599
 41
-1.31074458373775
 42
1.830848411698159
  0
ELLIPSE
  5
C74D
330
1F
100
AcDbEntity
  8
AM_0
100
AcDbEllipse
 10
-24.80774622258564
 20
16.3795190000001
 30
0.0
 11
0.1936875229159999
 21
0.0498512132910004
 31
0.0
210
0.0
220
0.0
230
1.0
 40
0.04465
 41
1.73957077086481
 42
2.613924509923749
  0
ELLIPSE
  5
C74E
330
1F
100
AcDbEntity
  8
AM_0
100
AcDbEllipse
 10
-25.44364822258563
 20
15.49654500000008
 30
0.0
 11
0.0035512436869984
 21
0.813879252369
 31
0.0
210
0.0
220
0.0
230
1.0
 40
0.9848074732733197
 41
3.401646925833309
 42
4.972442547406919
  0
ELLIPSE
  5
C74F
330
1F
100
AcDbEntity
  8
AM_0
100
AcDbEllipse
 10
-25.41194622258564
 20
15.49640700000009
 30
0.0
 11
0.0026819015779988
 21
0.6146421489839998
 31
0.0
210
0.0
220
0.0
230
1.0
 40
0.9848075646548901
 41
3.401646902775859
 42
3.59566708536456
  0
ELLIPSE
  5
C750
330
1F
100
AcDbEntity
  8
AM_0
100
AcDbEllipse
 10
-24.63344122258564
 20
15.70228900000012
 30
0.0
 11
0.1936875229159999
 21
0.0498512132910004
 31
0.0
210
0.0
220
0.0
230
1.0
 40
0.04465
 41
1.73957077086481
 42
2.6198503015092
  0
ELLIPSE
  5
C751
330
1F
100
AcDbEntity
  8
AM_0
100
AcDbEllipse
 10
-48.8116612225856
 20
14.77468400000006
 30
0.0
 11
-154.0597681107572
 21
88.8421043135477
 31
0.0
210
0.0
220
0.0
230
1.0
 40
0.08708643083305
 41
-1.6591662012368
 42
-1.619527073349179
  0
ELLIPSE
  5
C752
330
1F
100
AcDbEntity
  8
AM_0
100
AcDbEllipse
 10
-24.59168522258562
 20
14.6941440000001
 30
0.0
 11
-0.0513232678510004
 21
0.1933026698659999
 31
0.0
210
0.0
220
0.0
230
1.0
 40
0.16781
 41
1.525487778894409
 42
3.00901933219698
  0
ELLIPSE
  5
C753
330
1F
100
AcDbEntity
  8
AM_0
100
AcDbEllipse
 10
-25.64193522258568
 20
15.9513180000001
 30
0.0
 11
0.1936875229159999
 21
0.0498512132910004
 31
0.0
210
0.0
220
0.0
230
1.0
 40
0.04465
 41
0.256056746699429
 42
1.73957077086481
  0
ELLIPSE
  5
C754
330
1F
100
AcDbEntity
  8
AM_0
100
AcDbEllipse
 10
-25.20625522258558
 20
14.70898000000011
 30
0.0
 11
-0.0513232678510004
 21
0.1933026698659999
 31
0.0
210
0.0
220
0.0
230
1.0
 40
0.16781
 41
0.041958058580473
 42
1.525487778894409
  0
ELLIPSE
  5
C755
330
1F
100
AcDbEntity
  8
AM_0
100
AcDbEllipse
 10
-25.87322022258558
 20
14.5318960000001
 30
0.0
 11
-0.0513232678510004
 21
0.1933026698659999
 31
0.0
210
0.0
220
0.0
230
1.0
 40
0.16781
 41
0.041958058580473
 42
1.525487778894409
  0
ELLIPSE
  5
C756
330
1F
100
AcDbEntity
  8
AM_0
100
AcDbEllipse
 10
-25.83033522258563
 20
14.36527300000011
 30
0.0
 11
-0.0513232678510004
 21
0.1933026698659999
 31
0.0
210
0.0
220
0.0
230
1.0
 40
0.16781
 41
1.525487778894409
 42
3.00901933219698
  0
ELLIPSE
  5
C757
330
1F
100
AcDbEntity
  8
AM_0
100
AcDbEllipse
 10
-25.88650722258558
 20
14.44873600000011
 30
0.0
 11
0.0003757379679998
 21
0.086112180265
 31
0.0
210
0.0
220
0.0
230
1.0
 40
0.9847990431177599
 41
0.260056048306478
 42
3.401649052951819
  0
ELLIPSE
  5
C758
330
1F
100
AcDbEntity
  8
AM_0
100
AcDbEllipse
 10
-26.04455622258564
 20
15.85379200000011
 30
0.0
 11
0.0016847318529992
 21
0.386109324476
 31
0.0
210
0.0
220
0.0
230
1.0
 40
0.9848075563371301
 41
3.4016469048746
 42
4.972442568365579
  0
ELLIPSE
  5
C759
330
1F
100
AcDbEntity
  8
AM_0
100
AcDbEllipse
 10
-24.69085722258558
 20
15.06771000000009
 30
0.0
 11
0.0025540739619988
 21
0.585346427861
 31
0.0
210
0.0
220
0.0
230
0.9999999999999998
 40
0.9848074321092301
 41
3.40164693621985
 42
4.972442537020399
  0
ELLIPSE
  5
C75A
330
1F
100
AcDbEntity
  8
AM_0
100
AcDbEllipse
 10
-25.96564522258569
 20
17.20903200000009
 30
0.0
 11
0.1936875229159999
 21
0.0498512132910004
 31
0.0
210
0.0
220
0.0
230
1.0
 40
0.04465
 41
0.256056746699429
 42
1.73957077086481
  0
ELLIPSE
  5
C75B
330
1F
100
AcDbEntity
  8
AM_0
100
AcDbEllipse
 10
-26.08242322258564
 20
17.18739900000008
 30
0.0
 11
0.0003757379679998
 21
0.086112180265
 31
0.0
210
0.0
220
0.0
230
1.0
 40
0.9847990431177599
 41
-1.31074458373775
 42
1.830848411698159
  0
ELLIPSE
  5
C75C
330
1F
100
AcDbEntity
  8
AM_0
100
AcDbEllipse
 10
-26.12974222258566
 20
17.1654620000001
 30
0.0
 11
0.1936875229159999
 21
0.0498512132910004
 31
0.0
210
0.0
220
0.0
230
1.0
 40
0.04465
 41
1.73957077086481
 42
2.613924509923749
  0
ELLIPSE
  5
C75D
330
1F
100
AcDbEntity
  8
AM_0
100
AcDbEllipse
 10
-19.19886922258558
 20
11.81179800000012
 30
0.0
 11
0.0229647007379896
 21
5.263083898672999
 31
0.0
210
0.0
220
0.0
230
1.0
 40
0.9848077210270501
 41
3.141593005574859
 42
5.814047012764489
  0
ELLIPSE
  5
C75E
330
1F
100
AcDbEntity
  8
AM_0
100
AcDbEllipse
 10
-19.19886922258558
 20
11.81179800000012
 30
0.0
 11
0.0229647007379896
 21
5.263083898672999
 31
0.0
210
0.0
220
0.0
230
1.0
 40
0.9848077210270501
 41
2.57538808066483
 42
2.62240685208139
  0
ELLIPSE
  5
C75F
330
1F
100
AcDbEntity
  8
AM_0
100
AcDbEllipse
 10
-19.19886922258558
 20
11.81179800000012
 30
0.0
 11
0.0229647007379896
 21
5.263083898672999
 31
0.0
210
0.0
220
0.0
230
1.0
 40
0.9848077210270501
 41
2.674467738102209
 42
3.141593005574859
  0
ELLIPSE
  5
C760
330
1F
100
AcDbEntity
  8
AM_0
100
AcDbEllipse
 10
-19.19886922258558
 20
11.81179700000012
 30
0.0
 11
0.0229594376539896
 21
5.263083921635997
 31
0.0
210
0.0
220
0.0
230
1.0
 40
0.9848077210270499
 41
0.469137595243026
 42
0.51918413487401
  0
ELLIPSE
  5
C761
330
1F
100
AcDbEntity
  8
AM_0
100
AcDbEllipse
 10
-26.76564522258564
 20
16.28248800000011
 30
0.0
 11
0.0035512436869984
 21
0.813879252369
 31
0.0
210
0.0
220
0.0
230
1.0
 40
0.9848074732733197
 41
3.401646925833309
 42
4.972442547406919
  0
ELLIPSE
  5
C762
330
1F
100
AcDbEntity
  8
AM_0
100
AcDbEllipse
 10
-26.73394222258565
 20
16.28235000000012
 30
0.0
 11
0.0026819015779988
 21
0.6146421489839998
 31
0.0
210
0.0
220
0.0
230
1.0
 40
0.9848075646548901
 41
3.401646902775859
 42
3.59566708536456
  0
ELLIPSE
  5
C763
330
1F
100
AcDbEntity
  8
AM_0
100
AcDbEllipse
 10
-25.95543722258565
 20
16.48823200000009
 30
0.0
 11
0.1936875229159999
 21
0.0498512132910004
 31
0.0
210
0.0
220
0.0
230
1.0
 40
0.04465
 41
1.73957077086481
 42
2.6198503015092
  0
ELLIPSE
  5
C764
330
1F
100
AcDbEntity
  8
AM_0
100
AcDbEllipse
 10
-24.72872422258564
 20
16.40131700000011
 30
0.0
 11
0.0012450800769994
 21
0.28534928365
 31
0.0
210
0.0
220
0.0
230
1.0
 40
0.9848082368443199
 41
-1.310742263973649
 42
0.4359184657231451
  0
ELLIPSE
  5
C765
330
1F
100
AcDbEntity
  8
AM_0
100
AcDbEllipse
 10
-24.67360322258565
 20
16.4010760000001
 30
0.0
 11
0.0013662536409994
 21
0.3131200192899999
 31
0.0
210
0.0
220
0.0
230
1.0
 40
0.9848078869964799
 41
0.519185070161899
 42
1.830850643191249
  0
ELLIPSE
  5
C766
330
1F
100
AcDbEntity
  8
AM_0
100
AcDbEllipse
 10
-25.41194622258564
 20
15.49640600000009
 30
0.0
 11
0.0026837455039988
 21
0.6146421409360001
 31
0.0
210
0.0
220
0.0
230
1.0
 40
0.9848075646548901
 41
3.59567011397172
 42
3.66078123756406
  0
ELLIPSE
  5
C767
330
1F
100
AcDbEntity
  8
AM_0
100
AcDbEllipse
 10
-25.35682522258565
 20
15.4961660000001
 30
0.0
 11
0.0025607280139988
 21
0.5868714133450001
 31
0.0
210
0.0
220
0.0
230
1.0
 40
0.9848077195051098
 41
3.660778146161129
 42
4.97244260953611
  0
ELLIPSE
  5
C768
330
1F
100
AcDbEntity
  8
AM_0
100
AcDbEllipse
 10
-25.91368122258569
 20
15.48008700000008
 30
0.0
 11
-0.0513232678510004
 21
0.1933026698659999
 31
0.0
210
0.0
220
0.0
230
1.0
 40
0.16781
 41
1.525487778894409
 42
3.00901933219698
  0
ELLIPSE
  5
C769
330
1F
100
AcDbEntity
  8
AM_0
100
AcDbEllipse
 10
-26.52825122258565
 20
15.49492400000008
 30
0.0
 11
-0.0513232678510004
 21
0.1933026698659999
 31
0.0
210
0.0
220
0.0
230
1.0
 40
0.16781
 41
0.041958058580473
 42
1.525487778894409
  0
ELLIPSE
  5
C76A
330
1F
100
AcDbEntity
  8
AM_0
100
AcDbEllipse
 10
-27.15233122258564
 20
15.15121600000009
 30
0.0
 11
-0.0513232678510004
 21
0.1933026698659999
 31
0.0
210
0.0
220
0.0
230
1.0
 40
0.16781
 41
1.525487778894409
 42
3.00901933219698
  0
ELLIPSE
  5
C76B
330
1F
100
AcDbEntity
  8
AM_0
100
AcDbEllipse
 10
-27.20850322258565
 20
15.23467900000008
 30
0.0
 11
0.0003757379679998
 21
0.086112180265
 31
0.0
210
0.0
220
0.0
230
1.0
 40
0.9847990431177599
 41
0.260056048306478
 42
3.401649052951819
  0
ELLIPSE
  5
C76C
330
1F
100
AcDbEntity
  8
AM_0
100
AcDbEllipse
 10
-27.19521722258565
 20
15.3178390000001
 30
0.0
 11
-0.0513232678510004
 21
0.1933026698659999
 31
0.0
210
0.0
220
0.0
230
1.0
 40
0.16781
 41
0.041958058580473
 42
1.525487778894409
  0
ELLIPSE
  5
C76D
330
1F
100
AcDbEntity
  8
AM_0
100
AcDbEllipse
 10
-26.01285322258565
 20
15.85365400000012
 30
0.0
 11
0.0025540739619988
 21
0.585346427861
 31
0.0
210
0.0
220
0.0
230
0.9999999999999998
 40
0.9848074321092301
 41
3.40164693621985
 42
4.972442537020399
  0
ELLIPSE
  5
C76E
330
1F
100
AcDbEntity
  8
AM_0
100
AcDbEllipse
 10
-25.85480422258558
 20
14.44859800000011
 30
0.0
 11
0.0012450800769994
 21
0.28534928365
 31
0.0
210
0.0
220
0.0
230
1.0
 40
0.9848082368443199
 41
0.260053728526292
 42
0.4359275554276511
  0
ELLIPSE
  5
C76F
330
1F
100
AcDbEntity
  8
AM_0
100
AcDbEllipse
 10
-25.79968422258559
 20
14.4483570000001
 30
0.0
 11
0.0013662536409994
 21
0.3131200192899999
 31
0.0
210
0.0
220
0.0
230
1.0
 40
0.9848078869964799
 41
0.519185070161899
 42
2.62240793257078
  0
ELLIPSE
  5
C770
330
1F
100
AcDbEntity
  8
AM_0
100
AcDbEllipse
 10
-25.79968422258559
 20
14.4483570000001
 30
0.0
 11
0.0013662536409994
 21
0.3131200192899999
 31
0.0
210
0.0
220
0.0
230
1.0
 40
0.9848078869964799
 41
2.62240793257078
 42
3.40164682144249
  0
ELLIPSE
  5
C771
330
1F
100
AcDbEntity
  8
AM_0
100
AcDbEllipse
 10
-25.85480422258558
 20
14.44859800000011
 30
0.0
 11
0.0012450800769994
 21
0.28534928365
 31
0.0
210
0.0
220
0.0
230
1.0
 40
0.9848082368443199
 41
2.705665448025039
 42
3.401646733168789
  0
ELLIPSE
  5
C772
330
1F
100
AcDbEntity
  8
AM_0
100
AcDbEllipse
 10
-26.05072022258565
 20
17.18726000000009
 30
0.0
 11
0.0012450800769994
 21
0.28534928365
 31
0.0
210
0.0
220
0.0
230
1.0
 40
0.9848082368443199
 41
-1.310742263973649
 42
0.4359103859841961
  0
ELLIPSE
  5
C773
330
1F
100
AcDbEntity
  8
AM_0
100
AcDbEllipse
 10
-25.99560022258566
 20
17.1870200000001
 30
0.0
 11
0.0013662536409994
 21
0.3131200192899999
 31
0.0
210
0.0
220
0.0
230
1.0
 40
0.9848078869964799
 41
0.519185070161899
 42
1.830850643191249
  0
ELLIPSE
  5
C774
330
1F
100
AcDbEntity
  8
AM_0
100
AcDbEllipse
 10
-26.73394222258565
 20
16.28235000000012
 30
0.0
 11
0.0026806722939988
 21
0.614642154347
 31
0.0
210
0.0
220
0.0
230
0.9999999999999998
 40
0.9848075646548899
 41
3.59566506629299
 42
3.66077619812052
  0
ELLIPSE
  5
C775
330
1F
100
AcDbEntity
  8
AM_0
100
AcDbEllipse
 10
-26.67882122258566
 20
16.2821090000001
 30
0.0
 11
0.0025607280139988
 21
0.5868714133450001
 31
0.0
210
0.0
220
0.0
230
1.0
 40
0.9848077195051098
 41
3.660778146161129
 42
4.97244260953611
  0
ELLIPSE
  5
C776
330
1F
100
AcDbEntity
  8
AM_0
100
AcDbEllipse
 10
-27.17680122258565
 20
15.23454100000009
 30
0.0
 11
0.0012450800769994
 21
0.28534928365
 31
0.0
210
0.0
220
0.0
230
1.0
 40
0.9848082368443199
 41
0.260053728526292
 42
0.4359134158864791
  0
ELLIPSE
  5
C777
330
1F
100
AcDbEntity
  8
AM_0
100
AcDbEllipse
 10
-27.12168022258566
 20
15.23430000000007
 30
0.0
 11
0.0013662536409994
 21
0.3131200192899999
 31
0.0
210
0.0
220
0.0
230
1.0
 40
0.9848078869964799
 41
0.519185070161899
 42
2.62240793257078
  0
ELLIPSE
  5
C778
330
1F
100
AcDbEntity
  8
AM_0
100
AcDbEllipse
 10
-27.12168022258566
 20
15.23430000000007
 30
0.0
 11
0.0013662536409994
 21
0.3131200192899999
 31
0.0
210
0.0
220
0.0
230
1.0
 40
0.9848078869964799
 41
2.62240793257078
 42
3.40164682144249
  0
ELLIPSE
  5
C779
330
1F
100
AcDbEntity
  8
AM_0
100
AcDbEllipse
 10
-27.17680122258565
 20
15.23454100000009
 30
0.0
 11
0.0012450800769994
 21
0.28534928365
 31
0.0
210
0.0
220
0.0
230
1.0
 40
0.9848082368443199
 41
2.70567857759894
 42
3.401646733168789
  0
ELLIPSE
  5
C77A
330
1F
100
AcDbEntity
  8
AM_0
100
AcDbEllipse
 10
-19.15924122258559
 20
11.8116250000001
 30
0.0
 11
0.0240513751009891
 21
5.512129527911993
 31
0.0
210
0.0
220
0.0
230
0.9999999999999998
 40
0.9848078310912098
 41
1.57509370716208
 42
4.716686058238829
  0
ELLIPSE
  5
C77B
330
1F
100
AcDbEntity
  8
AM_0
100
AcDbEllipse
 10
-34.22290522258558
 20
0.5633650000000899
 30
0.0
 11
0.0527376313869761
 21
12.086487944057
 31
0.0
210
0.0
220
0.0
230
1.0
 40
0.9848077247180199
 41
-0.8158435066536059
 42
-0.4907744171753711
  0
ELLIPSE
  5
C77C
330
1F
100
AcDbEntity
  8
AM_0
100
AcDbEllipse
 10
-18.37801222258571
 20
15.56996700000013
 30
0.0
 11
0.0432552535049804
 21
9.913302631447001
 31
0.0
210
0.0
220
0.0
230
1.0
 40
0.9848078312610699
 41
2.325749547057339
 42
2.921481667742509
  0
ELLIPSE
  5
C77D
330
1F
100
AcDbEntity
  8
AM_0
100
AcDbEllipse
 10
-20.13223122258557
 20
7.770562000000097
 30
0.0
 11
0.0083487499079962
 21
1.913378785809
 31
0.0
210
0.0
220
0.0
230
1.0
 40
0.9848081710173099
 41
2.921481741251149
 42
3.138283731784409
  0
ELLIPSE
  5
C77E
330
1F
100
AcDbEntity
  8
AM_0
100
AcDbEllipse
 10
-20.37613122258556
 20
-24.22850299999987
 30
0.0
 11
0.1312772644799406
 21
30.086316596743
 31
0.0
210
0.0
220
0.0
230
0.9999999999999998
 40
0.9848077232248499
 41
-0.300128390757849
 42
-0.003309275063992
  0
ELLIPSE
  5
C77F
330
1F
100
AcDbEntity
  8
AM_0
100
AcDbEllipse
 10
-10.92598322258561
 20
6.300105000000144
 30
0.0
 11
0.0083487499079962
 21
1.913378785809
 31
0.0
210
0.0
220
0.0
230
1.0
 40
0.9848081710173099
 41
2.841463729328569
 42
4.187045184004269
  0
ELLIPSE
  5
C780
330
1F
100
AcDbEntity
  8
AM_0
100
AcDbEllipse
 10
-9.83137922258561
 20
8.198242000000107
 30
0.0
 11
0.0083487499079962
 21
1.913378785809
 31
0.0
210
0.0
220
0.0
230
1.0
 40
0.9848081710173099
 41
4.187045184004269
 42
5.49714802680474
  0
ELLIPSE
  5
C781
330
1F
100
AcDbEntity
  8
AM_0
100
AcDbEllipse
 10
-4.232293222585553
 20
13.82710400000013
 30
0.0
 11
0.026557753688988
 21
6.086545059829
 31
0.0
210
0.0
220
0.0
230
1.0
 40
0.9848076176481399
 41
1.68673282775552
 42
2.355555745915919
  0
ELLIPSE
  5
C782
330
1F
100
AcDbEntity
  8
AM_0
100
AcDbEllipse
 10
-12.06183022258562
 20
12.93584400000014
 30
0.0
 11
0.0083487499079962
 21
1.913378785809
 31
0.0
210
0.0
220
0.0
230
1.0
 40
0.9848081710173099
 41
-1.45486010256059
 42
-0.95356437891948
  0
ELLIPSE
  5
C783
330
1F
100
AcDbEntity
  8
AM_0
100
AcDbEllipse
 10
-18.50673222258558
 20
8.333685000000116
 30
0.0
 11
0.0432552535049804
 21
9.913302631447001
 31
0.0
210
0.0
220
0.0
230
1.0
 40
0.9848078312610699
 41
-0.953564541753329
 42
-0.5187466604897271
  0
ELLIPSE
  5
C784
330
1F
100
AcDbEntity
  8
AM_0
100
AcDbEllipse
 10
-18.66213722258561
 20
17.04016500000011
 30
0.0
 11
0.0083487499079962
 21
1.913378785809
 31
0.0
210
0.0
220
0.0
230
1.0
 40
0.9848081710173099
 41
-0.280572908428719
 42
0.023367874461189
  0
ELLIPSE
  5
C785
330
1F
100
AcDbEntity
  8
AM_0
100
AcDbEllipse
 10
-19.25887622258568
 20
49.03433700000011
 30
0.0
 11
0.1312772644799406
 21
30.086316596743
 31
0.0
210
0.0
220
0.0
230
0.9999999999999998
 40
0.9848077232248499
 41
2.963743429185069
 42
3.16495987501093
  0
ELLIPSE
  5
C786
330
1F
100
AcDbEntity
  8
AM_0
100
AcDbEllipse
 10
-24.97144822258559
 20
17.56371400000011
 30
0.0
 11
0.0083487499079962
 21
1.913378785809
 31
0.0
210
0.0
220
0.0
230
1.0
 40
0.9848081710173099
 41
-0.177848482185287
 42
1.04545218659924
  0
ELLIPSE
  5
C787
330
1F
100
AcDbEntity
  8
AM_0
100
AcDbEllipse
 10
-25.99560022258566
 20
17.1870200000001
 30
0.0
 11
0.0013662536409994
 21
0.3131200192899999
 31
0.0
210
0.0
220
0.0
230
1.0
 40
0.9848078869964799
 41
-1.31074235224732
 42
0.519185070161899
  0
ELLIPSE
  5
C788
330
1F
100
AcDbEntity
  8
AM_0
100
AcDbEllipse
 10
-25.95773222258566
 20
15.8534130000001
 30
0.0
 11
0.0026752475259988
 21
0.6131171635010001
 31
0.0
210
0.0
220
0.0
230
1.0
 40
0.98480892088537
 41
3.40164656057153
 42
4.97244291266826
  0
ELLIPSE
  5
C789
330
1F
100
AcDbEntity
  8
AM_0
100
AcDbEllipse
 10
-27.12168022258566
 20
15.23430000000007
 30
0.0
 11
0.0013662536409994
 21
0.3131200192899999
 31
0.0
210
0.0
220
0.0
230
1.0
 40
0.9848078869964799
 41
0.260053816799883
 42
0.519185070161899
  0
ELLIPSE
  5
C78A
330
1F
100
AcDbEntity
  8
AM_0
100
AcDbEllipse
 10
-26.67882122258566
 20
16.2821090000001
 30
0.0
 11
0.0025607280139988
 21
0.5868714133450001
 31
0.0
210
0.0
220
0.0
230
1.0
 40
0.9848077195051098
 41
3.401646863703979
 42
3.660778146161129
  0
ELLIPSE
  5
C78B
330
1F
100
AcDbEntity
  8
AM_0
100
AcDbEllipse
 10
-10.6611262225856
 20
6.759389000000112
 30
0.0
 11
0.0026752475259988
 21
0.6131171635010001
 31
0.0
210
0.0
220
0.0
230
1.0
 40
0.98480892088537
 41
0.260053555929249
 42
0.519184617903524
  0
ELLIPSE
  5
C78C
330
1F
100
AcDbEntity
  8
AM_0
100
AcDbEllipse
 10
-9.497178222585603
 20
7.378502000000139
 30
0.0
 11
0.0013662536409994
 21
0.3131200192899999
 31
0.0
210
0.0
220
0.0
230
1.0
 40
0.9848078869964799
 41
3.40164682144249
 42
6.023130788274059
  0
ELLIPSE
  5
C78D
330
1F
100
AcDbEntity
  8
AM_0
100
AcDbEllipse
 10
-9.940037222585601
 20
6.33069300000011
 30
0.0
 11
0.0025607280139988
 21
0.5868714133450001
 31
0.0
210
0.0
220
0.0
230
1.0
 40
0.9848077195051098
 41
0.260053859061322
 42
1.830850600929749
  0
ELLIPSE
  5
C78E
330
1F
100
AcDbEntity
  8
AM_0
100
AcDbEllipse
 10
-10.6232592225856
 20
5.425783000000137
 30
0.0
 11
0.0013662536409994
 21
0.3131200192899999
 31
0.0
210
0.0
220
0.0
230
1.0
 40
0.9848078869964799
 41
1.830850643191249
 42
2.62240793257078
  0
ELLIPSE
  5
C78F
330
1F
100
AcDbEntity
  8
AM_0
100
AcDbEllipse
 10
-25.35682522258565
 20
15.4961660000001
 30
0.0
 11
0.0025607280139988
 21
0.5868714133450001
 31
0.0
210
0.0
220
0.0
230
1.0
 40
0.9848077195051098
 41
3.401646863703979
 42
3.660778146161129
  0
ELLIPSE
  5
C790
330
1F
100
AcDbEntity
  8
AM_0
100
AcDbEllipse
 10
-24.67360322258565
 20
16.4010760000001
 30
0.0
 11
0.0013662536409994
 21
0.3131200192899999
 31
0.0
210
0.0
220
0.0
230
1.0
 40
0.9848078869964799
 41
-1.31074235224732
 42
0.519185070161899
  0
ELLIPSE
  5
C791
330
1F
100
AcDbEntity
  8
AM_0
100
AcDbEllipse
 10
-24.63573622258559
 20
15.0674700000001
 30
0.0
 11
0.0026752475259988
 21
0.6131171635010001
 31
0.0
210
0.0
220
0.0
230
1.0
 40
0.98480892088537
 41
3.40164656057153
 42
4.97244291266826
  0
ELLIPSE
  5
C792
330
1F
100
AcDbEntity
  8
AM_0
100
AcDbEllipse
 10
-25.79968422258559
 20
14.4483570000001
 30
0.0
 11
0.0013662536409994
 21
0.3131200192899999
 31
0.0
210
0.0
220
0.0
230
1.0
 40
0.9848078869964799
 41
0.260053816799883
 42
0.519185070161899
  0
ELLIPSE
  5
C793
330
1F
100
AcDbEntity
  8
AM_0
100
AcDbEllipse
 10
-27.67100722258556
 20
12.88244800000009
 30
0.0
 11
0.0083487499079962
 21
1.913378785809
 31
0.0
210
0.0
220
0.0
230
1.0
 40
0.9848081710173099
 41
1.04545218659924
 42
2.650818774191729
  0
ELLIPSE
  5
C794
330
1F
100
AcDbEntity
  8
AM_0
100
AcDbEllipse
 10
-20.35462522258563
 20
26.81104700000011
 30
0.0
 11
0.1090828237409506
 21
24.99976201761899
 31
0.0
210
0.0
220
0.0
230
1.0
 40
0.9848077599999999
 41
2.49970386099349
 42
2.78800694101141
  0
ELLIPSE
  5
C795
330
1F
100
AcDbEntity
  8
AM_0
100
AcDbEllipse
 10
-20.35462522258563
 20
26.81104700000011
 30
0.0
 11
0.1090828237409506
 21
24.99976201761899
 31
0.0
210
0.0
220
0.0
230
1.0
 40
0.9848077599999999
 41
2.027029947520159
 42
2.212686043931769
  0
ELLIPSE
  5
C796
330
1F
100
AcDbEntity
  8
AM_0
100
AcDbEllipse
 10
-20.35462522258563
 20
26.81104700000011
 30
0.0
 11
0.1090828237409506
 21
24.99976201761899
 31
0.0
210
0.0
220
0.0
230
1.0
 40
0.9848077599999999
 41
1.9201812095835
 42
1.982599520822159
  0
ELLIPSE
  5
C797
330
1F
100
AcDbEntity
  8
AM_0
100
AcDbEllipse
 10
-52.31193722258558
 20
8.704904000000055
 30
0.0
 11
-154.0597629130811
 21
88.8421013161877
 31
0.0
210
0.0
220
0.0
230
1.0
 40
0.08708642814817
 41
4.452289718153069
 42
4.497834200674909
  0
ELLIPSE
  5
C798
330
1F
100
AcDbEntity
  8
AM_0
100
AcDbEllipse
 10
-52.31193822258558
 20
8.704904000000055
 30
0.0
 11
-154.0597646456402
 21
88.8421023153077
 31
0.0
210
0.0
220
0.0
230
1.0
 40
0.08708642716879
 41
-1.65777853820479
 42
-1.6072896067602
  0
LINE
  5
C799
330
1F
100
AcDbEntity
  8
AM_0
100
AcDbLine
 10
-177.7699762225855
 20
24.8999999999998
 30
0.0
 11
-190.4699762225856
 21
24.89999999999978
 31
0.0
  0
LINE
  5
C79A
330
1F
100
AcDbEntity
  8
AM_0
100
AcDbLine
 10
-190.4699762225856
 20
15.35740899999979
 30
0.0
 11
-177.7699762225855
 21
15.35740899999979
 31
0.0
  0
LINE
  5
C79B
330
1F
100
AcDbEntity
  8
AM_0
100
AcDbLine
 10
-199.9999762225855
 20
12.15206599999976
 30
0.0
 11
-199.9999762225856
 21
23.06149799999974
 31
0.0
  0
LINE
  5
C79C
330
1F
100
AcDbEntity
  8
AM_0
100
AcDbLine
 10
-198.5176142225856
 20
15.50830599999977
 30
0.0
 11
-198.5176142225856
 21
24.99334999999973
 31
0.0
  0
LINE
  5
C79D
330
1F
100
AcDbEntity
  8
AM_0
100
AcDbLine
 10
-196.9999762225855
 20
16.15549399999975
 30
0.0
 11
-196.9999762225856
 21
25.39999999999975
 31
0.0
  0
LINE
  5
C79E
330
1F
100
AcDbEntity
  8
AM_0
100
AcDbLine
 10
-190.4699762225856
 20
16.15549399999977
 30
0.0
 11
-190.4699762225856
 21
25.39999999999977
 31
0.0
  0
LINE
  5
C79F
330
1F
100
AcDbEntity
  8
AM_0
100
AcDbLine
 10
-196.9999762225855
 20
16.15549399999975
 30
0.0
 11
-190.4699762225856
 21
16.15549399999977
 31
0.0
  0
LINE
  5
C7A0
330
1F
100
AcDbEntity
  8
AM_0
100
AcDbLine
 10
-190.4699762225856
 20
16.15549399999977
 30
0.0
 11
-190.4699762225856
 21
15.35740899999979
 31
0.0
  0
LINE
  5
C7A1
330
1F
100
AcDbEntity
  8
AM_0
100
AcDbLine
 10
-190.4699762225856
 20
25.39999999999977
 30
0.0
 11
-196.9999762225856
 21
25.39999999999975
 31
0.0
  0
ARC
  5
C7A2
330
1F
100
AcDbEntity
  8
AM_0
100
AcDbCircle
 10
-197.9999762225856
 20
23.06149799999974
 30
0.0
 40
2.000000312236979
100
AcDbArc
 50
104.9999949278684
 51
180.0
  0
LINE
  5
C7A3
330
1F
100
AcDbEntity
  8
AM_0
100
AcDbLine
 10
-196.9999762225856
 20
25.39999999999975
 30
0.0
 11
-198.5176142225856
 21
24.99334999999973
 31
0.0
  0
ARC
  5
C7A4
330
1F
100
AcDbEntity
  8
AM_0
100
AcDbCircle
 10
-95.72914422258572
 20
27.99999999999994
 30
0.0
 40
5.000000597222349
100
AcDbArc
 50
211.3322473313057
 51
270.0
  0
LINE
  5
C7A5
330
1F
100
AcDbEntity
  8
AM_0
100
AcDbLine
 10
-99.99997622258561
 20
25.39999999999997
 30
0.0
 11
-177.7699762225855
 21
25.3999999999998
 31
0.0
  0
ARC
  5
C7A7
330
1F
100
AcDbEntity
  8
AM_0
100
AcDbCircle
 10
-142.1699762225856
 20
-0.0000000000001137
 30
0.0
 40
25.3999998188228
100
AcDbArc
 50
152.8435793208206
 51
207.1564206791793
  0
LINE
  5
C7A8
330
1F
100
AcDbEntity
  8
AM_4
100
AcDbLine
 10
-146.7699762225855
 20
-11.59310100000013
 30
0.0
 11
-164.769976222585
 21
11.59310100000092
 31
0.0
  0
LINE
  5
C7A9
330
1F
100
AcDbEntity
  8
AM_4
100
AcDbLine
 10
-146.7699762225855
 20
11.5931009999997
 30
0.0
 11
-164.7699762225849
 21
-11.59310100000124
 31
0.0
  0
ARC
  5
C7AA
330
1F
100
AcDbEntity
  8
AM_0
100
AcDbCircle
 10
-169.3699762225856
 20
-0.0000000000001705
 30
0.0
 40
25.3999998188228
100
AcDbArc
 50
332.8435793208206
 51
27.15642067917935
  0
LINE
  5
C7AB
330
1F
100
AcDbEntity
  8
AM_0
100
AcDbLine
 10
-164.7699762225855
 20
-11.59310100000016
 30
0.0
 11
-164.7699762225855
 21
11.59310099999981
 31
0.0
  0
LINE
  5
C7AC
330
1F
100
AcDbEntity
  8
AM_0
100
AcDbLine
 10
-146.7699762225855
 20
-11.59310100000013
 30
0.0
 11
-146.7699762225855
 21
11.59310099999984
 31
0.0
  0
LINE
  5
C7AD
330
1F
100
AcDbEntity
  8
AM_0
100
AcDbLine
 10
-146.7699762225855
 20
-11.59310100000013
 30
0.0
 11
-164.7699762225855
 21
-11.59310100000016
 31
0.0
  0
LINE
  5
C7AE
330
1F
100
AcDbEntity
  8
AM_0
100
AcDbLine
 10
-164.7699762225855
 20
11.59310099999981
 30
0.0
 11
-146.7699762225855
 21
11.59310099999984
 31
0.0
  0
LINE
  5
C7B1
330
1F
100
AcDbEntity
  8
AM_0
100
AcDbLine
 10
-52.04314122258563
 20
9.827151000000043
 30
0.0
 11
-47.93469122258557
 21
10.30030100000004
 31
0.0
  0
LINE
  5
C7B2
330
1F
100
AcDbEntity
  8
AM_0
100
AcDbLine
 10
-48.79583822258567
 20
20.62963100000007
 30
0.0
 11
-58.08749422258566
 21
19.55955600000004
 31
0.0
  0
LINE
  5
C7B3
330
1F
100
AcDbEntity
  8
AM_0
100
AcDbLine
 10
-52.66562222258565
 20
17.92296600000003
 30
0.0
 11
-48.55717322258559
 21
18.39611700000006
 31
0.0
  0
LINE
  5
C7B4
330
1F
100
AcDbEntity
  8
AM_0
100
AcDbLine
 10
-52.76065822258559
 20
19.93313300000005
 30
0.0
 11
-47.29568822258559
 21
20.56250700000004
 31
0.0
  0
LINE
  5
C7B5
330
1F
100
AcDbEntity
  8
AM_0
100
AcDbLine
 10
-51.81579622258562
 20
7.644529000000034
 30
0.0
 11
-46.35082622258562
 21
8.273903000000075
 31
0.0
  0
LINE
  5
C7B6
330
1F
100
AcDbEntity
  8
AM_0
100
AcDbLine
 10
-41.95376122258562
 20
5.900898000000069
 30
0.0
 11
-61.55923722258558
 21
3.643031000000036
 31
0.0
  0
LINE
  5
C7B7
330
1F
100
AcDbEntity
  8
AM_0
100
AcDbLine
 10
-35.33909822258559
 20
23.00000000000008
 30
0.0
 11
-53.25072222258566
 21
23.00000000000005
 31
0.0
  0
LINE
  5
C7B8
330
1F
100
AcDbEntity
  8
AM_11
100
AcDbLine
 10
-25.00000000000039
 20
25.00000000000011
 30
0.0
 11
-65.00000000000037
 21
25.00000000000003
 31
0.0
1001
GENIUS_GENODEF_13
1002
{
1000
HIER
1070
     0
1002
}
1002
{
1000
MANEDIT
1070
     0
1002
}
1002
{
1000
NOSEL
1070
     0
1002
}
1002
{
1000
BEHIND
1070
     0
1002
}
1002
{
1000
REACTOR
1002
}
1001
GENIUS_GENOBJ-N-CEN_13
1002
{
1000
OWNER
1000
GEN
1002
}
  0
LINE
  5
C7B9
330
1F
100
AcDbEntity
  8
AM_0
100
AcDbLine
 10
-59.65567322258562
 20
1.161865000000034
 30
0.0
 11
-61.55923722258558
 21
3.643031000000036
 31
0.0
  0
LINE
  5
C7BA
330
1F
100
AcDbEntity
  8
AM_0
100
AcDbLine
 10
-52.49077722258562
 20
12.22792700000002
 30
0.0
 11
-53.01027822258561
 21
12.90506100000004
 31
0.0
  0
LINE
  5
C7BB
330
1F
100
AcDbEntity
  8
AM_0
100
AcDbLine
 10
-51.08209122258563
 20
13.23555100000004
 30
0.0
 11
-52.49077722258562
 21
12.22792700000002
 31
0.0
  0
LINE
  5
C7BC
330
1F
100
AcDbEntity
  8
AM_0
100
AcDbLine
 10
-52.49077722258562
 20
12.22792700000002
 30
0.0
 11
-54.02832622258563
 21
12.89624700000004
 31
0.0
  0
LINE
  5
C7BD
330
1F
100
AcDbEntity
  8
AM_0
100
AcDbLine
 10
-58.88036122258566
 20
17.29454600000002
 30
0.0
 11
-58.28589922258561
 21
9.563142000000027
 31
0.0
  0
LINE
  5
C7BE
330
1F
100
AcDbEntity
  8
AM_0
100
AcDbLine
 10
-56.46283122258558
 20
13.40190800000004
 30
0.0
 11
-56.15159022258558
 21
9.354001000000039
 31
0.0
  0
LINE
  5
C7BF
330
1F
100
AcDbEntity
  8
AM_0
100
AcDbLine
 10
-58.11042022258561
 20
7.686200000000042
 30
0.0
 11
-58.52442522258559
 21
13.07063800000003
 31
0.0
  0
LINE
  5
C7C0
330
1F
100
AcDbEntity
  8
AM_0
100
AcDbLine
 10
-57.28076622258561
 20
7.015155000000049
 30
0.0
 11
-51.81579622258562
 21
7.644529000000034
 31
0.0
  0
LINE
  5
C7C1
330
1F
100
AcDbEntity
  8
AM_0
100
AcDbLine
 10
-52.04314122258563
 20
9.827151000000043
 30
0.0
 11
-56.15159022258558
 21
9.354001000000039
 31
0.0
  0
LINE
  5
C7C2
330
1F
100
AcDbEntity
  8
AM_0
100
AcDbLine
 10
-56.15159022258558
 20
9.354001000000039
 30
0.0
 11
-57.28076622258561
 21
7.015155000000049
 31
0.0
  0
LINE
  5
C7C3
330
1F
100
AcDbEntity
  8
AM_0
100
AcDbLine
 10
-56.15159022258558
 20
9.354001000000039
 30
0.0
 11
-58.11042022258561
 21
7.686200000000042
 31
0.0
  0
LINE
  5
C7C4
330
1F
100
AcDbEntity
  8
AM_0
100
AcDbLine
 10
-58.28589922258561
 20
9.563142000000027
 30
0.0
 11
-58.34418422258557
 21
9.493746000000044
 31
0.0
  0
LINE
  5
C7C5
330
1F
100
AcDbEntity
  8
AM_0
100
AcDbLine
 10
-58.28589922258561
 20
9.563142000000027
 30
0.0
 11
-58.28312922258556
 21
9.932414000000051
 31
0.0
  0
LINE
  5
C7C6
330
1F
100
AcDbEntity
  8
AM_0
100
AcDbLine
 10
-54.84918622258556
 20
12.20997200000005
 30
0.0
 11
-54.84115922258559
 21
12.19950800000003
 31
0.0
  0
LINE
  5
C7C7
330
1F
100
AcDbEntity
  8
AM_0
100
AcDbLine
 10
-55.3560162225856
 20
7.076840000000061
 30
0.0
 11
-55.46878922258554
 21
7.223832000000044
 31
0.0
  0
LINE
  5
C7C8
330
1F
100
AcDbEntity
  8
AM_0
100
AcDbLine
 10
-55.3560162225856
 20
7.076840000000061
 30
0.0
 11
-55.20726222258566
 21
7.253950000000031
 31
0.0
  0
LINE
  5
C7C9
330
1F
100
AcDbEntity
  8
AM_0
100
AcDbLine
 10
-51.81579622258562
 20
7.644529000000034
 30
0.0
 11
-52.04314122258563
 21
9.827151000000043
 31
0.0
  0
LINE
  5
C7CA
330
1F
100
AcDbEntity
  8
AM_0
100
AcDbLine
 10
-58.22562822258558
 20
19.30375900000004
 30
0.0
 11
-52.76065822258559
 21
19.93313300000005
 31
0.0
  0
LINE
  5
C7CB
330
1F
100
AcDbEntity
  8
AM_0
100
AcDbLine
 10
-52.66562222258565
 20
17.92296600000003
 30
0.0
 11
-56.7740722225856
 21
17.44981600000005
 31
0.0
  0
LINE
  5
C7CC
330
1F
100
AcDbEntity
  8
AM_0
100
AcDbLine
 10
-58.9246032225856
 20
19.33350000000001
 30
0.0
 11
-58.88378722258565
 21
18.80265600000001
 31
0.0
  0
LINE
  5
C7CD
330
1F
100
AcDbEntity
  8
AM_0
100
AcDbLine
 10
-58.08749422258566
 20
19.55955600000004
 30
0.0
 11
-58.22562822258558
 21
19.30375900000004
 31
0.0
  0
LINE
  5
C7CE
330
1F
100
AcDbEntity
  8
AM_0
100
AcDbLine
 10
-58.70570822258563
 20
19.14693400000004
 30
0.0
 11
-58.84644522258568
 21
18.88631700000002
 31
0.0
  0
LINE
  5
C7CF
330
1F
100
AcDbEntity
  8
AM_0
100
AcDbLine
 10
-56.46283122258558
 20
13.40190800000004
 30
0.0
 11
-56.7740722225856
 21
17.44981600000005
 31
0.0
  0
LINE
  5
C7D0
330
1F
100
AcDbEntity
  8
AM_0
100
AcDbLine
 10
-58.52442522258559
 20
13.07063800000003
 30
0.0
 11
-56.46283122258558
 21
13.40190800000004
 31
0.0
  0
LINE
  5
C7D1
330
1F
100
AcDbEntity
  8
AM_0
100
AcDbLine
 10
-58.52442522258559
 20
13.07063800000003
 30
0.0
 11
-58.93843122258559
 21
18.45507700000001
 31
0.0
  0
LINE
  5
C7D2
330
1F
100
AcDbEntity
  8
AM_0
100
AcDbLine
 10
-56.7740722225856
 20
17.44981600000005
 30
0.0
 11
-58.93843122258559
 21
18.45507700000001
 31
0.0
  0
LINE
  5
C7D3
330
1F
100
AcDbEntity
  8
AM_0
100
AcDbLine
 10
-56.7740722225856
 20
17.44981600000005
 30
0.0
 11
-58.22562822258558
 21
19.30375900000004
 31
0.0
  0
LINE
  5
C7D4
330
1F
100
AcDbEntity
  8
AM_0
100
AcDbLine
 10
-51.69455222258557
 20
15.12169900000003
 30
0.0
 11
-51.60159122258562
 21
13.91268400000004
 31
0.0
  0
LINE
  5
C7D5
330
1F
100
AcDbEntity
  8
AM_0
100
AcDbLine
 10
-51.08209122258563
 20
13.23555100000004
 30
0.0
 11
-51.21095322258554
 21
14.91149500000005
 31
0.0
  0
LINE
  5
C7D6
330
1F
100
AcDbEntity
  8
AM_0
100
AcDbLine
 10
-54.02832622258563
 20
12.89624700000004
 30
0.0
 11
-54.15718822258566
 21
14.57219100000003
 31
0.0
  0
LINE
  5
C7D7
330
1F
100
AcDbEntity
  8
AM_0
100
AcDbLine
 10
-51.60159122258562
 20
13.91268400000004
 30
0.0
 11
-53.01027822258561
 21
12.90506100000004
 31
0.0
  0
LINE
  5
C7D8
330
1F
100
AcDbEntity
  8
AM_0
100
AcDbLine
 10
-51.08209122258563
 20
13.23555100000004
 30
0.0
 11
-51.60159122258562
 21
13.91268400000004
 31
0.0
  0
LINE
  5
C7D9
330
1F
100
AcDbEntity
  8
AM_0
100
AcDbLine
 10
-53.01027822258561
 20
12.90506100000004
 30
0.0
 11
-54.06422822258559
 21
13.36317700000006
 31
0.0
  0
LINE
  5
C7DA
330
1F
100
AcDbEntity
  8
AM_0
100
AcDbLine
 10
-50.39812022258562
 20
15.60823400000003
 30
0.0
 11
-50.50202022258568
 21
15.74366100000005
 31
0.0
  0
LINE
  5
C7DB
330
1F
100
AcDbEntity
  8
AM_0
100
AcDbLine
 10
-54.15718822258566
 20
14.57219100000003
 30
0.0
 11
-52.74850122258559
 21
15.57981500000005
 31
0.0
  0
LINE
  5
C7DC
330
1F
100
AcDbEntity
  8
AM_0
100
AcDbLine
 10
-52.74850122258559
 20
15.57981500000005
 30
0.0
 11
-51.21095322258554
 21
14.91149500000005
 31
0.0
  0
LINE
  5
C7DD
330
1F
100
AcDbEntity
  8
AM_0
100
AcDbLine
 10
-52.76065822258559
 20
19.93313300000005
 30
0.0
 11
-52.66562222258565
 21
17.92296600000003
 31
0.0
  0
LINE
  5
C7DF
330
1F
100
AcDbEntity
  8
AM_0
100
AcDbLine
 10
-57.83284022258559
 20
23.00000000000005
 30
0.0
 11
-95.72914422258568
 21
22.99999999999994
 31
0.0
  0
LINE
  5
C7E0
330
1F
100
AcDbEntity
  8
AM_0
100
AcDbLine
 10
-34.28903122258557
 20
22.01470100000008
 30
0.0
 11
-34.29934522258568
 21
19.65074500000008
 31
0.0
  0
LINE
  5
C7E1
330
1F
100
AcDbEntity
  8
AM_0
100
AcDbLine
 10
-46.59128422258564
 20
20.25025500000003
 30
0.0
 11
-46.65841622258565
 21
21.12335400000006
 31
0.0
  0
LINE
  5
C7E2
330
1F
100
AcDbEntity
  8
AM_0
100
AcDbLine
 10
-27.10574622258559
 20
14.95847100000008
 30
0.0
 11
-27.04371022258555
 21
14.93136200000009
 31
0.0
  0
LINE
  5
C7E3
330
1F
100
AcDbEntity
  8
AM_0
100
AcDbLine
 10
-29.29703422258558
 20
13.84914200000008
 30
0.0
 11
-26.59747522258561
 21
18.53040700000008
 31
0.0
  0
LINE
  5
C7E4
330
1F
100
AcDbEntity
  8
AM_0
100
AcDbLine
 10
-25.94841122258566
 20
15.48023900000009
 30
0.0
 11
-27.18706122258561
 21
15.1513680000001
 31
0.0
  0
LINE
  5
C7E5
330
1F
100
AcDbEntity
  8
AM_0
100
AcDbLine
 10
-27.22994622258562
 20
15.31799100000012
 30
0.0
 11
-26.56298122258561
 21
15.4950750000001
 31
0.0
  0
LINE
  5
C7E6
330
1F
100
AcDbEntity
  8
AM_0
100
AcDbLine
 10
-27.10574622258559
 20
14.95847100000008
 30
0.0
 11
-25.86709622258564
 21
15.28734200000008
 31
0.0
  0
LINE
  5
C7E7
330
1F
100
AcDbEntity
  8
AM_0
100
AcDbLine
 10
-26.58089022258565
 20
15.6876950000001
 30
0.0
 11
-27.24785522258565
 21
15.51061100000009
 31
0.0
  0
LINE
  5
C7E8
330
1F
100
AcDbEntity
  8
AM_0
100
AcDbLine
 10
-28.55448422258567
 20
19.39197200000009
 30
0.0
 11
-26.59747522258561
 21
18.53040700000008
 31
0.0
  0
LINE
  5
C7E9
330
1F
100
AcDbEntity
  8
AM_0
100
AcDbLine
 10
-26.53268522258571
 20
15.71432300000009
 30
0.0
 11
-27.1996502225856
 21
15.53723800000011
 31
0.0
  0
LINE
  5
C7EA
330
1F
100
AcDbEntity
  8
AM_0
100
AcDbLine
 10
-39.53088622258553
 20
2.742847000000068
 30
0.0
 11
-41.95376122258562
 21
5.900898000000069
 31
0.0
  0
LINE
  5
C7EB
330
1F
100
AcDbEntity
  8
AM_0
100
AcDbLine
 10
-41.64967822258563
 20
13.47621700000007
 30
0.0
 11
-32.90061922258564
 21
4.514308000000085
 31
0.0
  0
LINE
  5
C7EC
330
1F
100
AcDbEntity
  8
AM_0
100
AcDbLine
 10
-34.66965422258559
 20
18.85235300000007
 30
0.0
 11
-38.95925722258565
 21
18.87107000000009
 31
0.0
  0
LINE
  5
C7ED
330
1F
100
AcDbEntity
  8
AM_0
100
AcDbLine
 10
-34.99175922258567
 20
18.9537600000001
 30
0.0
 11
-40.33428922258567
 21
18.97707100000008
 31
0.0
  0
LINE
  5
C7EE
330
1F
100
AcDbEntity
  8
AM_0
100
AcDbLine
 10
-48.24593222258556
 20
14.34820900000005
 30
0.0
 11
-47.93469122258557
 21
10.30030100000004
 31
0.0
  0
LINE
  5
C7EF
330
1F
100
AcDbEntity
  8
AM_0
100
AcDbLine
 10
-45.06515922258564
 20
9.642508000000049
 30
0.0
 11
-45.77392222258564
 21
18.86048200000004
 31
0.0
  0
LINE
  5
C7F0
330
1F
100
AcDbEntity
  8
AM_0
100
AcDbLine
 10
-45.63802322258561
 20
9.122585000000071
 30
0.0
 11
-46.05202922258558
 21
14.50702400000005
 31
0.0
  0
LINE
  5
C7F1
330
1F
100
AcDbEntity
  8
AM_0
100
AcDbLine
 10
-48.31296922258559
 20
7.887954000000036
 30
0.0
 11
-48.42574222258566
 21
8.03494500000005
 31
0.0
  0
LINE
  5
C7F2
330
1F
100
AcDbEntity
  8
AM_0
100
AcDbLine
 10
-48.31296922258559
 20
7.887954000000036
 30
0.0
 11
-48.48610822258558
 21
8.027993000000037
 31
0.0
  0
LINE
  5
C7F3
330
1F
100
AcDbEntity
  8
AM_0
100
AcDbLine
 10
-47.93469122258557
 20
10.30030100000004
 30
0.0
 11
-46.35082622258562
 21
8.273903000000075
 31
0.0
  0
LINE
  5
C7F4
330
1F
100
AcDbEntity
  8
AM_0
100
AcDbLine
 10
-47.93469122258557
 20
10.30030100000004
 30
0.0
 11
-45.63802322258561
 21
9.122585000000071
 31
0.0
  0
LINE
  5
C7F5
330
1F
100
AcDbEntity
  8
AM_0
100
AcDbLine
 10
-45.06515922258564
 20
9.642508000000049
 30
0.0
 11
-45.74626022258565
 21
10.53027600000007
 31
0.0
  0
LINE
  5
C7F6
330
1F
100
AcDbEntity
  8
AM_0
100
AcDbLine
 10
-48.55717322258559
 20
18.39611700000006
 30
0.0
 11
-46.46603522258558
 21
19.89146300000004
 31
0.0
  0
LINE
  5
C7F7
330
1F
100
AcDbEntity
  8
AM_0
100
AcDbLine
 10
-48.55717322258559
 20
18.39611700000006
 30
0.0
 11
-47.29568822258559
 21
20.56250700000004
 31
0.0
  0
LINE
  5
C7F8
330
1F
100
AcDbEntity
  8
AM_0
100
AcDbLine
 10
-47.16765722258563
 20
20.56705900000005
 30
0.0
 11
-48.67127722258558
 21
20.63433800000006
 31
0.0
  0
LINE
  5
C7F9
330
1F
100
AcDbEntity
  8
AM_0
100
AcDbLine
 10
-47.29568822258559
 20
20.56250700000004
 30
0.0
 11
-48.79583822258567
 21
20.62963100000007
 31
0.0
  0
LINE
  5
C7FA
330
1F
100
AcDbEntity
  8
AM_0
100
AcDbLine
 10
-46.05202922258558
 20
14.50702400000005
 30
0.0
 11
-48.24593222258556
 21
14.34820900000005
 31
0.0
  0
LINE
  5
C7FB
330
1F
100
AcDbEntity
  8
AM_0
100
AcDbLine
 10
-48.24593222258556
 20
14.34820900000005
 30
0.0
 11
-48.55717322258559
 21
18.39611700000006
 31
0.0
  0
LINE
  5
C7FC
330
1F
100
AcDbEntity
  8
AM_0
100
AcDbLine
 10
-46.05202922258558
 20
14.50702400000005
 30
0.0
 11
-46.46603522258558
 21
19.89146300000004
 31
0.0
  0
LINE
  5
C7FD
330
1F
100
AcDbEntity
  8
AM_0
100
AcDbLine
 10
-43.51761022258566
 20
20.35340700000006
 30
0.0
 11
-44.05771722258569
 21
20.35576300000008
 31
0.0
  0
LINE
  5
C7FE
330
1F
100
AcDbEntity
  8
AM_0
100
AcDbLine
 10
-42.0650052225856
 20
18.88462200000009
 30
0.0
 11
-38.95925722258565
 21
18.87107000000009
 31
0.0
  0
LINE
  5
C7FF
330
1F
100
AcDbEntity
  8
AM_0
100
AcDbLine
 10
-40.33428922258567
 20
18.97707100000008
 30
0.0
 11
-41.42336522258566
 21
18.98182300000007
 31
0.0
  0
LINE
  5
C800
330
1F
100
AcDbEntity
  8
AM_0
100
AcDbLine
 10
-43.72091722258566
 20
18.30785300000007
 30
0.0
 11
-43.68645322258558
 21
19.08298300000007
 31
0.0
  0
LINE
  5
C801
330
1F
100
AcDbEntity
  8
AM_0
100
AcDbLine
 10
-43.15200722258558
 20
18.88936500000005
 30
0.0
 11
-42.0650052225856
 21
18.88462200000009
 31
0.0
  0
LINE
  5
C802
330
1F
100
AcDbEntity
  8
AM_0
100
AcDbLine
 10
-43.52447022258561
 20
18.35405700000007
 30
0.0
 11
-42.40809622258566
 21
18.34918600000008
 31
0.0
  0
LINE
  5
C803
330
1F
100
AcDbEntity
  8
AM_0
100
AcDbLine
 10
-42.50052922258558
 20
16.79652700000008
 30
0.0
 11
-42.5057442225856
 21
15.60129300000005
 31
0.0
  0
LINE
  5
C804
330
1F
100
AcDbEntity
  8
AM_0
100
AcDbLine
 10
-29.35688222258557
 20
10.2954050000001
 30
0.0
 11
-28.56646322258564
 21
11.1987840000001
 31
0.0
  0
LINE
  5
C805
330
1F
100
AcDbEntity
  8
AM_0
100
AcDbLine
 10
-36.0578442225856
 20
18.85841000000007
 30
0.0
 11
-36.08083422258565
 21
18.95851200000009
 31
0.0
  0
LINE
  5
C806
330
1F
100
AcDbEntity
  8
AM_0
100
AcDbLine
 10
-35.71511422258564
 20
18.95691600000009
 30
0.0
 11
-35.81403022258567
 21
18.85734700000009
 31
0.0
  0
LINE
  5
C807
330
1F
100
AcDbEntity
  8
AM_0
100
AcDbLine
 10
-34.29934522258568
 20
19.65074500000008
 30
0.0
 11
-34.99175922258567
 21
18.9537600000001
 31
0.0
  0
LINE
  5
C808
330
1F
100
AcDbEntity
  8
AM_0
100
AcDbLine
 10
-34.69501022258558
 20
19.25246800000008
 30
0.0
 11
-34.2730822225856
 21
19.25062700000006
 31
0.0
  0
LINE
  5
C809
330
1F
100
AcDbEntity
  8
AM_0
100
AcDbLine
 10
-31.13124722258556
 20
14.65664500000008
 30
0.0
 11
-29.29703422258558
 21
13.84914200000008
 31
0.0
  0
LINE
  5
C80A
330
1F
100
AcDbEntity
  8
AM_0
100
AcDbLine
 10
-27.24785522258565
 20
15.51061100000009
 30
0.0
 11
-27.1996502225856
 21
15.53723800000011
 31
0.0
  0
LINE
  5
C80B
330
1F
100
AcDbEntity
  8
AM_0
100
AcDbLine
 10
-29.2570502225856
 20
18.30029700000011
 30
0.0
 11
-30.18124122258567
 21
16.69767200000007
 31
0.0
  0
LINE
  5
C80C
330
1F
100
AcDbEntity
  8
AM_0
100
AcDbLine
 10
-12.38815722258562
 20
3.040844000000106
 30
0.0
 11
-11.49104222258563
 21
4.47468700000013
 31
0.0
  0
LINE
  5
C80D
330
1F
100
AcDbEntity
  8
AM_0
100
AcDbLine
 10
-4.137266222585537
 20
-10.48303699999985
 30
0.0
 11
-4.186199222585571
 21
-10.47433499999985
 31
0.0
  0
LINE
  5
C80E
330
1F
100
AcDbEntity
  8
AM_0
100
AcDbLine
 10
-4.137266222585537
 20
-10.48303699999985
 30
0.0
 11
-4.039929222585499
 21
-10.50034599999986
 31
0.0
  0
LINE
  5
C80F
330
1F
100
AcDbEntity
  8
AM_0
100
AcDbLine
 10
-4.351902222585579
 20
-10.95271299999984
 30
0.0
 11
-4.508812222585504
 21
-10.92480999999986
 31
0.0
  0
LINE
  5
C810
330
1F
100
AcDbEntity
  8
AM_0
100
AcDbLine
 10
-4.136595222585526
 20
-1.38266099999987
 30
0.0
 11
-7.742070222585482
 21
-0.720862999999838
 31
0.0
  0
LINE
  5
C811
330
1F
100
AcDbEntity
  8
AM_0
100
AcDbLine
 10
-18.31313122258563
 20
11.8079330000001
 30
0.0
 11
-19.15944722258564
 21
13.31164000000012
 31
0.0
  0
LINE
  5
C812
330
1F
100
AcDbEntity
  8
AM_0
100
AcDbLine
 10
-17.87901522258562
 20
11.80603900000011
 30
0.0
 11
-18.72533022258562
 21
13.3097460000001
 31
0.0
  0
LINE
  5
C813
330
1F
100
AcDbEntity
  8
AM_0
100
AcDbLine
 10
-20.43105122258555
 20
13.3171880000001
 30
0.0
 11
-21.29045622258558
 21
11.8209240000001
 31
0.0
  0
LINE
  5
C814
330
1F
100
AcDbEntity
  8
AM_0
100
AcDbLine
 10
-26.44179822258559
 20
8.191767000000083
 30
0.0
 11
-25.51786322258556
 21
8.807858000000095
 31
0.0
  0
LINE
  5
C815
330
1F
100
AcDbEntity
  8
AM_0
100
AcDbLine
 10
-19.17253622258556
 20
10.31166800000011
 30
0.0
 11
-18.31313122258563
 21
11.8079330000001
 31
0.0
  0
LINE
  5
C816
330
1F
100
AcDbEntity
  8
AM_0
100
AcDbLine
 10
-18.31313122258563
 20
11.8079330000001
 30
0.0
 11
-17.87901522258562
 21
11.80603900000011
 31
0.0
  0
LINE
  5
C817
330
1F
100
AcDbEntity
  8
AM_0
100
AcDbLine
 10
-18.73842022258566
 20
10.30977400000011
 30
0.0
 11
-17.87901522258562
 21
11.80603900000011
 31
0.0
  0
LINE
  5
C818
330
1F
100
AcDbEntity
  8
AM_0
100
AcDbLine
 10
-20.44414122258558
 20
10.31721700000011
 30
0.0
 11
-18.73842022258566
 21
10.30977400000011
 31
0.0
  0
LINE
  5
C819
330
1F
100
AcDbEntity
  8
AM_0
100
AcDbLine
 10
-21.29045622258558
 20
11.8209240000001
 30
0.0
 11
-20.44414122258558
 21
10.31721700000011
 31
0.0
  0
LINE
  5
C81A
330
1F
100
AcDbEntity
  8
AM_0
100
AcDbLine
 10
-20.43297522258558
 20
4.930537000000128
 30
0.0
 11
-20.14681422258559
 21
5.857221000000095
 31
0.0
  0
LINE
  5
C81B
330
1F
100
AcDbEntity
  8
AM_0
100
AcDbLine
 10
-19.96968322258555
 20
7.165117000000122
 30
0.0
 11
-19.65515222258557
 21
7.163744000000122
 31
0.0
  0
LINE
  5
C81C
330
1F
100
AcDbEntity
  8
AM_0
100
AcDbLine
 10
-21.01508122258553
 20
5.037787000000122
 30
0.0
 11
-20.5517962225856
 21
5.905142000000125
 31
0.0
  0
LINE
  5
C81D
330
1F
100
AcDbEntity
  8
AM_0
100
AcDbLine
 10
-24.77802222258566
 20
20.63889100000011
 30
0.0
 11
-24.62987222258567
 21
19.44545800000008
 31
0.0
  0
LINE
  5
C81E
330
1F
100
AcDbEntity
  8
AM_0
100
AcDbLine
 10
-24.62641422258559
 20
14.69429500000009
 30
0.0
 11
-25.8650642225856
 21
14.36542400000007
 31
0.0
  0
LINE
  5
C81F
330
1F
100
AcDbEntity
  8
AM_0
100
AcDbLine
 10
-25.78375022258558
 20
14.17252800000011
 30
0.0
 11
-24.54510022258557
 21
14.5013990000001
 31
0.0
  0
LINE
  5
C820
330
1F
100
AcDbEntity
  8
AM_0
100
AcDbLine
 10
-24.48306422258553
 20
14.47429000000011
 30
0.0
 11
-25.72171422258554
 21
14.14541900000011
 31
0.0
  0
LINE
  5
C821
330
1F
100
AcDbEntity
  8
AM_0
100
AcDbLine
 10
-25.78375022258558
 20
14.17252800000011
 30
0.0
 11
-25.72171422258554
 21
14.14541900000011
 31
0.0
  0
LINE
  5
C822
330
1F
100
AcDbEntity
  8
AM_0
100
AcDbLine
 10
-24.67837822258565
 20
16.42324000000007
 30
0.0
 11
-24.35466822258558
 21
15.16552600000011
 31
0.0
  0
LINE
  5
C823
330
1F
100
AcDbEntity
  8
AM_0
100
AcDbLine
 10
-24.66817022258561
 20
15.70244000000008
 30
0.0
 11
-24.84247522258562
 21
16.37967100000008
 31
0.0
  0
LINE
  5
C824
330
1F
100
AcDbEntity
  8
AM_0
100
AcDbLine
 10
-25.90795022258555
 20
14.53204700000009
 30
0.0
 11
-25.24098422258555
 21
14.70913200000009
 31
0.0
  0
LINE
  5
C825
330
1F
100
AcDbEntity
  8
AM_0
100
AcDbLine
 10
-24.13312922258558
 20
15.21579100000008
 30
0.0
 11
-24.45683922258564
 21
16.4735040000001
 31
0.0
  0
LINE
  5
C826
330
1F
100
AcDbEntity
  8
AM_0
100
AcDbLine
 10
-26.00037422258566
 20
17.2091830000001
 30
0.0
 11
-25.67666522258565
 21
15.95147000000008
 31
0.0
  0
LINE
  5
C827
330
1F
100
AcDbEntity
  8
AM_0
100
AcDbLine
 10
-24.13312922258558
 20
15.21579100000008
 30
0.0
 11
-24.05154722258561
 21
15.22257600000011
 31
0.0
  0
LINE
  5
C828
330
1F
100
AcDbEntity
  8
AM_0
100
AcDbLine
 10
-25.99016722258562
 20
16.48838400000011
 30
0.0
 11
-26.16447222258563
 21
17.16561400000012
 31
0.0
  0
LINE
  5
C829
330
1F
100
AcDbEntity
  8
AM_0
100
AcDbLine
 10
-24.45683922258564
 20
16.4735040000001
 30
0.0
 11
-24.37525722258561
 21
16.48029000000008
 31
0.0
  0
LINE
  5
C82A
330
1F
100
AcDbEntity
  8
AM_0
100
AcDbLine
 10
-25.1139382225856
 20
14.9614490000001
 30
0.0
 11
-25.07228222258561
 21
14.98537900000008
 31
0.0
  0
LINE
  5
C82B
330
1F
100
AcDbEntity
  8
AM_0
100
AcDbLine
 10
-25.45512622258565
 20
16.00173500000011
 30
0.0
 11
-25.77883522258565
 21
17.2594480000001
 31
0.0
  0
LINE
  5
C82C
330
1F
100
AcDbEntity
  8
AM_0
100
AcDbLine
 10
-24.54510022258557
 20
14.5013990000001
 30
0.0
 11
-24.48306422258553
 21
14.47429000000011
 31
0.0
  0
LINE
  5
C82D
330
1F
100
AcDbEntity
  8
AM_0
100
AcDbLine
 10
-25.45512622258565
 20
16.00173500000011
 30
0.0
 11
-25.37354422258562
 21
16.00852000000009
 31
0.0
  0
LINE
  5
C82E
330
1F
100
AcDbEntity
  8
AM_0
100
AcDbLine
 10
-25.25889422258558
 20
14.9017520000001
 30
0.0
 11
-25.92585922258558
 21
14.72466700000012
 31
0.0
  0
LINE
  5
C82F
330
1F
100
AcDbEntity
  8
AM_0
100
AcDbLine
 10
-25.25889422258558
 20
14.9017520000001
 30
0.0
 11
-25.21068822258564
 21
14.92837900000012
 31
0.0
  0
LINE
  5
C830
330
1F
100
AcDbEntity
  8
AM_0
100
AcDbLine
 10
-25.92585922258558
 20
14.72466700000012
 30
0.0
 11
-25.87765422258565
 21
14.75129500000008
 31
0.0
  0
LINE
  5
C831
330
1F
100
AcDbEntity
  8
AM_0
100
AcDbLine
 10
-25.77883522258565
 20
17.2594480000001
 30
0.0
 11
-25.69725322258562
 21
17.26623300000011
 31
0.0
  0
LINE
  5
C832
330
1F
100
AcDbEntity
  8
AM_0
100
AcDbLine
 10
-26.43593522258567
 20
15.7473920000001
 30
0.0
 11
-26.39427922258568
 21
15.77132300000011
 31
0.0
  0
LINE
  5
C833
330
1F
100
AcDbEntity
  8
AM_0
100
AcDbLine
 10
-25.86709622258564
 20
15.28734200000008
 30
0.0
 11
-25.8050602225856
 21
15.26023400000008
 31
0.0
  0
LINE
  5
C834
330
1F
100
AcDbEntity
  8
AM_0
100
AcDbLine
 10
-26.58089022258565
 20
15.6876950000001
 30
0.0
 11
-26.53268522258571
 21
15.71432300000009
 31
0.0
  0
LINE
  5
C835
330
1F
100
AcDbEntity
  8
AM_0
100
AcDbLine
 10
-25.37354422258562
 20
16.00852000000009
 30
0.0
 11
-25.69725322258562
 21
17.26623300000011
 31
0.0
  0
LINE
  5
C836
330
1F
100
AcDbEntity
  8
AM_0
100
AcDbLine
 10
-26.11964122258569
 20
16.43057600000008
 30
0.0
 11
-26.2939462225857
 21
17.10780600000009
 31
0.0
  0
LINE
  5
C837
330
1F
100
AcDbEntity
  8
AM_0
100
AcDbLine
 10
-25.21068822258564
 20
14.92837900000012
 30
0.0
 11
-25.87765422258565
 21
14.75129500000008
 31
0.0
  0
LINE
  5
C838
330
1F
100
AcDbEntity
  8
AM_0
100
AcDbLine
 10
-24.79764422258568
 20
15.64463300000011
 30
0.0
 11
-24.97195022258569
 21
16.32186300000012
 31
0.0
  0
LINE
  5
C839
330
1F
100
AcDbEntity
  8
AM_0
100
AcDbLine
 10
-24.05154722258561
 20
15.22257600000011
 30
0.0
 11
-24.37525722258561
 21
16.48029000000008
 31
0.0
  0
LINE
  5
C83A
330
1F
100
AcDbEntity
  8
AM_0
100
AcDbLine
 10
-25.8050602225856
 20
15.26023400000008
 30
0.0
 11
-27.04371022258555
 21
14.93136200000009
 31
0.0
  0
LINE
  5
C83B
330
1F
100
AcDbEntity
  8
AM_0
100
AcDbLine
 10
-18.1495332225856
 20
19.56864700000011
 30
0.0
 11
-18.1323372225857
 21
18.87644800000009
 31
0.0
  0
LINE
  5
C83C
330
1F
100
AcDbEntity
  8
AM_0
100
AcDbLine
 10
-18.9435742225857
 20
19.7234820000001
 30
0.0
 11
-18.69781822258568
 21
18.95321400000011
 31
0.0
  0
LINE
  5
C83D
330
1F
100
AcDbEntity
  8
AM_0
100
AcDbLine
 10
-18.72533022258562
 20
13.3097460000001
 30
0.0
 11
-20.43105122258555
 21
13.3171880000001
 31
0.0
  0
LINE
  5
C83E
330
1F
100
AcDbEntity
  8
AM_0
100
AcDbLine
 10
-19.61457422258564
 20
16.46365600000012
 30
0.0
 11
-19.92910422258563
 21
16.46502800000013
 31
0.0
  0
LINE
  5
C83F
330
1F
100
AcDbEntity
  8
AM_0
100
AcDbLine
 10
-9.562559222585605
 20
7.295569000000114
 30
0.0
 11
-10.22952422258561
 21
7.118485000000134
 31
0.0
  0
LINE
  5
C840
330
1F
100
AcDbEntity
  8
AM_0
100
AcDbLine
 10
-10.14821022258558
 20
6.925588000000118
 30
0.0
 11
-9.481244222585587
 21
7.102673000000123
 31
0.0
  0
LINE
  5
C841
330
1F
100
AcDbEntity
  8
AM_0
100
AcDbLine
 10
-10.81379822258566
 20
7.35256900000013
 30
0.0
 11
-9.575148222585653
 21
7.681440000000122
 31
0.0
  0
LINE
  5
C842
330
1F
100
AcDbEntity
  8
AM_0
100
AcDbLine
 10
-10.08617422258555
 20
6.89848000000012
 30
0.0
 11
-9.419208222585552
 21
7.075564000000127
 31
0.0
  0
LINE
  5
C843
330
1F
100
AcDbEntity
  8
AM_0
100
AcDbLine
 10
-10.84409422258556
 20
7.133321000000137
 30
0.0
 11
-9.60544422258556
 21
7.462193000000127
 31
0.0
  0
LINE
  5
C844
330
1F
100
AcDbEntity
  8
AM_0
100
AcDbLine
 10
-9.623354222585589
 20
7.654812000000106
 30
0.0
 11
-10.86200422258559
 21
7.325941000000113
 31
0.0
  0
LINE
  5
C845
330
1F
100
AcDbEntity
  8
AM_0
100
AcDbLine
 10
-10.79213122258556
 20
5.404377000000124
 30
0.0
 11
-11.11584022258557
 21
6.662090000000148
 31
0.0
  0
LINE
  5
C846
330
1F
100
AcDbEntity
  8
AM_0
100
AcDbLine
 10
-10.40649422258559
 20
5.498211000000139
 30
0.0
 11
-10.58079922258559
 21
6.175441000000148
 31
0.0
  0
LINE
  5
C847
330
1F
100
AcDbEntity
  8
AM_0
100
AcDbLine
 10
-11.24531422258564
 20
6.604283000000123
 30
0.0
 11
-10.92160522258563
 21
5.34656900000013
 31
0.0
  0
LINE
  5
C848
330
1F
100
AcDbEntity
  8
AM_0
100
AcDbLine
 10
-10.49921822258556
 20
6.182226000000127
 30
0.0
 11
-10.32491222258556
 21
5.504996000000119
 31
0.0
  0
LINE
  5
C849
330
1F
100
AcDbEntity
  8
AM_0
100
AcDbLine
 10
-10.8023382225856
 20
6.125176000000124
 30
0.0
 11
-10.6280332225856
 21
5.447946000000115
 31
0.0
  0
LINE
  5
C84A
330
1F
100
AcDbEntity
  8
AM_0
100
AcDbLine
 10
-10.40649422258559
 20
5.498211000000139
 30
0.0
 11
-10.32491222258556
 21
5.504996000000119
 31
0.0
  0
LINE
  5
C84B
330
1F
100
AcDbEntity
  8
AM_0
100
AcDbLine
 10
-10.14821022258558
 20
6.925588000000118
 30
0.0
 11
-10.08617422258555
 21
6.89848000000012
 31
0.0
  0
LINE
  5
C84C
330
1F
100
AcDbEntity
  8
AM_0
100
AcDbLine
 10
-10.58079922258559
 20
6.175441000000148
 30
0.0
 11
-10.49921822258556
 21
6.182226000000127
 31
0.0
  0
LINE
  5
C84D
330
1F
100
AcDbEntity
  8
AM_0
100
AcDbLine
 10
-10.86200422258559
 20
7.325941000000113
 30
0.0
 11
-10.81379822258566
 21
7.35256900000013
 31
0.0
  0
LINE
  5
C84E
330
1F
100
AcDbEntity
  8
AM_0
100
AcDbLine
 10
-7.684001222585607
 20
5.459502000000156
 30
0.0
 11
-8.290817222585587
 21
4.407231000000138
 31
0.0
  0
LINE
  5
C84F
330
1F
100
AcDbEntity
  8
AM_0
100
AcDbLine
 10
-7.212241222585589
 20
6.320079000000134
 30
0.0
 11
-8.205352222585588
 21
7.231548000000145
 31
0.0
  0
LINE
  5
C850
330
1F
100
AcDbEntity
  8
AM_0
100
AcDbLine
 10
-9.623354222585589
 20
7.654812000000106
 30
0.0
 11
-9.575148222585653
 21
7.681440000000122
 31
0.0
  0
LINE
  5
C851
330
1F
100
AcDbEntity
  8
AM_0
100
AcDbLine
 10
-9.481244222585587
 20
7.102673000000123
 30
0.0
 11
-9.419208222585552
 21
7.075564000000127
 31
0.0
  0
LINE
  5
C852
330
1F
100
AcDbEntity
  8
AM_0
100
AcDbLine
 10
-9.299956222585592
 20
5.333411000000126
 30
0.0
 11
-8.205352222585588
 21
7.231548000000145
 31
0.0
  0
LINE
  5
C853
330
1F
100
AcDbEntity
  8
AM_0
100
AcDbLine
 10
-8.290817222585587
 20
4.407231000000138
 30
0.0
 11
-9.299956222585592
 21
5.333411000000126
 31
0.0
  0
LINE
  5
C854
330
1F
100
AcDbEntity
  8
AM_0
100
AcDbLine
 10
-7.976242222585597
 20
10.45583200000015
 30
0.0
 11
-8.492219222585617
 21
9.54452300000014
 31
0.0
  0
LINE
  5
C855
330
1F
100
AcDbEntity
  8
AM_0
100
AcDbLine
 10
-9.536532222585606
 20
13.25753100000014
 30
0.0
 11
-10.18920322258566
 21
13.14901100000014
 31
0.0
  0
LINE
  5
C856
330
1F
100
AcDbEntity
  8
AM_0
100
AcDbLine
 10
-10.10806122258566
 20
14.50746000000015
 30
0.0
 11
-10.52037222258559
 21
14.03656400000011
 31
0.0
  0
LINE
  5
C857
330
1F
100
AcDbEntity
  8
AM_0
100
AcDbLine
 10
-13.5084562225856
 20
17.46801800000014
 30
0.0
 11
-13.62890322258562
 21
16.92168900000012
 31
0.0
  0
LINE
  5
C858
330
1F
100
AcDbEntity
  8
AM_0
100
AcDbLine
 10
-5.424367222585601
 20
15.13858800000014
 30
0.0
 11
-5.437434222585579
 21
15.15093800000014
 31
0.0
  0
LINE
  5
C859
330
1F
100
AcDbEntity
  8
AM_0
100
AcDbLine
 10
-33.57942622258557
 20
23.84764400000008
 30
0.0
 11
-26.03670822258567
 21
23.8147320000001
 31
0.0
  0
LINE
  5
C85A
330
1F
100
AcDbEntity
  8
AM_0
100
AcDbLine
 10
-33.57942622258557
 20
23.84764400000008
 30
0.0
 11
-33.83906222258556
 21
23.84877700000009
 31
0.0
  0
LINE
  5
C85B
330
1F
100
AcDbEntity
  8
AM_0
100
AcDbLine
 10
-34.94144722258559
 20
23.85358700000009
 30
0.0
 11
-33.83906222258556
 21
23.84877700000009
 31
0.0
  0
LINE
  5
C85C
330
1F
100
AcDbEntity
  8
AM_0
100
AcDbLine
 10
-35.3371112225856
 20
23.45530900000008
 30
0.0
 11
-34.25877922258556
 21
23.45060400000008
 31
0.0
  0
LINE
  5
C85D
330
1F
100
AcDbEntity
  8
AM_0
100
AcDbLine
 10
-35.3371112225856
 20
23.45530900000008
 30
0.0
 11
-35.33914222258559
 21
22.98993800000008
 31
0.0
  0
LINE
  5
C85E
330
1F
100
AcDbEntity
  8
AM_0
100
AcDbLine
 10
-25.9818532225857
 20
23.81179000000008
 30
0.0
 11
-26.03670822258567
 21
23.8147320000001
 31
0.0
  0
LINE
  5
C85F
330
1F
100
AcDbEntity
  8
AM_0
100
AcDbLine
 10
-26.03670822258567
 20
23.8147320000001
 30
0.0
 11
-24.2286082225857
 21
23.8068430000001
 31
0.0
  0
LINE
  5
C860
330
1F
100
AcDbEntity
  8
AM_0
100
AcDbLine
 10
-19.92877722258566
 20
23.4549290000001
 30
0.0
 11
-19.94254522258569
 21
23.45707600000011
 31
0.0
  0
ELLIPSE
  5
C8FB
330
1F
100
AcDbEntity
  8
AM_0
100
AcDbEllipse
 10
-0.8197002225854816
 20
-1.198204999999859
 30
0.0
 11
0.1930482418569984
 21
0.7809606458750002
 31
0.0
210
0.0
220
0.0
230
1.0
 40
0.89482725829649
 41
3.355333427039909
 42
4.93015216755611
  0
SPLINE
  5
C8FC
330
1F
100
AcDbEntity
  8
AM_0
100
AcDbSpline
210
0.0
220
0.0
230
1.0
 70
     8
 71
     3
 72
    11
 73
     7
 74
     5
 42
0.0000000001
 43
0.0000000001
 44
0.0000000001
 40
0.0
 40
0.0
 40
0.0
 40
0.0
 40
0.3168094479730469
 40
0.6017478243301382
 40
0.8244641761433578
 40
0.9622081800528057
 40
0.9622081800528057
 40
0.9622081800528057
 40
0.9622081800528057
 10
-1.798746222585521
 20
-6.326854999999852
 30
0.0
 10
-1.769833018884717
 20
-6.225286489313844
 30
0.0
 10
-1.7149152835309
 20
-6.032367273309408
 30
0.0
 10
-1.641221806704448
 20
-5.767613262043129
 30
0.0
 10
-1.583933483420086
 20
-5.560238643832037
 30
0.0
 10
-1.554114903205542
 20
-5.443842047371734
 30
0.0
 10
-1.542720222585501
 20
-5.399362999999851
 30
0.0
 11
-1.798746222585521
 21
-6.326854999999852
 31
0.0
 11
-1.71232022258556
 21
-6.022061999999863
 31
0.0
 11
-1.635759222585477
 21
-5.747601999999858
 31
0.0
 11
-1.577222222585589
 21
-5.532715999999851
 31
0.0
 11
-1.542720222585501
 21
-5.399362999999851
 31
0.0
  0
SPLINE
  5
C8FD
330
1F
100
AcDbEntity
  8
AM_0
100
AcDbSpline
210
0.0
220
0.0
230
1.0
 70
     8
 71
     3
 72
    11
 73
     7
 74
     5
 42
0.0000000001
 43
0.0000000001
 44
0.0000000001
 40
0.0
 40
0.0
 40
0.0
 40
0.0
 40
0.1945941334470273
 40
0.3892928262135811
 40
0.5803084888698055
 40
0.7670157582971298
 40
0.7670157582971298
 40
0.7670157582971298
 40
0.7670157582971298
 10
-2.969706222585557
 20
-10.69066099999986
 30
0.0
 10
-2.90693618009991
 20
-10.71169702389318
 30
0.0
 10
-2.781362367529469
 20
-10.75378037475615
 30
0.0
 10
-2.658104141786089
 20
-10.91456798456419
 30
0.0
 10
-2.608070879823964
 20
-11.10778832842739
 30
0.0
 10
-2.649772996256972
 20
-11.22921712424912
 30
0.0
 10
-2.670386222585591
 20
-11.28923899999986
 30
0.0
 11
-2.969706222585557
 21
-10.69066099999986
 31
0.0
 11
-2.792112222585558
 21
-10.77020499999986
 31
0.0
 11
-2.669606222585514
 21
-10.92153199999984
 31
0.0
 11
-2.626802222585581
 21
-11.10768999999985
 31
0.0
 11
-2.670386222585591
 21
-11.28923899999986
 31
0.0
  0
SPLINE
  5
C8FE
330
1F
100
AcDbEntity
  8
AM_0
100
AcDbSpline
210
0.0
220
0.0
230
1.0
 70
     8
 71
     3
 72
    11
 73
     7
 74
     5
 42
0.0000000001
 43
0.0000000001
 44
0.0000000001
 40
0.0
 40
0.0
 40
0.0
 40
0.0
 40
0.0914320782056522
 40
0.1868412051956775
 40
0.2874355534911903
 40
0.3927781833282999
 40
0.3927781833282999
 40
0.3927781833282999
 40
0.3927781833282999
 10
-3.781601222585607
 20
-10.71847999999985
 30
0.0
 10
-3.767500385205798
 20
-10.74566097197526
 30
0.0
 10
-3.738685362054015
 20
-10.80120521489241
 30
0.0
 10
-3.720673104034038
 20
-10.89644514507757
 30
0.0
 10
-3.725726697578226
 20
-10.9987400831077
 30
0.0
 10
-3.754704335462874
 20
-11.06161810228911
 30
0.0
 10
-3.769527222585509
 20
-11.09378199999986
 30
0.0
 11
-3.781601222585607
 21
-10.71847999999985
 31
0.0
 11
-3.743395222585547
 21
-10.80154699999985
 31
0.0
 11
-3.7246872225856
 21
-10.89510399999986
 31
0.0
 11
-3.731737222585536
 21
-10.99545099999986
 31
0.0
 11
-3.769527222585509
 21
-11.09378199999986
 31
0.0
  0
ELLIPSE
  5
C8FF
330
1F
100
AcDbEntity
  8
AM_0
100
AcDbEllipse
 10
-23.34091622258557
 20
-0.0994159999999056
 30
0.0
 11
3.985940951597955
 21
22.414713400962
 31
0.0
210
0.0
220
0.0
230
0.9999999999999998
 40
0.98480771562989
 41
4.406261724087199
 42
4.608557026613509
  0
ELLIPSE
  5
C900
330
1F
100
AcDbEntity
  8
AM_0
100
AcDbEllipse
 10
-23.59072722258554
 20
1.735926000000119
 30
0.0
 11
-22.57679905202598
 21
4.021968998752955
 31
0.0
210
0.0
220
0.0
230
0.9999999999999998
 40
0.03015369185318
 41
3.232683688762149
 42
3.35239839994193
  0
SPLINE
  5
C901
330
1F
100
AcDbEntity
  8
AM_0
100
AcDbSpline
210
0.0
220
0.0
230
1.0
 70
     8
 71
     3
 72
    11
 73
     7
 74
     5
 42
0.0000000001
 43
0.0000000001
 44
0.0000000001
 40
0.0
 40
0.0
 40
0.0
 40
0.0
 40
0.2960515081957986
 40
0.5953491184518761
 40
0.89743926926777
 40
1.201685477502161
 40
1.201685477502161
 40
1.201685477502161
 40
1.201685477502161
 10
-1.468638222585525
 20
-1.872541999999839
 30
0.0
 10
-1.399349774001336
 20
-1.802215476304021
 30
0.0
 10
-1.260013153036671
 20
-1.660791322982704
 30
0.0
 10
-1.069045064100478
 20
-1.43014472797548
 30
0.0
 10
-0.8906267548239075
 20
-1.186226656557985
 30
0.0
 10
-0.7865004867268456
 20
-1.012891005595037
 30
0.0
 10
-0.7342522225855533
 20
-0.9259149999998612
 30
0.0
 11
-1.468638222585525
 21
-1.872541999999839
 31
0.0
 11
-1.263901222585502
 21
-1.658697999999844
 31
0.0
 11
-1.071990222585498
 21
-1.429025999999851
 31
0.0
 11
-0.894856222585588
 21
-1.184317999999848
 31
0.0
 11
-0.7342522225855533
 21
-0.9259149999998612
 31
0.0
  0
SPLINE
  5
C902
330
1F
100
AcDbEntity
  8
AM_0
100
AcDbSpline
210
0.0
220
0.0
230
1.0
 70
     8
 71
     3
 72
    11
 73
     7
 74
     5
 42
0.0000000001
 43
0.0000000001
 44
0.0000000001
 40
0.0
 40
0.0
 40
0.0
 40
0.0
 40
0.1538349953033906
 40
0.3076457399638526
 40
0.4614377776251272
 40
0.6152166539540956
 40
0.6152166539540956
 40
0.6152166539540956
 40
0.6152166539540956
 10
-0.0657062225855611
 20
0.2394700000001535
 30
0.0
 10
-0.068029008298668
 20
0.2906958709998114
 30
0.0
 10
-0.0726742135595184
 20
0.393139537721432
 30
0.0
 10
-0.0808271469206983
 20
0.5467371058292203
 30
0.0
 10
-0.0897694248738663
 20
0.7002720045910776
 30
0.0
 10
-0.0965207196470415
 20
0.8025734607315886
 30
0.0
 10
-0.0998962225855849
 20
0.8537220000001752
 30
0.0
 11
-0.0657062225855611
 21
0.2394700000001535
 31
0.0
 11
-0.0728722225855449
 21
0.3931380000001354
 31
0.0
 11
-0.0809592225855909
 21
0.546736000000152
 31
0.0
 11
-0.0899672225855852
 21
0.7002640000001748
 31
0.0
 11
-0.0998962225855849
 21
0.8537220000001752
 31
0.0
  0
SPLINE
  5
C903
330
1F
100
AcDbEntity
  8
AM_0
100
AcDbSpline
210
0.0
220
0.0
230
1.0
 70
     8
 71
     3
 72
    11
 73
     7
 74
     5
 42
0.0000000001
 43
0.0000000001
 44
0.0000000001
 40
0.0
 40
0.0
 40
0.0
 40
0.0
 40
0.8128778023079442
 40
1.636405295960702
 40
2.469215748752938
 40
3.309351591342673
 40
3.309351591342673
 40
3.309351591342673
 40
3.309351591342673
 10
-0.4790102225855435
 20
4.140077000000161
 30
0.0
 10
-0.4366918368948617
 20
3.872427253665241
 30
0.0
 10
-0.3515006430104636
 20
3.333621222646228
 30
0.0
 10
-0.2487353445814191
 20
2.516879782975644
 30
0.0
 10
-0.1619715726185568
 20
1.689157112948923
 30
0.0
 10
-0.1206483204641265
 20
1.133012108326172
 30
0.0
 10
-0.0998962225855849
 20
0.8537220000001752
 30
0.0
 11
-0.4790102225855435
 21
4.140077000000161
 31
0.0
 11
-0.356271222585633
 21
3.336519000000151
 31
0.0
 11
-0.2519322225856513
 21
2.519628000000153
 31
0.0
 11
-0.166394222585609
 21
1.691222000000152
 31
0.0
 11
-0.0998962225855849
 21
0.8537220000001752
 31
0.0
  0
ELLIPSE
  5
C904
330
1F
100
AcDbEntity
  8
AM_0
100
AcDbEllipse
 10
-0.8197002225854816
 20
-1.198204999999859
 30
0.0
 11
0.1930482418569984
 21
0.7809606458750002
 31
0.0
210
0.0
220
0.0
230
1.0
 40
0.89482725829649
 41
3.180801074741899
 42
3.355333427039909
  0
ELLIPSE
  5
C905
330
1F
100
AcDbEntity
  8
AM_0
100
AcDbEllipse
 10
-22.72153722258559
 20
-1.199970999999891
 30
0.0
 11
6.032756178187949
 21
24.405014601599
 31
0.0
210
0.0
220
0.0
230
1.0
 40
0.8948268364620798
 41
-1.35303296099973
 42
-1.29548491760076
  0
ARC
  5
C9EC
330
1F
100
AcDbEntity
  8
AM_0
100
AcDbCircle
 10
-23.89997622258551
 20
0.0000000000001137
 30
0.0
 40
23.0000006445482
100
AcDbArc
 50
346.420720188813
 51
352.5052827078928
  0
LINE
  5
C9ED
330
1F
100
AcDbEntity
  8
AM_0
100
AcDbLine
 10
-3.769527222585509
 20
-11.09378199999986
 30
0.0
 11
-2.670386222585591
 21
-11.28923899999986
 31
0.0
  0
LINE
  5
C9EE
330
1F
100
AcDbEntity
  8
AM_0
100
AcDbLine
 10
-1.096467222585545
 20
-1.991499999999859
 30
0.0
 11
-1.096467222585545
 21
-2.207466999999837
 31
0.0
  0
LINE
  5
C9EF
330
1F
100
AcDbEntity
  8
AM_0
100
AcDbLine
 10
-1.096467222585545
 20
-2.207466999999837
 30
0.0
 11
-1.096467222585545
 21
-2.999999999999857
 31
0.0
  0
LINE
  5
C9F0
330
1F
100
AcDbEntity
  8
AM_0
100
AcDbLine
 10
-1.096467222585545
 20
-1.991499999999859
 30
0.0
 11
-1.096467222585545
 21
-1.940688999999849
 31
0.0
  0
LINE
  5
C9F1
330
1F
100
AcDbEntity
  8
AM_0
100
AcDbLine
 10
-1.096467222585545
 20
-1.997004999999859
 30
0.0
 11
-0.8601222225855167
 21
-1.99803699999984
 31
0.0
  0
LINE
  5
C9F2
330
1F
100
AcDbEntity
  8
AM_0
100
AcDbLine
 10
-1.096467222585545
 20
-1.984850999999849
 30
0.0
 11
-0.9852072225855295
 21
-1.985336999999844
 31
0.0
  0
LINE
  5
C9F3
330
1F
100
AcDbEntity
  8
AM_0
100
AcDbLine
 10
-0.9852072225855295
 20
-1.985336999999844
 30
0.0
 11
-1.096467222585545
 21
-1.962953999999854
 31
0.0
  0
DIMENSION
  5
CB43
330
1F
100
AcDbEntity
  8
AM_5
100
AcDbDimension
  2
*D5
 10
-65.00000000000034
 20
39.40000100999979
 30
0.0
 11
-32.50000000000027
 21
42.50000100999974
 31
0.0
 70
    32
  1
69
 51
359.9999999999998
  3
AM_JIS$0
100
AcDbAlignedDimension
 13
-0.0000000000002842
 23
0.0000000000001705
 33
0.0
 14
-65.00000000000037
 24
25.00000000000003
 34
0.0
 50
180.0
100
AcDbRotatedDimension
1001
GENIUS_GENDTOL_13
1000

1000
h7
1000

1040
0.0
1001
ACAD
1000
DSTYLE
1002
{
1070
   287
1070
     3
1070
   147
1040
3.0
1070
    44
1040
2.0
1070
    41
1040
5.0
1070
    40
1040
0.5
1070
    42
1040
2.0
1070
    43
1040
12.0
1070
    48
1040
0.1
1070
    78
1070
     8
1070
   140
1040
6.4
1070
   176
1070
   256
1070
   177
1070
   256
1070
   271
1070
     1
1070
   272
1070
     3
1070
   275
1070
     0
1070
   284
1070
     0
1070
   289
1070
     3
1070
   340
1005
6B
1070
   371
1070
    -1
1070
   372
1070
    -1
1002
}
  0
DIMENSION
  5
CBD8
330
1F
100
AcDbEntity
  8
AM_5
100
AcDbDimension
  2
*D6
 10
-99.99997622258556
 20
-47.08493606809287
 30
0.0
 11
-49.99998811129292
 21
-43.98493606809287
 31
0.0
 70
    32
  1
<>
 51
359.9999999999998
  3
AM_JIS$0
100
AcDbAlignedDimension
 13
-0.0000000000002842
 23
0.0000000000001137
 33
0.0
 14
-99.99997622258556
 24
-25.40000000000006
 34
0.0
100
AcDbRotatedDimension
1001
GENIUS_GENDTOL_13
1000

1000
h7
1000

1040
0.0
1001
ACAD
1000
DSTYLE
1002
{
1070
   287
1070
     3
1070
   147
1040
3.0
1070
    44
1040
2.0
1070
    41
1040
5.0
1070
    40
1040
0.5
1070
    42
1040
2.0
1070
    43
1040
12.0
1070
    48
1040
0.1
1070
    78
1070
     8
1070
   140
1040
6.4
1070
   176
1070
   256
1070
   177
1070
   256
1070
   271
1070
     1
1070
   272
1070
     3
1070
   275
1070
     0
1070
   284
1070
     0
1070
   289
1070
     3
1070
   340
1005
6B
1070
   371
1070
    -1
1070
   372
1070
    -1
1002
}
  0
DIMENSION
  5
CC64
330
1F
100
AcDbEntity
  8
AM_5
100
AcDbDimension
  2
*D7
 10
-199.9999762225855
 20
-57.08493606809287
 30
0.0
 11
-99.99998811129291
 21
-53.98493606809287
 31
0.0
 70
    32
  1
<>
 51
359.9999999999998
  3
AM_JIS$0
100
AcDbAlignedDimension
 13
-0.0000000000002842
 23
0.0000000000001137
 33
0.0
 14
-199.9999762225855
 24
-23.06149800000028
 34
0.0
100
AcDbRotatedDimension
1001
GENIUS_GENDTOL_13
1000

1000
h7
1000

1040
0.0
1001
ACAD
1000
DSTYLE
1002
{
1070
   287
1070
     3
1070
   147
1040
3.0
1070
    44
1040
2.0
1070
    41
1040
5.0
1070
    40
1040
0.5
1070
    42
1040
2.0
1070
    43
1040
12.0
1070
    48
1040
0.1
1070
    78
1070
     8
1070
   140
1040
6.4
1070
   176
1070
   256
1070
   177
1070
   256
1070
   271
1070
     1
1070
   272
1070
     3
1070
   275
1070
     0
1070
   284
1070
     0
1070
   289
1070
     3
1070
   340
1005
6B
1070
   371
1070
    -1
1070
   372
1070
    -1
1002
}
  0
DIMENSION
  5
CCF0
330
1F
100
AcDbEntity
  8
AM_5
100
AcDbDimension
  2
*D8
 10
-199.9999762225855
 20
-47.08493606809287
 30
0.0
 11
-149.9999762225855
 21
-43.98493606809287
 31
0.0
 70
    32
  1
<>
 51
359.9999999999998
  3
AM_JIS$0
100
AcDbAlignedDimension
 13
-99.99997622258556
 23
-25.40000000000006
 33
0.0
 14
-199.9999762225855
 24
-23.06149800000028
 34
0.0
100
AcDbRotatedDimension
1001
GENIUS_GENDTOL_13
1000

1000
h7
1000

1040
0.0
1001
ACAD
1000
DSTYLE
1002
{
1070
   287
1070
     3
1070
   147
1040
3.0
1070
    44
1040
2.0
1070
    41
1040
5.0
1070
    40
1040
0.5
1070
    42
1040
2.0
1070
    43
1040
12.0
1070
    48
1040
0.1
1070
    78
1070
     8
1070
   140
1040
6.4
1070
   176
1070
   256
1070
   177
1070
   256
1070
   271
1070
     1
1070
   272
1070
     3
1070
   275
1070
     0
1070
   284
1070
     0
1070
   289
1070
     3
1070
   340
1005
6B
1070
   371
1070
    -1
1070
   372
1070
    -1
1002
}
  0
DIMENSION
  5
CDA0
330
1F
100
AcDbEntity
  8
AM_5
100
AcDbDimension
  2
*D9
 10
17.25058175939221
 20
-24.9999999999999
 30
0.0
 11
14.15058175939222
 21
0.0000000000001024
 31
0.0
 70
    32
  1
%%c<>
 51
359.9999999999998
  3
AM_JIS$0
100
AcDbAlignedDimension
 13
-25.00000000000039
 23
25.00000000000011
 33
0.0
 14
-25.00000000000028
 24
-24.99999999999988
 34
0.0
 50
90.0
100
AcDbRotatedDimension
1001
GENIUS_GENDTOL_13
1000

1000
h7
1000

1040
0.0
1001
ACAD
1000
DSTYLE
1002
{
1070
   287
1070
     3
1070
   147
1040
3.0
1070
    44
1040
2.0
1070
    41
1040
5.0
1070
    40
1040
0.5
1070
    42
1040
2.0
1070
    43
1040
12.0
1070
    48
1040
0.1
1070
    78
1070
     8
1070
   140
1040
6.4
1070
   176
1070
   256
1070
   177
1070
   256
1070
   271
1070
     1
1070
   272
1070
     3
1070
   275
1070
     0
1070
   284
1070
     0
1070
   289
1070
     3
1070
   340
1005
6B
1070
   371
1070
    -1
1070
   372
1070
    -1
1002
}
  0
DIMENSION
  5
CE3E
330
1F
100
AcDbEntity
  8
AM_5
100
AcDbDimension
  2
*D10
 10
-217.5323376122658
 20
-25.40000000000022
 30
0.0
 11
-220.6323376122657
 21
-0.0000000000002705
 31
0.0
 70
    32
  1
%%c50.8
 51
359.9999999999998
  3
AM_JIS$0
100
AcDbAlignedDimension
 13
-196.9999762225856
 23
25.39999999999975
 33
0.0
 14
-196.9999762225855
 24
-25.40000000000023
 34
0.0
 50
270.0
100
AcDbRotatedDimension
1001
GENIUS_GENDTOL_13
1000

1000
h7
1000

1040
0.0
1001
ACAD
1000
DSTYLE
1002
{
1070
   287
1070
     3
1070
   147
1040
3.0
1070
    44
1040
2.0
1070
    41
1040
5.0
1070
    40
1040
0.5
1070
    42
1040
2.0
1070
    43
1040
12.0
1070
    48
1040
0.1
1070
    78
1070
     8
1070
   140
1040
6.4
1070
   176
1070
   256
1070
   177
1070
   256
1070
   271
1070
     1
1070
   272
1070
     3
1070
   275
1070
     0
1070
   284
1070
     0
1070
   289
1070
     3
1070
   340
1005
6B
1070
   371
1070
    -1
1070
   372
1070
    -1
1002
}
  0
VIEWPORT
  5
110
330
101
100
AcDbEntity
 67
     1
  8
0
100
AcDbViewport
 10
420.5
 20
297.0
 30
0.0
 40
948.9782706766916
 41
628.452
 68
     1
 69
     1
1001
ACAD
1000
MVIEW
1002
{
1070
    16
1010
0.0
1020
0.0
1030
0.0
1010
0.0
1020
0.0
1030
1.0
1040
0.0
1040
628.452
1040
420.5
1040
297.0
1040
50.0
1040
0.0
1040
0.0
1070
     0
1070
   100
1070
     1
1070
     1
1070
     0
1070
     0
1070
     0
1070
     0
1040
0.0
1040
0.0
1040
0.0
1040
10.0
1040
10.0
1040
10.0
1040
10.0
1070
     0
1002
{
1002
}
1002
}
  0
ENDSEC
  0
SECTION
  2
OBJECTS
  0
DICTIONARY
  5
C
330
0
100
AcDbDictionary
  3
ACAD_GROUP
350
D
  3
ACAD_LAYOUT
350
1A
  3
ACAD_MLINESTYLE
350
17
  3
ACAD_PLOTSETTINGS
350
19
  3
ACAD_PLOTSTYLENAME
350
E
  3
ACDBVARIABLEDICTIONARY
350
34
  3
ACMDICTIONARY
350
43
  3
AMG
350
2B
  3
AMGSNAPSETTINGS
350
6E
  3
DWGPROPS
350
D192
  3
ACDBHEADERROUNDTRIPXREC
350
D19F
  0
DICTIONARY
  5
74
330
1F
100
AcDbDictionary
280
     1
  3
ACAD_INDEX
360
D194
  3
ACAD_LAYOUTSELFREF
360
D1C2
  0
DICTIONARY
  5
D1C7
330
101
100
AcDbDictionary
280
     1
  3
ACAD_LAYOUTSELFREF
360
D1C8
  0
DICTIONARY
  5
D
102
{ACAD_REACTORS
330
C
102
}
330
C
100
AcDbDictionary
  0
DICTIONARY
  5
1A
102
{ACAD_REACTORS
330
C
102
}
330
C
100
AcDbDictionary
  0
DICTIONARY
  5
17
102
{ACAD_REACTORS
330
C
102
}
330
C
100
AcDbDictionary
  3
STANDARD
350
18
  0
DICTIONARY
  5
19
102
{ACAD_REACTORS
330
C
102
}
330
C
100
AcDbDictionary
  3
ASAMI
350
399D
  0
ACDBDICTIONARYWDFLT
  5
E
102
{ACAD_REACTORS
330
C
102
}
330
C
100
AcDbDictionary
281
     1
  3
Normal
350
F
100
AcDbDictionaryWithDefault
340
F
  0
DICTIONARY
  5
34
102
{ACAD_REACTORS
330
C
102
}
330
C
100
AcDbDictionary
  3
INDEXCTL
350
35
  3
SORTENTS
350
B5E
  0
DICTIONARY
  5
43
102
{ACAD_REACTORS
330
C
102
}
330
C
100
AcDbDictionary
  3
ACMSTDDICTIONARY
350
260
  0
DICTIONARY
  5
2B
102
{ACAD_REACTORS
330
C
102
}
330
C
100
AcDbDictionary
  3
ACMGSETTINGS
350
2C
  0
DICTIONARY
  5
6E
102
{ACAD_REACTORS
330
C
102
}
330
C
100
AcDbDictionary
  0
XRECORD
  5
D192
102
{ACAD_REACTORS
330
C
102
}
330
C
100
AcDbXrecord
  1
DWGPROPS COOKIE
  2

  3

  4

  6

  7

  8

  9

300
AmdtFileType=82
301
=
302
=
303
=
304
=
305
=
306
=
307
=
308
=
309
=
 40
0.945646099537037
 41
2452802.716478761
 42
2453075.667112083
  1

 90
        1
  0
DICTIONARY
  5
D19F
102
{ACAD_REACTORS
330
C
102
}
330
C
100
AcDbDictionary
  3
TSTACKALIGN
350
D1A0
  3
TSTACKSIZE
350
D1A1
  3
HYPERLINKBASE
350
D1A2
  3
STYLESHEET
350
D1A3
  3
LAYOUTDICT
350
D1A4
  3
PLOTSETDICT
350
D1A5
  3
PLOTSTYLNAMDICT
350
D1A6
  3
LWETCUNION
350
D1A7
  3
INSUNITS
350
D1A8
  3
CEPSNTYPE
350
D1A9
  3
FINGERPRINTGUID
350
D1AA
  3
VERSIONGUID
350
D1AB
  3
PSVPSCALE
350
D1AC
  3
DIMSTYLEDATA
350
D1AD
  3
PUCSORTHOREF
350
D1AE
  3
PUCSORTHOVIEW
350
D1AF
  3
PUCSBASE
350
D1B0
  3
PUCSORGTOP
350
D1B1
  3
PUCSORGBOTTOM
350
D1B2
  3
PUCSORGLEFT
350
D1B3
  3
PUCSORGRIGHT
350
D1B4
  3
PUCSORGFRONT
350
D1B5
  3
PUCSORGBACK
350
D1B6
  3
UCSORTHOREF
350
D1B7
  3
UCSORTHOVIEW
350
D1B8
  3
UCSBASE
350
D1B9
  3
UCSORGTOP
350
D1BA
  3
UCSORGBOTTOM
350
D1BB
  3
UCSORGLEFT
350
D1BC
  3
UCSORGRIGHT
350
D1BD
  3
UCSORGFRONT
350
D1BE
  3
UCSORGBACK
350
D1BF
  0
DICTIONARY
  5
D194
102
{ACAD_REACTORS
330
74
102
}
330
74
100
AcDbDictionary
  3
*A1
350
D195
  0
XRECORD
  5
D1C2
102
{ACAD_REACTORS
330
74
102
}
330
74
100
AcDbXrecord
340
1F
  0
XRECORD
  5
D1C8
102
{ACAD_REACTORS
330
D1C7
102
}
330
D1C7
100
AcDbXrecord
340
101
  0
MLINESTYLE
  5
18
102
{ACAD_REACTORS
330
17
102
}
330
17
100
AcDbMlineStyle
  2
STANDARD
 70
     0
  3

 62
   256
 51
90.0
 52
90.0
 71
     2
 49
0.5
 62
   256
  6
BYLAYER
 49
-0.5
 62
   256
  6
BYLAYER
  0
PLOTSETTINGS
  5
399D
102
{ACAD_REACTORS
330
19
102
}
330
19
100
AcDbPlotSettings
  1
asami
  2
RICOH imagio MF1540
  4
A4
  6

 40
5.831416606903076
 41
7.651742935180664
 42
4.90008544921875
 43
5.789077758789062
 44
296.9683227539062
 45
209.9733276367187
 46
0.0
 47
0.0
 48
-156.6707931774246
 49
-74.57609991074048
140
58.59973180214831
141
60.61068161925596
142
1.0
143
1.095343097833084
 70
  1712
 72
     1
 73
     1
 74
     4
  7
asami.ctb
 75
     0
147
0.9129559514076438
148
156.6707931774246
149
74.57609991074048
  0
ACDBPLACEHOLDER
  5
F
102
{ACAD_REACTORS
330
E
102
}
330
E
100
AcDbPlaceHolder
280
     0
  0
DICTIONARYVAR
  5
35
102
{ACAD_REACTORS
330
34
102
}
330
34
100
DictionaryVariables
280
     0
  1
1
  0
DICTIONARYVAR
  5
B5E
102
{ACAD_REACTORS
330
34
102
}
330
34
100
DictionaryVariables
280
     0
  1
96
  0
DICTIONARY
  5
260
102
{ACAD_REACTORS
330
43
102
}
330
43
100
AcDbDictionary
  0
DICTIONARY
  5
2C
102
{ACAD_REACTORS
330
2B
102
}
330
2B
100
AcDbDictionary
  3
DWGSETTINGS
350
2D
  0
XRECORD
  5
D1A0
102
{ACAD_REACTORS
330
D19F
102
}
330
D19F
100
AcDbXrecord
 90
        1
  0
XRECORD
  5
D1A1
102
{ACAD_REACTORS
330
D19F
102
}
330
D19F
100
AcDbXrecord
 90
       70
  0
XRECORD
  5
D1A2
102
{ACAD_REACTORS
330
D19F
102
}
330
D19F
100
AcDbXrecord
  1

  0
XRECORD
  5
D1A3
102
{ACAD_REACTORS
330
D19F
102
}
330
D19F
100
AcDbXrecord
  1
ASAMI.ctb
  0
XRECORD
  5
D1A4
102
{ACAD_REACTORS
330
D19F
102
}
330
D19F
100
AcDbXrecord
340
1A
  0
XRECORD
  5
D1A5
102
{ACAD_REACTORS
330
D19F
102
}
330
D19F
100
AcDbXrecord
340
19
  0
XRECORD
  5
D1A6
102
{ACAD_REACTORS
330
D19F
102
}
330
D19F
100
AcDbXrecord
340
E
  0
XRECORD
  5
D1A7
102
{ACAD_REACTORS
330
D19F
102
}
330
D19F
100
AcDbXrecord
 90
    10781
  0
XRECORD
  5
D1A8
102
{ACAD_REACTORS
330
D19F
102
}
330
D19F
100
AcDbXrecord
 90
        4
  0
XRECORD
  5
D1A9
102
{ACAD_REACTORS
330
D19F
102
}
330
D19F
100
AcDbXrecord
 90
        0
  0
XRECORD
  5
D1AA
102
{ACAD_REACTORS
330
D19F
102
}
330
D19F
100
AcDbXrecord
  1
{AFB28963-8C59-40AE-9337-C84526B81ACE}
  0
XRECORD
  5
D1AB
102
{ACAD_REACTORS
330
D19F
102
}
330
D19F
100
AcDbXrecord
  1
{E27E43A8-AF28-4940-A9BF-CF57A019CF74}
  0
XRECORD
  5
D1AC
102
{ACAD_REACTORS
330
D19F
102
}
330
D19F
100
AcDbXrecord
 40
0.0
  0
XRECORD
  5
D1AD
102
{ACAD_REACTORS
330
D19F
102
}
330
D19F
100
AcDbXrecord
1000
DSTYLE
1002
{
1070
    79
 70
     2
1070
   341
340
59
1070
   342
340
59
1070
   371
 70
    -1
1070
   372
 70
    -1
1002
}
  0
XRECORD
  5
D1AE
102
{ACAD_REACTORS
330
D19F
102
}
330
D19F
100
AcDbXrecord
340
0
  0
XRECORD
  5
D1AF
102
{ACAD_REACTORS
330
D19F
102
}
330
D19F
100
AcDbXrecord
 70
     0
  0
XRECORD
  5
D1B0
102
{ACAD_REACTORS
330
D19F
102
}
330
D19F
100
AcDbXrecord
340
0
  0
XRECORD
  5
D1B1
102
{ACAD_REACTORS
330
D19F
102
}
330
D19F
100
AcDbXrecord
 10
0.0
 20
0.0
 30
0.0
  0
XRECORD
  5
D1B2
102
{ACAD_REACTORS
330
D19F
102
}
330
D19F
100
AcDbXrecord
 10
0.0
 20
0.0
 30
0.0
  0
XRECORD
  5
D1B3
102
{ACAD_REACTORS
330
D19F
102
}
330
D19F
100
AcDbXrecord
 10
0.0
 20
0.0
 30
0.0
  0
XRECORD
  5
D1B4
102
{ACAD_REACTORS
330
D19F
102
}
330
D19F
100
AcDbXrecord
 10
0.0
 20
0.0
 30
0.0
  0
XRECORD
  5
D1B5
102
{ACAD_REACTORS
330
D19F
102
}
330
D19F
100
AcDbXrecord
 10
0.0
 20
0.0
 30
0.0
  0
XRECORD
  5
D1B6
102
{ACAD_REACTORS
330
D19F
102
}
330
D19F
100
AcDbXrecord
 10
0.0
 20
0.0
 30
0.0
  0
XRECORD
  5
D1B7
102
{ACAD_REACTORS
330
D19F
102
}
330
D19F
100
AcDbXrecord
340
0
  0
XRECORD
  5
D1B8
102
{ACAD_REACTORS
330
D19F
102
}
330
D19F
100
AcDbXrecord
 70
     0
  0
XRECORD
  5
D1B9
102
{ACAD_REACTORS
330
D19F
102
}
330
D19F
100
AcDbXrecord
340
0
  0
XRECORD
  5
D1BA
102
{ACAD_REACTORS
330
D19F
102
}
330
D19F
100
AcDbXrecord
 10
0.0
 20
0.0
 30
0.0
  0
XRECORD
  5
D1BB
102
{ACAD_REACTORS
330
D19F
102
}
330
D19F
100
AcDbXrecord
 10
0.0
 20
0.0
 30
0.0
  0
XRECORD
  5
D1BC
102
{ACAD_REACTORS
330
D19F
102
}
330
D19F
100
AcDbXrecord
 10
0.0
 20
0.0
 30
0.0
  0
XRECORD
  5
D1BD
102
{ACAD_REACTORS
330
D19F
102
}
330
D19F
100
AcDbXrecord
 10
0.0
 20
0.0
 30
0.0
  0
XRECORD
  5
D1BE
102
{ACAD_REACTORS
330
D19F
102
}
330
D19F
100
AcDbXrecord
 10
0.0
 20
0.0
 30
0.0
  0
XRECORD
  5
D1BF
102
{ACAD_REACTORS
330
D19F
102
}
330
D19F
100
AcDbXrecord
 10
0.0
 20
0.0
 30
0.0
  0
LAYER_INDEX
  5
D195
102
{ACAD_REACTORS
330
D194
102
}
330
D194
100
AcDbIndex
 40
2453152.412275046
100
AcDbLayerIndex
  8
0
360
D196
 90
        0
  8
AM_0
360
D197
 90
      595
  8
AM_5
360
D198
 90
        6
  8
AM_7
360
D199
 90
        1
  8
AM_6
360
D19A
 90
        1
  8
Defpoints
360
D19B
 90
        0
  8
AM_11
360
D19C
 90
        4
  8
AM_4
360
D19D
 90
        2
  0
XRECORD
  5
2D
102
{ACAD_REACTORS
330
2C
102
}
330
2C
100
AcDbXrecord
  1
VERSION
140
15.0
  1
PRODUCT
  2
AutoCAD Mechanical 2000
  0
IDBUFFER
  5
D196
330
0
100
AcDbIdBuffer
  0
IDBUFFER
  5
D197
330
0
100
AcDbIdBuffer
330
C811
330
C812
330
C813
330
C814
330
C815
330
C816
330
C817
330
C818
330
C819
330
C81A
330
C81B
330
C81C
330
C81D
330
C81E
330
C81F
330
C820
330
C821
330
C822
330
C823
330
C824
330
C825
330
C826
330
C827
330
C828
330
C829
330
C82A
330
C82B
330
C82C
330
C82D
330
C82E
330
C82F
330
C830
330
C831
330
C832
330
C833
330
C834
330
C835
330
C836
330
C837
330
C838
330
C839
330
C83A
330
C83B
330
C83C
330
C83D
330
C83E
330
C83F
330
C840
330
C841
330
C842
330
C843
330
C844
330
C845
330
C846
330
C847
330
C848
330
C849
330
C84A
330
C84B
330
C84C
330
C84D
330
C84E
330
C84F
330
C850
330
C851
330
C852
330
C853
330
C854
330
C855
330
C856
330
C857
330
C858
330
C859
330
C85A
330
C85B
330
C85C
330
C85D
330
C85E
330
C85F
330
C860
330
C8FB
330
C8FC
330
C8FD
330
C8FE
330
C8FF
330
C900
330
C901
330
C902
330
C903
330
C904
330
C905
330
C9EC
330
C9ED
330
C9EE
330
C9EF
330
C9F0
330
C9F1
330
C9F2
330
C9F3
330
C60D
330
C60E
330
C60F
330
C610
330
C611
330
C612
330
C613
330
C614
330
C615
330
C616
330
C617
330
C618
330
C619
330
C61A
330
C622
330
C623
330
C624
330
C625
330
C626
330
C627
330
C628
330
C629
330
C62A
330
C62B
330
C62C
330
C62D
330
C62E
330
C62F
330
C632
330
C633
330
C634
330
C635
330
C636
330
C637
330
C638
330
C639
330
C63A
330
C63B
330
C63C
330
C63D
330
C63E
330
C63F
330
C640
330
C641
330
C642
330
C643
330
C644
330
C645
330
C646
330
C647
330
C648
330
C649
330
C64A
330
C64B
330
C64C
330
C64D
330
C64E
330
C64F
330
C650
330
C651
330
C652
330
C653
330
C654
330
C655
330
C656
330
C657
330
C658
330
C659
330
C65A
330
C65B
330
C65C
330
C65D
330
C65E
330
C65F
330
C660
330
C661
330
C662
330
C663
330
C664
330
C665
330
C666
330
C667
330
C66A
330
C66B
330
C66C
330
C66D
330
C66E
330
C66F
330
C670
330
C671
330
C672
330
C673
330
C674
330
C675
330
C676
330
C677
330
C678
330
C67A
330
C67B
330
C67C
330
C67D
330
C67E
330
C67F
330
C680
330
C682
330
C683
330
C684
330
C685
330
C686
330
C687
330
C688
330
C689
330
C68A
330
C68B
330
C68C
330
C68D
330
C68E
330
C68F
330
C690
330
C691
330
C692
330
C693
330
C694
330
C695
330
C696
330
C697
330
C698
330
C699
330
C69A
330
C69B
330
C69C
330
C69D
330
C69E
330
C69F
330
C6A0
330
C6A1
330
C6A2
330
C6A3
330
C6A4
330
C6A5
330
C6A6
330
C6A7
330
C6A8
330
C6A9
330
C6AA
330
C6AB
330
C6AC
330
C6AD
330
C6AE
330
C6AF
330
C6B0
330
C6B1
330
C6B2
330
C6B3
330
C6B4
330
C6B5
330
C6B6
330
C6B7
330
C6B8
330
C6B9
330
C6BA
330
C6BB
330
C6BC
330
C6BD
330
C6BE
330
C6BF
330
C6C0
330
C6C1
330
C6C2
330
C6C3
330
C6C4
330
C6C5
330
C6C6
330
C6C7
330
C6C8
330
C6C9
330
C6CA
330
C6CB
330
C6CC
330
C6CD
330
C6CE
330
C6CF
330
C6D0
330
C6D1
330
C6D2
330
C6D3
330
C6D4
330
C6D5
330
C6D6
330
C6D7
330
C6D8
330
C6D9
330
C6DA
330
C6DB
330
C6DC
330
C6DD
330
C6DE
330
C6DF
330
C6E0
330
C6E1
330
C6E2
330
C6E3
330
C6E4
330
C6E5
330
C6E6
330
C6E7
330
C6E8
330
C6E9
330
C6EA
330
C6EB
330
C6EC
330
C6ED
330
C6EE
330
C6EF
330
C6F0
330
C6F1
330
C6F2
330
C6F3
330
C6F4
330
C6F5
330
C6F6
330
C6F7
330
C6F8
330
C6F9
330
C6FA
330
C6FB
330
C6FC
330
C6FD
330
C6FE
330
C6FF
330
C700
330
C701
330
C702
330
C703
330
C704
330
C705
330
C706
330
C707
330
C708
330
C709
330
C70A
330
C70B
330
C70C
330
C70D
330
C70E
330
C70F
330
C710
330
C711
330
C712
330
C713
330
C714
330
C715
330
C716
330
C717
330
C718
330
C719
330
C71A
330
C71B
330
C71C
330
C71D
330
C71E
330
C71F
330
C720
330
C721
330
C722
330
C723
330
C724
330
C725
330
C726
330
C727
330
C728
330
C729
330
C72A
330
C72B
330
C72C
330
C72D
330
C72E
330
C72F
330
C730
330
C731
330
C732
330
C733
330
C734
330
C735
330
C736
330
C737
330
C738
330
C739
330
C73A
330
C73B
330
C73C
330
C73D
330
C73E
330
C73F
330
C740
330
C741
330
C742
330
C743
330
C744
330
C745
330
C746
330
C747
330
C748
330
C749
330
C74A
330
C74B
330
C74C
330
C74D
330
C74E
330
C74F
330
C750
330
C751
330
C752
330
C753
330
C754
330
C755
330
C756
330
C757
330
C758
330
C759
330
C75A
330
C75B
330
C75C
330
C75D
330
C75E
330
C75F
330
C760
330
C761
330
C762
330
C763
330
C764
330
C765
330
C766
330
C767
330
C768
330
C769
330
C76A
330
C76B
330
C76C
330
C76D
330
C76E
330
C76F
330
C770
330
C771
330
C772
330
C773
330
C774
330
C775
330
C776
330
C777
330
C778
330
C779
330
C77A
330
C77B
330
C77C
330
C77D
330
C77E
330
C77F
330
C780
330
C781
330
C782
330
C783
330
C784
330
C785
330
C786
330
C787
330
C788
330
C789
330
C78A
330
C78B
330
C78C
330
C78D
330
C78E
330
C78F
330
C790
330
C791
330
C792
330
C793
330
C794
330
C795
330
C796
330
C797
330
C798
330
C799
330
C79A
330
C79B
330
C79C
330
C79D
330
C79E
330
C79F
330
C7A0
330
C7A1
330
C7A2
330
C7A3
330
C7A4
330
C7A5
330
C7A7
330
C7AA
330
C7AB
330
C7AC
330
C7AD
330
C7AE
330
C7B1
330
C7B2
330
C7B3
330
C7B4
330
C7B5
330
C7B6
330
C7B7
330
C7B9
330
C7BA
330
C7BB
330
C7BC
330
C7BD
330
C7BE
330
C7BF
330
C7C0
330
C7C1
330
C7C2
330
C7C3
330
C7C4
330
C7C5
330
C7C6
330
C7C7
330
C7C8
330
C7C9
330
C7CA
330
C7CB
330
C7CC
330
C7CD
330
C7CE
330
C7CF
330
C7D0
330
C7D1
330
C7D2
330
C7D3
330
C7D4
330
C7D5
330
C7D6
330
C7D7
330
C7D8
330
C7D9
330
C7DA
330
C7DB
330
C7DC
330
C7DD
330
C7DF
330
C7E0
330
C7E1
330
C7E2
330
C7E3
330
C7E4
330
C7E5
330
C7E6
330
C7E7
330
C7E8
330
C7E9
330
C7EA
330
C7EB
330
C7EC
330
C7ED
330
C7EE
330
C7EF
330
C7F0
330
C7F1
330
C7F2
330
C7F3
330
C7F4
330
C7F5
330
C7F6
330
C7F7
330
C7F8
330
C7F9
330
C7FA
330
C7FB
330
C7FC
330
C7FD
330
C7FE
330
C7FF
330
C800
330
C801
330
C802
330
C803
330
C804
330
C805
330
C806
330
C807
330
C808
330
C809
330
C80A
330
C80B
330
C80C
330
C80D
330
C80E
330
C80F
330
C810
  0
IDBUFFER
  5
D198
330
0
100
AcDbIdBuffer
330
CB43
330
CBD8
330
CC64
330
CCF0
330
CDA0
330
CE3E
  0
IDBUFFER
  5
D199
330
0
100
AcDbIdBuffer
330
C61B
  0
IDBUFFER
  5
D19A
330
0
100
AcDbIdBuffer
330
388D
  0
IDBUFFER
  5
D19B
330
0
100
AcDbIdBuffer
  0
IDBUFFER
  5
D19C
330
0
100
AcDbIdBuffer
330
C620
330
C631
330
C681
330
C7B8
  0
IDBUFFER
  5
D19D
330
0
100
AcDbIdBuffer
330
C7A8
330
C7A9
  0
ENDSEC
  0
EOF
