  0
SECTION
  2
HEADER
  9
$ACADVER
  1
AC1014
  9
$ACADMAINTVER
 70
     9
  9
$DWGCODEPAGE
  3
ANSI_932
  9
$INSBASE
 10
0.0
 20
0.0
 30
0.0
  9
$EXTMIN
 10
-134.0608592845302
 20
-56.50001625878894
 30
-0.00000001
  9
$EXTMAX
 10
20.11789803369102
 20
29.30003433227609
 30
0.00000001
  9
$LIMMIN
 10
-142.0954276239338
 20
-74.94881026437719
  9
$LIMMAX
 10
35.32004450392185
 20
30.18102806615218
  9
$ORTHOMODE
 70
     0
  9
$REGENMODE
 70
     1
  9
$FILLMODE
 70
     1
  9
$QTEXTMODE
 70
     0
  9
$MIRRTEXT
 70
     0
  9
$DRAGMODE
 70
     2
  9
$LTSCALE
 40
1.0
  9
$OSMODE
 70
    55
  9
$ATTMODE
 70
     1
  9
$TEXTSIZE
 40
2.5
  9
$TRACEWID
 40
1.0
  9
$TEXTSTYLE
  7
STANDARD
  9
$CLAYER
  8
AM_0
  9
$CELTYPE
  6
BYLAYER
  9
$CECOLOR
 62
   256
  9
$CELTSCALE
 40
1.0
  9
$DELOBJ
 70
     1
  9
$DISPSILH
 70
     0
  9
$DIMSCALE
 40
1.0
  9
$DIMASZ
 40
2.5
  9
$DIMEXO
 40
1.0
  9
$DIMDLI
 40
12.0
  9
$DIMRND
 40
0.0
  9
$DIMDLE
 40
0.0
  9
$DIMEXE
 40
1.0
  9
$DIMTP
 40
0.1
  9
$DIMTM
 40
0.1
  9
$DIMTXT
 40
3.2
  9
$DIMCEN
 40
0.0
  9
$DIMTSZ
 40
0.0
  9
$DIMTOL
 70
     0
  9
$DIMLIM
 70
     0
  9
$DIMTIH
 70
     0
  9
$DIMTOH
 70
     0
  9
$DIMSE1
 70
     0
  9
$DIMSE2
 70
     0
  9
$DIMTAD
 70
     3
  9
$DIMZIN
 70
     8
  9
$DIMBLK
  1
OPEN30
  9
$DIMASO
 70
     1
  9
$DIMSHO
 70
     1
  9
$DIMPOST
  1

  9
$DIMAPOST
  1
"
  9
$DIMALT
 70
     0
  9
$DIMALTD
 70
     2
  9
$DIMALTF
 40
0.0393701
  9
$DIMLFAC
 40
1.0
  9
$DIMTOFL
 70
     1
  9
$DIMTVP
 40
0.0
  9
$DIMTIX
 70
     0
  9
$DIMSOXD
 70
     0
  9
$DIMSAH
 70
     0
  9
$DIMBLK1
  1

  9
$DIMBLK2
  1

  9
$DIMSTYLE
  2
AM_JIS
  9
$DIMCLRD
 70
   256
  9
$DIMCLRE
 70
   256
  9
$DIMCLRT
 70
     2
  9
$DIMTFAC
 40
0.71
  9
$DIMGAP
 40
1.5
  9
$DIMJUST
 70
     0
  9
$DIMSD1
 70
     0
  9
$DIMSD2
 70
     0
  9
$DIMTOLJ
 70
     0
  9
$DIMTZIN
 70
     0
  9
$DIMALTZ
 70
     0
  9
$DIMALTTZ
 70
     0
  9
$DIMFIT
 70
     3
  9
$DIMUPT
 70
     0
  9
$DIMUNIT
 70
     2
  9
$DIMDEC
 70
     3
  9
$DIMTDEC
 70
     3
  9
$DIMALTU
 70
     2
  9
$DIMALTTD
 70
     2
  9
$DIMTXSTY
  7
ASAMI
  9
$DIMAUNIT
 70
     0
  9
$LUNITS
 70
     2
  9
$LUPREC
 70
     0
  9
$SKETCHINC
 40
1.0
  9
$FILLETRAD
 40
2.5
  9
$AUNITS
 70
     0
  9
$AUPREC
 70
     0
  9
$MENU
  1
.
  9
$ELEVATION
 40
0.0
  9
$PELEVATION
 40
0.0
  9
$THICKNESS
 40
0.0
  9
$LIMCHECK
 70
     0
  9
$BLIPMODE
 70
     0
  9
$CHAMFERA
 40
2.5
  9
$CHAMFERB
 40
2.5
  9
$CHAMFERC
 40
20.0
  9
$CHAMFERD
 40
0.0
  9
$SKPOLY
 70
     0
  9
$TDCREATE
 40
2452839.420061482
  9
$TDUPDATE
 40
2453152.403555208
  9
$TDINDWG
 40
0.0493735301
  9
$TDUSRTIMER
 40
0.0493735301
  9
$USRTIMER
 70
     1
  9
$ANGBASE
 50
0.0
  9
$ANGDIR
 70
     0
  9
$PDMODE
 70
     0
  9
$PDSIZE
 40
0.0
  9
$PLINEWID
 40
0.0
  9
$COORDS
 70
     1
  9
$SPLFRAME
 70
     0
  9
$SPLINETYPE
 70
     6
  9
$SPLINESEGS
 70
     8
  9
$ATTDIA
 70
     1
  9
$ATTREQ
 70
     1
  9
$HANDLING
 70
 12289
  9
$HANDSEED
  5
22F5
  9
$SURFTAB1
 70
     6
  9
$SURFTAB2
 70
     6
  9
$SURFTYPE
 70
     6
  9
$SURFU
 70
     6
  9
$SURFV
 70
     6
  9
$UCSNAME
  2

  9
$UCSORG
 10
0.0
 20
0.0
 30
0.0
  9
$UCSXDIR
 10
1.0
 20
0.0
 30
0.0
  9
$UCSYDIR
 10
0.0
 20
1.0
 30
0.0
  9
$PUCSNAME
  2

  9
$PUCSORG
 10
0.0
 20
0.0
 30
0.0
  9
$PUCSXDIR
 10
1.0
 20
0.0
 30
0.0
  9
$PUCSYDIR
 10
0.0
 20
1.0
 30
0.0
  9
$USERI1
 70
     0
  9
$USERI2
 70
     0
  9
$USERI3
 70
     0
  9
$USERI4
 70
     0
  9
$USERI5
 70
     0
  9
$USERR1
 40
0.0
  9
$USERR2
 40
0.0
  9
$USERR3
 40
0.0
  9
$USERR4
 40
0.0
  9
$USERR5
 40
0.0
  9
$WORLDVIEW
 70
     1
  9
$SHADEDGE
 70
     3
  9
$SHADEDIF
 70
    70
  9
$TILEMODE
 70
     1
  9
$MAXACTVP
 70
    64
  9
$PINSBASE
 10
0.0
 20
0.0
 30
0.0
  9
$PLIMCHECK
 70
     0
  9
$PEXTMIN
 10
1.000000000000000E+20
 20
1.000000000000000E+20
 30
1.000000000000000E+20
  9
$PEXTMAX
 10
-1.000000000000000E+20
 20
-1.000000000000000E+20
 30
-1.000000000000000E+20
  9
$PLIMMIN
 10
0.0
 20
0.0
  9
$PLIMMAX
 10
841.0
 20
594.0
  9
$UNITMODE
 70
     0
  9
$VISRETAIN
 70
     1
  9
$PLINEGEN
 70
     0
  9
$PSLTSCALE
 70
     0
  9
$TREEDEPTH
 70
  3020
  9
$PICKSTYLE
 70
     0
  9
$CMLSTYLE
  2
STANDARD
  9
$CMLJUST
 70
     0
  9
$CMLSCALE
 40
20.0
  9
$PROXYGRAPHICS
 70
     1
  9
$MEASUREMENT
 70
     1
  0
ENDSEC
  0
SECTION
  2
CLASSES
  0
CLASS
  1
ACDBDICTIONARYWDFLT
  2
AcDbDictionaryWithDefault
  3
AutoCAD 2000
 90
        0
280
     0
281
     0
  0
CLASS
  1
ACDBPLACEHOLDER
  2
AcDbPlaceHolder
  3
AutoCAD 2000
 90
        0
280
     0
281
     0
  0
CLASS
  1
LAYOUT
  2
AcDbLayout
  3
AutoCAD 2000
 90
        0
280
     0
281
     0
  0
CLASS
  1
AMGSETTINGSOBJ
  2
AmgSettingsObj
  3
"AcadM|Product Description: AutoCAD Mechanical 2000|Company: Autodesk"
 90
        0
280
     0
281
     0
  0
CLASS
  1
ACME_DOCUMENT
  2
AcMeDbDoc
  3
AcMeServices
 90
        0
280
     0
281
     0
  0
CLASS
  1
ACMESCOPE
  2
AcMeScope
  3
AcMeServices
 90
        0
280
     0
281
     0
  0
CLASS
  1
ACMECOMMANDHISTORY
  2
AcMeCommandHistory
  3
AcMeServices
 90
        0
280
     0
281
     0
  0
CLASS
  1
DICTIONARYVAR
  2
AcDbDictionaryVar
  3
AutoCAD 2000
 90
        0
280
     0
281
     0
  0
CLASS
  1
ACIMSYSVARMAN
  2
AcImSysVarManager
  3
AcMeServices
 90
        0
280
     0
281
     0
  0
CLASS
  1
ACIMREALSYSVAR
  2
AcImRealSysVar
  3
AcMeServices
 90
        0
280
     0
281
     0
  0
CLASS
  1
ACIMINTSYSVAR
  2
AcImIntSysVar
  3
AcMeServices
 90
        0
280
     0
281
     0
  0
CLASS
  1
ACMEDRAWINGMAN
  2
AcMeDrawingMan
  3
AcMeServices
 90
        0
280
     0
281
     0
  0
CLASS
  1
ACMEVIEW
  2
AcMeView
  3
AcMeServices
 90
        0
280
     0
281
     0
  0
CLASS
  1
ACDBENTITYCACHE
  2
AcMeEntityCache
  3
AcMeServices
 90
        0
280
     0
281
     0
  0
CLASS
  1
GSMANAGER
  2
AcMeGSManager
  3
AcMeServices
 90
        0
280
     0
281
     0
  0
CLASS
  1
AmdtInternalReactor
  2
AmdtInternalReactor
  3
AcMeServices
 90
        0
280
     0
281
     0
  0
CLASS
  1
ACMESTATEMGR
  2
AcMeStateMgr
  3
AcMeServices
 90
        0
280
     0
281
     0
  0
CLASS
  1
ACME_DATABASE
  2
AcMeDbDatabase
  3
AcMeServices
 90
        0
280
     0
281
     0
  0
CLASS
  1
ACRFINSADJUSTERMGR
  2
AcRfInsAdjusterMgr
  3
AcMeServices
 90
        0
280
     0
281
     0
  0
CLASS
  1
ACMDATADICTIONARY
  2
AcmDataDictionary
  3
"AcmSymBB|Product Description: AutoCAD Mechanical 2000|Company: Autodesk"
 90
        0
280
     0
281
     0
  0
CLASS
  1
ACMDATAENTRYBLOCK
  2
AcmDataEntryBlock
  3
"AcmSymBB|Product Description: AutoCAD Mechanical 2000|Company: Autodesk"
 90
        0
280
     0
281
     0
  0
CLASS
  1
AMGOBJPROPCFG
  2
AmgObjPropCfg
  3
"AmgLay|Product Description: AutoCAD Mechanical 2000|Company: Autodesk"
 90
        1
280
     0
281
     0
  0
CLASS
  1
ACAMGFILTERDAT
  2
AcAmgFilterDat
  3
"AcadM|Product Description: AutoCAD Mechanical 2000|Company: Autodesk"
 90
        0
280
     0
281
     0
  0
CLASS
  1
LAYER_INDEX
  2
AcDbLayerIndex
  3
AutoCAD 2000
 90
        0
280
     0
281
     0
  0
CLASS
  1
IDBUFFER
  2
AcDbIdBuffer
  3
AutoCAD 2000
 90
        0
280
     0
281
     0
  0
CLASS
  1
ACIMSTRSYSVAR
  2
AcImStrSysVar
  3
AcMeServices
 90
        0
280
     0
281
     0
  0
CLASS
  1
ACMSTANDARDJIS
  2
AcmStandardJIS
  3
"AcmSymBB|Product Description: AutoCAD Mechanical 2000|Company: Autodesk"
 90
        0
280
     0
281
     0
  0
CLASS
  1
ACMSURFSTANDARDJIS
  2
AcmSurfTextStdJIS
  3
"AcmSymBB|Product Description: AutoCAD Mechanical 2000|Company: Autodesk"
 90
        0
280
     0
281
     0
  0
CLASS
  1
ACMFCFSTANDARDJIS
  2
AcmFCFStdJIS
  3
"AcmSymBB|Product Description: AutoCAD Mechanical 2000|Company: Autodesk"
 90
        0
280
     0
281
     0
  0
CLASS
  1
ACMWELDSTANDARDJIS
  2
AcmWeldingStdJIS
  3
"AcmSymBB|Product Description: AutoCAD Mechanical 2000|Company: Autodesk"
 90
        0
280
     0
281
     0
  0
CLASS
  1
ACMIDSTANDARDJIS
  2
AcmIdStdJIS
  3
"AcmSymBB|Product Description: AutoCAD Mechanical 2000|Company: Autodesk"
 90
        0
280
     0
281
     0
  0
CLASS
  1
ACMDATUMSTANDARDJIS
  2
AcmDatumStdJIS
  3
"AcmSymBB|Product Description: AutoCAD Mechanical 2000|Company: Autodesk"
 90
        0
280
     0
281
     0
  0
CLASS
  1
ACMBOMSTANDARDJIS
  2
AcmBOMStdJIS
  3
"AcmSymBB|Product Description: AutoCAD Mechanical 2000|Company: Autodesk"
 90
        0
280
     0
281
     0
  0
CLASS
  1
ACMSTANDARDANSI
  2
AcmStandardANSI
  3
"AcmSymBB|Product Description: AutoCAD Mechanical 2000|Company: Autodesk"
 90
        0
280
     0
281
     0
  0
CLASS
  1
ACMSURFSTANDARDANSI
  2
AcmSurfTextStdANSI
  3
"AcmSymBB|Product Description: AutoCAD Mechanical 2000|Company: Autodesk"
 90
        0
280
     0
281
     0
  0
CLASS
  1
ACMFCFSTANDARDANSI
  2
AcmFCFStdANSI
  3
"AcmSymBB|Product Description: AutoCAD Mechanical 2000|Company: Autodesk"
 90
        0
280
     0
281
     0
  0
CLASS
  1
ACMWELDSTANDARDANSI
  2
AcmWeldingStdANSI
  3
"AcmSymBB|Product Description: AutoCAD Mechanical 2000|Company: Autodesk"
 90
        0
280
     0
281
     0
  0
CLASS
  1
ACMIDSTANDARDANSI
  2
AcmIdStdANSI
  3
"AcmSymBB|Product Description: AutoCAD Mechanical 2000|Company: Autodesk"
 90
        0
280
     0
281
     0
  0
CLASS
  1
ACMDATUMSTANDARDANSI
  2
AcmDatumStdANSI
  3
"AcmSymBB|Product Description: AutoCAD Mechanical 2000|Company: Autodesk"
 90
        0
280
     0
281
     0
  0
CLASS
  1
ACMBOMSTANDARDANSI
  2
AcmBOMStdANSI
  3
"AcmSymBB|Product Description: AutoCAD Mechanical 2000|Company: Autodesk"
 90
        0
280
     0
281
     0
  0
CLASS
  1
ACMSTANDARDBSI
  2
AcmStandardBSI
  3
"AcmSymBB|Product Description: AutoCAD Mechanical 2000|Company: Autodesk"
 90
        0
280
     0
281
     0
  0
CLASS
  1
ACMSURFSTANDARDBSI
  2
AcmSurfTextStdBSI
  3
"AcmSymBB|Product Description: AutoCAD Mechanical 2000|Company: Autodesk"
 90
        0
280
     0
281
     0
  0
CLASS
  1
ACMFCFSTANDARDBSI
  2
AcmFCFStdBSI
  3
"AcmSymBB|Product Description: AutoCAD Mechanical 2000|Company: Autodesk"
 90
        0
280
     0
281
     0
  0
CLASS
  1
ACMWELDSTANDARDBSI
  2
AcmWeldingStdBSI
  3
"AcmSymBB|Product Description: AutoCAD Mechanical 2000|Company: Autodesk"
 90
        0
280
     0
281
     0
  0
CLASS
  1
ACMIDSTANDARDBSI
  2
AcmIdStdBSI
  3
"AcmSymBB|Product Description: AutoCAD Mechanical 2000|Company: Autodesk"
 90
        0
280
     0
281
     0
  0
CLASS
  1
ACMDATUMSTANDARDBSI
  2
AcmDatumStdBSI
  3
"AcmSymBB|Product Description: AutoCAD Mechanical 2000|Company: Autodesk"
 90
        0
280
     0
281
     0
  0
CLASS
  1
ACMBOMSTANDARDBSI
  2
AcmBOMStdBSI
  3
"AcmSymBB|Product Description: AutoCAD Mechanical 2000|Company: Autodesk"
 90
        0
280
     0
281
     0
  0
CLASS
  1
LONG_TRANSACTION
  2
AcDbLongTransaction
  3
AutoCAD 2000
 90
        0
280
     0
281
     0
  0
CLASS
  1
LWPOLYLINE
  2
AcDbPolyline
  3
AutoCAD 2000
 90
        0
280
     0
281
     1
  0
CLASS
  1
HATCH
  2
AcDbHatch
  3
AutoCAD 2000
 90
        0
280
     0
281
     1
  0
CLASS
  1
XRECORD
  2
AcDbXrecord
  3
AutoCAD 2000
 90
        0
280
     0
281
     0
  0
ENDSEC
  0
SECTION
  2
TABLES
  0
TABLE
  2
VPORT
  5
8
330
0
100
AcDbSymbolTable
 70
     3
  0
VPORT
  5
22CA
330
8
100
AcDbSymbolTableRecord
100
AcDbViewportTableRecord
  2
*ACTIVE
 70
     0
 10
0.0
 20
0.0
 11
1.0
 21
1.0
 12
-30.29986904598183
 22
-1.487260300979983
 13
0.0
 23
0.0
 14
2.5
 24
2.5
 15
10.0
 25
10.0
 16
0.0
 26
0.0
 36
1.0
 17
0.0
 27
0.0
 37
0.0
 40
208.5488020031026
 41
1.56570841889117
 42
50.0
 43
0.0
 44
0.0
 50
0.0
 51
0.0
 71
     0
 72
   100
 73
     1
 74
     3
 75
     0
 76
     0
 77
     0
 78
     0
  0
ENDTAB
  0
TABLE
  2
LTYPE
  5
5
330
0
100
AcDbSymbolTable
 70
    10
  0
LTYPE
  5
14
330
5
100
AcDbSymbolTableRecord
100
AcDbLinetypeTableRecord
  2
BYBLOCK
 70
     0
  3

 72
    65
 73
     0
 40
0.0
  0
LTYPE
  5
15
330
5
100
AcDbSymbolTableRecord
100
AcDbLinetypeTableRecord
  2
BYLAYER
 70
     0
  3

 72
    65
 73
     0
 40
0.0
  0
LTYPE
  5
16
330
5
100
AcDbSymbolTableRecord
100
AcDbLinetypeTableRecord
  2
CONTINUOUS
 70
     0
  3
Solid line
 72
    65
 73
     0
 40
0.0
  0
LTYPE
  5
4B
330
5
100
AcDbSymbolTableRecord
100
AcDbLinetypeTableRecord
  2
AM_ISO02W050
 70
     0
  3
__ __ __ __ __ __ __ __ __ __ __ __ __ __ __
 72
    65
 73
     2
 40
7.5
 49
6.0
 74
     0
 49
-1.5
 74
     0
  0
LTYPE
  5
4C
330
5
100
AcDbSymbolTableRecord
100
AcDbLinetypeTableRecord
  2
AM_ISO08W050
 70
     0
  3
____ . ____ . ____ . ____ . ____ . ____ . ____
 72
    65
 73
     4
 40
18.0
 49
12.0
 74
     0
 49
-1.5
 74
     0
 49
3.0
 74
     0
 49
-1.5
 74
     0
  0
LTYPE
  5
4D
330
5
100
AcDbSymbolTableRecord
100
AcDbLinetypeTableRecord
  2
AM_ISO09W050
 70
     0
  3
_____ . . _____ . . _____ . . ____ .. ____
 72
    65
 73
     6
 40
22.5
 49
12.0
 74
     0
 49
-1.5
 74
     0
 49
3.0
 74
     0
 49
-1.5
 74
     0
 49
3.0
 74
     0
 49
-1.5
 74
     0
  0
LTYPE
  5
4E
330
5
100
AcDbSymbolTableRecord
100
AcDbLinetypeTableRecord
  2
AMCONSTR
 70
     0
  3
_______________________
 72
    65
 73
     2
 40
9999.0
 49
9999.0
 74
     0
 49
0.0
 74
     0
  0
LTYPE
  5
4F
330
5
100
AcDbSymbolTableRecord
100
AcDbLinetypeTableRecord
  2
AM_ISO02W050X2
 70
     0
  3
 _ _ _ _ _ _ _ _ _ _ _ _
 72
    65
 73
     2
 40
3.75
 49
3.0
 74
     0
 49
-0.75
 74
     0
  0
LTYPE
  5
50
330
5
100
AcDbSymbolTableRecord
100
AcDbLinetypeTableRecord
  2
AM_ISO08W050X2
 70
     0
  3
__ . __ . __ . __ . __ . __
 72
    65
 73
     4
 40
9.0
 49
6.0
 74
     0
 49
-0.75
 74
     0
 49
1.5
 74
     0
 49
-0.75
 74
     0
  0
LTYPE
  5
53
330
5
100
AcDbSymbolTableRecord
100
AcDbLinetypeTableRecord
  2
AMZIGZAG
 70
     0
  3
/\/-/\/-/\/-/\/-/\/-/\/
 72
    65
 73
     2
 40
11.00009999999999
 49
0.0001
 74
     4
 75
   135
340
52
 46
0.04
 50
0.0
 44
0.0
 45
0.0
 49
-11.0
 74
     0
  0
LTYPE
  5
166
330
5
100
AcDbSymbolTableRecord
100
AcDbLinetypeTableRecord
  2
ACJISTGL
 70
     0
  3
_ _ _ _ _
 72
    65
 73
     2
 40
3.0
 49
2.0
 74
     0
 49
-1.0
 74
     0
  0
LTYPE
  5
26A
330
5
100
AcDbSymbolTableRecord
100
AcDbLinetypeTableRecord
  2
ACJISTGB
 70
     0
  3
__ . . __ . .
 72
    65
 73
     6
 40
9.0
 49
4.0
 74
     0
 49
-1.0
 74
     0
 49
1.0
 74
     0
 49
-1.0
 74
     0
 49
1.0
 74
     0
 49
-1.0
 74
     0
  0
ENDTAB
  0
TABLE
  2
LAYER
  5
2
330
0
100
AcDbSymbolTable
 70
     9
  0
LAYER
  5
10
330
2
100
AcDbSymbolTableRecord
100
AcDbLayerTableRecord
  2
0
 70
     0
 62
     7
  6
CONTINUOUS
  0
LAYER
  5
3F9
330
2
100
AcDbSymbolTableRecord
100
AcDbLayerTableRecord
  2
AM_0
 70
     0
 62
     7
  6
CONTINUOUS
  0
LAYER
  5
CD5
330
2
100
AcDbSymbolTableRecord
100
AcDbLayerTableRecord
  2
AM_7
 70
     0
 62
     4
  6
AM_ISO08W050
  0
LAYER
  5
CDE
330
2
100
AcDbSymbolTableRecord
100
AcDbLayerTableRecord
  2
AM_11
 70
     0
 62
     3
  6
AM_ISO09W050
  0
LAYER
  5
CFB
330
2
100
AcDbSymbolTableRecord
100
AcDbLayerTableRecord
  2
AM_5
 70
     0
 62
     3
  6
CONTINUOUS
  0
LAYER
  5
CFD
330
2
100
AcDbSymbolTableRecord
100
AcDbLayerTableRecord
  2
DEFPOINTS
 70
     0
 62
     7
  6
CONTINUOUS
  0
LAYER
  5
113C
330
2
100
AcDbSymbolTableRecord
100
AcDbLayerTableRecord
  2
AM_6
 70
     0
 62
     2
  6
CONTINUOUS
  0
LAYER
  5
1F61
330
2
100
AcDbSymbolTableRecord
100
AcDbLayerTableRecord
  2
PV0001_1
 70
     0
 62
     7
  6
CONTINUOUS
  0
LAYER
  5
2073
330
2
100
AcDbSymbolTableRecord
100
AcDbLayerTableRecord
  2
AM_CL
 70
     0
 62
     1
  6
AMCONSTR
  0
ENDTAB
  0
TABLE
  2
STYLE
  5
3
330
0
100
AcDbSymbolTable
 70
     5
  0
STYLE
  5
11
330
3
100
AcDbSymbolTableRecord
100
AcDbTextStyleTableRecord
  2
STANDARD
 70
     0
 40
0.0
 41
1.0
 50
0.0
 71
     0
 42
2.5
  3
simplex.shx
  4
EXTFONT.SHX
  0
STYLE
  5
52
330
3
100
AcDbSymbolTableRecord
100
AcDbTextStyleTableRecord
  2

 70
     1
 40
0.0
 41
1.0
 50
0.0
 71
     0
 42
2.5
  3
ltypeshp.shx
  4

  0
STYLE
  5
6B
330
3
100
AcDbSymbolTableRecord
100
AcDbTextStyleTableRecord
  2
ASAMI
 70
     0
 40
0.0
 41
1.0
 50
0.0
 71
     0
 42
2.5
  3
simplex.shx
  4
EXTFONT.SHX
  0
STYLE
  5
262
330
3
100
AcDbSymbolTableRecord
100
AcDbTextStyleTableRecord
  2
ACJISTS
 70
     0
 40
1.0
 41
1.0
 50
0.0
 71
     0
 42
2.5
  3
simplex.shx
  4
bigfont.shx
  0
STYLE
  5
269
330
3
100
AcDbSymbolTableRecord
100
AcDbTextStyleTableRecord
  2
ACJISGDT
 70
     0
 40
0.0
 41
1.0
 50
0.0
 71
     0
 42
2.5
  3
amgdtans.shx
  4

  0
ENDTAB
  0
TABLE
  2
VIEW
  5
6
330
0
100
AcDbSymbolTable
 70
     0
  0
ENDTAB
  0
TABLE
  2
UCS
  5
7
330
0
100
AcDbSymbolTable
 70
     0
  0
ENDTAB
  0
TABLE
  2
APPID
  5
9
330
0
100
AcDbSymbolTable
 70
    13
  0
APPID
  5
12
330
9
100
AcDbSymbolTableRecord
100
AcDbRegAppTableRecord
  2
ACAD
 70
     0
  0
APPID
  5
30
330
9
100
AcDbSymbolTableRecord
100
AcDbRegAppTableRecord
  2
MCAD_NO_VIS
 70
     0
  0
APPID
  5
31
330
9
100
AcDbSymbolTableRecord
100
AcDbRegAppTableRecord
  2
ACAD_TEMP_GRAPHIC
 70
     0
  0
APPID
  5
2C2
330
9
100
AcDbSymbolTableRecord
100
AcDbRegAppTableRecord
  2
GENIUS_GENDTOL_13
 70
     0
  0
APPID
  5
339
330
9
100
AcDbSymbolTableRecord
100
AcDbRegAppTableRecord
  2
GENIUS_GENODEF_13
 70
     0
  0
APPID
  5
33A
330
9
100
AcDbSymbolTableRecord
100
AcDbRegAppTableRecord
  2
GENIUS_GENOBJ-N-RSBK_13
 70
     0
  0
APPID
  5
33B
330
9
100
AcDbSymbolTableRecord
100
AcDbRegAppTableRecord
  2
GENIUS_GENOBJ-N-LIB_13
 70
     0
  0
APPID
  5
33C
330
9
100
AcDbSymbolTableRecord
100
AcDbRegAppTableRecord
  2
GENIUS_GENSCALE_13
 70
     0
  0
APPID
  5
378
330
9
100
AcDbSymbolTableRecord
100
AcDbRegAppTableRecord
  2
GENIUS_GENDIMSH_14
 70
     0
  0
APPID
  5
13A0
330
9
100
AcDbSymbolTableRecord
100
AcDbRegAppTableRecord
  2
GENIUS_GENOBJ-N-CEN_13
 70
     0
  0
APPID
  5
13D7
330
9
100
AcDbSymbolTableRecord
100
AcDbRegAppTableRecord
  2
GENIUS_GENREC_14
 70
     0
  0
APPID
  5
13D8
330
9
100
AcDbSymbolTableRecord
100
AcDbRegAppTableRecord
  2
GENIUS_GENOBJ-N-REC_13
 70
     0
  0
APPID
  5
2061
330
9
100
AcDbSymbolTableRecord
100
AcDbRegAppTableRecord
  2
DCO15
 70
     0
  0
ENDTAB
  0
TABLE
  2
DIMSTYLE
  5
A
330
0
100
AcDbSymbolTable
 70
     9
  0
DIMSTYLE
105
58
330
A
100
AcDbSymbolTableRecord
100
AcDbDimStyleTableRecord
  2
AM_JIS
 70
     0
  3

  4
"
  5
OPEN30
  6

  7

 40
1.0
 41
2.5
 42
1.0
 43
12.0
 44
1.0
 45
0.0
 46
0.0
 47
0.1
 48
0.1
140
3.2
141
0.0
142
0.0
143
0.0393701
144
1.0
145
0.0
146
0.71
147
1.5
 71
     0
 72
     0
 73
     0
 74
     0
 75
     0
 76
     0
 77
     3
 78
     8
170
     0
171
     2
172
     1
173
     0
174
     0
175
     0
176
   256
177
   256
178
     2
270
     2
271
     3
272
     3
273
     2
274
     2
340
6B
275
     0
280
     0
281
     0
282
     0
283
     0
284
     0
285
     0
286
     0
287
     3
288
     0
  0
DIMSTYLE
105
5F
330
A
100
AcDbSymbolTableRecord
100
AcDbDimStyleTableRecord
  2
AM_JIS$3
 70
     0
  3

  4
"
  5
OPEN30
  6

  7

 40
1.0
 41
2.5
 42
1.0
 43
10.0
 44
1.0
 45
0.0
 46
0.0
 47
0.1
 48
0.1
140
3.2
141
0.0
142
0.0
143
0.0393701
144
1.0
145
0.0
146
0.71
147
1.5
 71
     0
 72
     0
 73
     0
 74
     1
 75
     0
 76
     0
 77
     3
 78
     8
170
     0
171
     2
172
     0
173
     0
174
     0
175
     0
176
   256
177
   256
178
     2
270
     2
271
     2
272
     3
273
     2
274
     2
340
6B
275
     0
280
     0
281
     0
282
     0
283
     0
284
     0
285
     0
286
     0
287
     0
288
     1
  0
DIMSTYLE
105
60
330
A
100
AcDbSymbolTableRecord
100
AcDbDimStyleTableRecord
  2
AM_JIS$4
 70
     0
  3

  4
"
  5
OPEN30
  6

  7

 40
1.0
 41
2.5
 42
1.0
 43
10.0
 44
1.0
 45
0.0
 46
0.0
 47
0.1
 48
0.1
140
3.2
141
0.0
142
0.0
143
0.0393701
144
1.0
145
0.0
146
0.71
147
1.5
 71
     0
 72
     0
 73
     0
 74
     1
 75
     0
 76
     0
 77
     3
 78
     8
170
     0
171
     2
172
     0
173
     0
174
     0
175
     0
176
   256
177
   256
178
     2
270
     2
271
     2
272
     3
273
     2
274
     2
340
6B
275
     0
280
     0
281
     0
282
     0
283
     0
284
     0
285
     0
286
     0
287
     0
288
     1
  0
DIMSTYLE
105
61
330
A
100
AcDbSymbolTableRecord
100
AcDbDimStyleTableRecord
  2
AM_JIS$6
 70
     0
  3

  4
"
  5
OPEN30
  6

  7

 40
1.0
 41
2.5
 42
1.0
 43
10.0
 44
1.0
 45
0.0
 46
0.0
 47
0.1
 48
0.1
140
3.2
141
0.0
142
0.0
143
0.0393701
144
1.0
145
0.0
146
0.71
147
1.5
 71
     0
 72
     0
 73
     0
 74
     0
 75
     0
 76
     0
 77
     0
 78
     8
170
     0
171
     2
172
     1
173
     0
174
     0
175
     0
176
   256
177
   256
178
     2
270
     2
271
     2
272
     2
273
     2
274
     2
340
6B
275
     0
280
     0
281
     0
282
     0
283
     0
284
     0
285
     0
286
     0
287
     3
288
     0
  0
DIMSTYLE
105
62
330
A
100
AcDbSymbolTableRecord
100
AcDbDimStyleTableRecord
  2
AM_JIS$7
 70
     0
  3

  4
"
  5
OPEN30
  6

  7

 40
1.0
 41
2.5
 42
1.0
 43
10.0
 44
1.0
 45
0.0
 46
0.0
 47
0.1
 48
0.1
140
3.2
141
0.0
142
0.0
143
0.0393701
144
1.0
145
0.0
146
0.71
147
1.5
 71
     0
 72
     0
 73
     0
 74
     0
 75
     0
 76
     0
 77
     3
 78
     8
170
     0
171
     2
172
     1
173
     0
174
     0
175
     0
176
   256
177
   256
178
     2
270
     2
271
     2
272
     3
273
     2
274
     2
340
6B
275
     0
280
     0
281
     0
282
     0
283
     0
284
     0
285
     0
286
     0
287
     3
288
     0
  0
DIMSTYLE
105
63
330
A
100
AcDbSymbolTableRecord
100
AcDbDimStyleTableRecord
  2
AM_JIS$SF
 70
     0
  3

  4
"
  5
OPEN30
  6

  7

 40
1.0
 41
2.5
 42
1.0
 43
10.0
 44
1.0
 45
0.0
 46
0.0
 47
0.1
 48
0.1
140
3.2
141
0.0
142
0.0
143
0.0393701
144
1.0
145
0.0
146
0.71
147
1.5
 71
     0
 72
     0
 73
     0
 74
     0
 75
     1
 76
     1
 77
     3
 78
     8
170
     0
171
     2
172
     1
173
     0
174
     0
175
     0
176
   256
177
   256
178
     2
270
     2
271
     2
272
     2
273
     2
274
     2
340
6B
275
     0
280
     0
281
     0
282
     0
283
     0
284
     0
285
     0
286
     0
287
     3
288
     0
  0
DIMSTYLE
105
68
330
A
100
AcDbSymbolTableRecord
100
AcDbDimStyleTableRecord
  2
AM_JIS$SH
 70
     0
  3

  4
"
  5

  6
GENAXEH
  7
OPEN30
 40
1.0
 41
2.5
 42
1.0
 43
10.0
 44
1.0
 45
0.0
 46
0.0
 47
0.1
 48
0.1
140
3.2
141
0.0
142
0.0
143
0.0393701
144
2.0
145
0.0
146
0.71
147
1.5
 71
     0
 72
     0
 73
     0
 74
     0
 75
     1
 76
     1
 77
     3
 78
     8
170
     0
171
     2
172
     1
173
     1
174
     0
175
     0
176
   256
177
   256
178
     2
270
     2
271
     2
272
     2
273
     2
274
     2
340
6B
275
     0
280
     0
281
     0
282
     0
283
     0
284
     0
285
     0
286
     0
287
     3
288
     0
  0
DIMSTYLE
105
B34
330
A
100
AcDbSymbolTableRecord
100
AcDbDimStyleTableRecord
  2
AM_JIS$2
 70
     0
  3

  4
"
  5
OPEN30
  6

  7

 40
1.0
 41
2.5
 42
1.0
 43
12.0
 44
1.0
 45
0.0
 46
0.0
 47
0.1
 48
0.1
140
3.2
141
0.0
142
0.0
143
0.0393701
144
1.0
145
0.0
146
0.71
147
1.5
 71
     0
 72
     0
 73
     0
 74
     0
 75
     0
 76
     0
 77
     3
 78
     8
170
     0
171
     2
172
     1
173
     0
174
     0
175
     0
176
   256
177
   256
178
     2
270
     2
271
     3
272
     3
273
     2
274
     2
340
6B
275
     0
280
     0
281
     0
282
     0
283
     0
284
     0
285
     0
286
     0
287
     3
288
     0
  0
DIMSTYLE
105
BA5
102
{ACAD_REACTORS
330
155D
330
15E8
330
1673
330
1895
330
1E16
330
21A3
102
}
330
A
100
AcDbSymbolTableRecord
100
AcDbDimStyleTableRecord
  2
AM_JIS$0
 70
     0
  3

  4
"
  5
OPEN30
  6

  7

 40
1.0
 41
2.5
 42
0.0
 43
10.0
 44
1.0
 45
0.0
 46
0.0
 47
0.1
 48
0.1000000001
140
3.799999999999999
141
0.0
142
0.0
143
0.0393701
144
1.0
145
0.0
146
0.71
147
1.5
 71
     0
 72
     0
 73
     0
 74
     0
 75
     0
 76
     0
 77
     3
 78
     1
170
     0
171
     2
172
     1
173
     0
174
     0
175
     0
176
     3
177
     3
178
     2
270
     2
271
     2
272
     2
273
     2
274
     2
340
11
275
     1
280
     0
281
     0
282
     0
283
     0
284
     8
285
     0
286
     0
287
     0
288
     0
  0
ENDTAB
  0
TABLE
  2
BLOCK_RECORD
  5
1
330
0
100
AcDbSymbolTable
 70
    19
  0
BLOCK_RECORD
  5
1F
102
{ACAD_XDICTIONARY
360
74
102
}
330
1
100
AcDbSymbolTableRecord
100
AcDbBlockTableRecord
  2
*MODEL_SPACE
  0
BLOCK_RECORD
  5
101
102
{ACAD_XDICTIONARY
360
22F3
102
}
330
1
100
AcDbSymbolTableRecord
100
AcDbBlockTableRecord
  2
*PAPER_SPACE
  0
BLOCK_RECORD
  5
59
330
1
100
AcDbSymbolTableRecord
100
AcDbBlockTableRecord
  2
_OPEN30
  0
BLOCK_RECORD
  5
64
330
1
100
AcDbSymbolTableRecord
100
AcDbBlockTableRecord
  2
GENAXEH
  0
BLOCK_RECORD
  5
155E
330
1
100
AcDbSymbolTableRecord
100
AcDbBlockTableRecord
  2
*D5
  0
BLOCK_RECORD
  5
15E9
330
1
100
AcDbSymbolTableRecord
100
AcDbBlockTableRecord
  2
*D6
  0
BLOCK_RECORD
  5
1674
330
1
100
AcDbSymbolTableRecord
100
AcDbBlockTableRecord
  2
*D7
  0
BLOCK_RECORD
  5
1896
330
1
100
AcDbSymbolTableRecord
100
AcDbBlockTableRecord
  2
*D8
  0
BLOCK_RECORD
  5
1E17
330
1
100
AcDbSymbolTableRecord
100
AcDbBlockTableRecord
  2
*D9
  0
BLOCK_RECORD
  5
1F24
330
1
100
AcDbSymbolTableRecord
100
AcDbBlockTableRecord
  2
*D10
  0
BLOCK_RECORD
  5
1F30
330
1
100
AcDbSymbolTableRecord
100
AcDbBlockTableRecord
  2
*D11
  0
BLOCK_RECORD
  5
1F3B
330
1
100
AcDbSymbolTableRecord
100
AcDbBlockTableRecord
  2
*D12
  0
BLOCK_RECORD
  5
1F45
330
1
100
AcDbSymbolTableRecord
100
AcDbBlockTableRecord
  2
*D13
  0
BLOCK_RECORD
  5
1F53
330
1
100
AcDbSymbolTableRecord
100
AcDbBlockTableRecord
  2
*D14
  0
BLOCK_RECORD
  5
1F62
330
1
100
AcDbSymbolTableRecord
100
AcDbBlockTableRecord
  2
A$C010140A0
  0
BLOCK_RECORD
  5
1FE8
330
1
100
AcDbSymbolTableRecord
100
AcDbBlockTableRecord
  2
A$C3E9B46D7
  0
BLOCK_RECORD
  5
2084
330
1
100
AcDbSymbolTableRecord
100
AcDbBlockTableRecord
  2
A$C3D8C2960
  0
BLOCK_RECORD
  5
21A4
330
1
100
AcDbSymbolTableRecord
100
AcDbBlockTableRecord
  2
*D18
  0
ENDTAB
  0
ENDSEC
  0
SECTION
  2
BLOCKS
  0
BLOCK
  5
20
330
1F
100
AcDbEntity
  8
0
100
AcDbBlockBegin
  2
*MODEL_SPACE
 70
     0
 10
0.0
 20
0.0
 30
0.0
  3
*MODEL_SPACE
  1

  0
ENDBLK
  5
21
330
1F
100
AcDbEntity
  8
0
100
AcDbBlockEnd
  0
BLOCK
  5
103
330
101
100
AcDbEntity
 67
     1
  8
0
100
AcDbBlockBegin
  2
*PAPER_SPACE
 70
     0
 10
0.0
 20
0.0
 30
0.0
  3
*PAPER_SPACE
  1

  0
ENDBLK
  5
104
330
101
100
AcDbEntity
 67
     1
  8
0
100
AcDbBlockEnd
  0
BLOCK
  5
5D
330
59
100
AcDbEntity
  8
0
100
AcDbBlockBegin
  2
_OPEN30
 70
     0
 10
0.0
 20
0.0
 30
0.0
  3
_OPEN30
  1

  0
LINE
  5
5A
330
59
100
AcDbEntity
  8
0
 62
     0
100
AcDbLine
 10
-1.0
 20
0.26794919
 30
0.0
 11
0.0
 21
0.0
 31
0.0
  0
LINE
  5
5B
330
59
100
AcDbEntity
  8
0
 62
     0
100
AcDbLine
 10
0.0
 20
0.0
 30
0.0
 11
-1.0
 21
-0.26794919
 31
0.0
  0
LINE
  5
5C
330
59
100
AcDbEntity
  8
0
 62
     0
100
AcDbLine
 10
0.0
 20
0.0
 30
0.0
 11
-1.0
 21
0.0
 31
0.0
  0
ENDBLK
  5
5E
330
59
100
AcDbEntity
  8
0
100
AcDbBlockEnd
  0
BLOCK
  5
66
330
64
100
AcDbEntity
  8
0
100
AcDbBlockBegin
  2
GENAXEH
 70
     0
 10
0.0
 20
0.0
 30
0.0
  3
GENAXEH
  1

  0
LINE
  5
65
330
64
100
AcDbEntity
  8
0
100
AcDbLine
 10
-1.0
 20
0.0
 30
0.0
 11
1.0
 21
0.0
 31
0.0
  0
ENDBLK
  5
67
330
64
100
AcDbEntity
  8
0
100
AcDbBlockEnd
  0
BLOCK
  5
1568
330
155E
100
AcDbEntity
  8
0
100
AcDbBlockBegin
  2
*D5
 70
     1
 10
0.0
 20
0.0
 30
0.0
  3
*D5
  1

  0
LINE
  5
225E
330
155E
100
AcDbEntity
  8
AM_5
 62
     3
100
AcDbLine
 10
-0.0000000000000008
 20
-6.0
 30
0.0
 11
-0.0000000000000019
 21
-25.00001625878899
 31
0.0
  0
LINE
  5
225F
330
155E
100
AcDbEntity
  8
AM_5
 62
     3
100
AcDbLine
 10
-29.99999237060499
 20
-9.499999999999982
 30
0.0
 11
-29.99999237060499
 21
-25.00001625878899
 31
0.0
  0
LINE
  5
2260
330
155E
100
AcDbEntity
  8
AM_5
 62
     3
100
AcDbLine
 10
-2.500000000000001
 20
-24.000016258789
 30
0.0
 11
-27.49999237060499
 21
-24.000016258789
 31
0.0
  0
INSERT
  5
2261
330
155E
100
AcDbEntity
  8
AM_5
 62
     3
100
AcDbBlockReference
  2
_OPEN30
 10
-0.0000000000000019
 20
-24.000016258789
 30
0.0
 41
2.5
 42
2.5
 43
2.5
  0
INSERT
  5
2262
330
155E
100
AcDbEntity
  8
AM_5
 62
     3
100
AcDbBlockReference
  2
_OPEN30
 10
-29.99999237060499
 20
-24.000016258789
 30
0.0
 41
2.5
 42
2.5
 43
2.5
 50
180.0
  0
MTEXT
  5
2263
330
155E
100
AcDbEntity
  8
AM_5
 62
     2
100
AcDbMText
 10
-14.99999618530249
 20
-20.600016258789
 30
0.0
 40
3.799999999999999
 41
0.0
 71
     5
 72
     1
  1
30
1001
ACAD
1000
MTEXTBEGIN
1070
    73
1070
     1
1070
    44
1040
1.0
1070
    74
1070
     0
1000
MTEXTEND
  0
POINT
  5
2264
330
155E
100
AcDbEntity
  8
DEFPOINTS
 62
     0
100
AcDbPoint
 10
-0.0000000000000008
 20
-6.0
 30
0.0
  0
POINT
  5
2265
330
155E
100
AcDbEntity
  8
DEFPOINTS
 62
     0
100
AcDbPoint
 10
-29.99999237060499
 20
-9.499999999999982
 30
0.0
  0
POINT
  5
2266
330
155E
100
AcDbEntity
  8
DEFPOINTS
 62
     0
100
AcDbPoint
 10
-29.99999237060499
 20
-24.000016258789
 30
0.0
  0
ENDBLK
  5
1569
330
155E
100
AcDbEntity
  8
0
100
AcDbBlockEnd
  0
BLOCK
  5
15F3
330
15E9
100
AcDbEntity
  8
0
100
AcDbBlockBegin
  2
*D6
 70
     1
 10
0.0
 20
0.0
 30
0.0
  3
*D6
  1

  0
LINE
  5
224C
330
15E9
100
AcDbEntity
  8
AM_5
 62
     3
100
AcDbLine
 10
-29.99999237060499
 20
-9.499999999999982
 30
0.0
 11
-29.99999237060499
 21
-25.00001625878911
 31
0.0
  0
LINE
  5
224D
330
15E9
100
AcDbEntity
  8
AM_5
 62
     3
100
AcDbLine
 10
-109.9999999999989
 20
-7.661499023436975
 30
0.0
 11
-109.9999999999989
 21
-25.00001625878911
 31
0.0
  0
LINE
  5
224E
330
15E9
100
AcDbEntity
  8
AM_5
 62
     3
100
AcDbLine
 10
-32.49999237060499
 20
-24.00001625878911
 30
0.0
 11
-107.4999999999989
 21
-24.00001625878911
 31
0.0
  0
INSERT
  5
224F
330
15E9
100
AcDbEntity
  8
AM_5
 62
     3
100
AcDbBlockReference
  2
_OPEN30
 10
-29.99999237060499
 20
-24.00001625878911
 30
0.0
 41
2.5
 42
2.5
 43
2.5
  0
INSERT
  5
2250
330
15E9
100
AcDbEntity
  8
AM_5
 62
     3
100
AcDbBlockReference
  2
_OPEN30
 10
-109.9999999999989
 20
-24.00001625878911
 30
0.0
 41
2.5
 42
2.5
 43
2.5
 50
180.0
  0
MTEXT
  5
2251
330
15E9
100
AcDbEntity
  8
AM_5
 62
     2
100
AcDbMText
 10
-69.999996185302
 20
-20.60001625878912
 30
0.0
 40
3.799999999999999
 41
0.0
 71
     5
 72
     1
  1
80
1001
ACAD
1000
MTEXTBEGIN
1070
    73
1070
     1
1070
    44
1040
1.0
1070
    74
1070
     0
1000
MTEXTEND
  0
POINT
  5
2252
330
15E9
100
AcDbEntity
  8
DEFPOINTS
 62
     0
100
AcDbPoint
 10
-29.99999237060499
 20
-9.499999999999982
 30
0.0
  0
POINT
  5
2253
330
15E9
100
AcDbEntity
  8
DEFPOINTS
 62
     0
100
AcDbPoint
 10
-109.9999999999989
 20
-7.661499023436975
 30
0.0
  0
POINT
  5
2254
330
15E9
100
AcDbEntity
  8
DEFPOINTS
 62
     0
100
AcDbPoint
 10
-109.9999999999989
 20
-24.00001625878911
 30
0.0
  0
ENDBLK
  5
15F4
330
15E9
100
AcDbEntity
  8
0
100
AcDbBlockEnd
  0
BLOCK
  5
167E
330
1674
100
AcDbEntity
  8
0
100
AcDbBlockBegin
  2
*D7
 70
     1
 10
0.0
 20
0.0
 30
0.0
  3
*D7
  1

  0
LINE
  5
2243
330
1674
100
AcDbEntity
  8
AM_5
 62
     3
100
AcDbLine
 10
-109.9999999999989
 20
-7.661499023436975
 30
0.0
 11
-109.9999999999989
 21
-35.00001625878894
 31
0.0
  0
LINE
  5
2244
330
1674
100
AcDbEntity
  8
AM_5
 62
     3
100
AcDbLine
 10
-0.0000000000000009
 20
-7.918792724599995
 30
0.0
 11
-0.0000000000000026
 21
-35.00001625878894
 31
0.0
  0
LINE
  5
2245
330
1674
100
AcDbEntity
  8
AM_5
 62
     3
100
AcDbLine
 10
-107.4999999999989
 20
-34.00001625878894
 30
0.0
 11
-2.500000000000002
 21
-34.00001625878894
 31
0.0
  0
INSERT
  5
2246
330
1674
100
AcDbEntity
  8
AM_5
 62
     3
100
AcDbBlockReference
  2
_OPEN30
 10
-109.9999999999989
 20
-34.00001625878894
 30
0.0
 41
2.5
 42
2.5
 43
2.5
 50
180.0
  0
INSERT
  5
2247
330
1674
100
AcDbEntity
  8
AM_5
 62
     3
100
AcDbBlockReference
  2
_OPEN30
 10
-0.0000000000000025
 20
-34.00001625878894
 30
0.0
 41
2.5
 42
2.5
 43
2.5
  0
MTEXT
  5
2248
330
1674
100
AcDbEntity
  8
AM_5
 62
     2
100
AcDbMText
 10
-54.9999999999995
 20
-30.60001625878894
 30
0.0
 40
3.799999999999999
 41
0.0
 71
     5
 72
     1
  1
110
1001
ACAD
1000
MTEXTBEGIN
1070
    73
1070
     1
1070
    44
1040
1.0
1070
    74
1070
     0
1000
MTEXTEND
  0
POINT
  5
2249
330
1674
100
AcDbEntity
  8
DEFPOINTS
 62
     0
100
AcDbPoint
 10
-109.9999999999989
 20
-7.661499023436975
 30
0.0
  0
POINT
  5
224A
330
1674
100
AcDbEntity
  8
DEFPOINTS
 62
     0
100
AcDbPoint
 10
-0.0000000000000009
 20
-7.918792724599995
 30
0.0
  0
POINT
  5
224B
330
1674
100
AcDbEntity
  8
DEFPOINTS
 62
     0
100
AcDbPoint
 10
-0.0000000000000025
 20
-34.00001625878894
 30
0.0
  0
ENDBLK
  5
167F
330
1674
100
AcDbEntity
  8
0
100
AcDbBlockEnd
  0
BLOCK
  5
18A0
330
1896
100
AcDbEntity
  8
0
100
AcDbBlockBegin
  2
*D8
 70
     1
 10
0.0
 20
0.0
 30
0.0
  3
*D8
  1

  0
LINE
  5
2231
330
1896
100
AcDbEntity
  8
AM_5
 62
     3
100
AcDbLine
 10
0.0000000000000059
 20
-9.999999999999985
 30
0.0
 11
20.11789803369101
 21
-9.999999999999992
 31
0.0
  0
LINE
  5
2232
330
1896
100
AcDbEntity
  8
AM_5
 62
     3
100
AcDbLine
 10
0.0000000000000089
 20
10.00000000000001
 30
0.0
 11
20.11789803369102
 21
10.0
 31
0.0
  0
LINE
  5
2233
330
1896
100
AcDbEntity
  8
AM_5
 62
     3
100
AcDbLine
 10
19.11789803369101
 20
-7.499999999999992
 30
0.0
 11
19.11789803369101
 21
7.500000000000004
 31
0.0
  0
INSERT
  5
2234
330
1896
100
AcDbEntity
  8
AM_5
 62
     3
100
AcDbBlockReference
  2
_OPEN30
 10
19.11789803369101
 20
-9.999999999999991
 30
0.0
 41
2.5
 42
2.5
 43
2.5
 50
270.0
  0
INSERT
  5
2235
330
1896
100
AcDbEntity
  8
AM_5
 62
     3
100
AcDbBlockReference
  2
_OPEN30
 10
19.11789803369102
 20
10.0
 30
0.0
 41
2.5
 42
2.5
 43
2.5
 50
90.0
  0
MTEXT
  5
2236
330
1896
100
AcDbEntity
  8
AM_5
 62
     2
100
AcDbMText
 10
15.71789803369101
 20
0.0000000000000099
 30
0.0
 40
3.799999999999999
 41
0.0
 71
     5
 72
     1
  1
%%c20
 11
0.0000000000000001
 21
1.0
 31
0.0
1001
ACAD
1000
MTEXTBEGIN
1070
    73
1070
     1
1070
    44
1040
1.0
1070
    74
1070
     0
1000
MTEXTEND
  0
POINT
  5
2237
330
1896
100
AcDbEntity
  8
DEFPOINTS
 62
     0
100
AcDbPoint
 10
0.0000000000000059
 20
-9.999999999999985
 30
0.0
  0
POINT
  5
2238
330
1896
100
AcDbEntity
  8
DEFPOINTS
 62
     0
100
AcDbPoint
 10
0.0000000000000089
 20
10.00000000000001
 30
0.0
  0
POINT
  5
2239
330
1896
100
AcDbEntity
  8
DEFPOINTS
 62
     0
100
AcDbPoint
 10
19.11789803369102
 20
10.0
 30
0.0
  0
ENDBLK
  5
18A1
330
1896
100
AcDbEntity
  8
0
100
AcDbBlockEnd
  0
BLOCK
  5
1E21
330
1E17
100
AcDbEntity
  8
0
100
AcDbBlockBegin
  2
*D9
 70
     1
 10
0.0
 20
0.0
 30
0.0
  3
*D9
  1

  0
LINE
  5
2255
330
1E17
100
AcDbEntity
  8
AM_5
 62
     3
100
AcDbLine
 10
-106.9999847412099
 20
10.00003433227602
 30
0.0
 11
-129.7608592845301
 21
10.00003433227603
 31
0.0
  0
LINE
  5
2256
330
1E17
100
AcDbEntity
  8
AM_5
 62
     3
100
AcDbLine
 10
-106.999961853026
 20
-9.999961853026976
 30
0.0
 11
-129.7608592845301
 21
-9.999961853026968
 31
0.0
  0
LINE
  5
2257
330
1E17
100
AcDbEntity
  8
AM_5
 62
     3
100
AcDbLine
 10
-128.7608592845301
 20
7.500034332276031
 30
0.0
 11
-128.7608592845301
 21
-7.499961853026968
 31
0.0
  0
INSERT
  5
2258
330
1E17
100
AcDbEntity
  8
AM_5
 62
     3
100
AcDbBlockReference
  2
_OPEN30
 10
-128.7608592845301
 20
10.00003433227603
 30
0.0
 41
2.5
 42
2.5
 43
2.5
 50
90.0
  0
INSERT
  5
2259
330
1E17
100
AcDbEntity
  8
AM_5
 62
     3
100
AcDbBlockReference
  2
_OPEN30
 10
-128.7608592845301
 20
-9.999961853026968
 30
0.0
 41
2.5
 42
2.5
 43
2.5
 50
270.0
  0
MTEXT
  5
225A
330
1E17
100
AcDbEntity
  8
AM_5
 62
     2
100
AcDbMText
 10
-132.1608592845301
 20
0.0000362396245114
 30
0.0
 40
3.799999999999999
 41
0.0
 71
     5
 72
     1
  1
%%c20
 11
0.0000000000000001
 21
1.0
 31
0.0
1001
ACAD
1000
MTEXTBEGIN
1070
    73
1070
     1
1070
    44
1040
1.0
1070
    74
1070
     0
1000
MTEXTEND
  0
POINT
  5
225B
330
1E17
100
AcDbEntity
  8
DEFPOINTS
 62
     0
100
AcDbPoint
 10
-106.9999847412099
 20
10.00003433227602
 30
0.0
  0
POINT
  5
225C
330
1E17
100
AcDbEntity
  8
DEFPOINTS
 62
     0
100
AcDbPoint
 10
-106.999961853026
 20
-9.999961853026976
 30
0.0
  0
POINT
  5
225D
330
1E17
100
AcDbEntity
  8
DEFPOINTS
 62
     0
100
AcDbPoint
 10
-128.7608592845301
 20
-9.999961853026968
 30
0.0
  0
ENDBLK
  5
1E22
330
1E17
100
AcDbEntity
  8
0
100
AcDbBlockEnd
  0
BLOCK
  5
1F2E
330
1F24
100
AcDbEntity
  8
0
100
AcDbBlockBegin
  2
*D10
 70
     1
 10
0.0
 20
0.0
 30
0.0
  3
*D10
  1

  0
LINE
  5
1F25
330
1F24
100
AcDbEntity
  8
PV0001_1
 62
     3
100
AcDbLine
 10
-56.457771301269
 20
20.086456298828
 30
0.0
 11
-56.457771301269
 21
-12.65133476257299
 31
0.0
  0
LINE
  5
1F26
330
1F24
100
AcDbEntity
  8
PV0001_1
 62
     3
100
AcDbLine
 10
53.54222869873
 20
22.42495727539
 30
0.0
 11
53.54222869873
 21
-12.651334762573
 31
0.0
  0
LINE
  5
1F27
330
1F24
100
AcDbEntity
  8
PV0001_1
 62
     3
100
AcDbLine
 10
-53.957771301269
 20
-11.651334762573
 30
0.0
 11
51.04222869873
 21
-11.651334762573
 31
0.0
  0
INSERT
  5
1F28
330
1F24
100
AcDbEntity
  8
PV0001_1
 62
     3
100
AcDbBlockReference
  2
_OPEN30
 10
-56.457771301269
 20
-11.651334762573
 30
0.0
 41
2.5
 42
2.5
 43
2.5
 50
180.0
  0
INSERT
  5
1F29
330
1F24
100
AcDbEntity
  8
PV0001_1
 62
     3
100
AcDbBlockReference
  2
_OPEN30
 10
53.54222869873
 20
-11.651334762573
 30
0.0
 41
2.5
 42
2.5
 43
2.5
  0
MTEXT
  5
1F2A
330
1F24
100
AcDbEntity
  8
PV0001_1
 62
     2
100
AcDbMText
 10
-1.457771301269499
 20
-8.251334762573
 30
0.0
 40
3.799999999999999
 41
0.0
 71
     5
 72
     1
  1
110.0
1001
ACAD
1000
MTEXTBEGIN
1070
    73
1070
     1
1070
    44
1040
1.0
1070
    74
1070
     0
1000
MTEXTEND
  0
POINT
  5
1F2B
330
1F24
100
AcDbEntity
  8
DEFPOINTS
 62
     0
100
AcDbPoint
 10
-56.457771301269
 20
20.086456298828
 30
0.0
  0
POINT
  5
1F2C
330
1F24
100
AcDbEntity
  8
DEFPOINTS
 62
     0
100
AcDbPoint
 10
53.54222869873
 20
22.42495727539
 30
0.0
  0
POINT
  5
1F2D
330
1F24
100
AcDbEntity
  8
DEFPOINTS
 62
     0
100
AcDbPoint
 10
53.54222869873
 20
-11.651334762573
 30
0.0
  0
ENDBLK
  5
1F2F
330
1F24
100
AcDbEntity
  8
0
100
AcDbBlockEnd
  0
BLOCK
  5
1F39
330
1F30
100
AcDbEntity
  8
0
100
AcDbBlockBegin
  2
*D11
 70
     1
 10
0.0
 20
0.0
 30
0.0
  3
*D11
  1

  0
LINE
  5
1F31
330
1F30
100
AcDbEntity
  8
PV0001_1
 62
     3
100
AcDbLine
 10
-26.457778930664
 20
20.58645629882799
 30
0.0
 11
-26.457778930664
 21
2.9272994995117
 31
0.0
  0
LINE
  5
1F32
330
1F30
100
AcDbEntity
  8
PV0001_1
 62
     3
100
AcDbLine
 10
-53.957771301269
 20
3.9272994995117
 30
0.0
 11
-28.957778930664
 21
3.9272994995117
 31
0.0
  0
INSERT
  5
1F33
330
1F30
100
AcDbEntity
  8
PV0001_1
 62
     3
100
AcDbBlockReference
  2
_OPEN30
 10
-56.457771301269
 20
3.9272994995117
 30
0.0
 41
2.5
 42
2.5
 43
2.5
 50
180.0
  0
INSERT
  5
1F34
330
1F30
100
AcDbEntity
  8
PV0001_1
 62
     3
100
AcDbBlockReference
  2
_OPEN30
 10
-26.457778930664
 20
3.9272994995117
 30
0.0
 41
2.5
 42
2.5
 43
2.5
  0
MTEXT
  5
1F35
330
1F30
100
AcDbEntity
  8
PV0001_1
 62
     2
100
AcDbMText
 10
-41.457775115966
 20
7.327299499511699
 30
0.0
 40
3.799999999999999
 41
0.0
 71
     5
 72
     1
  1
30.0
1001
ACAD
1000
MTEXTBEGIN
1070
    73
1070
     1
1070
    44
1040
1.0
1070
    74
1070
     0
1000
MTEXTEND
  0
POINT
  5
1F36
330
1F30
100
AcDbEntity
  8
DEFPOINTS
 62
     0
100
AcDbPoint
 10
-56.457771301269
 20
20.086456298828
 30
0.0
  0
POINT
  5
1F37
330
1F30
100
AcDbEntity
  8
DEFPOINTS
 62
     0
100
AcDbPoint
 10
-26.457778930664
 20
20.58645629882799
 30
0.0
  0
POINT
  5
1F38
330
1F30
100
AcDbEntity
  8
DEFPOINTS
 62
     0
100
AcDbPoint
 10
-26.457778930664
 20
3.9272994995117
 30
0.0
  0
ENDBLK
  5
1F3A
330
1F30
100
AcDbEntity
  8
0
100
AcDbBlockEnd
  0
BLOCK
  5
1F43
330
1F3B
100
AcDbEntity
  8
0
100
AcDbBlockBegin
  2
*D12
 70
     1
 10
0.0
 20
0.0
 30
0.0
  3
*D12
  1

  0
LINE
  5
1F3C
330
1F3B
100
AcDbEntity
  8
PV0001_1
 62
     3
100
AcDbLine
 10
-23.95777893066399
 20
3.9272994995117
 30
0.0
 11
51.04222869873
 21
3.9272994995117
 31
0.0
  0
INSERT
  5
1F3D
330
1F3B
100
AcDbEntity
  8
PV0001_1
 62
     3
100
AcDbBlockReference
  2
_OPEN30
 10
-26.457778930664
 20
3.9272994995117
 30
0.0
 41
2.5
 42
2.5
 43
2.5
 50
180.0
  0
INSERT
  5
1F3E
330
1F3B
100
AcDbEntity
  8
PV0001_1
 62
     3
100
AcDbBlockReference
  2
_OPEN30
 10
53.54222869873
 20
3.9272994995117
 30
0.0
 41
2.5
 42
2.5
 43
2.5
  0
MTEXT
  5
1F3F
330
1F3B
100
AcDbEntity
  8
PV0001_1
 62
     2
100
AcDbMText
 10
13.542224884033
 20
7.327299499511699
 30
0.0
 40
3.799999999999999
 41
0.0
 71
     5
 72
     1
  1
80.0
1001
ACAD
1000
MTEXTBEGIN
1070
    73
1070
     1
1070
    44
1040
1.0
1070
    74
1070
     0
1000
MTEXTEND
  0
POINT
  5
1F40
330
1F3B
100
AcDbEntity
  8
DEFPOINTS
 62
     0
100
AcDbPoint
 10
-26.457778930664
 20
20.58645629882799
 30
0.0
  0
POINT
  5
1F41
330
1F3B
100
AcDbEntity
  8
DEFPOINTS
 62
     0
100
AcDbPoint
 10
53.54222869873
 20
22.42495727539
 30
0.0
  0
POINT
  5
1F42
330
1F3B
100
AcDbEntity
  8
DEFPOINTS
 62
     0
100
AcDbPoint
 10
53.54222869873
 20
3.9272994995117
 30
0.0
  0
ENDBLK
  5
1F44
330
1F3B
100
AcDbEntity
  8
0
100
AcDbBlockEnd
  0
BLOCK
  5
1F51
330
1F45
100
AcDbEntity
  8
0
100
AcDbBlockBegin
  2
*D13
 70
     1
 10
0.0
 20
0.0
 30
0.0
  3
*D13
  1

  0
LINE
  5
1F46
330
1F45
100
AcDbEntity
  8
PV0001_1
 62
     3
100
AcDbLine
 10
50.542224884033
 20
40.08645629882799
 30
0.0
 11
72.07121276855402
 21
40.08645629882799
 31
0.0
  0
LINE
  5
1F47
330
1F45
100
AcDbEntity
  8
PV0001_1
 62
     3
100
AcDbLine
 10
50.542224884033
 20
20.086456298828
 30
0.0
 11
72.071212768554
 21
20.08645629882799
 31
0.0
  0
LINE
  5
1F48
330
1F45
100
AcDbEntity
  8
PV0001_1
 62
     3
100
AcDbLine
 10
71.07121276855401
 20
42.58645629882799
 30
0.0
 11
71.07121276855401
 21
45.08645629882799
 31
0.0
  0
LINE
  5
1F49
330
1F45
100
AcDbEntity
  8
PV0001_1
 62
     3
100
AcDbLine
 10
71.07121276855401
 20
17.58645629882799
 30
0.0
 11
71.07121276855401
 21
15.08645629882799
 31
0.0
  0
LINE
  5
1F4A
330
1F45
100
AcDbEntity
  8
PV0001_1
 62
     3
100
AcDbLine
 10
71.07121276855401
 20
40.08645629882799
 30
0.0
 11
71.07121276855401
 21
20.08645629882799
 31
0.0
  0
INSERT
  5
1F4B
330
1F45
100
AcDbEntity
  8
PV0001_1
 62
     3
100
AcDbBlockReference
  2
_OPEN30
 10
71.07121276855401
 20
40.08645629882799
 30
0.0
 41
2.5
 42
2.5
 43
2.5
 50
270.0
  0
INSERT
  5
1F4C
330
1F45
100
AcDbEntity
  8
PV0001_1
 62
     3
100
AcDbBlockReference
  2
_OPEN30
 10
71.07121276855401
 20
20.08645629882799
 30
0.0
 41
2.5
 42
2.5
 43
2.5
 50
90.0
  0
MTEXT
  5
1F4D
330
1F45
100
AcDbEntity
  8
PV0001_1
 62
     2
100
AcDbMText
 10
67.44861106251725
 20
33.249526977539
 30
0.0
 40
3.799999999999999
 41
0.0
 71
     5
 72
     1
  1
φ20{\H1.900000;\S 0^ -0.021;}
 11
0.0000000000000001
 21
1.0
 31
0.0
1001
ACAD
1000
MTEXTBEGIN
1070
    73
1070
     1
1070
    44
1040
1.0
1070
    74
1070
     0
1000
MTEXTEND
  0
POINT
  5
1F4E
330
1F45
100
AcDbEntity
  8
DEFPOINTS
 62
     0
100
AcDbPoint
 10
50.542224884033
 20
40.08645629882799
 30
0.0
  0
POINT
  5
1F4F
330
1F45
100
AcDbEntity
  8
DEFPOINTS
 62
     0
100
AcDbPoint
 10
50.542224884033
 20
20.086456298828
 30
0.0
  0
POINT
  5
1F50
330
1F45
100
AcDbEntity
  8
DEFPOINTS
 62
     0
100
AcDbPoint
 10
71.07121276855401
 20
20.08645629882799
 30
0.0
  0
ENDBLK
  5
1F52
330
1F45
100
AcDbEntity
  8
0
100
AcDbBlockEnd
  0
BLOCK
  5
1F5F
330
1F53
100
AcDbEntity
  8
0
100
AcDbBlockBegin
  2
*D14
 70
     1
 10
0.0
 20
0.0
 30
0.0
  3
*D14
  1

  0
LINE
  5
1F54
330
1F53
100
AcDbEntity
  8
PV0001_1
 62
     3
100
AcDbLine
 10
-56.457771301269
 20
20.086456298828
 30
0.0
 11
-70.461471557617
 21
20.086456298828
 31
0.0
  0
LINE
  5
1F55
330
1F53
100
AcDbEntity
  8
PV0001_1
 62
     3
100
AcDbLine
 10
-56.457771301269
 20
40.08645629882799
 30
0.0
 11
-70.46147155761699
 21
40.08645629882799
 31
0.0
  0
LINE
  5
1F56
330
1F53
100
AcDbEntity
  8
PV0001_1
 62
     3
100
AcDbLine
 10
-69.461471557617
 20
17.586456298828
 30
0.0
 11
-69.461471557617
 21
15.086456298828
 31
0.0
  0
LINE
  5
1F57
330
1F53
100
AcDbEntity
  8
PV0001_1
 62
     3
100
AcDbLine
 10
-69.46147155761699
 20
42.58645629882799
 30
0.0
 11
-69.46147155761699
 21
45.08645629882799
 31
0.0
  0
LINE
  5
1F58
330
1F53
100
AcDbEntity
  8
PV0001_1
 62
     3
100
AcDbLine
 10
-69.461471557617
 20
20.086456298828
 30
0.0
 11
-69.46147155761699
 21
40.08645629882799
 31
0.0
  0
INSERT
  5
1F59
330
1F53
100
AcDbEntity
  8
PV0001_1
 62
     3
100
AcDbBlockReference
  2
_OPEN30
 10
-69.461471557617
 20
20.086456298828
 30
0.0
 41
2.5
 42
2.5
 43
2.5
 50
90.0
  0
INSERT
  5
1F5A
330
1F53
100
AcDbEntity
  8
PV0001_1
 62
     3
100
AcDbBlockReference
  2
_OPEN30
 10
-69.46147155761699
 20
40.08645629882799
 30
0.0
 41
2.5
 42
2.5
 43
2.5
 50
270.0
  0
MTEXT
  5
1F5B
330
1F53
100
AcDbEntity
  8
PV0001_1
 62
     2
100
AcDbMText
 10
-73.07573654420517
 20
30.08645629882798
 30
0.0
 40
3.799999999999999
 41
0.0
 71
     5
 72
     1
  1
*φ20{\H1.900000;\S 0^ -0.3;}
 11
0.0000000000000001
 21
1.0
 31
0.0
1001
ACAD
1000
MTEXTBEGIN
1070
    73
1070
     1
1070
    44
1040
1.0
1070
    74
1070
     0
1000
MTEXTEND
  0
POINT
  5
1F5C
330
1F53
100
AcDbEntity
  8
DEFPOINTS
 62
     0
100
AcDbPoint
 10
-56.457771301269
 20
20.086456298828
 30
0.0
  0
POINT
  5
1F5D
330
1F53
100
AcDbEntity
  8
DEFPOINTS
 62
     0
100
AcDbPoint
 10
-56.457771301269
 20
40.08645629882799
 30
0.0
  0
POINT
  5
1F5E
330
1F53
100
AcDbEntity
  8
DEFPOINTS
 62
     0
100
AcDbPoint
 10
-69.46147155761699
 20
40.08645629882799
 30
0.0
  0
ENDBLK
  5
1F60
330
1F53
100
AcDbEntity
  8
0
100
AcDbBlockEnd
  0
BLOCK
  5
1FE5
330
1F62
100
AcDbEntity
  8
0
100
AcDbBlockBegin
  2
A$C010140A0
 70
     0
 10
0.0
 20
0.0
 30
0.0
  3
A$C010140A0
  1

  0
LINE
  5
1F63
330
1F62
100
AcDbEntity
  8
PV0001_1
  6
AM_ISO08W050
100
AcDbLine
 10
63.3661855459204
 20
0.0
 30
0.0
 11
0.0
 21
0.0
 31
0.0
  0
LINE
  5
1F64
330
1F62
100
AcDbEntity
  8
PV0001_1
  6
CONTINUOUS
100
AcDbLine
 10
112.1178970336899
 20
9.999999999999996
 30
0.0
 11
35.983894348144
 21
9.999999999999996
 31
0.0
  0
LINE
  5
1F65
330
1F62
100
AcDbEntity
  8
PV0001_1
  6
CONTINUOUS
100
AcDbLine
 10
35.983894348144
 20
-10.0
 30
0.0
 11
112.1178970336899
 21
-10.0
 31
0.0
  0
DIMENSION
  5
1F66
330
1F62
100
AcDbEntity
  8
PV0001_1
100
AcDbDimension
  2
*D12
 10
115.1178970336899
 20
-26.1591567993163
 30
0.0
 11
75.117893218993
 21
-26.1591567993163
 31
0.0
 12
61.57566833496
 22
-30.086456298828
 32
0.0
 70
   128
  1
<>
  3
AM_JIS$0
100
AcDbAlignedDimension
 13
35.117889404296
 23
-9.5
 33
0.0
 14
115.1178970336899
 24
-7.661499023438
 34
0.0
100
AcDbRotatedDimension
1001
ACAD
1000
DSTYLE
1002
{
1070
   284
1070
     8
1070
   271
1070
     1
1070
    45
1040
0.01
1070
   173
1070
     1
1070
     6
1000
OPEN30
1070
     7
1000
OPEN30
1070
    75
1070
     1
1070
    76
1070
     1
1002
}
  0
DIMENSION
  5
1F67
330
1F62
100
AcDbEntity
  8
PV0001_1
100
AcDbDimension
  2
*D10
 10
115.1178970336899
 20
-41.73779106140099
 30
0.0
 11
60.1178970336905
 21
-41.73779106140099
 31
0.0
 12
61.57566833496
 22
-30.086456298828
 32
0.0
 70
   128
  1
<>
  3
AM_JIS$0
100
AcDbAlignedDimension
 13
5.117897033691001
 23
-10.0
 33
0.0
 14
115.1178970336899
 24
-7.661499023438
 34
0.0
100
AcDbRotatedDimension
1001
ACAD
1000
DSTYLE
1002
{
1070
   284
1070
     8
1070
   271
1070
     1
1070
    45
1040
0.01
1070
   173
1070
     1
1070
     6
1000
OPEN30
1070
     7
1000
OPEN30
1002
}
  0
ELLIPSE
  5
1F68
330
1F62
100
AcDbEntity
  8
PV0001_1
  6
CONTINUOUS
 48
0.5
100
AcDbEllipse
 10
13.725498199462
 20
0.0
 30
0.0
 11
-120.824694234882
 21
0.0353354454819979
 31
0.0
210
0.0
220
0.0
230
1.0
 40
0.0786252974493
 41
4.598505642335073
 42
4.685869296193867
  0
ELLIPSE
  5
1F69
330
1F62
100
AcDbEntity
  8
PV0001_1
  6
CONTINUOUS
 48
0.5
100
AcDbEllipse
 10
18.40180206298799
 20
0.0
 30
0.0
 11
10.418136109181
 21
9.493591172234996
 31
0.0
210
0.0
220
0.0
230
1.0
 40
0.0340139925512
 41
0.0395361784299131
 42
0.0803847386867968
  0
ELLIPSE
  5
1F6A
330
1F62
100
AcDbEntity
  8
PV0001_1
  6
CONTINUOUS
 48
0.5
100
AcDbEllipse
 10
18.40180206298799
 20
0.0
 30
0.0
 11
-10.41829042375499
 21
9.493590320517999
 31
0.0
210
0.0
220
0.0
230
1.0
 40
0.0340129913343
 41
3.102011457889984
 42
3.47648911382076
  0
ELLIPSE
  5
1F6B
330
1F62
100
AcDbEntity
  8
PV0001_1
  6
CONTINUOUS
 48
0.5
100
AcDbEllipse
 10
18.40180206298799
 20
0.0
 30
0.0
 11
-10.41821329152899
 21
9.493529127211996
 31
0.0
210
0.0
220
0.0
230
1.0
 40
0.0340132283734
 41
3.057684473795554
 42
3.102011733444387
  0
SPLINE
  5
1F6C
330
1F62
100
AcDbEntity
  8
PV0001_1
  6
CONTINUOUS
 48
0.5
100
AcDbSpline
210
0.0
220
0.0
230
1.0
 70
     8
 71
     3
 72
    11
 73
     7
 74
     5
 42
0.0000000001
 43
0.0000000001
 44
0.0000000001
 40
0.0
 40
0.0
 40
0.0
 40
0.0
 40
1.016916393465312
 40
1.849084796160247
 40
2.578414852659433
 40
3.431668423595501
 40
3.431668423595501
 40
3.431668423595501
 40
3.431668423595501
 10
10.158500671386
 20
-5.282287597656999
 30
0.0
 10
10.47705837575594
 20
-5.44079230696969
 30
0.0
 10
11.05629990596956
 20
-5.729005428513682
 30
0.0
 10
11.2938304516183
 20
-6.634366342114146
 30
0.0
 10
11.01962723673142
 20
-7.474922418763885
 30
0.0
 10
10.49146373966326
 20
-7.656696043059221
 30
0.0
 10
10.20670318603499
 20
-7.754699707031999
 30
0.0
 11
10.158500671386
 21
-5.282287597656999
 31
0.0
 11
10.99050140380799
 21
-5.867004394531999
 31
0.0
 11
11.21208953857399
 21
-6.669128417969002
 31
0.0
 11
10.959693908691
 21
-7.353393554688
 31
0.0
 11
10.20670318603499
 21
-7.754699707031999
 31
0.0
  0
SPLINE
  5
1F6D
330
1F62
100
AcDbEntity
  8
PV0001_1
  6
CONTINUOUS
 48
0.5
100
AcDbSpline
210
0.0
220
0.0
230
1.0
 70
     8
 71
     3
 72
    11
 73
     7
 74
     5
 42
0.0000000001
 43
0.0000000001
 44
0.0000000001
 40
0.0
 40
0.0
 40
0.0
 40
0.0
 40
0.2005227975027883
 40
0.3978938768334514
 40
0.5956571553602031
 40
0.7975887996183541
 40
0.7975887996183541
 40
0.7975887996183541
 40
0.7975887996183541
 10
15.032997131347
 20
-2.887023925781999
 30
0.0
 10
15.0997239665104
 20
-2.89250941093949
 30
0.0
 10
15.2321288574387
 20
-2.903394163111355
 30
0.0
 10
15.42512309150461
 20
-2.953282631662244
 30
0.0
 10
15.61126977690299
 20
-3.025820766922353
 30
0.0
 10
15.72575343006583
 20
-3.094387444896768
 30
0.0
 10
15.783592224121
 20
-3.129028320313
 30
0.0
 11
15.032997131347
 21
-2.887023925781999
 31
0.0
 11
15.232292175292
 21
-2.9091796875
 31
0.0
 11
15.423789978027
 21
-2.956970214844002
 31
0.0
 11
15.60749053954999
 21
-3.030212402344002
 31
0.0
 11
15.783592224121
 21
-3.129028320313
 31
0.0
  0
SPLINE
  5
1F6E
330
1F62
100
AcDbEntity
  8
PV0001_1
  6
CONTINUOUS
 48
0.5
100
AcDbSpline
210
0.0
220
0.0
230
1.0
 70
     8
 71
     3
 72
    11
 73
     7
 74
     5
 42
0.0000000001
 43
0.0000000001
 44
0.0000000001
 40
0.0
 40
0.0
 40
0.0
 40
0.0
 40
0.1478409520524263
 40
0.2937798013618202
 40
0.4390585036488797
 40
0.5850561411310798
 40
0.5850561411310798
 40
0.5850561411310798
 40
0.5850561411310798
 10
14.45809173583899
 20
-2.974975585938
 30
0.0
 10
14.50496236114459
 20
-2.959618392394662
 30
0.0
 10
14.59810058029717
 20
-2.929101588992063
 30
0.0
 10
14.74196701129671
 20
-2.900724206488914
 30
0.0
 10
14.88712443469621
 20
-2.884592284257171
 30
0.0
 10
14.98429295457884
 20
-2.886212045962258
 30
0.0
 10
15.032997131347
 20
-2.887023925781999
 30
0.0
 11
14.45809173583899
 21
-2.974975585938
 31
0.0
 11
14.599494934082
 21
-2.931823730469002
 31
0.0
 11
14.742500305175
 21
-2.902709960938
 31
0.0
 11
14.887001037597
 21
-2.8876953125
 31
0.0
 11
15.032997131347
 21
-2.887023925781999
 31
0.0
  0
ELLIPSE
  5
1F6F
330
1F62
100
AcDbEntity
  8
PV0001_1
  6
CONTINUOUS
 48
0.5
100
AcDbEllipse
 10
9.697502136229999
 20
-3.137878417969002
 30
0.0
 11
-1.499389639911
 21
0.042602489699
 31
0.0
210
0.0
220
0.0
230
1.0
 40
0.1901815627407
 41
1.960944359535209
 42
3.064536478916175
  0
ELLIPSE
  5
1F70
330
1F62
100
AcDbEntity
  8
PV0001_1
  6
CONTINUOUS
 48
0.5
100
AcDbEllipse
 10
9.697502136229999
 20
-3.137878417969002
 30
0.0
 11
-1.499389639911
 21
0.042602489699
 31
0.0
210
0.0
220
0.0
230
1.0
 40
0.1901815627407
 41
0.2150637215954514
 42
1.32596175060827
  0
SPLINE
  5
1F71
330
1F62
100
AcDbEntity
  8
PV0001_1
  6
CONTINUOUS
 48
0.5
100
AcDbSpline
210
0.0
220
0.0
230
1.0
 70
     8
 71
     3
 72
    11
 73
     7
 74
     5
 42
0.0000000001
 43
0.0000000001
 44
0.0000000001
 40
0.0
 40
0.0
 40
0.0
 40
0.0
 40
0.4015997055946637
 40
0.7887894584780497
 40
1.121723817369376
 40
1.303939010066129
 40
1.303939010066129
 40
1.303939010066129
 40
1.303939010066129
 10
27.458503723144
 20
-9.434692382813
 30
0.0
 10
27.59239113378628
 20
-9.434362310931895
 30
0.0
 10
27.85536188965665
 20
-9.433714010605154
 30
0.0
 10
28.22896507198842
 20
-9.447600037469607
 30
0.0
 10
28.52974994611276
 20
-9.460758860707276
 30
0.0
 10
28.70005345524885
 20
-9.483163906798662
 30
0.0
 10
28.760292053222
 20
-9.491088867188
 30
0.0
 11
27.458503723144
 21
-9.434692382813
 31
0.0
 11
27.86009979247999
 21
-9.436401367188
 31
0.0
 11
28.24709320068299
 21
-9.44873046875
 31
0.0
 11
28.579399108886
 21
-9.469177246094002
 31
0.0
 11
28.760292053222
 21
-9.491088867188
 31
0.0
  0
ELLIPSE
  5
1F72
330
1F62
100
AcDbEntity
  8
PV0001_1
  6
CONTINUOUS
 48
0.5
100
AcDbEllipse
 10
13.725498199462
 20
0.0
 30
0.0
 11
120.8246939625009
 21
0.0362548834789998
 31
0.0
210
0.0
220
0.0
230
1.0
 40
0.0786252974493
 41
4.738911598877197
 42
4.826283325787043
  0
SPLINE
  5
1F73
330
1F62
100
AcDbEntity
  8
PV0001_1
  6
CONTINUOUS
 48
0.5
100
AcDbSpline
210
0.0
220
0.0
230
1.0
 70
     8
 71
     3
 72
    11
 73
     7
 74
     5
 42
0.0000000001
 43
0.0000000001
 44
0.0000000001
 40
0.0
 40
0.0
 40
0.0
 40
0.0
 40
0.0610132883951558
 40
0.2341194997774916
 40
0.4939596530558842
 40
0.8006028672403752
 40
0.8006028672403752
 40
0.8006028672403752
 40
0.8006028672403752
 10
6.368095397948998
 20
-1.807983398438
 30
0.0
 10
6.370094971787759
 20
-1.828236513582083
 30
0.0
 10
6.377767713893815
 20
-1.905951537820067
 30
0.0
 10
6.369244218143844
 20
-2.070903308115289
 30
0.0
 10
6.363432674513122
 20
-2.317138017991217
 30
0.0
 10
6.355171977702751
 20
-2.505830194944119
 30
0.0
 10
6.350700378417002
 20
-2.607971191406999
 30
0.0
 11
6.368095397948998
 21
-1.807983398438
 31
0.0
 11
6.373298645018998
 21
-1.868774414063
 31
0.0
 11
6.371391296386001
 21
-2.041870117188
 31
0.0
 11
6.362998962402002
 21
-2.301574707031999
 31
0.0
 11
6.350700378417002
 21
-2.607971191406999
 31
0.0
  0
ELLIPSE
  5
1F74
330
1F62
100
AcDbEntity
  8
PV0001_1
  6
CONTINUOUS
 48
0.5
100
AcDbEllipse
 10
182.2099914550699
 20
-0.0524291992190023
 30
0.0
 11
-249.3922927843399
 21
0.0729947799890028
 31
0.0
210
0.0
220
0.0
230
0.9999999999999998
 40
0.049408435232
 41
5.452966452380458
 42
5.495318115906116
  0
ELLIPSE
  5
1F75
330
1F62
100
AcDbEntity
  8
PV0001_1
  6
CONTINUOUS
 48
0.5
100
AcDbEllipse
 10
15.896690368652
 20
-0.0761108398440023
 30
0.0
 11
-1.252869164009005
 21
9.435974457608999
 31
0.0
210
0.0
220
0.0
230
1.0
 40
0.077720114203
 41
0.1437939313466294
 42
0.2195995990474902
  0
ELLIPSE
  5
1F76
330
1F62
100
AcDbEntity
  8
PV0001_1
  6
CONTINUOUS
 48
0.5
100
AcDbEllipse
 10
16.231895446777
 20
-0.0770874023440023
 30
0.0
 11
-1.364304041515005
 21
9.448425176928999
 31
0.0
210
0.0
220
0.0
230
1.0
 40
0.2741968321531
 41
6.273705414192996
 42
6.409537217264611
  0
SPLINE
  5
1F77
330
1F62
100
AcDbEntity
  8
PV0001_1
  6
CONTINUOUS
 48
0.5
100
AcDbSpline
210
0.0
220
0.0
230
1.0
 70
     8
 71
     3
 72
    11
 73
     7
 74
     5
 42
0.0000000001
 43
0.0000000001
 44
0.0000000001
 40
0.0
 40
0.0
 40
0.0
 40
0.0
 40
0.4015997055946637
 40
0.7887894584780816
 40
1.121723817369346
 40
1.303939010066099
 40
1.303939010066099
 40
1.303939010066099
 40
1.303939010066099
 10
27.458503723144
 20
9.434692382811999
 30
0.0
 10
27.59239113378628
 20
9.434362310930728
 30
0.0
 10
27.85536188965668
 20
9.433714010603665
 30
0.0
 10
28.22896507198834
 20
9.447600037470357
 30
0.0
 10
28.52974994611279
 20
9.460758860706075
 30
0.0
 10
28.70005345524885
 20
9.483163906797607
 30
0.0
 10
28.760292053222
 20
9.491088867186999
 30
0.0
 11
27.458503723144
 21
9.434692382811999
 31
0.0
 11
27.86009979247999
 21
9.436401367186999
 31
0.0
 11
28.24709320068299
 21
9.448730468749996
 31
0.0
 11
28.579399108886
 21
9.469177246093
 31
0.0
 11
28.760292053222
 21
9.491088867186999
 31
0.0
  0
SPLINE
  5
1F78
330
1F62
100
AcDbEntity
  8
PV0001_1
  6
CONTINUOUS
 48
0.5
100
AcDbSpline
210
0.0
220
0.0
230
1.0
 70
     8
 71
     3
 72
    11
 73
     7
 74
     5
 42
0.0000000001
 43
0.0000000001
 44
0.0000000001
 40
0.0
 40
0.0
 40
0.0
 40
0.0
 40
1.03493087267396
 40
1.875158151703883
 40
2.762200041789746
 40
3.853481397343868
 40
3.853481397343868
 40
3.853481397343868
 40
3.853481397343868
 10
10.036598205566
 20
7.759094238280997
 30
0.0
 10
9.690977916506081
 20
7.656571576285893
 30
0.0
 10
9.064759567496471
 20
7.470814043632726
 30
0.0
 10
8.617930636613868
 20
6.575054187602341
 30
0.0
 10
8.854302923328354
 20
5.518580083250666
 30
0.0
 10
9.550537013835702
 20
5.346978234072048
 30
0.0
 10
9.934593200682996
 20
5.252319335936999
 30
0.0
 11
10.036598205566
 21
7.759094238280997
 31
0.0
 11
9.098091125487997
 21
7.322875976561999
 31
0.0
 11
8.725898742674999
 21
6.569580078124996
 31
0.0
 11
8.943794250487997
 21
5.709716796874996
 31
0.0
 11
9.934593200682996
 21
5.252319335936999
 31
0.0
  0
SPLINE
  5
1F79
330
1F62
100
AcDbEntity
  8
PV0001_1
  6
CONTINUOUS
 48
0.5
100
AcDbSpline
210
0.0
220
0.0
230
1.0
 70
     8
 71
     3
 72
    11
 73
     7
 74
     5
 42
0.0000000001
 43
0.0000000001
 44
0.0000000001
 40
0.0
 40
0.0
 40
0.0
 40
0.0
 40
1.125377757589445
 40
2.041307230635223
 40
2.834113426512286
 40
3.799097890283704
 40
3.799097890283704
 40
3.799097890283704
 40
3.799097890283704
 10
9.934593200682996
 20
5.252319335936999
 30
0.0
 10
10.31236862795017
 20
5.378271222022583
 30
0.0
 10
10.9976102777306
 20
5.606733615245429
 30
0.0
 10
11.31304352498631
 20
6.607350308929317
 30
0.0
 10
10.98954024420081
 20
7.549994884355964
 30
0.0
 10
10.37433239971503
 20
7.684986896037889
 30
0.0
 10
10.036598205566
 20
7.759094238280997
 30
0.0
 11
9.934593200682996
 21
5.252319335936999
 31
0.0
 11
10.928703308105
 21
5.779785156249996
 31
0.0
 11
11.212699890136
 21
6.650573730468
 31
0.0
 11
10.92848968505799
 21
7.390686035155997
 31
0.0
 11
10.036598205566
 21
7.759094238280997
 31
0.0
  0
SPLINE
  5
1F7A
330
1F62
100
AcDbEntity
  8
PV0001_1
  6
CONTINUOUS
 48
0.5
100
AcDbSpline
210
0.0
220
0.0
230
1.0
 70
     8
 71
     3
 72
    11
 73
     7
 74
     5
 42
0.0000000001
 43
0.0000000001
 44
0.0000000001
 40
0.0
 40
0.0
 40
0.0
 40
0.0
 40
2.954182462136262
 40
6.038630764834048
 40
9.121775001134668
 40
12.20225309159173
 40
12.20225309159173
 40
12.20225309159173
 40
12.20225309159173
 10
27.262596130371
 20
-4.385009765625
 30
0.0
 10
26.65542882651332
 20
-3.60264485699508
 30
0.0
 10
25.41432093711607
 20
-2.003416350586968
 30
0.0
 10
22.84842795102895
 20
-0.290642420548771
 30
0.0
 10
19.98042952117258
 20
0.8961803912533033
 30
0.0
 10
17.94824635852214
 20
1.236723490176621
 30
0.0
 10
16.932594299316
 20
1.406921386718
 30
0.0
 11
27.262596130371
 21
-4.385009765625
 31
0.0
 11
25.331596374511
 21
-2.149291992188
 31
0.0
 11
22.803596496582
 21
-0.382080078125
 31
0.0
 11
19.949394226074
 21
0.7838134765619991
 31
0.0
 11
16.932594299316
 21
1.406921386718
 31
0.0
  0
ELLIPSE
  5
1F7B
330
1F62
100
AcDbEntity
  8
PV0001_1
  6
CONTINUOUS
 48
0.5
100
AcDbEllipse
 10
13.571189880371
 20
-22.1415252685546
 30
0.0
 11
-12.599624341321
 21
15.7668923419756
 31
0.0
210
0.0
220
0.0
230
1.0
 40
0.9789422204581999
 41
4.877696186861717
 42
5.575891766512548
  0
ELLIPSE
  5
1F7C
330
1F62
100
AcDbEntity
  8
PV0001_1
  6
CONTINUOUS
 48
0.5
100
AcDbEllipse
 10
17.197898864746
 20
0.0
 30
0.0
 11
-11.11390560267299
 21
8.890259740465996
 31
0.0
210
0.0
220
0.0
230
1.0
 40
0.3013602932332
 41
3.154309336888398
 42
3.87235839127522
  0
SPLINE
  5
1F7D
330
1F62
100
AcDbEntity
  8
PV0001_1
  6
CONTINUOUS
 48
0.5
100
AcDbSpline
210
0.0
220
0.0
230
1.0
 70
     8
 71
     3
 72
    11
 73
     7
 74
     5
 42
0.0000000001
 43
0.0000000001
 44
0.0000000001
 40
0.0
 40
0.0
 40
0.0
 40
0.0
 40
0.1144432779707222
 40
0.2295923089361853
 40
0.3451598680494277
 40
0.4605641788914332
 40
0.4605641788914332
 40
0.4605641788914332
 40
0.4605641788914332
 10
5.117897033691001
 20
9.286804199218
 30
0.0
 10
5.118143794578141
 20
9.325219655252947
 30
0.0
 10
5.118638838086495
 20
9.402287469162965
 30
0.0
 10
5.160327597192012
 20
9.511797495794709
 30
0.0
 10
5.231133924512454
 20
9.606131448550975
 30
0.0
 10
5.298053449480646
 20
9.645534544714623
 30
0.0
 10
5.331489562987997
 20
9.665222167968
 30
0.0
 11
5.117897033691001
 21
9.286804199218
 31
0.0
 11
5.125404357909999
 21
9.401000976561999
 31
0.0
 11
5.165092468261001
 21
9.509094238280997
 31
0.0
 11
5.236091613768998
 21
9.600280761718
 31
0.0
 11
5.331489562987997
 21
9.665222167968
 31
0.0
  0
SPLINE
  5
1F7E
330
1F62
100
AcDbEntity
  8
PV0001_1
  6
CONTINUOUS
 48
0.5
100
AcDbSpline
210
0.0
220
0.0
230
1.0
 70
     8
 71
     3
 72
    11
 73
     7
 74
     5
 42
0.0000000001
 43
0.0000000001
 44
0.0000000001
 40
0.0
 40
0.0
 40
0.0
 40
0.0
 40
2.178097001277993
 40
4.359141170069829
 40
6.543367293759864
 40
8.73067050272807
 40
8.73067050272807
 40
8.73067050272807
 40
8.73067050272807
 10
14.212394714355
 20
9.886596679686999
 30
0.0
 10
13.48648904733039
 20
9.873027759013035
 30
0.0
 10
12.03369549550176
 20
9.845871557655348
 30
0.0
 10
9.853032617162078
 20
9.801049439170842
 30
0.0
 10
7.669362038806986
 20
9.753319542467519
 30
0.0
 10
6.212593138268302
 20
9.718847349786704
 30
0.0
 10
5.483695983886001
 20
9.701599121093
 30
0.0
 11
14.212394714355
 21
9.886596679686999
 31
0.0
 11
12.03469085693299
 21
9.845214843749996
 31
0.0
 11
9.854103088377996
 21
9.800598144530997
 31
0.0
 11
7.670402526854999
 21
9.752685546874996
 31
0.0
 11
5.483695983886001
 21
9.701599121093
 31
0.0
  0
SPLINE
  5
1F7F
330
1F62
100
AcDbEntity
  8
PV0001_1
  6
CONTINUOUS
 48
0.5
100
AcDbSpline
210
0.0
220
0.0
230
1.0
 70
     8
 71
     3
 72
    11
 73
     7
 74
     5
 42
0.0000000001
 43
0.0000000001
 44
0.0000000001
 40
0.0
 40
0.0
 40
0.0
 40
0.0
 40
1.051158925012384
 40
2.102542869692467
 40
3.153852553275065
 40
4.205343209617248
 40
4.205343209617248
 40
4.205343209617248
 40
4.205343209617248
 10
5.839698791502996
 20
4.004211425780997
 30
0.0
 10
5.786287267565673
 20
4.350502884956575
 30
0.0
 10
5.679452785983828
 20
5.04315993328676
 30
0.0
 10
5.51939443695741
 20
6.082188215195713
 30
0.0
 10
5.359384543455572
 20
7.121335835766741
 30
0.0
 10
5.252727391603444
 20
7.814107045284012
 30
0.0
 10
5.199394226073998
 20
8.160522460936999
 30
0.0
 11
5.839698791502996
 21
4.004211425780997
 31
0.0
 11
5.679496765136001
 21
5.043090820311999
 31
0.0
 11
5.519401550292002
 21
6.082214355468
 31
0.0
 11
5.359397888182996
 21
7.121276855468
 31
0.0
 11
5.199394226073998
 21
8.160522460936999
 31
0.0
  0
SPLINE
  5
1F80
330
1F62
100
AcDbEntity
  8
PV0001_1
  6
CONTINUOUS
 48
0.5
100
AcDbSpline
210
0.0
220
0.0
230
1.0
 70
     8
 71
     3
 72
    11
 73
     7
 74
     5
 42
0.0000000001
 43
0.0000000001
 44
0.0000000001
 40
0.0
 40
0.0
 40
0.0
 40
0.0
 40
0.1309630602387505
 40
0.2622571092297474
 40
0.3932400797017749
 40
0.5239586630719091
 40
0.5239586630719091
 40
0.5239586630719091
 40
0.5239586630719091
 10
6.083503723143998
 20
3.551086425780997
 30
0.0
 10
6.052518891883799
 20
3.582015488224828
 30
0.0
 10
5.990470920024733
 20
3.643951781504155
 30
0.0
 10
5.919991658034739
 20
3.755456223201708
 30
0.0
 10
5.866032105141858
 20
3.875708645521194
 30
0.0
 10
5.848470648826035
 20
3.961406024625965
 30
0.0
 10
5.839698791502996
 20
4.004211425780997
 30
0.0
 11
6.083503723143998
 21
3.551086425780997
 31
0.0
 11
5.994300842284999
 21
3.646972656249996
 31
0.0
 11
5.922691345213998
 21
3.757019042968
 31
0.0
 11
5.870597839354999
 21
3.877197265624996
 31
0.0
 11
5.839698791502996
 21
4.004211425780997
 31
0.0
  0
SPLINE
  5
1F81
330
1F62
100
AcDbEntity
  8
PV0001_1
  6
CONTINUOUS
 48
0.5
100
AcDbSpline
210
0.0
220
0.0
230
1.0
 70
     8
 71
     3
 72
    11
 73
     7
 74
     5
 42
0.0000000001
 43
0.0000000001
 44
0.0000000001
 40
0.0
 40
0.0
 40
0.0
 40
0.0
 40
0.2466688550919529
 40
0.4944260795204696
 40
0.7421119142395109
 40
0.9881755426548382
 40
0.9881755426548382
 40
0.9881755426548382
 40
0.9881755426548382
 10
14.212394714355
 20
9.886596679686999
 30
0.0
 10
14.29518679312998
 20
9.882182846194602
 30
0.0
 10
14.46113625160055
 20
9.873335704189232
 30
0.0
 10
14.68982981456957
 20
9.766917718572834
 30
0.0
 10
14.88266382291848
 20
9.604327615983542
 30
0.0
 10
14.95944105928179
 20
9.457140720230135
 30
0.0
 10
14.997703552246
 20
9.383789062499996
 30
0.0
 11
14.212394714355
 21
9.886596679686999
 31
0.0
 11
14.457389831542
 21
9.857910156249996
 31
0.0
 11
14.683891296386
 21
9.757507324218
 31
0.0
 11
14.870094299316
 21
9.594177246093
 31
0.0
 11
14.997703552246
 21
9.383789062499996
 31
0.0
  0
SPLINE
  5
1F82
330
1F62
100
AcDbEntity
  8
PV0001_1
  6
CONTINUOUS
 48
0.5
100
AcDbSpline
210
0.0
220
0.0
230
1.0
 70
     8
 71
     3
 72
    11
 73
     7
 74
     5
 42
0.0000000001
 43
0.0000000001
 44
0.0000000001
 40
0.0
 40
0.0
 40
0.0
 40
0.0
 40
0.0620330488507918
 40
0.1244971882319498
 40
0.1871590752671031
 40
0.2496297503523519
 40
0.2496297503523519
 40
0.2496297503523519
 40
0.2496297503523519
 10
5.916496276854999
 20
9.032104492186999
 30
0.0
 10
5.898844795387205
 20
9.021227430501282
 30
0.0
 10
5.863419165798136
 20
8.999397718417416
 30
0.0
 10
5.818332833648403
 20
8.955725977735601
 30
0.0
 10
5.779853087274715
 20
8.905941060045918
 30
0.0
 10
5.76207311692036
 20
8.868082489039661
 30
0.0
 10
5.753196716307996
 20
8.849182128905997
 30
0.0
 11
5.916496276854999
 21
9.032104492186999
 31
0.0
 11
5.864891052246001
 21
8.997680664061999
 31
0.0
 11
5.819496154784999
 21
8.954772949218
 31
0.0
 11
5.781791687011001
 21
8.904724121093
 31
0.0
 11
5.753196716307996
 21
8.849182128905997
 31
0.0
  0
SPLINE
  5
1F83
330
1F62
100
AcDbEntity
  8
PV0001_1
  6
CONTINUOUS
 48
0.5
100
AcDbSpline
210
0.0
220
0.0
230
1.0
 70
     8
 71
     3
 72
    11
 73
     7
 74
     5
 42
0.0000000001
 43
0.0000000001
 44
0.0000000001
 40
0.0
 40
0.0
 40
0.0
 40
0.0
 40
0.0265478067221618
 40
0.0527893218780664
 40
0.0791478939960838
 40
0.1056666026543128
 40
0.1056666026543128
 40
0.1056666026543128
 40
0.1056666026543128
 10
5.753196716307996
 20
8.849182128905997
 30
0.0
 10
5.749996739140567
 20
8.840926614756689
 30
0.0
 10
5.743633704089808
 20
8.824510833285259
 30
0.0
 10
5.736458180894577
 20
8.79909331642743
 30
0.0
 10
5.730694470576441
 20
8.773330738815419
 30
0.0
 10
5.72843547146493
 20
8.755841443128382
 30
0.0
 10
5.727302551268998
 20
8.747070312499996
 30
0.0
 11
5.753196716307996
 21
8.849182128905997
 31
0.0
 11
5.743995666502996
 21
8.824279785155997
 31
0.0
 11
5.736701965332002
 21
8.799072265624996
 31
0.0
 11
5.731101989746001
 21
8.773315429686999
 31
0.0
 11
5.727302551268998
 21
8.747070312499996
 31
0.0
  0
SPLINE
  5
1F84
330
1F62
100
AcDbEntity
  8
PV0001_1
  6
CONTINUOUS
 48
0.5
100
AcDbSpline
210
0.0
220
0.0
230
1.0
 70
     8
 71
     3
 72
    11
 73
     7
 74
     5
 42
0.0000000001
 43
0.0000000001
 44
0.0000000001
 40
0.0
 40
0.0
 40
0.0
 40
0.0
 40
0.0484517877209831
 40
0.096586070137491
 40
0.1448482956942509
 40
0.1940668792741951
 40
0.1940668792741951
 40
0.1940668792741951
 40
0.1940668792741951
 10
6.102394104002996
 20
9.081481933593
 30
0.0
 10
6.086249532746942
 20
9.080576982787448
 30
0.0
 10
6.054066185856695
 20
9.078773011332788
 30
0.0
 10
6.006633651195622
 20
9.068967521035203
 30
0.0
 10
5.960337722835651
 20
9.053894147766264
 30
0.0
 10
5.931205362102763
 20
9.039415060857026
 30
0.0
 10
5.916496276854999
 20
9.032104492186999
 30
0.0
 11
6.102394104002996
 21
9.081481933593
 31
0.0
 11
6.054100036621001
 21
9.077575683593
 31
0.0
 11
6.006904602049999
 21
9.068115234374996
 31
0.0
 11
5.961097717284999
 21
9.052917480468
 31
0.0
 11
5.916496276854999
 21
9.032104492186999
 31
0.0
  0
SPLINE
  5
1F85
330
1F62
100
AcDbEntity
  8
PV0001_1
  6
CONTINUOUS
 48
0.5
100
AcDbSpline
210
0.0
220
0.0
230
1.0
 70
     8
 71
     3
 72
    11
 73
     7
 74
     5
 42
0.0000000001
 43
0.0000000001
 44
0.0000000001
 40
0.0
 40
0.0
 40
0.0
 40
0.0
 40
0.0523479929665125
 40
0.1044604392542116
 40
0.1565331959120567
 40
0.2088478045610845
 40
0.2088478045610845
 40
0.2088478045610845
 40
0.2088478045610845
 10
6.030494689941001
 20
4.481811523436999
 30
0.0
 10
6.033141529455842
 20
4.464558258887092
 30
0.0
 10
6.038423298683035
 20
4.430129363120158
 30
0.0
 10
6.050308682303921
 20
4.379278136170511
 30
0.0
 10
6.065148129126078
 20
4.329213996574404
 30
0.0
 10
6.07777217089735
 20
4.296774770102086
 30
0.0
 10
6.084098815917002
 20
4.280517578124996
 30
0.0
 11
6.030494689941001
 21
4.481811523436999
 31
0.0
 11
6.039100646972002
 21
4.430175781249996
 31
0.0
 11
6.050804138182996
 21
4.379394531249996
 31
0.0
 11
6.065803527832002
 21
4.329528808593
 31
0.0
 11
6.084098815917002
 21
4.280517578124996
 31
0.0
  0
SPLINE
  5
1F86
330
1F62
100
AcDbEntity
  8
PV0001_1
  6
CONTINUOUS
 48
0.5
100
AcDbSpline
210
0.0
220
0.0
230
1.0
 70
     8
 71
     3
 72
    11
 73
     7
 74
     5
 42
0.0000000001
 43
0.0000000001
 44
0.0000000001
 40
0.0
 40
0.0
 40
0.0
 40
0.0
 40
0.0436494217180941
 40
0.0872378212815946
 40
0.1308282078642189
 40
0.1744776295822923
 40
0.1744776295822923
 40
0.1744776295822923
 40
0.1744776295822923
 10
13.63210296630799
 20
9.202087402343
 30
0.0
 10
13.63240567918343
 20
9.216634057521183
 30
0.0
 10
13.63301068173988
 20
9.245707031565952
 30
0.0
 10
13.6338708435997
 20
9.289308012121246
 30
0.0
 10
13.63492714167908
 20
9.332904734822133
 30
0.0
 10
13.63550597883409
 20
9.36197893937806
 30
0.0
 10
13.635795593261
 20
9.376525878905997
 30
0.0
 11
13.63210296630799
 21
9.202087402343
 31
0.0
 11
13.63300323486299
 21
9.245727539061999
 31
0.0
 11
13.633903503417
 21
9.289306640624996
 31
0.0
 11
13.634895324707
 21
9.332885742186999
 31
0.0
 11
13.635795593261
 21
9.376525878905997
 31
0.0
  0
SPLINE
  5
1F87
330
1F62
100
AcDbEntity
  8
PV0001_1
  6
CONTINUOUS
 48
0.5
100
AcDbSpline
210
0.0
220
0.0
230
1.0
 70
     8
 71
     3
 72
    11
 73
     7
 74
     5
 42
0.0000000001
 43
0.0000000001
 44
0.0000000001
 40
0.0
 40
0.0
 40
0.0
 40
0.0
 40
0.0866038970905536
 40
0.1718670953691089
 40
0.2565746628125125
 40
0.3419784541540607
 40
0.3419784541540607
 40
0.3419784541540607
 40
0.3419784541540607
 10
13.999992370605
 20
9.355590820311999
 30
0.0
 10
13.97281154903832
 20
9.365396155540974
 30
0.0
 10
13.9188706871447
 20
9.38485503142923
 30
0.0
 10
13.83511156671316
 20
9.403156353506723
 30
0.0
 10
13.75033350429084
 20
9.413003756893212
 30
0.0
 10
13.69358356810861
 20
9.411880063942577
 30
0.0
 10
13.665092468261
 20
9.411315917968
 30
0.0
 11
13.999992370605
 21
9.355590820311999
 31
0.0
 11
13.91790008544899
 21
9.383178710936999
 31
0.0
 11
13.834693908691
 21
9.401794433593
 31
0.0
 11
13.75049591064399
 21
9.411071777343
 31
0.0
 11
13.665092468261
 21
9.411315917968
 31
0.0
  0
SPLINE
  5
1F88
330
1F62
100
AcDbEntity
  8
PV0001_1
  6
CONTINUOUS
 48
0.5
100
AcDbSpline
210
0.0
220
0.0
230
1.0
 70
     8
 71
     3
 72
    11
 73
     7
 74
     5
 42
0.0000000001
 43
0.0000000001
 44
0.0000000001
 40
0.0
 40
0.0
 40
0.0
 40
0.0
 40
0.0647900923092822
 40
0.1286785455386716
 40
0.1922690139357058
 40
0.2561594296078947
 40
0.2561594296078947
 40
0.2561594296078947
 40
0.2561594296078947
 10
13.883201599121
 20
9.160827636718
 30
0.0
 10
13.86279602547962
 20
9.167958465850755
 30
0.0
 10
13.82226884850757
 20
9.182120889279749
 30
0.0
 10
13.75945651599388
 20
9.195549859959033
 30
0.0
 10
13.69594746845716
 20
9.202995445139535
 30
0.0
 10
13.65341782274783
 20
9.202390557684459
 30
0.0
 10
13.63210296630799
 20
9.202087402343
 30
0.0
 11
13.883201599121
 21
9.160827636718
 31
0.0
 11
13.82160186767499
 21
9.180908203124996
 31
0.0
 11
13.75919342041
 21
9.194580078124996
 31
0.0
 11
13.69599151611299
 21
9.201599121093
 31
0.0
 11
13.63210296630799
 21
9.202087402343
 31
0.0
  0
SPLINE
  5
1F89
330
1F62
100
AcDbEntity
  8
PV0001_1
  6
CONTINUOUS
 48
0.5
100
AcDbSpline
210
0.0
220
0.0
230
1.0
 70
     8
 71
     3
 72
    11
 73
     7
 74
     5
 42
0.0000000001
 43
0.0000000001
 44
0.0000000001
 40
0.0
 40
0.0
 40
0.0
 40
0.0
 40
0.0937029514381563
 40
0.1857291232019218
 40
0.2771678861344373
 40
0.3695797537117525
 40
0.3695797537117525
 40
0.3695797537117525
 40
0.3695797537117525
 10
14.29679107665999
 20
9.140991210936999
 30
0.0
 10
14.2756800646836
 20
9.16406653212994
 30
0.0
 10
14.23383581448547
 20
9.209804250173926
 30
0.0
 10
14.16169248412648
 20
9.267969094751393
 30
0.0
 10
14.08421673281055
 20
9.318047573749298
 30
0.0
 10
14.02816604839628
 20
9.343032324121608
 30
0.0
 10
13.999992370605
 20
9.355590820311999
 30
0.0
 11
14.29679107665999
 21
9.140991210936999
 31
0.0
 11
14.231803894042
 21
9.208496093749996
 31
0.0
 11
14.16059112548799
 21
9.266784667968
 31
0.0
 11
14.083396911621
 21
9.315795898436999
 31
0.0
 11
13.999992370605
 21
9.355590820311999
 31
0.0
  0
SPLINE
  5
1F8A
330
1F62
100
AcDbEntity
  8
PV0001_1
  6
CONTINUOUS
 48
0.5
100
AcDbSpline
210
0.0
220
0.0
230
1.0
 70
     8
 71
     3
 72
    11
 73
     7
 74
     5
 42
0.0000000001
 43
0.0000000001
 44
0.0000000001
 40
0.0
 40
0.0
 40
0.0
 40
0.0
 40
1.064184972689724
 40
2.136998043423041
 40
3.20953755695667
 40
4.273216780131166
 40
4.273216780131166
 40
4.273216780131166
 40
4.273216780131166
 10
10.240196228027
 20
-8.007385253906999
 30
0.0
 10
9.881373557204113
 20
-7.903218103644849
 30
0.0
 10
9.160818987121954
 20
-7.694039246574037
 30
0.0
 10
8.760392099208672
 20
-6.541145126991416
 30
0.0
 10
9.26050336218039
 20
-5.428406157301477
 30
0.0
 10
9.996120728580448
 20
-5.282655883873533
 30
0.0
 10
10.36240386962799
 20
-5.210083007813
 30
0.0
 11
10.240196228027
 21
-8.007385253906999
 31
0.0
 11
9.276298522948998
 21
-7.556396484375
 31
0.0
 11
8.910896301268998
 21
-6.547729492188
 31
0.0
 11
9.363395690917002
 21
-5.575317382813
 31
0.0
 11
10.36240386962799
 21
-5.210083007813
 31
0.0
  0
SPLINE
  5
1F8B
330
1F62
100
AcDbEntity
  8
PV0001_1
  6
CONTINUOUS
 48
0.5
100
AcDbSpline
210
0.0
220
0.0
230
1.0
 70
     8
 71
     3
 72
    11
 73
     7
 74
     5
 42
0.0000000001
 43
0.0000000001
 44
0.0000000001
 40
0.0
 40
0.0
 40
0.0
 40
0.0
 40
1.330733811582527
 40
2.672378458009692
 40
4.009807455977192
 40
5.351227999198562
 40
5.351227999198562
 40
5.351227999198562
 40
5.351227999198562
 10
10.398597717285
 20
-8.364685058594002
 30
0.0
 10
10.85611486123772
 20
-8.272972075757436
 30
0.0
 10
11.77490038320127
 20
-8.088794145115709
 30
0.0
 10
12.40767845849191
 20
-6.703655870870229
 30
0.0
 10
11.91031427616608
 20
-5.256082515395789
 30
0.0
 10
11.00474947555912
 20
-4.997476586010814
 30
0.0
 10
10.55129241943299
 20
-4.867980957031999
 30
0.0
 11
10.398597717285
 21
-8.364685058594002
 31
0.0
 11
11.64789581298799
 21
-7.906311035156999
 31
0.0
 11
12.219200134277
 21
-6.6923828125
 31
0.0
 11
11.767692565917
 21
-5.433471679688
 31
0.0
 11
10.55129241943299
 21
-4.867980957031999
 31
0.0
  0
SPLINE
  5
1F8C
330
1F62
100
AcDbEntity
  8
PV0001_1
  6
CONTINUOUS
 48
0.5
100
AcDbSpline
210
0.0
220
0.0
230
1.0
 70
     8
 71
     3
 72
    11
 73
     7
 74
     5
 42
0.0000000001
 43
0.0000000001
 44
0.0000000001
 40
0.0
 40
0.0
 40
0.0
 40
0.0
 40
1.341547238370327
 40
2.678136656300054
 40
4.020220437993034
 40
5.34750216461038
 40
5.34750216461038
 40
5.34750216461038
 40
5.34750216461038
 10
10.55129241943299
 20
-4.867980957031999
 30
0.0
 10
10.08815518713001
 20
-4.957802628836957
 30
0.0
 10
9.16359229195034
 20
-5.137114027579226
 30
0.0
 10
8.545177076369579
 20
-6.536764949715938
 30
0.0
 10
9.053857010052357
 20
-7.970304455662905
 30
0.0
 10
9.95201095021931
 20
-8.233711735997957
 30
0.0
 10
10.398597717285
 20
-8.364685058594002
 30
0.0
 11
10.55129241943299
 21
-4.867980957031999
 31
0.0
 11
9.290504455566001
 21
-5.326416015625
 31
0.0
 11
8.733299255371001
 21
-6.541320800781999
 31
0.0
 11
9.197090148924999
 21
-7.800720214844002
 31
0.0
 11
10.398597717285
 21
-8.364685058594002
 31
0.0
  0
SPLINE
  5
1F8D
330
1F62
100
AcDbEntity
  8
PV0001_1
  6
CONTINUOUS
 48
0.5
100
AcDbSpline
210
0.0
220
0.0
230
1.0
 70
     8
 71
     3
 72
    11
 73
     7
 74
     5
 42
0.0000000001
 43
0.0000000001
 44
0.0000000001
 40
0.0
 40
0.0
 40
0.0
 40
0.0
 40
2.223036226566485
 40
4.445480845699645
 40
6.667370139040421
 40
8.88869437107586
 40
8.88869437107586
 40
8.88869437107586
 40
8.88869437107586
 10
15.543601989746
 20
-3.534484863281999
 30
0.0
 10
14.80280321344813
 20
-3.516700605753604
 30
0.0
 10
13.32140280656574
 20
-3.481136823547688
 30
0.0
 10
11.09949117880257
 20
-3.431872950697155
 30
0.0
 10
8.878092822781368
 20
-3.385279712310048
 30
0.0
 10
7.397294868765847
 20
-3.356818918966892
 30
0.0
 10
6.656990051268998
 20
-3.342590332031999
 30
0.0
 11
15.543601989746
 21
-3.534484863281999
 31
0.0
 11
13.321189880371
 21
-3.481811523438
 31
0.0
 11
11.09929656982399
 21
-3.432312011719002
 31
0.0
 11
8.877891540527002
 21
-3.385925292969002
 31
0.0
 11
6.656990051268998
 21
-3.342590332031999
 31
0.0
  0
SPLINE
  5
1F8E
330
1F62
100
AcDbEntity
  8
PV0001_1
  6
CONTINUOUS
 48
0.5
100
AcDbSpline
210
0.0
220
0.0
230
1.0
 70
     8
 71
     3
 72
    11
 73
     7
 74
     5
 42
0.0000000001
 43
0.0000000001
 44
0.0000000001
 40
0.0
 40
0.0
 40
0.0
 40
0.0
 40
0.2882893054631648
 40
0.5748929368559642
 40
0.8599187322545224
 40
1.143945313783528
 40
1.143945313783528
 40
1.143945313783528
 40
1.143945313783528
 10
6.656990051268998
 20
-3.342590332031999
 30
0.0
 10
6.560009149556798
 20
-3.349118492519231
 30
0.0
 10
6.366614409107814
 20
-3.362136642286329
 30
0.0
 10
6.110303544513889
 20
-3.507271041613476
 30
0.0
 10
5.91400104332053
 20
-3.726012050219044
 30
0.0
 10
5.864437198627494
 20
-3.911586919174065
 30
0.0
 10
5.839698791502996
 20
-4.004211425781999
 30
0.0
 11
6.656990051268998
 21
-3.342590332031999
 31
0.0
 11
6.371589660643998
 21
-3.38330078125
 31
0.0
 11
6.119697570799999
 21
-3.52001953125
 31
0.0
 11
5.934089660643998
 21
-3.736328125
 31
0.0
 11
5.839698791502996
 21
-4.004211425781999
 31
0.0
  0
SPLINE
  5
1F8F
330
1F62
100
AcDbEntity
  8
PV0001_1
  6
CONTINUOUS
 48
0.5
100
AcDbSpline
210
0.0
220
0.0
230
1.0
 70
     8
 71
     3
 72
    11
 73
     7
 74
     5
 42
0.0000000001
 43
0.0000000001
 44
0.0000000001
 40
0.0
 40
0.0
 40
0.0
 40
0.0
 40
1.051158925012384
 40
2.102542869692467
 40
3.153852553275065
 40
4.205343209617248
 40
4.205343209617248
 40
4.205343209617248
 40
4.205343209617248
 10
5.839698791502996
 20
-4.004211425781999
 30
0.0
 10
5.786287267565673
 20
-4.350502884957577
 30
0.0
 10
5.679452785983828
 20
-5.043159933287762
 30
0.0
 10
5.51939443695741
 20
-6.082188215196714
 30
0.0
 10
5.359384543455572
 20
-7.121335835767742
 30
0.0
 10
5.252727391603444
 20
-7.814107045285014
 30
0.0
 10
5.199394226073998
 20
-8.160522460938
 30
0.0
 11
5.839698791502996
 21
-4.004211425781999
 31
0.0
 11
5.679496765136001
 21
-5.043090820313
 31
0.0
 11
5.519401550292002
 21
-6.082214355469002
 31
0.0
 11
5.359397888182996
 21
-7.121276855469002
 31
0.0
 11
5.199394226073998
 21
-8.160522460938
 31
0.0
  0
SPLINE
  5
1F90
330
1F62
100
AcDbEntity
  8
PV0001_1
  6
CONTINUOUS
 48
0.5
100
AcDbSpline
210
0.0
220
0.0
230
1.0
 70
     8
 71
     3
 72
    11
 73
     7
 74
     5
 42
0.0000000001
 43
0.0000000001
 44
0.0000000001
 40
0.0
 40
0.0
 40
0.0
 40
0.0
 40
0.1144432779707222
 40
0.2295923089361853
 40
0.3451598680494277
 40
0.4605641788914332
 40
0.4605641788914332
 40
0.4605641788914332
 40
0.4605641788914332
 10
5.117897033691001
 20
-9.286804199219002
 30
0.0
 10
5.118143794578141
 20
-9.325219655253949
 30
0.0
 10
5.118638838086495
 20
-9.402287469163967
 30
0.0
 10
5.160327597192012
 20
-9.511797495795711
 30
0.0
 10
5.231133924512454
 20
-9.606131448551977
 30
0.0
 10
5.298053449480646
 20
-9.645534544715625
 30
0.0
 10
5.331489562987997
 20
-9.665222167969002
 30
0.0
 11
5.117897033691001
 21
-9.286804199219002
 31
0.0
 11
5.125404357909999
 21
-9.401000976563
 31
0.0
 11
5.165092468261001
 21
-9.509094238281999
 31
0.0
 11
5.236091613768998
 21
-9.600280761719002
 31
0.0
 11
5.331489562987997
 21
-9.665222167969002
 31
0.0
  0
SPLINE
  5
1F91
330
1F62
100
AcDbEntity
  8
PV0001_1
  6
CONTINUOUS
 48
0.5
100
AcDbSpline
210
0.0
220
0.0
230
1.0
 70
     8
 71
     3
 72
    11
 73
     7
 74
     5
 42
0.0000000001
 43
0.0000000001
 44
0.0000000001
 40
0.0
 40
0.0
 40
0.0
 40
0.0
 40
2.178097001278012
 40
4.359141170069828
 40
6.543367293759885
 40
8.730670502728067
 40
8.730670502728067
 40
8.730670502728067
 40
8.730670502728067
 10
14.212394714355
 20
-9.886596679688
 30
0.0
 10
13.48648904733039
 20
-9.873027759013465
 30
0.0
 10
12.03369549550178
 20
-9.845871557654632
 30
0.0
 10
9.85303261716205
 20
-9.8010494391727
 30
0.0
 10
7.669362038807017
 20
-9.753319542466808
 30
0.0
 10
6.212593138268307
 20
-9.718847349787132
 30
0.0
 10
5.483695983886001
 20
-9.701599121094002
 30
0.0
 11
14.212394714355
 21
-9.886596679688
 31
0.0
 11
12.03469085693299
 21
-9.84521484375
 31
0.0
 11
9.854103088377996
 21
-9.800598144531999
 31
0.0
 11
7.670402526854999
 21
-9.752685546875
 31
0.0
 11
5.483695983886001
 21
-9.701599121094002
 31
0.0
  0
SPLINE
  5
1F92
330
1F62
100
AcDbEntity
  8
PV0001_1
  6
CONTINUOUS
 48
0.5
100
AcDbSpline
210
0.0
220
0.0
230
1.0
 70
     8
 71
     3
 72
    11
 73
     7
 74
     5
 42
0.0000000001
 43
0.0000000001
 44
0.0000000001
 40
0.0
 40
0.0
 40
0.0
 40
0.0
 40
0.2877001883214205
 40
0.5765419899616474
 40
0.8648607243072662
 40
1.150992527799054
 40
1.150992527799054
 40
1.150992527799054
 40
1.150992527799054
 10
14.212394714355
 20
-9.886596679688
 30
0.0
 10
14.30915124019415
 20
-9.879951442411709
 30
0.0
 10
14.50304822814732
 20
-9.866634599119414
 30
0.0
 10
14.76099204551116
 20
-9.721507795167806
 30
0.0
 10
14.96205053236785
 20
-9.504198554807405
 30
0.0
 10
15.01661966160874
 20
-9.318220804423489
 30
0.0
 10
15.04380035400299
 20
-9.2255859375
 30
0.0
 11
14.212394714355
 21
-9.886596679688
 31
0.0
 11
14.497200012207
 21
-9.845886230469002
 31
0.0
 11
14.75170135497999
 21
-9.709289550781999
 31
0.0
 11
14.942604064941
 21
-9.493225097656999
 31
0.0
 11
15.04380035400299
 21
-9.2255859375
 31
0.0
  0
SPLINE
  5
1F93
330
1F62
100
AcDbEntity
  8
PV0001_1
  6
CONTINUOUS
 48
0.5
100
AcDbSpline
210
0.0
220
0.0
230
1.0
 70
     8
 71
     3
 72
    11
 73
     7
 74
     5
 42
0.0000000001
 43
0.0000000001
 44
0.0000000001
 40
0.0
 40
0.0
 40
0.0
 40
0.0
 40
1.054512467253177
 40
2.108987052099569
 40
3.163685694577379
 40
4.21840929505808
 40
4.21840929505808
 40
4.21840929505808
 40
4.21840929505808
 10
15.04380035400299
 20
-9.2255859375
 30
0.0
 10
15.10618466755314
 20
-8.879662000325041
 30
0.0
 10
15.23095105355339
 20
-8.187826552979744
 30
0.0
 10
15.41781474350727
 20
-7.149952392533024
 30
0.0
 10
15.60464147798778
 20
-6.112000070791002
 30
0.0
 10
15.72900740289276
 20
-5.419945135799849
 30
0.0
 10
15.791191101074
 20
-5.073913574219002
 30
0.0
 11
15.04380035400299
 21
-9.2255859375
 31
0.0
 11
15.23090362548799
 21
-8.187805175781999
 31
0.0
 11
15.41779327392499
 21
-7.150024414063
 31
0.0
 11
15.60459136962799
 21
-6.111999511719002
 31
0.0
 11
15.791191101074
 21
-5.073913574219002
 31
0.0
  0
SPLINE
  5
1F94
330
1F62
100
AcDbEntity
  8
PV0001_1
  6
CONTINUOUS
 48
0.5
100
AcDbSpline
210
0.0
220
0.0
230
1.0
 70
     8
 71
     3
 72
    11
 73
     7
 74
     5
 42
0.0000000001
 43
0.0000000001
 44
0.0000000001
 40
0.0
 40
0.0
 40
0.0
 40
0.0
 40
0.1141104930345908
 40
0.2283106996805339
 40
0.3426769523820974
 40
0.4571401500830797
 40
0.4571401500830797
 40
0.4571401500830797
 40
0.4571401500830797
 10
15.901100158691
 20
-3.948913574219002
 30
0.0
 10
15.901824747415
 20
-3.910609674800832
 30
0.0
 10
15.9032744945343
 20
-3.833971761458331
 30
0.0
 10
15.86415176774723
 20
-3.724339812993114
 30
0.0
 10
15.79510250376126
 20
-3.629839803485433
 30
0.0
 10
15.72890561739598
 20
-3.590567381537912
 30
0.0
 10
15.69579315185499
 20
-3.570922851563
 30
0.0
 11
15.901100158691
 21
-3.948913574219002
 31
0.0
 11
15.89640045165999
 21
-3.834899902344002
 31
0.0
 11
15.859199523925
 21
-3.726928710938
 31
0.0
 11
15.790092468261
 21
-3.635803222656999
 31
0.0
 11
15.69579315185499
 21
-3.570922851563
 31
0.0
  0
ARC
  5
1F95
330
1F62
100
AcDbEntity
  8
PV0001_1
  6
CONTINUOUS
 48
0.5
100
AcDbCircle
 10
14.809791564941
 20
-4.378723144531999
 30
0.0
 40
1.497893333435099
100
AcDbArc
 50
309.9138061747594
 51
86.204473212891
  0
LINE
  5
1F96
330
1F62
100
AcDbEntity
  8
PV0001_1
  6
CONTINUOUS
 48
0.5
100
AcDbLine
 10
15.92768096923799
 20
-5.534448623658001
 30
0.0
 11
15.669292449951
 21
-5.751914978028001
 31
0.0
  0
LINE
  5
1F97
330
1F62
100
AcDbEntity
  8
PV0001_1
  6
CONTINUOUS
 48
0.5
100
AcDbLine
 10
16.93259048461899
 20
1.406829833983998
 30
0.0
 11
14.674682617187
 21
1.462921142578
 31
0.0
  0
LINE
  5
1F98
330
1F62
100
AcDbEntity
  8
PV0001_1
  6
CONTINUOUS
 48
0.5
100
AcDbLine
 10
15.543582916259
 20
-3.534425735474002
 30
0.0
 11
15.695777893066
 21
-3.570865631104002
 31
0.0
  0
LINE
  5
1F99
330
1F62
100
AcDbEntity
  8
PV0001_1
  6
CONTINUOUS
 48
0.5
100
AcDbLine
 10
15.69580078125
 20
-3.570981979369999
 30
0.0
 11
15.54439163208
 21
-3.534542083741001
 31
0.0
  0
DIMENSION
  5
1F9A
330
1F62
100
AcDbEntity
  8
PV0001_1
100
AcDbDimension
  2
*D11
 10
35.117889404296
 20
-26.1591567993163
 30
0.0
 11
20.11789321899399
 21
-26.1591567993163
 31
0.0
 12
61.57566833496
 22
-30.086456298828
 32
0.0
 70
   128
  1
<>
  3
AM_JIS$0
100
AcDbAlignedDimension
 13
5.117897033691001
 23
-10.0
 33
0.0
 14
35.117889404296
 24
-9.5
 34
0.0
100
AcDbRotatedDimension
1001
ACAD
1000
DSTYLE
1002
{
1070
   284
1070
     8
1070
   271
1070
     1
1070
    45
1040
0.01
1070
   173
1070
     1
1070
     6
1000
OPEN30
1070
     7
1000
OPEN30
1070
    75
1070
     1
1002
}
  0
LINE
  5
1F9B
330
1F62
100
AcDbEntity
  8
PV0001_1
  6
CONTINUOUS
 48
0.5
100
AcDbLine
 10
6.090202331542002
 20
8.516418457030997
 30
0.0
 11
6.090202331542002
 21
1.060485839843
 31
0.0
  0
LINE
  5
1F9C
330
1F62
100
AcDbEntity
  8
PV0001_1
  6
CONTINUOUS
 48
0.5
100
AcDbLine
 10
6.281089782713998
 20
8.728820800780997
 30
0.0
 11
6.281089782713998
 21
1.175170898436999
 31
0.0
  0
DIMENSION
  5
1F9D
330
1F62
100
AcDbEntity
  8
PV0001_1
100
AcDbDimension
  2
*D14
 10
-7.885803222656988
 20
9.999999999999996
 30
0.0
 11
-7.885803222657003
 21
-0.0000000000000142
 31
0.0
 12
61.57566833496
 22
-30.086456298828
 32
0.0
 70
   128
  1
*φ<>
  3
AM_JIS$0
100
AcDbAlignedDimension
 13
5.117897033691001
 23
-10.0
 33
0.0
 14
5.117897033691001
 24
9.999999999999996
 34
0.0
 50
90.0
100
AcDbRotatedDimension
1001
ACAD
1000
DSTYLE
1002
{
1070
   284
1070
     8
1070
   271
1070
     0
1070
    45
1040
0.1
1070
    71
1070
     1
1070
   146
1040
0.5
1070
   272
1070
     1
1070
    47
1040
0.0
1070
    48
1040
0.3
1070
   173
1070
     1
1070
     6
1000
OPEN30
1070
     7
1000
OPEN30
1002
}
  0
ARC
  5
1F9E
330
1F62
100
AcDbEntity
  8
PV0001_1
  6
CONTINUOUS
 48
0.5
100
AcDbCircle
 10
10.37079620361299
 20
-6.61181640625
 30
0.0
 40
1.749966859817499
100
AcDbArc
 50
268.3037678264732
 51
86.53068304765378
  0
ARC
  5
1F9F
330
1F62
100
AcDbEntity
  8
PV0001_1
  6
CONTINUOUS
 48
0.5
100
AcDbCircle
 10
10.323204040527
 20
-6.5205078125
 30
0.0
 40
1.2500885725021
100
AcDbArc
 50
87.50128707965769
 51
267.5010803527499
  0
ARC
  5
1FA0
330
1F62
100
AcDbEntity
  8
PV0001_1
  6
CONTINUOUS
 48
0.5
100
AcDbCircle
 10
10.323204040527
 20
-6.5205078125
 30
0.0
 40
1.2499886751175
100
AcDbArc
 50
267.5010908254033
 51
87.50128707965769
  0
LINE
  5
1FA1
330
1F62
100
AcDbEntity
  8
PV0001_1
  6
CONTINUOUS
 48
0.5
100
AcDbLine
 10
5.199398040771001
 20
-8.160509109496999
 30
0.0
 11
5.117897033691001
 21
-9.286806106568
 31
0.0
  0
LINE
  5
1FA2
330
1F62
100
AcDbEntity
  8
PV0001_1
  6
CONTINUOUS
 48
0.5
100
AcDbLine
 10
5.483695983886001
 20
-9.701595306396999
 30
0.0
 11
5.331489562987997
 21
-9.665218353271999
 31
0.0
  0
LINE
  5
1FA3
330
1F62
100
AcDbEntity
  8
PV0001_1
  6
CONTINUOUS
 48
0.5
100
AcDbLine
 10
5.331504821777002
 20
-9.665216445923
 30
0.0
 11
5.482894897459999
 21
-9.70146560669
 31
0.0
  0
ARC
  5
1FA4
330
1F62
100
AcDbEntity
  8
PV0001_1
  6
CONTINUOUS
 48
0.5
100
AcDbCircle
 10
10.239295959472
 20
-6.606079101563
 30
0.0
 40
1.399960398673999
100
AcDbArc
 50
268.5305710880514
 51
86.18293079625127
  0
LINE
  5
1FA5
330
1F62
100
AcDbEntity
  8
PV0001_1
  6
CONTINUOUS
 48
0.5
100
AcDbLine
 10
8.237686157226001
 20
-2.997476577759002
 30
0.0
 11
11.22559356689399
 21
-3.127969741821999
 31
0.0
  0
LINE
  5
1FA6
330
1F62
100
AcDbEntity
  8
PV0001_1
  6
CONTINUOUS
 48
0.5
100
AcDbLine
 10
14.67467117309499
 20
1.463056564330997
 30
0.0
 11
6.281074523924999
 21
1.175214767455997
 31
0.0
  0
LINE
  5
1FA7
330
1F62
100
AcDbEntity
  8
PV0001_1
  6
CONTINUOUS
 48
0.5
100
AcDbLine
 10
14.02349472045799
 20
-2.142194747925
 30
0.0
 11
6.291889190672996
 21
-1.804670333863001
 31
0.0
  0
LINE
  5
1FA8
330
1F62
100
AcDbEntity
  8
PV0001_1
  6
CONTINUOUS
 48
0.5
100
AcDbLine
 10
6.090225219726001
 20
-1.060472488403998
 30
0.0
 11
6.173614501952997
 21
-0.0001468658450001
 31
0.0
  0
LINE
  5
1FA9
330
1F62
100
AcDbEntity
  8
PV0001_1
  6
CONTINUOUS
 48
0.5
100
AcDbLine
 10
6.090198516844999
 20
1.060464859008
 30
0.0
 11
6.291889190672996
 21
-1.804697036743
 31
0.0
  0
LINE
  5
1FAA
330
1F62
100
AcDbEntity
  8
PV0001_1
  6
CONTINUOUS
 48
0.5
100
AcDbLine
 10
6.316078186034999
 20
-3.414173126221001
 30
0.0
 11
6.350685119627996
 21
-2.607969284058
 31
0.0
  0
LINE
  5
1FAB
330
1F62
100
AcDbEntity
  8
PV0001_1
  6
CONTINUOUS
 48
0.5
100
AcDbLine
 10
6.090202331542002
 20
-3.603576660156999
 30
0.0
 11
6.090202331542002
 21
-1.060485839844002
 31
0.0
  0
LINE
  5
1FAC
330
1F62
100
AcDbEntity
  8
PV0001_1
  6
CONTINUOUS
 48
0.5
100
AcDbLine
 10
8.221263885497997
 20
-3.374153137206999
 30
0.0
 11
8.237667083739999
 21
-2.997495651244999
 31
0.0
  0
LINE
  5
1FAD
330
1F62
100
AcDbEntity
  8
PV0001_1
  6
CONTINUOUS
 48
0.5
100
AcDbLine
 10
6.281059265136001
 20
1.175161361693998
 30
0.0
 11
6.090175628662002
 21
1.060478210448998
 31
0.0
  0
LINE
  5
1FAE
330
1F62
100
AcDbEntity
  8
PV0001_1
  6
CONTINUOUS
 48
0.5
100
AcDbLine
 10
11.191375732421
 20
-3.203075408936001
 30
0.0
 11
11.22557067870999
 21
-3.127939224243
 31
0.0
  0
LINE
  5
1FAF
330
1F62
100
AcDbEntity
  8
PV0001_1
  6
CONTINUOUS
 48
0.5
100
AcDbLine
 10
11.22557830810499
 20
-3.127956390381001
 30
0.0
 11
11.212287902832
 21
-3.434797286988001
 31
0.0
  0
ARC
  5
1FB0
330
1F62
100
AcDbEntity
  8
PV0001_1
  6
CONTINUOUS
 48
0.5
100
AcDbCircle
 10
14.966590881347
 20
-4.385498046875
 30
0.0
 40
1.4993606805801
100
AcDbArc
 50
109.8247631742223
 51
129.9108673721792
  0
LINE
  5
1FB1
330
1F62
100
AcDbEntity
  8
PV0001_1
  6
CONTINUOUS
 48
0.5
100
AcDbLine
 10
13.70197677612299
 20
-3.492103576659999
 30
0.0
 11
14.005569458007
 21
-3.236545562744002
 31
0.0
  0
ARC
  5
1FB2
330
1F62
100
AcDbEntity
  8
PV0001_1
  6
CONTINUOUS
 48
0.5
100
AcDbCircle
 10
10.323204040527
 20
6.520507812499996
 30
0.0
 40
1.2499597072601
100
AcDbArc
 50
95.35711111581766
 51
262.363248134523
  0
LINE
  5
1FB3
330
1F62
100
AcDbEntity
  8
PV0001_1
  6
CONTINUOUS
 48
0.5
100
AcDbLine
 10
6.146892547607002
 20
9.083045959471998
 30
0.0
 11
13.63958740234299
 21
9.410133361815997
 31
0.0
  0
LINE
  5
1FB4
330
1F62
100
AcDbEntity
  8
PV0001_1
  6
CONTINUOUS
 48
0.5
100
AcDbLine
 10
13.63211059570299
 20
9.201148986815997
 30
0.0
 11
6.142494201659999
 21
8.874183654784996
 31
0.0
  0
LINE
  5
1FB5
330
1F62
100
AcDbEntity
  8
PV0001_1
  6
CONTINUOUS
 48
0.5
100
AcDbLine
 10
5.199375152587002
 20
8.160564422606999
 30
0.0
 11
5.852668762207002
 21
5.774002075194996
 31
0.0
  0
LINE
  5
1FB6
330
1F62
100
AcDbEntity
  8
PV0001_1
  6
CONTINUOUS
 48
0.5
100
AcDbLine
 10
5.727378845213998
 20
8.642757415770997
 30
0.0
 11
5.852684020996001
 21
5.773971557616999
 31
0.0
  0
LINE
  5
1FB7
330
1F62
100
AcDbEntity
  8
PV0001_1
  6
CONTINUOUS
 48
0.5
100
AcDbLine
 10
6.065818786621001
 20
5.639705657959002
 30
0.0
 11
5.934318542479999
 21
8.651790618895997
 31
0.0
  0
LINE
  5
1FB8
330
1F62
100
AcDbEntity
  8
PV0001_1
  6
CONTINUOUS
 48
0.5
100
AcDbLine
 10
5.852695465087002
 20
5.773956298828
 30
0.0
 11
5.873497009277002
 21
5.631301879881998
 31
0.0
  0
LINE
  5
1FB9
330
1F62
100
AcDbEntity
  8
PV0001_1
  6
CONTINUOUS
 48
0.5
100
AcDbLine
 10
6.084098815917002
 20
4.280506134033
 30
0.0
 11
6.088996887207002
 21
4.268661499023
 31
0.0
  0
LINE
  5
1FBA
330
1F62
100
AcDbEntity
  8
PV0001_1
  6
CONTINUOUS
 48
0.5
100
AcDbLine
 10
6.026096343993998
 20
4.514896392821999
 30
0.0
 11
6.030494689941001
 21
4.481803894043
 31
0.0
  0
LINE
  5
1FBB
330
1F62
100
AcDbEntity
  8
PV0001_1
  6
CONTINUOUS
 48
0.5
100
AcDbLine
 10
6.084087371826001
 20
4.280563354491999
 30
0.0
 11
6.090190887451001
 21
4.282821655273
 31
0.0
  0
LINE
  5
1FBC
330
1F62
100
AcDbEntity
  8
PV0001_1
  6
CONTINUOUS
 48
0.5
100
AcDbLine
 10
5.873489379882002
 20
5.631301879881998
 30
0.0
 11
6.065795898437002
 21
5.639724731444996
 31
0.0
  0
LINE
  5
1FBD
330
1F62
100
AcDbEntity
  8
PV0001_1
  6
CONTINUOUS
 48
0.5
100
AcDbLine
 10
5.873504638671001
 20
5.631278991699002
 30
0.0
 11
6.026107788084999
 21
4.514892578124996
 31
0.0
  0
LINE
  5
1FBE
330
1F62
100
AcDbEntity
  8
PV0001_1
  6
CONTINUOUS
 48
0.5
100
AcDbLine
 10
6.026092529296001
 20
4.514926910399996
 30
0.0
 11
6.090194702147996
 21
4.517734527588
 31
0.0
  0
LINE
  5
1FBF
330
1F62
100
AcDbEntity
  8
PV0001_1
  6
CONTINUOUS
 48
0.5
100
AcDbLine
 10
6.090194702147996
 20
5.461383819579996
 30
0.0
 11
6.065795898437002
 21
5.639774322509001
 31
0.0
  0
ARC
  5
1FC0
330
1F62
100
AcDbEntity
  8
PV0001_1
  6
CONTINUOUS
 48
0.5
100
AcDbCircle
 10
6.152503967284999
 20
8.645812988280997
 30
0.0
 40
0.2286188155413
100
AcDbArc
 50
92.50696879781894
 51
123.0501472565806
  0
ARC
  5
1FC1
330
1F62
100
AcDbEntity
  8
PV0001_1
  6
CONTINUOUS
 48
0.5
100
AcDbCircle
 10
6.138389587402002
 20
8.667419433593
 30
0.0
 40
0.2026727944613
100
AcDbArc
 50
123.0392735954199
 51
155.6521564670438
  0
ARC
  5
1FC2
330
1F62
100
AcDbEntity
  8
PV0001_1
  6
CONTINUOUS
 48
0.5
100
AcDbCircle
 10
6.166801452636001
 20
8.654602050780997
 30
0.0
 40
0.2334432005882
100
AcDbArc
 50
155.6636994867445
 51
168.5793003392897
  0
ARC
  5
1FC3
330
1F62
100
AcDbEntity
  8
PV0001_1
  6
CONTINUOUS
 48
0.5
100
AcDbCircle
 10
6.137001037597002
 20
8.660583496093
 30
0.0
 40
0.2029217779636
100
AcDbArc
 50
168.5737815464435
 51
182.4858796781369
  0
LINE
  5
1FC4
330
1F62
100
AcDbEntity
  8
PV0001_1
  6
CONTINUOUS
 48
0.5
100
AcDbLine
 10
6.281059265136001
 20
8.728832244873
 30
0.0
 11
6.090164184569999
 21
8.516426086424996
 31
0.0
  0
LINE
  5
1FC5
330
1F62
100
AcDbEntity
  8
PV0001_1
  6
CONTINUOUS
 48
0.5
100
AcDbLine
 10
5.331485748291001
 20
9.665222167968
 30
0.0
 11
5.482898712157997
 21
9.701477050780997
 31
0.0
  0
LINE
  5
1FC6
330
1F62
100
AcDbEntity
  8
PV0001_1
  6
CONTINUOUS
 48
0.5
100
AcDbLine
 10
5.199382781982002
 20
8.160560607909996
 30
0.0
 11
5.117889404296001
 21
9.286827087401999
 31
0.0
  0
LINE
  5
1FC7
330
1F62
100
AcDbEntity
  8
PV0001_1
  6
CONTINUOUS
 48
0.5
100
AcDbLine
 10
5.727302551268998
 20
8.747093200683
 30
0.0
 11
5.725593566893998
 21
8.678634643554001
 31
0.0
  0
LINE
  5
1FC8
330
1F62
100
AcDbEntity
  8
PV0001_1
  6
CONTINUOUS
 48
0.5
100
AcDbLine
 10
5.725631713867002
 20
8.678588867186999
 30
0.0
 11
5.727428436278998
 21
8.642745971679001
 31
0.0
  0
LINE
  5
1FC9
330
1F62
100
AcDbEntity
  8
PV0001_1
  6
CONTINUOUS
 48
0.5
100
AcDbLine
 10
6.146907806396001
 20
9.083030700683
 30
0.0
 11
6.102394104002996
 21
9.081504821776999
 31
0.0
  0
LINE
  5
1FCA
330
1F62
100
AcDbEntity
  8
PV0001_1
  6
CONTINUOUS
 48
0.5
100
AcDbLine
 10
13.665092468261
 20
9.411373138426998
 30
0.0
 11
13.63959503173799
 21
9.410152435301998
 31
0.0
  0
LINE
  5
1FCB
330
1F62
100
AcDbEntity
  8
PV0001_1
  6
CONTINUOUS
 48
0.5
100
AcDbLine
 10
13.88318252563399
 20
9.160827636718
 30
0.0
 11
14.00918197631799
 21
9.093379974364996
 31
0.0
  0
LINE
  5
1FCC
330
1F62
100
AcDbEntity
  8
PV0001_1
  6
CONTINUOUS
 48
0.5
100
AcDbLine
 10
14.000007629394
 20
9.355587005614996
 30
0.0
 11
13.883209228515
 21
9.160808563231999
 31
0.0
  0
LINE
  5
1FCD
330
1F62
100
AcDbEntity
  8
PV0001_1
  6
CONTINUOUS
 48
0.5
100
AcDbLine
 10
13.635818481445
 20
9.376552581786999
 30
0.0
 11
13.63961410522399
 21
9.410091400145997
 31
0.0
  0
LINE
  5
1FCE
330
1F62
100
AcDbEntity
  8
PV0001_1
  6
CONTINUOUS
 48
0.5
100
AcDbLine
 10
14.325283050537
 20
9.105255126953
 30
0.0
 11
14.296752929687
 21
9.141052246093
 31
0.0
  0
LINE
  5
1FCF
330
1F62
100
AcDbEntity
  8
PV0001_1
  6
CONTINUOUS
 48
0.5
100
AcDbLine
 10
14.296802520751
 20
9.140972137450997
 30
0.0
 11
14.237422943115
 21
9.100997924804001
 31
0.0
  0
LINE
  5
1FD0
330
1F62
100
AcDbEntity
  8
PV0001_1
  6
CONTINUOUS
 48
0.5
100
AcDbLine
 10
35.117897033691
 20
9.499999999999996
 30
0.0
 11
35.117897033691
 21
-9.5
 31
0.0
  0
LINE
  5
1FD1
330
1F62
100
AcDbEntity
  8
PV0001_1
  6
CONTINUOUS
 48
0.5
100
AcDbLine
 10
16.932594299316
 20
9.495727539061999
 30
0.0
 11
16.932594299316
 21
1.406921386718
 31
0.0
  0
LINE
  5
1FD2
330
1F62
100
AcDbEntity
  8
PV0001_1
  6
CONTINUOUS
 48
0.5
100
AcDbLine
 10
35.983894348144
 20
9.999999999999996
 30
0.0
 11
35.983894348144
 21
-10.0
 31
0.0
  0
LINE
  5
1FD3
330
1F62
100
AcDbEntity
  8
PV0001_1
  6
CONTINUOUS
 48
0.5
100
AcDbLine
 10
28.34511184692299
 20
-8.846775054931999
 30
0.0
 11
26.721622467041
 21
-7.38017654419
 31
0.0
  0
ARC
  5
1FD4
330
1F62
100
AcDbEntity
  8
PV0001_1
  6
CONTINUOUS
 48
0.5
100
AcDbCircle
 10
14.966590881347
 20
-4.385498046875
 30
0.0
 40
1.497893333435099
100
AcDbArc
 50
309.9138061747594
 51
56.96731913098816
  0
LINE
  5
1FD5
330
1F62
100
AcDbEntity
  8
PV0001_1
  6
CONTINUOUS
 48
0.5
100
AcDbLine
 10
15.791175842285
 20
-5.073911666869999
 30
0.0
 11
15.901084899902
 21
-3.948896408081001
 31
0.0
  0
LINE
  5
1FD6
330
1F62
100
AcDbEntity
  8
PV0001_1
  6
CONTINUOUS
 48
0.5
100
AcDbLine
 10
15.770889282226
 20
-5.527576446533998
 30
0.0
 11
15.698692321777
 21
-5.588359832764002
 31
0.0
  0
LINE
  5
1FD7
330
1F62
100
AcDbEntity
  8
PV0001_1
  6
CONTINUOUS
 48
0.5
100
AcDbLine
 10
28.800895690917
 20
-9.5
 30
0.0
 11
35.117897033691
 21
-9.5
 31
0.0
  0
LINE
  5
1FD8
330
1F62
100
AcDbEntity
  8
PV0001_1
  6
CONTINUOUS
 48
0.5
100
AcDbLine
 10
35.117904663085
 20
-9.50002861023
 30
0.0
 11
35.983896255493
 21
-10.000024795533
 31
0.0
  0
LINE
  5
1FD9
330
1F62
100
AcDbEntity
  8
PV0001_1
  6
CONTINUOUS
 48
0.5
100
AcDbLine
 10
35.117897033691
 20
9.499999999999996
 30
0.0
 11
28.800895690917
 21
9.499999999999996
 31
0.0
  0
LINE
  5
1FDA
330
1F62
100
AcDbEntity
  8
PV0001_1
  6
CONTINUOUS
 48
0.5
100
AcDbLine
 10
35.98390960693299
 20
9.999954223631998
 30
0.0
 11
35.11791801452599
 21
9.499958038329996
 31
0.0
  0
LINE
  5
1FDB
330
1F62
100
AcDbEntity
  8
PV0001_1
  6
AM_ISO08W050
100
AcDbLine
 10
123.581604003905
 20
0.0
 30
0.0
 11
92.49722099304099
 21
0.0
 31
0.0
  0
MTEXT
  5
1FDC
330
1F62
100
AcDbEntity
  8
PV0001_1
 62
     2
100
AcDbMText
 10
64.85091102123162
 20
0.0598468780510011
 30
0.0
 40
3.479999999999999
 41
0.0
 71
     4
 72
     5
  1
\T1.40;\W0.59;レ－ザマ－キング
1001
ACAD
1000
MTEXTBEGIN
1070
    73
1070
     1
1070
    44
1040
1.0
1070
    74
1070
     0
1000
MTEXTEND
  0
LINE
  5
1FDD
330
1F62
100
AcDbEntity
  8
PV0001_1
  6
CONTINUOUS
 48
0.5
100
AcDbLine
 10
63.37902450561429
 20
-2.520147323609002
 30
0.0
 11
91.68922424316299
 21
-2.520147323609002
 31
0.0
  0
LINE
  5
1FDE
330
1F62
100
AcDbEntity
  8
PV0001_1
  6
CONTINUOUS
 48
0.5
100
AcDbLine
 10
115.1178970336899
 20
7.661499023436999
 30
0.0
 11
115.1178970336899
 21
-7.661499023438
 31
0.0
  0
LINE
  5
1FDF
330
1F62
100
AcDbEntity
  8
PV0001_1
  6
CONTINUOUS
 48
0.5
100
AcDbLine
 10
112.1178970336899
 20
9.999999999999996
 30
0.0
 11
112.1178970336899
 21
-10.0
 31
0.0
  0
DIMENSION
  5
1FE0
330
1F62
100
AcDbEntity
  8
PV0001_1
100
AcDbDimension
  2
*D13
 10
132.646881103514
 20
-10.0
 30
0.0
 11
132.646881103514
 21
3.163070678710997
 31
0.0
 12
61.57566833496
 22
-30.086456298828
 32
0.0
 70
   128
  1
φ<>
  3
AM_JIS$0
100
AcDbAlignedDimension
 13
112.117893218993
 23
9.999999999999996
 33
0.0
 14
112.117893218993
 24
-10.0
 34
0.0
 50
90.0
100
AcDbRotatedDimension
1001
ACAD
1000
DSTYLE
1002
{
1070
   284
1070
     8
1070
   271
1070
     0
1070
    45
1040
0.1
1070
    71
1070
     1
1070
   146
1040
0.5
1070
   272
1070
     3
1070
    47
1040
0.0
1070
    48
1040
0.021
1070
   173
1070
     1
1070
     6
1000
OPEN30
1070
     7
1000
OPEN30
1002
}
  0
ARC
  5
1FE1
330
1F62
100
AcDbEntity
  8
PV0001_1
  6
CONTINUOUS
 48
0.5
100
AcDbCircle
 10
113.1178970336899
 20
-7.661499023438
 30
0.0
 40
2.000036954879799
100
AcDbArc
 50
284.9985874788711
 51
0.0
  0
LINE
  5
1FE2
330
1F62
100
AcDbEntity
  8
PV0001_1
  6
CONTINUOUS
 48
0.5
100
AcDbLine
 10
112.117881774901
 20
-9.999946594238998
 30
0.0
 11
113.635486602782
 21
-9.593328475951999
 31
0.0
  0
ARC
  5
1FE3
330
1F62
100
AcDbEntity
  8
PV0001_1
  6
CONTINUOUS
 48
0.5
100
AcDbCircle
 10
113.1178970336899
 20
7.661499023436999
 30
0.0
 40
2.0
100
AcDbArc
 50
0.0
 51
75.00141252112884
  0
LINE
  5
1FE4
330
1F62
100
AcDbEntity
  8
PV0001_1
  6
CONTINUOUS
 48
0.5
100
AcDbLine
 10
113.6355171203599
 20
9.593399047850997
 30
0.0
 11
112.1179122924789
 21
10.000015258789
 31
0.0
  0
ENDBLK
  5
1FE6
330
1F62
100
AcDbEntity
  8
0
100
AcDbBlockEnd
  0
BLOCK
  5
205A
330
1FE8
100
AcDbEntity
  8
0
100
AcDbBlockBegin
  2
A$C3E9B46D7
 70
     0
 10
0.0
 20
0.0
 30
0.0
  3
A$C3E9B46D7
  1

  0
LINE
  5
1FE9
330
1FE8
100
AcDbEntity
  8
PV0001_1
  6
CONTINUOUS
100
AcDbLine
 10
112.1178970336899
 20
9.999998092651999
 30
0.0
 11
35.983894348144
 21
9.999998092651999
 31
0.0
  0
LINE
  5
1FEA
330
1FE8
100
AcDbEntity
  8
PV0001_1
  6
CONTINUOUS
100
AcDbLine
 10
35.983894348144
 20
-10.00000190734799
 30
0.0
 11
112.1178970336899
 21
-10.00000190734799
 31
0.0
  0
LINE
  5
1FEB
330
1FE8
100
AcDbEntity
  8
PV0001_1
  6
AM_ISO08W050
100
AcDbLine
 10
123.581604003905
 20
0.0
 30
0.0
 11
0.0
 21
0.0
 31
0.0
  0
SPLINE
  5
1FEC
330
1FE8
100
AcDbEntity
  8
PV0001_1
  6
CONTINUOUS
 48
0.5
100
AcDbSpline
210
0.0
220
0.0
230
1.0
 70
     8
 71
     3
 72
    11
 73
     7
 74
     5
 42
0.0000000001
 43
0.0000000001
 44
0.0000000001
 40
0.0
 40
0.0
 40
0.0
 40
0.0
 40
1.228613775715038
 40
2.486926599867259
 40
3.774949039818753
 40
5.092741852656299
 40
5.092741852656299
 40
5.092741852656299
 40
5.092741852656299
 10
22.02419281005799
 20
-9.500001907347996
 30
0.0
 10
21.61468640404714
 20
-9.494850741510489
 30
0.0
 10
20.78577467112137
 20
-9.484423891677908
 30
0.0
 10
19.52767241381168
 20
-9.460887209055949
 30
0.0
 10
18.23994887276059
 20
-9.431985219558342
 30
0.0
 10
17.37168567437169
 20
-9.407557793678863
 30
0.0
 10
16.932594299316
 20
-9.395204544067002
 30
0.0
 11
22.02419281005799
 21
-9.500001907347996
 31
0.0
 11
20.795692443847
 21
-9.483308792113998
 31
0.0
 11
19.53759002685499
 21
-9.460298538207997
 31
0.0
 11
18.249900817871
 21
-9.431001663207997
 31
0.0
 11
16.932594299316
 21
-9.395204544067002
 31
0.0
  0
SPLINE
  5
1FED
330
1FE8
100
AcDbEntity
  8
PV0001_1
  6
CONTINUOUS
 48
0.5
100
AcDbSpline
210
0.0
220
0.0
230
1.0
 70
     8
 71
     3
 72
    11
 73
     7
 74
     5
 42
0.0000000001
 43
0.0000000001
 44
0.0000000001
 40
0.0
 40
0.0
 40
0.0
 40
0.0
 40
1.228613775715052
 40
2.486926599867272
 40
3.774949039818767
 40
5.092741852656312
 40
5.092741852656312
 40
5.092741852656312
 40
5.092741852656312
 10
22.02419281005799
 20
9.499998092651999
 30
0.0
 10
21.61468640404714
 20
9.494846926814069
 30
0.0
 10
20.78577467112137
 20
9.484420076980635
 30
0.0
 10
19.52767241381168
 20
9.460883394359028
 30
0.0
 10
18.23994887276059
 20
9.431981404861325
 30
0.0
 10
17.37168567437169
 20
9.407553978981859
 30
0.0
 10
16.932594299316
 20
9.395200729369999
 30
0.0
 11
22.02419281005799
 21
9.499998092651999
 31
0.0
 11
20.795692443847
 21
9.483304977416999
 31
0.0
 11
19.53759002685499
 21
9.460294723511001
 31
0.0
 11
18.249900817871
 21
9.430997848511001
 31
0.0
 11
16.932594299316
 21
9.395200729369999
 31
0.0
  0
SPLINE
  5
1FEE
330
1FE8
100
AcDbEntity
  8
PV0001_1
  6
CONTINUOUS
 48
0.5
100
AcDbSpline
210
0.0
220
0.0
230
1.0
 70
     8
 71
     3
 72
    11
 73
     7
 74
     5
 42
0.0000000001
 43
0.0000000001
 44
0.0000000001
 40
0.0
 40
0.0
 40
0.0
 40
0.0
 40
1.15978001515071
 40
2.450223000168572
 40
3.885838403465919
 40
5.43479288192718
 40
5.43479288192718
 40
5.43479288192718
 40
5.43479288192718
 10
27.262596130371
 20
8.427396774291999
 30
0.0
 10
26.93383566943713
 20
8.636084841405578
 30
0.0
 10
26.23927598363196
 20
9.076972160744297
 30
0.0
 10
24.95284742838584
 20
9.349573623252954
 30
0.0
 10
23.53683527985899
 20
9.486483675123785
 30
0.0
 10
22.54101242802853
 20
9.495380665703155
 30
0.0
 10
22.02419281005799
 20
9.499998092651999
 30
0.0
 11
27.262596130371
 21
8.427396774291999
 31
0.0
 11
26.25019073486299
 21
8.99319267273
 31
0.0
 11
25.00080108642499
 21
9.316099166869999
 31
0.0
 11
23.57270050048799
 21
9.462797164916999
 31
0.0
 11
22.02419281005799
 21
9.499998092651999
 31
0.0
  0
ELLIPSE
  5
1FEF
330
1FE8
100
AcDbEntity
  8
PV0001_1
  6
CONTINUOUS
 48
0.5
100
AcDbEllipse
 10
15.896690368652
 20
0.04559135437
 30
0.0
 11
0.7592921453830001
 21
9.435790842873
 31
0.0
210
0.0
220
0.0
230
1.0
 40
0.1310966005267
 41
1.7353762619833
 42
1.810811378966633
  0
ELLIPSE
  5
1FF0
330
1FE8
100
AcDbEntity
  8
PV0001_1
  6
CONTINUOUS
 48
0.5
100
AcDbEllipse
 10
16.231895446777
 20
0.1615886688239989
 30
0.0
 11
2.685897870719997
 21
9.450835832887999
 31
0.0
210
0.0
220
0.0
230
1.0
 40
0.1234903931151
 41
1.636103407566566
 42
1.771840794579473
  0
ELLIPSE
  5
1FF1
330
1FE8
100
AcDbEntity
  8
PV0001_1
  6
CONTINUOUS
 48
0.5
100
AcDbEllipse
 10
13.571189880371
 20
8.321012496948998
 30
0.0
 11
-19.91874638526099
 21
1.817472566394002
 31
0.0
210
0.0
220
0.0
230
1.0
 40
0.2642357223190999
 41
1.617625816086598
 42
2.315663934713233
  0
ELLIPSE
  5
1FF2
330
1FE8
100
AcDbEntity
  8
PV0001_1
  6
CONTINUOUS
 48
0.5
100
AcDbEllipse
 10
17.197898864746
 20
-0.0000019073480004
 30
0.0
 11
10.71824643485999
 21
7.739563206407002
 31
0.0
210
0.0
220
0.0
230
0.9999999999999998
 40
0.513958788692
 41
5.70402749886466
 42
6.422134289379855
  0
SPLINE
  5
1FF3
330
1FE8
100
AcDbEntity
  8
PV0001_1
  6
CONTINUOUS
 48
0.5
100
AcDbSpline
210
0.0
220
0.0
230
1.0
 70
     8
 71
     3
 72
    11
 73
     7
 74
     5
 42
0.0000000001
 43
0.0000000001
 44
0.0000000001
 40
0.0
 40
0.0
 40
0.0
 40
0.0
 40
0.798773918201163
 40
1.808709744965186
 40
2.821327845642352
 40
3.609191183382624
 40
3.609191183382624
 40
3.609191183382624
 40
3.609191183382624
 10
8.719001770018998
 20
-6.216493606567002
 30
0.0
 10
8.760348966282025
 20
-6.497887714165743
 30
0.0
 10
8.853973801925558
 20
-7.135064583605597
 30
0.0
 10
9.866583166020014
 20
-7.489449896243925
 30
0.0
 10
10.91806652620908
 20
-7.307384905651455
 30
0.0
 10
11.1207877953235
 20
-6.700607567944644
 30
0.0
 10
11.20949554443299
 20
-6.435091018676001
 30
0.0
 11
8.719001770018998
 21
-6.216493606567002
 31
0.0
 11
8.951393127441001
 21
-6.980714797972996
 31
0.0
 11
9.873298645018998
 21
-7.393098831176001
 31
0.0
 11
10.85320281982399
 21
-7.137788772582997
 31
0.0
 11
11.20949554443299
 21
-6.435091018676001
 31
0.0
  0
SPLINE
  5
1FF4
330
1FE8
100
AcDbEntity
  8
PV0001_1
  6
CONTINUOUS
 48
0.5
100
AcDbSpline
210
0.0
220
0.0
230
1.0
 70
     8
 71
     3
 72
    11
 73
     7
 74
     5
 42
0.0000000001
 43
0.0000000001
 44
0.0000000001
 40
0.0
 40
0.0
 40
0.0
 40
0.0
 40
0.9961789488582715
 40
2.160646917443645
 40
3.312153735043101
 40
4.317108358900965
 40
4.317108358900965
 40
4.317108358900965
 40
4.317108358900965
 10
11.20949554443299
 20
-6.435091018676001
 30
0.0
 10
11.17350860718537
 20
-6.106823763841322
 30
0.0
 10
11.095455296461
 20
-5.39483358068283
 30
0.0
 10
10.12679177365817
 20
-4.408143477891572
 30
0.0
 10
8.974632037905237
 20
-5.193172054114109
 30
0.0
 10
8.800261817542889
 20
-5.891198958667371
 30
0.0
 10
8.719001770018998
 20
-6.216493606567002
 30
0.0
 11
11.20949554443299
 21
-6.435091018676001
 31
0.0
 11
10.98380279541
 21
-5.464815139769999
 31
0.0
 11
10.091102600097
 21
-4.71710395813
 31
0.0
 11
9.087394714354999
 21
-5.281496047972996
 31
0.0
 11
8.719001770018998
 21
-6.216493606567002
 31
0.0
  0
SPLINE
  5
1FF5
330
1FE8
100
AcDbEntity
  8
PV0001_1
  6
CONTINUOUS
 48
0.5
100
AcDbSpline
210
0.0
220
0.0
230
1.0
 70
     8
 71
     3
 72
    11
 73
     7
 74
     5
 42
0.0000000001
 43
0.0000000001
 44
0.0000000001
 40
0.0
 40
0.0
 40
0.0
 40
0.0
 40
0.4018687264004896
 40
0.8045232738622303
 40
1.20417067591188
 40
1.599921909220334
 40
1.599921909220334
 40
1.599921909220334
 40
1.599921909220334
 10
27.458503723144
 20
-1.112215042113998
 30
0.0
 10
27.59339824946028
 20
-1.113987921505622
 30
0.0
 10
27.86345107718374
 20
-1.11753714700791
 30
0.0
 10
28.24913171280068
 20
-1.002157322156826
 30
0.0
 10
28.61505747514847
 20
-0.794515249314748
 30
0.0
 10
28.71203887794694
 20
-0.5392234673487972
 30
0.0
 10
28.760292053222
 20
-0.4122028350830007
 30
0.0
 11
27.458503723144
 21
-1.112215042113998
 31
0.0
 11
27.86009979247999
 21
-1.097414016723
 31
0.0
 11
28.24709320068299
 21
-0.9862079620360013
 31
0.0
 11
28.579399108886
 21
-0.7641925811760011
 31
0.0
 11
28.760292053222
 21
-0.4122028350830007
 31
0.0
  0
ELLIPSE
  5
1FF6
330
1FE8
100
AcDbEntity
  8
PV0001_1
  6
CONTINUOUS
 48
0.5
100
AcDbEllipse
 10
18.40180206298799
 20
-0.0000019073480004
 30
0.0
 11
10.005141863294
 21
3.280090165878998
 31
0.0
210
0.0
220
0.0
230
0.9999999999999998
 40
0.8911223410195999
 41
5.887179355459
 42
6.303547972499467
  0
SPLINE
  5
1FF7
330
1FE8
100
AcDbEntity
  8
PV0001_1
  6
CONTINUOUS
 48
0.5
100
AcDbSpline
210
0.0
220
0.0
230
1.0
 70
     8
 71
     3
 72
    11
 73
     7
 74
     5
 42
0.0000000001
 43
0.0000000001
 44
0.0000000001
 40
0.0
 40
0.0
 40
0.0
 40
0.0
 40
0.1657318888190096
 40
0.3306748907571815
 40
0.4948842880511414
 40
0.6586317873161934
 40
0.6586317873161934
 40
0.6586317873161934
 40
0.6586317873161934
 10
9.749992370604999
 20
1.356901168823998
 30
0.0
 10
9.69552290829373
 20
1.366128444746149
 30
0.0
 10
9.586843259327373
 20
1.38453907458502
 30
0.0
 10
9.424842906301474
 20
1.415714417689589
 30
0.0
 10
9.26401384836339
 20
1.449365904409431
 30
0.0
 10
9.157549971411093
 20
1.47420087798799
 30
0.0
 10
9.104393005371001
 20
1.486600875855
 30
0.0
 11
9.749992370604999
 21
1.356901168823998
 31
0.0
 11
9.586692810057996
 21
1.385190963744999
 31
0.0
 11
9.424690246582002
 21
1.416196823119999
 31
0.0
 11
9.263999938963998
 21
1.450010299683
 31
0.0
 11
9.104393005371001
 21
1.486600875855
 31
0.0
  0
SPLINE
  5
1FF8
330
1FE8
100
AcDbEntity
  8
PV0001_1
  6
CONTINUOUS
 48
0.5
100
AcDbSpline
210
0.0
220
0.0
230
1.0
 70
     8
 71
     3
 72
    11
 73
     7
 74
     5
 42
0.0000000001
 43
0.0000000001
 44
0.0000000001
 40
0.0
 40
0.0
 40
0.0
 40
0.0
 40
0.8543137391271296
 40
1.680098218378923
 40
2.27353504847168
 40
2.499889311813175
 40
2.499889311813175
 40
2.499889311813175
 40
2.499889311813175
 10
9.749992370604999
 20
1.356901168823998
 30
0.0
 10
10.0304904141263
 20
1.304560509760292
 30
0.0
 10
10.58211944874818
 20
1.201627074402504
 30
0.0
 10
11.32762141302999
 20
1.106944338860176
 30
0.0
 10
11.88531811095398
 20
1.026567149078091
 30
0.0
 10
12.14859629007827
 20
1.105733341057247
 30
0.0
 10
12.22129058837799
 20
1.127592086791999
 30
0.0
 11
9.749992370604999
 21
1.356901168823998
 31
0.0
 11
10.59130096435499
 21
1.208402633666999
 31
0.0
 11
11.40909576415999
 21
1.093809127808
 31
0.0
 11
12.002098083496
 21
1.071104049683
 31
0.0
 11
12.22129058837799
 21
1.127592086791999
 31
0.0
  0
SPLINE
  5
1FF9
330
1FE8
100
AcDbEntity
  8
PV0001_1
  6
CONTINUOUS
 48
0.5
100
AcDbSpline
210
0.0
220
0.0
230
1.0
 70
     8
 71
     3
 72
    11
 73
     7
 74
     5
 42
0.0000000001
 43
0.0000000001
 44
0.0000000001
 40
0.0
 40
0.0
 40
0.0
 40
0.0
 40
0.1676029092799893
 40
0.3406426526721138
 40
0.5166934593298445
 40
0.6933147521350272
 40
0.6933147521350272
 40
0.6933147521350272
 40
0.6933147521350272
 10
11.10929107665999
 20
1.252592086791999
 30
0.0
 10
11.05342714418325
 20
1.251919448104473
 30
0.0
 10
10.939887121344
 20
1.250552351150171
 30
0.0
 10
10.76769569002961
 20
1.246781321933784
 30
0.0
 10
10.59250188682557
 20
1.24288593503264
 30
0.0
 10
10.47496370483988
 20
1.240751896522027
 30
0.0
 10
10.41609954833899
 20
1.239683151244999
 30
0.0
 11
11.10929107665999
 21
1.252592086791999
 31
0.0
 11
10.941703796386
 21
1.250303268433
 31
0.0
 11
10.768699645996
 21
1.246793746948998
 31
0.0
 11
10.59268951416
 21
1.243009567261001
 31
0.0
 11
10.41609954833899
 21
1.239683151244999
 31
0.0
  0
SPLINE
  5
1FFA
330
1FE8
100
AcDbEntity
  8
PV0001_1
  6
CONTINUOUS
 48
0.5
100
AcDbSpline
210
0.0
220
0.0
230
1.0
 70
     8
 71
     3
 72
    11
 73
     7
 74
     5
 42
0.0000000001
 43
0.0000000001
 44
0.0000000001
 40
0.0
 40
0.0
 40
0.0
 40
0.0
 40
0.0890812352719113
 40
0.3184692279545994
 40
0.6766810046103727
 40
1.131915457254049
 40
1.131915457254049
 40
1.131915457254049
 40
1.131915457254049
 10
12.22129058837799
 20
1.127592086791999
 30
0.0
 10
12.19714008652923
 20
1.145450956195883
 30
0.0
 10
12.11080100900054
 20
1.209297178510115
 30
0.0
 10
11.87479745878656
 20
1.220975982379553
 30
0.0
 10
11.53406454865026
 20
1.255980229530855
 30
0.0
 10
11.26171045355385
 20
1.253807837395878
 30
0.0
 10
11.10929107665999
 20
1.252592086791999
 30
0.0
 11
12.22129058837799
 21
1.127592086791999
 31
0.0
 11
12.14690399169899
 21
1.176603317261001
 31
0.0
 11
11.921699523925
 21
1.220212936401999
 31
0.0
 11
11.564491271972
 21
1.247007369994999
 31
0.0
 11
11.10929107665999
 21
1.252592086791999
 31
0.0
  0
SPLINE
  5
1FFB
330
1FE8
100
AcDbEntity
  8
PV0001_1
  6
CONTINUOUS
 48
0.5
100
AcDbSpline
210
0.0
220
0.0
230
1.0
 70
     8
 71
     3
 72
    11
 73
     7
 74
     5
 42
0.0000000001
 43
0.0000000001
 44
0.0000000001
 40
0.0
 40
0.0
 40
0.0
 40
0.0
 40
1.305975351285511
 40
2.610714030416489
 40
3.914971035068667
 40
5.219634361859753
 40
5.219634361859753
 40
5.219634361859753
 40
5.219634361859753
 10
14.212394714355
 20
0.4215068817139987
 30
0.0
 10
13.78300957948486
 20
0.4933093683052038
 30
0.0
 10
12.92464590902637
 20
0.6368463492887521
 30
0.0
 10
11.644370627565
 20
0.890410042580258
 30
0.0
 10
10.36986472503062
 20
1.169507633833994
 30
0.0
 10
9.526260707178614
 20
1.380892154599571
 30
0.0
 10
9.104393005371001
 20
1.486600875855
 30
0.0
 11
14.212394714355
 21
0.4215068817139987
 31
0.0
 11
12.92539215087799
 21
0.6433086395269996
 31
0.0
 11
11.64510345458899
 21
0.8947124481199999
 31
0.0
 11
10.37149810790999
 21
1.17580986023
 31
0.0
 11
9.104393005371001
 21
1.486600875855
 31
0.0
  0
SPLINE
  5
1FFC
330
1FE8
100
AcDbEntity
  8
PV0001_1
  6
CONTINUOUS
 48
0.5
100
AcDbSpline
210
0.0
220
0.0
230
1.0
 70
     8
 71
     3
 72
    11
 73
     7
 74
     5
 42
0.0000000001
 43
0.0000000001
 44
0.0000000001
 40
0.0
 40
0.0
 40
0.0
 40
0.0
 40
0.0201217090741806
 40
0.0631454443987006
 40
0.1333570490963034
 40
0.2255517297113407
 40
0.2255517297113407
 40
0.2255517297113407
 40
0.2255517297113407
 10
15.902397155761
 20
1.269498825073998
 30
0.0
 10
15.90005756630639
 20
1.276063092669888
 30
0.0
 10
15.89271552516679
 20
1.296662913140719
 30
0.0
 10
15.84419898810501
 20
1.308880275137714
 30
0.0
 10
15.78093737110488
 20
1.326613941842822
 30
0.0
 10
15.72662510126005
 20
1.333552891370776
 30
0.0
 10
15.69579315185499
 20
1.337491989136001
 30
0.0
 11
15.902397155761
 21
1.269498825073998
 31
0.0
 11
15.89379119873
 21
1.287687301636001
 31
0.0
 11
15.85500335693299
 21
1.306303024291999
 31
0.0
 11
15.786903381347
 21
1.323392868041999
 31
0.0
 11
15.69579315185499
 21
1.337491989136001
 31
0.0
  0
SPLINE
  5
1FFD
330
1FE8
100
AcDbEntity
  8
PV0001_1
  6
CONTINUOUS
 48
0.5
100
AcDbSpline
210
0.0
220
0.0
230
1.0
 70
     8
 71
     3
 72
    11
 73
     7
 74
     5
 42
0.0000000001
 43
0.0000000001
 44
0.0000000001
 40
0.0
 40
0.0
 40
0.0
 40
0.0
 40
0.2468442693278479
 40
0.4930690938254374
 40
0.7389464046001577
 40
0.9842367410928517
 40
0.9842367410928517
 40
0.9842367410928517
 40
0.9842367410928517
 10
15.04380035400299
 20
0.449186325073999
 30
0.0
 10
15.10614781408921
 20
0.5028801931776831
 30
0.0
 10
15.23068627605449
 20
0.6101331869861131
 30
0.0
 10
15.41769207280257
 20
0.7704459853018112
 30
0.0
 10
15.60438395355122
 20
0.9303290528928105
 30
0.0
 10
15.72897168179206
 20
1.036550465931603
 30
0.0
 10
15.791191101074
 20
1.089597702026999
 30
0.0
 11
15.04380035400299
 21
0.449186325073999
 31
0.0
 11
15.23090362548799
 21
0.6101970672610016
 31
0.0
 11
15.41779327392499
 21
0.7705059051519996
 31
0.0
 11
15.60459136962799
 21
0.9303874969489989
 31
0.0
 11
15.791191101074
 21
1.089597702026999
 31
0.0
  0
SPLINE
  5
1FFE
330
1FE8
100
AcDbEntity
  8
PV0001_1
  6
CONTINUOUS
 48
0.5
100
AcDbSpline
210
0.0
220
0.0
230
1.0
 70
     8
 71
     3
 72
     9
 73
     5
 74
     3
 42
0.0000000001
 43
0.0000000001
 44
0.0000000001
 40
0.0
 40
0.0
 40
0.0
 40
0.0
 40
1.025769505779908
 40
2.046723377018468
 40
2.046723377018468
 40
2.046723377018468
 40
2.046723377018468
 10
16.932594299316
 20
-0.2847919464110013
 30
0.0
 10
16.5917277260521
 20
-0.2579324482451298
 30
0.0
 10
15.91159483068694
 20
-0.2043395480065168
 30
0.0
 10
15.23146772082358
 20
-0.1506732761176167
 30
0.0
 10
14.892204284667
 20
-0.1239032745360014
 30
0.0
 11
16.932594299316
 21
-0.2847919464110013
 31
0.0
 11
15.90999603271399
 21
-0.2041950225830007
 31
0.0
 11
14.892204284667
 21
-0.1239032745360014
 31
0.0
  0
SPLINE
  5
1FFF
330
1FE8
100
AcDbEntity
  8
PV0001_1
  6
CONTINUOUS
 48
0.5
100
AcDbSpline
210
0.0
220
0.0
230
1.0
 70
     8
 71
     3
 72
    11
 73
     7
 74
     5
 42
0.0000000001
 43
0.0000000001
 44
0.0000000001
 40
0.0
 40
0.0
 40
0.0
 40
0.0
 40
0.0194641689855988
 40
0.0623420857430298
 40
0.1323762307598238
 40
0.2243748917294151
 40
0.2243748917294151
 40
0.2243748917294151
 40
0.2243748917294151
 10
5.116996765136001
 20
2.099210739136001
 30
0.0
 10
5.120392045369069
 20
2.105023759529299
 30
0.0
 10
5.131266840566754
 20
2.123642371813905
 30
0.0
 10
5.180769667762504
 20
2.126984815975637
 30
0.0
 10
5.245897124193426
 20
2.134604172165398
 30
0.0
 10
5.300491868676421
 20
2.132623129318564
 30
0.0
 10
5.331489562987997
 20
2.131498336791999
 30
0.0
 11
5.116996765136001
 21
2.099210739136001
 31
0.0
 11
5.128395080566001
 21
2.114988327026999
 31
0.0
 11
5.169700622557996
 21
2.12649345398
 31
0.0
 11
5.239494323729999
 21
2.132291793823998
 31
0.0
 11
5.331489562987997
 21
2.131498336791999
 31
0.0
  0
SPLINE
  5
2000
330
1FE8
100
AcDbEntity
  8
PV0001_1
  6
CONTINUOUS
 48
0.5
100
AcDbSpline
210
0.0
220
0.0
230
1.0
 70
     8
 71
     3
 72
    11
 73
     7
 74
     5
 42
0.0000000001
 43
0.0000000001
 44
0.0000000001
 40
0.0
 40
0.0
 40
0.0
 40
0.0
 40
0.0185468556782458
 40
0.0338825459893326
 40
0.0460107878899341
 40
0.0549255387042955
 40
0.0549255387042955
 40
0.0549255387042955
 40
0.0549255387042955
 10
14.205497741699
 20
-2.074312210083
 30
0.0
 10
14.2116605880139
 20
-2.074804695729082
 30
0.0
 10
14.22291925780205
 20
-2.075704399044938
 30
0.0
 10
14.23823113751126
 20
-2.076592372440029
 30
0.0
 10
14.25032659383489
 20
-2.07745719031041
 30
0.0
 10
14.25732655660175
 20
-2.077906178384508
 30
0.0
 10
14.260292053222
 20
-2.078096389769999
 30
0.0
 11
14.205497741699
 21
-2.074312210083
 31
0.0
 11
14.223991394042
 21
-2.075716018676001
 31
0.0
 11
14.239295959472
 21
-2.076692581176001
 31
0.0
 11
14.25139617919899
 21
-2.077516555786001
 31
0.0
 11
14.260292053222
 21
-2.078096389769999
 31
0.0
  0
SPLINE
  5
2001
330
1FE8
100
AcDbEntity
  8
PV0001_1
  6
CONTINUOUS
 48
0.5
100
AcDbSpline
210
0.0
220
0.0
230
1.0
 70
     8
 71
     3
 72
    11
 73
     7
 74
     5
 42
0.0000000001
 43
0.0000000001
 44
0.0000000001
 40
0.0
 40
0.0
 40
0.0
 40
0.0
 40
0.0092015052799635
 40
0.0165289022539171
 40
0.0222187121670265
 40
0.0263362392141606
 40
0.0263362392141606
 40
0.0263362392141606
 40
0.0263362392141606
 10
5.753196716307996
 20
-1.213014602661001
 30
0.0
 10
5.750123713985653
 20
-1.212972307709131
 30
0.0
 10
5.744603600323089
 20
-1.212896332191646
 30
0.0
 10
5.737261166132395
 20
-1.213741688684064
 30
0.0
 10
5.7315238451127
 20
-1.214410504633183
 30
0.0
 10
5.728550771112734
 20
-1.215813160635077
 30
0.0
 10
5.727302551268998
 20
-1.216402053833
 30
0.0
 11
5.753196716307996
 21
-1.213014602661001
 31
0.0
 11
5.743995666502996
 21
-1.213106155394999
 31
0.0
 11
5.736701965332002
 21
-1.213808059691999
 31
0.0
 11
5.731101989746001
 21
-1.214815139769999
 31
0.0
 11
5.727302551268998
 21
-1.216402053833
 31
0.0
  0
SPLINE
  5
2002
330
1FE8
100
AcDbEntity
  8
PV0001_1
  6
CONTINUOUS
 48
0.5
100
AcDbSpline
210
0.0
220
0.0
230
1.0
 70
     8
 71
     3
 72
    11
 73
     7
 74
     5
 42
0.0000000001
 43
0.0000000001
 44
0.0000000001
 40
0.0
 40
0.0
 40
0.0
 40
0.0
 40
0.0086105550832011
 40
0.0203003112930341
 40
0.0353484792449235
 40
0.0535854900403256
 40
0.0535854900403256
 40
0.0535854900403256
 40
0.0535854900403256
 10
14.474891662597
 20
-1.923799514769999
 30
0.0
 10
14.47213074623987
 20
-1.923013660085538
 30
0.0
 10
14.46562158847219
 20
-1.92116092300047
 30
0.0
 10
14.45411281156379
 20
-1.918600153160752
 30
0.0
 10
14.43934947020845
 20
-1.915986648821237
 30
0.0
 10
14.42840042840835
 20
-1.91419277947999
 30
0.0
 10
14.422401428222
 20
-1.913209915161001
 30
0.0
 11
14.474891662597
 21
-1.923799514769999
 31
0.0
 11
14.466590881347
 21
-1.921510696411001
 31
0.0
 11
14.455192565917
 21
-1.918916702269999
 31
0.0
 11
14.440391540527
 21
-1.916200637816999
 31
0.0
 11
14.422401428222
 21
-1.913209915161001
 31
0.0
  0
SPLINE
  5
2003
330
1FE8
100
AcDbEntity
  8
PV0001_1
  6
CONTINUOUS
 48
0.5
100
AcDbSpline
210
0.0
220
0.0
230
1.0
 70
     8
 71
     3
 72
    11
 73
     7
 74
     5
 42
0.0000000001
 43
0.0000000001
 44
0.0000000001
 40
0.0
 40
0.0
 40
0.0
 40
0.0
 40
0.0490710059037817
 40
0.0969750816925247
 40
0.1434382923251346
 40
0.1886174847762998
 40
0.1886174847762998
 40
0.1886174847762998
 40
0.1886174847762998
 10
6.102394104002996
 20
-1.263399124144999
 30
0.0
 10
6.086300300124875
 20
-1.26047609957372
 30
0.0
 10
6.054495410107247
 20
-1.254699561241798
 30
0.0
 10
6.00737888638235
 20
-1.246568736718788
 30
0.0
 10
5.961535063176942
 20
-1.23868907668548
 30
0.0
 10
5.93136831505226
 20
-1.233879399146328
 30
0.0
 10
5.916496276854999
 20
-1.231508255005
 30
0.0
 11
6.102394104002996
 21
-1.263399124144999
 31
0.0
 11
6.054100036621001
 21
-1.25470161438
 31
0.0
 11
6.006904602049999
 21
-1.246492385863998
 31
0.0
 11
5.961097717284999
 21
-1.238710403441999
 31
0.0
 11
5.916496276854999
 21
-1.231508255005
 31
0.0
  0
SPLINE
  5
2004
330
1FE8
100
AcDbEntity
  8
PV0001_1
  6
CONTINUOUS
 48
0.5
100
AcDbSpline
210
0.0
220
0.0
230
1.0
 70
     8
 71
     3
 72
    11
 73
     7
 74
     5
 42
0.0000000001
 43
0.0000000001
 44
0.0000000001
 40
0.0
 40
0.0
 40
0.0
 40
0.0
 40
0.0296834867673487
 40
0.0566600289842283
 40
0.080912140183766
 40
0.1023723834246692
 40
0.1023723834246692
 40
0.1023723834246692
 40
0.1023723834246692
 10
14.103401184082
 20
-2.066804885863998
 30
0.0
 10
14.11326862330335
 20
-2.067536145323034
 30
0.0
 10
14.13210365426397
 20
-2.068931978045405
 30
0.0
 10
14.15899922798384
 20
-2.070943411488342
 30
0.0
 10
14.18315950676343
 20
-2.072776885268597
 30
0.0
 10
14.19836114177824
 20
-2.073821705843054
 30
0.0
 10
14.205497741699
 20
-2.074312210083
 30
0.0
 11
14.103401184082
 21
-2.066804885863998
 31
0.0
 11
14.13300323486299
 21
-2.069002151488998
 31
0.0
 11
14.15990447998
 21
-2.071016311644999
 31
0.0
 11
14.18408966064399
 21
-2.072816848755
 31
0.0
 11
14.205497741699
 21
-2.074312210083
 31
0.0
  0
SPLINE
  5
2005
330
1FE8
100
AcDbEntity
  8
PV0001_1
  6
CONTINUOUS
 48
0.5
100
AcDbSpline
210
0.0
220
0.0
230
1.0
 70
     8
 71
     3
 72
    11
 73
     7
 74
     5
 42
0.0000000001
 43
0.0000000001
 44
0.0000000001
 40
0.0
 40
0.0
 40
0.0
 40
0.0
 40
0.0255540758588614
 40
0.0550755583482204
 40
0.0887394661326821
 40
0.1264009890872022
 40
0.1264009890872022
 40
0.1264009890872022
 40
0.1264009890872022
 10
14.422401428222
 20
-1.913209915161001
 30
0.0
 10
14.41397357294919
 20
-1.911971293198125
 30
0.0
 10
14.39580939290246
 20
-1.909301746603501
 30
0.0
 10
14.36642664058269
 20
-1.905859632993833
 30
0.0
 10
14.33297626791843
 20
-1.902525531515808
 30
0.0
 10
14.30929522844155
 20
-1.900410622023082
 30
0.0
 10
14.29679107665999
 20
-1.899293899536001
 30
0.0
 11
14.422401428222
 21
-1.913209915161001
 31
0.0
 11
14.397102355957
 21
-1.909608840941999
 31
0.0
 11
14.367790222167
 21
-1.906099319458
 31
0.0
 11
14.33429718017499
 21
-1.902711868286001
 31
0.0
 11
14.29679107665999
 21
-1.899293899536001
 31
0.0
  0
SPLINE
  5
2006
330
1FE8
100
AcDbEntity
  8
PV0001_1
  6
CONTINUOUS
 48
0.5
100
AcDbSpline
210
0.0
220
0.0
230
1.0
 70
     8
 71
     3
 72
    11
 73
     7
 74
     5
 42
0.0000000001
 43
0.0000000001
 44
0.0000000001
 40
0.0
 40
0.0
 40
0.0
 40
0.0
 40
0.0620771948497195
 40
0.1195574400839448
 40
0.1723974897868836
 40
0.2208408456855381
 40
0.2208408456855381
 40
0.2208408456855381
 40
0.2208408456855381
 10
13.883201599121
 20
-2.049989700316999
 30
0.0
 10
13.90383099406792
 20
-2.051603269478867
 30
0.0
 10
13.94356213295564
 20
-2.05471091954035
 30
0.0
 10
14.00086082161346
 20
-2.059090787635511
 30
0.0
 10
14.05362919974351
 20
-2.063110147324188
 30
0.0
 10
14.08729770380277
 20
-2.065609471415418
 30
0.0
 10
14.103401184082
 20
-2.066804885863998
 30
0.0
 11
13.883201599121
 21
-2.049989700316999
 31
0.0
 11
13.94509124755799
 21
-2.054811477661001
 31
0.0
 11
14.002403259277
 21
-2.059206008911001
 31
0.0
 11
14.05509185790999
 21
-2.063203811644999
 31
0.0
 11
14.103401184082
 21
-2.066804885863998
 31
0.0
  0
SPLINE
  5
2007
330
1FE8
100
AcDbEntity
  8
PV0001_1
  6
CONTINUOUS
 48
0.5
100
AcDbSpline
210
0.0
220
0.0
230
1.0
 70
     8
 71
     3
 72
    11
 73
     7
 74
     5
 42
0.0000000001
 43
0.0000000001
 44
0.0000000001
 40
0.0
 40
0.0
 40
0.0
 40
0.0
 40
0.065193934741115
 40
0.1365976545919547
 40
0.2139785004300221
 40
0.2975519063936514
 40
0.2975519063936514
 40
0.2975519063936514
 40
0.2975519063936514
 10
14.29679107665999
 20
-1.899293899536001
 30
0.0
 10
14.27513120566788
 20
-1.897531699829787
 30
0.0
 10
14.22974834009864
 20
-1.89383944919716
 30
0.0
 10
14.15860459803406
 20
-1.888733731906386
 30
0.0
 10
14.08134493466194
 20
-1.883264417463268
 30
0.0
 10
14.02779663178447
 20
-1.879935006484132
 30
0.0
 10
13.999992370605
 20
-1.878206253051001
 30
0.0
 11
14.29679107665999
 21
-1.899293899536001
 31
0.0
 11
14.231803894042
 21
-1.894105911255
 31
0.0
 11
14.16059112548799
 21
-1.888887405394999
 31
0.0
 11
14.083396911621
 21
-1.883516311644999
 31
0.0
 11
13.999992370605
 21
-1.878206253051001
 31
0.0
  0
SPLINE
  5
2008
330
1FE8
100
AcDbEntity
  8
PV0001_1
  6
CONTINUOUS
 48
0.5
100
AcDbSpline
210
0.0
220
0.0
230
1.0
 70
     8
 71
     3
 72
    11
 73
     7
 74
     5
 42
0.0000000001
 43
0.0000000001
 44
0.0000000001
 40
0.0
 40
0.0
 40
0.0
 40
0.0
 40
0.035899961732884
 40
0.0719219555200136
 40
0.1079463536736235
 40
0.1438463154064824
 40
0.1438463154064824
 40
0.1438463154064824
 40
0.1438463154064824
 10
13.63210296630799
 20
-2.030397415161001
 30
0.0
 10
13.63240602004434
 20
-2.018434602097669
 30
0.0
 10
13.63301315766492
 20
-1.994468311675496
 30
0.0
 10
13.63387083054667
 20
-1.95849634101296
 30
0.0
 10
13.63492444467318
 20
-1.922529517951145
 30
0.0
 10
13.63550554551948
 20
-1.898561741781678
 30
0.0
 10
13.635795593261
 20
-1.886598587036001
 30
0.0
 11
13.63210296630799
 21
-2.030397415161001
 31
0.0
 11
13.63300323486299
 21
-1.994508743286001
 31
0.0
 11
13.633903503417
 21
-1.958498001098
 31
0.0
 11
13.634895324707
 21
-1.922487258911001
 31
0.0
 11
13.635795593261
 21
-1.886598587036001
 31
0.0
  0
SPLINE
  5
2009
330
1FE8
100
AcDbEntity
  8
PV0001_1
  6
CONTINUOUS
 48
0.5
100
AcDbSpline
210
0.0
220
0.0
230
1.0
 70
     8
 71
     3
 72
    11
 73
     7
 74
     5
 42
0.0000000001
 43
0.0000000001
 44
0.0000000001
 40
0.0
 40
0.0
 40
0.0
 40
0.0
 40
0.0822319855790309
 40
0.1655606573574889
 40
0.2498639134169791
 40
0.3353552537543073
 40
0.3353552537543073
 40
0.3353552537543073
 40
0.3353552537543073
 10
13.999992370605
 20
-1.878206253051001
 30
0.0
 10
13.97262962224099
 20
-1.876585525124541
 30
0.0
 10
13.91753920244444
 20
-1.873322454446957
 30
0.0
 10
13.83437210225769
 20
-1.868831715527667
 30
0.0
 10
13.75010433961772
 20
-1.864582806768073
 30
0.0
 10
13.69356163863461
 20
-1.862074275488872
 30
0.0
 10
13.665092468261
 20
-1.860811233519999
 30
0.0
 11
13.999992370605
 21
-1.878206253051001
 31
0.0
 11
13.91790008544899
 21
-1.873414993286001
 31
0.0
 11
13.834693908691
 21
-1.868898391723
 31
0.0
 11
13.75049591064399
 21
-1.864686965941999
 31
0.0
 11
13.665092468261
 21
-1.860811233519999
 31
0.0
  0
SPLINE
  5
200A
330
1FE8
100
AcDbEntity
  8
PV0001_1
  6
CONTINUOUS
 48
0.5
100
AcDbSpline
210
0.0
220
0.0
230
1.0
 70
     8
 71
     3
 72
    11
 73
     7
 74
     5
 42
0.0000000001
 43
0.0000000001
 44
0.0000000001
 40
0.0
 40
0.0
 40
0.0
 40
0.0
 40
0.0617787516901786
 40
0.124377922195373
 40
0.1877705204953552
 40
0.2518620211133833
 40
0.2518620211133833
 40
0.2518620211133833
 40
0.2518620211133833
 10
13.883201599121
 20
-2.049989700316999
 30
0.0
 10
13.86266742573019
 20
-2.048435141301842
 30
0.0
 10
13.82132638612556
 20
-2.045305378803486
 30
0.0
 10
13.75893182351413
 20
-2.040359973966008
 30
0.0
 10
13.69575621015844
 20
-2.035514450604194
 30
0.0
 10
13.6533981204271
 20
-2.032109316264608
 30
0.0
 10
13.63210296630799
 20
-2.030397415161001
 30
0.0
 11
13.883201599121
 21
-2.049989700316999
 31
0.0
 11
13.82160186767499
 21
-2.045289993286001
 31
0.0
 11
13.75919342041
 21
-2.040407180786001
 31
0.0
 11
13.69599151611299
 21
-2.035493850708
 31
0.0
 11
13.63210296630799
 21
-2.030397415161001
 31
0.0
  0
SPLINE
  5
200B
330
1FE8
100
AcDbEntity
  8
PV0001_1
  6
CONTINUOUS
 48
0.5
100
AcDbSpline
210
0.0
220
0.0
230
1.0
 70
     8
 71
     3
 72
    11
 73
     7
 74
     5
 42
0.0000000001
 43
0.0000000001
 44
0.0000000001
 40
0.0
 40
0.0
 40
0.0
 40
0.0
 40
0.0194641689847896
 40
0.0623420857422215
 40
0.1323762307590156
 40
0.2243748917285982
 40
0.2243748917285982
 40
0.2243748917285982
 40
0.2243748917285982
 10
5.116996765136001
 20
-2.099214553832997
 30
0.0
 10
5.120392045369123
 20
-2.105027574225903
 30
0.0
 10
5.131266840567296
 20
-2.123646186509791
 30
0.0
 10
5.180769667762362
 20
-2.126988630671744
 30
0.0
 10
5.24589712419348
 20
-2.134607986861166
 30
0.0
 10
5.300491868676441
 20
-2.132626944015118
 30
0.0
 10
5.331489562987997
 20
-2.131502151488998
 30
0.0
 11
5.116996765136001
 21
-2.099214553832997
 31
0.0
 11
5.128395080566001
 21
-2.114992141722996
 31
0.0
 11
5.169700622557996
 21
-2.126497268676001
 31
0.0
 11
5.239494323729999
 21
-2.132295608519999
 31
0.0
 11
5.331489562987997
 21
-2.131502151488998
 31
0.0
  0
SPLINE
  5
200C
330
1FE8
100
AcDbEntity
  8
PV0001_1
  6
CONTINUOUS
 48
0.5
100
AcDbSpline
210
0.0
220
0.0
230
1.0
 70
     8
 71
     3
 72
    11
 73
     7
 74
     5
 42
0.0000000001
 43
0.0000000001
 44
0.0000000001
 40
0.0
 40
0.0
 40
0.0
 40
0.0
 40
0.2161424167515319
 40
0.4319193418790963
 40
0.6473084654582106
 40
0.8622619835073233
 40
0.8622619835073233
 40
0.8622619835073233
 40
0.8622619835073233
 10
5.772102355957002
 20
-1.267213821411001
 30
0.0
 10
5.724384390512739
 20
-1.321193777866558
 30
0.0
 10
5.629029149555159
 20
-1.429062411970656
 30
0.0
 10
5.485823982624681
 20
-1.590458848831686
 30
0.0
 10
5.342622736786633
 20
-1.751328508607886
 30
0.0
 10
5.247104834297686
 20
-1.858349683911965
 30
0.0
 10
5.199394226073998
 20
-1.911806106566999
 30
0.0
 11
5.772102355957002
 21
-1.267213821411001
 31
0.0
 11
5.628898620604999
 21
-1.429109573363998
 31
0.0
 11
5.485694885252996
 21
-1.590517044066999
 31
0.0
 11
5.342491149902002
 21
-1.751405715941999
 31
0.0
 11
5.199394226073998
 21
-1.911806106566999
 31
0.0
  0
SPLINE
  5
200D
330
1FE8
100
AcDbEntity
  8
PV0001_1
  6
CONTINUOUS
 48
0.5
100
AcDbSpline
210
0.0
220
0.0
230
1.0
 70
     8
 71
     3
 72
    11
 73
     7
 74
     5
 42
0.0000000001
 43
0.0000000001
 44
0.0000000001
 40
0.0
 40
0.0
 40
0.0
 40
0.0
 40
0.0521616922454323
 40
0.0979138958492185
 40
0.1358108456651566
 40
0.1644387739471254
 40
0.1644387739471254
 40
0.1644387739471254
 40
0.1644387739471254
 10
5.916496276854999
 20
-1.231508255005
 30
0.0
 10
5.89930640258839
 20
-1.228884345702379
 30
0.0
 10
5.867038899634643
 20
-1.223958946024668
 30
0.0
 10
5.822108465858314
 20
-1.218460726013588
 30
0.0
 10
5.7849029357229
 20
-1.214183921387914
 30
0.0
 10
5.762735934435506
 20
-1.213366407026278
 30
0.0
 10
5.753196716307996
 20
-1.213014602661001
 30
0.0
 11
5.916496276854999
 21
-1.231508255005
 31
0.0
 11
5.864891052246001
 21
-1.223909378051001
 31
0.0
 11
5.819496154784999
 21
-1.218202590941999
 31
0.0
 11
5.781791687011001
 21
-1.214387893676001
 31
0.0
 11
5.753196716307996
 21
-1.213014602661001
 31
0.0
  0
SPLINE
  5
200E
330
1FE8
100
AcDbEntity
  8
PV0001_1
  6
CONTINUOUS
 48
0.5
100
AcDbSpline
210
0.0
220
0.0
230
1.0
 70
     8
 71
     3
 72
    11
 73
     7
 74
     5
 42
0.0000000001
 43
0.0000000001
 44
0.0000000001
 40
0.0
 40
0.0
 40
0.0
 40
0.0
 40
0.2859457209098451
 40
0.5404602829271531
 40
0.7323164989736877
 40
0.8399560247115349
 40
0.8399560247115349
 40
0.8399560247115349
 40
0.8399560247115349
 10
14.212394714355
 20
0.4215068817139987
 30
0.0
 10
14.30732820275413
 20
0.411125560890315
 30
0.0
 10
14.48676008876453
 20
0.3915040342184943
 30
0.0
 10
14.72991130184595
 20
0.3921755998945424
 30
0.0
 10
14.91762203237728
 20
0.3971392726538567
 30
0.0
 10
15.0104409872725
 20
0.4354259842598712
 30
0.0
 10
15.04380035400299
 20
0.449186325073999
 30
0.0
 11
14.212394714355
 21
0.4215068817139987
 31
0.0
 11
14.497200012207
 21
0.3959941864019996
 31
0.0
 11
14.75170135497999
 21
0.3934001922610015
 31
0.0
 11
14.942604064941
 21
0.4125041961669993
 31
0.0
 11
15.04380035400299
 21
0.449186325073999
 31
0.0
  0
SPLINE
  5
200F
330
1FE8
100
AcDbEntity
  8
PV0001_1
  6
CONTINUOUS
 48
0.5
100
AcDbSpline
210
0.0
220
0.0
230
1.0
 70
     8
 71
     3
 72
     9
 73
     5
 74
     3
 42
0.0000000001
 43
0.0000000001
 44
0.0000000001
 40
0.0
 40
0.0
 40
0.0
 40
0.0
 40
0.2550873684626111
 40
0.5096727483233199
 40
0.5096727483233199
 40
0.5096727483233199
 40
0.5096727483233199
 10
14.514701843261
 20
-2.099489212036001
 30
0.0
 10
14.42993392507259
 20
-2.092829495223105
 30
0.0
 10
14.26056490420292
 20
-2.079523167310669
 30
0.0
 10
14.09119898142838
 20
-2.066177464066542
 30
0.0
 10
14.006599426269
 20
-2.059511184691999
 30
0.0
 11
14.514701843261
 21
-2.099489212036001
 31
0.0
 11
14.260398864746
 21
-2.079500198363998
 31
0.0
 11
14.006599426269
 21
-2.059511184691999
 31
0.0
  0
SPLINE
  5
2010
330
1FE8
100
AcDbEntity
  8
PV0001_1
  6
CONTINUOUS
 48
0.5
100
AcDbSpline
210
0.0
220
0.0
230
1.0
 70
     8
 71
     3
 72
     9
 73
     5
 74
     3
 42
0.0000000001
 43
0.0000000001
 44
0.0000000001
 40
0.0
 40
0.0
 40
0.0
 40
0.0
 40
2.508222328336181
 40
10.55838047244149
 40
10.55838047244149
 40
10.55838047244149
 40
10.55838047244149
 10
27.458503723144
 20
-1.112215042113998
 30
0.0
 10
26.62500280524801
 20
-1.046670122731851
 30
0.0
 10
23.11637451665737
 20
-0.7707582990255061
 30
0.0
 10
19.60773229396341
 20
-0.4950237153787238
 30
0.0
 10
16.932594299316
 20
-0.2847919464110013
 30
0.0
 11
27.458503723144
 21
-1.112215042113998
 31
0.0
 11
24.958000183105
 21
-0.915590286255
 31
0.0
 11
16.932594299316
 21
-0.2847919464110013
 31
0.0
  0
SPLINE
  5
2011
330
1FE8
100
AcDbEntity
  8
PV0001_1
  6
CONTINUOUS
 48
0.5
100
AcDbSpline
210
0.0
220
0.0
230
1.0
 70
     8
 71
     3
 72
    10
 73
     6
 74
     4
 42
0.0000000001
 43
0.0000000001
 44
0.0000000001
 40
0.0
 40
0.0
 40
0.0
 40
0.0
 40
0.0022327941556311
 40
0.0321921859732656
 40
0.6808608585431772
 40
0.6808608585431772
 40
0.6808608585431772
 40
0.6808608585431772
 10
16.46199798583899
 20
-0.2301959991449998
 30
0.0
 10
16.46126583949504
 20
-0.2300618168359967
 30
0.0
 10
16.45070983225864
 20
-0.2281271907376378
 30
0.0
 10
16.22381739636494
 20
-0.2127909883090629
 30
0.0
 10
15.99873648701275
 20
-0.1922466738613669
 30
0.0
 10
15.783592224121
 20
-0.1726093292230004
 30
0.0
 11
16.46199798583899
 21
-0.2301959991449998
 31
0.0
 11
16.45980072021399
 21
-0.22979927063
 31
0.0
 11
16.430000305175
 21
-0.2267169952389985
 31
0.0
 11
15.783592224121
 21
-0.1726093292230004
 31
0.0
  0
LINE
  5
2012
330
1FE8
100
AcDbEntity
  8
PV0001_1
  6
CONTINUOUS
 48
0.5
100
AcDbLine
 10
16.93259811401299
 20
9.395160675048998
 30
0.0
 11
14.674682617187
 21
9.246845245361999
 31
0.0
  0
LINE
  5
2013
330
1FE8
100
AcDbEntity
  8
PV0001_1
  6
CONTINUOUS
 48
0.5
100
AcDbLine
 10
16.93258285522399
 20
-9.395265579222996
 30
0.0
 11
14.67469406127899
 21
-9.246953964232996
 31
0.0
  0
LINE
  5
2014
330
1FE8
100
AcDbEntity
  8
PV0001_1
  6
CONTINUOUS
 48
0.5
100
AcDbLine
 10
15.41200637817299
 20
-0.1333885192869992
 30
0.0
 11
15.78359985351499
 21
-0.172603607176999
 31
0.0
  0
LINE
  5
2015
330
1FE8
100
AcDbEntity
  8
PV0001_1
  6
CONTINUOUS
 48
0.5
100
AcDbLine
 10
15.92769241333
 20
-0.1920509338380007
 30
0.0
 11
15.33060073852499
 21
-0.1468544006340018
 31
0.0
  0
LINE
  5
2016
330
1FE8
100
AcDbEntity
  8
PV0001_1
  6
CONTINUOUS
 48
0.5
100
AcDbLine
 10
15.40302658080999
 20
-0.1524124145499996
 30
0.0
 11
15.90242767333899
 21
1.269485473633
 31
0.0
  0
LINE
  5
2017
330
1FE8
100
AcDbEntity
  8
PV0001_1
  6
CONTINUOUS
 48
0.5
100
AcDbLine
 10
15.543594360351
 20
1.349571228028001
 30
0.0
 11
15.69579315185499
 21
1.337453842163
 31
0.0
  0
LINE
  5
2018
330
1FE8
100
AcDbEntity
  8
PV0001_1
  6
CONTINUOUS
 48
0.5
100
AcDbLine
 10
15.69578933715799
 20
1.337526321411001
 30
0.0
 11
15.54439163208
 21
1.349519729615
 31
0.0
  0
LINE
  5
2019
330
1FE8
100
AcDbEntity
  8
PV0001_1
  6
CONTINUOUS
 48
0.5
100
AcDbLine
 10
15.791172027587
 20
1.089597702026999
 30
0.0
 11
15.32448959350499
 21
-0.1465930938719993
 31
0.0
  0
LINE
  5
201A
330
1FE8
100
AcDbEntity
  8
PV0001_1
  6
CONTINUOUS
100
AcDbLine
 10
5.107845306396001
 20
2.149200439453
 30
0.0
 11
35.117889404296
 21
2.149200439453
 31
0.0
  0
LINE
  5
201B
330
1FE8
100
AcDbEntity
  8
PV0001_1
  6
CONTINUOUS
100
AcDbLine
 10
5.107845306396001
 20
2.149200439453
 30
0.0
 11
35.117889404296
 21
-3.684160232543998
 31
0.0
  0
LINE
  5
201C
330
1FE8
100
AcDbEntity
  8
PV0001_1
  6
CONTINUOUS
 48
0.5
100
AcDbLine
 10
6.090202331542002
 20
-1.436311721801001
 30
0.0
 11
6.090202331542002
 21
-8.571199417113998
 31
0.0
  0
LINE
  5
201D
330
1FE8
100
AcDbEntity
  8
PV0001_1
  6
CONTINUOUS
 48
0.5
100
AcDbLine
 10
6.281089782713998
 20
-1.451295852661001
 30
0.0
 11
6.281089782713998
 21
-8.770112991332997
 31
0.0
  0
LINE
  5
201E
330
1FE8
100
AcDbEntity
  8
PV0001_1
  6
CONTINUOUS
 48
0.5
100
AcDbLine
 10
14.674682617187
 20
-9.246931076048998
 30
0.0
 11
6.281078338622997
 21
-8.770154953002997
 31
0.0
  0
LINE
  5
201F
330
1FE8
100
AcDbEntity
  8
PV0001_1
  6
CONTINUOUS
 48
0.5
100
AcDbLine
 10
6.281078338622997
 20
-8.770105361937996
 30
0.0
 11
6.090187072752996
 21
-8.571187973022002
 31
0.0
  0
LINE
  5
2020
330
1FE8
100
AcDbEntity
  8
PV0001_1
  6
CONTINUOUS
 48
0.5
100
AcDbLine
 10
6.173591613768998
 20
6.726545333863001
 30
0.0
 11
6.291893005371001
 21
3.587631225586001
 31
0.0
  0
LINE
  5
2021
330
1FE8
100
AcDbEntity
  8
PV0001_1
  6
CONTINUOUS
 48
0.5
100
AcDbLine
 10
6.090202331542002
 20
2.016508102416999
 30
0.0
 11
6.090202331542002
 21
8.571195602416999
 31
0.0
  0
LINE
  5
2022
330
1FE8
100
AcDbEntity
  8
PV0001_1
  6
CONTINUOUS
 48
0.5
100
AcDbLine
 10
14.02350234985299
 20
2.978494644164999
 30
0.0
 11
6.291904449462002
 21
3.587594985961999
 31
0.0
  0
LINE
  5
2023
330
1FE8
100
AcDbEntity
  8
PV0001_1
  6
CONTINUOUS
 48
0.5
100
AcDbLine
 10
13.63210296630799
 20
-2.030412673949999
 30
0.0
 11
6.142490386962002
 21
-1.440416336058998
 31
0.0
  0
LINE
  5
2024
330
1FE8
100
AcDbEntity
  8
PV0001_1
  6
CONTINUOUS
 48
0.5
100
AcDbLine
 10
6.146907806396001
 20
-1.269208908081001
 30
0.0
 11
13.639598846435
 21
-1.859418869018
 31
0.0
  0
LINE
  5
2025
330
1FE8
100
AcDbEntity
  8
PV0001_1
  6
CONTINUOUS
 48
0.5
100
AcDbLine
 10
9.104389190672996
 20
1.486637115478998
 30
0.0
 11
5.483684539793998
 21
2.119421005248998
 31
0.0
  0
LINE
  5
2026
330
1FE8
100
AcDbEntity
  8
PV0001_1
  6
CONTINUOUS
 48
0.5
100
AcDbLine
 10
5.117008209227996
 20
2.099225997925
 30
0.0
 11
5.724903106688998
 21
-1.220203399658
 31
0.0
  0
LINE
  5
2027
330
1FE8
100
AcDbEntity
  8
PV0001_1
  6
CONTINUOUS
 48
0.5
100
AcDbLine
 10
5.725612640379999
 20
-1.22172164917
 30
0.0
 11
5.726501464842996
 21
-1.222806930541999
 31
0.0
  0
LINE
  5
2028
330
1FE8
100
AcDbEntity
  8
PV0001_1
  6
CONTINUOUS
 48
0.5
100
AcDbLine
 10
5.727336883543998
 20
-1.216400146483998
 30
0.0
 11
5.724922180174999
 21
-1.220218658446999
 31
0.0
  0
LINE
  5
2029
330
1FE8
100
AcDbEntity
  8
PV0001_1
  6
CONTINUOUS
 48
0.5
100
AcDbLine
 10
5.724884033202997
 20
-1.220190048216998
 30
0.0
 11
5.725597381591001
 21
-1.221710205078
 31
0.0
  0
LINE
  5
202A
330
1FE8
100
AcDbEntity
  8
PV0001_1
  6
CONTINUOUS
 48
0.5
100
AcDbLine
 10
6.146900177001
 20
-1.269178390503
 30
0.0
 11
6.102382659912002
 21
-1.263380050658998
 31
0.0
  0
LINE
  5
202B
330
1FE8
100
AcDbEntity
  8
PV0001_1
  6
CONTINUOUS
 48
0.5
100
AcDbLine
 10
5.483688354492002
 20
-2.119340896606001
 30
0.0
 11
5.331489562987997
 21
-2.131456375122002
 31
0.0
  0
LINE
  5
202C
330
1FE8
100
AcDbEntity
  8
PV0001_1
  6
CONTINUOUS
 48
0.5
100
AcDbLine
 10
6.094085693358998
 20
-2.044492721556999
 30
0.0
 11
5.483688354492002
 21
-2.119382858276001
 31
0.0
  0
LINE
  5
202D
330
1FE8
100
AcDbEntity
  8
PV0001_1
  6
CONTINUOUS
 48
0.5
100
AcDbLine
 10
5.117897033691001
 20
-2.096273422241001
 30
0.0
 11
5.116992950438998
 21
-2.099187850952002
 31
0.0
  0
LINE
  5
202E
330
1FE8
100
AcDbEntity
  8
PV0001_1
  6
CONTINUOUS
 48
0.5
100
AcDbLine
 10
5.501422882079999
 20
-0.0000038146969992
 30
0.0
 11
5.117023468017002
 21
-2.099222183227002
 31
0.0
  0
LINE
  5
202F
330
1FE8
100
AcDbEntity
  8
PV0001_1
  6
CONTINUOUS
 48
0.5
100
AcDbLine
 10
5.199382781982002
 20
-1.911787033081001
 30
0.0
 11
5.117877960204999
 21
-2.096311569213998
 31
0.0
  0
LINE
  5
2030
330
1FE8
100
AcDbEntity
  8
PV0001_1
  6
CONTINUOUS
 48
0.5
100
AcDbLine
 10
5.199413299559999
 20
-1.911821365356001
 30
0.0
 11
5.546524047851001
 21
-0.2460021972649997
 31
0.0
  0
LINE
  5
2031
330
1FE8
100
AcDbEntity
  8
PV0001_1
  6
CONTINUOUS
 48
0.5
100
AcDbLine
 10
6.027908325194999
 20
-1.431280136108
 30
0.0
 11
6.142494201659999
 21
-1.440372467041001
 31
0.0
  0
LINE
  5
2032
330
1FE8
100
AcDbEntity
  8
PV0001_1
  6
CONTINUOUS
 48
0.5
100
AcDbLine
 10
5.954093933104999
 20
-1.425178527831999
 30
0.0
 11
6.027908325194999
 21
-1.431283950804999
 31
0.0
  0
LINE
  5
2033
330
1FE8
100
AcDbEntity
  8
PV0001_1
  6
CONTINUOUS
 48
0.5
100
AcDbLine
 10
5.934062957762996
 20
-1.423351287841001
 30
0.0
 11
5.938076019287002
 21
-1.423839569091001
 31
0.0
  0
LINE
  5
2034
330
1FE8
100
AcDbEntity
  8
PV0001_1
  6
CONTINUOUS
 48
0.5
100
AcDbLine
 10
5.938106536864999
 20
-1.423807144164999
 30
0.0
 11
5.954097747802002
 21
-1.425210952758
 31
0.0
  0
LINE
  5
2035
330
1FE8
100
AcDbEntity
  8
PV0001_1
  6
CONTINUOUS
 48
0.5
100
AcDbLine
 10
5.726520538329999
 20
-1.222789764403998
 30
0.0
 11
5.934135437011001
 21
-1.423305511473998
 31
0.0
  0
LINE
  5
2036
330
1FE8
100
AcDbEntity
  8
PV0001_1
  6
CONTINUOUS
 48
0.5
100
AcDbLine
 10
6.291915893553998
 20
3.587583541869999
 30
0.0
 11
6.350616455077997
 21
1.968498229981001
 31
0.0
  0
LINE
  5
2037
330
1FE8
100
AcDbEntity
  8
PV0001_1
  6
CONTINUOUS
 48
0.5
100
AcDbLine
 10
5.482906341552002
 20
2.11939239502
 30
0.0
 11
5.331504821777002
 21
2.131507873534999
 31
0.0
  0
LINE
  5
2038
330
1FE8
100
AcDbEntity
  8
PV0001_1
  6
CONTINUOUS
 48
0.5
100
AcDbLine
 10
5.331504821777002
 20
2.131507873534999
 30
0.0
 11
5.482906341552002
 21
2.11939239502
 31
0.0
  0
LINE
  5
2039
330
1FE8
100
AcDbEntity
  8
PV0001_1
  6
CONTINUOUS
 48
0.5
100
AcDbLine
 10
15.54359817504799
 20
1.349573135376001
 30
0.0
 11
11.75048828125
 21
1.281671524048
 31
0.0
  0
LINE
  5
203A
330
1FE8
100
AcDbEntity
  8
PV0001_1
  6
CONTINUOUS
 48
0.5
100
AcDbLine
 10
11.750499725341
 20
1.281711578368998
 30
0.0
 11
11.10929870605399
 21
1.252597808838
 31
0.0
  0
LINE
  5
203B
330
1FE8
100
AcDbEntity
  8
PV0001_1
  6
CONTINUOUS
 48
0.5
100
AcDbLine
 10
14.892211914062
 20
-0.1239166259760012
 30
0.0
 11
15.33060073852499
 21
-0.1469268798819989
 31
0.0
  0
LINE
  5
203C
330
1FE8
100
AcDbEntity
  8
PV0001_1
  6
CONTINUOUS
 48
0.5
100
AcDbLine
 10
14.412803649902
 20
-2.086214065551001
 30
0.0
 11
14.51529693603499
 21
-2.086214065551001
 31
0.0
  0
LINE
  5
203D
330
1FE8
100
AcDbEntity
  8
PV0001_1
  6
CONTINUOUS
 48
0.5
100
AcDbLine
 10
14.260292053222
 20
-2.078083038329999
 30
0.0
 11
14.412803649902
 21
-2.086200714111001
 31
0.0
  0
LINE
  5
203E
330
1FE8
100
AcDbEntity
  8
PV0001_1
  6
CONTINUOUS
 48
0.5
100
AcDbLine
 10
14.518985748291
 20
-2.01176071167
 30
0.0
 11
14.41279220581
 21
-2.086170196533
 31
0.0
  0
LINE
  5
203F
330
1FE8
100
AcDbEntity
  8
PV0001_1
  6
CONTINUOUS
 48
0.5
100
AcDbLine
 10
14.52390670776299
 20
-1.926998138426998
 30
0.0
 11
14.479202270507
 21
-1.924587249756001
 31
0.0
  0
LINE
  5
2040
330
1FE8
100
AcDbEntity
  8
PV0001_1
  6
CONTINUOUS
 48
0.5
100
AcDbLine
 10
14.479190826416
 20
-1.924610137938998
 30
0.0
 11
14.260299682617
 21
-2.078107833861999
 31
0.0
  0
LINE
  5
2041
330
1FE8
100
AcDbEntity
  8
PV0001_1
  6
CONTINUOUS
 48
0.5
100
AcDbLine
 10
14.422409057617
 20
-1.913242340088
 30
0.0
 11
14.20550537109299
 21
-2.074344635009001
 31
0.0
  0
LINE
  5
2042
330
1FE8
100
AcDbEntity
  8
PV0001_1
  6
CONTINUOUS
 48
0.5
100
AcDbLine
 10
13.635822296142
 20
-1.886587142943998
 30
0.0
 11
13.639625549316
 21
-1.859384536743
 31
0.0
  0
LINE
  5
2043
330
1FE8
100
AcDbEntity
  8
PV0001_1
  6
CONTINUOUS
 48
0.5
100
AcDbLine
 10
14.296810150146
 20
-1.899295806884001
 30
0.0
 11
14.10341262817299
 21
-2.066812515258
 31
0.0
  0
LINE
  5
2044
330
1FE8
100
AcDbEntity
  8
PV0001_1
  6
CONTINUOUS
 48
0.5
100
AcDbLine
 10
13.999942779541
 20
-1.87819480896
 30
0.0
 11
13.883167266845
 21
-2.049959182738998
 31
0.0
  0
LINE
  5
2045
330
1FE8
100
AcDbEntity
  8
PV0001_1
  6
CONTINUOUS
 48
0.5
100
AcDbLine
 10
13.665100097656
 20
-1.860858917236001
 30
0.0
 11
13.639598846435
 21
-1.859363555908
 31
0.0
  0
LINE
  5
2046
330
1FE8
100
AcDbEntity
  8
PV0001_1
  6
CONTINUOUS
 48
0.5
100
AcDbLine
 10
14.479209899902
 20
-1.924560546875
 30
0.0
 11
14.47490310668899
 21
-1.923767089843
 31
0.0
  0
LINE
  5
2047
330
1FE8
100
AcDbEntity
  8
PV0001_1
  6
CONTINUOUS
 48
0.5
100
AcDbLine
 10
14.674682617187
 20
9.246868133545
 30
0.0
 11
6.281078338622997
 21
8.770092010498
 31
0.0
  0
LINE
  5
2048
330
1FE8
100
AcDbEntity
  8
PV0001_1
  6
CONTINUOUS
 48
0.5
100
AcDbLine
 10
6.090221405028998
 20
8.571218490601001
 30
0.0
 11
6.173606872557996
 21
6.726545333863001
 31
0.0
  0
LINE
  5
2049
330
1FE8
100
AcDbEntity
  8
PV0001_1
  6
CONTINUOUS
 48
0.5
100
AcDbLine
 10
6.281120300292002
 20
8.770084381103998
 30
0.0
 11
6.090240478514999
 21
8.571176528931001
 31
0.0
  0
LINE
  5
204A
330
1FE8
100
AcDbEntity
  8
PV0001_1
  6
CONTINUOUS
 48
0.5
100
AcDbLine
 10
16.932594299316
 20
-0.2847919464110013
 30
0.0
 11
16.932594299316
 21
-9.395204544067002
 31
0.0
  0
LINE
  5
204B
330
1FE8
100
AcDbEntity
  8
PV0001_1
  6
CONTINUOUS
 48
0.5
100
AcDbLine
 10
35.117897033691
 20
9.499998092651999
 30
0.0
 11
35.117897033691
 21
-9.500001907347996
 31
0.0
  0
LINE
  5
204C
330
1FE8
100
AcDbEntity
  8
PV0001_1
  6
CONTINUOUS
 48
0.5
100
AcDbLine
 10
35.983894348144
 20
9.999998092651999
 30
0.0
 11
35.983894348144
 21
-10.00000190734799
 31
0.0
  0
LINE
  5
204D
330
1FE8
100
AcDbEntity
  8
PV0001_1
  6
CONTINUOUS
 48
0.5
100
AcDbLine
 10
22.02419281005799
 20
-9.500001907347996
 30
0.0
 11
35.117897033691
 21
-9.500001907347996
 31
0.0
  0
LINE
  5
204E
330
1FE8
100
AcDbEntity
  8
PV0001_1
  6
CONTINUOUS
 48
0.5
100
AcDbLine
 10
35.117889404296
 20
-9.500028610228998
 30
0.0
 11
35.983880996704
 21
-10.000024795532
 31
0.0
  0
LINE
  5
204F
330
1FE8
100
AcDbEntity
  8
PV0001_1
  6
CONTINUOUS
 48
0.5
100
AcDbLine
 10
35.117897033691
 20
9.499998092651999
 30
0.0
 11
22.02419281005799
 21
9.499998092651999
 31
0.0
  0
LINE
  5
2050
330
1FE8
100
AcDbEntity
  8
PV0001_1
  6
CONTINUOUS
 48
0.5
100
AcDbLine
 10
28.345108032226
 20
3.461713790893998
 30
0.0
 11
26.721603393554
 21
3.21961593628
 31
0.0
  0
LINE
  5
2051
330
1FE8
100
AcDbEntity
  8
PV0001_1
  6
CONTINUOUS
 48
0.5
100
AcDbLine
 10
15.901123046875
 20
1.266801834106999
 30
0.0
 11
15.902423858642
 21
1.269495010376001
 31
0.0
  0
LINE
  5
2052
330
1FE8
100
AcDbEntity
  8
PV0001_1
  6
CONTINUOUS
 48
0.5
100
AcDbLine
 10
15.791221618652
 20
1.089586257935
 30
0.0
 11
15.901130676269
 21
1.26679801941
 31
0.0
  0
LINE
  5
2053
330
1FE8
100
AcDbEntity
  8
PV0001_1
  6
CONTINUOUS
 48
0.5
100
AcDbLine
 10
35.983924865722
 20
9.999921798706001
 30
0.0
 11
35.11792755126899
 21
9.499921798706001
 31
0.0
  0
LINE
  5
2054
330
1FE8
100
AcDbEntity
  8
PV0001_1
  6
CONTINUOUS
 48
0.5
100
AcDbLine
 10
115.1178970336899
 20
7.661497116088998
 30
0.0
 11
115.1178970336899
 21
-7.661500930786001
 31
0.0
  0
LINE
  5
2055
330
1FE8
100
AcDbEntity
  8
PV0001_1
  6
CONTINUOUS
 48
0.5
100
AcDbLine
 10
112.1178970336899
 20
9.999998092651999
 30
0.0
 11
112.1178970336899
 21
-10.00000190734799
 31
0.0
  0
ARC
  5
2056
330
1FE8
100
AcDbEntity
  8
PV0001_1
  6
CONTINUOUS
 48
0.5
100
AcDbCircle
 10
113.1178970336899
 20
-7.661500930786001
 30
0.0
 40
2.000036954879799
100
AcDbArc
 50
284.9985874788711
 51
0.0
  0
LINE
  5
2057
330
1FE8
100
AcDbEntity
  8
PV0001_1
  6
CONTINUOUS
 48
0.5
100
AcDbLine
 10
112.1178855895979
 20
-10.000040054321
 30
0.0
 11
113.635486602782
 21
-9.593454360962002
 31
0.0
  0
ARC
  5
2058
330
1FE8
100
AcDbEntity
  8
PV0001_1
  6
CONTINUOUS
 48
0.5
100
AcDbCircle
 10
113.1178970336899
 20
7.661497116088998
 30
0.0
 40
2.0
100
AcDbArc
 50
0.0
 51
75.00141252112884
  0
LINE
  5
2059
330
1FE8
100
AcDbEntity
  8
PV0001_1
  6
CONTINUOUS
 48
0.5
100
AcDbLine
 10
113.635501861571
 20
9.59338760376
 30
0.0
 11
112.1179008483869
 21
9.999973297118998
 31
0.0
  0
ENDBLK
  5
205B
330
1FE8
100
AcDbEntity
  8
0
100
AcDbBlockEnd
  0
BLOCK
  5
2100
330
2084
100
AcDbEntity
  8
0
100
AcDbBlockBegin
  2
A$C3D8C2960
 70
     0
 10
0.0
 20
0.0
 30
0.0
  3
A$C3D8C2960
  1

  0
LINE
  5
2085
330
2084
100
AcDbEntity
  8
AM_7
100
AcDbLine
 10
114.7608582845301
 20
0.0
 30
0.0
 11
-5.117897033691008
 21
0.0
 31
0.0
  0
LINE
  5
2086
330
2084
100
AcDbEntity
  8
AM_0
100
AcDbLine
 10
106.9999999999989
 20
9.999999999999996
 30
0.0
 11
30.86599731445299
 21
9.999999999999996
 31
0.0
  0
LINE
  5
2087
330
2084
100
AcDbEntity
  8
AM_0
100
AcDbLine
 10
30.86599731445299
 20
-10.0
 30
0.0
 11
106.9999999999989
 21
-10.0
 31
0.0
  0
ELLIPSE
  5
2088
330
2084
100
AcDbEntity
  8
AM_0
100
AcDbEllipse
 10
8.607601165770994
 20
0.0
 30
0.0
 11
-120.824694234882
 21
0.0353354454819979
 31
0.0
210
0.0
220
0.0
230
1.0
 40
0.0786252974493
 41
4.598505642335073
 42
4.685869296193867
  0
ELLIPSE
  5
2089
330
2084
100
AcDbEntity
  8
AM_0
100
AcDbEllipse
 10
13.28390502929698
 20
0.0
 30
0.0
 11
10.418136109181
 21
9.493591172234996
 31
0.0
210
0.0
220
0.0
230
1.0
 40
0.0340139925512
 41
0.0395361784299131
 42
0.0803847386867968
  0
ELLIPSE
  5
208A
330
2084
100
AcDbEntity
  8
AM_0
100
AcDbEllipse
 10
13.28390502929698
 20
0.0
 30
0.0
 11
-10.41829042375499
 21
9.493590320517999
 31
0.0
210
0.0
220
0.0
230
1.0
 40
0.0340129913343
 41
3.102011457889984
 42
3.47648911382076
  0
ELLIPSE
  5
208B
330
2084
100
AcDbEntity
  8
AM_0
100
AcDbEllipse
 10
13.28390502929698
 20
0.0
 30
0.0
 11
-10.41821329152899
 21
9.493529127211996
 31
0.0
210
0.0
220
0.0
230
1.0
 40
0.0340132283734
 41
3.057684473795554
 42
3.102011733444387
  0
SPLINE
  5
208C
330
2084
100
AcDbEntity
  8
AM_0
100
AcDbSpline
210
0.0
220
0.0
230
1.0
 70
     8
 71
     3
 72
    11
 73
     7
 74
     5
 42
0.0000000001
 43
0.0000000001
 44
0.0000000001
 40
0.0
 40
0.0
 40
0.0
 40
0.0
 40
1.016916393465312
 40
1.849084796160247
 40
2.578414852659433
 40
3.431668423595501
 40
3.431668423595501
 40
3.431668423595501
 40
3.431668423595501
 10
5.040603637694992
 20
-5.282287597656999
 30
0.0
 10
5.359161342064933
 20
-5.44079230696969
 30
0.0
 10
5.938402872278556
 20
-5.729005428513682
 30
0.0
 10
6.175933417927295
 20
-6.634366342114146
 30
0.0
 10
5.901730203040414
 20
-7.474922418763885
 30
0.0
 10
5.373566705972255
 20
-7.656696043059221
 30
0.0
 10
5.088806152343991
 20
-7.754699707031999
 30
0.0
 11
5.040603637694992
 21
-5.282287597656999
 31
0.0
 11
5.872604370116988
 21
-5.867004394531999
 31
0.0
 11
6.09419250488299
 21
-6.669128417969002
 31
0.0
 11
5.841796874999992
 21
-7.353393554688
 31
0.0
 11
5.088806152343991
 21
-7.754699707031999
 31
0.0
  0
SPLINE
  5
208D
330
2084
100
AcDbEntity
  8
AM_0
100
AcDbSpline
210
0.0
220
0.0
230
1.0
 70
     8
 71
     3
 72
    11
 73
     7
 74
     5
 42
0.0000000001
 43
0.0000000001
 44
0.0000000001
 40
0.0
 40
0.0
 40
0.0
 40
0.0
 40
0.2005227975027883
 40
0.3978938768334514
 40
0.5956571553602031
 40
0.7975887996183541
 40
0.7975887996183541
 40
0.7975887996183541
 40
0.7975887996183541
 10
9.915100097655994
 20
-2.887023925781999
 30
0.0
 10
9.981826932819396
 20
-2.89250941093949
 30
0.0
 10
10.11423182374769
 20
-2.903394163111355
 30
0.0
 10
10.3072260578136
 20
-2.953282631662244
 30
0.0
 10
10.49337274321197
 20
-3.025820766922353
 30
0.0
 10
10.60785639637482
 20
-3.094387444896768
 30
0.0
 10
10.66569519042999
 20
-3.129028320313
 30
0.0
 11
9.915100097655994
 21
-2.887023925781999
 31
0.0
 11
10.11439514160099
 21
-2.9091796875
 31
0.0
 11
10.30589294433599
 21
-2.956970214844002
 31
0.0
 11
10.48959350585899
 21
-3.030212402344002
 31
0.0
 11
10.66569519042999
 21
-3.129028320313
 31
0.0
  0
SPLINE
  5
208E
330
2084
100
AcDbEntity
  8
AM_0
100
AcDbSpline
210
0.0
220
0.0
230
1.0
 70
     8
 71
     3
 72
    11
 73
     7
 74
     5
 42
0.0000000001
 43
0.0000000001
 44
0.0000000001
 40
0.0
 40
0.0
 40
0.0
 40
0.0
 40
0.1478409520524263
 40
0.2937798013618202
 40
0.4390585036488797
 40
0.5850561411310798
 40
0.5850561411310798
 40
0.5850561411310798
 40
0.5850561411310798
 10
9.340194702147989
 20
-2.974975585938
 30
0.0
 10
9.387065327453589
 20
-2.959618392394662
 30
0.0
 10
9.480203546606162
 20
-2.929101588992063
 30
0.0
 10
9.624069977605712
 20
-2.900724206488914
 30
0.0
 10
9.769227401005206
 20
-2.884592284257171
 30
0.0
 10
9.866395920887834
 20
-2.886212045962258
 30
0.0
 10
9.915100097655994
 20
-2.887023925781999
 30
0.0
 11
9.340194702147989
 21
-2.974975585938
 31
0.0
 11
9.481597900390994
 21
-2.931823730469002
 31
0.0
 11
9.624603271483991
 21
-2.902709960938
 31
0.0
 11
9.769104003905994
 21
-2.8876953125
 31
0.0
 11
9.915100097655994
 21
-2.887023925781999
 31
0.0
  0
ELLIPSE
  5
208F
330
2084
100
AcDbEntity
  8
AM_0
100
AcDbEllipse
 10
4.579605102538991
 20
-3.137878417969002
 30
0.0
 11
-1.499389639911
 21
0.042602489699
 31
0.0
210
0.0
220
0.0
230
1.0
 40
0.1901815627407
 41
1.960944359535209
 42
3.064536478916175
  0
ELLIPSE
  5
2090
330
2084
100
AcDbEntity
  8
AM_0
100
AcDbEllipse
 10
4.579605102538991
 20
-3.137878417969002
 30
0.0
 11
-1.499389639911
 21
0.042602489699
 31
0.0
210
0.0
220
0.0
230
1.0
 40
0.1901815627407
 41
0.2150637215954514
 42
1.32596175060827
  0
SPLINE
  5
2091
330
2084
100
AcDbEntity
  8
AM_0
100
AcDbSpline
210
0.0
220
0.0
230
1.0
 70
     8
 71
     3
 72
    11
 73
     7
 74
     5
 42
0.0000000001
 43
0.0000000001
 44
0.0000000001
 40
0.0
 40
0.0
 40
0.0
 40
0.0
 40
0.4015997055946637
 40
0.7887894584780497
 40
1.121723817369376
 40
1.303939010066129
 40
1.303939010066129
 40
1.303939010066129
 40
1.303939010066129
 10
22.34060668945299
 20
-9.434692382813
 30
0.0
 10
22.47449410009527
 20
-9.434362310931895
 30
0.0
 10
22.73746485596564
 20
-9.433714010605154
 30
0.0
 10
23.1110680382974
 20
-9.447600037469607
 30
0.0
 10
23.41185291242175
 20
-9.460758860707276
 30
0.0
 10
23.58215642155784
 20
-9.483163906798662
 30
0.0
 10
23.64239501953099
 20
-9.491088867188
 30
0.0
 11
22.34060668945299
 21
-9.434692382813
 31
0.0
 11
22.74220275878899
 21
-9.436401367188
 31
0.0
 11
23.12919616699198
 21
-9.44873046875
 31
0.0
 11
23.46150207519499
 21
-9.469177246094002
 31
0.0
 11
23.64239501953099
 21
-9.491088867188
 31
0.0
  0
ELLIPSE
  5
2092
330
2084
100
AcDbEntity
  8
AM_0
100
AcDbEllipse
 10
8.607601165770994
 20
0.0
 30
0.0
 11
120.8246939625009
 21
0.0362548834789998
 31
0.0
210
0.0
220
0.0
230
1.0
 40
0.0786252974493
 41
4.738911598877197
 42
4.826283325787043
  0
SPLINE
  5
2093
330
2084
100
AcDbEntity
  8
AM_0
100
AcDbSpline
210
0.0
220
0.0
230
1.0
 70
     8
 71
     3
 72
    11
 73
     7
 74
     5
 42
0.0000000001
 43
0.0000000001
 44
0.0000000001
 40
0.0
 40
0.0
 40
0.0
 40
0.0
 40
0.0610132883951558
 40
0.2341194997774916
 40
0.4939596530558842
 40
0.8006028672403752
 40
0.8006028672403752
 40
0.8006028672403752
 40
0.8006028672403752
 10
1.25019836425799
 20
-1.807983398438
 30
0.0
 10
1.25219793809675
 20
-1.828236513582083
 30
0.0
 10
1.25987068020281
 20
-1.905951537820067
 30
0.0
 10
1.251347184452835
 20
-2.070903308115289
 30
0.0
 10
1.245535640822115
 20
-2.317138017991217
 30
0.0
 10
1.237274944011743
 20
-2.505830194944119
 30
0.0
 10
1.232803344725994
 20
-2.607971191406999
 30
0.0
 11
1.25019836425799
 21
-1.807983398438
 31
0.0
 11
1.255401611327989
 21
-1.868774414063
 31
0.0
 11
1.253494262694992
 21
-2.041870117188
 31
0.0
 11
1.245101928710994
 21
-2.301574707031999
 31
0.0
 11
1.232803344725994
 21
-2.607971191406999
 31
0.0
  0
ELLIPSE
  5
2094
330
2084
100
AcDbEntity
  8
AM_0
100
AcDbEllipse
 10
177.0920944213789
 20
-0.0524291992190023
 30
0.0
 11
-249.3922927843399
 21
0.0729947799890028
 31
0.0
210
0.0
220
0.0
230
0.9999999999999998
 40
0.049408435232
 41
5.452966452380458
 42
5.495318115906116
  0
ELLIPSE
  5
2095
330
2084
100
AcDbEntity
  8
AM_0
100
AcDbEllipse
 10
10.77879333496099
 20
-0.0761108398440023
 30
0.0
 11
-1.252869164009005
 21
9.435974457608999
 31
0.0
210
0.0
220
0.0
230
1.0
 40
0.077720114203
 41
0.1437939313466294
 42
0.2195995990474902
  0
ELLIPSE
  5
2096
330
2084
100
AcDbEntity
  8
AM_0
100
AcDbEllipse
 10
11.11399841308599
 20
-0.0770874023440023
 30
0.0
 11
-1.364304041515005
 21
9.448425176928999
 31
0.0
210
0.0
220
0.0
230
1.0
 40
0.2741968321531
 41
6.273705414192996
 42
6.409537217264611
  0
SPLINE
  5
2097
330
2084
100
AcDbEntity
  8
AM_0
100
AcDbSpline
210
0.0
220
0.0
230
1.0
 70
     8
 71
     3
 72
    11
 73
     7
 74
     5
 42
0.0000000001
 43
0.0000000001
 44
0.0000000001
 40
0.0
 40
0.0
 40
0.0
 40
0.0
 40
0.4015997055946637
 40
0.7887894584780816
 40
1.121723817369346
 40
1.303939010066099
 40
1.303939010066099
 40
1.303939010066099
 40
1.303939010066099
 10
22.34060668945299
 20
9.434692382811999
 30
0.0
 10
22.47449410009527
 20
9.434362310930728
 30
0.0
 10
22.73746485596567
 20
9.433714010603665
 30
0.0
 10
23.11106803829733
 20
9.447600037470357
 30
0.0
 10
23.41185291242179
 20
9.460758860706075
 30
0.0
 10
23.58215642155784
 20
9.483163906797607
 30
0.0
 10
23.64239501953099
 20
9.491088867186999
 30
0.0
 11
22.34060668945299
 21
9.434692382811999
 31
0.0
 11
22.74220275878899
 21
9.436401367186999
 31
0.0
 11
23.12919616699198
 21
9.448730468749996
 31
0.0
 11
23.46150207519499
 21
9.469177246093
 31
0.0
 11
23.64239501953099
 21
9.491088867186999
 31
0.0
  0
SPLINE
  5
2098
330
2084
100
AcDbEntity
  8
AM_0
100
AcDbSpline
210
0.0
220
0.0
230
1.0
 70
     8
 71
     3
 72
    11
 73
     7
 74
     5
 42
0.0000000001
 43
0.0000000001
 44
0.0000000001
 40
0.0
 40
0.0
 40
0.0
 40
0.0
 40
1.03493087267396
 40
1.875158151703883
 40
2.762200041789746
 40
3.853481397343868
 40
3.853481397343868
 40
3.853481397343868
 40
3.853481397343868
 10
4.918701171874992
 20
7.759094238280997
 30
0.0
 10
4.573080882815073
 20
7.656571576285893
 30
0.0
 10
3.946862533805464
 20
7.470814043632726
 30
0.0
 10
3.500033602922859
 20
6.575054187602341
 30
0.0
 10
3.736405889637346
 20
5.518580083250666
 30
0.0
 10
4.432639980144696
 20
5.346978234072048
 30
0.0
 10
4.816696166991988
 20
5.252319335936999
 30
0.0
 11
4.918701171874992
 21
7.759094238280997
 31
0.0
 11
3.980194091796988
 21
7.322875976561999
 31
0.0
 11
3.608001708983991
 21
6.569580078124996
 31
0.0
 11
3.825897216796988
 21
5.709716796874996
 31
0.0
 11
4.816696166991988
 21
5.252319335936999
 31
0.0
  0
SPLINE
  5
2099
330
2084
100
AcDbEntity
  8
AM_0
100
AcDbSpline
210
0.0
220
0.0
230
1.0
 70
     8
 71
     3
 72
    11
 73
     7
 74
     5
 42
0.0000000001
 43
0.0000000001
 44
0.0000000001
 40
0.0
 40
0.0
 40
0.0
 40
0.0
 40
1.125377757589445
 40
2.041307230635223
 40
2.834113426512286
 40
3.799097890283704
 40
3.799097890283704
 40
3.799097890283704
 40
3.799097890283704
 10
4.816696166991988
 20
5.252319335936999
 30
0.0
 10
5.194471594259164
 20
5.378271222022583
 30
0.0
 10
5.879713244039598
 20
5.606733615245429
 30
0.0
 10
6.195146491295304
 20
6.607350308929317
 30
0.0
 10
5.871643210509807
 20
7.549994884355964
 30
0.0
 10
5.256435366024027
 20
7.684986896037889
 30
0.0
 10
4.918701171874992
 20
7.759094238280997
 30
0.0
 11
4.816696166991988
 21
5.252319335936999
 31
0.0
 11
5.810806274413991
 21
5.779785156249996
 31
0.0
 11
6.094802856444992
 21
6.650573730468
 31
0.0
 11
5.810592651366988
 21
7.390686035155997
 31
0.0
 11
4.918701171874992
 21
7.759094238280997
 31
0.0
  0
SPLINE
  5
209A
330
2084
100
AcDbEntity
  8
AM_0
100
AcDbSpline
210
0.0
220
0.0
230
1.0
 70
     8
 71
     3
 72
    11
 73
     7
 74
     5
 42
0.0000000001
 43
0.0000000001
 44
0.0000000001
 40
0.0
 40
0.0
 40
0.0
 40
0.0
 40
2.954182462136262
 40
6.038630764834048
 40
9.121775001134668
 40
12.20225309159173
 40
12.20225309159173
 40
12.20225309159173
 40
12.20225309159173
 10
22.14469909667999
 20
-4.385009765625
 30
0.0
 10
21.53753179282231
 20
-3.60264485699508
 30
0.0
 10
20.29642390342506
 20
-2.003416350586968
 30
0.0
 10
17.73053091733794
 20
-0.290642420548771
 30
0.0
 10
14.86253248748157
 20
0.8961803912533033
 30
0.0
 10
12.83034932483113
 20
1.236723490176621
 30
0.0
 10
11.81469726562499
 20
1.406921386718
 30
0.0
 11
22.14469909667999
 21
-4.385009765625
 31
0.0
 11
20.21369934081999
 21
-2.149291992188
 31
0.0
 11
17.68569946289099
 21
-0.382080078125
 31
0.0
 11
14.83149719238299
 21
0.7838134765619991
 31
0.0
 11
11.81469726562499
 21
1.406921386718
 31
0.0
  0
ELLIPSE
  5
209B
330
2084
100
AcDbEntity
  8
AM_0
100
AcDbEllipse
 10
8.453292846679993
 20
-22.1415252685546
 30
0.0
 11
-12.599624341321
 21
15.7668923419756
 31
0.0
210
0.0
220
0.0
230
1.0
 40
0.9789422204581999
 41
4.877696186861717
 42
5.575891766512548
  0
ELLIPSE
  5
209C
330
2084
100
AcDbEntity
  8
AM_0
100
AcDbEllipse
 10
12.08000183105499
 20
0.0
 30
0.0
 11
-11.11390560267299
 21
8.890259740465996
 31
0.0
210
0.0
220
0.0
230
1.0
 40
0.3013602932332
 41
3.154309336888398
 42
3.87235839127522
  0
SPLINE
  5
209D
330
2084
100
AcDbEntity
  8
AM_0
100
AcDbSpline
210
0.0
220
0.0
230
1.0
 70
     8
 71
     3
 72
    11
 73
     7
 74
     5
 42
0.0000000001
 43
0.0000000001
 44
0.0000000001
 40
0.0
 40
0.0
 40
0.0
 40
0.0
 40
0.1144432779707222
 40
0.2295923089361853
 40
0.3451598680494277
 40
0.4605641788914332
 40
0.4605641788914332
 40
0.4605641788914332
 40
0.4605641788914332
 10
-0.0000000000000071
 20
9.286804199218
 30
0.0
 10
0.0002467608871345
 20
9.325219655252947
 30
0.0
 10
0.0007418043954869
 20
9.402287469162965
 30
0.0
 10
0.042430563501005
 20
9.511797495794709
 30
0.0
 10
0.1132368908214456
 20
9.606131448550975
 30
0.0
 10
0.1801564157896383
 20
9.645534544714623
 30
0.0
 10
0.2135925292969887
 20
9.665222167968
 30
0.0
 11
-0.0000000000000071
 21
9.286804199218
 31
0.0
 11
0.0075073242189916
 21
9.401000976561999
 31
0.0
 11
0.0471954345699928
 21
9.509094238280997
 31
0.0
 11
0.11819458007799
 21
9.600280761718
 31
0.0
 11
0.2135925292969887
 21
9.665222167968
 31
0.0
  0
SPLINE
  5
209E
330
2084
100
AcDbEntity
  8
AM_0
100
AcDbSpline
210
0.0
220
0.0
230
1.0
 70
     8
 71
     3
 72
    11
 73
     7
 74
     5
 42
0.0000000001
 43
0.0000000001
 44
0.0000000001
 40
0.0
 40
0.0
 40
0.0
 40
0.0
 40
2.178097001277993
 40
4.359141170069829
 40
6.543367293759864
 40
8.73067050272807
 40
8.73067050272807
 40
8.73067050272807
 40
8.73067050272807
 10
9.094497680663991
 20
9.886596679686999
 30
0.0
 10
8.368592013639386
 20
9.873027759013035
 30
0.0
 10
6.915798461810751
 20
9.845871557655348
 30
0.0
 10
4.735135583471071
 20
9.801049439170842
 30
0.0
 10
2.551465005115976
 20
9.753319542467519
 30
0.0
 10
1.094696104577293
 20
9.718847349786704
 30
0.0
 10
0.3657989501949928
 20
9.701599121093
 30
0.0
 11
9.094497680663991
 21
9.886596679686999
 31
0.0
 11
6.916793823241988
 21
9.845214843749996
 31
0.0
 11
4.736206054686988
 21
9.800598144530997
 31
0.0
 11
2.552505493163991
 21
9.752685546874996
 31
0.0
 11
0.3657989501949928
 21
9.701599121093
 31
0.0
  0
SPLINE
  5
209F
330
2084
100
AcDbEntity
  8
AM_0
100
AcDbSpline
210
0.0
220
0.0
230
1.0
 70
     8
 71
     3
 72
    11
 73
     7
 74
     5
 42
0.0000000001
 43
0.0000000001
 44
0.0000000001
 40
0.0
 40
0.0
 40
0.0
 40
0.0
 40
1.051158925012384
 40
2.102542869692467
 40
3.153852553275065
 40
4.205343209617248
 40
4.205343209617248
 40
4.205343209617248
 40
4.205343209617248
 10
0.7218017578119884
 20
4.004211425780997
 30
0.0
 10
0.6683902338746651
 20
4.350502884956575
 30
0.0
 10
0.5615557522928199
 20
5.04315993328676
 30
0.0
 10
0.4014974032664035
 20
6.082188215195713
 30
0.0
 10
0.2414875097645647
 20
7.121335835766741
 30
0.0
 10
0.1348303579124358
 20
7.814107045284012
 30
0.0
 10
0.0814971923829902
 20
8.160522460936999
 30
0.0
 11
0.7218017578119884
 21
4.004211425780997
 31
0.0
 11
0.5615997314449928
 21
5.043090820311999
 31
0.0
 11
0.4015045166009941
 21
6.082214355468
 31
0.0
 11
0.2415008544919885
 21
7.121276855468
 31
0.0
 11
0.0814971923829902
 21
8.160522460936999
 31
0.0
  0
SPLINE
  5
20A0
330
2084
100
AcDbEntity
  8
AM_0
100
AcDbSpline
210
0.0
220
0.0
230
1.0
 70
     8
 71
     3
 72
    11
 73
     7
 74
     5
 42
0.0000000001
 43
0.0000000001
 44
0.0000000001
 40
0.0
 40
0.0
 40
0.0
 40
0.0
 40
0.1309630602387505
 40
0.2622571092297474
 40
0.3932400797017749
 40
0.5239586630719091
 40
0.5239586630719091
 40
0.5239586630719091
 40
0.5239586630719091
 10
0.9656066894529899
 20
3.551086425780997
 30
0.0
 10
0.934621858192791
 20
3.582015488224828
 30
0.0
 10
0.8725738863337241
 20
3.643951781504155
 30
0.0
 10
0.8020946243437325
 20
3.755456223201708
 30
0.0
 10
0.74813507145085
 20
3.875708645521194
 30
0.0
 10
0.7305736151350269
 20
3.961406024625965
 30
0.0
 10
0.7218017578119884
 20
4.004211425780997
 30
0.0
 11
0.9656066894529899
 21
3.551086425780997
 31
0.0
 11
0.8764038085939915
 21
3.646972656249996
 31
0.0
 11
0.8047943115229898
 21
3.757019042968
 31
0.0
 11
0.7527008056639915
 21
3.877197265624996
 31
0.0
 11
0.7218017578119884
 21
4.004211425780997
 31
0.0
  0
SPLINE
  5
20A1
330
2084
100
AcDbEntity
  8
AM_0
100
AcDbSpline
210
0.0
220
0.0
230
1.0
 70
     8
 71
     3
 72
    11
 73
     7
 74
     5
 42
0.0000000001
 43
0.0000000001
 44
0.0000000001
 40
0.0
 40
0.0
 40
0.0
 40
0.0
 40
0.2466688550919529
 40
0.4944260795204696
 40
0.7421119142395109
 40
0.9881755426548382
 40
0.9881755426548382
 40
0.9881755426548382
 40
0.9881755426548382
 10
9.094497680663991
 20
9.886596679686999
 30
0.0
 10
9.177289759438975
 20
9.882182846194602
 30
0.0
 10
9.343239217909548
 20
9.873335704189232
 30
0.0
 10
9.571932780878558
 20
9.766917718572834
 30
0.0
 10
9.764766789227472
 20
9.604327615983542
 30
0.0
 10
9.841544025590787
 20
9.457140720230135
 30
0.0
 10
9.879806518554993
 20
9.383789062499996
 30
0.0
 11
9.094497680663991
 21
9.886596679686999
 31
0.0
 11
9.339492797850994
 21
9.857910156249996
 31
0.0
 11
9.565994262694992
 21
9.757507324218
 31
0.0
 11
9.752197265624992
 21
9.594177246093
 31
0.0
 11
9.879806518554993
 21
9.383789062499996
 31
0.0
  0
SPLINE
  5
20A2
330
2084
100
AcDbEntity
  8
AM_0
100
AcDbSpline
210
0.0
220
0.0
230
1.0
 70
     8
 71
     3
 72
    11
 73
     7
 74
     5
 42
0.0000000001
 43
0.0000000001
 44
0.0000000001
 40
0.0
 40
0.0
 40
0.0
 40
0.0
 40
0.0620330488507918
 40
0.1244971882319498
 40
0.1871590752671031
 40
0.2496297503523519
 40
0.2496297503523519
 40
0.2496297503523519
 40
0.2496297503523519
 10
0.7985992431639915
 20
9.032104492186999
 30
0.0
 10
0.7809477616961973
 20
9.021227430501282
 30
0.0
 10
0.7455221321071286
 20
8.999397718417416
 30
0.0
 10
0.7004357999573943
 20
8.955725977735601
 30
0.0
 10
0.6619560535837071
 20
8.905941060045918
 30
0.0
 10
0.6441760832293526
 20
8.868082489039661
 30
0.0
 10
0.6352996826169886
 20
8.849182128905997
 30
0.0
 11
0.7985992431639915
 21
9.032104492186999
 31
0.0
 11
0.7469940185549931
 21
8.997680664061999
 31
0.0
 11
0.7015991210939916
 21
8.954772949218
 31
0.0
 11
0.6638946533199928
 21
8.904724121093
 31
0.0
 11
0.6352996826169886
 21
8.849182128905997
 31
0.0
  0
SPLINE
  5
20A3
330
2084
100
AcDbEntity
  8
AM_0
100
AcDbSpline
210
0.0
220
0.0
230
1.0
 70
     8
 71
     3
 72
    11
 73
     7
 74
     5
 42
0.0000000001
 43
0.0000000001
 44
0.0000000001
 40
0.0
 40
0.0
 40
0.0
 40
0.0
 40
0.0265478067221618
 40
0.0527893218780664
 40
0.0791478939960838
 40
0.1056666026543128
 40
0.1056666026543128
 40
0.1056666026543128
 40
0.1056666026543128
 10
0.6352996826169886
 20
8.849182128905997
 30
0.0
 10
0.6320997054495594
 20
8.840926614756689
 30
0.0
 10
0.6257366703988009
 20
8.824510833285259
 30
0.0
 10
0.6185611472035683
 20
8.79909331642743
 30
0.0
 10
0.6127974368854341
 20
8.773330738815419
 30
0.0
 10
0.6105384377739222
 20
8.755841443128382
 30
0.0
 10
0.60940551757799
 20
8.747070312499996
 30
0.0
 11
0.6352996826169886
 21
8.849182128905997
 31
0.0
 11
0.6260986328119884
 21
8.824279785155997
 31
0.0
 11
0.6188049316409945
 21
8.799072265624996
 31
0.0
 11
0.6132049560549931
 21
8.773315429686999
 31
0.0
 11
0.60940551757799
 21
8.747070312499996
 31
0.0
  0
SPLINE
  5
20A4
330
2084
100
AcDbEntity
  8
AM_0
100
AcDbSpline
210
0.0
220
0.0
230
1.0
 70
     8
 71
     3
 72
    11
 73
     7
 74
     5
 42
0.0000000001
 43
0.0000000001
 44
0.0000000001
 40
0.0
 40
0.0
 40
0.0
 40
0.0
 40
0.0484517877209831
 40
0.096586070137491
 40
0.1448482956942509
 40
0.1940668792741951
 40
0.1940668792741951
 40
0.1940668792741951
 40
0.1940668792741951
 10
0.9844970703119884
 20
9.081481933593
 30
0.0
 10
0.9683524990559339
 20
9.080576982787448
 30
0.0
 10
0.9361691521656874
 20
9.078773011332788
 30
0.0
 10
0.8887366175046139
 20
9.068967521035203
 30
0.0
 10
0.8424406891446443
 20
9.053894147766264
 30
0.0
 10
0.8133083284117553
 20
9.039415060857026
 30
0.0
 10
0.7985992431639915
 20
9.032104492186999
 30
0.0
 11
0.9844970703119884
 21
9.081481933593
 31
0.0
 11
0.936203002929993
 21
9.077575683593
 31
0.0
 11
0.8890075683589913
 21
9.068115234374996
 31
0.0
 11
0.8432006835939915
 21
9.052917480468
 31
0.0
 11
0.7985992431639915
 21
9.032104492186999
 31
0.0
  0
SPLINE
  5
20A5
330
2084
100
AcDbEntity
  8
AM_0
100
AcDbSpline
210
0.0
220
0.0
230
1.0
 70
     8
 71
     3
 72
    11
 73
     7
 74
     5
 42
0.0000000001
 43
0.0000000001
 44
0.0000000001
 40
0.0
 40
0.0
 40
0.0
 40
0.0
 40
0.0523479929665125
 40
0.1044604392542116
 40
0.1565331959120567
 40
0.2088478045610845
 40
0.2088478045610845
 40
0.2088478045610845
 40
0.2088478045610845
 10
0.9125976562499928
 20
4.481811523436999
 30
0.0
 10
0.9152444957648352
 20
4.464558258887092
 30
0.0
 10
0.9205262649920282
 20
4.430129363120158
 30
0.0
 10
0.9324116486129117
 20
4.379278136170511
 30
0.0
 10
0.9472510954350703
 20
4.329213996574404
 30
0.0
 10
0.9598751372063436
 20
4.296774770102086
 30
0.0
 10
0.966201782225994
 20
4.280517578124996
 30
0.0
 11
0.9125976562499928
 21
4.481811523436999
 31
0.0
 11
0.9212036132809942
 21
4.430175781249996
 31
0.0
 11
0.9329071044919885
 21
4.379394531249996
 31
0.0
 11
0.9479064941409944
 21
4.329528808593
 31
0.0
 11
0.966201782225994
 21
4.280517578124996
 31
0.0
  0
SPLINE
  5
20A6
330
2084
100
AcDbEntity
  8
AM_0
100
AcDbSpline
210
0.0
220
0.0
230
1.0
 70
     8
 71
     3
 72
    11
 73
     7
 74
     5
 42
0.0000000001
 43
0.0000000001
 44
0.0000000001
 40
0.0
 40
0.0
 40
0.0
 40
0.0
 40
0.0436494217180941
 40
0.0872378212815946
 40
0.1308282078642189
 40
0.1744776295822923
 40
0.1744776295822923
 40
0.1744776295822923
 40
0.1744776295822923
 10
8.514205932616988
 20
9.202087402343
 30
0.0
 10
8.514508645492423
 20
9.216634057521183
 30
0.0
 10
8.515113648048874
 20
9.245707031565952
 30
0.0
 10
8.5159738099087
 20
9.289308012121246
 30
0.0
 10
8.517030107988073
 20
9.332904734822133
 30
0.0
 10
8.517608945143081
 20
9.36197893937806
 30
0.0
 10
8.517898559569992
 20
9.376525878905997
 30
0.0
 11
8.514205932616988
 21
9.202087402343
 31
0.0
 11
8.515106201171988
 21
9.245727539061999
 31
0.0
 11
8.516006469725994
 21
9.289306640624996
 31
0.0
 11
8.516998291015994
 21
9.332885742186999
 31
0.0
 11
8.517898559569992
 21
9.376525878905997
 31
0.0
  0
SPLINE
  5
20A7
330
2084
100
AcDbEntity
  8
AM_0
100
AcDbSpline
210
0.0
220
0.0
230
1.0
 70
     8
 71
     3
 72
    11
 73
     7
 74
     5
 42
0.0000000001
 43
0.0000000001
 44
0.0000000001
 40
0.0
 40
0.0
 40
0.0
 40
0.0
 40
0.0866038970905536
 40
0.1718670953691089
 40
0.2565746628125125
 40
0.3419784541540607
 40
0.3419784541540607
 40
0.3419784541540607
 40
0.3419784541540607
 10
8.882095336913991
 20
9.355590820311999
 30
0.0
 10
8.854914515347314
 20
9.365396155540974
 30
0.0
 10
8.800973653453695
 20
9.38485503142923
 30
0.0
 10
8.717214533022147
 20
9.403156353506723
 30
0.0
 10
8.632436470599841
 20
9.413003756893212
 30
0.0
 10
8.5756865344176
 20
9.411880063942577
 30
0.0
 10
8.547195434569992
 20
9.411315917968
 30
0.0
 11
8.882095336913991
 21
9.355590820311999
 31
0.0
 11
8.80000305175799
 21
9.383178710936999
 31
0.0
 11
8.716796874999992
 21
9.401794433593
 31
0.0
 11
8.632598876952989
 21
9.411071777343
 31
0.0
 11
8.547195434569992
 21
9.411315917968
 31
0.0
  0
SPLINE
  5
20A8
330
2084
100
AcDbEntity
  8
AM_0
100
AcDbSpline
210
0.0
220
0.0
230
1.0
 70
     8
 71
     3
 72
    11
 73
     7
 74
     5
 42
0.0000000001
 43
0.0000000001
 44
0.0000000001
 40
0.0
 40
0.0
 40
0.0
 40
0.0
 40
0.0647900923092822
 40
0.1286785455386716
 40
0.1922690139357058
 40
0.2561594296078947
 40
0.2561594296078947
 40
0.2561594296078947
 40
0.2561594296078947
 10
8.765304565429993
 20
9.160827636718
 30
0.0
 10
8.74489899178862
 20
9.167958465850755
 30
0.0
 10
8.704371814816566
 20
9.182120889279749
 30
0.0
 10
8.641559482302874
 20
9.195549859959033
 30
0.0
 10
8.578050434766161
 20
9.202995445139535
 30
0.0
 10
8.535520789056832
 20
9.202390557684459
 30
0.0
 10
8.514205932616988
 20
9.202087402343
 30
0.0
 11
8.765304565429993
 21
9.160827636718
 31
0.0
 11
8.703704833983991
 21
9.180908203124996
 31
0.0
 11
8.641296386718991
 21
9.194580078124996
 31
0.0
 11
8.578094482421988
 21
9.201599121093
 31
0.0
 11
8.514205932616988
 21
9.202087402343
 31
0.0
  0
SPLINE
  5
20A9
330
2084
100
AcDbEntity
  8
AM_0
100
AcDbSpline
210
0.0
220
0.0
230
1.0
 70
     8
 71
     3
 72
    11
 73
     7
 74
     5
 42
0.0000000001
 43
0.0000000001
 44
0.0000000001
 40
0.0
 40
0.0
 40
0.0
 40
0.0
 40
0.0937029514381563
 40
0.1857291232019218
 40
0.2771678861344373
 40
0.3695797537117525
 40
0.3695797537117525
 40
0.3695797537117525
 40
0.3695797537117525
 10
9.178894042968991
 20
9.140991210936999
 30
0.0
 10
9.157783030992593
 20
9.16406653212994
 30
0.0
 10
9.115938780794463
 20
9.209804250173926
 30
0.0
 10
9.043795450435476
 20
9.267969094751393
 30
0.0
 10
8.966319699119541
 20
9.318047573749298
 30
0.0
 10
8.910269014705276
 20
9.343032324121608
 30
0.0
 10
8.882095336913991
 20
9.355590820311999
 30
0.0
 11
9.178894042968991
 21
9.140991210936999
 31
0.0
 11
9.113906860350994
 21
9.208496093749996
 31
0.0
 11
9.042694091796988
 21
9.266784667968
 31
0.0
 11
8.965499877929993
 21
9.315795898436999
 31
0.0
 11
8.882095336913991
 21
9.355590820311999
 31
0.0
  0
SPLINE
  5
20AA
330
2084
100
AcDbEntity
  8
AM_0
100
AcDbSpline
210
0.0
220
0.0
230
1.0
 70
     8
 71
     3
 72
    11
 73
     7
 74
     5
 42
0.0000000001
 43
0.0000000001
 44
0.0000000001
 40
0.0
 40
0.0
 40
0.0
 40
0.0
 40
1.064184972689724
 40
2.136998043423041
 40
3.20953755695667
 40
4.273216780131166
 40
4.273216780131166
 40
4.273216780131166
 40
4.273216780131166
 10
5.122299194335994
 20
-8.007385253906999
 30
0.0
 10
4.763476523513107
 20
-7.903218103644849
 30
0.0
 10
4.042921953430946
 20
-7.694039246574037
 30
0.0
 10
3.642495065517663
 20
-6.541145126991416
 30
0.0
 10
4.142606328489382
 20
-5.428406157301477
 30
0.0
 10
4.878223694889438
 20
-5.282655883873533
 30
0.0
 10
5.244506835936988
 20
-5.210083007813
 30
0.0
 11
5.122299194335994
 21
-8.007385253906999
 31
0.0
 11
4.15840148925799
 21
-7.556396484375
 31
0.0
 11
3.792999267577989
 21
-6.547729492188
 31
0.0
 11
4.245498657225994
 21
-5.575317382813
 31
0.0
 11
5.244506835936988
 21
-5.210083007813
 31
0.0
  0
SPLINE
  5
20AB
330
2084
100
AcDbEntity
  8
AM_0
100
AcDbSpline
210
0.0
220
0.0
230
1.0
 70
     8
 71
     3
 72
    11
 73
     7
 74
     5
 42
0.0000000001
 43
0.0000000001
 44
0.0000000001
 40
0.0
 40
0.0
 40
0.0
 40
0.0
 40
1.330733811582527
 40
2.672378458009692
 40
4.009807455977192
 40
5.351227999198562
 40
5.351227999198562
 40
5.351227999198562
 40
5.351227999198562
 10
5.280700683593991
 20
-8.364685058594002
 30
0.0
 10
5.738217827546721
 20
-8.272972075757436
 30
0.0
 10
6.657003349510269
 20
-8.088794145115709
 30
0.0
 10
7.289781424800899
 20
-6.703655870870229
 30
0.0
 10
6.792417242475077
 20
-5.256082515395789
 30
0.0
 10
5.886852441868118
 20
-4.997476586010814
 30
0.0
 10
5.433395385741988
 20
-4.867980957031999
 30
0.0
 11
5.280700683593991
 21
-8.364685058594002
 31
0.0
 11
6.529998779296988
 21
-7.906311035156999
 31
0.0
 11
7.101303100585994
 21
-6.6923828125
 31
0.0
 11
6.649795532225994
 21
-5.433471679688
 31
0.0
 11
5.433395385741988
 21
-4.867980957031999
 31
0.0
  0
SPLINE
  5
20AC
330
2084
100
AcDbEntity
  8
AM_0
100
AcDbSpline
210
0.0
220
0.0
230
1.0
 70
     8
 71
     3
 72
    11
 73
     7
 74
     5
 42
0.0000000001
 43
0.0000000001
 44
0.0000000001
 40
0.0
 40
0.0
 40
0.0
 40
0.0
 40
1.341547238370327
 40
2.678136656300054
 40
4.020220437993034
 40
5.34750216461038
 40
5.34750216461038
 40
5.34750216461038
 40
5.34750216461038
 10
5.433395385741988
 20
-4.867980957031999
 30
0.0
 10
4.970258153439006
 20
-4.957802628836957
 30
0.0
 10
4.04569525825933
 20
-5.137114027579226
 30
0.0
 10
3.427280042678571
 20
-6.536764949715938
 30
0.0
 10
3.93595997636135
 20
-7.970304455662905
 30
0.0
 10
4.834113916528303
 20
-8.233711735997957
 30
0.0
 10
5.280700683593991
 20
-8.364685058594002
 30
0.0
 11
5.433395385741988
 21
-4.867980957031999
 31
0.0
 11
4.172607421874992
 21
-5.326416015625
 31
0.0
 11
3.615402221679993
 21
-6.541320800781999
 31
0.0
 11
4.079193115233991
 21
-7.800720214844002
 31
0.0
 11
5.280700683593991
 21
-8.364685058594002
 31
0.0
  0
SPLINE
  5
20AD
330
2084
100
AcDbEntity
  8
AM_0
100
AcDbSpline
210
0.0
220
0.0
230
1.0
 70
     8
 71
     3
 72
    11
 73
     7
 74
     5
 42
0.0000000001
 43
0.0000000001
 44
0.0000000001
 40
0.0
 40
0.0
 40
0.0
 40
0.0
 40
2.223036226566485
 40
4.445480845699645
 40
6.667370139040421
 40
8.88869437107586
 40
8.88869437107586
 40
8.88869437107586
 40
8.88869437107586
 10
10.42570495605499
 20
-3.534484863281999
 30
0.0
 10
9.684906179757128
 20
-3.516700605753604
 30
0.0
 10
8.203505772874732
 20
-3.481136823547688
 30
0.0
 10
5.981594145111567
 20
-3.431872950697155
 30
0.0
 10
3.760195789090359
 20
-3.385279712310048
 30
0.0
 10
2.279397835074839
 20
-3.356818918966892
 30
0.0
 10
1.539093017577989
 20
-3.342590332031999
 30
0.0
 11
10.42570495605499
 21
-3.534484863281999
 31
0.0
 11
8.203292846679993
 21
-3.481811523438
 31
0.0
 11
5.98139953613299
 21
-3.432312011719002
 31
0.0
 11
3.759994506835994
 21
-3.385925292969002
 31
0.0
 11
1.539093017577989
 21
-3.342590332031999
 31
0.0
  0
SPLINE
  5
20AE
330
2084
100
AcDbEntity
  8
AM_0
100
AcDbSpline
210
0.0
220
0.0
230
1.0
 70
     8
 71
     3
 72
    11
 73
     7
 74
     5
 42
0.0000000001
 43
0.0000000001
 44
0.0000000001
 40
0.0
 40
0.0
 40
0.0
 40
0.0
 40
0.2882893054631648
 40
0.5748929368559642
 40
0.8599187322545224
 40
1.143945313783528
 40
1.143945313783528
 40
1.143945313783528
 40
1.143945313783528
 10
1.539093017577989
 20
-3.342590332031999
 30
0.0
 10
1.44211211586579
 20
-3.349118492519231
 30
0.0
 10
1.248717375416808
 20
-3.362136642286329
 30
0.0
 10
0.9924065108228802
 20
-3.507271041613476
 30
0.0
 10
0.7961040096295218
 20
-3.726012050219044
 30
0.0
 10
0.7465401649364864
 20
-3.911586919174065
 30
0.0
 10
0.7218017578119884
 20
-4.004211425781999
 30
0.0
 11
1.539093017577989
 21
-3.342590332031999
 31
0.0
 11
1.253692626952989
 21
-3.38330078125
 31
0.0
 11
1.001800537108991
 21
-3.52001953125
 31
0.0
 11
0.8161926269529899
 21
-3.736328125
 31
0.0
 11
0.7218017578119884
 21
-4.004211425781999
 31
0.0
  0
SPLINE
  5
20AF
330
2084
100
AcDbEntity
  8
AM_0
100
AcDbSpline
210
0.0
220
0.0
230
1.0
 70
     8
 71
     3
 72
    11
 73
     7
 74
     5
 42
0.0000000001
 43
0.0000000001
 44
0.0000000001
 40
0.0
 40
0.0
 40
0.0
 40
0.0
 40
1.051158925012384
 40
2.102542869692467
 40
3.153852553275065
 40
4.205343209617248
 40
4.205343209617248
 40
4.205343209617248
 40
4.205343209617248
 10
0.7218017578119884
 20
-4.004211425781999
 30
0.0
 10
0.6683902338746651
 20
-4.350502884957577
 30
0.0
 10
0.5615557522928199
 20
-5.043159933287762
 30
0.0
 10
0.4014974032664035
 20
-6.082188215196714
 30
0.0
 10
0.2414875097645647
 20
-7.121335835767742
 30
0.0
 10
0.1348303579124358
 20
-7.814107045285014
 30
0.0
 10
0.0814971923829902
 20
-8.160522460938
 30
0.0
 11
0.7218017578119884
 21
-4.004211425781999
 31
0.0
 11
0.5615997314449928
 21
-5.043090820313
 31
0.0
 11
0.4015045166009941
 21
-6.082214355469002
 31
0.0
 11
0.2415008544919885
 21
-7.121276855469002
 31
0.0
 11
0.0814971923829902
 21
-8.160522460938
 31
0.0
  0
SPLINE
  5
20B0
330
2084
100
AcDbEntity
  8
AM_0
100
AcDbSpline
210
0.0
220
0.0
230
1.0
 70
     8
 71
     3
 72
    11
 73
     7
 74
     5
 42
0.0000000001
 43
0.0000000001
 44
0.0000000001
 40
0.0
 40
0.0
 40
0.0
 40
0.0
 40
0.1144432779707222
 40
0.2295923089361853
 40
0.3451598680494277
 40
0.4605641788914332
 40
0.4605641788914332
 40
0.4605641788914332
 40
0.4605641788914332
 10
-0.0000000000000071
 20
-9.286804199219002
 30
0.0
 10
0.0002467608871345
 20
-9.325219655253949
 30
0.0
 10
0.0007418043954869
 20
-9.402287469163967
 30
0.0
 10
0.042430563501005
 20
-9.511797495795711
 30
0.0
 10
0.1132368908214456
 20
-9.606131448551977
 30
0.0
 10
0.1801564157896383
 20
-9.645534544715625
 30
0.0
 10
0.2135925292969887
 20
-9.665222167969002
 30
0.0
 11
-0.0000000000000071
 21
-9.286804199219002
 31
0.0
 11
0.0075073242189916
 21
-9.401000976563
 31
0.0
 11
0.0471954345699928
 21
-9.509094238281999
 31
0.0
 11
0.11819458007799
 21
-9.600280761719002
 31
0.0
 11
0.2135925292969887
 21
-9.665222167969002
 31
0.0
  0
SPLINE
  5
20B1
330
2084
100
AcDbEntity
  8
AM_0
100
AcDbSpline
210
0.0
220
0.0
230
1.0
 70
     8
 71
     3
 72
    11
 73
     7
 74
     5
 42
0.0000000001
 43
0.0000000001
 44
0.0000000001
 40
0.0
 40
0.0
 40
0.0
 40
0.0
 40
2.178097001278012
 40
4.359141170069828
 40
6.543367293759885
 40
8.730670502728067
 40
8.730670502728067
 40
8.730670502728067
 40
8.730670502728067
 10
9.094497680663991
 20
-9.886596679688
 30
0.0
 10
8.368592013639389
 20
-9.873027759013465
 30
0.0
 10
6.915798461810773
 20
-9.845871557654632
 30
0.0
 10
4.735135583471041
 20
-9.8010494391727
 30
0.0
 10
2.551465005116008
 20
-9.753319542466808
 30
0.0
 10
1.094696104577298
 20
-9.718847349787132
 30
0.0
 10
0.3657989501949928
 20
-9.701599121094002
 30
0.0
 11
9.094497680663991
 21
-9.886596679688
 31
0.0
 11
6.916793823241988
 21
-9.84521484375
 31
0.0
 11
4.736206054686988
 21
-9.800598144531999
 31
0.0
 11
2.552505493163991
 21
-9.752685546875
 31
0.0
 11
0.3657989501949928
 21
-9.701599121094002
 31
0.0
  0
SPLINE
  5
20B2
330
2084
100
AcDbEntity
  8
AM_0
100
AcDbSpline
210
0.0
220
0.0
230
1.0
 70
     8
 71
     3
 72
    11
 73
     7
 74
     5
 42
0.0000000001
 43
0.0000000001
 44
0.0000000001
 40
0.0
 40
0.0
 40
0.0
 40
0.0
 40
0.2877001883214205
 40
0.5765419899616474
 40
0.8648607243072662
 40
1.150992527799054
 40
1.150992527799054
 40
1.150992527799054
 40
1.150992527799054
 10
9.094497680663991
 20
-9.886596679688
 30
0.0
 10
9.191254206503149
 20
-9.879951442411709
 30
0.0
 10
9.385151194456316
 20
-9.866634599119414
 30
0.0
 10
9.64309501182015
 20
-9.721507795167806
 30
0.0
 10
9.844153498676849
 20
-9.504198554807405
 30
0.0
 10
9.898722627917736
 20
-9.318220804423489
 30
0.0
 10
9.925903320311988
 20
-9.2255859375
 30
0.0
 11
9.094497680663991
 21
-9.886596679688
 31
0.0
 11
9.379302978515994
 21
-9.845886230469002
 31
0.0
 11
9.633804321288991
 21
-9.709289550781999
 31
0.0
 11
9.824707031249992
 21
-9.493225097656999
 31
0.0
 11
9.925903320311988
 21
-9.2255859375
 31
0.0
  0
SPLINE
  5
20B3
330
2084
100
AcDbEntity
  8
AM_0
100
AcDbSpline
210
0.0
220
0.0
230
1.0
 70
     8
 71
     3
 72
    11
 73
     7
 74
     5
 42
0.0000000001
 43
0.0000000001
 44
0.0000000001
 40
0.0
 40
0.0
 40
0.0
 40
0.0
 40
1.054512467253177
 40
2.108987052099569
 40
3.163685694577379
 40
4.21840929505808
 40
4.21840929505808
 40
4.21840929505808
 40
4.21840929505808
 10
9.925903320311988
 20
-9.2255859375
 30
0.0
 10
9.988287633862135
 20
-8.879662000325041
 30
0.0
 10
10.11305401986238
 20
-8.187826552979744
 30
0.0
 10
10.29991770981626
 20
-7.149952392533024
 30
0.0
 10
10.48674444429676
 20
-6.112000070791002
 30
0.0
 10
10.61111036920176
 20
-5.419945135799849
 30
0.0
 10
10.67329406738299
 20
-5.073913574219002
 30
0.0
 11
9.925903320311988
 21
-9.2255859375
 31
0.0
 11
10.11300659179698
 21
-8.187805175781999
 31
0.0
 11
10.29989624023399
 21
-7.150024414063
 31
0.0
 11
10.48669433593698
 21
-6.111999511719002
 31
0.0
 11
10.67329406738299
 21
-5.073913574219002
 31
0.0
  0
SPLINE
  5
20B4
330
2084
100
AcDbEntity
  8
AM_0
100
AcDbSpline
210
0.0
220
0.0
230
1.0
 70
     8
 71
     3
 72
    11
 73
     7
 74
     5
 42
0.0000000001
 43
0.0000000001
 44
0.0000000001
 40
0.0
 40
0.0
 40
0.0
 40
0.0
 40
0.1141104930345908
 40
0.2283106996805339
 40
0.3426769523820974
 40
0.4571401500830797
 40
0.4571401500830797
 40
0.4571401500830797
 40
0.4571401500830797
 10
10.78320312499999
 20
-3.948913574219002
 30
0.0
 10
10.78392771372399
 20
-3.910609674800832
 30
0.0
 10
10.78537746084329
 20
-3.833971761458331
 30
0.0
 10
10.74625473405623
 20
-3.724339812993114
 30
0.0
 10
10.67720547007025
 20
-3.629839803485433
 30
0.0
 10
10.61100858370498
 20
-3.590567381537912
 30
0.0
 10
10.57789611816399
 20
-3.570922851563
 30
0.0
 11
10.78320312499999
 21
-3.948913574219002
 31
0.0
 11
10.77850341796899
 21
-3.834899902344002
 31
0.0
 11
10.74130249023399
 21
-3.726928710938
 31
0.0
 11
10.67219543456999
 21
-3.635803222656999
 31
0.0
 11
10.57789611816399
 21
-3.570922851563
 31
0.0
  0
ARC
  5
20B5
330
2084
100
AcDbEntity
  8
AM_0
100
AcDbCircle
 10
9.691894531249992
 20
-4.378723144531999
 30
0.0
 40
1.497893333435099
100
AcDbArc
 50
309.9138061747594
 51
86.204473212891
  0
LINE
  5
20B6
330
2084
100
AcDbEntity
  8
AM_0
100
AcDbLine
 10
10.80978393554698
 20
-5.534448623658001
 30
0.0
 11
10.55139541625999
 21
-5.751914978028001
 31
0.0
  0
LINE
  5
20B7
330
2084
100
AcDbEntity
  8
AM_0
100
AcDbLine
 10
11.81469345092799
 20
1.406829833983998
 30
0.0
 11
9.556785583495994
 21
1.462921142578
 31
0.0
  0
LINE
  5
20B8
330
2084
100
AcDbEntity
  8
AM_0
100
AcDbLine
 10
10.42568588256798
 20
-3.534425735474002
 30
0.0
 11
10.57788085937499
 21
-3.570865631104002
 31
0.0
  0
LINE
  5
20B9
330
2084
100
AcDbEntity
  8
AM_0
100
AcDbLine
 10
10.57790374755899
 20
-3.570981979369999
 30
0.0
 11
10.42649459838899
 21
-3.534542083741001
 31
0.0
  0
LWPOLYLINE
  5
20BA
330
2084
100
AcDbEntity
  8
AM_11
100
AcDbPolyline
 90
        4
 70
     1
 43
0.0
 10
-0.0000000000000071
 20
9.999999999999996
 10
8.999999999999992
 20
9.999999999999996
 10
8.999999999999992
 20
-10.0
 10
-0.0000000000000071
 20
-10.0
1001
GENIUS_GENREC_14
1002
{
1000
PYDIR
1011
-0.0000000000000071
1021
-10.0
1031
0.0
1002
}
1002
{
1000
PXDIR
1011
8.999999999999992
1021
9.999999999999996
1031
0.0
1002
}
1002
{
1000
PORI
1011
-0.0000000000000071
1021
9.999999999999996
1031
0.0
1002
}
1002
{
1000
PINS
1011
-0.0000000000000071
1021
9.999999999999996
1031
0.0
1002
}
1002
{
1000
PINS2
1011
8.999999999999992
1021
-10.0
1031
0.0
1002
}
1002
{
1000
C
1070
     1
1002
}
1001
GENIUS_GENODEF_13
1002
{
1000
HIER
1070
     0
1002
}
1002
{
1000
MANEDIT
1070
     0
1002
}
1002
{
1000
NOSEL
1070
     0
1002
}
1002
{
1000
BEHIND
1070
     0
1002
}
1002
{
1000
REACTOR
1002
}
1001
GENIUS_GENOBJ-N-REC_13
1002
{
1000
OWNER
1000
GEN
1002
}
  0
LINE
  5
20BB
330
2084
100
AcDbEntity
  8
AM_0
100
AcDbLine
 10
0.972305297850994
 20
8.516418457030997
 30
0.0
 11
0.972305297850994
 21
1.060485839843
 31
0.0
  0
LINE
  5
20BC
330
2084
100
AcDbEntity
  8
AM_0
100
AcDbLine
 10
1.163192749022989
 20
8.728820800780997
 30
0.0
 11
1.163192749022989
 21
1.175170898436999
 31
0.0
  0
ARC
  5
20BD
330
2084
100
AcDbEntity
  8
AM_0
100
AcDbCircle
 10
5.252899169921988
 20
-6.61181640625
 30
0.0
 40
1.749966859817499
100
AcDbArc
 50
268.3037678264732
 51
86.53068304765378
  0
ARC
  5
20BE
330
2084
100
AcDbEntity
  8
AM_0
100
AcDbCircle
 10
5.205307006835994
 20
-6.5205078125
 30
0.0
 40
1.2500885725021
100
AcDbArc
 50
87.50128707965769
 51
267.5010803527499
  0
ARC
  5
20BF
330
2084
100
AcDbEntity
  8
AM_0
100
AcDbCircle
 10
5.205307006835994
 20
-6.5205078125
 30
0.0
 40
1.2499886751175
100
AcDbArc
 50
267.5010908254033
 51
87.50128707965769
  0
LINE
  5
20C0
330
2084
100
AcDbEntity
  8
AM_0
100
AcDbLine
 10
0.0815010070799929
 20
-8.160509109496999
 30
0.0
 11
-0.0000000000000071
 21
-9.286806106568
 31
0.0
  0
LINE
  5
20C1
330
2084
100
AcDbEntity
  8
AM_0
100
AcDbLine
 10
0.3657989501949928
 20
-9.701595306396999
 30
0.0
 11
0.2135925292969887
 21
-9.665218353271999
 31
0.0
  0
LINE
  5
20C2
330
2084
100
AcDbEntity
  8
AM_0
100
AcDbLine
 10
0.2136077880859943
 20
-9.665216445923
 30
0.0
 11
0.3649978637689912
 21
-9.70146560669
 31
0.0
  0
ARC
  5
20C3
330
2084
100
AcDbEntity
  8
AM_0
100
AcDbCircle
 10
5.121398925780994
 20
-6.606079101563
 30
0.0
 40
1.399960398673999
100
AcDbArc
 50
268.5305710880514
 51
86.18293079625127
  0
LINE
  5
20C4
330
2084
100
AcDbEntity
  8
AM_0
100
AcDbLine
 10
3.119789123534992
 20
-2.997476577759002
 30
0.0
 11
6.107696533202989
 21
-3.127969741821999
 31
0.0
  0
LINE
  5
20C5
330
2084
100
AcDbEntity
  8
AM_0
100
AcDbLine
 10
9.556774139403991
 20
1.463056564330997
 30
0.0
 11
1.163177490233991
 21
1.175214767455997
 31
0.0
  0
LINE
  5
20C6
330
2084
100
AcDbEntity
  8
AM_0
100
AcDbLine
 10
8.905597686766988
 20
-2.142194747925
 30
0.0
 11
1.173992156981988
 21
-1.804670333863001
 31
0.0
  0
LINE
  5
20C7
330
2084
100
AcDbEntity
  8
AM_0
100
AcDbLine
 10
0.9723281860349928
 20
-1.060472488403998
 30
0.0
 11
1.055717468261988
 21
-0.0001468658450001
 31
0.0
  0
LINE
  5
20C8
330
2084
100
AcDbEntity
  8
AM_0
100
AcDbLine
 10
0.9723014831539913
 20
1.060464859008
 30
0.0
 11
1.173992156981988
 21
-1.804697036743
 31
0.0
  0
LINE
  5
20C9
330
2084
100
AcDbEntity
  8
AM_0
100
AcDbLine
 10
1.198181152343991
 20
-3.414173126221001
 30
0.0
 11
1.232788085936988
 21
-2.607969284058
 31
0.0
  0
LINE
  5
20CA
330
2084
100
AcDbEntity
  8
AM_0
100
AcDbLine
 10
0.972305297850994
 20
-3.603576660156999
 30
0.0
 11
0.972305297850994
 21
-1.060485839844002
 31
0.0
  0
LINE
  5
20CB
330
2084
100
AcDbEntity
  8
AM_0
100
AcDbLine
 10
3.103366851806988
 20
-3.374153137206999
 30
0.0
 11
3.119770050048991
 21
-2.997495651244999
 31
0.0
  0
LINE
  5
20CC
330
2084
100
AcDbEntity
  8
AM_0
100
AcDbLine
 10
1.163162231444992
 20
1.175161361693998
 30
0.0
 11
0.9722785949709944
 21
1.060478210448998
 31
0.0
  0
LINE
  5
20CD
330
2084
100
AcDbEntity
  8
AM_0
100
AcDbLine
 10
6.073478698729992
 20
-3.203075408936001
 30
0.0
 11
6.107673645018991
 21
-3.127939224243
 31
0.0
  0
LINE
  5
20CE
330
2084
100
AcDbEntity
  8
AM_0
100
AcDbLine
 10
6.107681274413991
 20
-3.127956390381001
 30
0.0
 11
6.094390869140994
 21
-3.434797286988001
 31
0.0
  0
ARC
  5
20CF
330
2084
100
AcDbEntity
  8
AM_0
100
AcDbCircle
 10
9.848693847655994
 20
-4.385498046875
 30
0.0
 40
1.4993606805801
100
AcDbArc
 50
109.8247631742223
 51
129.9108673721792
  0
LINE
  5
20D0
330
2084
100
AcDbEntity
  8
AM_0
100
AcDbLine
 10
8.584079742431988
 20
-3.492103576659999
 30
0.0
 11
8.887672424315994
 21
-3.236545562744002
 31
0.0
  0
ARC
  5
20D1
330
2084
100
AcDbEntity
  8
AM_0
100
AcDbCircle
 10
5.205307006835994
 20
6.520507812499996
 30
0.0
 40
1.2499597072601
100
AcDbArc
 50
95.35711111581766
 51
262.363248134523
  0
LINE
  5
20D2
330
2084
100
AcDbEntity
  8
AM_0
100
AcDbLine
 10
1.028995513915994
 20
9.083045959471998
 30
0.0
 11
8.521690368651988
 21
9.410133361815997
 31
0.0
  0
LINE
  5
20D3
330
2084
100
AcDbEntity
  8
AM_0
100
AcDbLine
 10
8.514213562011988
 20
9.201148986815997
 30
0.0
 11
1.024597167968991
 21
8.874183654784996
 31
0.0
  0
LINE
  5
20D4
330
2084
100
AcDbEntity
  8
AM_0
100
AcDbLine
 10
0.0814781188959941
 20
8.160564422606999
 30
0.0
 11
0.7347717285159945
 21
5.774002075194996
 31
0.0
  0
LINE
  5
20D5
330
2084
100
AcDbEntity
  8
AM_0
100
AcDbLine
 10
0.6094818115229899
 20
8.642757415770997
 30
0.0
 11
0.7347869873049931
 21
5.773971557616999
 31
0.0
  0
LINE
  5
20D6
330
2084
100
AcDbEntity
  8
AM_0
100
AcDbLine
 10
0.947921752929993
 20
5.639705657959002
 30
0.0
 11
0.8164215087889914
 21
8.651790618895997
 31
0.0
  0
LINE
  5
20D7
330
2084
100
AcDbEntity
  8
AM_0
100
AcDbLine
 10
0.7347984313959941
 20
5.773956298828
 30
0.0
 11
0.7555999755859944
 21
5.631301879881998
 31
0.0
  0
LINE
  5
20D8
330
2084
100
AcDbEntity
  8
AM_0
100
AcDbLine
 10
0.966201782225994
 20
4.280506134033
 30
0.0
 11
0.9710998535159944
 21
4.268661499023
 31
0.0
  0
LINE
  5
20D9
330
2084
100
AcDbEntity
  8
AM_0
100
AcDbLine
 10
0.9081993103029901
 20
4.514896392821999
 30
0.0
 11
0.9125976562499928
 21
4.481803894043
 31
0.0
  0
LINE
  5
20DA
330
2084
100
AcDbEntity
  8
AM_0
100
AcDbLine
 10
0.9661903381349929
 20
4.280563354491999
 30
0.0
 11
0.9722938537599929
 21
4.282821655273
 31
0.0
  0
LINE
  5
20DB
330
2084
100
AcDbEntity
  8
AM_0
100
AcDbLine
 10
0.7555923461909942
 20
5.631301879881998
 30
0.0
 11
0.9478988647459942
 21
5.639724731444996
 31
0.0
  0
LINE
  5
20DC
330
2084
100
AcDbEntity
  8
AM_0
100
AcDbLine
 10
0.7556076049799927
 20
5.631278991699002
 30
0.0
 11
0.9082107543939912
 21
4.514892578124996
 31
0.0
  0
LINE
  5
20DD
330
2084
100
AcDbEntity
  8
AM_0
100
AcDbLine
 10
0.9081954956049926
 20
4.514926910399996
 30
0.0
 11
0.9722976684569886
 21
4.517734527588
 31
0.0
  0
LINE
  5
20DE
330
2084
100
AcDbEntity
  8
AM_0
100
AcDbLine
 10
0.9722976684569886
 20
5.461383819579996
 30
0.0
 11
0.9478988647459942
 21
5.639774322509001
 31
0.0
  0
ARC
  5
20DF
330
2084
100
AcDbEntity
  8
AM_0
100
AcDbCircle
 10
1.034606933593991
 20
8.645812988280997
 30
0.0
 40
0.2286188155413
100
AcDbArc
 50
92.50696879781894
 51
123.0501472565806
  0
ARC
  5
20E0
330
2084
100
AcDbEntity
  8
AM_0
100
AcDbCircle
 10
1.020492553710994
 20
8.667419433593
 30
0.0
 40
0.2026727944613
100
AcDbArc
 50
123.0392735954199
 51
155.6521564670438
  0
ARC
  5
20E1
330
2084
100
AcDbEntity
  8
AM_0
100
AcDbCircle
 10
1.048904418944992
 20
8.654602050780997
 30
0.0
 40
0.2334432005882
100
AcDbArc
 50
155.6636994867445
 51
168.5793003392897
  0
ARC
  5
20E2
330
2084
100
AcDbEntity
  8
AM_0
100
AcDbCircle
 10
1.019104003905994
 20
8.660583496093
 30
0.0
 40
0.2029217779636
100
AcDbArc
 50
168.5737815464435
 51
182.4858796781369
  0
LINE
  5
20E3
330
2084
100
AcDbEntity
  8
AM_0
100
AcDbLine
 10
1.163162231444992
 20
8.728832244873
 30
0.0
 11
0.9722671508789915
 21
8.516426086424996
 31
0.0
  0
LINE
  5
20E4
330
2084
100
AcDbEntity
  8
AM_0
100
AcDbLine
 10
0.2135887145999931
 20
9.665222167968
 30
0.0
 11
0.3650016784669887
 21
9.701477050780997
 31
0.0
  0
LINE
  5
20E5
330
2084
100
AcDbEntity
  8
AM_0
100
AcDbLine
 10
0.0814857482909943
 20
8.160560607909996
 30
0.0
 11
-0.0000076293950073
 21
9.286827087401999
 31
0.0
  0
LINE
  5
20E6
330
2084
100
AcDbEntity
  8
AM_0
100
AcDbLine
 10
0.60940551757799
 20
8.747093200683
 30
0.0
 11
0.60769653320299
 21
8.678634643554001
 31
0.0
  0
LINE
  5
20E7
330
2084
100
AcDbEntity
  8
AM_0
100
AcDbLine
 10
0.6077346801759945
 20
8.678588867186999
 30
0.0
 11
0.6095314025879901
 21
8.642745971679001
 31
0.0
  0
LINE
  5
20E8
330
2084
100
AcDbEntity
  8
AM_0
100
AcDbLine
 10
1.029010772704992
 20
9.083030700683
 30
0.0
 11
0.9844970703119884
 21
9.081504821776999
 31
0.0
  0
LINE
  5
20E9
330
2084
100
AcDbEntity
  8
AM_0
100
AcDbLine
 10
8.547195434569992
 20
9.411373138426998
 30
0.0
 11
8.521697998046988
 21
9.410152435301998
 31
0.0
  0
LINE
  5
20EA
330
2084
100
AcDbEntity
  8
AM_0
100
AcDbLine
 10
8.765285491942989
 20
9.160827636718
 30
0.0
 11
8.891284942626988
 21
9.093379974364996
 31
0.0
  0
LINE
  5
20EB
330
2084
100
AcDbEntity
  8
AM_0
100
AcDbLine
 10
8.882110595702989
 20
9.355587005614996
 30
0.0
 11
8.765312194823991
 21
9.160808563231999
 31
0.0
  0
LINE
  5
20EC
330
2084
100
AcDbEntity
  8
AM_0
100
AcDbLine
 10
8.517921447753991
 20
9.376552581786999
 30
0.0
 11
8.521717071532989
 21
9.410091400145997
 31
0.0
  0
LINE
  5
20ED
330
2084
100
AcDbEntity
  8
AM_0
100
AcDbLine
 10
9.207386016845994
 20
9.105255126953
 30
0.0
 11
9.178855895995994
 21
9.141052246093
 31
0.0
  0
LINE
  5
20EE
330
2084
100
AcDbEntity
  8
AM_0
100
AcDbLine
 10
9.178905487059992
 20
9.140972137450997
 30
0.0
 11
9.119525909423991
 21
9.100997924804001
 31
0.0
  0
LINE
  5
20EF
330
2084
100
AcDbEntity
  8
AM_0
100
AcDbLine
 10
29.99999999999999
 20
9.499999999999996
 30
0.0
 11
29.99999999999999
 21
-9.5
 31
0.0
  0
LINE
  5
20F0
330
2084
100
AcDbEntity
  8
AM_0
100
AcDbLine
 10
11.81469726562499
 20
9.495727539061999
 30
0.0
 11
11.81469726562499
 21
1.406921386718
 31
0.0
  0
LINE
  5
20F1
330
2084
100
AcDbEntity
  8
AM_0
100
AcDbLine
 10
30.86599731445299
 20
9.999999999999996
 30
0.0
 11
30.86599731445299
 21
-10.0
 31
0.0
  0
LINE
  5
20F2
330
2084
100
AcDbEntity
  8
AM_0
100
AcDbLine
 10
23.22721481323199
 20
-8.846775054931999
 30
0.0
 11
21.60372543334999
 21
-7.38017654419
 31
0.0
  0
ARC
  5
20F3
330
2084
100
AcDbEntity
  8
AM_0
100
AcDbCircle
 10
9.848693847655994
 20
-4.385498046875
 30
0.0
 40
1.497893333435099
100
AcDbArc
 50
309.9138061747594
 51
56.96731913098816
  0
LINE
  5
20F4
330
2084
100
AcDbEntity
  8
AM_0
100
AcDbLine
 10
10.67327880859399
 20
-5.073911666869999
 30
0.0
 11
10.78318786621099
 21
-3.948896408081001
 31
0.0
  0
LINE
  5
20F5
330
2084
100
AcDbEntity
  8
AM_0
100
AcDbLine
 10
10.65299224853499
 20
-5.527576446533998
 30
0.0
 11
10.58079528808599
 21
-5.588359832764002
 31
0.0
  0
LINE
  5
20F6
330
2084
100
AcDbEntity
  8
AM_0
100
AcDbLine
 10
23.68299865722599
 20
-9.5
 30
0.0
 11
29.99999999999999
 21
-9.5
 31
0.0
  0
LINE
  5
20F7
330
2084
100
AcDbEntity
  8
AM_0
100
AcDbLine
 10
30.00000762939399
 20
-9.50002861023
 30
0.0
 11
30.86599922180199
 21
-10.000024795533
 31
0.0
  0
LINE
  5
20F8
330
2084
100
AcDbEntity
  8
AM_0
100
AcDbLine
 10
29.99999999999999
 20
9.499999999999996
 30
0.0
 11
23.68299865722599
 21
9.499999999999996
 31
0.0
  0
LINE
  5
20F9
330
2084
100
AcDbEntity
  8
AM_0
100
AcDbLine
 10
30.86601257324199
 20
9.999954223631998
 30
0.0
 11
30.00002098083499
 21
9.499958038329996
 31
0.0
  0
LINE
  5
20FA
330
2084
100
AcDbEntity
  8
AM_0
100
AcDbLine
 10
109.9999999999989
 20
7.661499023436999
 30
0.0
 11
109.9999999999989
 21
-7.661499023438
 31
0.0
  0
LINE
  5
20FB
330
2084
100
AcDbEntity
  8
AM_0
100
AcDbLine
 10
106.9999999999989
 20
9.999999999999996
 30
0.0
 11
106.9999999999989
 21
-10.0
 31
0.0
  0
ARC
  5
20FC
330
2084
100
AcDbEntity
  8
AM_0
100
AcDbCircle
 10
107.9999999999989
 20
-7.661499023438
 30
0.0
 40
2.000036954879799
100
AcDbArc
 50
284.9985874788711
 51
0.0
  0
LINE
  5
20FD
330
2084
100
AcDbEntity
  8
AM_0
100
AcDbLine
 10
106.9999847412099
 20
-9.999946594238998
 30
0.0
 11
108.517589569091
 21
-9.593328475951999
 31
0.0
  0
ARC
  5
20FE
330
2084
100
AcDbEntity
  8
AM_0
100
AcDbCircle
 10
107.9999999999989
 20
7.661499023436999
 30
0.0
 40
2.0
100
AcDbArc
 50
0.0
 51
75.00141252112884
  0
LINE
  5
20FF
330
2084
100
AcDbEntity
  8
AM_0
100
AcDbLine
 10
108.5176200866689
 20
9.593399047850997
 30
0.0
 11
107.0000152587879
 21
10.000015258789
 31
0.0
  0
ENDBLK
  5
2101
330
2084
100
AcDbEntity
  8
0
100
AcDbBlockEnd
  0
BLOCK
  5
21AE
330
21A4
100
AcDbEntity
  8
0
100
AcDbBlockBegin
  2
*D18
 70
     1
 10
0.0
 20
0.0
 30
0.0
  3
*D18
  1

  0
LINE
  5
223A
330
21A4
100
AcDbEntity
  8
AM_5
 62
     3
100
AcDbLine
 10
0.0000000000000231
 20
10.00000000000001
 30
0.0
 11
0.0000000000000107
 21
25.00003433227611
 31
0.0
  0
LINE
  5
223B
330
21A4
100
AcDbEntity
  8
AM_5
 62
     3
100
AcDbLine
 10
-8.999999999999976
 20
10.00000000000001
 30
0.0
 11
-8.999999999999989
 21
25.0000343322761
 31
0.0
  0
LINE
  5
223C
330
21A4
100
AcDbEntity
  8
AM_5
 62
     3
100
AcDbLine
 10
-2.499999999999988
 20
24.0000343322761
 30
0.0
 11
-6.499999999999989
 21
24.0000343322761
 31
0.0
  0
INSERT
  5
223D
330
21A4
100
AcDbEntity
  8
AM_5
 62
     3
100
AcDbBlockReference
  2
_OPEN30
 10
0.0000000000000115
 20
24.00003433227611
 30
0.0
 41
2.5
 42
2.5
 43
2.5
 50
0.0000000000000799
  0
INSERT
  5
223E
330
21A4
100
AcDbEntity
  8
AM_5
 62
     3
100
AcDbBlockReference
  2
_OPEN30
 10
-8.999999999999989
 20
24.0000343322761
 30
0.0
 41
2.5
 42
2.5
 43
2.5
 50
180.0
  0
MTEXT
  5
223F
330
21A4
100
AcDbEntity
  8
AM_5
 62
     2
100
AcDbMText
 10
-4.499999999999992
 20
27.4000343322761
 30
0.0
 40
3.799999999999999
 41
0.0
 71
     5
 72
     1
  1
9
1001
ACAD
1000
MTEXTBEGIN
1070
    73
1070
     1
1070
    44
1040
1.0
1070
    74
1070
     0
1000
MTEXTEND
  0
POINT
  5
2240
330
21A4
100
AcDbEntity
  8
DEFPOINTS
 62
     0
100
AcDbPoint
 10
0.0000000000000231
 20
10.00000000000001
 30
0.0
  0
POINT
  5
2241
330
21A4
100
AcDbEntity
  8
DEFPOINTS
 62
     0
100
AcDbPoint
 10
-8.999999999999976
 20
10.00000000000001
 30
0.0
  0
POINT
  5
2242
330
21A4
100
AcDbEntity
  8
DEFPOINTS
 62
     0
100
AcDbPoint
 10
-8.999999999999989
 20
24.0000343322761
 30
0.0
  0
ENDBLK
  5
21AF
330
21A4
100
AcDbEntity
  8
0
100
AcDbBlockEnd
  0
ENDSEC
  0
SECTION
  2
ENTITIES
  0
TEXT
  5
1142
330
1F
100
AcDbEntity
  8
AM_6
100
AcDbText
 10
-79.64285714285662
 20
-56.50001625878894
 30
0.0
 40
5.0
  1
WEM2020E-C
 72
     4
 11
-54.9999999999995
 21
-54.00001625878894
 31
0.0
100
AcDbText
  0
DIMENSION
  5
155D
330
1F
100
AcDbEntity
  8
AM_5
100
AcDbDimension
  2
*D5
 10
-29.99999237060499
 20
-24.000016258789
 30
0.0
 11
-14.99999618530249
 21
-20.600016258789
 31
0.0
 70
    32
  1
<>
  3
AM_JIS$0
100
AcDbAlignedDimension
 13
-0.0000000000000008
 23
-6.0
 33
0.0
 14
-29.99999237060499
 24
-9.499999999999982
 34
0.0
 50
0.0000000000001132
100
AcDbRotatedDimension
1001
ACAD
1000
DSTYLE
1002
{
1070
   171
1070
     0
1070
   271
1070
     0
1002
}
1001
GENIUS_GENDTOL_13
1000

1000
h7
1000

1040
0.0
  0
DIMENSION
  5
15E8
330
1F
100
AcDbEntity
  8
AM_5
100
AcDbDimension
  2
*D6
 10
-109.9999999999989
 20
-24.00001625878911
 30
0.0
 11
-69.999996185302
 21
-20.60001625878912
 31
0.0
 70
    32
  1
<>
  3
AM_JIS$0
100
AcDbAlignedDimension
 13
-29.99999237060499
 23
-9.499999999999982
 33
0.0
 14
-109.9999999999989
 24
-7.661499023436975
 34
0.0
 50
0.0000000000001132
100
AcDbRotatedDimension
1001
ACAD
1000
DSTYLE
1002
{
1070
   171
1070
     0
1070
   271
1070
     0
1002
}
1001
GENIUS_GENDTOL_13
1000

1000
h7
1000

1040
0.0
  0
DIMENSION
  5
1673
330
1F
100
AcDbEntity
  8
AM_5
100
AcDbDimension
  2
*D7
 10
-0.0000000000000025
 20
-34.00001625878894
 30
0.0
 11
-54.9999999999995
 21
-30.60001625878894
 31
0.0
 70
    32
  1
<>
  3
AM_JIS$0
100
AcDbAlignedDimension
 13
-109.9999999999989
 23
-7.661499023436975
 33
0.0
 14
-0.0000000000000009
 24
-7.918792724599995
 34
0.0
 50
0.0000000000001132
100
AcDbRotatedDimension
1001
ACAD
1000
DSTYLE
1002
{
1070
   171
1070
     0
1070
   271
1070
     0
1002
}
1001
GENIUS_GENDTOL_13
1000

1000
h7
1000

1040
0.0
  0
DIMENSION
  5
1895
330
1F
100
AcDbEntity
  8
AM_5
100
AcDbDimension
  2
*D8
 10
19.11789803369102
 20
10.0
 30
0.0
 11
15.71789803369101
 21
0.0000000000000099
 31
0.0
 70
    32
  1
%%c<>
  3
AM_JIS$0
100
AcDbAlignedDimension
 13
0.0000000000000059
 23
-9.999999999999985
 33
0.0
 14
0.0000000000000089
 24
10.00000000000001
 34
0.0
 50
90.00000000000003
100
AcDbRotatedDimension
1001
ACAD
1000
DSTYLE
1002
{
1070
   171
1070
     0
1070
   271
1070
     0
1002
}
1001
GENIUS_GENDTOL_13
1000

1000
h7
1000

1040
0.0
  0
DIMENSION
  5
1E16
330
1F
100
AcDbEntity
  8
AM_5
100
AcDbDimension
  2
*D9
 10
-128.7608592845301
 20
-9.999961853026968
 30
0.0
 11
-132.1608592845301
 21
0.0000362396245114
 31
0.0
 70
    32
  1
%%c<>
  3
AM_JIS$0
100
AcDbAlignedDimension
 13
-106.9999847412099
 23
10.00003433227602
 33
0.0
 14
-106.999961853026
 24
-9.999961853026976
 34
0.0
 50
270.0
100
AcDbRotatedDimension
1001
ACAD
1000
DSTYLE
1002
{
1070
   171
1070
     0
1070
   271
1070
     0
1002
}
1001
GENIUS_GENDTOL_13
1000

1000
h7
1000

1040
0.0
  0
LINE
  5
2103
330
1F
100
AcDbEntity
  8
AM_7
100
AcDbLine
 10
-114.7608582845301
 20
0.0000000000000241
 30
0.0
 11
5.117897033691022
 21
0.0000000000000094
 31
0.0
  0
LINE
  5
2104
330
1F
100
AcDbEntity
  8
AM_0
100
AcDbLine
 10
-106.9999999999989
 20
-9.999999999999973
 30
0.0
 11
-30.86599731445297
 21
-9.999999999999982
 31
0.0
  0
LINE
  5
2105
330
1F
100
AcDbEntity
  8
AM_0
100
AcDbLine
 10
-30.86599731445297
 20
10.00000000000001
 30
0.0
 11
-106.9999999999989
 21
10.00000000000002
 31
0.0
  0
ELLIPSE
  5
2106
330
1F
100
AcDbEntity
  8
AM_0
100
AcDbEllipse
 10
-8.607601165770979
 20
0.0000000000000111
 30
0.0
 11
120.824694234882
 21
-0.0353354454820127
 31
0.0
210
0.0
220
0.0
230
1.0
 40
0.0786252974493
 41
4.598505642335073
 42
4.702402127348751
  0
ELLIPSE
  5
2107
330
1F
100
AcDbEntity
  8
AM_0
100
AcDbEllipse
 10
-13.28390502929697
 20
0.0000000000000117
 30
0.0
 11
-10.418136109181
 21
-9.493591172234994
 31
0.0
210
0.0
220
0.0
230
1.0
 40
0.0340139925512
 41
0.0395361784299131
 42
0.0803847386867968
  0
ELLIPSE
  5
2108
330
1F
100
AcDbEntity
  8
AM_0
100
AcDbEllipse
 10
-13.28390502929697
 20
0.0000000000000117
 30
0.0
 11
10.41829042375499
 21
-9.493590320518002
 31
0.0
210
0.0
220
0.0
230
1.0
 40
0.0340129913343
 41
3.102011457889984
 42
3.47648911382076
  0
ELLIPSE
  5
2109
330
1F
100
AcDbEntity
  8
AM_0
100
AcDbEllipse
 10
-13.28390502929697
 20
0.0000000000000117
 30
0.0
 11
10.41821329152899
 21
-9.493529127211997
 31
0.0
210
0.0
220
0.0
230
1.0
 40
0.0340132283734
 41
3.057684473795554
 42
3.102011733444387
  0
SPLINE
  5
210A
330
1F
100
AcDbEntity
  8
AM_0
100
AcDbSpline
210
0.0
220
0.0
230
1.0
 70
     8
 71
     3
 72
    11
 73
     7
 74
     5
 42
0.0000000001
 43
0.0000000001
 44
0.0000000001
 40
0.0
 40
0.0
 40
0.0
 40
0.0
 40
1.016916393465312
 40
1.849084796160247
 40
2.578414852659433
 40
3.431668423595501
 40
3.431668423595501
 40
3.431668423595501
 40
3.431668423595501
 10
-5.040603637694977
 20
5.28228759765701
 30
0.0
 10
-5.359161342064918
 20
5.440792306969701
 30
0.0
 10
-5.938402872278543
 20
5.729005428513693
 30
0.0
 10
-6.175933417927279
 20
6.634366342114158
 30
0.0
 10
-5.901730203040399
 20
7.474922418763895
 30
0.0
 10
-5.37356670597224
 20
7.656696043059231
 30
0.0
 10
-5.088806152343976
 20
7.75469970703201
 30
0.0
 11
-5.040603637694977
 21
5.28228759765701
 31
0.0
 11
-5.872604370116973
 21
5.86700439453201
 31
0.0
 11
-6.094192504882975
 21
6.669128417969012
 31
0.0
 11
-5.841796874999977
 21
7.353393554688011
 31
0.0
 11
-5.088806152343976
 21
7.75469970703201
 31
0.0
  0
SPLINE
  5
210B
330
1F
100
AcDbEntity
  8
AM_0
100
AcDbSpline
210
0.0
220
0.0
230
1.0
 70
     8
 71
     3
 72
    11
 73
     7
 74
     5
 42
0.0000000001
 43
0.0000000001
 44
0.0000000001
 40
0.0
 40
0.0
 40
0.0
 40
0.0
 40
0.2005227975027883
 40
0.3978938768334514
 40
0.5956571553602031
 40
0.7975887996183541
 40
0.7975887996183541
 40
0.7975887996183541
 40
0.7975887996183541
 10
-9.915100097655979
 20
2.887023925782011
 30
0.0
 10
-9.98182693281938
 20
2.892509410939502
 30
0.0
 10
-10.11423182374767
 20
2.903394163111366
 30
0.0
 10
-10.30722605781359
 20
2.953282631662256
 30
0.0
 10
-10.49337274321196
 20
3.025820766922364
 30
0.0
 10
-10.6078563963748
 20
3.094387444896779
 30
0.0
 10
-10.66569519042998
 20
3.129028320313012
 30
0.0
 11
-9.915100097655979
 21
2.887023925782011
 31
0.0
 11
-10.11439514160098
 21
2.909179687500011
 31
0.0
 11
-10.30589294433598
 21
2.956970214844013
 31
0.0
 11
-10.48959350585897
 21
3.030212402344013
 31
0.0
 11
-10.66569519042998
 21
3.129028320313012
 31
0.0
  0
SPLINE
  5
210C
330
1F
100
AcDbEntity
  8
AM_0
100
AcDbSpline
210
0.0
220
0.0
230
1.0
 70
     8
 71
     3
 72
    11
 73
     7
 74
     5
 42
0.0000000001
 43
0.0000000001
 44
0.0000000001
 40
0.0
 40
0.0
 40
0.0
 40
0.0
 40
0.1478409520524263
 40
0.2937798013618202
 40
0.4390585036488797
 40
0.5850561411310798
 40
0.5850561411310798
 40
0.5850561411310798
 40
0.5850561411310798
 10
-9.340194702147975
 20
2.974975585938012
 30
0.0
 10
-9.387065327453576
 20
2.959618392394673
 30
0.0
 10
-9.480203546606148
 20
2.929101588992075
 30
0.0
 10
-9.624069977605698
 20
2.900724206488925
 30
0.0
 10
-9.769227401005192
 20
2.884592284257183
 30
0.0
 10
-9.86639592088782
 20
2.88621204596227
 30
0.0
 10
-9.915100097655979
 20
2.887023925782011
 30
0.0
 11
-9.340194702147975
 21
2.974975585938012
 31
0.0
 11
-9.48159790039098
 21
2.931823730469013
 31
0.0
 11
-9.624603271483977
 21
2.902709960938012
 31
0.0
 11
-9.769104003905979
 21
2.887695312500011
 31
0.0
 11
-9.915100097655979
 21
2.887023925782011
 31
0.0
  0
ELLIPSE
  5
210D
330
1F
100
AcDbEntity
  8
AM_0
100
AcDbEllipse
 10
-4.579605102538977
 20
3.137878417969012
 30
0.0
 11
1.499389639911
 21
-0.0426024896990002
 31
0.0
210
0.0
220
0.0
230
0.9999999999999998
 40
0.1901815627407
 41
1.960944359535209
 42
3.064536478916175
  0
ELLIPSE
  5
210E
330
1F
100
AcDbEntity
  8
AM_0
100
AcDbEllipse
 10
-4.579605102538977
 20
3.137878417969012
 30
0.0
 11
1.499389639911
 21
-0.0426024896990002
 31
0.0
210
0.0
220
0.0
230
0.9999999999999998
 40
0.1901815627407
 41
0.2150637215954514
 42
1.32596175060827
  0
SPLINE
  5
210F
330
1F
100
AcDbEntity
  8
AM_0
100
AcDbSpline
210
0.0
220
0.0
230
1.0
 70
     8
 71
     3
 72
    11
 73
     7
 74
     5
 42
0.0000000001
 43
0.0000000001
 44
0.0000000001
 40
0.0
 40
0.0
 40
0.0
 40
0.0
 40
0.4015997055946637
 40
0.7887894584780497
 40
1.121723817369376
 40
1.303939010066129
 40
1.303939010066129
 40
1.303939010066129
 40
1.303939010066129
 10
-22.34060668945297
 20
9.434692382813015
 30
0.0
 10
-22.47449410009525
 20
9.434362310931909
 30
0.0
 10
-22.73746485596563
 20
9.433714010605168
 30
0.0
 10
-23.11106803829738
 20
9.447600037469619
 30
0.0
 10
-23.41185291242173
 20
9.460758860707288
 30
0.0
 10
-23.58215642155782
 20
9.483163906798676
 30
0.0
 10
-23.64239501953098
 20
9.491088867188015
 30
0.0
 11
-22.34060668945297
 21
9.434692382813015
 31
0.0
 11
-22.74220275878897
 21
9.436401367188015
 31
0.0
 11
-23.12919616699197
 21
9.448730468750014
 31
0.0
 11
-23.46150207519497
 21
9.469177246094016
 31
0.0
 11
-23.64239501953098
 21
9.491088867188015
 31
0.0
  0
ELLIPSE
  5
2110
330
1F
100
AcDbEntity
  8
AM_0
100
AcDbEllipse
 10
-8.607601165770979
 20
0.0000000000000111
 30
0.0
 11
-120.8246939625009
 21
-0.036254883478985
 31
0.0
210
0.0
220
0.0
230
1.0
 40
0.0786252974493
 41
4.72241117539546
 42
4.826283325787043
  0
SPLINE
  5
2111
330
1F
100
AcDbEntity
  8
AM_0
100
AcDbSpline
210
0.0
220
0.0
230
1.0
 70
     8
 71
     3
 72
    11
 73
     7
 74
     5
 42
0.0000000001
 43
0.0000000001
 44
0.0000000001
 40
0.0
 40
0.0
 40
0.0
 40
0.0
 40
0.0610132883951558
 40
0.2341194997774916
 40
0.4939596530558842
 40
0.8006028672403752
 40
0.8006028672403752
 40
0.8006028672403752
 40
0.8006028672403752
 10
-1.250198364257975
 20
1.807983398438011
 30
0.0
 10
-1.252197938096735
 20
1.828236513582094
 30
0.0
 10
-1.259870680202795
 20
1.905951537820077
 30
0.0
 10
-1.251347184452821
 20
2.070903308115299
 30
0.0
 10
-1.245535640822101
 20
2.317138017991227
 30
0.0
 10
-1.237274944011729
 20
2.50583019494413
 30
0.0
 10
-1.232803344725979
 20
2.607971191407009
 30
0.0
 11
-1.250198364257975
 21
1.807983398438011
 31
0.0
 11
-1.255401611327975
 21
1.868774414063011
 31
0.0
 11
-1.253494262694978
 21
2.041870117188011
 31
0.0
 11
-1.245101928710979
 21
2.301574707032009
 31
0.0
 11
-1.232803344725979
 21
2.607971191407009
 31
0.0
  0
ELLIPSE
  5
2112
330
1F
100
AcDbEntity
  8
AM_0
100
AcDbEllipse
 10
-177.0920944213789
 20
0.052429199219034
 30
0.0
 11
249.3922927843399
 21
-0.0729947799890333
 31
0.0
210
0.0
220
0.0
230
0.9999999999999998
 40
0.049408435232
 41
5.44986843534345
 42
5.495318115906116
  0
ELLIPSE
  5
2113
330
1F
100
AcDbEntity
  8
AM_0
100
AcDbEllipse
 10
-10.77879333496098
 20
0.0761108398440136
 30
0.0
 11
1.252869164009004
 21
-9.435974457608999
 31
0.0
210
0.0
220
0.0
230
1.0
 40
0.077720114203
 41
0.1437939313466294
 42
0.2172658771895033
  0
ELLIPSE
  5
2114
330
1F
100
AcDbEntity
  8
AM_0
100
AcDbEllipse
 10
-11.11399841308598
 20
0.0770874023440136
 30
0.0
 11
-1.347575176549577
 21
9.453203311103132
 31
0.0
210
0.0
220
0.0
230
0.9999999999999998
 40
0.2829374133319313
 41
3.099632232786467
 42
3.270369774423115
  0
SPLINE
  5
2115
330
1F
100
AcDbEntity
  8
AM_0
100
AcDbSpline
210
0.0
220
0.0
230
1.0
 70
     8
 71
     3
 72
    11
 73
     7
 74
     5
 42
0.0000000001
 43
0.0000000001
 44
0.0000000001
 40
0.0
 40
0.0
 40
0.0
 40
0.0
 40
0.4015997055946637
 40
0.7887894584780816
 40
1.121723817369346
 40
1.303939010066099
 40
1.303939010066099
 40
1.303939010066099
 40
1.303939010066099
 10
-22.34060668945297
 20
-9.434692382811984
 30
0.0
 10
-22.47449410009525
 20
-9.434362310930714
 30
0.0
 10
-22.73746485596566
 20
-9.433714010603651
 30
0.0
 10
-23.11106803829732
 20
-9.447600037470346
 30
0.0
 10
-23.41185291242176
 20
-9.460758860706059
 30
0.0
 10
-23.58215642155783
 20
-9.483163906797592
 30
0.0
 10
-23.64239501953098
 20
-9.491088867186984
 30
0.0
 11
-22.34060668945297
 21
-9.434692382811984
 31
0.0
 11
-22.74220275878897
 21
-9.436401367186984
 31
0.0
 11
-23.12919616699197
 21
-9.448730468749982
 31
0.0
 11
-23.46150207519497
 21
-9.469177246092986
 31
0.0
 11
-23.64239501953098
 21
-9.491088867186984
 31
0.0
  0
SPLINE
  5
2116
330
1F
100
AcDbEntity
  8
AM_0
100
AcDbSpline
210
0.0
220
0.0
230
1.0
 70
     8
 71
     3
 72
    11
 73
     7
 74
     5
 42
0.0000000001
 43
0.0000000001
 44
0.0000000001
 40
0.0
 40
0.0
 40
0.0
 40
0.0
 40
1.03493087267396
 40
1.875158151703882
 40
2.762200041789746
 40
3.853481397343868
 40
3.853481397343868
 40
3.853481397343868
 40
3.853481397343868
 10
-4.918701171874979
 20
-7.759094238280987
 30
0.0
 10
-4.57308088281506
 20
-7.656571576285882
 30
0.0
 10
-3.946862533805452
 20
-7.470814043632715
 30
0.0
 10
-3.500033602922844
 20
-6.575054187602331
 30
0.0
 10
-3.736405889637333
 20
-5.518580083250656
 30
0.0
 10
-4.432639980144682
 20
-5.346978234072037
 30
0.0
 10
-4.816696166991975
 20
-5.252319335936988
 30
0.0
 11
-4.918701171874979
 21
-7.759094238280987
 31
0.0
 11
-3.980194091796975
 21
-7.322875976561988
 31
0.0
 11
-3.608001708983977
 21
-6.569580078124986
 31
0.0
 11
-3.825897216796975
 21
-5.709716796874985
 31
0.0
 11
-4.816696166991975
 21
-5.252319335936988
 31
0.0
  0
SPLINE
  5
2117
330
1F
100
AcDbEntity
  8
AM_0
100
AcDbSpline
210
0.0
220
0.0
230
1.0
 70
     8
 71
     3
 72
    11
 73
     7
 74
     5
 42
0.0000000001
 43
0.0000000001
 44
0.0000000001
 40
0.0
 40
0.0
 40
0.0
 40
0.0
 40
1.125377757589445
 40
2.041307230635223
 40
2.834113426512286
 40
3.799097890283704
 40
3.799097890283704
 40
3.799097890283704
 40
3.799097890283704
 10
-4.816696166991975
 20
-5.252319335936988
 30
0.0
 10
-5.194471594259151
 20
-5.378271222022571
 30
0.0
 10
-5.879713244039585
 20
-5.606733615245419
 30
0.0
 10
-6.19514649129529
 20
-6.607350308929306
 30
0.0
 10
-5.871643210509795
 20
-7.549994884355953
 30
0.0
 10
-5.256435366024013
 20
-7.68498689603788
 30
0.0
 10
-4.918701171874979
 20
-7.759094238280987
 30
0.0
 11
-4.816696166991975
 21
-5.252319335936988
 31
0.0
 11
-5.810806274413978
 21
-5.779785156249985
 31
0.0
 11
-6.094802856444979
 21
-6.650573730467989
 31
0.0
 11
-5.810592651366975
 21
-7.390686035155987
 31
0.0
 11
-4.918701171874979
 21
-7.759094238280987
 31
0.0
  0
SPLINE
  5
2118
330
1F
100
AcDbEntity
  8
AM_0
100
AcDbSpline
210
0.0
220
0.0
230
1.0
 70
     8
 71
     3
 72
    11
 73
     7
 74
     5
 42
0.0000000001
 43
0.0000000001
 44
0.0000000001
 40
0.0
 40
0.0
 40
0.0
 40
0.0
 40
2.954182462136262
 40
6.038630764834048
 40
9.121775001134668
 40
12.20225309159173
 40
12.20225309159173
 40
12.20225309159173
 40
12.20225309159173
 10
-22.14469909667998
 20
4.385009765625012
 30
0.0
 10
-21.53753179282229
 20
3.602644856995092
 30
0.0
 10
-20.29642390342505
 20
2.003416350586981
 30
0.0
 10
-17.73053091733792
 20
0.2906424205487831
 30
0.0
 10
-14.86253248748156
 20
-0.8961803912532916
 30
0.0
 10
-12.83034932483112
 20
-1.23672349017661
 30
0.0
 10
-11.81469726562497
 20
-1.406921386717988
 30
0.0
 11
-22.14469909667998
 21
4.385009765625012
 31
0.0
 11
-20.21369934081997
 21
2.149291992188013
 31
0.0
 11
-17.68569946289098
 21
0.3820800781250122
 31
0.0
 11
-14.83149719238297
 21
-0.7838134765619874
 31
0.0
 11
-11.81469726562497
 21
-1.406921386717988
 31
0.0
  0
ELLIPSE
  5
2119
330
1F
100
AcDbEntity
  8
AM_0
100
AcDbEllipse
 10
-8.453292846679975
 20
22.14152526855461
 30
0.0
 11
12.59962434132099
 21
-15.7668923419756
 31
0.0
210
0.0
220
0.0
230
0.9999999999999998
 40
0.9789422204581999
 41
4.877696186861717
 42
5.575891766512548
  0
ELLIPSE
  5
211A
330
1F
100
AcDbEntity
  8
AM_0
100
AcDbEllipse
 10
-12.08000183105498
 20
0.0000000000000115
 30
0.0
 11
11.11390560267299
 21
-8.890259740465998
 31
0.0
210
0.0
220
0.0
230
1.0
 40
0.3013602932332
 41
3.154309336888398
 42
3.87235839127522
  0
SPLINE
  5
211B
330
1F
100
AcDbEntity
  8
AM_0
100
AcDbSpline
210
0.0
220
0.0
230
1.0
 70
     8
 71
     3
 72
    11
 73
     7
 74
     5
 42
0.0000000001
 43
0.0000000001
 44
0.0000000001
 40
0.0
 40
0.0
 40
0.0
 40
0.0
 40
0.1144432779707222
 40
0.2295923089361853
 40
0.3451598680494277
 40
0.4605641788914332
 40
0.4605641788914332
 40
0.4605641788914332
 40
0.4605641788914332
 10
0.0000000000000202
 20
-9.286804199217989
 30
0.0
 10
-0.0002467608871214
 20
-9.325219655252935
 30
0.0
 10
-0.0007418043954738
 20
-9.402287469162953
 30
0.0
 10
-0.042430563500992
 20
-9.511797495794699
 30
0.0
 10
-0.1132368908214326
 20
-9.606131448550964
 30
0.0
 10
-0.1801564157896252
 20
-9.645534544714612
 30
0.0
 10
-0.2135925292969757
 20
-9.665222167967989
 30
0.0
 11
0.0000000000000202
 21
-9.286804199217989
 31
0.0
 11
-0.0075073242189785
 21
-9.401000976561988
 31
0.0
 11
-0.0471954345699797
 21
-9.509094238280987
 31
0.0
 11
-0.118194580077977
 21
-9.600280761717989
 31
0.0
 11
-0.2135925292969757
 21
-9.665222167967989
 31
0.0
  0
SPLINE
  5
211C
330
1F
100
AcDbEntity
  8
AM_0
100
AcDbSpline
210
0.0
220
0.0
230
1.0
 70
     8
 71
     3
 72
    11
 73
     7
 74
     5
 42
0.0000000001
 43
0.0000000001
 44
0.0000000001
 40
0.0
 40
0.0
 40
0.0
 40
0.0
 40
2.178097001277994
 40
4.359141170069831
 40
6.543367293759866
 40
8.73067050272807
 40
8.73067050272807
 40
8.73067050272807
 40
8.73067050272807
 10
-9.094497680663979
 20
-9.886596679686986
 30
0.0
 10
-8.368592013639373
 20
-9.873027759013023
 30
0.0
 10
-6.915798461810734
 20
-9.845871557655334
 30
0.0
 10
-4.735135583471059
 20
-9.801049439170835
 30
0.0
 10
-2.551465005115964
 20
-9.753319542467506
 30
0.0
 10
-1.09469610457728
 20
-9.71884734978669
 30
0.0
 10
-0.3657989501949797
 20
-9.701599121092989
 30
0.0
 11
-9.094497680663979
 21
-9.886596679686986
 31
0.0
 11
-6.916793823241975
 21
-9.845214843749985
 31
0.0
 11
-4.736206054686975
 21
-9.800598144530987
 31
0.0
 11
-2.552505493163978
 21
-9.752685546874985
 31
0.0
 11
-0.3657989501949797
 21
-9.701599121092989
 31
0.0
  0
SPLINE
  5
211D
330
1F
100
AcDbEntity
  8
AM_0
100
AcDbSpline
210
0.0
220
0.0
230
1.0
 70
     8
 71
     3
 72
    11
 73
     7
 74
     5
 42
0.0000000001
 43
0.0000000001
 44
0.0000000001
 40
0.0
 40
0.0
 40
0.0
 40
0.0
 40
1.051158925012384
 40
2.102542869692467
 40
3.153852553275065
 40
4.205343209617248
 40
4.205343209617248
 40
4.205343209617248
 40
4.205343209617248
 10
-0.7218017578119747
 20
-4.004211425780987
 30
0.0
 10
-0.6683902338746515
 20
-4.350502884956565
 30
0.0
 10
-0.5615557522928063
 20
-5.04315993328675
 30
0.0
 10
-0.4014974032663898
 20
-6.082188215195703
 30
0.0
 10
-0.2414875097645515
 20
-7.121335835766728
 30
0.0
 10
-0.1348303579124226
 20
-7.814107045284002
 30
0.0
 10
-0.0814971923829769
 20
-8.160522460936988
 30
0.0
 11
-0.7218017578119747
 21
-4.004211425780987
 31
0.0
 11
-0.5615997314449793
 21
-5.043090820311989
 31
0.0
 11
-0.4015045166009806
 21
-6.08221435546799
 31
0.0
 11
-0.2415008544919752
 21
-7.12127685546799
 31
0.0
 11
-0.0814971923829769
 21
-8.160522460936988
 31
0.0
  0
SPLINE
  5
211E
330
1F
100
AcDbEntity
  8
AM_0
100
AcDbSpline
210
0.0
220
0.0
230
1.0
 70
     8
 71
     3
 72
    11
 73
     7
 74
     5
 42
0.0000000001
 43
0.0000000001
 44
0.0000000001
 40
0.0
 40
0.0
 40
0.0
 40
0.0
 40
0.1309630602387505
 40
0.2622571092297474
 40
0.3932400797017749
 40
0.5239586630719096
 40
0.5239586630719096
 40
0.5239586630719096
 40
0.5239586630719096
 10
-0.9656066894529761
 20
-3.551086425780987
 30
0.0
 10
-0.9346218581927773
 20
-3.582015488224818
 30
0.0
 10
-0.8725738863337102
 20
-3.643951781504145
 30
0.0
 10
-0.8020946243437187
 20
-3.755456223201698
 30
0.0
 10
-0.7481350714508359
 20
-3.875708645521184
 30
0.0
 10
-0.7305736151350129
 20
-3.961406024625956
 30
0.0
 10
-0.7218017578119747
 20
-4.004211425780987
 30
0.0
 11
-0.9656066894529761
 21
-3.551086425780987
 31
0.0
 11
-0.8764038085939777
 21
-3.646972656249986
 31
0.0
 11
-0.804794311522976
 21
-3.75701904296799
 31
0.0
 11
-0.7527008056639777
 21
-3.877197265624986
 31
0.0
 11
-0.7218017578119747
 21
-4.004211425780987
 31
0.0
  0
SPLINE
  5
211F
330
1F
100
AcDbEntity
  8
AM_0
100
AcDbSpline
210
0.0
220
0.0
230
1.0
 70
     8
 71
     3
 72
    11
 73
     7
 74
     5
 42
0.0000000001
 43
0.0000000001
 44
0.0000000001
 40
0.0
 40
0.0
 40
0.0
 40
0.0
 40
0.2466688550919529
 40
0.4944260795204696
 40
0.7421119142395109
 40
0.9881755426548382
 40
0.9881755426548382
 40
0.9881755426548382
 40
0.9881755426548382
 10
-9.094497680663979
 20
-9.886596679686986
 30
0.0
 10
-9.177289759438963
 20
-9.882182846194591
 30
0.0
 10
-9.343239217909536
 20
-9.873335704189219
 30
0.0
 10
-9.571932780878546
 20
-9.766917718572823
 30
0.0
 10
-9.764766789227461
 20
-9.604327615983528
 30
0.0
 10
-9.841544025590776
 20
-9.457140720230121
 30
0.0
 10
-9.87980651855498
 20
-9.383789062499984
 30
0.0
 11
-9.094497680663979
 21
-9.886596679686986
 31
0.0
 11
-9.339492797850981
 21
-9.857910156249984
 31
0.0
 11
-9.56599426269498
 21
-9.757507324217987
 31
0.0
 11
-9.75219726562498
 21
-9.594177246092987
 31
0.0
 11
-9.87980651855498
 21
-9.383789062499984
 31
0.0
  0
SPLINE
  5
2120
330
1F
100
AcDbEntity
  8
AM_0
100
AcDbSpline
210
0.0
220
0.0
230
1.0
 70
     8
 71
     3
 72
    11
 73
     7
 74
     5
 42
0.0000000001
 43
0.0000000001
 44
0.0000000001
 40
0.0
 40
0.0
 40
0.0
 40
0.0
 40
0.0620330488507918
 40
0.1244971882319498
 40
0.1871590752671031
 40
0.2496297503523519
 40
0.2496297503523519
 40
0.2496297503523519
 40
0.2496297503523519
 10
-0.7985992431639783
 20
-9.032104492186988
 30
0.0
 10
-0.7809477616961842
 20
-9.021227430501271
 30
0.0
 10
-0.7455221321071156
 20
-8.999397718417405
 30
0.0
 10
-0.7004357999573813
 20
-8.955725977735591
 30
0.0
 10
-0.661956053583694
 20
-8.905941060045908
 30
0.0
 10
-0.6441760832293394
 20
-8.86808248903965
 30
0.0
 10
-0.6352996826169754
 20
-8.849182128905987
 30
0.0
 11
-0.7985992431639783
 21
-9.032104492186988
 31
0.0
 11
-0.7469940185549799
 21
-8.997680664061988
 31
0.0
 11
-0.7015991210939785
 21
-8.954772949217989
 31
0.0
 11
-0.6638946533199796
 21
-8.904724121092989
 31
0.0
 11
-0.6352996826169754
 21
-8.849182128905987
 31
0.0
  0
SPLINE
  5
2121
330
1F
100
AcDbEntity
  8
AM_0
100
AcDbSpline
210
0.0
220
0.0
230
1.0
 70
     8
 71
     3
 72
    11
 73
     7
 74
     5
 42
0.0000000001
 43
0.0000000001
 44
0.0000000001
 40
0.0
 40
0.0
 40
0.0
 40
0.0
 40
0.0265478067221618
 40
0.0527893218780664
 40
0.0791478939960838
 40
0.1056666026543128
 40
0.1056666026543128
 40
0.1056666026543128
 40
0.1056666026543128
 10
-0.6352996826169754
 20
-8.849182128905987
 30
0.0
 10
-0.6320997054495463
 20
-8.840926614756677
 30
0.0
 10
-0.6257366703987878
 20
-8.824510833285247
 30
0.0
 10
-0.6185611472035552
 20
-8.79909331642742
 30
0.0
 10
-0.6127974368854212
 20
-8.77333073881541
 30
0.0
 10
-0.6105384377739092
 20
-8.755841443128369
 30
0.0
 10
-0.6094055175779769
 20
-8.747070312499985
 30
0.0
 11
-0.6352996826169754
 21
-8.849182128905987
 31
0.0
 11
-0.6260986328119753
 21
-8.824279785155987
 31
0.0
 11
-0.6188049316409814
 21
-8.799072265624985
 31
0.0
 11
-0.6132049560549799
 21
-8.773315429686988
 31
0.0
 11
-0.6094055175779769
 21
-8.747070312499985
 31
0.0
  0
SPLINE
  5
2122
330
1F
100
AcDbEntity
  8
AM_0
100
AcDbSpline
210
0.0
220
0.0
230
1.0
 70
     8
 71
     3
 72
    11
 73
     7
 74
     5
 42
0.0000000001
 43
0.0000000001
 44
0.0000000001
 40
0.0
 40
0.0
 40
0.0
 40
0.0
 40
0.0484517877209831
 40
0.096586070137491
 40
0.1448482956942509
 40
0.1940668792741951
 40
0.1940668792741951
 40
0.1940668792741951
 40
0.1940668792741951
 10
-0.9844970703119752
 20
-9.081481933592989
 30
0.0
 10
-0.968352499055921
 20
-9.080576982787437
 30
0.0
 10
-0.9361691521656744
 20
-9.078773011332778
 30
0.0
 10
-0.8887366175046004
 20
-9.068967521035192
 30
0.0
 10
-0.8424406891446313
 20
-9.053894147766255
 30
0.0
 10
-0.8133083284117422
 20
-9.039415060857015
 30
0.0
 10
-0.7985992431639783
 20
-9.032104492186988
 30
0.0
 11
-0.9844970703119752
 21
-9.081481933592989
 31
0.0
 11
-0.9362030029299798
 21
-9.077575683592989
 31
0.0
 11
-0.8890075683589781
 21
-9.068115234374985
 31
0.0
 11
-0.8432006835939784
 21
-9.052917480467989
 31
0.0
 11
-0.7985992431639783
 21
-9.032104492186988
 31
0.0
  0
SPLINE
  5
2123
330
1F
100
AcDbEntity
  8
AM_0
100
AcDbSpline
210
0.0
220
0.0
230
1.0
 70
     8
 71
     3
 72
    11
 73
     7
 74
     5
 42
0.0000000001
 43
0.0000000001
 44
0.0000000001
 40
0.0
 40
0.0
 40
0.0
 40
0.0
 40
0.0523479929665125
 40
0.1044604392542116
 40
0.1565331959120567
 40
0.2088478045610845
 40
0.2088478045610845
 40
0.2088478045610845
 40
0.2088478045610845
 10
-0.9125976562499792
 20
-4.481811523436989
 30
0.0
 10
-0.9152444957648215
 20
-4.464558258887082
 30
0.0
 10
-0.9205262649920147
 20
-4.430129363120148
 30
0.0
 10
-0.9324116486128977
 20
-4.379278136170501
 30
0.0
 10
-0.9472510954350566
 20
-4.329213996574393
 30
0.0
 10
-0.9598751372063299
 20
-4.296774770102076
 30
0.0
 10
-0.9662017822259803
 20
-4.280517578124986
 30
0.0
 11
-0.9125976562499792
 21
-4.481811523436989
 31
0.0
 11
-0.9212036132809805
 21
-4.430175781249986
 31
0.0
 11
-0.9329071044919748
 21
-4.379394531249986
 31
0.0
 11
-0.9479064941409808
 21
-4.32952880859299
 31
0.0
 11
-0.9662017822259803
 21
-4.280517578124986
 31
0.0
  0
SPLINE
  5
2124
330
1F
100
AcDbEntity
  8
AM_0
100
AcDbSpline
210
0.0
220
0.0
230
1.0
 70
     8
 71
     3
 72
    11
 73
     7
 74
     5
 42
0.0000000001
 43
0.0000000001
 44
0.0000000001
 40
0.0
 40
0.0
 40
0.0
 40
0.0
 40
0.0436494217180941
 40
0.0872378212815946
 40
0.1308282078642189
 40
0.1744776295822923
 40
0.1744776295822923
 40
0.1744776295822923
 40
0.1744776295822923
 10
-8.514205932616976
 20
-9.202087402342987
 30
0.0
 10
-8.514508645492412
 20
-9.216634057521169
 30
0.0
 10
-8.515113648048863
 20
-9.245707031565938
 30
0.0
 10
-8.515973809908686
 20
-9.289308012121235
 30
0.0
 10
-8.517030107988063
 20
-9.33290473482212
 30
0.0
 10
-8.517608945143068
 20
-9.361978939378047
 30
0.0
 10
-8.51789855956998
 20
-9.376525878905985
 30
0.0
 11
-8.514205932616976
 21
-9.202087402342987
 31
0.0
 11
-8.515106201171976
 21
-9.245727539061986
 31
0.0
 11
-8.516006469725981
 21
-9.289306640624984
 31
0.0
 11
-8.516998291015982
 21
-9.332885742186986
 31
0.0
 11
-8.51789855956998
 21
-9.376525878905985
 31
0.0
  0
SPLINE
  5
2125
330
1F
100
AcDbEntity
  8
AM_0
100
AcDbSpline
210
0.0
220
0.0
230
1.0
 70
     8
 71
     3
 72
    11
 73
     7
 74
     5
 42
0.0000000001
 43
0.0000000001
 44
0.0000000001
 40
0.0
 40
0.0
 40
0.0
 40
0.0
 40
0.0866038970905536
 40
0.1718670953691089
 40
0.2565746628125125
 40
0.3419784541540607
 40
0.3419784541540607
 40
0.3419784541540607
 40
0.3419784541540607
 10
-8.882095336913979
 20
-9.355590820311986
 30
0.0
 10
-8.854914515347303
 20
-9.365396155540961
 30
0.0
 10
-8.800973653453683
 20
-9.38485503142922
 30
0.0
 10
-8.717214533022136
 20
-9.403156353506709
 30
0.0
 10
-8.632436470599827
 20
-9.4130037568932
 30
0.0
 10
-8.575686534417588
 20
-9.411880063942565
 30
0.0
 10
-8.54719543456998
 20
-9.411315917967987
 30
0.0
 11
-8.882095336913979
 21
-9.355590820311986
 31
0.0
 11
-8.800003051757977
 21
-9.383178710936986
 31
0.0
 11
-8.71679687499998
 21
-9.401794433592987
 31
0.0
 11
-8.632598876952977
 21
-9.411071777342987
 31
0.0
 11
-8.54719543456998
 21
-9.411315917967987
 31
0.0
  0
SPLINE
  5
2126
330
1F
100
AcDbEntity
  8
AM_0
100
AcDbSpline
210
0.0
220
0.0
230
1.0
 70
     8
 71
     3
 72
    11
 73
     7
 74
     5
 42
0.0000000001
 43
0.0000000001
 44
0.0000000001
 40
0.0
 40
0.0
 40
0.0
 40
0.0
 40
0.0647900923092822
 40
0.1286785455386716
 40
0.1922690139357058
 40
0.2561594296078947
 40
0.2561594296078947
 40
0.2561594296078947
 40
0.2561594296078947
 10
-8.76530456542998
 20
-9.160827636717987
 30
0.0
 10
-8.744898991788609
 20
-9.167958465850743
 30
0.0
 10
-8.704371814816553
 20
-9.182120889279737
 30
0.0
 10
-8.641559482302863
 20
-9.195549859959021
 30
0.0
 10
-8.578050434766147
 20
-9.202995445139523
 30
0.0
 10
-8.535520789056819
 20
-9.202390557684449
 30
0.0
 10
-8.514205932616976
 20
-9.202087402342987
 30
0.0
 11
-8.76530456542998
 21
-9.160827636717987
 31
0.0
 11
-8.703704833983978
 21
-9.180908203124984
 31
0.0
 11
-8.641296386718979
 21
-9.194580078124984
 31
0.0
 11
-8.578094482421976
 21
-9.201599121092987
 31
0.0
 11
-8.514205932616976
 21
-9.202087402342987
 31
0.0
  0
SPLINE
  5
2127
330
1F
100
AcDbEntity
  8
AM_0
100
AcDbSpline
210
0.0
220
0.0
230
1.0
 70
     8
 71
     3
 72
    11
 73
     7
 74
     5
 42
0.0000000001
 43
0.0000000001
 44
0.0000000001
 40
0.0
 40
0.0
 40
0.0
 40
0.0
 40
0.0937029514381563
 40
0.1857291232019218
 40
0.2771678861344373
 40
0.3695797537117525
 40
0.3695797537117525
 40
0.3695797537117525
 40
0.3695797537117525
 10
-9.178894042968979
 20
-9.140991210936986
 30
0.0
 10
-9.157783030992581
 20
-9.164066532129925
 30
0.0
 10
-9.115938780794451
 20
-9.209804250173911
 30
0.0
 10
-9.04379545043546
 20
-9.267969094751382
 30
0.0
 10
-8.966319699119528
 20
-9.318047573749284
 30
0.0
 10
-8.910269014705264
 20
-9.343032324121596
 30
0.0
 10
-8.882095336913979
 20
-9.355590820311986
 30
0.0
 11
-9.178894042968979
 21
-9.140991210936986
 31
0.0
 11
-9.113906860350981
 21
-9.208496093749984
 31
0.0
 11
-9.042694091796976
 21
-9.266784667967987
 31
0.0
 11
-8.96549987792998
 21
-9.315795898436986
 31
0.0
 11
-8.882095336913979
 21
-9.355590820311986
 31
0.0
  0
SPLINE
  5
2128
330
1F
100
AcDbEntity
  8
AM_0
100
AcDbSpline
210
0.0
220
0.0
230
1.0
 70
     8
 71
     3
 72
    11
 73
     7
 74
     5
 42
0.0000000001
 43
0.0000000001
 44
0.0000000001
 40
0.0
 40
0.0
 40
0.0
 40
0.0
 40
1.064184972689724
 40
2.136998043423041
 40
3.20953755695667
 40
4.273216780131166
 40
4.273216780131166
 40
4.273216780131166
 40
4.273216780131166
 10
-5.122299194335979
 20
8.00738525390701
 30
0.0
 10
-4.763476523513091
 20
7.903218103644859
 30
0.0
 10
-4.04292195343093
 20
7.694039246574048
 30
0.0
 10
-3.642495065517648
 20
6.541145126991425
 30
0.0
 10
-4.142606328489366
 20
5.428406157301488
 30
0.0
 10
-4.878223694889423
 20
5.282655883873544
 30
0.0
 10
-5.244506835936973
 20
5.210083007813011
 30
0.0
 11
-5.122299194335979
 21
8.00738525390701
 31
0.0
 11
-4.158401489257975
 21
7.55639648437501
 31
0.0
 11
-3.792999267577974
 21
6.547729492188011
 31
0.0
 11
-4.245498657225978
 21
5.575317382813011
 31
0.0
 11
-5.244506835936973
 21
5.210083007813011
 31
0.0
  0
SPLINE
  5
2129
330
1F
100
AcDbEntity
  8
AM_0
100
AcDbSpline
210
0.0
220
0.0
230
1.0
 70
     8
 71
     3
 72
    11
 73
     7
 74
     5
 42
0.0000000001
 43
0.0000000001
 44
0.0000000001
 40
0.0
 40
0.0
 40
0.0
 40
0.0
 40
1.330733811582527
 40
2.672378458009692
 40
4.009807455977192
 40
5.351227999198562
 40
5.351227999198562
 40
5.351227999198562
 40
5.351227999198562
 10
-5.280700683593976
 20
8.364685058594012
 30
0.0
 10
-5.738217827546705
 20
8.272972075757447
 30
0.0
 10
-6.657003349510253
 20
8.088794145115718
 30
0.0
 10
-7.289781424800883
 20
6.703655870870239
 30
0.0
 10
-6.792417242475062
 20
5.256082515395799
 30
0.0
 10
-5.886852441868104
 20
4.997476586010825
 30
0.0
 10
-5.433395385741973
 20
4.86798095703201
 30
0.0
 11
-5.280700683593976
 21
8.364685058594012
 31
0.0
 11
-6.529998779296973
 21
7.90631103515701
 31
0.0
 11
-7.101303100585979
 21
6.69238281250001
 31
0.0
 11
-6.649795532225978
 21
5.433471679688011
 31
0.0
 11
-5.433395385741973
 21
4.86798095703201
 31
0.0
  0
SPLINE
  5
212A
330
1F
100
AcDbEntity
  8
AM_0
100
AcDbSpline
210
0.0
220
0.0
230
1.0
 70
     8
 71
     3
 72
    11
 73
     7
 74
     5
 42
0.0000000001
 43
0.0000000001
 44
0.0000000001
 40
0.0
 40
0.0
 40
0.0
 40
0.0
 40
1.341547238370327
 40
2.678136656300053
 40
4.020220437993034
 40
5.34750216461038
 40
5.34750216461038
 40
5.34750216461038
 40
5.34750216461038
 10
-5.433395385741973
 20
4.86798095703201
 30
0.0
 10
-4.970258153438991
 20
4.957802628836968
 30
0.0
 10
-4.045695258259316
 20
5.137114027579237
 30
0.0
 10
-3.427280042678556
 20
6.536764949715948
 30
0.0
 10
-3.935959976361335
 20
7.970304455662917
 30
0.0
 10
-4.834113916528288
 20
8.233711735997967
 30
0.0
 10
-5.280700683593976
 20
8.364685058594012
 30
0.0
 11
-5.433395385741973
 21
4.86798095703201
 31
0.0
 11
-4.172607421874977
 21
5.32641601562501
 31
0.0
 11
-3.615402221679977
 21
6.541320800782009
 31
0.0
 11
-4.079193115233976
 21
7.800720214844012
 31
0.0
 11
-5.280700683593976
 21
8.364685058594012
 31
0.0
  0
SPLINE
  5
212B
330
1F
100
AcDbEntity
  8
AM_0
100
AcDbSpline
210
0.0
220
0.0
230
1.0
 70
     8
 71
     3
 72
    11
 73
     7
 74
     5
 42
0.0000000001
 43
0.0000000001
 44
0.0000000001
 40
0.0
 40
0.0
 40
0.0
 40
0.0
 40
2.223036226566485
 40
4.445480845699646
 40
6.667370139040423
 40
8.888694371075862
 40
8.888694371075862
 40
8.888694371075862
 40
8.888694371075862
 10
-10.42570495605497
 20
3.534484863282011
 30
0.0
 10
-9.684906179757113
 20
3.516700605753615
 30
0.0
 10
-8.20350577287472
 20
3.4811368235477
 30
0.0
 10
-5.98159414511155
 20
3.431872950697165
 30
0.0
 10
-3.760195789090345
 20
3.385279712310059
 30
0.0
 10
-2.279397835074825
 20
3.356818918966903
 30
0.0
 10
-1.539093017577975
 20
3.342590332032009
 30
0.0
 11
-10.42570495605497
 21
3.534484863282011
 31
0.0
 11
-8.203292846679978
 21
3.481811523438012
 31
0.0
 11
-5.981399536132975
 21
3.432312011719013
 31
0.0
 11
-3.759994506835979
 21
3.385925292969012
 31
0.0
 11
-1.539093017577975
 21
3.342590332032009
 31
0.0
  0
SPLINE
  5
212C
330
1F
100
AcDbEntity
  8
AM_0
100
AcDbSpline
210
0.0
220
0.0
230
1.0
 70
     8
 71
     3
 72
    11
 73
     7
 74
     5
 42
0.0000000001
 43
0.0000000001
 44
0.0000000001
 40
0.0
 40
0.0
 40
0.0
 40
0.0
 40
0.2882893054631648
 40
0.5748929368559642
 40
0.8599187322545224
 40
1.143945313783527
 40
1.143945313783527
 40
1.143945313783527
 40
1.143945313783527
 10
-1.539093017577975
 20
3.342590332032009
 30
0.0
 10
-1.442112115865775
 20
3.349118492519242
 30
0.0
 10
-1.248717375416793
 20
3.36213664228634
 30
0.0
 10
-0.9924065108228655
 20
3.507271041613488
 30
0.0
 10
-0.7961040096295076
 20
3.726012050219054
 30
0.0
 10
-0.7465401649364721
 20
3.911586919174075
 30
0.0
 10
-0.7218017578119738
 20
4.004211425782009
 30
0.0
 11
-1.539093017577975
 21
3.342590332032009
 31
0.0
 11
-1.253692626952975
 21
3.38330078125001
 31
0.0
 11
-1.001800537108976
 21
3.52001953125001
 31
0.0
 11
-0.8161926269529754
 21
3.73632812500001
 31
0.0
 11
-0.7218017578119738
 21
4.004211425782009
 31
0.0
  0
SPLINE
  5
212D
330
1F
100
AcDbEntity
  8
AM_0
100
AcDbSpline
210
0.0
220
0.0
230
1.0
 70
     8
 71
     3
 72
    11
 73
     7
 74
     5
 42
0.0000000001
 43
0.0000000001
 44
0.0000000001
 40
0.0
 40
0.0
 40
0.0
 40
0.0
 40
1.051158925012384
 40
2.102542869692467
 40
3.153852553275065
 40
4.205343209617249
 40
4.205343209617249
 40
4.205343209617249
 40
4.205343209617249
 10
-0.7218017578119738
 20
4.004211425782009
 30
0.0
 10
-0.6683902338746504
 20
4.350502884957585
 30
0.0
 10
-0.5615557522928049
 20
5.043159933287771
 30
0.0
 10
-0.4014974032663884
 20
6.082188215196723
 30
0.0
 10
-0.2414875097645497
 20
7.121335835767753
 30
0.0
 10
-0.1348303579124207
 20
7.814107045285024
 30
0.0
 10
-0.081497192382975
 20
8.160522460938011
 30
0.0
 11
-0.7218017578119738
 21
4.004211425782009
 31
0.0
 11
-0.5615997314449779
 21
5.04309082031301
 31
0.0
 11
-0.4015045166009792
 21
6.082214355469012
 31
0.0
 11
-0.2415008544919735
 21
7.121276855469012
 31
0.0
 11
-0.081497192382975
 21
8.160522460938011
 31
0.0
  0
SPLINE
  5
212E
330
1F
100
AcDbEntity
  8
AM_0
100
AcDbSpline
210
0.0
220
0.0
230
1.0
 70
     8
 71
     3
 72
    11
 73
     7
 74
     5
 42
0.0000000001
 43
0.0000000001
 44
0.0000000001
 40
0.0
 40
0.0
 40
0.0
 40
0.0
 40
0.1144432779707222
 40
0.2295923089361853
 40
0.3451598680494277
 40
0.4605641788914331
 40
0.4605641788914331
 40
0.4605641788914331
 40
0.4605641788914331
 10
0.0000000000000225
 20
9.286804199219012
 30
0.0
 10
-0.0002467608871191
 20
9.325219655253958
 30
0.0
 10
-0.0007418043954715
 20
9.402287469163976
 30
0.0
 10
-0.0424305635009897
 20
9.511797495795722
 30
0.0
 10
-0.1132368908214302
 20
9.606131448551987
 30
0.0
 10
-0.1801564157896228
 20
9.645534544715633
 30
0.0
 10
-0.2135925292969733
 20
9.665222167969012
 30
0.0
 11
0.0000000000000225
 21
9.286804199219012
 31
0.0
 11
-0.0075073242189762
 21
9.401000976563011
 31
0.0
 11
-0.0471954345699774
 21
9.50909423828201
 31
0.0
 11
-0.1181945800779746
 21
9.600280761719012
 31
0.0
 11
-0.2135925292969733
 21
9.665222167969012
 31
0.0
  0
SPLINE
  5
212F
330
1F
100
AcDbEntity
  8
AM_0
100
AcDbSpline
210
0.0
220
0.0
230
1.0
 70
     8
 71
     3
 72
    11
 73
     7
 74
     5
 42
0.0000000001
 43
0.0000000001
 44
0.0000000001
 40
0.0
 40
0.0
 40
0.0
 40
0.0
 40
2.178097001278011
 40
4.359141170069827
 40
6.543367293759885
 40
8.730670502728067
 40
8.730670502728067
 40
8.730670502728067
 40
8.730670502728067
 10
-9.094497680663975
 20
9.886596679688013
 30
0.0
 10
-8.368592013639373
 20
9.873027759013478
 30
0.0
 10
-6.915798461810759
 20
9.845871557654646
 30
0.0
 10
-4.735135583471025
 20
9.801049439172711
 30
0.0
 10
-2.551465005115992
 20
9.753319542466817
 30
0.0
 10
-1.094696104577282
 20
9.718847349787145
 30
0.0
 10
-0.3657989501949774
 20
9.701599121094012
 30
0.0
 11
-9.094497680663975
 21
9.886596679688013
 31
0.0
 11
-6.916793823241973
 21
9.84521484375001
 31
0.0
 11
-4.736206054686973
 21
9.80059814453201
 31
0.0
 11
-2.552505493163975
 21
9.75268554687501
 31
0.0
 11
-0.3657989501949774
 21
9.701599121094012
 31
0.0
  0
SPLINE
  5
2130
330
1F
100
AcDbEntity
  8
AM_0
100
AcDbSpline
210
0.0
220
0.0
230
1.0
 70
     8
 71
     3
 72
    11
 73
     7
 74
     5
 42
0.0000000001
 43
0.0000000001
 44
0.0000000001
 40
0.0
 40
0.0
 40
0.0
 40
0.0
 40
0.2877001883214205
 40
0.5765419899616474
 40
0.8648607243072662
 40
1.150992527799054
 40
1.150992527799054
 40
1.150992527799054
 40
1.150992527799054
 10
-9.094497680663975
 20
9.886596679688013
 30
0.0
 10
-9.191254206503131
 20
9.879951442411723
 30
0.0
 10
-9.385151194456302
 20
9.866634599119427
 30
0.0
 10
-9.643095011820133
 20
9.721507795167816
 30
0.0
 10
-9.844153498676833
 20
9.504198554807418
 30
0.0
 10
-9.89872262791772
 20
9.318220804423502
 30
0.0
 10
-9.925903320311972
 20
9.225585937500012
 30
0.0
 11
-9.094497680663975
 21
9.886596679688013
 31
0.0
 11
-9.379302978515978
 21
9.845886230469014
 31
0.0
 11
-9.633804321288975
 21
9.709289550782012
 31
0.0
 11
-9.824707031249976
 21
9.493225097657012
 31
0.0
 11
-9.925903320311972
 21
9.225585937500012
 31
0.0
  0
SPLINE
  5
2131
330
1F
100
AcDbEntity
  8
AM_0
100
AcDbSpline
210
0.0
220
0.0
230
1.0
 70
     8
 71
     3
 72
    11
 73
     7
 74
     5
 42
0.0000000001
 43
0.0000000001
 44
0.0000000001
 40
0.0
 40
0.0
 40
0.0
 40
0.0
 40
1.054512467253177
 40
2.108987052099571
 40
3.163685694577381
 40
4.218409295058082
 40
4.218409295058082
 40
4.218409295058082
 40
4.218409295058082
 10
-9.925903320311972
 20
9.225585937500012
 30
0.0
 10
-9.988287633862119
 20
8.879662000325051
 30
0.0
 10
-10.11305401986236
 20
8.187826552979757
 30
0.0
 10
-10.29991770981625
 20
7.149952392533037
 30
0.0
 10
-10.48674444429675
 20
6.112000070791014
 30
0.0
 10
-10.61111036920174
 20
5.41994513579986
 30
0.0
 10
-10.67329406738297
 20
5.073913574219012
 30
0.0
 11
-9.925903320311972
 21
9.225585937500012
 31
0.0
 11
-10.11300659179697
 21
8.187805175782012
 31
0.0
 11
-10.29989624023397
 21
7.150024414063011
 31
0.0
 11
-10.48669433593697
 21
6.111999511719012
 31
0.0
 11
-10.67329406738297
 21
5.073913574219012
 31
0.0
  0
SPLINE
  5
2132
330
1F
100
AcDbEntity
  8
AM_0
100
AcDbSpline
210
0.0
220
0.0
230
1.0
 70
     8
 71
     3
 72
    11
 73
     7
 74
     5
 42
0.0000000001
 43
0.0000000001
 44
0.0000000001
 40
0.0
 40
0.0
 40
0.0
 40
0.0
 40
0.1141104930345908
 40
0.2283106996805339
 40
0.3426769523820974
 40
0.4571401500830797
 40
0.4571401500830797
 40
0.4571401500830797
 40
0.4571401500830797
 10
-10.78320312499997
 20
3.948913574219013
 30
0.0
 10
-10.78392771372398
 20
3.910609674800844
 30
0.0
 10
-10.78537746084328
 20
3.833971761458343
 30
0.0
 10
-10.74625473405621
 20
3.724339812993126
 30
0.0
 10
-10.67720547007024
 20
3.629839803485443
 30
0.0
 10
-10.61100858370496
 20
3.590567381537923
 30
0.0
 10
-10.57789611816397
 20
3.570922851563012
 30
0.0
 11
-10.78320312499997
 21
3.948913574219013
 31
0.0
 11
-10.77850341796897
 21
3.834899902344013
 31
0.0
 11
-10.74130249023397
 21
3.726928710938012
 31
0.0
 11
-10.67219543456997
 21
3.635803222657011
 31
0.0
 11
-10.57789611816397
 21
3.570922851563012
 31
0.0
  0
ARC
  5
2133
330
1F
100
AcDbEntity
  8
AM_0
100
AcDbCircle
 10
-9.691894531249978
 20
4.37872314453201
 30
0.0
 40
1.497893333435099
100
AcDbArc
 50
129.9138061747594
 51
266.204473212891
  0
LINE
  5
2134
330
1F
100
AcDbEntity
  8
AM_0
100
AcDbLine
 10
-10.80978393554697
 20
5.534448623658011
 30
0.0
 11
-10.55139541625997
 21
5.751914978028011
 31
0.0
  0
LINE
  5
2135
330
1F
100
AcDbEntity
  8
AM_0
100
AcDbLine
 10
-11.81469345092797
 20
-1.406829833983986
 30
0.0
 11
-9.55678558349598
 21
-1.462921142577989
 31
0.0
  0
LINE
  5
2136
330
1F
100
AcDbEntity
  8
AM_0
100
AcDbLine
 10
-10.42568588256797
 20
3.534425735474013
 30
0.0
 11
-10.57788085937497
 21
3.570865631104013
 31
0.0
  0
LINE
  5
2137
330
1F
100
AcDbEntity
  8
AM_0
100
AcDbLine
 10
-10.57790374755897
 20
3.570981979370011
 30
0.0
 11
-10.42649459838897
 21
3.534542083741013
 31
0.0
  0
LWPOLYLINE
  5
2138
330
1F
100
AcDbEntity
  8
AM_11
100
AcDbPolyline
 90
        4
 70
     1
 43
0.0
 10
0.0000000000000201
 20
-9.999999999999985
 10
-8.99999999999998
 20
-9.999999999999984
 10
-8.999999999999976
 20
10.00000000000001
 10
0.0000000000000225
 20
10.00000000000001
1001
GENIUS_GENREC_14
1002
{
1000
PYDIR
1011
0.0000000000000225
1021
10.00000000000001
1031
0.0
1002
}
1002
{
1000
PXDIR
1011
-8.99999999999998
1021
-9.999999999999984
1031
0.0
1002
}
1002
{
1000
PORI
1011
0.0000000000000201
1021
-9.999999999999985
1031
0.0
1002
}
1002
{
1000
PINS
1011
0.0000000000000201
1021
-9.999999999999985
1031
0.0
1002
}
1002
{
1000
PINS2
1011
-8.999999999999976
1021
10.00000000000001
1031
0.0
1002
}
1002
{
1000
C
1070
     1
1002
}
1001
GENIUS_GENODEF_13
1002
{
1000
HIER
1070
     0
1002
}
1002
{
1000
MANEDIT
1070
     0
1002
}
1002
{
1000
NOSEL
1070
     0
1002
}
1002
{
1000
BEHIND
1070
     0
1002
}
1002
{
1000
REACTOR
1002
}
1001
GENIUS_GENOBJ-N-REC_13
1002
{
1000
OWNER
1000
GEN
1002
}
  0
LINE
  5
2139
330
1F
100
AcDbEntity
  8
AM_0
100
AcDbLine
 10
-0.9723052978509809
 20
-8.516418457030987
 30
0.0
 11
-0.97230529785098
 21
-1.06048583984299
 31
0.0
  0
LINE
  5
213A
330
1F
100
AcDbEntity
  8
AM_0
100
AcDbLine
 10
-1.163192749022976
 20
-8.728820800780987
 30
0.0
 11
-1.163192749022975
 21
-1.175170898436988
 31
0.0
  0
ARC
  5
213B
330
1F
100
AcDbEntity
  8
AM_0
100
AcDbCircle
 10
-5.252899169921973
 20
6.61181640625001
 30
0.0
 40
1.749966859817499
100
AcDbArc
 50
88.30376782647325
 51
266.5306830476537
  0
ARC
  5
213C
330
1F
100
AcDbEntity
  8
AM_0
100
AcDbCircle
 10
-5.205307006835979
 20
6.52050781250001
 30
0.0
 40
1.2500885725021
100
AcDbArc
 50
267.5012870796576
 51
87.5010803527499
  0
ARC
  5
213D
330
1F
100
AcDbEntity
  8
AM_0
100
AcDbCircle
 10
-5.205307006835979
 20
6.52050781250001
 30
0.0
 40
1.2499886751175
100
AcDbArc
 50
87.50109082540339
 51
267.5012870796576
  0
LINE
  5
213E
330
1F
100
AcDbEntity
  8
AM_0
100
AcDbLine
 10
-0.0815010070799777
 20
8.160509109497009
 30
0.0
 11
0.0000000000000225
 21
9.286806106568011
 31
0.0
  0
LINE
  5
213F
330
1F
100
AcDbEntity
  8
AM_0
100
AcDbLine
 10
-0.3657989501949774
 20
9.70159530639701
 30
0.0
 11
-0.2135925292969733
 21
9.66521835327201
 31
0.0
  0
LINE
  5
2140
330
1F
100
AcDbEntity
  8
AM_0
100
AcDbLine
 10
-0.2136077880859789
 20
9.665216445923011
 30
0.0
 11
-0.3649978637689759
 21
9.70146560669001
 31
0.0
  0
ARC
  5
2141
330
1F
100
AcDbEntity
  8
AM_0
100
AcDbCircle
 10
-5.121398925780979
 20
6.606079101563011
 30
0.0
 40
1.399960398673999
100
AcDbArc
 50
88.53057108805142
 51
266.1829307962512
  0
LINE
  5
2142
330
1F
100
AcDbEntity
  8
AM_0
100
AcDbLine
 10
-3.119789123534978
 20
2.997476577759012
 30
0.0
 11
-6.107696533202975
 21
3.12796974182201
 31
0.0
  0
LINE
  5
2143
330
1F
100
AcDbEntity
  8
AM_0
100
AcDbLine
 10
-9.556774139403977
 20
-1.463056564330986
 30
0.0
 11
-1.163177490233977
 21
-1.175214767455987
 31
0.0
  0
LINE
  5
2144
330
1F
100
AcDbEntity
  8
AM_0
100
AcDbLine
 10
-8.905597686766974
 20
2.142194747925011
 30
0.0
 11
-1.173992156981974
 21
1.804670333863011
 31
0.0
  0
LINE
  5
2145
330
1F
100
AcDbEntity
  8
AM_0
100
AcDbLine
 10
-0.9723281860349784
 20
1.060472488404009
 30
0.0
 11
-1.055717468261974
 21
0.0001468658450103
 31
0.0
  0
LINE
  5
2146
330
1F
100
AcDbEntity
  8
AM_0
100
AcDbLine
 10
-0.9723014831539773
 20
-1.06046485900799
 30
0.0
 11
-1.173992156981974
 21
1.80469703674301
 31
0.0
  0
LINE
  5
2147
330
1F
100
AcDbEntity
  8
AM_0
100
AcDbLine
 10
-1.198181152343976
 20
3.414173126221011
 30
0.0
 11
-1.232788085936973
 21
2.607969284058011
 31
0.0
  0
LINE
  5
2148
330
1F
100
AcDbEntity
  8
AM_0
100
AcDbLine
 10
-0.9723052978509794
 20
3.603576660157009
 30
0.0
 11
-0.9723052978509796
 21
1.060485839844012
 31
0.0
  0
LINE
  5
2149
330
1F
100
AcDbEntity
  8
AM_0
100
AcDbLine
 10
-3.103366851806974
 20
3.374153137207009
 30
0.0
 11
-3.119770050048976
 21
2.99749565124501
 31
0.0
  0
LINE
  5
214A
330
1F
100
AcDbEntity
  8
AM_0
100
AcDbLine
 10
-1.163162231444978
 20
-1.175161361693988
 30
0.0
 11
-0.9722785949709804
 21
-1.060478210448988
 31
0.0
  0
LINE
  5
214B
330
1F
100
AcDbEntity
  8
AM_0
100
AcDbLine
 10
-6.073478698729978
 20
3.203075408936012
 30
0.0
 11
-6.107673645018977
 21
3.127939224243011
 31
0.0
  0
LINE
  5
214C
330
1F
100
AcDbEntity
  8
AM_0
100
AcDbLine
 10
-6.107681274413977
 20
3.127956390381012
 30
0.0
 11
-6.09439086914098
 21
3.434797286988012
 31
0.0
  0
ARC
  5
214D
330
1F
100
AcDbEntity
  8
AM_0
100
AcDbCircle
 10
-9.848693847655979
 20
4.38549804687501
 30
0.0
 40
1.4993606805801
100
AcDbArc
 50
289.8247631742222
 51
309.9108673721792
  0
LINE
  5
214E
330
1F
100
AcDbEntity
  8
AM_0
100
AcDbLine
 10
-8.584079742431974
 20
3.492103576660011
 30
0.0
 11
-8.887672424315979
 21
3.236545562744013
 31
0.0
  0
ARC
  5
214F
330
1F
100
AcDbEntity
  8
AM_0
100
AcDbCircle
 10
-5.205307006835981
 20
-6.520507812499985
 30
0.0
 40
1.2499597072601
100
AcDbArc
 50
275.3571111158176
 51
82.36324813452309
  0
LINE
  5
2150
330
1F
100
AcDbEntity
  8
AM_0
100
AcDbLine
 10
-1.028995513915981
 20
-9.083045959471988
 30
0.0
 11
-8.521690368651976
 21
-9.410133361815985
 31
0.0
  0
LINE
  5
2151
330
1F
100
AcDbEntity
  8
AM_0
100
AcDbLine
 10
-8.514213562011976
 20
-9.201148986815985
 30
0.0
 11
-1.024597167968978
 21
-8.874183654784985
 31
0.0
  0
LINE
  5
2152
330
1F
100
AcDbEntity
  8
AM_0
100
AcDbLine
 10
-0.0814781188959809
 20
-8.160564422606988
 30
0.0
 11
-0.734771728515981
 21
-5.774002075194986
 31
0.0
  0
LINE
  5
2153
330
1F
100
AcDbEntity
  8
AM_0
100
AcDbLine
 10
-0.6094818115229768
 20
-8.642757415770986
 30
0.0
 11
-0.7347869873049796
 21
-5.773971557616989
 31
0.0
  0
LINE
  5
2154
330
1F
100
AcDbEntity
  8
AM_0
100
AcDbLine
 10
-0.9479217529299795
 20
-5.639705657958992
 30
0.0
 11
-0.8164215087889783
 21
-8.651790618895986
 31
0.0
  0
LINE
  5
2155
330
1F
100
AcDbEntity
  8
AM_0
100
AcDbLine
 10
-0.7347984313959806
 20
-5.77395629882799
 30
0.0
 11
-0.7555999755859809
 21
-5.631301879881989
 31
0.0
  0
LINE
  5
2156
330
1F
100
AcDbEntity
  8
AM_0
100
AcDbLine
 10
-0.9662017822259803
 20
-4.28050613403299
 30
0.0
 11
-0.9710998535159808
 21
-4.26866149902299
 31
0.0
  0
LINE
  5
2157
330
1F
100
AcDbEntity
  8
AM_0
100
AcDbLine
 10
-0.9081993103029764
 20
-4.514896392821989
 30
0.0
 11
-0.9125976562499792
 21
-4.48180389404299
 31
0.0
  0
LINE
  5
2158
330
1F
100
AcDbEntity
  8
AM_0
100
AcDbLine
 10
-0.9661903381349793
 20
-4.280563354491989
 30
0.0
 11
-0.9722938537599793
 21
-4.28282165527299
 31
0.0
  0
LINE
  5
2159
330
1F
100
AcDbEntity
  8
AM_0
100
AcDbLine
 10
-0.7555923461909807
 20
-5.631301879881989
 30
0.0
 11
-0.9478988647459807
 21
-5.639724731444986
 31
0.0
  0
LINE
  5
215A
330
1F
100
AcDbEntity
  8
AM_0
100
AcDbLine
 10
-0.7556076049799792
 20
-5.631278991698992
 30
0.0
 11
-0.9082107543939775
 21
-4.514892578124986
 31
0.0
  0
LINE
  5
215B
330
1F
100
AcDbEntity
  8
AM_0
100
AcDbLine
 10
-0.908195495604979
 20
-4.514926910399986
 30
0.0
 11
-0.9722976684569749
 21
-4.51773452758799
 31
0.0
  0
LINE
  5
215C
330
1F
100
AcDbEntity
  8
AM_0
100
AcDbLine
 10
-0.9722976684569751
 20
-5.461383819579986
 30
0.0
 11
-0.9478988647459807
 21
-5.639774322508992
 31
0.0
  0
ARC
  5
215D
330
1F
100
AcDbEntity
  8
AM_0
100
AcDbCircle
 10
-1.034606933593978
 20
-8.645812988280987
 30
0.0
 40
0.2286188155413
100
AcDbArc
 50
272.5069687978189
 51
303.0501472565806
  0
ARC
  5
215E
330
1F
100
AcDbEntity
  8
AM_0
100
AcDbCircle
 10
-1.020492553710981
 20
-8.667419433592989
 30
0.0
 40
0.2026727944613
100
AcDbArc
 50
303.0392735954199
 51
335.6521564670438
  0
ARC
  5
215F
330
1F
100
AcDbEntity
  8
AM_0
100
AcDbCircle
 10
-1.048904418944979
 20
-8.654602050780987
 30
0.0
 40
0.2334432005882
100
AcDbArc
 50
335.6636994867445
 51
348.5793003392897
  0
ARC
  5
2160
330
1F
100
AcDbEntity
  8
AM_0
100
AcDbCircle
 10
-1.019104003905981
 20
-8.660583496092989
 30
0.0
 40
0.2029217779636
100
AcDbArc
 50
348.5737815464435
 51
2.485879678136927
  0
LINE
  5
2161
330
1F
100
AcDbEntity
  8
AM_0
100
AcDbLine
 10
-1.163162231444979
 20
-8.72883224487299
 30
0.0
 11
-0.9722671508789783
 21
-8.516426086424985
 31
0.0
  0
LINE
  5
2162
330
1F
100
AcDbEntity
  8
AM_0
100
AcDbLine
 10
-0.2135887145999801
 20
-9.665222167967989
 30
0.0
 11
-0.3650016784669757
 21
-9.701477050780987
 31
0.0
  0
LINE
  5
2163
330
1F
100
AcDbEntity
  8
AM_0
100
AcDbLine
 10
-0.0814857482909811
 20
-8.160560607909985
 30
0.0
 11
0.0000076293950204
 21
-9.286827087401988
 31
0.0
  0
LINE
  5
2164
330
1F
100
AcDbEntity
  8
AM_0
100
AcDbLine
 10
-0.6094055175779769
 20
-8.747093200682989
 30
0.0
 11
-0.6076965332029769
 21
-8.678634643553991
 31
0.0
  0
LINE
  5
2165
330
1F
100
AcDbEntity
  8
AM_0
100
AcDbLine
 10
-0.6077346801759813
 20
-8.678588867186988
 30
0.0
 11
-0.609531402587977
 21
-8.642745971678991
 31
0.0
  0
LINE
  5
2166
330
1F
100
AcDbEntity
  8
AM_0
100
AcDbLine
 10
-1.029010772704979
 20
-9.083030700682989
 30
0.0
 11
-0.9844970703119752
 21
-9.081504821776988
 31
0.0
  0
LINE
  5
2167
330
1F
100
AcDbEntity
  8
AM_0
100
AcDbLine
 10
-8.54719543456998
 20
-9.411373138426986
 30
0.0
 11
-8.521697998046976
 21
-9.410152435301986
 31
0.0
  0
LINE
  5
2168
330
1F
100
AcDbEntity
  8
AM_0
100
AcDbLine
 10
-8.765285491942977
 20
-9.160827636717987
 30
0.0
 11
-8.891284942626976
 21
-9.093379974364983
 31
0.0
  0
LINE
  5
2169
330
1F
100
AcDbEntity
  8
AM_0
100
AcDbLine
 10
-8.882110595702977
 20
-9.355587005614983
 30
0.0
 11
-8.765312194823978
 21
-9.160808563231986
 31
0.0
  0
LINE
  5
216A
330
1F
100
AcDbEntity
  8
AM_0
100
AcDbLine
 10
-8.517921447753979
 20
-9.376552581786986
 30
0.0
 11
-8.521717071532977
 21
-9.410091400145985
 31
0.0
  0
LINE
  5
216B
330
1F
100
AcDbEntity
  8
AM_0
100
AcDbLine
 10
-9.204841833676749
 20
-9.108447347150788
 30
0.0
 11
-9.178855895995981
 21
-9.141052246092987
 31
0.0
  0
LINE
  5
216C
330
1F
100
AcDbEntity
  8
AM_0
100
AcDbLine
 10
-9.17890548705998
 20
-9.140972137450985
 30
0.0
 11
-9.125309945949247
 21
-9.104891726599555
 31
0.0
  0
LINE
  5
216D
330
1F
100
AcDbEntity
  8
AM_0
100
AcDbLine
 10
-29.99999999999998
 20
-9.499999999999982
 30
0.0
 11
-29.99999999999998
 21
9.500000000000014
 31
0.0
  0
LINE
  5
216E
330
1F
100
AcDbEntity
  8
AM_0
100
AcDbLine
 10
-11.81469726562498
 20
-9.495727539061986
 30
0.0
 11
-11.81469726562497
 21
-1.406921386717988
 31
0.0
  0
LINE
  5
216F
330
1F
100
AcDbEntity
  8
AM_0
100
AcDbLine
 10
-30.86599731445297
 20
-9.999999999999982
 30
0.0
 11
-30.86599731445297
 21
10.00000000000001
 31
0.0
  0
LINE
  5
2170
330
1F
100
AcDbEntity
  8
AM_0
100
AcDbLine
 10
-23.22721481323197
 20
8.846775054932013
 30
0.0
 11
-21.60372543334998
 21
7.380176544190012
 31
0.0
  0
ARC
  5
2171
330
1F
100
AcDbEntity
  8
AM_0
100
AcDbCircle
 10
-9.848693847655979
 20
4.38549804687501
 30
0.0
 40
1.497893333435099
100
AcDbArc
 50
129.9138061747594
 51
236.9673191309881
  0
LINE
  5
2172
330
1F
100
AcDbEntity
  8
AM_0
100
AcDbLine
 10
-10.67327880859397
 20
5.07391166687001
 30
0.0
 11
-10.78318786621098
 21
3.948896408081012
 31
0.0
  0
LINE
  5
2173
330
1F
100
AcDbEntity
  8
AM_0
100
AcDbLine
 10
-10.65299224853497
 20
5.527576446534009
 30
0.0
 11
-10.58079528808598
 21
5.588359832764012
 31
0.0
  0
LINE
  5
2174
330
1F
100
AcDbEntity
  8
AM_0
100
AcDbLine
 10
-23.68299865722597
 20
9.500000000000014
 30
0.0
 11
-29.99999999999998
 21
9.500000000000014
 31
0.0
  0
LINE
  5
2175
330
1F
100
AcDbEntity
  8
AM_0
100
AcDbLine
 10
-30.00000762939397
 20
9.500028610230014
 30
0.0
 11
-30.86599922180198
 21
10.00002479553301
 31
0.0
  0
LINE
  5
2176
330
1F
100
AcDbEntity
  8
AM_0
100
AcDbLine
 10
-29.99999999999998
 20
-9.499999999999982
 30
0.0
 11
-23.68299865722597
 21
-9.499999999999982
 31
0.0
  0
LINE
  5
2177
330
1F
100
AcDbEntity
  8
AM_0
100
AcDbLine
 10
-30.86601257324197
 20
-9.999954223631984
 30
0.0
 11
-30.00002098083498
 21
-9.499958038329982
 31
0.0
  0
LINE
  5
2178
330
1F
100
AcDbEntity
  8
AM_0
100
AcDbLine
 10
-109.9999999999989
 20
-7.661499023436975
 30
0.0
 11
-109.9999999999989
 21
7.661499023438024
 31
0.0
  0
LINE
  5
2179
330
1F
100
AcDbEntity
  8
AM_0
100
AcDbLine
 10
-106.9999999999989
 20
-9.999999999999973
 30
0.0
 11
-106.9999999999989
 21
10.00000000000002
 31
0.0
  0
ARC
  5
217A
330
1F
100
AcDbEntity
  8
AM_0
100
AcDbCircle
 10
-107.9999999999989
 20
7.661499023438024
 30
0.0
 40
2.000036954879799
100
AcDbArc
 50
104.9985874788711
 51
180.0
  0
LINE
  5
217B
330
1F
100
AcDbEntity
  8
AM_0
100
AcDbLine
 10
-106.9999847412099
 20
9.999946594239021
 30
0.0
 11
-108.5175895690909
 21
9.593328475952022
 31
0.0
  0
ARC
  5
217C
330
1F
100
AcDbEntity
  8
AM_0
100
AcDbCircle
 10
-107.9999999999989
 20
-7.661499023436975
 30
0.0
 40
2.0
100
AcDbArc
 50
180.0
 51
255.0014125211288
  0
LINE
  5
217D
330
1F
100
AcDbEntity
  8
AM_0
100
AcDbLine
 10
-108.5176200866689
 20
-9.593399047850974
 30
0.0
 11
-107.0000152587879
 21
-10.00001525878897
 31
0.0
  0
DIMENSION
  5
21A3
330
1F
100
AcDbEntity
  8
AM_5
100
AcDbDimension
  2
*D18
 10
-8.999999999999989
 20
24.0000343322761
 30
0.0
 11
-4.499999999999992
 21
27.4000343322761
 31
0.0
 70
    32
  1
<>
  3
AM_JIS$0
100
AcDbAlignedDimension
 13
0.0000000000000231
 23
10.00000000000001
 33
0.0
 14
-8.999999999999976
 24
10.00000000000001
 34
0.0
 50
180.0
100
AcDbRotatedDimension
1001
ACAD
1000
DSTYLE
1002
{
1070
   271
1070
     0
1002
}
1001
GENIUS_GENDTOL_13
1000

1000
h7
1000

1040
0.0
  0
VIEWPORT
  5
110
330
101
100
AcDbEntity
 67
     1
  8
0
100
AcDbViewport
 10
420.5
 20
297.0
 30
0.0
 40
948.9782706766916
 41
628.452
 68
     1
 69
     1
1001
ACAD
1000
MVIEW
1002
{
1070
    16
1010
0.0
1020
0.0
1030
0.0
1010
0.0
1020
0.0
1030
1.0
1040
0.0
1040
628.452
1040
420.5
1040
297.0
1040
50.0
1040
0.0
1040
0.0
1070
     0
1070
   100
1070
     1
1070
     1
1070
     0
1070
     0
1070
     0
1070
     0
1040
0.0
1040
0.0
1040
0.0
1040
10.0
1040
10.0
1040
10.0
1040
10.0
1070
     0
1002
{
1002
}
1002
}
  0
ENDSEC
  0
SECTION
  2
OBJECTS
  0
DICTIONARY
  5
C
330
0
100
AcDbDictionary
  3
ACAD_GROUP
350
D
  3
ACAD_LAYOUT
350
1A
  3
ACAD_MLINESTYLE
350
17
  3
ACAD_PLOTSETTINGS
350
19
  3
ACAD_PLOTSTYLENAME
350
E
  3
ACDBVARIABLEDICTIONARY
350
34
  3
ACMDICTIONARY
350
43
  3
AMG
350
2B
  3
AMGSNAPSETTINGS
350
6E
  3
ASE_INDEX_DICTIONARY
350
2060
  3
DWGPROPS
350
22BD
  3
ACDBHEADERROUNDTRIPXREC
350
22CB
  0
DICTIONARY
  5
74
330
1F
100
AcDbDictionary
280
     1
  3
ACAD_INDEX
360
22BF
  3
ACAD_LAYOUTSELFREF
360
22EE
  0
DICTIONARY
  5
22F3
330
101
100
AcDbDictionary
280
     1
  3
ACAD_LAYOUTSELFREF
360
22F4
  0
DICTIONARY
  5
D
102
{ACAD_REACTORS
330
C
102
}
330
C
100
AcDbDictionary
  0
DICTIONARY
  5
1A
102
{ACAD_REACTORS
330
C
102
}
330
C
100
AcDbDictionary
  0
DICTIONARY
  5
17
102
{ACAD_REACTORS
330
C
102
}
330
C
100
AcDbDictionary
  3
STANDARD
350
18
  0
DICTIONARY
  5
19
102
{ACAD_REACTORS
330
C
102
}
330
C
100
AcDbDictionary
  0
ACDBDICTIONARYWDFLT
  5
E
102
{ACAD_REACTORS
330
C
102
}
330
C
100
AcDbDictionary
281
     1
  3
Normal
350
F
100
AcDbDictionaryWithDefault
340
F
  0
DICTIONARY
  5
34
102
{ACAD_REACTORS
330
C
102
}
330
C
100
AcDbDictionary
  3
INDEXCTL
350
35
  3
SORTENTS
350
B5E
  0
DICTIONARY
  5
43
102
{ACAD_REACTORS
330
C
102
}
330
C
100
AcDbDictionary
  3
ACMSTDDICTIONARY
350
260
  0
DICTIONARY
  5
2B
102
{ACAD_REACTORS
330
C
102
}
330
C
100
AcDbDictionary
  3
ACMGSETTINGS
350
2C
  0
DICTIONARY
  5
6E
102
{ACAD_REACTORS
330
C
102
}
330
C
100
AcDbDictionary
  0
DICTIONARY
  5
2060
102
{ACAD_REACTORS
330
C
102
}
330
C
100
AcDbDictionary
  3
ASEBLOCKHIERARCHYINDEXRECORD
350
2062
1001
DCO15
1040
1471943413.078
  0
XRECORD
  5
22BD
102
{ACAD_REACTORS
330
C
102
}
330
C
100
AcDbXrecord
  1
DWGPROPS COOKIE
  2

  3

  4

  6

  7

  8

  9

300
AmdtFileType=82
301
=
302
=
303
=
304
=
305
=
306
=
307
=
308
=
309
=
 40
0.0492793055555556
 41
2452839.420061482
 42
2452872.430825185
  1

 90
        1
  0
DICTIONARY
  5
22CB
102
{ACAD_REACTORS
330
C
102
}
330
C
100
AcDbDictionary
  3
TSTACKALIGN
350
22CC
  3
TSTACKSIZE
350
22CD
  3
HYPERLINKBASE
350
22CE
  3
STYLESHEET
350
22CF
  3
LAYOUTDICT
350
22D0
  3
PLOTSETDICT
350
22D1
  3
PLOTSTYLNAMDICT
350
22D2
  3
LWETCUNION
350
22D3
  3
INSUNITS
350
22D4
  3
CEPSNTYPE
350
22D5
  3
FINGERPRINTGUID
350
22D6
  3
VERSIONGUID
350
22D7
  3
PSVPSCALE
350
22D8
  3
DIMSTYLEDATA
350
22D9
  3
PUCSORTHOREF
350
22DA
  3
PUCSORTHOVIEW
350
22DB
  3
PUCSBASE
350
22DC
  3
PUCSORGTOP
350
22DD
  3
PUCSORGBOTTOM
350
22DE
  3
PUCSORGLEFT
350
22DF
  3
PUCSORGRIGHT
350
22E0
  3
PUCSORGFRONT
350
22E1
  3
PUCSORGBACK
350
22E2
  3
UCSORTHOREF
350
22E3
  3
UCSORTHOVIEW
350
22E4
  3
UCSBASE
350
22E5
  3
UCSORGTOP
350
22E6
  3
UCSORGBOTTOM
350
22E7
  3
UCSORGLEFT
350
22E8
  3
UCSORGRIGHT
350
22E9
  3
UCSORGFRONT
350
22EA
  3
UCSORGBACK
350
22EB
  0
DICTIONARY
  5
22BF
102
{ACAD_REACTORS
330
74
102
}
330
74
100
AcDbDictionary
  3
*A1
350
22C0
  0
XRECORD
  5
22EE
102
{ACAD_REACTORS
330
74
102
}
330
74
100
AcDbXrecord
340
1F
  0
XRECORD
  5
22F4
102
{ACAD_REACTORS
330
22F3
102
}
330
22F3
100
AcDbXrecord
340
101
  0
MLINESTYLE
  5
18
102
{ACAD_REACTORS
330
17
102
}
330
17
100
AcDbMlineStyle
  2
STANDARD
 70
     0
  3

 62
   256
 51
90.0
 52
90.0
 71
     2
 49
0.5
 62
   256
  6
BYLAYER
 49
-0.5
 62
   256
  6
BYLAYER
  0
ACDBPLACEHOLDER
  5
F
102
{ACAD_REACTORS
330
E
102
}
330
E
100
AcDbPlaceHolder
280
     0
  0
DICTIONARYVAR
  5
35
102
{ACAD_REACTORS
330
34
102
}
330
34
100
DictionaryVariables
280
     0
  1
1
  0
DICTIONARYVAR
  5
B5E
102
{ACAD_REACTORS
330
34
102
}
330
34
100
DictionaryVariables
280
     0
  1
96
  0
DICTIONARY
  5
260
102
{ACAD_REACTORS
330
43
102
}
330
43
100
AcDbDictionary
  0
DICTIONARY
  5
2C
102
{ACAD_REACTORS
330
2B
102
}
330
2B
100
AcDbDictionary
  3
DWGSETTINGS
350
2D
  0
XRECORD
  5
2062
102
{ACAD_REACTORS
330
2060
102
}
330
2060
100
AcDbXrecord
330
0
330
0
330
0
330
0
330
0
330
0
330
0
330
0
330
0
330
0
330
0
330
0
330
1F3D
330
1F3E
330
1F28
330
1F29
330
1F33
330
1F34
330
1F59
330
1F5A
330
1F4B
330
1F4C
  0
XRECORD
  5
22CC
102
{ACAD_REACTORS
330
22CB
102
}
330
22CB
100
AcDbXrecord
 90
        1
  0
XRECORD
  5
22CD
102
{ACAD_REACTORS
330
22CB
102
}
330
22CB
100
AcDbXrecord
 90
       70
  0
XRECORD
  5
22CE
102
{ACAD_REACTORS
330
22CB
102
}
330
22CB
100
AcDbXrecord
  1

  0
XRECORD
  5
22CF
102
{ACAD_REACTORS
330
22CB
102
}
330
22CB
100
AcDbXrecord
  1
ASAMI.ctb
  0
XRECORD
  5
22D0
102
{ACAD_REACTORS
330
22CB
102
}
330
22CB
100
AcDbXrecord
340
1A
  0
XRECORD
  5
22D1
102
{ACAD_REACTORS
330
22CB
102
}
330
22CB
100
AcDbXrecord
340
19
  0
XRECORD
  5
22D2
102
{ACAD_REACTORS
330
22CB
102
}
330
22CB
100
AcDbXrecord
340
E
  0
XRECORD
  5
22D3
102
{ACAD_REACTORS
330
22CB
102
}
330
22CB
100
AcDbXrecord
 90
    10781
  0
XRECORD
  5
22D4
102
{ACAD_REACTORS
330
22CB
102
}
330
22CB
100
AcDbXrecord
 90
        4
  0
XRECORD
  5
22D5
102
{ACAD_REACTORS
330
22CB
102
}
330
22CB
100
AcDbXrecord
 90
        0
  0
XRECORD
  5
22D6
102
{ACAD_REACTORS
330
22CB
102
}
330
22CB
100
AcDbXrecord
  1
{AFB28963-8C59-40AE-9337-C84526B81ACE}
  0
XRECORD
  5
22D7
102
{ACAD_REACTORS
330
22CB
102
}
330
22CB
100
AcDbXrecord
  1
{1B344C11-A3B6-47E1-A86E-16430D1929E1}
  0
XRECORD
  5
22D8
102
{ACAD_REACTORS
330
22CB
102
}
330
22CB
100
AcDbXrecord
 40
0.0
  0
XRECORD
  5
22D9
102
{ACAD_REACTORS
330
22CB
102
}
330
22CB
100
AcDbXrecord
1000
DSTYLE
1002
{
1070
    79
 70
     2
1070
   341
340
59
1070
   342
340
59
1070
   371
 70
    -1
1070
   372
 70
    -1
1002
}
  0
XRECORD
  5
22DA
102
{ACAD_REACTORS
330
22CB
102
}
330
22CB
100
AcDbXrecord
340
0
  0
XRECORD
  5
22DB
102
{ACAD_REACTORS
330
22CB
102
}
330
22CB
100
AcDbXrecord
 70
     0
  0
XRECORD
  5
22DC
102
{ACAD_REACTORS
330
22CB
102
}
330
22CB
100
AcDbXrecord
340
0
  0
XRECORD
  5
22DD
102
{ACAD_REACTORS
330
22CB
102
}
330
22CB
100
AcDbXrecord
 10
0.0
 20
0.0
 30
0.0
  0
XRECORD
  5
22DE
102
{ACAD_REACTORS
330
22CB
102
}
330
22CB
100
AcDbXrecord
 10
0.0
 20
0.0
 30
0.0
  0
XRECORD
  5
22DF
102
{ACAD_REACTORS
330
22CB
102
}
330
22CB
100
AcDbXrecord
 10
0.0
 20
0.0
 30
0.0
  0
XRECORD
  5
22E0
102
{ACAD_REACTORS
330
22CB
102
}
330
22CB
100
AcDbXrecord
 10
0.0
 20
0.0
 30
0.0
  0
XRECORD
  5
22E1
102
{ACAD_REACTORS
330
22CB
102
}
330
22CB
100
AcDbXrecord
 10
0.0
 20
0.0
 30
0.0
  0
XRECORD
  5
22E2
102
{ACAD_REACTORS
330
22CB
102
}
330
22CB
100
AcDbXrecord
 10
0.0
 20
0.0
 30
0.0
  0
XRECORD
  5
22E3
102
{ACAD_REACTORS
330
22CB
102
}
330
22CB
100
AcDbXrecord
340
0
  0
XRECORD
  5
22E4
102
{ACAD_REACTORS
330
22CB
102
}
330
22CB
100
AcDbXrecord
 70
     0
  0
XRECORD
  5
22E5
102
{ACAD_REACTORS
330
22CB
102
}
330
22CB
100
AcDbXrecord
340
0
  0
XRECORD
  5
22E6
102
{ACAD_REACTORS
330
22CB
102
}
330
22CB
100
AcDbXrecord
 10
0.0
 20
0.0
 30
0.0
  0
XRECORD
  5
22E7
102
{ACAD_REACTORS
330
22CB
102
}
330
22CB
100
AcDbXrecord
 10
0.0
 20
0.0
 30
0.0
  0
XRECORD
  5
22E8
102
{ACAD_REACTORS
330
22CB
102
}
330
22CB
100
AcDbXrecord
 10
0.0
 20
0.0
 30
0.0
  0
XRECORD
  5
22E9
102
{ACAD_REACTORS
330
22CB
102
}
330
22CB
100
AcDbXrecord
 10
0.0
 20
0.0
 30
0.0
  0
XRECORD
  5
22EA
102
{ACAD_REACTORS
330
22CB
102
}
330
22CB
100
AcDbXrecord
 10
0.0
 20
0.0
 30
0.0
  0
XRECORD
  5
22EB
102
{ACAD_REACTORS
330
22CB
102
}
330
22CB
100
AcDbXrecord
 10
0.0
 20
0.0
 30
0.0
  0
LAYER_INDEX
  5
22C0
102
{ACAD_REACTORS
330
22BF
102
}
330
22BF
100
AcDbIndex
 40
2453152.403555208
100
AcDbLayerIndex
  8
0
360
22C1
 90
        0
  8
AM_0
360
22C2
 90
      121
  8
AM_7
360
22C3
 90
        1
  8
AM_11
360
22C4
 90
        1
  8
AM_5
360
22C5
 90
        6
  8
Defpoints
360
22C6
 90
        0
  8
AM_6
360
22C7
 90
        1
  8
PV0001_1
360
22C8
 90
        0
  8
AM_CL
360
22C9
 90
        0
  0
XRECORD
  5
2D
102
{ACAD_REACTORS
330
2C
102
}
330
2C
100
AcDbXrecord
  1
VERSION
140
15.0
  1
PRODUCT
  2
AutoCAD Mechanical 2000
  0
IDBUFFER
  5
22C1
330
0
100
AcDbIdBuffer
  0
IDBUFFER
  5
22C2
330
0
100
AcDbIdBuffer
330
2175
330
2176
330
2177
330
2178
330
2179
330
217A
330
217B
330
217C
330
217D
330
2104
330
2105
330
2106
330
2107
330
2108
330
2109
330
210A
330
210B
330
210C
330
210D
330
210E
330
210F
330
2110
330
2111
330
2112
330
2113
330
2114
330
2115
330
2116
330
2117
330
2118
330
2119
330
211A
330
211B
330
211C
330
211D
330
211E
330
211F
330
2120
330
2121
330
2122
330
2123
330
2124
330
2125
330
2126
330
2127
330
2128
330
2129
330
212A
330
212B
330
212C
330
212D
330
212E
330
212F
330
2130
330
2131
330
2132
330
2133
330
2134
330
2135
330
2136
330
2137
330
2139
330
213A
330
213B
330
213C
330
213D
330
213E
330
213F
330
2140
330
2141
330
2142
330
2143
330
2144
330
2145
330
2146
330
2147
330
2148
330
2149
330
214A
330
214B
330
214C
330
214D
330
214E
330
214F
330
2150
330
2151
330
2152
330
2153
330
2154
330
2155
330
2156
330
2157
330
2158
330
2159
330
215A
330
215B
330
215C
330
215D
330
215E
330
215F
330
2160
330
2161
330
2162
330
2163
330
2164
330
2165
330
2166
330
2167
330
2168
330
2169
330
216A
330
216B
330
216C
330
216D
330
216E
330
216F
330
2170
330
2171
330
2172
330
2173
330
2174
  0
IDBUFFER
  5
22C3
330
0
100
AcDbIdBuffer
330
2103
  0
IDBUFFER
  5
22C4
330
0
100
AcDbIdBuffer
330
2138
  0
IDBUFFER
  5
22C5
330
0
100
AcDbIdBuffer
330
155D
330
15E8
330
1673
330
1895
330
1E16
330
21A3
  0
IDBUFFER
  5
22C6
330
0
100
AcDbIdBuffer
  0
IDBUFFER
  5
22C7
330
0
100
AcDbIdBuffer
330
1142
  0
IDBUFFER
  5
22C8
330
0
100
AcDbIdBuffer
  0
IDBUFFER
  5
22C9
330
0
100
AcDbIdBuffer
  0
ENDSEC
  0
EOF
