  0
SECTION
  2
HEADER
  9
$ACADVER
  1
AC1014
  9
$ACADMAINTVER
 70
     9
  9
$DWGCODEPAGE
  3
ANSI_932
  9
$INSBASE
 10
0.0
 20
0.0
 30
0.0
  9
$EXTMIN
 10
-129.299999999999
 20
-56.49999999999998
 30
-0.00000001
  9
$EXTMAX
 10
15.0
 20
29.30003433227621
 30
0.00000001
  9
$LIMMIN
 10
-148.5874258505749
 20
-79.844098509378
  9
$LIMMAX
 10
72.08348985788006
 20
39.16226328078465
  9
$ORTHOMODE
 70
     0
  9
$REGENMODE
 70
     1
  9
$FILLMODE
 70
     1
  9
$QTEXTMODE
 70
     0
  9
$MIRRTEXT
 70
     0
  9
$DRAGMODE
 70
     2
  9
$LTSCALE
 40
1.0
  9
$OSMODE
 70
    55
  9
$ATTMODE
 70
     1
  9
$TEXTSIZE
 40
2.5
  9
$TRACEWID
 40
1.0
  9
$TEXTSTYLE
  7
STANDARD
  9
$CLAYER
  8
AM_0
  9
$CELTYPE
  6
BYLAYER
  9
$CECOLOR
 62
   256
  9
$CELTSCALE
 40
1.0
  9
$DELOBJ
 70
     1
  9
$DISPSILH
 70
     0
  9
$DIMSCALE
 40
1.0
  9
$DIMASZ
 40
2.5
  9
$DIMEXO
 40
1.0
  9
$DIMDLI
 40
12.0
  9
$DIMRND
 40
0.0
  9
$DIMDLE
 40
0.0
  9
$DIMEXE
 40
1.0
  9
$DIMTP
 40
0.1
  9
$DIMTM
 40
0.1
  9
$DIMTXT
 40
3.2
  9
$DIMCEN
 40
0.0
  9
$DIMTSZ
 40
0.0
  9
$DIMTOL
 70
     0
  9
$DIMLIM
 70
     0
  9
$DIMTIH
 70
     0
  9
$DIMTOH
 70
     0
  9
$DIMSE1
 70
     0
  9
$DIMSE2
 70
     0
  9
$DIMTAD
 70
     3
  9
$DIMZIN
 70
     8
  9
$DIMBLK
  1
OPEN30
  9
$DIMASO
 70
     1
  9
$DIMSHO
 70
     1
  9
$DIMPOST
  1

  9
$DIMAPOST
  1
"
  9
$DIMALT
 70
     0
  9
$DIMALTD
 70
     2
  9
$DIMALTF
 40
0.0393701
  9
$DIMLFAC
 40
1.0
  9
$DIMTOFL
 70
     1
  9
$DIMTVP
 40
0.0
  9
$DIMTIX
 70
     0
  9
$DIMSOXD
 70
     0
  9
$DIMSAH
 70
     0
  9
$DIMBLK1
  1

  9
$DIMBLK2
  1

  9
$DIMSTYLE
  2
AM_JIS
  9
$DIMCLRD
 70
   256
  9
$DIMCLRE
 70
   256
  9
$DIMCLRT
 70
     2
  9
$DIMTFAC
 40
0.71
  9
$DIMGAP
 40
1.5
  9
$DIMJUST
 70
     0
  9
$DIMSD1
 70
     0
  9
$DIMSD2
 70
     0
  9
$DIMTOLJ
 70
     0
  9
$DIMTZIN
 70
     0
  9
$DIMALTZ
 70
     0
  9
$DIMALTTZ
 70
     0
  9
$DIMFIT
 70
     3
  9
$DIMUPT
 70
     0
  9
$DIMUNIT
 70
     2
  9
$DIMDEC
 70
     3
  9
$DIMTDEC
 70
     3
  9
$DIMALTU
 70
     2
  9
$DIMALTTD
 70
     2
  9
$DIMTXSTY
  7
ASAMI
  9
$DIMAUNIT
 70
     0
  9
$LUNITS
 70
     2
  9
$LUPREC
 70
     0
  9
$SKETCHINC
 40
1.0
  9
$FILLETRAD
 40
2.5
  9
$AUNITS
 70
     0
  9
$AUPREC
 70
     0
  9
$MENU
  1
.
  9
$ELEVATION
 40
0.0
  9
$PELEVATION
 40
0.0
  9
$THICKNESS
 40
0.0
  9
$LIMCHECK
 70
     0
  9
$BLIPMODE
 70
     0
  9
$CHAMFERA
 40
2.5
  9
$CHAMFERB
 40
2.5
  9
$CHAMFERC
 40
20.0
  9
$CHAMFERD
 40
0.0
  9
$SKPOLY
 70
     0
  9
$TDCREATE
 40
2452839.420061482
  9
$TDUPDATE
 40
2453152.406379352
  9
$TDINDWG
 40
0.1012398611
  9
$TDUSRTIMER
 40
0.1012398611
  9
$USRTIMER
 70
     1
  9
$ANGBASE
 50
0.0
  9
$ANGDIR
 70
     0
  9
$PDMODE
 70
     0
  9
$PDSIZE
 40
0.0
  9
$PLINEWID
 40
0.0
  9
$COORDS
 70
     1
  9
$SPLFRAME
 70
     0
  9
$SPLINETYPE
 70
     6
  9
$SPLINESEGS
 70
     8
  9
$ATTDIA
 70
     1
  9
$ATTREQ
 70
     1
  9
$HANDLING
 70
 12289
  9
$HANDSEED
  5
23AC
  9
$SURFTAB1
 70
     6
  9
$SURFTAB2
 70
     6
  9
$SURFTYPE
 70
     6
  9
$SURFU
 70
     6
  9
$SURFV
 70
     6
  9
$UCSNAME
  2

  9
$UCSORG
 10
0.0
 20
0.0
 30
0.0
  9
$UCSXDIR
 10
1.0
 20
0.0
 30
0.0
  9
$UCSYDIR
 10
0.0
 20
1.0
 30
0.0
  9
$PUCSNAME
  2

  9
$PUCSORG
 10
0.0
 20
0.0
 30
0.0
  9
$PUCSXDIR
 10
1.0
 20
0.0
 30
0.0
  9
$PUCSYDIR
 10
0.0
 20
1.0
 30
0.0
  9
$USERI1
 70
     0
  9
$USERI2
 70
     0
  9
$USERI3
 70
     0
  9
$USERI4
 70
     0
  9
$USERI5
 70
     0
  9
$USERR1
 40
0.0
  9
$USERR2
 40
0.0
  9
$USERR3
 40
0.0
  9
$USERR4
 40
0.0
  9
$USERR5
 40
0.0
  9
$WORLDVIEW
 70
     1
  9
$SHADEDGE
 70
     3
  9
$SHADEDIF
 70
    70
  9
$TILEMODE
 70
     1
  9
$MAXACTVP
 70
    64
  9
$PINSBASE
 10
0.0
 20
0.0
 30
0.0
  9
$PLIMCHECK
 70
     0
  9
$PEXTMIN
 10
1.000000000000000E+20
 20
1.000000000000000E+20
 30
1.000000000000000E+20
  9
$PEXTMAX
 10
-1.000000000000000E+20
 20
-1.000000000000000E+20
 30
-1.000000000000000E+20
  9
$PLIMMIN
 10
0.0
 20
0.0
  9
$PLIMMAX
 10
841.0
 20
594.0
  9
$UNITMODE
 70
     0
  9
$VISRETAIN
 70
     1
  9
$PLINEGEN
 70
     0
  9
$PSLTSCALE
 70
     0
  9
$TREEDEPTH
 70
  3020
  9
$PICKSTYLE
 70
     0
  9
$CMLSTYLE
  2
STANDARD
  9
$CMLJUST
 70
     0
  9
$CMLSCALE
 40
20.0
  9
$PROXYGRAPHICS
 70
     1
  9
$MEASUREMENT
 70
     1
  0
ENDSEC
  0
SECTION
  2
CLASSES
  0
CLASS
  1
ACDBDICTIONARYWDFLT
  2
AcDbDictionaryWithDefault
  3
AutoCAD 2000
 90
        0
280
     0
281
     0
  0
CLASS
  1
ACDBPLACEHOLDER
  2
AcDbPlaceHolder
  3
AutoCAD 2000
 90
        0
280
     0
281
     0
  0
CLASS
  1
LAYOUT
  2
AcDbLayout
  3
AutoCAD 2000
 90
        0
280
     0
281
     0
  0
CLASS
  1
AMGSETTINGSOBJ
  2
AmgSettingsObj
  3
"AcadM|Product Description: AutoCAD Mechanical 2000|Company: Autodesk"
 90
        0
280
     0
281
     0
  0
CLASS
  1
ACME_DOCUMENT
  2
AcMeDbDoc
  3
AcMeServices
 90
        0
280
     0
281
     0
  0
CLASS
  1
ACMESCOPE
  2
AcMeScope
  3
AcMeServices
 90
        0
280
     0
281
     0
  0
CLASS
  1
ACMECOMMANDHISTORY
  2
AcMeCommandHistory
  3
AcMeServices
 90
        0
280
     0
281
     0
  0
CLASS
  1
DICTIONARYVAR
  2
AcDbDictionaryVar
  3
AutoCAD 2000
 90
        0
280
     0
281
     0
  0
CLASS
  1
ACIMSYSVARMAN
  2
AcImSysVarManager
  3
AcMeServices
 90
        0
280
     0
281
     0
  0
CLASS
  1
ACIMREALSYSVAR
  2
AcImRealSysVar
  3
AcMeServices
 90
        0
280
     0
281
     0
  0
CLASS
  1
ACIMINTSYSVAR
  2
AcImIntSysVar
  3
AcMeServices
 90
        0
280
     0
281
     0
  0
CLASS
  1
ACMEDRAWINGMAN
  2
AcMeDrawingMan
  3
AcMeServices
 90
        0
280
     0
281
     0
  0
CLASS
  1
ACMEVIEW
  2
AcMeView
  3
AcMeServices
 90
        0
280
     0
281
     0
  0
CLASS
  1
ACDBENTITYCACHE
  2
AcMeEntityCache
  3
AcMeServices
 90
        0
280
     0
281
     0
  0
CLASS
  1
GSMANAGER
  2
AcMeGSManager
  3
AcMeServices
 90
        0
280
     0
281
     0
  0
CLASS
  1
AmdtInternalReactor
  2
AmdtInternalReactor
  3
AcMeServices
 90
        0
280
     0
281
     0
  0
CLASS
  1
ACMESTATEMGR
  2
AcMeStateMgr
  3
AcMeServices
 90
        0
280
     0
281
     0
  0
CLASS
  1
ACME_DATABASE
  2
AcMeDbDatabase
  3
AcMeServices
 90
        0
280
     0
281
     0
  0
CLASS
  1
ACRFINSADJUSTERMGR
  2
AcRfInsAdjusterMgr
  3
AcMeServices
 90
        0
280
     0
281
     0
  0
CLASS
  1
ACMDATADICTIONARY
  2
AcmDataDictionary
  3
"AcmSymBB|Product Description: AutoCAD Mechanical 2000|Company: Autodesk"
 90
        0
280
     0
281
     0
  0
CLASS
  1
ACMDATAENTRYBLOCK
  2
AcmDataEntryBlock
  3
"AcmSymBB|Product Description: AutoCAD Mechanical 2000|Company: Autodesk"
 90
        0
280
     0
281
     0
  0
CLASS
  1
AMGOBJPROPCFG
  2
AmgObjPropCfg
  3
"AmgLay|Product Description: AutoCAD Mechanical 2000|Company: Autodesk"
 90
        1
280
     0
281
     0
  0
CLASS
  1
ACAMGFILTERDAT
  2
AcAmgFilterDat
  3
"AcadM|Product Description: AutoCAD Mechanical 2000|Company: Autodesk"
 90
        0
280
     0
281
     0
  0
CLASS
  1
LAYER_INDEX
  2
AcDbLayerIndex
  3
AutoCAD 2000
 90
        0
280
     0
281
     0
  0
CLASS
  1
IDBUFFER
  2
AcDbIdBuffer
  3
AutoCAD 2000
 90
        0
280
     0
281
     0
  0
CLASS
  1
ACIMSTRSYSVAR
  2
AcImStrSysVar
  3
AcMeServices
 90
        0
280
     0
281
     0
  0
CLASS
  1
ACMSTANDARDJIS
  2
AcmStandardJIS
  3
"AcmSymBB|Product Description: AutoCAD Mechanical 2000|Company: Autodesk"
 90
        0
280
     0
281
     0
  0
CLASS
  1
ACMSURFSTANDARDJIS
  2
AcmSurfTextStdJIS
  3
"AcmSymBB|Product Description: AutoCAD Mechanical 2000|Company: Autodesk"
 90
        0
280
     0
281
     0
  0
CLASS
  1
ACMFCFSTANDARDJIS
  2
AcmFCFStdJIS
  3
"AcmSymBB|Product Description: AutoCAD Mechanical 2000|Company: Autodesk"
 90
        0
280
     0
281
     0
  0
CLASS
  1
ACMWELDSTANDARDJIS
  2
AcmWeldingStdJIS
  3
"AcmSymBB|Product Description: AutoCAD Mechanical 2000|Company: Autodesk"
 90
        0
280
     0
281
     0
  0
CLASS
  1
ACMIDSTANDARDJIS
  2
AcmIdStdJIS
  3
"AcmSymBB|Product Description: AutoCAD Mechanical 2000|Company: Autodesk"
 90
        0
280
     0
281
     0
  0
CLASS
  1
ACMDATUMSTANDARDJIS
  2
AcmDatumStdJIS
  3
"AcmSymBB|Product Description: AutoCAD Mechanical 2000|Company: Autodesk"
 90
        0
280
     0
281
     0
  0
CLASS
  1
ACMBOMSTANDARDJIS
  2
AcmBOMStdJIS
  3
"AcmSymBB|Product Description: AutoCAD Mechanical 2000|Company: Autodesk"
 90
        0
280
     0
281
     0
  0
CLASS
  1
ACMSTANDARDANSI
  2
AcmStandardANSI
  3
"AcmSymBB|Product Description: AutoCAD Mechanical 2000|Company: Autodesk"
 90
        0
280
     0
281
     0
  0
CLASS
  1
ACMSURFSTANDARDANSI
  2
AcmSurfTextStdANSI
  3
"AcmSymBB|Product Description: AutoCAD Mechanical 2000|Company: Autodesk"
 90
        0
280
     0
281
     0
  0
CLASS
  1
ACMFCFSTANDARDANSI
  2
AcmFCFStdANSI
  3
"AcmSymBB|Product Description: AutoCAD Mechanical 2000|Company: Autodesk"
 90
        0
280
     0
281
     0
  0
CLASS
  1
ACMWELDSTANDARDANSI
  2
AcmWeldingStdANSI
  3
"AcmSymBB|Product Description: AutoCAD Mechanical 2000|Company: Autodesk"
 90
        0
280
     0
281
     0
  0
CLASS
  1
ACMIDSTANDARDANSI
  2
AcmIdStdANSI
  3
"AcmSymBB|Product Description: AutoCAD Mechanical 2000|Company: Autodesk"
 90
        0
280
     0
281
     0
  0
CLASS
  1
ACMDATUMSTANDARDANSI
  2
AcmDatumStdANSI
  3
"AcmSymBB|Product Description: AutoCAD Mechanical 2000|Company: Autodesk"
 90
        0
280
     0
281
     0
  0
CLASS
  1
ACMBOMSTANDARDANSI
  2
AcmBOMStdANSI
  3
"AcmSymBB|Product Description: AutoCAD Mechanical 2000|Company: Autodesk"
 90
        0
280
     0
281
     0
  0
CLASS
  1
ACMSTANDARDBSI
  2
AcmStandardBSI
  3
"AcmSymBB|Product Description: AutoCAD Mechanical 2000|Company: Autodesk"
 90
        0
280
     0
281
     0
  0
CLASS
  1
ACMSURFSTANDARDBSI
  2
AcmSurfTextStdBSI
  3
"AcmSymBB|Product Description: AutoCAD Mechanical 2000|Company: Autodesk"
 90
        0
280
     0
281
     0
  0
CLASS
  1
ACMFCFSTANDARDBSI
  2
AcmFCFStdBSI
  3
"AcmSymBB|Product Description: AutoCAD Mechanical 2000|Company: Autodesk"
 90
        0
280
     0
281
     0
  0
CLASS
  1
ACMWELDSTANDARDBSI
  2
AcmWeldingStdBSI
  3
"AcmSymBB|Product Description: AutoCAD Mechanical 2000|Company: Autodesk"
 90
        0
280
     0
281
     0
  0
CLASS
  1
ACMIDSTANDARDBSI
  2
AcmIdStdBSI
  3
"AcmSymBB|Product Description: AutoCAD Mechanical 2000|Company: Autodesk"
 90
        0
280
     0
281
     0
  0
CLASS
  1
ACMDATUMSTANDARDBSI
  2
AcmDatumStdBSI
  3
"AcmSymBB|Product Description: AutoCAD Mechanical 2000|Company: Autodesk"
 90
        0
280
     0
281
     0
  0
CLASS
  1
ACMBOMSTANDARDBSI
  2
AcmBOMStdBSI
  3
"AcmSymBB|Product Description: AutoCAD Mechanical 2000|Company: Autodesk"
 90
        0
280
     0
281
     0
  0
CLASS
  1
LONG_TRANSACTION
  2
AcDbLongTransaction
  3
AutoCAD 2000
 90
        0
280
     0
281
     0
  0
CLASS
  1
LWPOLYLINE
  2
AcDbPolyline
  3
AutoCAD 2000
 90
        0
280
     0
281
     1
  0
CLASS
  1
HATCH
  2
AcDbHatch
  3
AutoCAD 2000
 90
        0
280
     0
281
     1
  0
CLASS
  1
XRECORD
  2
AcDbXrecord
  3
AutoCAD 2000
 90
        0
280
     0
281
     0
  0
ENDSEC
  0
SECTION
  2
TABLES
  0
TABLE
  2
VPORT
  5
8
330
0
100
AcDbSymbolTable
 70
     3
  0
VPORT
  5
2381
330
8
100
AcDbSymbolTableRecord
100
AcDbViewportTableRecord
  2
*ACTIVE
 70
     0
 10
0.0
 20
0.0
 11
1.0
 21
1.0
 12
-55.07305143784148
 22
-12.09259387834239
 13
0.0
 23
0.0
 14
2.5
 24
2.5
 15
10.0
 25
10.0
 16
0.0
 26
0.0
 36
1.0
 17
0.0
 27
0.0
 37
0.0
 40
117.1694143340052
 41
1.56570841889117
 42
50.0
 43
0.0
 44
0.0
 50
0.0
 51
0.0
 71
     0
 72
   100
 73
     1
 74
     3
 75
     0
 76
     0
 77
     0
 78
     0
  0
ENDTAB
  0
TABLE
  2
LTYPE
  5
5
330
0
100
AcDbSymbolTable
 70
    10
  0
LTYPE
  5
14
330
5
100
AcDbSymbolTableRecord
100
AcDbLinetypeTableRecord
  2
BYBLOCK
 70
     0
  3

 72
    65
 73
     0
 40
0.0
  0
LTYPE
  5
15
330
5
100
AcDbSymbolTableRecord
100
AcDbLinetypeTableRecord
  2
BYLAYER
 70
     0
  3

 72
    65
 73
     0
 40
0.0
  0
LTYPE
  5
16
330
5
100
AcDbSymbolTableRecord
100
AcDbLinetypeTableRecord
  2
CONTINUOUS
 70
     0
  3
Solid line
 72
    65
 73
     0
 40
0.0
  0
LTYPE
  5
4B
330
5
100
AcDbSymbolTableRecord
100
AcDbLinetypeTableRecord
  2
AM_ISO02W050
 70
     0
  3
__ __ __ __ __ __ __ __ __ __ __ __ __ __ __
 72
    65
 73
     2
 40
7.5
 49
6.0
 74
     0
 49
-1.5
 74
     0
  0
LTYPE
  5
4C
330
5
100
AcDbSymbolTableRecord
100
AcDbLinetypeTableRecord
  2
AM_ISO08W050
 70
     0
  3
____ . ____ . ____ . ____ . ____ . ____ . ____
 72
    65
 73
     4
 40
18.0
 49
12.0
 74
     0
 49
-1.5
 74
     0
 49
3.0
 74
     0
 49
-1.5
 74
     0
  0
LTYPE
  5
4D
330
5
100
AcDbSymbolTableRecord
100
AcDbLinetypeTableRecord
  2
AM_ISO09W050
 70
     0
  3
_____ . . _____ . . _____ . . ____ .. ____
 72
    65
 73
     6
 40
22.5
 49
12.0
 74
     0
 49
-1.5
 74
     0
 49
3.0
 74
     0
 49
-1.5
 74
     0
 49
3.0
 74
     0
 49
-1.5
 74
     0
  0
LTYPE
  5
4E
330
5
100
AcDbSymbolTableRecord
100
AcDbLinetypeTableRecord
  2
AMCONSTR
 70
     0
  3
_______________________
 72
    65
 73
     2
 40
9999.0
 49
9999.0
 74
     0
 49
0.0
 74
     0
  0
LTYPE
  5
4F
330
5
100
AcDbSymbolTableRecord
100
AcDbLinetypeTableRecord
  2
AM_ISO02W050X2
 70
     0
  3
 _ _ _ _ _ _ _ _ _ _ _ _
 72
    65
 73
     2
 40
3.75
 49
3.0
 74
     0
 49
-0.75
 74
     0
  0
LTYPE
  5
50
330
5
100
AcDbSymbolTableRecord
100
AcDbLinetypeTableRecord
  2
AM_ISO08W050X2
 70
     0
  3
__ . __ . __ . __ . __ . __
 72
    65
 73
     4
 40
9.0
 49
6.0
 74
     0
 49
-0.75
 74
     0
 49
1.5
 74
     0
 49
-0.75
 74
     0
  0
LTYPE
  5
53
330
5
100
AcDbSymbolTableRecord
100
AcDbLinetypeTableRecord
  2
AMZIGZAG
 70
     0
  3
/\/-/\/-/\/-/\/-/\/-/\/
 72
    65
 73
     2
 40
11.00009999999999
 49
0.0001
 74
     4
 75
   135
340
52
 46
0.04
 50
0.0
 44
0.0
 45
0.0
 49
-11.0
 74
     0
  0
LTYPE
  5
166
330
5
100
AcDbSymbolTableRecord
100
AcDbLinetypeTableRecord
  2
ACJISTGL
 70
     0
  3
_ _ _ _ _
 72
    65
 73
     2
 40
3.0
 49
2.0
 74
     0
 49
-1.0
 74
     0
  0
LTYPE
  5
26A
330
5
100
AcDbSymbolTableRecord
100
AcDbLinetypeTableRecord
  2
ACJISTGB
 70
     0
  3
__ . . __ . .
 72
    65
 73
     6
 40
9.0
 49
4.0
 74
     0
 49
-1.0
 74
     0
 49
1.0
 74
     0
 49
-1.0
 74
     0
 49
1.0
 74
     0
 49
-1.0
 74
     0
  0
ENDTAB
  0
TABLE
  2
LAYER
  5
2
330
0
100
AcDbSymbolTable
 70
     7
  0
LAYER
  5
10
330
2
100
AcDbSymbolTableRecord
100
AcDbLayerTableRecord
  2
0
 70
     0
 62
     7
  6
CONTINUOUS
  0
LAYER
  5
3F9
330
2
100
AcDbSymbolTableRecord
100
AcDbLayerTableRecord
  2
AM_0
 70
     0
 62
     7
  6
CONTINUOUS
  0
LAYER
  5
CD5
330
2
100
AcDbSymbolTableRecord
100
AcDbLayerTableRecord
  2
AM_7
 70
     0
 62
     4
  6
AM_ISO08W050
  0
LAYER
  5
CDE
330
2
100
AcDbSymbolTableRecord
100
AcDbLayerTableRecord
  2
AM_11
 70
     0
 62
     3
  6
AM_ISO09W050
  0
LAYER
  5
CFB
330
2
100
AcDbSymbolTableRecord
100
AcDbLayerTableRecord
  2
AM_5
 70
     0
 62
     3
  6
CONTINUOUS
  0
LAYER
  5
CFD
330
2
100
AcDbSymbolTableRecord
100
AcDbLayerTableRecord
  2
DEFPOINTS
 70
     0
 62
     7
  6
CONTINUOUS
  0
LAYER
  5
113C
330
2
100
AcDbSymbolTableRecord
100
AcDbLayerTableRecord
  2
AM_6
 70
     0
 62
     2
  6
CONTINUOUS
  0
ENDTAB
  0
TABLE
  2
STYLE
  5
3
330
0
100
AcDbSymbolTable
 70
     5
  0
STYLE
  5
11
330
3
100
AcDbSymbolTableRecord
100
AcDbTextStyleTableRecord
  2
STANDARD
 70
     0
 40
0.0
 41
1.0
 50
0.0
 71
     0
 42
2.5
  3
simplex.shx
  4
EXTFONT.SHX
  0
STYLE
  5
52
330
3
100
AcDbSymbolTableRecord
100
AcDbTextStyleTableRecord
  2

 70
     1
 40
0.0
 41
1.0
 50
0.0
 71
     0
 42
2.5
  3
ltypeshp.shx
  4

  0
STYLE
  5
6B
330
3
100
AcDbSymbolTableRecord
100
AcDbTextStyleTableRecord
  2
ASAMI
 70
     0
 40
0.0
 41
1.0
 50
0.0
 71
     0
 42
2.5
  3
simplex.shx
  4
EXTFONT.SHX
  0
STYLE
  5
262
330
3
100
AcDbSymbolTableRecord
100
AcDbTextStyleTableRecord
  2
ACJISTS
 70
     0
 40
1.0
 41
1.0
 50
0.0
 71
     0
 42
2.5
  3
simplex.shx
  4
bigfont.shx
  0
STYLE
  5
269
330
3
100
AcDbSymbolTableRecord
100
AcDbTextStyleTableRecord
  2
ACJISGDT
 70
     0
 40
0.0
 41
1.0
 50
0.0
 71
     0
 42
2.5
  3
amgdtans.shx
  4

  0
ENDTAB
  0
TABLE
  2
VIEW
  5
6
330
0
100
AcDbSymbolTable
 70
     0
  0
ENDTAB
  0
TABLE
  2
UCS
  5
7
330
0
100
AcDbSymbolTable
 70
     0
  0
ENDTAB
  0
TABLE
  2
APPID
  5
9
330
0
100
AcDbSymbolTable
 70
    12
  0
APPID
  5
12
330
9
100
AcDbSymbolTableRecord
100
AcDbRegAppTableRecord
  2
ACAD
 70
     0
  0
APPID
  5
30
330
9
100
AcDbSymbolTableRecord
100
AcDbRegAppTableRecord
  2
MCAD_NO_VIS
 70
     0
  0
APPID
  5
31
330
9
100
AcDbSymbolTableRecord
100
AcDbRegAppTableRecord
  2
ACAD_TEMP_GRAPHIC
 70
     0
  0
APPID
  5
2C2
330
9
100
AcDbSymbolTableRecord
100
AcDbRegAppTableRecord
  2
GENIUS_GENDTOL_13
 70
     0
  0
APPID
  5
339
330
9
100
AcDbSymbolTableRecord
100
AcDbRegAppTableRecord
  2
GENIUS_GENODEF_13
 70
     0
  0
APPID
  5
33A
330
9
100
AcDbSymbolTableRecord
100
AcDbRegAppTableRecord
  2
GENIUS_GENOBJ-N-RSBK_13
 70
     0
  0
APPID
  5
33B
330
9
100
AcDbSymbolTableRecord
100
AcDbRegAppTableRecord
  2
GENIUS_GENOBJ-N-LIB_13
 70
     0
  0
APPID
  5
33C
330
9
100
AcDbSymbolTableRecord
100
AcDbRegAppTableRecord
  2
GENIUS_GENSCALE_13
 70
     0
  0
APPID
  5
378
330
9
100
AcDbSymbolTableRecord
100
AcDbRegAppTableRecord
  2
GENIUS_GENDIMSH_14
 70
     0
  0
APPID
  5
13A0
330
9
100
AcDbSymbolTableRecord
100
AcDbRegAppTableRecord
  2
GENIUS_GENOBJ-N-CEN_13
 70
     0
  0
APPID
  5
13D7
330
9
100
AcDbSymbolTableRecord
100
AcDbRegAppTableRecord
  2
GENIUS_GENREC_14
 70
     0
  0
APPID
  5
13D8
330
9
100
AcDbSymbolTableRecord
100
AcDbRegAppTableRecord
  2
GENIUS_GENOBJ-N-REC_13
 70
     0
  0
ENDTAB
  0
TABLE
  2
DIMSTYLE
  5
A
330
0
100
AcDbSymbolTable
 70
     9
  0
DIMSTYLE
105
58
330
A
100
AcDbSymbolTableRecord
100
AcDbDimStyleTableRecord
  2
AM_JIS
 70
     0
  3

  4
"
  5
OPEN30
  6

  7

 40
1.0
 41
2.5
 42
1.0
 43
12.0
 44
1.0
 45
0.0
 46
0.0
 47
0.1
 48
0.1
140
3.2
141
0.0
142
0.0
143
0.0393701
144
1.0
145
0.0
146
0.71
147
1.5
 71
     0
 72
     0
 73
     0
 74
     0
 75
     0
 76
     0
 77
     3
 78
     8
170
     0
171
     2
172
     1
173
     0
174
     0
175
     0
176
   256
177
   256
178
     2
270
     2
271
     3
272
     3
273
     2
274
     2
340
6B
275
     0
280
     0
281
     0
282
     0
283
     0
284
     0
285
     0
286
     0
287
     3
288
     0
  0
DIMSTYLE
105
5F
330
A
100
AcDbSymbolTableRecord
100
AcDbDimStyleTableRecord
  2
AM_JIS$3
 70
     0
  3

  4
"
  5
OPEN30
  6

  7

 40
1.0
 41
2.5
 42
1.0
 43
10.0
 44
1.0
 45
0.0
 46
0.0
 47
0.1
 48
0.1
140
3.2
141
0.0
142
0.0
143
0.0393701
144
1.0
145
0.0
146
0.71
147
1.5
 71
     0
 72
     0
 73
     0
 74
     1
 75
     0
 76
     0
 77
     3
 78
     8
170
     0
171
     2
172
     0
173
     0
174
     0
175
     0
176
   256
177
   256
178
     2
270
     2
271
     2
272
     3
273
     2
274
     2
340
6B
275
     0
280
     0
281
     0
282
     0
283
     0
284
     0
285
     0
286
     0
287
     0
288
     1
  0
DIMSTYLE
105
60
330
A
100
AcDbSymbolTableRecord
100
AcDbDimStyleTableRecord
  2
AM_JIS$4
 70
     0
  3

  4
"
  5
OPEN30
  6

  7

 40
1.0
 41
2.5
 42
1.0
 43
10.0
 44
1.0
 45
0.0
 46
0.0
 47
0.1
 48
0.1
140
3.2
141
0.0
142
0.0
143
0.0393701
144
1.0
145
0.0
146
0.71
147
1.5
 71
     0
 72
     0
 73
     0
 74
     1
 75
     0
 76
     0
 77
     3
 78
     8
170
     0
171
     2
172
     0
173
     0
174
     0
175
     0
176
   256
177
   256
178
     2
270
     2
271
     2
272
     3
273
     2
274
     2
340
6B
275
     0
280
     0
281
     0
282
     0
283
     0
284
     0
285
     0
286
     0
287
     0
288
     1
  0
DIMSTYLE
105
61
330
A
100
AcDbSymbolTableRecord
100
AcDbDimStyleTableRecord
  2
AM_JIS$6
 70
     0
  3

  4
"
  5
OPEN30
  6

  7

 40
1.0
 41
2.5
 42
1.0
 43
10.0
 44
1.0
 45
0.0
 46
0.0
 47
0.1
 48
0.1
140
3.2
141
0.0
142
0.0
143
0.0393701
144
1.0
145
0.0
146
0.71
147
1.5
 71
     0
 72
     0
 73
     0
 74
     0
 75
     0
 76
     0
 77
     0
 78
     8
170
     0
171
     2
172
     1
173
     0
174
     0
175
     0
176
   256
177
   256
178
     2
270
     2
271
     2
272
     2
273
     2
274
     2
340
6B
275
     0
280
     0
281
     0
282
     0
283
     0
284
     0
285
     0
286
     0
287
     3
288
     0
  0
DIMSTYLE
105
62
330
A
100
AcDbSymbolTableRecord
100
AcDbDimStyleTableRecord
  2
AM_JIS$7
 70
     0
  3

  4
"
  5
OPEN30
  6

  7

 40
1.0
 41
2.5
 42
1.0
 43
10.0
 44
1.0
 45
0.0
 46
0.0
 47
0.1
 48
0.1
140
3.2
141
0.0
142
0.0
143
0.0393701
144
1.0
145
0.0
146
0.71
147
1.5
 71
     0
 72
     0
 73
     0
 74
     0
 75
     0
 76
     0
 77
     3
 78
     8
170
     0
171
     2
172
     1
173
     0
174
     0
175
     0
176
   256
177
   256
178
     2
270
     2
271
     2
272
     3
273
     2
274
     2
340
6B
275
     0
280
     0
281
     0
282
     0
283
     0
284
     0
285
     0
286
     0
287
     3
288
     0
  0
DIMSTYLE
105
63
330
A
100
AcDbSymbolTableRecord
100
AcDbDimStyleTableRecord
  2
AM_JIS$SF
 70
     0
  3

  4
"
  5
OPEN30
  6

  7

 40
1.0
 41
2.5
 42
1.0
 43
10.0
 44
1.0
 45
0.0
 46
0.0
 47
0.1
 48
0.1
140
3.2
141
0.0
142
0.0
143
0.0393701
144
1.0
145
0.0
146
0.71
147
1.5
 71
     0
 72
     0
 73
     0
 74
     0
 75
     1
 76
     1
 77
     3
 78
     8
170
     0
171
     2
172
     1
173
     0
174
     0
175
     0
176
   256
177
   256
178
     2
270
     2
271
     2
272
     2
273
     2
274
     2
340
6B
275
     0
280
     0
281
     0
282
     0
283
     0
284
     0
285
     0
286
     0
287
     3
288
     0
  0
DIMSTYLE
105
68
330
A
100
AcDbSymbolTableRecord
100
AcDbDimStyleTableRecord
  2
AM_JIS$SH
 70
     0
  3

  4
"
  5

  6
GENAXEH
  7
OPEN30
 40
1.0
 41
2.5
 42
1.0
 43
10.0
 44
1.0
 45
0.0
 46
0.0
 47
0.1
 48
0.1
140
3.2
141
0.0
142
0.0
143
0.0393701
144
2.0
145
0.0
146
0.71
147
1.5
 71
     0
 72
     0
 73
     0
 74
     0
 75
     1
 76
     1
 77
     3
 78
     8
170
     0
171
     2
172
     1
173
     1
174
     0
175
     0
176
   256
177
   256
178
     2
270
     2
271
     2
272
     2
273
     2
274
     2
340
6B
275
     0
280
     0
281
     0
282
     0
283
     0
284
     0
285
     0
286
     0
287
     3
288
     0
  0
DIMSTYLE
105
B34
330
A
100
AcDbSymbolTableRecord
100
AcDbDimStyleTableRecord
  2
AM_JIS$2
 70
     0
  3

  4
"
  5
OPEN30
  6

  7

 40
1.0
 41
2.5
 42
1.0
 43
12.0
 44
1.0
 45
0.0
 46
0.0
 47
0.1
 48
0.1
140
3.2
141
0.0
142
0.0
143
0.0393701
144
1.0
145
0.0
146
0.71
147
1.5
 71
     0
 72
     0
 73
     0
 74
     0
 75
     0
 76
     0
 77
     3
 78
     8
170
     0
171
     2
172
     1
173
     0
174
     0
175
     0
176
   256
177
   256
178
     2
270
     2
271
     3
272
     3
273
     2
274
     2
340
6B
275
     0
280
     0
281
     0
282
     0
283
     0
284
     0
285
     0
286
     0
287
     3
288
     0
  0
DIMSTYLE
105
BA5
102
{ACAD_REACTORS
330
155D
330
15E8
330
1673
330
1895
330
1E16
330
1F37
102
}
330
A
100
AcDbSymbolTableRecord
100
AcDbDimStyleTableRecord
  2
AM_JIS$0
 70
     0
  3

  4
"
  5
OPEN30
  6

  7

 40
1.0
 41
2.5
 42
0.0
 43
10.0
 44
1.0
 45
0.0
 46
0.0
 47
0.1
 48
0.1000000001
140
3.799999999999999
141
0.0
142
0.0
143
0.0393701
144
1.0
145
0.0
146
0.71
147
1.5
 71
     0
 72
     0
 73
     0
 74
     0
 75
     0
 76
     0
 77
     3
 78
     1
170
     0
171
     2
172
     1
173
     0
174
     0
175
     0
176
     3
177
     3
178
     2
270
     2
271
     2
272
     2
273
     2
274
     2
340
11
275
     1
280
     0
281
     0
282
     0
283
     0
284
     8
285
     0
286
     0
287
     0
288
     0
  0
ENDTAB
  0
TABLE
  2
BLOCK_RECORD
  5
1
330
0
100
AcDbSymbolTable
 70
    13
  0
BLOCK_RECORD
  5
1F
102
{ACAD_XDICTIONARY
360
74
102
}
330
1
100
AcDbSymbolTableRecord
100
AcDbBlockTableRecord
  2
*MODEL_SPACE
  0
BLOCK_RECORD
  5
101
102
{ACAD_XDICTIONARY
360
23AA
102
}
330
1
100
AcDbSymbolTableRecord
100
AcDbBlockTableRecord
  2
*PAPER_SPACE
  0
BLOCK_RECORD
  5
59
330
1
100
AcDbSymbolTableRecord
100
AcDbBlockTableRecord
  2
_OPEN30
  0
BLOCK_RECORD
  5
64
330
1
100
AcDbSymbolTableRecord
100
AcDbBlockTableRecord
  2
GENAXEH
  0
BLOCK_RECORD
  5
155E
330
1
100
AcDbSymbolTableRecord
100
AcDbBlockTableRecord
  2
*D5
  0
BLOCK_RECORD
  5
15E9
330
1
100
AcDbSymbolTableRecord
100
AcDbBlockTableRecord
  2
*D6
  0
BLOCK_RECORD
  5
1674
330
1
100
AcDbSymbolTableRecord
100
AcDbBlockTableRecord
  2
*D7
  0
BLOCK_RECORD
  5
1896
330
1
100
AcDbSymbolTableRecord
100
AcDbBlockTableRecord
  2
*D8
  0
BLOCK_RECORD
  5
1E17
330
1
100
AcDbSymbolTableRecord
100
AcDbBlockTableRecord
  2
*D9
  0
BLOCK_RECORD
  5
1F38
330
1
100
AcDbSymbolTableRecord
100
AcDbBlockTableRecord
  2
*D10
  0
BLOCK_RECORD
  5
203B
330
1
100
AcDbSymbolTableRecord
100
AcDbBlockTableRecord
  2
A$C151C5092
  0
BLOCK_RECORD
  5
2139
330
1
100
AcDbSymbolTableRecord
100
AcDbBlockTableRecord
  2
A$C77146ED9
  0
ENDTAB
  0
ENDSEC
  0
SECTION
  2
BLOCKS
  0
BLOCK
  5
20
330
1F
100
AcDbEntity
  8
0
100
AcDbBlockBegin
  2
*MODEL_SPACE
 70
     0
 10
0.0
 20
0.0
 30
0.0
  3
*MODEL_SPACE
  1

  0
ENDBLK
  5
21
330
1F
100
AcDbEntity
  8
0
100
AcDbBlockEnd
  0
BLOCK
  5
103
330
101
100
AcDbEntity
 67
     1
  8
0
100
AcDbBlockBegin
  2
*PAPER_SPACE
 70
     0
 10
0.0
 20
0.0
 30
0.0
  3
*PAPER_SPACE
  1

  0
ENDBLK
  5
104
330
101
100
AcDbEntity
 67
     1
  8
0
100
AcDbBlockEnd
  0
BLOCK
  5
5D
330
59
100
AcDbEntity
  8
0
100
AcDbBlockBegin
  2
_OPEN30
 70
     0
 10
0.0
 20
0.0
 30
0.0
  3
_OPEN30
  1

  0
LINE
  5
5A
330
59
100
AcDbEntity
  8
0
 62
     0
100
AcDbLine
 10
-1.0
 20
0.26794919
 30
0.0
 11
0.0
 21
0.0
 31
0.0
  0
LINE
  5
5B
330
59
100
AcDbEntity
  8
0
 62
     0
100
AcDbLine
 10
0.0
 20
0.0
 30
0.0
 11
-1.0
 21
-0.26794919
 31
0.0
  0
LINE
  5
5C
330
59
100
AcDbEntity
  8
0
 62
     0
100
AcDbLine
 10
0.0
 20
0.0
 30
0.0
 11
-1.0
 21
0.0
 31
0.0
  0
ENDBLK
  5
5E
330
59
100
AcDbEntity
  8
0
100
AcDbBlockEnd
  0
BLOCK
  5
66
330
64
100
AcDbEntity
  8
0
100
AcDbBlockBegin
  2
GENAXEH
 70
     0
 10
0.0
 20
0.0
 30
0.0
  3
GENAXEH
  1

  0
LINE
  5
65
330
64
100
AcDbEntity
  8
0
100
AcDbLine
 10
-1.0
 20
0.0
 30
0.0
 11
1.0
 21
0.0
 31
0.0
  0
ENDBLK
  5
67
330
64
100
AcDbEntity
  8
0
100
AcDbBlockEnd
  0
BLOCK
  5
1568
330
155E
100
AcDbEntity
  8
0
100
AcDbBlockBegin
  2
*D5
 70
     1
 10
0.0
 20
0.0
 30
0.0
  3
*D5
  1

  0
LINE
  5
1F25
330
155E
100
AcDbEntity
  8
AM_5
 62
     3
100
AcDbLine
 10
-0.0000000000000008
 20
-6.0
 30
0.0
 11
-0.0000000000000019
 21
-25.00000000000004
 31
0.0
  0
LINE
  5
1F26
330
155E
100
AcDbEntity
  8
AM_5
 62
     3
100
AcDbLine
 10
-29.99999237060499
 20
-9.499999999999982
 30
0.0
 11
-29.99999237060499
 21
-25.00000000000004
 31
0.0
  0
LINE
  5
1F27
330
155E
100
AcDbEntity
  8
AM_5
 62
     3
100
AcDbLine
 10
-2.500000000000001
 20
-24.00000000000004
 30
0.0
 11
-27.49999237060499
 21
-24.00000000000004
 31
0.0
  0
INSERT
  5
1F28
330
155E
100
AcDbEntity
  8
AM_5
 62
     3
100
AcDbBlockReference
  2
_OPEN30
 10
-0.0000000000000019
 20
-24.00000000000004
 30
0.0
 41
2.5
 42
2.5
 43
2.5
  0
INSERT
  5
1F29
330
155E
100
AcDbEntity
  8
AM_5
 62
     3
100
AcDbBlockReference
  2
_OPEN30
 10
-29.99999237060499
 20
-24.00000000000004
 30
0.0
 41
2.5
 42
2.5
 43
2.5
 50
180.0
  0
MTEXT
  5
1F2A
330
155E
100
AcDbEntity
  8
AM_5
 62
     2
100
AcDbMText
 10
-14.99999618530249
 20
-20.60000000000004
 30
0.0
 40
3.799999999999999
 41
0.0
 71
     5
 72
     1
  1
30
1001
ACAD
1000
MTEXTBEGIN
1070
    73
1070
     1
1070
    44
1040
1.0
1070
    74
1070
     0
1000
MTEXTEND
  0
POINT
  5
1F2B
330
155E
100
AcDbEntity
  8
DEFPOINTS
 62
     0
100
AcDbPoint
 10
-0.0000000000000008
 20
-6.0
 30
0.0
  0
POINT
  5
1F2C
330
155E
100
AcDbEntity
  8
DEFPOINTS
 62
     0
100
AcDbPoint
 10
-29.99999237060499
 20
-9.499999999999982
 30
0.0
  0
POINT
  5
1F2D
330
155E
100
AcDbEntity
  8
DEFPOINTS
 62
     0
100
AcDbPoint
 10
-29.99999237060499
 20
-24.00000000000004
 30
0.0
  0
ENDBLK
  5
1569
330
155E
100
AcDbEntity
  8
0
100
AcDbBlockEnd
  0
BLOCK
  5
15F3
330
15E9
100
AcDbEntity
  8
0
100
AcDbBlockBegin
  2
*D6
 70
     1
 10
0.0
 20
0.0
 30
0.0
  3
*D6
  1

  0
LINE
  5
1FCE
330
15E9
100
AcDbEntity
  8
AM_5
 62
     3
100
AcDbLine
 10
-29.99999237060499
 20
-9.499999999999982
 30
0.0
 11
-29.99999237060499
 21
-25.0000000000002
 31
0.0
  0
LINE
  5
1FCF
330
15E9
100
AcDbEntity
  8
AM_5
 62
     3
100
AcDbLine
 10
-109.9999999999989
 20
-7.661499023436975
 30
0.0
 11
-109.9999999999989
 21
-25.0000000000002
 31
0.0
  0
LINE
  5
1FD0
330
15E9
100
AcDbEntity
  8
AM_5
 62
     3
100
AcDbLine
 10
-32.49999237060499
 20
-24.0000000000002
 30
0.0
 11
-107.4999999999989
 21
-24.0000000000002
 31
0.0
  0
INSERT
  5
1FD1
330
15E9
100
AcDbEntity
  8
AM_5
 62
     3
100
AcDbBlockReference
  2
_OPEN30
 10
-29.99999237060499
 20
-24.0000000000002
 30
0.0
 41
2.5
 42
2.5
 43
2.5
  0
INSERT
  5
1FD2
330
15E9
100
AcDbEntity
  8
AM_5
 62
     3
100
AcDbBlockReference
  2
_OPEN30
 10
-109.9999999999989
 20
-24.0000000000002
 30
0.0
 41
2.5
 42
2.5
 43
2.5
 50
180.0
  0
MTEXT
  5
1FD3
330
15E9
100
AcDbEntity
  8
AM_5
 62
     2
100
AcDbMText
 10
-69.999996185302
 20
-20.6000000000002
 30
0.0
 40
3.799999999999999
 41
0.0
 71
     5
 72
     1
  1
80
1001
ACAD
1000
MTEXTBEGIN
1070
    73
1070
     1
1070
    44
1040
1.0
1070
    74
1070
     0
1000
MTEXTEND
  0
POINT
  5
1FD4
330
15E9
100
AcDbEntity
  8
DEFPOINTS
 62
     0
100
AcDbPoint
 10
-29.99999237060499
 20
-9.499999999999982
 30
0.0
  0
POINT
  5
1FD5
330
15E9
100
AcDbEntity
  8
DEFPOINTS
 62
     0
100
AcDbPoint
 10
-109.9999999999989
 20
-7.661499023436975
 30
0.0
  0
POINT
  5
1FD6
330
15E9
100
AcDbEntity
  8
DEFPOINTS
 62
     0
100
AcDbPoint
 10
-109.9999999999989
 20
-24.0000000000002
 30
0.0
  0
ENDBLK
  5
15F4
330
15E9
100
AcDbEntity
  8
0
100
AcDbBlockEnd
  0
BLOCK
  5
167E
330
1674
100
AcDbEntity
  8
0
100
AcDbBlockBegin
  2
*D7
 70
     1
 10
0.0
 20
0.0
 30
0.0
  3
*D7
  1

  0
LINE
  5
1FC5
330
1674
100
AcDbEntity
  8
AM_5
 62
     3
100
AcDbLine
 10
-109.9999999999989
 20
-7.661499023436975
 30
0.0
 11
-109.9999999999989
 21
-34.99999999999998
 31
0.0
  0
LINE
  5
1FC6
330
1674
100
AcDbEntity
  8
AM_5
 62
     3
100
AcDbLine
 10
-0.0000000000000009
 20
-7.918792724599995
 30
0.0
 11
-0.0000000000000026
 21
-34.99999999999998
 31
0.0
  0
LINE
  5
1FC7
330
1674
100
AcDbEntity
  8
AM_5
 62
     3
100
AcDbLine
 10
-107.4999999999989
 20
-33.99999999999998
 30
0.0
 11
-2.500000000000002
 21
-33.99999999999998
 31
0.0
  0
INSERT
  5
1FC8
330
1674
100
AcDbEntity
  8
AM_5
 62
     3
100
AcDbBlockReference
  2
_OPEN30
 10
-109.9999999999989
 20
-33.99999999999998
 30
0.0
 41
2.5
 42
2.5
 43
2.5
 50
180.0
  0
INSERT
  5
1FC9
330
1674
100
AcDbEntity
  8
AM_5
 62
     3
100
AcDbBlockReference
  2
_OPEN30
 10
-0.0000000000000025
 20
-33.99999999999998
 30
0.0
 41
2.5
 42
2.5
 43
2.5
  0
MTEXT
  5
1FCA
330
1674
100
AcDbEntity
  8
AM_5
 62
     2
100
AcDbMText
 10
-54.9999999999995
 20
-30.59999999999998
 30
0.0
 40
3.799999999999999
 41
0.0
 71
     5
 72
     1
  1
110
1001
ACAD
1000
MTEXTBEGIN
1070
    73
1070
     1
1070
    44
1040
1.0
1070
    74
1070
     0
1000
MTEXTEND
  0
POINT
  5
1FCB
330
1674
100
AcDbEntity
  8
DEFPOINTS
 62
     0
100
AcDbPoint
 10
-109.9999999999989
 20
-7.661499023436975
 30
0.0
  0
POINT
  5
1FCC
330
1674
100
AcDbEntity
  8
DEFPOINTS
 62
     0
100
AcDbPoint
 10
-0.0000000000000009
 20
-7.918792724599995
 30
0.0
  0
POINT
  5
1FCD
330
1674
100
AcDbEntity
  8
DEFPOINTS
 62
     0
100
AcDbPoint
 10
-0.0000000000000025
 20
-33.99999999999998
 30
0.0
  0
ENDBLK
  5
167F
330
1674
100
AcDbEntity
  8
0
100
AcDbBlockEnd
  0
BLOCK
  5
18A0
330
1896
100
AcDbEntity
  8
0
100
AcDbBlockBegin
  2
*D8
 70
     1
 10
0.0
 20
0.0
 30
0.0
  3
*D8
  1

  0
LINE
  5
1EE4
330
1896
100
AcDbEntity
  8
AM_5
 62
     3
100
AcDbLine
 10
0.0000000000000059
 20
-9.999999999999985
 30
0.0
 11
15.0
 21
-9.999999999999991
 31
0.0
  0
LINE
  5
1EE5
330
1896
100
AcDbEntity
  8
AM_5
 62
     3
100
AcDbLine
 10
0.0000000000000089
 20
10.00000000000001
 30
0.0
 11
15.0
 21
10.0
 31
0.0
  0
LINE
  5
1EE6
330
1896
100
AcDbEntity
  8
AM_5
 62
     3
100
AcDbLine
 10
14.0
 20
-7.499999999999989
 30
0.0
 11
14.00000000000001
 21
7.500000000000007
 31
0.0
  0
INSERT
  5
1EE7
330
1896
100
AcDbEntity
  8
AM_5
 62
     3
100
AcDbBlockReference
  2
_OPEN30
 10
14.0
 20
-9.999999999999989
 30
0.0
 41
2.5
 42
2.5
 43
2.5
 50
270.0
  0
INSERT
  5
1EE8
330
1896
100
AcDbEntity
  8
AM_5
 62
     3
100
AcDbBlockReference
  2
_OPEN30
 10
14.00000000000001
 20
10.0
 30
0.0
 41
2.5
 42
2.5
 43
2.5
 50
90.0
  0
MTEXT
  5
1EE9
330
1896
100
AcDbEntity
  8
AM_5
 62
     2
100
AcDbMText
 10
10.6
 20
0.000000000000012
 30
0.0
 40
3.799999999999999
 41
0.0
 71
     5
 72
     1
  1
%%c20
 11
0.0000000000000001
 21
1.0
 31
0.0
1001
ACAD
1000
MTEXTBEGIN
1070
    73
1070
     1
1070
    44
1040
1.0
1070
    74
1070
     0
1000
MTEXTEND
  0
POINT
  5
1EEA
330
1896
100
AcDbEntity
  8
DEFPOINTS
 62
     0
100
AcDbPoint
 10
0.0000000000000059
 20
-9.999999999999985
 30
0.0
  0
POINT
  5
1EEB
330
1896
100
AcDbEntity
  8
DEFPOINTS
 62
     0
100
AcDbPoint
 10
0.0000000000000089
 20
10.00000000000001
 30
0.0
  0
POINT
  5
1EEC
330
1896
100
AcDbEntity
  8
DEFPOINTS
 62
     0
100
AcDbPoint
 10
14.00000000000001
 20
10.0
 30
0.0
  0
ENDBLK
  5
18A1
330
1896
100
AcDbEntity
  8
0
100
AcDbBlockEnd
  0
BLOCK
  5
1E21
330
1E17
100
AcDbEntity
  8
0
100
AcDbBlockBegin
  2
*D9
 70
     1
 10
0.0
 20
0.0
 30
0.0
  3
*D9
  1

  0
LINE
  5
1EDB
330
1E17
100
AcDbEntity
  8
AM_5
 62
     3
100
AcDbLine
 10
-106.9999847412099
 20
10.00003433227602
 30
0.0
 11
-124.999999999999
 21
10.00003433227603
 31
0.0
  0
LINE
  5
1EDC
330
1E17
100
AcDbEntity
  8
AM_5
 62
     3
100
AcDbLine
 10
-106.999961853026
 20
-9.999961853026976
 30
0.0
 11
-124.999999999999
 21
-9.999961853026968
 31
0.0
  0
LINE
  5
1EDD
330
1E17
100
AcDbEntity
  8
AM_5
 62
     3
100
AcDbLine
 10
-123.9999999999989
 20
7.500034332276031
 30
0.0
 11
-123.9999999999989
 21
-7.499961853026969
 31
0.0
  0
INSERT
  5
1EDE
330
1E17
100
AcDbEntity
  8
AM_5
 62
     3
100
AcDbBlockReference
  2
_OPEN30
 10
-123.9999999999989
 20
10.00003433227603
 30
0.0
 41
2.5
 42
2.5
 43
2.5
 50
90.0
  0
INSERT
  5
1EDF
330
1E17
100
AcDbEntity
  8
AM_5
 62
     3
100
AcDbBlockReference
  2
_OPEN30
 10
-123.9999999999989
 20
-9.99996185302697
 30
0.0
 41
2.5
 42
2.5
 43
2.5
 50
270.0
  0
MTEXT
  5
1EE0
330
1E17
100
AcDbEntity
  8
AM_5
 62
     2
100
AcDbMText
 10
-127.399999999999
 20
0.0000362396245111
 30
0.0
 40
3.799999999999999
 41
0.0
 71
     5
 72
     1
  1
%%c20
 11
0.0000000000000001
 21
1.0
 31
0.0
1001
ACAD
1000
MTEXTBEGIN
1070
    73
1070
     1
1070
    44
1040
1.0
1070
    74
1070
     0
1000
MTEXTEND
  0
POINT
  5
1EE1
330
1E17
100
AcDbEntity
  8
DEFPOINTS
 62
     0
100
AcDbPoint
 10
-106.9999847412099
 20
10.00003433227602
 30
0.0
  0
POINT
  5
1EE2
330
1E17
100
AcDbEntity
  8
DEFPOINTS
 62
     0
100
AcDbPoint
 10
-106.999961853026
 20
-9.999961853026976
 30
0.0
  0
POINT
  5
1EE3
330
1E17
100
AcDbEntity
  8
DEFPOINTS
 62
     0
100
AcDbPoint
 10
-123.9999999999989
 20
-9.99996185302697
 30
0.0
  0
ENDBLK
  5
1E22
330
1E17
100
AcDbEntity
  8
0
100
AcDbBlockEnd
  0
BLOCK
  5
1F42
330
1F38
100
AcDbEntity
  8
0
100
AcDbBlockBegin
  2
*D10
 70
     1
 10
0.0
 20
0.0
 30
0.0
  3
*D10
  1

  0
LINE
  5
1FD7
330
1F38
100
AcDbEntity
  8
AM_5
 62
     3
100
AcDbLine
 10
-8.999999999999991
 20
10.00000000000001
 30
0.0
 11
-8.999999999999989
 21
25.00003433227622
 31
0.0
  0
LINE
  5
1FD8
330
1F38
100
AcDbEntity
  8
AM_5
 62
     3
100
AcDbLine
 10
0.0000000000000083
 20
10.00000000000001
 30
0.0
 11
0.0000000000000092
 21
25.00003433227622
 31
0.0
  0
LINE
  5
1FD9
330
1F38
100
AcDbEntity
  8
AM_5
 62
     3
100
AcDbLine
 10
-6.499999999999991
 20
24.00003433227622
 30
0.0
 11
-2.49999999999999
 21
24.00003433227622
 31
0.0
  0
INSERT
  5
1FDA
330
1F38
100
AcDbEntity
  8
AM_5
 62
     3
100
AcDbBlockReference
  2
_OPEN30
 10
-8.999999999999991
 20
24.00003433227622
 30
0.0
 41
2.5
 42
2.5
 43
2.5
 50
180.0
  0
INSERT
  5
1FDB
330
1F38
100
AcDbEntity
  8
AM_5
 62
     3
100
AcDbBlockReference
  2
_OPEN30
 10
0.0000000000000092
 20
24.00003433227622
 30
0.0
 41
2.5
 42
2.5
 43
2.5
  0
MTEXT
  5
1FDC
330
1F38
100
AcDbEntity
  8
AM_5
 62
     2
100
AcDbMText
 10
-4.499999999999991
 20
27.40003433227622
 30
0.0
 40
3.799999999999999
 41
0.0
 71
     5
 72
     1
  1
9
1001
ACAD
1000
MTEXTBEGIN
1070
    73
1070
     1
1070
    44
1040
1.0
1070
    74
1070
     0
1000
MTEXTEND
  0
POINT
  5
1FDD
330
1F38
100
AcDbEntity
  8
DEFPOINTS
 62
     0
100
AcDbPoint
 10
-8.999999999999991
 20
10.00000000000001
 30
0.0
  0
POINT
  5
1FDE
330
1F38
100
AcDbEntity
  8
DEFPOINTS
 62
     0
100
AcDbPoint
 10
0.0000000000000083
 20
10.00000000000001
 30
0.0
  0
POINT
  5
1FDF
330
1F38
100
AcDbEntity
  8
DEFPOINTS
 62
     0
100
AcDbPoint
 10
0.0000000000000092
 20
24.00003433227622
 30
0.0
  0
ENDBLK
  5
1F43
330
1F38
100
AcDbEntity
  8
0
100
AcDbBlockEnd
  0
BLOCK
  5
2137
330
203B
100
AcDbEntity
  8
0
100
AcDbBlockBegin
  2
A$C151C5092
 70
     0
 10
0.0
 20
0.0
 30
0.0
  3
A$C151C5092
  1

  0
ELLIPSE
  5
203C
330
203B
100
AcDbEntity
  8
AM_0
 48
0.5
100
AcDbEllipse
 10
-7.720993041989999
 20
5.871032714843998
 30
0.0
 11
-0.1975860677000014
 21
0.1149902263300007
 31
0.0
210
0.0
220
0.0
230
1.0
 40
0.0781877217101
 41
0.0
 42
0.6177700365849846
  0
SPLINE
  5
203D
330
203B
100
AcDbEntity
  8
AM_0
 48
0.5
100
AcDbSpline
210
0.0
220
0.0
230
1.0
 70
     8
 71
     3
 72
    11
 73
     7
 74
     5
 42
0.0000000001
 43
0.0000000001
 44
0.0000000001
 40
0.0
 40
0.0
 40
0.0
 40
0.0
 40
0.009573002359483
 40
0.0221353605405369
 40
0.0391761490887772
 40
0.061201723518626
 40
0.061201723518626
 40
0.061201723518626
 40
0.061201723518626
 10
-8.186798095699998
 20
5.935607910156001
 30
0.0
 10
-8.187421184063534
 20
5.932409433382899
 30
0.0
 10
-8.188861932227755
 20
5.925013693374229
 30
0.0
 10
-8.183108903679743
 20
5.912624105958069
 30
0.0
 10
-8.173853571933669
 20
5.898283471138891
 30
0.0
 10
-8.16498723485555
 20
5.888663484474824
 30
0.0
 10
-8.159988403319999
 20
5.883239746093998
 30
0.0
 11
-8.186798095699998
 21
5.935607910156001
 31
0.0
 11
-8.187789916989999
 21
5.926086425781001
 31
0.0
 11
-8.18359375
 21
5.914245605468998
 31
0.0
 11
-8.174392700189997
 21
5.89990234375
 31
0.0
 11
-8.159988403319999
 21
5.883239746093998
 31
0.0
  0
SPLINE
  5
203E
330
203B
100
AcDbEntity
  8
AM_0
 48
0.5
100
AcDbSpline
210
0.0
220
0.0
230
1.0
 70
     8
 71
     3
 72
    11
 73
     7
 74
     5
 42
0.0000000001
 43
0.0000000001
 44
0.0000000001
 40
0.0
 40
0.0
 40
0.0
 40
0.0
 40
0.1153804854945066
 40
0.2242254323513602
 40
0.3156842172056806
 40
0.3805544837753306
 40
0.3805544837753306
 40
0.3805544837753306
 40
0.3805544837753306
 10
-10.04449462889999
 20
3.128601074218998
 30
0.0
 10
-10.08036650745317
 20
3.142491825205074
 30
0.0
 10
-10.15007836074768
 20
3.169486508337053
 30
0.0
 10
-10.246545520277
 20
3.211464806933433
 30
0.0
 10
-10.32683939277413
 20
3.248773831909229
 30
0.0
 10
-10.37126102412665
 20
3.2760825369376
 30
0.0
 10
-10.38969421387
 20
3.287414550781001
 30
0.0
 11
-10.04449462889999
 21
3.128601074218998
 31
0.0
 11
-10.15179443358999
 21
3.171020507812997
 31
0.0
 11
-10.25169372557999
 21
3.214233398437997
 31
0.0
 11
-10.33389282225999
 21
3.254333496093998
 31
0.0
 11
-10.38969421387
 21
3.287414550781001
 31
0.0
  0
SPLINE
  5
203F
330
203B
100
AcDbEntity
  8
AM_0
 48
0.5
100
AcDbSpline
210
0.0
220
0.0
230
1.0
 70
     8
 71
     3
 72
    11
 73
     7
 74
     5
 42
0.0000000001
 43
0.0000000001
 44
0.0000000001
 40
0.0
 40
0.0
 40
0.0
 40
0.0
 40
1.054588485529313
 40
2.109207414219396
 40
3.163808414618868
 40
4.218391749813212
 40
4.218391749813212
 40
4.218391749813212
 40
4.218391749813212
 10
-5.016891479489999
 20
1.271545410156001
 30
0.0
 10
-5.347013420770685
 20
1.392344841038077
 30
0.0
 10
-6.00726683307325
 20
1.633947189960059
 30
0.0
 10
-6.997315165612716
 20
1.997253641472251
 30
0.0
 10
-7.987232400332422
 20
2.360912010069016
 30
0.0
 10
-8.647011437649275
 20
2.603784499114217
 30
0.0
 10
-8.97689819336
 20
2.725219726562997
 30
0.0
 11
-5.016891479489999
 21
1.271545410156001
 31
0.0
 11
-6.007202148440001
 21
1.634094238281001
 31
0.0
 11
-6.997299194329997
 21
1.997314453125
 31
0.0
 11
-7.987197875969997
 21
2.361022949218998
 31
0.0
 11
-8.97689819336
 21
2.725219726562997
 31
0.0
  0
ELLIPSE
  5
2040
330
203B
100
AcDbEntity
  8
AM_0
 48
0.5
100
AcDbEllipse
 10
-7.740188598629998
 20
5.880920410156001
 30
0.0
 11
-0.1752777140600017
 21
0.1019897483540006
 31
0.0
210
0.0
220
0.0
230
1.0
 40
0.0783612612703
 41
0.6169773121725726
 42
1.163222932195248
  0
SPLINE
  5
2041
330
203B
100
AcDbEntity
  8
AM_0
 48
0.5
100
AcDbSpline
210
0.0
220
0.0
230
1.0
 70
     8
 71
     3
 72
    11
 73
     7
 74
     5
 42
0.0000000001
 43
0.0000000001
 44
0.0000000001
 40
0.0
 40
0.0
 40
0.0
 40
0.0
 40
0.0351990366524961
 40
0.0785382956335354
 40
0.1287151338803365
 40
0.1842731287248544
 40
0.1842731287248544
 40
0.1842731287248544
 40
0.1842731287248544
 10
-8.159988403319999
 20
5.883239746093998
 30
0.0
 10
-8.151456052546084
 20
5.875174565881894
 30
0.0
 10
-8.132418136987585
 20
5.857179030546951
 30
0.0
 10
-8.098045993799448
 20
5.831381472234221
 30
0.0
 10
-8.056968187772108
 20
5.803403011904006
 30
0.0
 10
-8.026704939589771
 20
5.785319689187964
 30
0.0
 10
-8.010803222649997
 20
5.775817871093998
 30
0.0
 11
-8.159988403319999
 21
5.883239746093998
 31
0.0
 11
-8.134002685550001
 21
5.859497070312997
 31
0.0
 11
-8.099700927729998
 21
5.8330078125
 31
0.0
 11
-8.058197021479998
 21
5.804809570312997
 31
0.0
 11
-8.010803222649997
 21
5.775817871093998
 31
0.0
  0
ELLIPSE
  5
2042
330
203B
100
AcDbEntity
  8
AM_0
 48
0.5
100
AcDbEllipse
 10
-7.727996826169999
 20
5.876403808593998
 30
0.0
 11
-0.2022552674799982
 21
0.1176757627990028
 31
0.0
210
0.0
220
0.0
230
1.0
 40
0.0781669348587
 41
1.163804603015796
 42
1.362893776516335
  0
SPLINE
  5
2043
330
203B
100
AcDbEntity
  8
AM_0
 48
0.5
100
AcDbSpline
210
0.0
220
0.0
230
1.0
 70
     8
 71
     3
 72
    11
 73
     7
 74
     5
 42
0.0000000001
 43
0.0000000001
 44
0.0000000001
 40
0.0
 40
0.0
 40
0.0
 40
0.0
 40
0.0248765999341686
 40
0.0501833878419383
 40
0.0758999300311995
 40
0.1020765594559554
 40
0.1020765594559554
 40
0.1020765594559554
 40
0.1020765594559554
 10
-8.010803222649997
 20
5.775817871093998
 30
0.0
 10
-8.003616124573438
 20
5.771681484992782
 30
0.0
 10
-7.989117642819968
 20
5.763337182775815
 30
0.0
 10
-7.966911495985677
 20
5.751209571377501
 30
0.0
 10
-7.944102723492857
 20
5.739290809196038
 30
0.0
 10
-7.928607784756377
 20
5.731601107460566
 30
0.0
 10
-7.920791625969997
 20
5.727722167968998
 30
0.0
 11
-8.010803222649997
 21
5.775817871093998
 31
0.0
 11
-7.989196777339998
 21
5.763488769531001
 31
0.0
 11
-7.96699523926
 21
5.751342773437997
 31
0.0
 11
-7.9441986084
 21
5.739440917968998
 31
0.0
 11
-7.920791625969997
 21
5.727722167968998
 31
0.0
  0
ELLIPSE
  5
2044
330
203B
100
AcDbEntity
  8
AM_0
 48
0.5
100
AcDbEllipse
 10
-7.73439025879
 20
5.87744140625
 30
0.0
 11
-0.1758880691100018
 21
0.1023559573560036
 31
0.0
210
0.0
220
0.0
230
1.0
 40
0.0787188372182
 41
1.362002572363657
 42
1.613948531481803
  0
SPLINE
  5
2045
330
203B
100
AcDbEntity
  8
AM_0
 48
0.5
100
AcDbSpline
210
0.0
220
0.0
230
1.0
 70
     8
 71
     3
 72
    11
 73
     7
 74
     5
 42
0.0000000001
 43
0.0000000001
 44
0.0000000001
 40
0.0
 40
0.0
 40
0.0
 40
0.0
 40
0.5368959490524494
 40
1.378533272190288
 40
2.28104992321519
 40
3.155418231348999
 40
3.155418231348999
 40
3.155418231348999
 40
3.155418231348999
 10
10.01480102538799
 20
0.1243896484379974
 30
0.0
 10
10.03029396285441
 20
-0.0541277132315326
 30
0.0
 10
10.07007360697188
 20
-0.5124886361615611
 30
0.0
 10
10.00855420856747
 20
-1.273275525704576
 30
0.0
 10
9.87612911077838
 20
-2.137695528449671
 30
0.0
 10
9.702533843687541
 20
-2.704817657884228
 30
0.0
 10
9.617111206052001
 20
-2.98388671875
 30
0.0
 11
10.01480102538799
 21
0.1243896484379974
 31
0.0
 11
10.04960632323999
 21
-0.411376953125
 31
0.0
 11
10.00061035155999
 21
-1.251586914062002
 31
0.0
 11
9.853103637692996
 21
-2.141967773437002
 31
0.0
 11
9.617111206052001
 21
-2.98388671875
 31
0.0
  0
SPLINE
  5
2046
330
203B
100
AcDbEntity
  8
AM_0
 48
0.5
100
AcDbSpline
210
0.0
220
0.0
230
1.0
 70
     8
 71
     3
 72
    10
 73
     6
 74
     4
 42
0.0000000001
 43
0.0000000001
 44
0.0000000001
 40
0.0
 40
0.0
 40
0.0
 40
0.0
 40
0.0411014680368518
 40
0.5717669352559595
 40
0.7316863244200748
 40
0.7316863244200748
 40
0.7316863244200748
 40
0.7316863244200748
 10
-1.899398803709999
 20
9.166320800781001
 30
0.0
 10
-1.902544324430332
 20
9.179669643544023
 30
0.0
 10
-1.946302000930747
 20
9.365366828593089
 30
0.0
 10
-2.091346647145736
 20
9.570923326037139
 30
0.0
 10
-2.199378673339841
 20
9.77366791850722
 30
0.0
 10
-2.224395751949998
 20
9.820617675781001
 30
0.0
 11
-1.899398803709999
 21
9.166320800781001
 31
0.0
 11
-1.90919494629
 21
9.206237792968998
 31
0.0
 11
-2.14779663086
 21
9.680236816406001
 31
0.0
 11
-2.224395751949998
 21
9.820617675781001
 31
0.0
  0
SPLINE
  5
2047
330
203B
100
AcDbEntity
  8
AM_0
 48
0.5
100
AcDbSpline
210
0.0
220
0.0
230
1.0
 70
     8
 71
     3
 72
    11
 73
     7
 74
     5
 42
0.0000000001
 43
0.0000000001
 44
0.0000000001
 40
0.0
 40
0.0
 40
0.0
 40
0.0
 40
0.4047021472964591
 40
0.5820559505311908
 40
0.6218661311990136
 40
0.6271623379626446
 40
0.6271623379626446
 40
0.6271623379626446
 40
0.6271623379626446
 10
-2.250900268549997
 20
9.681823730468998
 30
0.0
 10
-2.181145070582507
 20
9.561556613273914
 30
0.0
 10
-2.080820848611633
 20
9.388584486280599
 30
0.0
 10
-1.957631517777857
 20
9.245511751805537
 30
0.0
 10
-1.916499773813058
 20
9.165176391193043
 30
0.0
 10
-1.901195740454443
 20
9.166200548442864
 30
0.0
 10
-1.899398803709999
 20
9.166320800781001
 30
0.0
 11
-2.250900268549997
 21
9.681823730468998
 31
0.0
 11
-2.034393310550001
 21
9.339904785156001
 31
0.0
 11
-1.93229675293
 21
9.194885253906001
 31
0.0
 11
-1.904693603509997
 21
9.166198730468998
 31
0.0
 11
-1.899398803709999
 21
9.166320800781001
 31
0.0
  0
SPLINE
  5
2048
330
203B
100
AcDbEntity
  8
AM_0
 48
0.5
100
AcDbSpline
210
0.0
220
0.0
230
1.0
 70
     8
 71
     3
 72
    10
 73
     6
 74
     4
 42
0.0000000001
 43
0.0000000001
 44
0.0000000001
 40
0.0
 40
0.0
 40
0.0
 40
0.0
 40
0.0201860342416858
 40
0.2113337179873757
 40
0.6260841554930402
 40
0.6260841554930402
 40
0.6260841554930402
 40
0.6260841554930402
 10
8.888000488279999
 20
-2.938293457031001
 30
0.0
 10
8.893860070125512
 20
-2.934931686919592
 30
0.0
 10
8.955205810573447
 20
-2.899736295484278
 30
0.0
 10
9.176381200652118
 20
-2.919093454517734
 30
0.0
 10
9.374554320583436
 20
-2.902773159367877
 30
0.0
 10
9.510208129879998
 20
-2.8916015625
 30
0.0
 11
8.888000488279999
 21
-2.938293457031001
 31
0.0
 11
8.905700683600002
 21
-2.928588867187002
 31
0.0
 11
9.095809936530002
 21
-2.90869140625
 31
0.0
 11
9.510208129879998
 21
-2.8916015625
 31
0.0
  0
SPLINE
  5
2049
330
203B
100
AcDbEntity
  8
AM_0
 48
0.5
100
AcDbSpline
210
0.0
220
0.0
230
1.0
 70
     8
 71
     3
 72
    10
 73
     6
 74
     4
 42
0.0000000001
 43
0.0000000001
 44
0.0000000001
 40
0.0
 40
0.0
 40
0.0
 40
0.0
 40
0.4668773517814334
 40
0.6985070207158369
 40
0.7318128294898539
 40
0.7318128294898539
 40
0.7318128294898539
 40
0.7318128294898539
 10
9.617111206052001
 20
-2.98388671875
 30
0.0
 10
9.46248865241837
 20
-2.976131174956106
 30
0.0
 10
9.231153937076115
 20
-2.964527909625642
 30
0.0
 10
8.982348897414862
 20
-2.970148796428416
 30
0.0
 10
8.898536756111461
 20
-2.941850871414888
 30
0.0
 10
8.888000488279999
 20
-2.938293457031001
 30
0.0
 11
9.617111206052001
 21
-2.98388671875
 31
0.0
 11
9.150497436530002
 21
-2.968200683593998
 31
0.0
 11
8.919708251949998
 21
-2.948486328125
 31
0.0
 11
8.888000488279999
 21
-2.938293457031001
 31
0.0
  0
SPLINE
  5
204A
330
203B
100
AcDbEntity
  8
AM_0
 48
0.5
100
AcDbSpline
210
0.0
220
0.0
230
1.0
 70
     8
 71
     3
 72
    10
 73
     6
 74
     4
 42
0.0000000001
 43
0.0000000001
 44
0.0000000001
 40
0.0
 40
0.0
 40
0.0
 40
0.0
 40
0.0388983615879791
 40
0.3381710792061845
 40
0.7318293063211124
 40
0.7318293063211124
 40
0.7318293063211124
 40
0.7318293063211124
 10
-6.988601684569999
 20
-6.228088378906001
 30
0.0
 10
-6.99812737060292
 20
-6.236911106071302
 30
0.0
 10
-7.080940923524582
 20
-6.313613338382129
 30
0.0
 10
-7.198196023115242
 20
-6.532965710512545
 30
0.0
 10
-7.32223366612269
 20
-6.726719373672438
 30
0.0
 10
-7.392700195309998
 20
-6.836791992187002
 30
0.0
 11
-6.988601684569999
 21
-6.228088378906001
 31
0.0
 11
-7.01679992676
 21
-6.2548828125
 31
0.0
 11
-7.185501098629998
 21
-6.502075195312002
 31
0.0
 11
-7.392700195309998
 21
-6.836791992187002
 31
0.0
  0
SPLINE
  5
204B
330
203B
100
AcDbEntity
  8
AM_0
 48
0.5
100
AcDbSpline
210
0.0
220
0.0
230
1.0
 70
     8
 71
     3
 72
    11
 73
     7
 74
     5
 42
0.0000000001
 43
0.0000000001
 44
0.0000000001
 40
0.0
 40
0.0
 40
0.0
 40
0.0
 40
0.441532582167148
 40
0.5953040084004761
 40
0.625131288051397
 40
0.6274122090813293
 40
0.6274122090813293
 40
0.6274122090813293
 40
0.6274122090813293
 10
-7.25929260254
 20
-6.790283203125
 30
0.0
 10
-7.181267873715848
 20
-6.653681530961737
 30
0.0
 10
-7.076069671591335
 20
-6.469505942845767
 30
0.0
 10
-7.022640743395609
 20
-6.311084071337328
 30
0.0
 10
-6.978112515608081
 20
-6.233395000117972
 30
0.0
 10
-6.987905971365313
 20
-6.228440350207335
 30
0.0
 10
-6.988601684569999
 20
-6.228088378906001
 30
0.0
 11
-7.25929260254
 21
-6.790283203125
 31
0.0
 11
-7.055099487299997
 21
-6.398803710937002
 31
0.0
 11
-6.99220275879
 21
-6.258483886718998
 31
0.0
 11
-6.986602783199998
 21
-6.229187011718998
 31
0.0
 11
-6.988601684569999
 21
-6.228088378906001
 31
0.0
  0
SPLINE
  5
204C
330
203B
100
AcDbEntity
  8
AM_0
 48
0.5
100
AcDbSpline
210
0.0
220
0.0
230
1.0
 70
     8
 71
     3
 72
    11
 73
     7
 74
     5
 42
0.0000000001
 43
0.0000000001
 44
0.0000000001
 40
0.0
 40
0.0
 40
0.0
 40
0.0
 40
0.8177826995904547
 40
2.118316693900249
 40
3.847237717642213
 40
6.01038329792609
 40
6.01038329792609
 40
6.01038329792609
 40
6.01038329792609
 10
9.867507934567996
 20
-3.589294433593998
 30
0.0
 10
9.764286670419313
 20
-3.84166365516847
 30
0.0
 10
9.496910841704488
 20
-4.4953800218213
 30
0.0
 10
8.906087757152995
 20
-5.636194052292334
 30
0.0
 10
7.883888179921781
 20
-7.050400796439584
 30
0.0
 10
6.8944248596739
 20
-7.896311850077903
 30
0.0
 10
6.344497680670002
 20
-8.366455078125
 30
0.0
 11
9.867507934567996
 21
-3.589294433593998
 31
0.0
 11
9.549209594724004
 21
-4.342590332031001
 31
0.0
 11
8.947708129879998
 21
-5.495666503906001
 31
0.0
 11
7.92530822754
 21
-6.889892578125
 31
0.0
 11
6.344497680670002
 21
-8.366455078125
 31
0.0
  0
SPLINE
  5
204D
330
203B
100
AcDbEntity
  8
AM_0
 48
0.5
100
AcDbSpline
210
0.0
220
0.0
230
1.0
 70
     8
 71
     3
 72
    11
 73
     7
 74
     5
 42
0.0000000001
 43
0.0000000001
 44
0.0000000001
 40
0.0
 40
0.0
 40
0.0
 40
0.0
 40
0.8286232978582336
 40
2.120552459497369
 40
3.840329909876715
 40
6.010790500210626
 40
6.010790500210626
 40
6.010790500210626
 40
6.010790500210626
 10
-1.825302124019998
 20
10.340087890625
 30
0.0
 10
-1.551718269134265
 20
10.37865018754485
 30
0.0
 10
-0.8515823716085268
 20
10.47733601232026
 30
0.0
 10
0.4299809208207228
 20
10.53341632683354
 30
0.0
 10
2.161167421975441
 20
10.34933861235164
 30
0.0
 10
3.388596701326647
 20
9.918249638703377
 30
0.0
 10
4.07341003418
 20
9.677734375
 30
0.0
 11
-1.825302124019998
 21
10.340087890625
 31
0.0
 11
-1.003402709959999
 21
10.44543457031299
 31
0.0
 11
0.287399291989999
 21
10.49938964843799
 31
0.0
 11
1.996505737310002
 21
10.30810546874999
 31
0.0
 11
4.07341003418
 21
9.677734375
 31
0.0
  0
SPLINE
  5
204E
330
203B
100
AcDbEntity
  8
AM_0
 48
0.5
100
AcDbSpline
210
0.0
220
0.0
230
1.0
 70
     8
 71
     3
 72
    11
 73
     7
 74
     5
 42
0.0000000001
 43
0.0000000001
 44
0.0000000001
 40
0.0
 40
0.0
 40
0.0
 40
0.0
 40
0.8286856786616072
 40
2.120537655539827
 40
3.840237409891297
 40
6.010863556994669
 40
6.010863556994669
 40
6.010863556994669
 40
6.010863556994669
 10
-8.042098999019998
 20
-6.750854492187002
 30
0.0
 10
-8.212290606192508
 20
-6.533181673446186
 30
0.0
 10
-8.647796758837777
 20
-5.976175053671012
 30
0.0
 10
-9.337142821916065
 20
-4.894388790530214
 30
0.0
 10
-10.04338691025623
 20
-3.30311823800507
 30
0.0
 10
-10.2837109457235
 20
-2.024543938881786
 30
0.0
 10
-10.41780090332
 20
-1.311157226562002
 30
0.0
 11
-8.042098999019998
 21
-6.750854492187002
 31
0.0
 11
-8.54429626465
 21
-6.091674804687002
 31
0.0
 11
-9.236389160149997
 21
-5.000854492187002
 31
0.0
 11
-9.92529296875
 21
-3.425170898437002
 31
0.0
 11
-10.41780090332
 21
-1.311157226562002
 31
0.0
  0
ELLIPSE
  5
204F
330
203B
100
AcDbEntity
  8
AM_0
 48
0.5
100
AcDbEllipse
 10
8.665100097660001
 20
-15.12808227538999
 30
0.0
 11
-11.13993731867
 21
19.44711420840899
 31
0.0
210
0.0
220
0.0
230
1.0
 40
0.6284011450325
 41
5.481462060653031
 42
5.522398234959525
  0
ELLIPSE
  5
2050
330
203B
100
AcDbEntity
  8
AM_0
 48
0.5
100
AcDbEllipse
 10
8.768798828130002
 20
15.06822967529299
 30
0.0
 11
11.27177298936
 21
19.37102511758
 31
0.0
210
0.0
220
0.0
230
1.0
 40
0.6284006734838
 41
2.339877214610505
 42
2.380813751437858
  0
ELLIPSE
  5
2051
330
203B
100
AcDbEntity
  8
AM_0
 48
0.5
100
AcDbEllipse
 10
-17.43379211426
 20
0.059814453125
 30
0.0
 11
-22.41166753796
 21
0.0760503460209989
 31
0.0
210
0.0
220
0.0
230
0.9999999999999998
 40
0.628400187026
 41
2.339877871230156
 42
2.380814175638118
  0
SPLINE
  5
2052
330
203B
100
AcDbEntity
  8
AM_0
 48
0.5
100
AcDbSpline
210
0.0
220
0.0
230
1.0
 70
     8
 71
     3
 72
    11
 73
     7
 74
     5
 42
0.0000000001
 43
0.0000000001
 44
0.0000000001
 40
0.0
 40
0.0
 40
0.0
 40
0.0
 40
0.102821093934801
 40
0.2039811265238595
 40
0.3051350401083645
 40
0.4078570188172241
 40
0.4078570188172241
 40
0.4078570188172241
 40
0.4078570188172241
 10
-3.09880065918
 20
0.418701171875
 30
0.0
 10
-3.100680949892072
 20
0.3844287221489054
 30
0.0
 10
-3.104411155465297
 20
0.3164374896466129
 30
0.0
 10
-3.126189899828247
 20
0.2167272101199021
 30
0.0
 10
-3.158818937417406
 20
0.1200580372909512
 30
0.0
 10
-3.190584037867103
 20
0.0598676696945965
 30
0.0
 10
-3.206588745120001
 20
0.029541015625
 30
0.0
 11
-3.09880065918
 21
0.418701171875
 31
0.0
 11
-3.107192993159998
 21
0.3162231445310013
 31
0.0
 11
-3.127990722649997
 21
0.2172241210939987
 31
0.0
 11
-3.161102294919999
 21
0.1216430664060013
 31
0.0
 11
-3.206588745120001
 21
0.029541015625
 31
0.0
  0
SPLINE
  5
2053
330
203B
100
AcDbEntity
  8
AM_0
 48
0.5
100
AcDbSpline
210
0.0
220
0.0
230
1.0
 70
     8
 71
     3
 72
    11
 73
     7
 74
     5
 42
0.0000000001
 43
0.0000000001
 44
0.0000000001
 40
0.0
 40
0.0
 40
0.0
 40
0.0
 40
0.2117101907092632
 40
0.4236725692110618
 40
0.6359236480077725
 40
0.8477218760892679
 40
0.8477218760892679
 40
0.8477218760892679
 40
0.8477218760892679
 10
-3.497497558589998
 20
1.124328613281001
 30
0.0
 10
-3.438857198156303
 20
1.084253395715508
 30
0.0
 10
-3.321506625275642
 20
1.004055223247839
 30
0.0
 10
-3.194176833883454
 20
0.8303991079945195
 30
0.0
 10
-3.111604853627614
 20
0.6315929345404136
 30
0.0
 10
-3.103065684279433
 20
0.4896145522477628
 30
0.0
 10
-3.09880065918
 20
0.418701171875
 30
0.0
 11
-3.497497558589998
 21
1.124328613281001
 31
0.0
 11
-3.329696655269998
 21
0.9952392578129973
 31
0.0
 11
-3.20169067383
 21
0.8262939453129973
 31
0.0
 11
-3.123199462889999
 21
0.6290893554689987
 31
0.0
 11
-3.09880065918
 21
0.418701171875
 31
0.0
  0
SPLINE
  5
2054
330
203B
100
AcDbEntity
  8
AM_0
 48
0.5
100
AcDbSpline
210
0.0
220
0.0
230
1.0
 70
     8
 71
     3
 72
    11
 73
     7
 74
     5
 42
0.0000000001
 43
0.0000000001
 44
0.0000000001
 40
0.0
 40
0.0
 40
0.0
 40
0.0
 40
0.1023286613623699
 40
0.2033706066740578
 40
0.3047135988785817
 40
0.4079330035603747
 40
0.4079330035603747
 40
0.4079330035603747
 40
0.4079330035603747
 10
1.186798095699998
 20
-2.89306640625
 30
0.0
 10
1.217273810289639
 20
-2.87763651734061
 30
0.0
 10
1.277842027272099
 20
-2.846970760292314
 30
0.0
 10
1.374934497027816
 20
-2.815981608212885
 30
0.0
 10
1.475137501993099
 20
-2.795793273762644
 30
0.0
 10
1.543373572062642
 20
-2.793145242572602
 30
0.0
 10
1.57780456543
 20
-2.791809082031001
 30
0.0
 11
1.186798095699998
 21
-2.89306640625
 31
0.0
 11
1.279296875
 21
-2.849304199218998
 31
0.0
 11
1.375305175779999
 21
-2.817810058593998
 31
0.0
 11
1.47480773926
 21
-2.798583984375
 31
0.0
 11
1.57780456543
 21
-2.791809082031001
 31
0.0
  0
SPLINE
  5
2055
330
203B
100
AcDbEntity
  8
AM_0
 48
0.5
100
AcDbSpline
210
0.0
220
0.0
230
1.0
 70
     8
 71
     3
 72
    11
 73
     7
 74
     5
 42
0.0000000001
 43
0.0000000001
 44
0.0000000001
 40
0.0
 40
0.0
 40
0.0
 40
0.0
 40
0.2114910461090887
 40
0.4234729185076715
 40
0.6358252531454484
 40
0.8476321919249556
 40
0.8476321919249556
 40
0.8476321919249556
 40
0.8476321919249556
 10
0.775100708010001
 20
-3.591064453125
 30
0.0
 10
0.7804406178878683
 20
-3.520303834084875
 30
0.0
 10
0.7911328304526593
 20
-3.378618375472717
 30
0.0
 10
0.8781102553703977
 20
-3.181692601910179
 30
0.0
 10
1.008622846132975
 20
-3.01043250233666
 30
0.0
 10
1.127457279390423
 20
-2.932154887763424
 30
0.0
 10
1.186798095699998
 20
-2.89306640625
 30
0.0
 11
0.775100708010001
 21
-3.591064453125
 31
0.0
 11
0.8029022216800001
 21
-3.381408691406001
 31
0.0
 11
0.8852996826200012
 21
-3.186096191406001
 31
0.0
 11
1.016708374030002
 21
-3.019287109375
 31
0.0
 11
1.186798095699998
 21
-2.89306640625
 31
0.0
  0
SPLINE
  5
2056
330
203B
100
AcDbEntity
  8
AM_0
 48
0.5
100
AcDbSpline
210
0.0
220
0.0
230
1.0
 70
     8
 71
     3
 72
    11
 73
     7
 74
     5
 42
0.0000000001
 43
0.0000000001
 44
0.0000000001
 40
0.0
 40
0.0
 40
0.0
 40
0.0
 40
0.102917817504986
 40
0.2041569392230775
 40
0.3052652552913466
 40
0.4079257723537836
 40
0.4079257723537836
 40
0.4079257723537836
 40
0.4079257723537836
 10
1.912109375
 20
2.474243164062997
 30
0.0
 10
1.883350250034785
 20
2.493038151377244
 30
0.0
 10
1.826301091104188
 20
2.530321560371294
 30
0.0
 10
1.750809092987298
 20
2.599065644674323
 30
0.0
 10
1.683383243811146
 20
2.675626421343813
 30
0.0
 10
1.647157231340835
 20
2.733200638177835
 30
0.0
 10
1.62890625
 20
2.76220703125
 30
0.0
 11
1.912109375
 21
2.474243164062997
 31
0.0
 11
1.82749938965
 21
2.532836914062997
 31
0.0
 11
1.752105712889999
 21
2.600402832031001
 31
0.0
 11
1.68589782715
 21
2.676818847656001
 31
0.0
 11
1.62890625
 21
2.76220703125
 31
0.0
  0
SPLINE
  5
2057
330
203B
100
AcDbEntity
  8
AM_0
 48
0.5
100
AcDbSpline
210
0.0
220
0.0
230
1.0
 70
     8
 71
     3
 72
    11
 73
     7
 74
     5
 42
0.0000000001
 43
0.0000000001
 44
0.0000000001
 40
0.0
 40
0.0
 40
0.0
 40
0.0
 40
0.2116239139201932
 40
0.4235822105273469
 40
0.6357796039638155
 40
0.8475910227366513
 40
0.8475910227366513
 40
0.8475910227366513
 40
0.8475910227366513
 10
2.722396850590001
 20
2.466796875
 30
0.0
 10
2.658408015235914
 20
2.436029880365171
 30
0.0
 10
2.530329237056919
 20
2.374447276786549
 30
0.0
 10
2.316316054984516
 20
2.351110058076007
 30
0.0
 10
2.102847771290094
 20
2.378803960426135
 30
0.0
 10
1.9756502445163
 20
2.44244940830652
 30
0.0
 10
1.912109375
 20
2.474243164062997
 30
0.0
 11
2.722396850590001
 21
2.466796875
 31
0.0
 11
2.526809692379998
 21
2.385986328125
 31
0.0
 11
2.316497802740002
 21
2.359619140625
 31
0.0
 11
2.106506347660001
 21
2.39013671875
 31
0.0
 11
1.912109375
 21
2.474243164062997
 31
0.0
  0
SPLINE
  5
2058
330
203B
100
AcDbEntity
  8
AM_0
 48
0.5
100
AcDbSpline
210
0.0
220
0.0
230
1.0
 70
     8
 71
     3
 72
    11
 73
     7
 74
     5
 42
0.0000000001
 43
0.0000000001
 44
0.0000000001
 40
0.0
 40
0.0
 40
0.0
 40
0.0
 40
0.9114698235779885
 40
1.821402631698342
 40
2.638786481186979
 40
3.062351376535212
 40
3.062351376535212
 40
3.062351376535212
 40
3.062351376535212
 10
-2.250900268549997
 20
9.681823730468998
 30
0.0
 10
-2.543713556907334
 20
9.600564452044379
 30
0.0
 10
-3.128846361322845
 20
9.438182923063518
 30
0.0
 10
-3.956048386916867
 20
9.134447196838237
 30
0.0
 10
-4.603057737419414
 20
8.824634349314671
 30
0.0
 10
-4.984799599922541
 20
8.665243631853206
 30
0.0
 10
-5.1150970459
 20
8.61083984375
 30
0.0
 11
-2.250900268549997
 21
9.681823730468998
 31
0.0
 11
-3.125793457029999
 21
9.426208496093998
 31
0.0
 11
-3.978988647459999
 21
9.109924316406001
 31
0.0
 11
-4.725189208979998
 21
8.776306152343998
 31
0.0
 11
-5.1150970459
 21
8.61083984375
 31
0.0
  0
SPLINE
  5
2059
330
203B
100
AcDbEntity
  8
AM_0
 48
0.5
100
AcDbSpline
210
0.0
220
0.0
230
1.0
 70
     8
 71
     3
 72
    11
 73
     7
 74
     5
 42
0.0000000001
 43
0.0000000001
 44
0.0000000001
 40
0.0
 40
0.0
 40
0.0
 40
0.0
 40
0.5368665536471346
 40
1.37789079272701
 40
2.280473704859233
 40
3.155459196465564
 40
3.155459196465564
 40
3.155459196465564
 40
3.155459196465564
 10
-5.1150970459
 20
8.61083984375
 30
0.0
 10
-4.968275751175599
 20
8.713547791393043
 30
0.0
 10
-4.591452667668746
 20
8.977152097595096
 30
0.0
 10
-3.90195767772577
 20
9.304102523025031
 30
0.0
 10
-3.087139852830533
 20
9.621685412497638
 30
0.0
 10
-2.508985095285948
 20
9.754996824686958
 30
0.0
 10
-2.224395751949998
 20
9.820617675781001
 30
0.0
 11
-5.1150970459
 21
8.61083984375
 31
0.0
 11
-4.668594360349999
 21
8.908935546875
 31
0.0
 11
-3.9169921875
 21
9.286315917968998
 31
0.0
 11
-3.072097778319999
 21
9.603820800781001
 31
0.0
 11
-2.224395751949998
 21
9.820617675781001
 31
0.0
  0
SPLINE
  5
205A
330
203B
100
AcDbEntity
  8
AM_0
 48
0.5
100
AcDbSpline
210
0.0
220
0.0
230
1.0
 70
     8
 71
     3
 72
    11
 73
     7
 74
     5
 42
0.0000000001
 43
0.0000000001
 44
0.0000000001
 40
0.0
 40
0.0
 40
0.0
 40
0.0
 40
0.9108571706859031
 40
1.820976792640852
 40
2.638032867211728
 40
3.062423357555786
 40
3.062423357555786
 40
3.062423357555786
 40
3.062423357555786
 10
-7.25929260254
 20
-6.790283203125
 30
0.0
 10
-7.042536029873922
 20
-7.002961869135168
 30
0.0
 10
-6.609198398925622
 20
-7.428146988776587
 30
0.0
 10
-5.933193937063508
 20
-7.993013967387061
 30
0.0
 10
-5.341259891057199
 20
-8.398670071406995
 30
0.0
 10
-5.012115651711213
 20
-8.649532727741723
 30
0.0
 10
-4.89959716797
 20
-8.735290527343998
 30
0.0
 11
-7.25929260254
 21
-6.790283203125
 31
0.0
 11
-6.600692749019998
 21
-7.419494628906001
 31
0.0
 11
-5.900299072259997
 21
-8.000671386718998
 31
0.0
 11
-5.238601684569999
 21
-8.47998046875
 31
0.0
 11
-4.89959716797
 21
-8.735290527343998
 31
0.0
  0
SPLINE
  5
205B
330
203B
100
AcDbEntity
  8
AM_0
 48
0.5
100
AcDbSpline
210
0.0
220
0.0
230
1.0
 70
     8
 71
     3
 72
    11
 73
     7
 74
     5
 42
0.0000000001
 43
0.0000000001
 44
0.0000000001
 40
0.0
 40
0.0
 40
0.0
 40
0.0
 40
0.5375420301605564
 40
1.378698150617735
 40
2.281580456482138
 40
3.155463921747484
 40
3.155463921747484
 40
3.155463921747484
 40
3.155463921747484
 10
-4.89959716797
 20
-8.735290527343998
 30
0.0
 10
-5.062152620040553
 20
-8.659383962527844
 30
0.0
 10
-5.47907797390648
 20
-8.464697343324283
 30
0.0
 10
-6.107295442266543
 20
-8.030860302835625
 30
0.0
 10
-6.789339797441391
 20
-7.483869743024945
 30
0.0
 10
-7.19378037293079
 20
-7.050124838885124
 30
0.0
 10
-7.392700195309998
 20
-6.836791992187002
 30
0.0
 11
-4.89959716797
 21
-8.735290527343998
 31
0.0
 11
-5.381591796869997
 21
-8.497314453125
 31
0.0
 11
-6.084289550779999
 21
-8.034973144531001
 31
0.0
 11
-6.781799316399997
 21
-7.461669921875
 31
0.0
 11
-7.392700195309998
 21
-6.836791992187002
 31
0.0
  0
SPLINE
  5
205C
330
203B
100
AcDbEntity
  8
AM_0
 48
0.5
100
AcDbSpline
210
0.0
220
0.0
230
1.0
 70
     8
 71
     3
 72
    11
 73
     7
 74
     5
 42
0.0000000001
 43
0.0000000001
 44
0.0000000001
 40
0.0
 40
0.0
 40
0.0
 40
0.0
 40
0.910051219532754
 40
1.821583463999583
 40
2.638596174054587
 40
3.06235465313339
 40
3.06235465313339
 40
3.06235465313339
 40
3.06235465313339
 10
9.510208129879998
 20
-2.8916015625
 30
0.0
 10
9.585851372946844
 20
-2.597786046388583
 30
0.0
 10
9.737260961524295
 20
-2.009676856347772
 30
0.0
 10
9.889096052081082
 20
-1.141715876857325
 30
0.0
 10
9.943857365685653
 20
-0.4259417839892904
 30
0.0
 10
9.996740081260741
 20
-0.0157145595242839
 30
0.0
 10
10.01480102538799
 20
0.1243896484379974
 30
0.0
 11
9.510208129879998
 21
-2.8916015625
 31
0.0
 11
9.725509643552001
 21
-2.007385253906001
 31
0.0
 11
9.879104614254998
 21
-1.10888671875
 31
0.0
 11
9.963104248044004
 21
-0.2962036132810013
 31
0.0
 11
10.01480102538799
 21
0.1243896484379974
 31
0.0
  0
SPLINE
  5
205D
330
203B
100
AcDbEntity
  8
AM_0
 48
0.5
100
AcDbSpline
210
0.0
220
0.0
230
1.0
 70
     8
 71
     3
 72
    11
 73
     7
 74
     5
 42
0.0000000001
 43
0.0000000001
 44
0.0000000001
 40
0.0
 40
0.0
 40
0.0
 40
0.0
 40
1.897406903263224
 40
3.793962331624284
 40
5.689727798565041
 40
7.584747732872589
 40
7.584747732872589
 40
7.584747732872589
 40
7.584747732872589
 10
1.62890625
 20
2.76220703125
 30
0.0
 10
1.311573281637381
 20
3.309305548309806
 30
0.0
 10
0.6770497503486001
 20
4.40325706806163
 30
0.0
 10
-0.275154350279624
 20
6.043472854439622
 30
0.0
 10
-1.227583019246241
 20
7.682638086070715
 30
0.0
 10
-1.862767881327814
 20
8.774980920186603
 30
0.0
 10
-2.180297851559998
 20
9.321044921875
 30
0.0
 11
1.62890625
 21
2.76220703125
 31
0.0
 11
0.6768035888700013
 21
4.403442382812997
 31
0.0
 11
-0.275390625
 21
6.043640136718998
 31
0.0
 11
-1.227798461909998
 21
7.682800292968998
 31
0.0
 11
-2.180297851559998
 21
9.321044921875
 31
0.0
  0
SPLINE
  5
205E
330
203B
100
AcDbEntity
  8
AM_0
 48
0.5
100
AcDbSpline
210
0.0
220
0.0
230
1.0
 70
     8
 71
     3
 72
    11
 73
     7
 74
     5
 42
0.0000000001
 43
0.0000000001
 44
0.0000000001
 40
0.0
 40
0.0
 40
0.0
 40
0.0
 40
1.209353885432136
 40
2.418597980134818
 40
3.627904268355148
 40
4.837166916682084
 40
4.837166916682084
 40
4.837166916682084
 40
4.837166916682084
 10
-3.41929626465
 20
3.392639160156001
 30
0.0
 10
-3.768794542292902
 20
3.593524811674458
 30
0.0
 10
-4.467759368511384
 20
3.995277877384414
 30
0.0
 10
-5.516194310521921
 20
4.597933755565093
 30
0.0
 10
-6.564682318103663
 20
5.200436269790241
 30
0.0
 10
-7.263691441774444
 20
5.602092826030724
 30
0.0
 10
-7.613189697259997
 20
5.802917480468998
 30
0.0
 11
-3.41929626465
 21
3.392639160156001
 31
0.0
 11
-4.46778869629
 21
3.995300292968998
 31
0.0
 11
-5.516189575189997
 21
4.597900390625
 31
0.0
 11
-6.564697265619997
 21
5.200439453125
 31
0.0
 11
-7.613189697259997
 21
5.802917480468998
 31
0.0
  0
SPLINE
  5
205F
330
203B
100
AcDbEntity
  8
AM_0
 48
0.5
100
AcDbSpline
210
0.0
220
0.0
230
1.0
 70
     8
 71
     3
 72
    11
 73
     7
 74
     5
 42
0.0000000001
 43
0.0000000001
 44
0.0000000001
 40
0.0
 40
0.0
 40
0.0
 40
0.0
 40
1.897295870117667
 40
3.79386382144779
 40
5.689613311413264
 40
7.58471069397777
 40
7.58471069397777
 40
7.58471069397777
 40
7.58471069397777
 10
-3.206588745120001
 20
0.029541015625
 30
0.0
 10
-3.52166214935524
 20
-0.5188192107814161
 30
0.0
 10
-4.151688076389138
 20
-1.615329279058325
 30
0.0
 10
-5.095894523441232
 20
-3.260117953782104
 30
0.0
 10
-6.03951242024059
 20
-4.904399498065776
 30
0.0
 10
-6.667941134796594
 20
-6.000666729680508
 30
0.0
 10
-6.98210144043
 20
-6.548706054687002
 30
0.0
 11
-3.206588745120001
 21
0.029541015625
 31
0.0
 11
-4.15170288086
 21
-1.615600585937002
 31
0.0
 11
-5.095993041989999
 21
-3.260375976562002
 31
0.0
 11
-6.039489746089998
 21
-4.904663085937002
 31
0.0
 11
-6.98210144043
 21
-6.548706054687002
 31
0.0
  0
SPLINE
  5
2060
330
203B
100
AcDbEntity
  8
AM_0
 48
0.5
100
AcDbSpline
210
0.0
220
0.0
230
1.0
 70
     8
 71
     3
 72
    11
 73
     7
 74
     5
 42
0.0000000001
 43
0.0000000001
 44
0.0000000001
 40
0.0
 40
0.0
 40
0.0
 40
0.0
 40
1.209414024071737
 40
2.418705740870294
 40
3.627997694871599
 40
4.837228768355085
 40
4.837228768355085
 40
4.837228768355085
 40
4.837228768355085
 10
-1.228500366209999
 20
-4.657470703125
 30
0.0
 10
-1.227683405770689
 20
-5.060607884290612
 30
0.0
 10
-1.226049567510759
 20
-5.866841477614396
 30
0.0
 10
-1.223838778863056
 20
-7.076172027691844
 30
0.0
 10
-1.221399386519997
 20
-8.28544115260243
 30
0.0
 10
-1.219734840133011
 20
-9.091613776292369
 30
0.0
 10
-1.218902587889999
 20
-9.494689941406001
 30
0.0
 11
-1.228500366209999
 21
-4.657470703125
 31
0.0
 11
-1.22608947754
 21
-5.866882324218998
 31
0.0
 11
-1.22380065918
 21
-7.076171875
 31
0.0
 11
-1.22138977051
 21
-8.285461425781001
 31
0.0
 11
-1.218902587889999
 21
-9.494689941406001
 31
0.0
  0
SPLINE
  5
2061
330
203B
100
AcDbEntity
  8
AM_0
 48
0.5
100
AcDbSpline
210
0.0
220
0.0
230
1.0
 70
     8
 71
     3
 72
    11
 73
     7
 74
     5
 42
0.0000000001
 43
0.0000000001
 44
0.0000000001
 40
0.0
 40
0.0
 40
0.0
 40
0.0
 40
1.897297112015503
 40
3.79390922988995
 40
5.689713727907147
 40
7.584620437667647
 40
7.584620437667647
 40
7.584620437667647
 40
7.584620437667647
 10
1.57780456543
 20
-2.791809082031001
 30
0.0
 10
2.210235731985194
 20
-2.790567433634287
 30
0.0
 10
3.474869734149959
 20
-2.788084585121665
 30
0.0
 10
5.371434914125432
 20
-2.78327384864516
 30
0.0
 10
7.267203186024524
 20
-2.778411134844978
 30
0.0
 10
8.530767010399591
 20
-2.774321943475659
 30
0.0
 10
9.162399291989999
 20
-2.772277832031001
 30
0.0
 11
1.57780456543
 21
-2.791809082031001
 31
0.0
 11
3.47509765625
 21
-2.787902832031001
 31
0.0
 11
5.371704101559998
 21
-2.783264160156001
 31
0.0
 11
7.267501831060002
 21
-2.778198242187002
 31
0.0
 11
9.162399291989999
 21
-2.772277832031001
 31
0.0
  0
SPLINE
  5
2062
330
203B
100
AcDbEntity
  8
AM_0
 48
0.5
100
AcDbSpline
210
0.0
220
0.0
230
1.0
 70
     8
 71
     3
 72
    11
 73
     7
 74
     5
 42
0.0000000001
 43
0.0000000001
 44
0.0000000001
 40
0.0
 40
0.0
 40
0.0
 40
0.0
 40
1.209306634299705
 40
2.418600068990233
 40
3.627954749639176
 40
4.837168987700997
 40
4.837168987700997
 40
4.837168987700997
 40
4.837168987700997
 10
4.64779663086
 20
1.264831542968998
 30
0.0
 10
4.996499554391116
 20
1.467063251335097
 30
0.0
 10
5.693901595353074
 20
1.871524460703637
 30
0.0
 10
6.74004015380715
 20
2.478191381222908
 30
0.0
 10
7.786050066887666
 20
3.085018712122716
 30
0.0
 10
8.483435216957856
 20
3.489488350205387
 30
0.0
 10
8.832107543950002
 20
3.691711425781001
 30
0.0
 11
4.64779663086
 21
1.264831542968998
 31
0.0
 11
5.693908691410001
 21
1.871520996093998
 31
0.0
 11
6.740005493170002
 21
2.478210449218998
 31
0.0
 11
7.786102294919999
 21
3.085021972656001
 31
0.0
 11
8.832107543950002
 21
3.691711425781001
 31
0.0
  0
SPLINE
  5
2063
330
203B
100
AcDbEntity
  8
AM_0
 48
0.5
100
AcDbSpline
210
0.0
220
0.0
230
1.0
 70
     8
 71
     3
 72
    11
 73
     7
 74
     5
 42
0.0000000001
 43
0.0000000001
 44
0.0000000001
 40
0.0
 40
0.0
 40
0.0
 40
0.0
 40
0.0743445346967543
 40
0.1595251471495849
 40
0.2562108503188919
 40
0.3645670354607132
 40
0.3645670354607132
 40
0.3645670354607132
 40
0.3645670354607132
 10
1.59671020508
 20
-4.469177246093998
 30
0.0
 10
1.57424692463491
 20
-4.458668664981096
 30
0.0
 10
1.526046231294342
 20
-4.436119825914352
 30
0.0
 10
1.444847394190011
 20
-4.409165084170284
 30
0.0
 10
1.351484552564322
 20
-4.383697330100346
 30
0.0
 10
1.284498891726081
 20
-4.370020571727239
 30
0.0
 10
1.249099731450002
 20
-4.36279296875
 30
0.0
 11
1.59671020508
 21
-4.469177246093998
 31
0.0
 11
1.52880859375
 21
-4.438903808593998
 31
0.0
 11
1.448303222660001
 21
-4.411071777343998
 31
0.0
 11
1.35501098633
 21
-4.385681152343998
 31
0.0
 11
1.249099731450002
 21
-4.36279296875
 31
0.0
  0
SPLINE
  5
2064
330
203B
100
AcDbEntity
  8
AM_0
 48
0.5
100
AcDbSpline
210
0.0
220
0.0
230
1.0
 70
     8
 71
     3
 72
    11
 73
     7
 74
     5
 42
0.0000000001
 43
0.0000000001
 44
0.0000000001
 40
0.0
 40
0.0
 40
0.0
 40
0.0
 40
0.0207665392150799
 40
0.0352318792947638
 40
0.0438410957874552
 40
0.0488697407859537
 40
0.0488697407859537
 40
0.0488697407859537
 40
0.0488697407859537
 10
-1.833602905269998
 20
-10.13708496093699
 30
0.0
 10
-1.832165533933288
 20
-10.1439695702431
 30
0.0
 10
-1.829726933408077
 20
-10.15564978915451
 30
0.0
 10
-1.824921631888903
 20
-10.16856814067583
 30
0.0
 10
-1.820659197925592
 20
-10.17872316768898
 30
0.0
 10
-1.815790558979102
 20
-10.17853586163611
 30
0.0
 10
-1.81399536133
 20
-10.178466796875
 30
0.0
 11
-1.833602905269998
 21
-10.13708496093699
 31
0.0
 11
-1.82879638672
 21
-10.157287597656
 31
0.0
 11
-1.82389831543
 21
-10.1708984375
 31
0.0
 11
-1.819000244139999
 21
-10.177978515625
 31
0.0
 11
-1.81399536133
 21
-10.178466796875
 31
0.0
  0
SPLINE
  5
2065
330
203B
100
AcDbEntity
  8
AM_0
 48
0.5
100
AcDbSpline
210
0.0
220
0.0
230
1.0
 70
     8
 71
     3
 72
    11
 73
     7
 74
     5
 42
0.0000000001
 43
0.0000000001
 44
0.0000000001
 40
0.0
 40
0.0
 40
0.0
 40
0.0
 40
0.450102743053512
 40
0.8848020556803696
 40
1.304045750868741
 40
1.707992761654969
 40
1.707992761654969
 40
1.707992761654969
 40
1.707992761654969
 10
0.6380004882799995
 20
-10.862854003906
 30
0.0
 10
0.7874324170618447
 20
-10.84940516560145
 30
0.0
 10
1.081182410393345
 20
-10.82296773556569
 30
0.0
 10
1.513553307867926
 20
-10.77810706908582
 30
0.0
 10
1.930181196146717
 20
-10.7307418746101
 30
0.0
 10
2.202279238300634
 20
-10.69526517685641
 30
0.0
 10
2.3358001709
 20
-10.67785644531199
 30
0.0
 11
0.6380004882799995
 21
-10.862854003906
 31
0.0
 11
1.086196899420002
 21
-10.82147216796899
 31
0.0
 11
1.518600463870001
 21
-10.77685546874999
 31
0.0
 11
1.935104370120001
 21
-10.72900390625
 31
0.0
 11
2.3358001709
 21
-10.67785644531199
 31
0.0
  0
SPLINE
  5
2066
330
203B
100
AcDbEntity
  8
AM_0
 48
0.5
100
AcDbSpline
210
0.0
220
0.0
230
1.0
 70
     8
 71
     3
 72
    11
 73
     7
 74
     5
 42
0.0000000001
 43
0.0000000001
 44
0.0000000001
 40
0.0
 40
0.0
 40
0.0
 40
0.0
 40
0.0564756312839163
 40
0.1130080259449667
 40
0.1695098692897474
 40
0.2259742857889437
 40
0.2259742857889437
 40
0.2259742857889437
 40
0.2259742857889437
 10
-1.81399536133
 20
-10.178466796875
 30
0.0
 10
-1.801997675645196
 20
-10.19297348100332
 30
0.0
 10
-1.777990245461161
 20
-10.22200142985631
 30
0.0
 10
-1.741964988577985
 20
-10.26553086813081
 30
0.0
 10
-1.706125799345976
 20
-10.30920880512318
 30
0.0
 10
-1.682170309684653
 20
-10.33826161228573
 30
0.0
 10
-1.670196533199998
 20
-10.352783203125
 30
0.0
 11
-1.81399536133
 21
-10.178466796875
 31
0.0
 11
-1.77799987793
 21
-10.221984863281
 31
0.0
 11
-1.741989135739999
 21
-10.265563964844
 31
0.0
 11
-1.706100463870001
 21
-10.30920410156199
 31
0.0
 11
-1.670196533199998
 21
-10.352783203125
 31
0.0
  0
SPLINE
  5
2067
330
203B
100
AcDbEntity
  8
AM_0
 48
0.5
100
AcDbSpline
210
0.0
220
0.0
230
1.0
 70
     8
 71
     3
 72
    11
 73
     7
 74
     5
 42
0.0000000001
 43
0.0000000001
 44
0.0000000001
 40
0.0
 40
0.0
 40
0.0
 40
0.0
 40
0.0271221616909622
 40
0.0469538214642454
 40
0.0600518010349596
 40
0.0690225675714412
 40
0.0690225675714412
 40
0.0690225675714412
 40
0.0690225675714412
 10
-1.053695678709999
 20
-4.834106445312002
 30
0.0
 10
-1.055885343877434
 20
-4.825258006301353
 30
0.0
 10
-1.059676086979319
 20
-4.809939609844709
 30
0.0
 10
-1.067302132885746
 20
-4.791966674978263
 30
0.0
 10
-1.075205802941418
 20
-4.778877501941535
 30
0.0
 10
-1.082803372958225
 20
-4.777873812101944
 30
0.0
 10
-1.085891723629998
 20
-4.777465820312002
 30
0.0
 11
-1.053695678709999
 21
-4.834106445312002
 31
0.0
 11
-1.060989379879998
 21
-4.807983398437002
 31
0.0
 11
-1.068893432620001
 21
-4.789794921875
 31
0.0
 11
-1.077194213870001
 21
-4.779663085937002
 31
0.0
 11
-1.085891723629998
 21
-4.777465820312002
 31
0.0
  0
SPLINE
  5
2068
330
203B
100
AcDbEntity
  8
AM_0
 48
0.5
100
AcDbSpline
210
0.0
220
0.0
230
1.0
 70
     8
 71
     3
 72
    11
 73
     7
 74
     5
 42
0.0000000001
 43
0.0000000001
 44
0.0000000001
 40
0.0
 40
0.0
 40
0.0
 40
0.0
 40
0.0506985798372279
 40
0.1936616915831147
 40
0.4127855211574638
 40
0.6804270131843779
 40
0.6804270131843779
 40
0.6804270131843779
 40
0.6804270131843779
 10
1.255310058600002
 20
-4.318359375
 30
0.0
 10
1.262259482182381
 20
-4.333792909249956
 30
0.0
 10
1.288805336737124
 20
-4.392746914658958
 30
0.0
 10
1.315815937786571
 20
-4.528677409688881
 30
0.0
 10
1.36337011989873
 20
-4.732680972362286
 30
0.0
 10
1.391716805334081
 20
-4.892560887405219
 30
0.0
 10
1.407302856450002
 20
-4.98046875
 30
0.0
 11
1.255310058600002
 21
-4.318359375
 31
0.0
 11
1.275207519529999
 21
-4.364990234375
 31
0.0
 11
1.311401367190001
 21
-4.503295898437002
 31
0.0
 11
1.358001708990002
 21
-4.717407226562002
 31
0.0
 11
1.407302856450002
 21
-4.98046875
 31
0.0
  0
SPLINE
  5
2069
330
203B
100
AcDbEntity
  8
AM_0
 48
0.5
100
AcDbSpline
210
0.0
220
0.0
230
1.0
 70
     8
 71
     3
 72
    11
 73
     7
 74
     5
 42
0.0000000001
 43
0.0000000001
 44
0.0000000001
 40
0.0
 40
0.0
 40
0.0
 40
0.0
 40
0.0427487359766423
 40
0.0854974719476617
 40
0.1281780806559279
 40
0.1709365620139545
 40
0.1709365620139545
 40
0.1709365620139545
 40
0.1709365620139545
 10
-1.22789001465
 20
-4.944458007812002
 30
0.0
 10
-1.218792632065821
 20
-4.933490416398056
 30
0.0
 10
-1.20059786689866
 20
-4.911555233571605
 30
0.0
 10
-1.173285280593939
 20
-4.878698872788518
 30
0.0
 10
-1.146110264035645
 20
-4.845724358279913
 30
0.0
 10
-1.127902068474368
 20
-4.823825579862728
 30
0.0
 10
-1.118789672849999
 20
-4.812866210937002
 30
0.0
 11
-1.22789001465
 21
-4.944458007812002
 31
0.0
 11
-1.200592041009997
 21
-4.911560058593998
 31
0.0
 11
-1.173294067379998
 21
-4.878662109375
 31
0.0
 11
-1.146102905269998
 21
-4.845764160156001
 31
0.0
 11
-1.118789672849999
 21
-4.812866210937002
 31
0.0
  0
SPLINE
  5
206A
330
203B
100
AcDbEntity
  8
AM_0
 48
0.5
100
AcDbSpline
210
0.0
220
0.0
230
1.0
 70
     8
 71
     3
 72
    11
 73
     7
 74
     5
 42
0.0000000001
 43
0.0000000001
 44
0.0000000001
 40
0.0
 40
0.0
 40
0.0
 40
0.0
 40
0.0207665392141087
 40
0.0352318792937926
 40
0.0438913597201242
 40
0.0489048182509238
 40
0.0489048182509238
 40
0.0489048182509238
 40
0.0489048182509238
 10
-1.242996215819999
 20
-5.027709960937002
 30
0.0
 10
-1.2444300088359
 20
-5.020822855488405
 30
0.0
 10
-1.246862538490826
 20
-5.009138401697291
 30
0.0
 10
-1.251704279774899
 20
-4.996226815539682
 30
0.0
 10
-1.255915539901538
 20
-4.986013818670079
 30
0.0
 10
-1.260798181909516
 20
-4.986199138569372
 30
0.0
 10
-1.262588500969997
 20
-4.986267089843998
 30
0.0
 11
-1.242996215819999
 21
-5.027709960937002
 31
0.0
 11
-1.247802734369997
 21
-5.007507324218998
 31
0.0
 11
-1.252700805659998
 21
-4.993896484375
 31
0.0
 11
-1.257598876949998
 21
-4.986755371093998
 31
0.0
 11
-1.262588500969997
 21
-4.986267089843998
 31
0.0
  0
SPLINE
  5
206B
330
203B
100
AcDbEntity
  8
AM_0
 48
0.5
100
AcDbSpline
210
0.0
220
0.0
230
1.0
 70
     8
 71
     3
 72
    11
 73
     7
 74
     5
 42
0.0000000001
 43
0.0000000001
 44
0.0000000001
 40
0.0
 40
0.0
 40
0.0
 40
0.0
 40
0.0285872018333516
 40
0.0632298553913211
 40
0.1040161418741663
 40
0.150975515786166
 40
0.150975515786166
 40
0.150975515786166
 40
0.150975515786166
 10
-1.242996215819999
 20
-5.027709960937002
 30
0.0
 10
-1.241356454361922
 20
-5.037098205686524
 30
0.0
 10
-1.237729590827852
 20
-5.057863349520853
 30
0.0
 10
-1.233530351083317
 20
-5.092292672843745
 30
0.0
 10
-1.229540187108306
 20
-5.132894447513108
 30
0.0
 10
-1.227362001682263
 20
-5.162063019419436
 30
0.0
 10
-1.226196289059998
 20
-5.177673339843998
 30
0.0
 11
-1.242996215819999
 21
-5.027709960937002
 31
0.0
 11
-1.23829650879
 21
-5.055908203125
 31
0.0
 11
-1.23390197754
 21
-5.090270996093998
 31
0.0
 11
-1.229888916009997
 21
-5.130859375
 31
0.0
 11
-1.226196289059998
 21
-5.177673339843998
 31
0.0
  0
SPLINE
  5
206C
330
203B
100
AcDbEntity
  8
AM_0
 48
0.5
100
AcDbSpline
210
0.0
220
0.0
230
1.0
 70
     8
 71
     3
 72
    11
 73
     7
 74
     5
 42
0.0000000001
 43
0.0000000001
 44
0.0000000001
 40
0.0
 40
0.0
 40
0.0
 40
0.0
 40
0.0676609480618473
 40
0.1262179084592269
 40
0.1756443861078698
 40
0.216141246776094
 40
0.216141246776094
 40
0.216141246776094
 40
0.216141246776094
 10
-1.029602050779999
 20
-5.048706054687002
 30
0.0
 10
-1.030987533956558
 20
-5.026192229653654
 30
0.0
 10
-1.033572079307458
 20
-4.984193883657547
 30
0.0
 10
-1.039282259020099
 20
-4.925926338886435
 30
0.0
 10
-1.045118554058888
 20
-4.876741018779192
 30
0.0
 10
-1.051032390165487
 20
-4.847344934401774
 30
0.0
 10
-1.053695678709999
 20
-4.834106445312002
 30
0.0
 11
-1.029602050779999
 21
-5.048706054687002
 31
0.0
 11
-1.03419494629
 21
-4.981201171875
 31
0.0
 11
-1.039794921869997
 21
-4.922912597656001
 31
0.0
 11
-1.046188354489999
 21
-4.873901367187002
 31
0.0
 11
-1.053695678709999
 21
-4.834106445312002
 31
0.0
  0
SPLINE
  5
206D
330
203B
100
AcDbEntity
  8
AM_0
 48
0.5
100
AcDbSpline
210
0.0
220
0.0
230
1.0
 70
     8
 71
     3
 72
    11
 73
     7
 74
     5
 42
0.0000000001
 43
0.0000000001
 44
0.0000000001
 40
0.0
 40
0.0
 40
0.0
 40
0.0
 40
0.0348593573397516
 40
0.0715349638668873
 40
0.1099640961309102
 40
0.1502181611923127
 40
0.1502181611923127
 40
0.1502181611923127
 40
0.1502181611923127
 10
-1.226196289059998
 20
-5.177673339843998
 30
0.0
 10
-1.225445013701882
 20
-5.18926885079959
 30
0.0
 10
-1.223903319887131
 20
-5.213064024334834
 30
0.0
 10
-1.221899553130928
 20
-5.249664844838903
 30
0.0
 10
-1.220239451114297
 20
-5.288082367217526
 30
0.0
 10
-1.219213723642327
 20
-5.314290010014907
 30
0.0
 10
-1.218688964839998
 20
-5.327697753906001
 30
0.0
 11
-1.226196289059998
 21
-5.177673339843998
 31
0.0
 11
-1.223999023440001
 21
-5.212463378906001
 31
0.0
 11
-1.222000122069999
 21
-5.249084472656001
 31
0.0
 11
-1.220291137689997
 21
-5.287475585937002
 31
0.0
 11
-1.218688964839998
 21
-5.327697753906001
 31
0.0
  0
SPLINE
  5
206E
330
203B
100
AcDbEntity
  8
AM_0
 48
0.5
100
AcDbSpline
210
0.0
220
0.0
230
1.0
 70
     8
 71
     3
 72
    11
 73
     7
 74
     5
 42
0.0000000001
 43
0.0000000001
 44
0.0000000001
 40
0.0
 40
0.0
 40
0.0
 40
0.0
 40
0.0560302734370026
 40
0.1093201016524651
 40
0.1601203321847901
 40
0.2082668992831095
 40
0.2082668992831095
 40
0.2082668992831095
 40
0.2082668992831095
 10
-1.025192260739999
 20
-5.256896972656001
 30
0.0
 10
-1.025124777216211
 20
-5.238219740851475
 30
0.0
 10
-1.024993110793261
 20
-5.201778782165931
 30
0.0
 10
-1.025929067851439
 20
-5.148411912099188
 30
0.0
 10
-1.027138993557511
 20
-5.097677415940512
 30
0.0
 10
-1.028795843443264
 20
-5.064735349651005
 30
0.0
 10
-1.029602050779999
 20
-5.048706054687002
 30
0.0
 11
-1.025192260739999
 21
-5.256896972656001
 31
0.0
 11
-1.025192260739999
 21
-5.200866699218998
 31
0.0
 11
-1.026000976559998
 21
-5.147583007812002
 31
0.0
 11
-1.027389526370001
 21
-5.096801757812002
 31
0.0
 11
-1.029602050779999
 21
-5.048706054687002
 31
0.0
  0
SPLINE
  5
206F
330
203B
100
AcDbEntity
  8
AM_0
 48
0.5
100
AcDbSpline
210
0.0
220
0.0
230
1.0
 70
     8
 71
     3
 72
    11
 73
     7
 74
     5
 42
0.0000000001
 43
0.0000000001
 44
0.0000000001
 40
0.0
 40
0.0
 40
0.0
 40
0.0
 40
0.0415851723031649
 40
0.0841408599220974
 40
0.1275441092355125
 40
0.1719195248251127
 40
0.1719195248251127
 40
0.1719195248251127
 40
0.1719195248251127
 10
-1.218688964839998
 20
-5.327697753906001
 30
0.0
 10
-1.218242553344475
 20
-5.341552308500402
 30
0.0
 10
-1.217339311995885
 20
-5.369584755472416
 30
0.0
 10
-1.216232254800858
 20
-5.412085397798525
 30
0.0
 10
-1.215433331364983
 20
-5.455523413850252
 30
0.0
 10
-1.215143073934698
 20
-5.484781627032466
 30
0.0
 10
-1.214996337889999
 20
-5.499572753906001
 30
0.0
 11
-1.218688964839998
 21
-5.327697753906001
 31
0.0
 11
-1.217391967769998
 21
-5.369262695312002
 31
0.0
 11
-1.216293334959999
 21
-5.411804199218998
 31
0.0
 11
-1.21549987793
 21
-5.455200195312002
 31
0.0
 11
-1.214996337889999
 21
-5.499572753906001
 31
0.0
  0
SPLINE
  5
2070
330
203B
100
AcDbEntity
  8
AM_0
 48
0.5
100
AcDbSpline
210
0.0
220
0.0
230
1.0
 70
     8
 71
     3
 72
    11
 73
     7
 74
     5
 42
0.0000000001
 43
0.0000000001
 44
0.0000000001
 40
0.0
 40
0.0
 40
0.0
 40
0.0
 40
0.0517158338066044
 40
0.1025089666656405
 40
0.1524406581586193
 40
0.2013314279856298
 40
0.2013314279856298
 40
0.2013314279856298
 40
0.2013314279856298
 10
-1.028793334959999
 20
-5.458190917968998
 30
0.0
 10
-1.028307312229024
 20
-5.440959137164469
 30
0.0
 10
-1.027343938262849
 20
-5.4068030206705
 30
0.0
 10
-1.026228332900173
 20
-5.35600121792572
 30
0.0
 10
-1.025535657218284
 20
-5.306133603889223
 30
0.0
 10
-1.025305919604874
 20
-5.273193527717376
 30
0.0
 10
-1.025192260739999
 20
-5.256896972656001
 30
0.0
 11
-1.028793334959999
 21
-5.458190917968998
 31
0.0
 11
-1.027389526370001
 21
-5.406494140625
 31
0.0
 11
-1.026290893549997
 21
-5.355712890625
 31
0.0
 11
-1.02558898926
 21
-5.305786132812002
 31
0.0
 11
-1.025192260739999
 21
-5.256896972656001
 31
0.0
  0
ELLIPSE
  5
2071
330
203B
100
AcDbEntity
  8
AM_0
 48
0.5
100
AcDbEllipse
 10
-1.223999023440001
 20
-9.6220703125
 30
0.0
 11
0.0007782090799964
 21
0.228576661623002
 31
0.0
210
0.0
220
0.0
230
0.9999999999999998
 40
0.0783044078894
 41
3.141591537141702
 42
3.759046008083711
  0
SPLINE
  5
2072
330
203B
100
AcDbEntity
  8
AM_0
 48
0.5
100
AcDbSpline
210
0.0
220
0.0
230
1.0
 70
     8
 71
     3
 72
    11
 73
     7
 74
     5
 42
0.0000000001
 43
0.0000000001
 44
0.0000000001
 40
0.0
 40
0.0
 40
0.0
 40
0.0
 40
0.0096319708492112
 40
0.0221938100646923
 40
0.0392334508698428
 40
0.0612874427520894
 40
0.0612874427520894
 40
0.0612874427520894
 40
0.0612874427520894
 10
-1.046997070309998
 20
-10.05780029296899
 30
0.0
 10
-1.043896680736892
 20
-10.05673988014708
 30
0.0
 10
-1.036752820109688
 20
-10.05429649642759
 30
0.0
 10
-1.02878731846957
 20
-10.04317256128179
 30
0.0
 10
-1.021229468978405
 20
-10.02785214116359
 30
0.0
 10
-1.017246379944413
 20
-10.0153913529908
 30
0.0
 10
-1.01499938965
 20
-10.008361816406
 30
0.0
 11
-1.046997070309998
 21
-10.05780029296899
 31
0.0
 11
-1.038192749019998
 21
-10.05389404296899
 31
0.0
 11
-1.029998779300001
 21
-10.04437255859399
 31
0.0
 11
-1.022293090819999
 21
-10.02917480468699
 31
0.0
 11
-1.01499938965
 21
-10.008361816406
 31
0.0
  0
SPLINE
  5
2073
330
203B
100
AcDbEntity
  8
AM_0
 48
0.5
100
AcDbSpline
210
0.0
220
0.0
230
1.0
 70
     8
 71
     3
 72
    11
 73
     7
 74
     5
 42
0.0000000001
 43
0.0000000001
 44
0.0000000001
 40
0.0
 40
0.0
 40
0.0
 40
0.0
 40
0.1154392742330558
 40
0.2243254840698086
 40
0.3157295088538977
 40
0.3806136765899314
 40
0.3806136765899314
 40
0.3806136765899314
 40
0.3806136765899314
 10
2.312805175779999
 20
-10.263061523437
 30
0.0
 10
2.318688517801772
 20
-10.30109542675532
 30
0.0
 10
2.330121226087151
 20
-10.37500418813339
 30
0.0
 10
2.342180803823441
 20
-10.47953319682912
 30
0.0
 10
2.3498539130775
 20
-10.56773496685669
 30
0.0
 10
2.348473485197572
 20
-10.619845450096
 30
0.0
 10
2.347900390630002
 20
-10.641479492187
 30
0.0
 11
2.312805175779999
 21
-10.263061523437
 31
0.0
 11
2.329696655280002
 21
-10.377258300781
 31
0.0
 11
2.34230041504
 21
-10.485412597656
 31
0.0
 11
2.348602294919999
 21
-10.57659912109399
 31
0.0
 11
2.347900390630002
 21
-10.641479492187
 31
0.0
  0
SPLINE
  5
2074
330
203B
100
AcDbEntity
  8
AM_0
 48
0.5
100
AcDbSpline
210
0.0
220
0.0
230
1.0
 70
     8
 71
     3
 72
    11
 73
     7
 74
     5
 42
0.0000000001
 43
0.0000000001
 44
0.0000000001
 40
0.0
 40
0.0
 40
0.0
 40
0.0
 40
1.054667546052376
 40
2.109230454498926
 40
3.163827574090866
 40
4.218506321885651
 40
4.218506321885651
 40
4.218506321885651
 40
4.218506321885651
 10
1.407302856450002
 20
-4.98046875
 30
0.0
 10
1.467716015864168
 20
-5.326794859377169
 30
0.0
 10
1.588536340871619
 20
-6.019412717792031
 30
0.0
 10
1.768968409651519
 20
-7.058472365026174
 30
0.0
 10
1.949036180330914
 20
-8.097598996561842
 30
0.0
 10
2.068551289866663
 20
-8.790458631361985
 30
0.0
 10
2.128311157230001
 20
-9.136901855468998
 30
0.0
 11
1.407302856450002
 21
-4.98046875
 31
0.0
 11
1.58840942383
 21
-6.019470214843998
 31
0.0
 11
1.76890563965
 21
-7.058471679687002
 31
0.0
 11
1.94889831543
 21
-8.097595214843998
 31
0.0
 11
2.128311157230001
 21
-9.136901855468998
 31
0.0
  0
ELLIPSE
  5
2075
330
203B
100
AcDbEntity
  8
AM_0
 48
0.5
100
AcDbEllipse
 10
-1.222900390619997
 20
-9.643798828125
 30
0.0
 11
0.0006866491600022
 21
0.2028198241830025
 31
0.0
210
0.0
220
0.0
230
1.0
 40
0.0783931476886
 41
3.7585094126352
 42
4.304821971516189
  0
SPLINE
  5
2076
330
203B
100
AcDbEntity
  8
AM_0
 48
0.5
100
AcDbSpline
210
0.0
220
0.0
230
1.0
 70
     8
 71
     3
 72
    11
 73
     7
 74
     5
 42
0.0000000001
 43
0.0000000001
 44
0.0000000001
 40
0.0
 40
0.0
 40
0.0
 40
0.0
 40
0.0351733060370321
 40
0.0784710281256635
 40
0.1285950237734901
 40
0.1842185675563561
 40
0.1842185675563561
 40
0.1842185675563561
 40
0.1842185675563561
 10
-1.01499938965
 20
-10.008361816406
 30
0.0
 10
-1.012307040978434
 20
-9.996943134145361
 30
0.0
 10
-1.006300458369788
 20
-9.971468254533832
 30
0.0
 10
-1.001104094123991
 20
-9.928850410346829
 30
0.0
 10
-0.99741200240462
 20
-9.879296135973786
 30
0.0
 10
-0.9968081216941339
 20
-9.844043491805415
 30
0.0
 10
-0.9964904785099975
 20
-9.825500488281001
 30
0.0
 11
-1.01499938965
 21
-10.008361816406
 31
0.0
 11
-1.00749206543
 21
-9.973999023436999
 31
0.0
 11
-1.001693725579997
 21
-9.931091308593998
 31
0.0
 11
-0.9980010986299987
 21
-9.881103515625
 31
0.0
 11
-0.9964904785099975
 21
-9.825500488281001
 31
0.0
  0
ELLIPSE
  5
2077
330
203B
100
AcDbEntity
  8
AM_0
 48
0.5
100
AcDbEllipse
 10
-1.22509765625
 20
-9.630859375
 30
0.0
 11
0.0007934672400012
 21
0.2340087849430006
 31
0.0
210
0.0
220
0.0
230
1.0
 40
0.0781820450182
 41
4.305474968948091
 42
4.50453183865187
  0
SPLINE
  5
2078
330
203B
100
AcDbEntity
  8
AM_0
 48
0.5
100
AcDbSpline
210
0.0
220
0.0
230
1.0
 70
     8
 71
     3
 72
    11
 73
     7
 74
     5
 42
0.0000000001
 43
0.0000000001
 44
0.0000000001
 40
0.0
 40
0.0
 40
0.0
 40
0.0
 40
0.0248421005762817
 40
0.0501180255840169
 40
0.0759592612723412
 40
0.1020641374512996
 40
0.1020641374512996
 40
0.1020641374512996
 40
0.1020641374512996
 10
-0.9964904785099975
 20
-9.825500488281001
 30
0.0
 10
-0.9965295890304474
 20
-9.817219729947503
 30
0.0
 10
-0.9966084930691176
 20
-9.80051360412135
 30
0.0
 10
-0.9972279521088223
 20
-9.775199634118116
 30
0.0
 10
-0.9983263750718856
 20
-9.749480881231292
 30
0.0
 10
-0.9993691532107767
 20
-9.732196695831815
 30
0.0
 10
-0.999893188469997
 20
-9.723510742186999
 30
0.0
 11
-0.9964904785099975
 21
-9.825500488281001
 31
0.0
 11
-0.9966888427699984
 21
-9.800659179686999
 31
0.0
 11
-0.9972991943299973
 21
-9.775390625
 31
0.0
 11
-0.9983978271500006
 21
-9.749572753906001
 31
0.0
 11
-0.999893188469997
 21
-9.723510742186999
 31
0.0
  0
ELLIPSE
  5
2079
330
203B
100
AcDbEntity
  8
AM_0
 48
0.5
100
AcDbEllipse
 10
-1.222793579099999
 20
-9.636962890625
 30
0.0
 11
0.0006866418799945
 21
0.2034912147610015
 31
0.0
210
0.0
220
0.0
230
1.0
 40
0.0786593863772
 41
4.503452518613825
 42
4.755417512511247
  0
SPLINE
  5
207A
330
203B
100
AcDbEntity
  8
AM_0
 48
0.5
100
AcDbSpline
210
0.0
220
0.0
230
1.0
 70
     8
 71
     3
 72
    11
 73
     7
 74
     5
 42
0.0000000001
 43
0.0000000001
 44
0.0000000001
 40
0.0
 40
0.0
 40
0.0
 40
0.0
 40
0.0743141580641149
 40
0.1595277409547288
 40
0.2561239037264398
 40
0.3645110007165984
 40
0.3645110007165984
 40
0.3645110007165984
 40
0.3645110007165984
 10
3.072097778319999
 20
3.617309570312997
 30
0.0
 10
3.074224675253965
 20
3.59261200110532
 30
0.0
 10
3.078790414434195
 20
3.539594547562016
 30
0.0
 10
3.095923753858854
 20
3.45579963983492
 30
0.0
 10
3.120707163021419
 20
3.362260800750862
 30
0.0
 10
3.142289755165987
 20
3.297412037597249
 30
0.0
 10
3.153701782230001
 20
3.263122558593998
 30
0.0
 11
3.072097778319999
 21
3.617309570312997
 31
0.0
 11
3.079803466800001
 21
3.543395996093998
 31
0.0
 11
3.09590148926
 21
3.459716796875
 31
0.0
 11
3.12060546875
 21
3.366333007812997
 31
0.0
 11
3.153701782230001
 21
3.263122558593998
 31
0.0
  0
SPLINE
  5
207B
330
203B
100
AcDbEntity
  8
AM_0
 48
0.5
100
AcDbSpline
210
0.0
220
0.0
230
1.0
 70
     8
 71
     3
 72
    11
 73
     7
 74
     5
 42
0.0000000001
 43
0.0000000001
 44
0.0000000001
 40
0.0
 40
0.0
 40
0.0
 40
0.0
 40
0.0207470383152668
 40
0.0351363352966289
 40
0.0437840848839925
 40
0.0488228133650913
 40
0.0488228133650913
 40
0.0488228133650913
 40
0.0488228133650913
 10
9.695800781247001
 20
3.480590820312997
 30
0.0
 10
9.701053199772356
 20
3.485260820849256
 30
0.0
 10
9.709948480902163
 20
3.493169742700366
 30
0.0
 10
9.718706166846438
 20
3.503780009931998
 30
0.0
 10
9.72539956397953
 20
3.51254217388877
 30
0.0
 10
9.722769884295969
 20
3.516669124238513
 30
0.0
 10
9.721801757809998
 20
3.518188476562997
 30
0.0
 11
9.695800781247001
 21
3.480590820312997
 31
0.0
 11
9.710906982419004
 21
3.494812011718998
 31
0.0
 11
9.720199584957995
 21
3.505798339843998
 31
0.0
 11
9.723907470699998
 21
3.513610839843998
 31
0.0
 11
9.721801757809998
 21
3.518188476562997
 31
0.0
  0
SPLINE
  5
207C
330
203B
100
AcDbEntity
  8
AM_0
 48
0.5
100
AcDbSpline
210
0.0
220
0.0
230
1.0
 70
     8
 71
     3
 72
    11
 73
     7
 74
     5
 42
0.0000000001
 43
0.0000000001
 44
0.0000000001
 40
0.0
 40
0.0
 40
0.0
 40
0.0
 40
0.450223065432305
 40
0.8848014112214411
 40
1.304170960966679
 40
1.70811740112756
 40
1.70811740112756
 40
1.70811740112756
 40
1.70811740112756
 10
9.088607788090001
 20
5.98388671875
 30
0.0
 10
9.002221040013539
 20
6.106606462358062
 30
0.0
 10
8.832449381301447
 20
6.347781583461387
 30
0.0
 10
8.577374862905987
 20
6.699819442933414
 30
0.0
 10
8.327975577544012
 20
7.036899674459839
 30
0.0
 10
8.161221756238413
 20
7.254871914232772
 30
0.0
 10
8.079406738279999
 20
7.36181640625
 30
0.0
 11
9.088607788090001
 21
5.98388671875
 31
0.0
 11
8.828598022459999
 21
6.351440429687997
 31
0.0
 11
8.573806762700002
 21
6.703491210937997
 31
0.0
 11
8.324005126949998
 21
7.040344238281001
 31
0.0
 11
8.079406738279999
 21
7.36181640625
 31
0.0
  0
SPLINE
  5
207D
330
203B
100
AcDbEntity
  8
AM_0
 48
0.5
100
AcDbSpline
210
0.0
220
0.0
230
1.0
 70
     8
 71
     3
 72
    11
 73
     7
 74
     5
 42
0.0000000001
 43
0.0000000001
 44
0.0000000001
 40
0.0
 40
0.0
 40
0.0
 40
0.0
 40
0.0566168521448867
 40
0.1130820108641788
 40
0.1695220109992675
 40
0.2261388631441542
 40
0.2261388631441542
 40
0.2261388631441542
 40
0.2261388631441542
 10
9.721801757809998
 20
3.518188476562997
 30
0.0
 10
9.728411222627833
 20
3.535865530733182
 30
0.0
 10
9.741612443536833
 20
3.571172276975522
 30
0.0
 10
9.761268007381033
 20
3.624151025189812
 30
0.0
 10
9.781138713409568
 20
3.677049451950784
 30
0.0
 10
9.794308251083586
 20
3.712359075267029
 30
0.0
 10
9.800903320309998
 20
3.730041503906001
 30
0.0
 11
9.721801757809998
 21
3.518188476562997
 31
0.0
 11
9.741607666012995
 21
3.571228027343998
 31
0.0
 11
9.761306762692996
 21
3.624145507812997
 31
0.0
 11
9.781097412107001
 21
3.677001953125
 31
0.0
 11
9.800903320309998
 21
3.730041503906001
 31
0.0
  0
SPLINE
  5
207E
330
203B
100
AcDbEntity
  8
AM_0
 48
0.5
100
AcDbSpline
210
0.0
220
0.0
230
1.0
 70
     8
 71
     3
 72
    11
 73
     7
 74
     5
 42
0.0000000001
 43
0.0000000001
 44
0.0000000001
 40
0.0
 40
0.0
 40
0.0
 40
0.0
 40
0.0271825851812917
 40
0.046912293848058
 40
0.0600744301252281
 40
0.0690954592570566
 40
0.0690954592570566
 40
0.0690954592570566
 40
0.0690954592570566
 10
4.713302612310002
 20
1.504516601562997
 30
0.0
 10
4.706798353409906
 20
1.498112295594939
 30
0.0
 10
4.695573162621387
 20
1.487059605739922
 30
0.0
 10
4.683514227084673
 20
1.471691715430635
 30
0.0
 10
4.676214665386462
 20
1.458230923071709
 30
0.0
 10
4.679193348652884
 20
1.451129897819348
 30
0.0
 10
4.680404663090001
 20
1.4482421875
 30
0.0
 11
4.713302612310002
 21
1.504516601562997
 31
0.0
 11
4.694396972660001
 21
1.484985351562997
 31
0.0
 11
4.682510375980001
 21
1.46923828125
 31
0.0
 11
4.67790222168
 21
1.456909179687997
 31
0.0
 11
4.680404663090001
 21
1.4482421875
 31
0.0
  0
SPLINE
  5
207F
330
203B
100
AcDbEntity
  8
AM_0
 48
0.5
100
AcDbSpline
210
0.0
220
0.0
230
1.0
 70
     8
 71
     3
 72
    11
 73
     7
 74
     5
 42
0.0000000001
 43
0.0000000001
 44
0.0000000001
 40
0.0
 40
0.0
 40
0.0
 40
0.0
 40
0.0506195303852611
 40
0.1936164227649192
 40
0.412708261318134
 40
0.6803543570039016
 40
0.6803543570039016
 40
0.6803543570039016
 40
0.6803543570039016
 10
3.112197875980001
 20
3.246337890625
 30
0.0
 10
3.122082856484419
 20
3.260044605458443
 30
0.0
 10
3.159892266208293
 20
3.312471901281063
 30
0.0
 10
3.264056513055176
 20
3.403834673534092
 30
0.0
 10
3.416949378278534
 20
3.547031157306701
 30
0.0
 10
3.541252453854907
 20
3.651486001751783
 30
0.0
 10
3.609603881840001
 20
3.708923339843998
 30
0.0
 11
3.112197875980001
 21
3.246337890625
 31
0.0
 11
3.14260864258
 21
3.286804199218998
 31
0.0
 11
3.24430847168
 21
3.387329101562997
 31
0.0
 11
3.406402587889999
 21
3.534729003906001
 31
0.0
 11
3.609603881840001
 21
3.708923339843998
 31
0.0
  0
SPLINE
  5
2080
330
203B
100
AcDbEntity
  8
AM_0
 48
0.5
100
AcDbSpline
210
0.0
220
0.0
230
1.0
 70
     8
 71
     3
 72
    11
 73
     7
 74
     5
 42
0.0000000001
 43
0.0000000001
 44
0.0000000001
 40
0.0
 40
0.0
 40
0.0
 40
0.0
 40
0.0427256556766034
 40
0.0855265154803068
 40
0.1282167160507179
 40
0.1709273313756791
 40
0.1709273313756791
 40
0.1709273313756791
 40
0.1709273313756791
 10
4.89601135254
 20
1.408813476562997
 30
0.0
 10
4.881972921725801
 20
1.411212148640177
 30
0.0
 10
4.853871350168006
 20
1.416013714848873
 30
0.0
 10
4.811749212517551
 20
1.423248799674294
 30
0.0
 10
4.769594231485909
 20
1.430260050849256
 30
0.0
 10
4.741539342581701
 20
1.435086299050723
 30
0.0
 10
4.727508544919999
 20
1.4375
 30
0.0
 11
4.89601135254
 21
1.408813476562997
 31
0.0
 11
4.853897094730001
 21
1.416015625
 31
0.0
 11
4.81170654297
 21
1.423217773437997
 31
0.0
 11
4.769607543950002
 21
1.430297851562997
 31
0.0
 11
4.727508544919999
 21
1.4375
 31
0.0
  0
SPLINE
  5
2081
330
203B
100
AcDbEntity
  8
AM_0
 48
0.5
100
AcDbSpline
210
0.0
220
0.0
230
1.0
 70
     8
 71
     3
 72
    11
 73
     7
 74
     5
 42
0.0000000001
 43
0.0000000001
 44
0.0000000001
 40
0.0
 40
0.0
 40
0.0
 40
0.0
 40
0.0207359308188123
 40
0.0351350866346471
 40
0.0438315255405812
 40
0.0489194794621611
 40
0.0489194794621611
 40
0.0489194794621611
 40
0.0489194794621611
 10
4.97560119629
 20
1.437316894531001
 30
0.0
 10
4.970362593628
 20
1.432643527070815
 30
0.0
 10
4.961486273583236
 20
1.424724944971758
 30
0.0
 10
4.952650973257656
 20
1.414126173799912
 30
0.0
 10
4.946031019918669
 20
1.405308734202021
 30
0.0
 10
4.948637969278671
 20
1.401136996915553
 30
0.0
 10
4.949600219730001
 20
1.399597167968998
 30
0.0
 11
4.97560119629
 21
1.437316894531001
 31
0.0
 11
4.960510253910001
 21
1.423095703125
 31
0.0
 11
4.95120239258
 21
1.412109375
 31
0.0
 11
4.947509765630002
 21
1.404235839843998
 31
0.0
 11
4.949600219730001
 21
1.399597167968998
 31
0.0
  0
SPLINE
  5
2082
330
203B
100
AcDbEntity
  8
AM_0
 48
0.5
100
AcDbSpline
210
0.0
220
0.0
230
1.0
 70
     8
 71
     3
 72
    11
 73
     7
 74
     5
 42
0.0000000001
 43
0.0000000001
 44
0.0000000001
 40
0.0
 40
0.0
 40
0.0
 40
0.0
 40
0.0676831328835651
 40
0.126257528045923
 40
0.1756746777337077
 40
0.2161041920022037
 40
0.2161041920022037
 40
0.2161041920022037
 40
0.2161041920022037
 10
4.887100219730001
 20
1.632629394531001
 30
0.0
 10
4.868286004000442
 20
1.620173973304336
 30
0.0
 10
4.833189573487642
 20
1.59693937071059
 30
0.0
 10
4.785540360684018
 20
1.562899361829426
 30
0.0
 10
4.745967854527542
 20
1.533150286811006
 30
0.0
 10
4.723439844567763
 20
1.513402692650936
 30
0.0
 10
4.713302612310002
 20
1.504516601562997
 30
0.0
 11
4.887100219730001
 21
1.632629394531001
 31
0.0
 11
4.83090209961
 21
1.594909667968998
 31
0.0
 11
4.783203125
 21
1.560913085937997
 31
0.0
 11
4.7440032959
 21
1.530822753906001
 31
0.0
 11
4.713302612310002
 21
1.504516601562997
 31
0.0
  0
SPLINE
  5
2083
330
203B
100
AcDbEntity
  8
AM_0
 48
0.5
100
AcDbSpline
210
0.0
220
0.0
230
1.0
 70
     8
 71
     3
 72
    11
 73
     7
 74
     5
 42
0.0000000001
 43
0.0000000001
 44
0.0000000001
 40
0.0
 40
0.0
 40
0.0
 40
0.0
 40
0.0349777012310443
 40
0.0716289441071449
 40
0.1100673602103236
 40
0.1502836001994512
 40
0.1502836001994512
 40
0.1502836001994512
 40
0.1502836001994512
 10
5.097106933600002
 20
1.526794433593998
 30
0.0
 10
5.106792530687712
 20
1.533285139659413
 30
0.0
 10
5.126627141540415
 20
1.546577105843938
 30
0.0
 10
5.15737449420822
 20
1.566596388273374
 30
0.0
 10
5.189784277679239
 20
1.587257867096271
 30
0.0
 10
5.211959100168726
 20
1.601246188455953
 30
0.0
 10
5.223297119139999
 20
1.6083984375
 30
0.0
 11
5.097106933600002
 21
1.526794433593998
 31
0.0
 11
5.126205444340001
 21
1.546203613281001
 31
0.0
 11
5.15690612793
 21
1.566223144531001
 31
0.0
 11
5.18930053711
 21
1.5869140625
 31
0.0
 11
5.223297119139999
 21
1.6083984375
 31
0.0
  0
SPLINE
  5
2084
330
203B
100
AcDbEntity
  8
AM_0
 48
0.5
100
AcDbSpline
210
0.0
220
0.0
230
1.0
 70
     8
 71
     3
 72
    11
 73
     7
 74
     5
 42
0.0000000001
 43
0.0000000001
 44
0.0000000001
 40
0.0
 40
0.0
 40
0.0
 40
0.0
 40
0.0560032482244423
 40
0.1093194485916026
 40
0.1600560052461564
 40
0.2082712121407674
 40
0.2082712121407674
 40
0.2082712121407674
 40
0.2082712121407674
 10
5.065200805670002
 20
1.740539550781001
 30
0.0
 10
5.049009691705363
 20
1.731247355806696
 30
0.0
 10
5.017404316895595
 20
1.713108807365262
 30
0.0
 10
4.971581867109094
 20
1.685778969574019
 30
0.0
 10
4.928313159471455
 20
1.659239464780923
 30
0.0
 10
4.900602504993993
 20
1.641347451569964
 30
0.0
 10
4.887100219730001
 20
1.632629394531001
 30
0.0
 11
5.065200805670002
 21
1.740539550781001
 31
0.0
 11
5.016708374030002
 21
1.712524414062997
 31
0.0
 11
4.97090148926
 21
1.685241699218998
 31
0.0
 11
4.927703857419999
 21
1.658630371093998
 31
0.0
 11
4.887100219730001
 21
1.632629394531001
 31
0.0
  0
SPLINE
  5
2085
330
203B
100
AcDbEntity
  8
AM_0
 48
0.5
100
AcDbSpline
210
0.0
220
0.0
230
1.0
 70
     8
 71
     3
 72
    11
 73
     7
 74
     5
 42
0.0000000001
 43
0.0000000001
 44
0.0000000001
 40
0.0
 40
0.0
 40
0.0
 40
0.0
 40
0.0415551822533514
 40
0.0840512385262833
 40
0.1275385732006383
 40
0.1719083638192739
 40
0.1719083638192739
 40
0.1719083638192739
 40
0.1719083638192739
 10
5.223297119139999
 20
1.6083984375
 30
0.0
 10
5.23505003605985
 20
1.61572950882977
 30
0.0
 10
5.258821974235629
 20
1.630557638357274
 30
0.0
 10
5.295204222860814
 20
1.652551195633692
 30
0.0
 10
5.332297339390012
 20
1.675182375835057
 30
0.0
 10
5.357548100410651
 20
1.690017632853011
 30
0.0
 10
5.37030029297
 20
1.697509765625
 30
0.0
 11
5.223297119139999
 21
1.6083984375
 31
0.0
 11
5.258605957029999
 21
1.630310058593998
 31
0.0
 11
5.294906616209999
 21
1.652404785156001
 31
0.0
 11
5.332107543950002
 21
1.674926757812997
 31
0.0
 11
5.37030029297
 21
1.697509765625
 31
0.0
  0
SPLINE
  5
2086
330
203B
100
AcDbEntity
  8
AM_0
 48
0.5
100
AcDbSpline
210
0.0
220
0.0
230
1.0
 70
     8
 71
     3
 72
    11
 73
     7
 74
     5
 42
0.0000000001
 43
0.0000000001
 44
0.0000000001
 40
0.0
 40
0.0
 40
0.0
 40
0.0
 40
0.0516305857752845
 40
0.1025061092979143
 40
0.1523020283024801
 40
0.2012832640749913
 40
0.2012832640749913
 40
0.2012832640749913
 40
0.2012832640749913
 10
5.241302490240002
 20
1.838012695312997
 30
0.0
 10
5.226161637099787
 20
1.829830578075884
 30
0.0
 10
5.196101355513795
 20
1.813586001509462
 30
0.0
 10
5.151600246812017
 20
1.789152447511295
 30
0.0
 10
5.1079975519339
 20
1.764917973253586
 30
0.0
 10
5.079387732796449
 20
1.748620887173812
 30
0.0
 10
5.065200805670002
 20
1.740539550781001
 30
0.0
 11
5.241302490240002
 21
1.838012695312997
 31
0.0
 11
5.195907592780002
 21
1.813415527343998
 31
0.0
 11
5.151306152350002
 21
1.788940429687997
 31
0.0
 11
5.107803344730001
 21
1.764709472656001
 31
0.0
 11
5.065200805670002
 21
1.740539550781001
 31
0.0
  0
ELLIPSE
  5
2087
330
203B
100
AcDbEntity
  8
AM_0
 48
0.5
100
AcDbEllipse
 10
8.94500732422
 20
3.751037597656001
 30
0.0
 11
0.1983642568300042
 21
0.1136474604750006
 31
0.0
210
0.0
220
0.0
230
1.0
 40
0.0781840668529
 41
0.0
 42
0.6175696025212054
  0
SPLINE
  5
2088
330
203B
100
AcDbEntity
  8
AM_0
 48
0.5
100
AcDbSpline
210
0.0
220
0.0
230
1.0
 70
     8
 71
     3
 72
    11
 73
     7
 74
     5
 42
0.0000000001
 43
0.0000000001
 44
0.0000000001
 40
0.0
 40
0.0
 40
0.0
 40
0.0
 40
0.0095706672050957
 40
0.0221910141475623
 40
0.0392139424379056
 40
0.0612939321915617
 40
0.0612939321915617
 40
0.0612939321915617
 40
0.0612939321915617
 10
9.233810424810002
 20
4.122131347656001
 30
0.0
 10
9.2313694667132
 20
4.124289566939819
 30
0.0
 10
9.225709742631384
 20
4.129293719067817
 30
0.0
 10
9.212071577480957
 20
4.130551744617601
 30
0.0
 10
9.195012689577563
 20
4.129481462999038
 30
0.0
 10
9.182224228619512
 20
4.1266953094627
 30
0.0
 10
9.17500305176
 20
4.125122070312997
 30
0.0
 11
9.233810424810002
 21
4.122131347656001
 31
0.0
 11
9.22610473633
 21
4.127807617187997
 31
0.0
 11
9.213699340819999
 21
4.130126953125
 31
0.0
 11
9.196701049810002
 21
4.129211425781001
 31
0.0
 11
9.17500305176
 21
4.125122070312997
 31
0.0
  0
SPLINE
  5
2089
330
203B
100
AcDbEntity
  8
AM_0
 48
0.5
100
AcDbSpline
210
0.0
220
0.0
230
1.0
 70
     8
 71
     3
 72
    11
 73
     7
 74
     5
 42
0.0000000001
 43
0.0000000001
 44
0.0000000001
 40
0.0
 40
0.0
 40
0.0
 40
0.0
 40
0.1155464434294156
 40
0.2243121204551554
 40
0.3157250385939784
 40
0.3805619028877736
 40
0.3805619028877736
 40
0.3805619028877736
 40
0.3805619028877736
 10
7.731704711920002
 20
7.134399414062997
 30
0.0
 10
7.761709110694521
 20
7.158559787315281
 30
0.0
 10
7.819957120000024
 20
7.205462698338401
 30
0.0
 10
7.904524308019677
 20
7.268070292125066
 30
0.0
 10
7.976979175847893
 20
7.318859273566314
 30
0.0
 10
8.022796772188824
 20
7.343697233216114
 30
0.0
 10
8.041809082029999
 20
7.35400390625
 30
0.0
 11
7.731704711920002
 21
7.134399414062997
 31
0.0
 11
7.822204589850002
 21
7.206237792968998
 31
0.0
 11
7.909500122069999
 21
7.271118164062997
 31
0.0
 11
7.985305786129998
 21
7.322204589843998
 31
0.0
 11
8.041809082029999
 21
7.35400390625
 31
0.0
  0
SPLINE
  5
208A
330
203B
100
AcDbEntity
  8
AM_0
 48
0.5
100
AcDbSpline
210
0.0
220
0.0
230
1.0
 70
     8
 71
     3
 72
    11
 73
     7
 74
     5
 42
0.0000000001
 43
0.0000000001
 44
0.0000000001
 40
0.0
 40
0.0
 40
0.0
 40
0.0
 40
1.05466434311829
 40
2.109241889777515
 40
3.163885625041862
 40
4.218415977826856
 40
4.218415977826856
 40
4.218415977826856
 40
4.218415977826856
 10
3.609603881840001
 20
3.708923339843998
 30
0.0
 10
3.879299931197561
 20
3.934433480250359
 30
0.0
 10
4.418669834545728
 20
4.385435202095198
 30
0.0
 10
5.228426186144077
 20
5.061109802543739
 30
0.0
 10
6.03814564933473
 20
5.736758932338519
 30
0.0
 10
6.578459761580004
 20
6.18659372029986
 30
0.0
 10
6.848602294919999
 20
6.411499023437997
 30
0.0
 11
3.609603881840001
 21
3.708923339843998
 31
0.0
 11
4.4188079834
 21
4.385314941406001
 31
0.0
 11
5.228408813480001
 21
5.061096191406001
 31
0.0
 11
6.038299560550001
 21
5.736633300781001
 31
0.0
 11
6.848602294919999
 21
6.411499023437997
 31
0.0
  0
ELLIPSE
  5
208B
330
203B
100
AcDbEntity
  8
AM_0
 48
0.5
100
AcDbEllipse
 10
8.963211059569999
 20
3.7626953125
 30
0.0
 11
0.1759796148799921
 21
0.1008300831189999
 31
0.0
210
0.0
220
0.0
230
0.9999999999999998
 40
0.078385261499
 41
0.6167500768958076
 42
1.16314212972079
  0
SPLINE
  5
208C
330
203B
100
AcDbEntity
  8
AM_0
 48
0.5
100
AcDbSpline
210
0.0
220
0.0
230
1.0
 70
     8
 71
     3
 72
    11
 73
     7
 74
     5
 42
0.0000000001
 43
0.0000000001
 44
0.0000000001
 40
0.0
 40
0.0
 40
0.0
 40
0.0
 40
0.0351364589967549
 40
0.0784907147865058
 40
0.1286792658537375
 40
0.1842030199536459
 40
0.1842030199536459
 40
0.1842030199536459
 40
0.1842030199536459
 10
9.17500305176
 20
4.125122070312997
 30
0.0
 10
9.163772260401252
 20
4.121770573049564
 30
0.0
 10
9.138683994066626
 20
4.114283722543766
 30
0.0
 10
9.09918453527751
 20
4.097382199211909
 30
0.0
 10
9.054372995705563
 20
4.075893339079568
 30
0.0
 10
9.023576103989684
 20
4.058748640326808
 30
0.0
 10
9.007400512700002
 20
4.049743652343998
 30
0.0
 11
9.17500305176
 21
4.125122070312997
 31
0.0
 11
9.141510009770001
 21
4.114501953125
 31
0.0
 11
9.10140991211
 21
4.098022460937997
 31
0.0
 11
9.056198120120001
 21
4.076232910156001
 31
0.0
 11
9.007400512700002
 21
4.049743652343998
 31
0.0
  0
ELLIPSE
  5
208D
330
203B
100
AcDbEntity
  8
AM_0
 48
0.5
100
AcDbEllipse
 10
8.953201293950002
 20
3.75439453125
 30
0.0
 11
0.2030486998599912
 21
0.1163330060489969
 31
0.0
210
0.0
220
0.0
230
1.0
 40
0.0781592590081
 41
1.163802812200309
 42
1.362912611523845
  0
SPLINE
  5
208E
330
203B
100
AcDbEntity
  8
AM_0
 48
0.5
100
AcDbSpline
210
0.0
220
0.0
230
1.0
 70
     8
 71
     3
 72
    11
 73
     7
 74
     5
 42
0.0000000001
 43
0.0000000001
 44
0.0000000001
 40
0.0
 40
0.0
 40
0.0
 40
0.0
 40
0.0248450761456062
 40
0.0501560544573786
 40
0.0759447622665088
 40
0.1021669457700468
 40
0.1021669457700468
 40
0.1021669457700468
 40
0.1021669457700468
 10
9.007400512700002
 20
4.049743652343998
 30
0.0
 10
9.000257006740502
 20
4.04555328945501
 30
0.0
 10
8.985836037699336
 20
4.037093984761213
 30
0.0
 10
8.964232859392307
 20
4.023895240711065
 30
0.0
 10
8.942438337045928
 20
4.01013346117473
 30
0.0
 10
8.927986310472865
 20
4.000556119992981
 30
0.0
 10
8.920700073239999
 20
3.995727539062997
 30
0.0
 11
9.007400512700002
 21
4.049743652343998
 31
0.0
 11
8.98600769043
 21
4.037109375
 31
0.0
 11
8.964401245120001
 21
4.02392578125
 31
0.0
 11
8.942611694340001
 21
4.010131835937997
 31
0.0
 11
8.920700073239999
 21
3.995727539062997
 31
0.0
  0
ELLIPSE
  5
208F
330
203B
100
AcDbEntity
  8
AM_0
 48
0.5
100
AcDbEllipse
 10
8.95719909668
 20
3.759399414062997
 30
0.0
 11
0.1765747128399937
 21
0.1011352540180042
 31
0.0
210
0.0
220
0.0
230
1.0
 40
0.0785000299873
 41
1.361982270437872
 42
1.613921783506014
  0
SPLINE
  5
2090
330
203B
100
AcDbEntity
  8
AM_0
 48
0.5
100
AcDbSpline
210
0.0
220
0.0
230
1.0
 70
     8
 71
     3
 72
    11
 73
     7
 74
     5
 42
0.0000000001
 43
0.0000000001
 44
0.0000000001
 40
0.0
 40
0.0
 40
0.0
 40
0.0
 40
0.0742406451976107
 40
0.1595285912128665
 40
0.2561071568169387
 40
0.364511308696403
 40
0.364511308696403
 40
0.364511308696403
 40
0.364511308696403
 10
-4.668701171869997
 20
0.851806640625
 30
0.0
 10
-4.648386008924233
 20
0.8659715720585195
 30
0.0
 10
-4.604732706661419
 20
0.8964092325907177
 30
0.0
 10
-4.540886672868918
 20
0.9533114953480652
 30
0.0
 10
-4.472066164123367
 20
1.021367753986197
 30
0.0
 10
-4.42676095939562
 20
1.072544691068232
 30
0.0
 10
-4.402801513669999
 20
1.099609375
 30
0.0
 11
-4.668701171869997
 21
0.851806640625
 31
0.0
 11
-4.60859680176
 21
0.8953857421879973
 31
0.0
 11
-4.544189453119997
 21
0.9512939453129973
 31
0.0
 11
-4.47560119629
 21
1.019287109375
 31
0.0
 11
-4.402801513669999
 21
1.099609375
 31
0.0
  0
SPLINE
  5
2091
330
203B
100
AcDbEntity
  8
AM_0
 48
0.5
100
AcDbSpline
210
0.0
220
0.0
230
1.0
 70
     8
 71
     3
 72
    11
 73
     7
 74
     5
 42
0.0000000001
 43
0.0000000001
 44
0.0000000001
 40
0.0
 40
0.0
 40
0.0
 40
0.0
 40
0.0207770700504029
 40
0.0352234046501267
 40
0.0438658620820289
 40
0.0488830113237113
 40
0.0488830113237113
 40
0.0488830113237113
 40
0.0488830113237113
 10
-7.862091064449998
 20
6.656433105468998
 30
0.0
 10
-7.868768444062518
 20
6.658624379172977
 30
0.0
 10
-7.880088617865835
 20
6.662339249469276
 30
0.0
 10
-7.893704280356545
 20
6.664845356673207
 30
0.0
 10
-7.904569633340857
 20
6.666022361391843
 30
0.0
 10
-7.906925742855063
 20
6.66177670660835
 30
0.0
 10
-7.907791137689997
 20
6.660217285156001
 30
0.0
 11
-7.862091064449998
 21
6.656433105468998
 31
0.0
 11
-7.881988525389999
 21
6.662414550781001
 31
0.0
 11
-7.89619445801
 21
6.6650390625
 31
0.0
 11
-7.90480041504
 21
6.664245605468998
 31
0.0
 11
-7.907791137689997
 21
6.660217285156001
 31
0.0
  0
SPLINE
  5
2092
330
203B
100
AcDbEntity
  8
AM_0
 48
0.5
100
AcDbSpline
210
0.0
220
0.0
230
1.0
 70
     8
 71
     3
 72
    11
 73
     7
 74
     5
 42
0.0000000001
 43
0.0000000001
 44
0.0000000001
 40
0.0
 40
0.0
 40
0.0
 40
0.0
 40
0.4501475228119754
 40
0.8847757722568793
 40
1.304082105284762
 40
1.708020600410464
 40
1.708020600410464
 40
1.708020600410464
 40
1.708020600410464
 10
-9.726501464839998
 20
4.87890625
 30
0.0
 10
-9.789584374277092
 20
4.742759996666308
 30
0.0
 10
-9.913575348535388
 20
4.475161264409123
 30
0.0
 10
-10.09088774825208
 20
4.078262904478513
 30
0.0
 10
-10.25810397544119
 20
3.693742636959859
 30
0.0
 10
-10.36348482075996
 20
3.440364266833491
 30
0.0
 10
-10.41519165039
 20
3.316040039062997
 30
0.0
 11
-9.726501464839998
 21
4.87890625
 31
0.0
 11
-9.914794921869997
 21
4.470031738281001
 31
0.0
 11
-10.09230041504
 21
4.073303222656001
 31
0.0
 11
-10.25909423827999
 21
3.688598632812997
 31
0.0
 11
-10.41519165039
 21
3.316040039062997
 31
0.0
  0
SPLINE
  5
2093
330
203B
100
AcDbEntity
  8
AM_0
 48
0.5
100
AcDbSpline
210
0.0
220
0.0
230
1.0
 70
     8
 71
     3
 72
    11
 73
     7
 74
     5
 42
0.0000000001
 43
0.0000000001
 44
0.0000000001
 40
0.0
 40
0.0
 40
0.0
 40
0.0
 40
0.0564972134855382
 40
0.1129793808927411
 40
0.169546724931083
 40
0.226018767313838
 40
0.226018767313838
 40
0.226018767313838
 40
0.226018767313838
 10
-7.907791137689997
 20
6.660217285156001
 30
0.0
 10
-7.926361740366633
 20
6.657088065439632
 30
0.0
 10
-7.963498000082317
 20
6.650830459366311
 30
0.0
 10
-8.019216097122853
 20
6.641369206240359
 30
0.0
 10
-8.074970682266567
 20
6.632176663359481
 30
0.0
 10
-8.112128355310742
 20
6.625925620652581
 30
0.0
 10
-8.130691528319999
 20
6.622802734375
 30
0.0
 11
-7.907791137689997
 21
6.660217285156001
 31
0.0
 11
-7.963500976559998
 21
6.650817871093998
 31
0.0
 11
-8.019195556639999
 21
6.641418457031001
 31
0.0
 11
-8.074996948239999
 21
6.632141113281001
 31
0.0
 11
-8.130691528319999
 21
6.622802734375
 31
0.0
  0
SPLINE
  5
2094
330
203B
100
AcDbEntity
  8
AM_0
 48
0.5
100
AcDbSpline
210
0.0
220
0.0
230
1.0
 70
     8
 71
     3
 72
    11
 73
     7
 74
     5
 42
0.0000000001
 43
0.0000000001
 44
0.0000000001
 40
0.0
 40
0.0
 40
0.0
 40
0.0
 40
0.0271346106711593
 40
0.0469558716359617
 40
0.0600305438162183
 40
0.0691060349132483
 40
0.0691060349132483
 40
0.0691060349132483
 40
0.0691060349132483
 10
-3.659591674799997
 20
3.329528808593998
 30
0.0
 10
-3.650826207216347
 20
3.327001391531561
 30
0.0
 10
-3.635657750381824
 20
3.322627749595343
 30
0.0
 10
-3.616286789520677
 20
3.320360788385441
 30
0.0
 10
-3.600957709134608
 20
3.320573912992513
 30
0.0
 10
-3.596299469587319
 20
3.326709659709933
 30
0.0
 10
-3.594390869139999
 20
3.329223632812997
 30
0.0
 11
-3.659591674799997
 21
3.329528808593998
 31
0.0
 11
-3.63330078125
 21
3.322814941406001
 31
0.0
 11
-3.613601684569999
 21
3.320617675781001
 31
0.0
 11
-3.600692749019998
 21
3.322692871093998
 31
0.0
 11
-3.594390869139999
 21
3.329223632812997
 31
0.0
  0
SPLINE
  5
2095
330
203B
100
AcDbEntity
  8
AM_0
 48
0.5
100
AcDbSpline
210
0.0
220
0.0
230
1.0
 70
     8
 71
     3
 72
    11
 73
     7
 74
     5
 42
0.0000000001
 43
0.0000000001
 44
0.0000000001
 40
0.0
 40
0.0
 40
0.0
 40
0.0
 40
0.0506625645446116
 40
0.1935499724589929
 40
0.4126476473298644
 40
0.6804385259279853
 40
0.6804385259279853
 40
0.6804385259279853
 40
0.6804385259279853
 10
-4.367492675779999
 20
1.072143554687997
 30
0.0
 10
-4.384325665879989
 20
1.073803684729761
 30
0.0
 10
-4.448633992936485
 20
1.080146003298709
 30
0.0
 10
-4.57980370089759
 20
1.124817662084939
 30
0.0
 10
-4.780266760176306
 20
1.185606769495666
 30
0.0
 10
-4.932927429602639
 20
1.241050894060705
 30
0.0
 10
-5.016891479489999
 20
1.271545410156001
 30
0.0
 11
-4.367492675779999
 21
1.072143554687997
 31
0.0
 11
-4.417800903319999
 21
1.078125
 31
0.0
 11
-4.555603027339998
 21
1.115905761718998
 31
0.0
 11
-4.764297485349999
 21
1.1826171875
 31
0.0
 11
-5.016891479489999
 21
1.271545410156001
 31
0.0
  0
SPLINE
  5
2096
330
203B
100
AcDbEntity
  8
AM_0
 48
0.5
100
AcDbSpline
210
0.0
220
0.0
230
1.0
 70
     8
 71
     3
 72
    11
 73
     7
 74
     5
 42
0.0000000001
 43
0.0000000001
 44
0.0000000001
 40
0.0
 40
0.0
 40
0.0
 40
0.0
 40
0.0427444520916605
 40
0.0854316501547136
 40
0.1282132049845025
 40
0.1709576570770962
 40
0.1709576570770962
 40
0.1709576570770962
 40
0.1709576570770962
 10
-3.66799926758
 20
3.53564453125
 30
0.0
 10
-3.663065045253603
 20
3.522278037089102
 30
0.0
 10
-3.653203209741702
 20
3.495562952509233
 30
0.0
 10
-3.6384127103264
 20
3.45546608349016
 30
0.0
 10
-3.623463578045731
 20
3.415428022002561
 30
0.0
 10
-3.613612004411308
 20
3.388675589290909
 30
0.0
 10
-3.608688354489999
 20
3.375305175781001
 30
0.0
 11
-3.66799926758
 21
3.53564453125
 31
0.0
 11
-3.653198242190001
 21
3.495544433593998
 31
0.0
 11
-3.638397216800001
 21
3.455505371093998
 31
0.0
 11
-3.623489379879998
 21
3.415405273437997
 31
0.0
 11
-3.608688354489999
 21
3.375305175781001
 31
0.0
  0
SPLINE
  5
2097
330
203B
100
AcDbEntity
  8
AM_0
 48
0.5
100
AcDbSpline
210
0.0
220
0.0
230
1.0
 70
     8
 71
     3
 72
    11
 73
     7
 74
     5
 42
0.0000000001
 43
0.0000000001
 44
0.0000000001
 40
0.0
 40
0.0
 40
0.0
 40
0.0
 40
0.0207071381374878
 40
0.0351274930510608
 40
0.043769950482963
 40
0.0488452586085294
 40
0.0488452586085294
 40
0.0488452586085294
 40
0.0488452586085294
 10
-3.732498168939997
 20
3.59033203125
 30
0.0
 10
-3.725855756442138
 20
3.588101301346557
 30
0.0
 10
-3.714587598702927
 20
3.584317101489403
 30
0.0
 10
-3.700982182745614
 20
3.581931581835931
 30
0.0
 10
-3.690099307624516
 20
3.580739410217846
 30
0.0
 10
-3.687756457649298
 20
3.585023760077048
 30
0.0
 10
-3.686889648440001
 20
3.586608886718998
 30
0.0
 11
-3.732498168939997
 21
3.59033203125
 31
0.0
 11
-3.712692260739999
 21
3.584289550781001
 31
0.0
 11
-3.698501586909998
 21
3.581726074218998
 31
0.0
 11
-3.689895629879998
 21
3.58251953125
 31
0.0
 11
-3.686889648440001
 21
3.586608886718998
 31
0.0
  0
SPLINE
  5
2098
330
203B
100
AcDbEntity
  8
AM_0
 48
0.5
100
AcDbSpline
210
0.0
220
0.0
230
1.0
 70
     8
 71
     3
 72
    11
 73
     7
 74
     5
 42
0.0000000001
 43
0.0000000001
 44
0.0000000001
 40
0.0
 40
0.0
 40
0.0
 40
0.0
 40
0.0287031774699914
 40
0.0633805507215859
 40
0.1040953949061422
 40
0.1509698385913731
 40
0.1509698385913731
 40
0.1509698385913731
 40
0.1509698385913731
 10
-3.732498168939997
 20
3.59033203125
 30
0.0
 10
-3.741493430856038
 20
3.593596114842998
 30
0.0
 10
-3.761356202311204
 20
3.600803658883787
 30
0.0
 10
-3.793301553849478
 20
3.614383108744831
 30
0.0
 10
-3.830427493314138
 20
3.631199144137978
 30
0.0
 10
-3.856718585293485
 20
3.643899210181477
 30
0.0
 10
-3.87078857422
 20
3.650695800781001
 30
0.0
 11
-3.732498168939997
 21
3.59033203125
 31
0.0
 11
-3.759399414059998
 21
3.600341796875
 31
0.0
 11
-3.791397094719997
 21
3.613708496093998
 31
0.0
 11
-3.828491210940001
 21
3.630493164062997
 31
0.0
 11
-3.87078857422
 21
3.650695800781001
 31
0.0
  0
SPLINE
  5
2099
330
203B
100
AcDbEntity
  8
AM_0
 48
0.5
100
AcDbSpline
210
0.0
220
0.0
230
1.0
 70
     8
 71
     3
 72
    11
 73
     7
 74
     5
 42
0.0000000001
 43
0.0000000001
 44
0.0000000001
 40
0.0
 40
0.0
 40
0.0
 40
0.0
 40
0.0676134626237362
 40
0.1261871681308637
 40
0.1756492454410847
 40
0.2160676578565868
 40
0.2160676578565868
 40
0.2160676578565868
 40
0.2160676578565868
 10
-3.857391357419999
 20
3.416015625
 30
0.0
 10
-3.837220641455636
 20
3.405955405667268
 30
0.0
 10
-3.799575985673412
 20
3.387179994098165
 30
0.0
 10
-3.746267435986708
 20
3.362962647138398
 30
0.0
 10
-3.700702118865023
 20
3.34357967904699
 30
0.0
 10
-3.672344037678724
 20
3.333887355499868
 30
0.0
 10
-3.659591674799997
 20
3.329528808593998
 30
0.0
 11
-3.857391357419999
 21
3.416015625
 31
0.0
 11
-3.796691894529999
 21
3.38623046875
 31
0.0
 11
-3.743392944329997
 21
3.361938476562997
 31
0.0
 11
-3.697692871089998
 21
3.343017578125
 31
0.0
 11
-3.659591674799997
 21
3.329528808593998
 31
0.0
  0
SPLINE
  5
209A
330
203B
100
AcDbEntity
  8
AM_0
 48
0.5
100
AcDbSpline
210
0.0
220
0.0
230
1.0
 70
     8
 71
     3
 72
    11
 73
     7
 74
     5
 42
0.0000000001
 43
0.0000000001
 44
0.0000000001
 40
0.0
 40
0.0
 40
0.0
 40
0.0
 40
0.0349931642919637
 40
0.0716105989280834
 40
0.1101150306971545
 40
0.1502916077464043
 40
0.1502916077464043
 40
0.1502916077464043
 40
0.1502916077464043
 10
-3.87078857422
 20
3.650695800781001
 30
0.0
 10
-3.881227912538814
 20
3.655899423046863
 30
0.0
 10
-3.902591149746684
 20
3.666548203018424
 30
0.0
 10
-3.935396277387151
 20
3.683013756524801
 30
0.0
 10
-3.969520091665925
 20
3.700698171508584
 30
0.0
 10
-3.992676881419859
 20
3.71301170484364
 30
0.0
 10
-4.004501342769998
 20
3.719299316406001
 30
0.0
 11
-3.87078857422
 21
3.650695800781001
 31
0.0
 11
-3.902099609369997
 21
3.666320800781001
 31
0.0
 11
-3.934799194329997
 21
3.682800292968998
 31
0.0
 11
-3.968994140619997
 21
3.700500488281001
 31
0.0
 11
-4.004501342769998
 21
3.719299316406001
 31
0.0
  0
SPLINE
  5
209B
330
203B
100
AcDbEntity
  8
AM_0
 48
0.5
100
AcDbSpline
210
0.0
220
0.0
230
1.0
 70
     8
 71
     3
 72
    11
 73
     7
 74
     5
 42
0.0000000001
 43
0.0000000001
 44
0.0000000001
 40
0.0
 40
0.0
 40
0.0
 40
0.0
 40
0.0558629414983291
 40
0.1092262494735171
 40
0.1600206016325324
 40
0.2082440750494586
 40
0.2082440750494586
 40
0.2082440750494586
 40
0.2082440750494586
 10
-4.0399017334
 20
3.516235351562997
 30
0.0
 10
-4.023796019615851
 20
3.506888682565642
 30
0.0
 10
-3.992305255532309
 20
3.488613569006109
 30
0.0
 10
-3.945701087794017
 20
3.462662828718932
 30
0.0
 10
-3.901029791758152
 20
3.438480989054826
 30
0.0
 10
-3.871683522000563
 20
3.423373328943863
 30
0.0
 10
-3.857391357419999
 20
3.416015625
 30
0.0
 11
-4.0399017334
 21
3.516235351562997
 31
0.0
 11
-3.991500854489999
 21
3.488342285156001
 31
0.0
 11
-3.944900512689997
 21
3.462341308593998
 31
0.0
 11
-3.900192260739999
 21
3.438232421875
 31
0.0
 11
-3.857391357419999
 21
3.416015625
 31
0.0
  0
SPLINE
  5
209C
330
203B
100
AcDbEntity
  8
AM_0
 48
0.5
100
AcDbSpline
210
0.0
220
0.0
230
1.0
 70
     8
 71
     3
 72
    11
 73
     7
 74
     5
 42
0.0000000001
 43
0.0000000001
 44
0.0000000001
 40
0.0
 40
0.0
 40
0.0
 40
0.0
 40
0.0415999507412847
 40
0.0840713860302105
 40
0.127553679623667
 40
0.1719032286280191
 40
0.1719032286280191
 40
0.1719032286280191
 40
0.1719032286280191
 10
-4.004501342769998
 20
3.719299316406001
 30
0.0
 10
-4.016745425431322
 20
3.725808421561319
 30
0.0
 10
-4.041490094154798
 20
3.738962992239235
 30
0.0
 10
-4.078816857833887
 20
3.75932378962507
 30
0.0
 10
-4.116763013197418
 20
3.78045802173676
 30
0.0
 10
-4.142301710033594
 20
3.794773525361696
 30
0.0
 10
-4.155197143549997
 20
3.802001953125
 30
0.0
 11
-4.004501342769998
 21
3.719299316406001
 31
0.0
 11
-4.04119873047
 21
3.738891601562997
 31
0.0
 11
-4.078491210940001
 21
3.759216308593998
 31
0.0
 11
-4.116500854489999
 21
3.780334472656001
 31
0.0
 11
-4.155197143549997
 21
3.802001953125
 31
0.0
  0
SPLINE
  5
209D
330
203B
100
AcDbEntity
  8
AM_0
 48
0.5
100
AcDbSpline
210
0.0
220
0.0
230
1.0
 70
     8
 71
     3
 72
    11
 73
     7
 74
     5
 42
0.0000000001
 43
0.0000000001
 44
0.0000000001
 40
0.0
 40
0.0
 40
0.0
 40
0.0
 40
0.0516812099573
 40
0.1025192658010132
 40
0.152378397512848
 40
0.2013699210777699
 40
0.2013699210777699
 40
0.2013699210777699
 40
0.2013699210777699
 10
-4.21240234375
 20
3.6201171875
 30
0.0
 10
-4.197750639265779
 20
3.611056044516765
 30
0.0
 10
-4.168686265817543
 20
3.593081586745233
 30
0.0
 10
-4.125187093534492
 20
3.566855686898672
 30
0.0
 10
-4.082371446280578
 20
3.541233975399016
 30
0.0
 10
-4.053975226875854
 20
3.524519324907738
 30
0.0
 10
-4.0399017334
 20
3.516235351562997
 30
0.0
 11
-4.21240234375
 21
3.6201171875
 31
0.0
 11
-4.168395996089998
 21
3.593017578125
 31
0.0
 11
-4.124893188469997
 21
3.566711425781001
 31
0.0
 11
-4.082092285149997
 21
3.541137695312997
 31
0.0
 11
-4.0399017334
 21
3.516235351562997
 31
0.0
  0
LINE
  5
209E
330
203B
100
AcDbEntity
  8
AM_7
100
AcDbLine
 10
0.0
 20
15.0
 30
0.0
 11
0.0
 21
-15.0
 31
0.0
  0
CIRCLE
  5
209F
330
203B
100
AcDbEntity
  8
AM_0
100
AcDbCircle
 10
0.0
 20
0.0
 30
0.0
 40
12.5
  0
ARC
  5
20A0
330
203B
100
AcDbEntity
  8
AM_0
 48
0.5
100
AcDbCircle
 10
0.0
 20
0.0
 30
0.0
 40
10.500000953674
100
AcDbArc
 50
220.0116119791912
 51
260.662104371741
  0
ARC
  5
20A1
330
203B
100
AcDbEntity
  8
AM_0
 48
0.5
100
AcDbCircle
 10
0.0
 20
0.0
 30
0.0
 40
9.784377098083499
100
AcDbArc
 50
223.4909513235304
 51
262.7533990125713
  0
ARC
  5
20A2
330
203B
100
AcDbEntity
  8
AM_0
 48
0.5
100
AcDbCircle
 10
0.0
 20
0.0
 30
0.0
 40
9.5726270675659
100
AcDbArc
 50
223.1654108473135
 51
262.6845575359255
  0
LINE
  5
20A3
330
203B
100
AcDbEntity
  8
AM_0
 48
0.5
100
AcDbLine
 10
-1.206802368159998
 20
-6.616088867187002
 30
0.0
 11
-1.206802368159998
 21
-9.628112792968998
 31
0.0
  0
LINE
  5
20A4
330
203B
100
AcDbEntity
  8
AM_0
 48
0.5
100
AcDbLine
 10
-1.006896972649997
 20
-9.619079589843998
 30
0.0
 11
-1.006896972649997
 21
-6.750183105468998
 31
0.0
  0
LINE
  5
20A5
330
203B
100
AcDbEntity
  8
AM_0
 48
0.5
100
AcDbLine
 10
2.128318786619999
 20
-9.136901855468998
 30
0.0
 11
-1.006896972649997
 21
-6.750175476073998
 31
0.0
  0
ARC
  5
20A6
330
203B
100
AcDbEntity
  8
AM_0
 48
0.5
100
AcDbCircle
 10
0.0
 20
0.0
 30
0.0
 40
10.50005435943599
100
AcDbArc
 50
282.8275845304241
 51
307.1738382231677
  0
LINE
  5
20A7
330
203B
100
AcDbEntity
  8
AM_0
 48
0.5
100
AcDbLine
 10
-1.64651489258
 20
-10.388696670532
 30
0.0
 11
0.6322784423799988
 21
-10.86318016052199
 31
0.0
  0
ARC
  5
20A8
330
203B
100
AcDbEntity
  8
AM_0
 48
0.5
100
AcDbCircle
 10
0.0507965087900004
 20
0.0870361328129974
 30
0.0
 40
10.382756233215
100
AcDbArc
 50
259.266478158253
 51
259.5303488564573
  0
LINE
  5
20A9
330
203B
100
AcDbEntity
  8
AM_0
 48
0.5
100
AcDbLine
 10
-1.234161376949998
 20
-9.706136703491001
 30
0.0
 11
-1.218872070309998
 21
-9.494651794432996
 31
0.0
  0
LINE
  5
20AA
330
203B
100
AcDbEntity
  8
AM_0
 48
0.5
100
AcDbLine
 10
-1.646537780759999
 20
-10.388608932495
 30
0.0
 11
-1.644348144529999
 21
-10.38763618469199
 31
0.0
  0
LINE
  5
20AB
330
203B
100
AcDbEntity
  8
AM_0
 48
0.5
100
AcDbLine
 10
-1.833618164059998
 20
-10.137023925781
 30
0.0
 11
-1.840507507319998
 21
-10.09306526184099
 31
0.0
  0
LINE
  5
20AC
330
203B
100
AcDbEntity
  8
AM_0
 48
0.5
100
AcDbLine
 10
-1.644371032709997
 20
-10.387638092041
 30
0.0
 11
-1.642852783199998
 21
-10.386409759521
 31
0.0
  0
LINE
  5
20AD
330
203B
100
AcDbEntity
  8
AM_0
 48
0.5
100
AcDbLine
 10
-1.670181274409998
 20
-10.352766036987
 30
0.0
 11
-1.642959594719997
 21
-10.386409759521
 31
0.0
  0
LINE
  5
20AE
330
203B
100
AcDbEntity
  8
AM_0
 48
0.5
100
AcDbLine
 10
-1.052726745599997
 20
-10.059211730957
 30
0.0
 11
-1.643035888669999
 21
-10.386360168457
 31
0.0
  0
LINE
  5
20AF
330
203B
100
AcDbEntity
  8
AM_0
 48
0.5
100
AcDbLine
 10
-1.814018249509999
 20
-10.177446365356
 30
0.0
 11
-1.224021911619999
 21
-9.850419998168998
 31
0.0
  0
LINE
  5
20B0
330
203B
100
AcDbEntity
  8
AM_0
 48
0.5
100
AcDbLine
 10
-1.81399536133
 20
-10.17751121521
 30
0.0
 11
-1.670181274409998
 21
-10.3528175354
 31
0.0
  0
LINE
  5
20B1
330
203B
100
AcDbEntity
  8
AM_0
 48
0.5
100
AcDbLine
 10
-1.052696228030001
 20
-10.05923461914
 30
0.0
 11
-1.047004699710001
 21
-10.05777168273899
 31
0.0
  0
LINE
  5
20B2
330
203B
100
AcDbEntity
  8
AM_0
 48
0.5
100
AcDbLine
 10
-0.9999237060499979
 20
-9.723485946654999
 30
0.0
 11
-1.005325317379998
 21
-9.654851913451999
 31
0.0
  0
LINE
  5
20B3
330
203B
100
AcDbEntity
  8
AM_0
 48
0.5
100
AcDbLine
 10
-1.005294799799997
 20
-9.654964447021001
 30
0.0
 11
-1.006896972649997
 21
-9.619113922118998
 31
0.0
  0
LINE
  5
20B4
330
203B
100
AcDbEntity
  8
AM_0
 48
0.5
100
AcDbLine
 10
0.6379852294899991
 20
-10.86291122436499
 30
0.0
 11
0.6323013305700016
 21
-10.863216400146
 31
0.0
  0
LINE
  5
20B5
330
203B
100
AcDbEntity
  8
AM_0
 48
0.5
100
AcDbLine
 10
2.347969055180001
 20
-10.641450881958
 30
0.0
 11
2.335983276370001
 21
-10.67782592773399
 31
0.0
  0
LINE
  5
20B6
330
203B
100
AcDbEntity
  8
AM_0
 48
0.5
100
AcDbLine
 10
2.128303527829999
 20
-9.136875152587997
 30
0.0
 11
2.312797546390001
 21
-10.26303672790499
 31
0.0
  0
LINE
  5
20B7
330
203B
100
AcDbEntity
  8
AM_7
 48
0.5
100
AcDbLine
 10
-15.0
 20
0.0
 30
0.0
 11
14.999999999997
 21
0.0
 31
0.0
  0
ARC
  5
20B8
330
203B
100
AcDbEntity
  8
AM_0
 48
0.5
100
AcDbCircle
 10
0.0
 20
0.0
 30
0.0
 40
10.499970436096
100
AcDbArc
 50
100.0110790728593
 51
140.6619129748633
  0
ARC
  5
20B9
330
203B
100
AcDbEntity
  8
AM_0
 48
0.5
100
AcDbCircle
 10
0.0
 20
0.0
 30
0.0
 40
9.784281730651899
100
AcDbArc
 50
103.4909989832775
 51
142.7527431628296
  0
ARC
  5
20BA
330
203B
100
AcDbEntity
  8
AM_0
 48
0.5
100
AcDbCircle
 10
0.0
 20
0.0
 30
0.0
 40
9.572604179382299
100
AcDbArc
 50
103.165499488188
 51
142.6847827805893
  0
LINE
  5
20BB
330
203B
100
AcDbEntity
  8
AM_0
 48
0.5
100
AcDbLine
 10
-8.976936340329999
 20
2.725250244141001
 30
0.0
 11
-5.342430114739997
 21
4.247161865235
 31
0.0
  0
LINE
  5
20BC
330
203B
100
AcDbEntity
  8
AM_0
 48
0.5
100
AcDbLine
 10
-5.126182556149998
 20
4.353134155273998
 30
0.0
 11
-7.734687805169997
 21
5.859237670898998
 31
0.0
  0
LINE
  5
20BD
330
203B
100
AcDbEntity
  8
AM_0
 48
0.5
100
AcDbLine
 10
-7.82691192627
 20
5.681529998778998
 30
0.0
 11
-5.342407226559998
 21
4.247138977051001
 31
0.0
  0
ARC
  5
20BE
330
203B
100
AcDbEntity
  8
AM_0
 48
0.5
100
AcDbCircle
 10
0.0
 20
0.0
 30
0.0
 40
10.499982833862
100
AcDbArc
 50
162.8275843788432
 51
187.1736160904392
  0
LINE
  5
20BF
330
203B
100
AcDbEntity
  8
AM_0
 48
0.5
100
AcDbLine
 10
-7.619636535639997
 20
-6.915134429931001
 30
0.0
 11
-8.042121887210001
 21
-6.750831604003998
 31
0.0
  0
LINE
  5
20C0
330
203B
100
AcDbEntity
  8
AM_0
 48
0.5
100
AcDbLine
 10
-7.09841156006
 20
-6.73401260376
 30
0.0
 11
-7.25930786133
 21
-6.790283203125
 31
0.0
  0
LINE
  5
20C1
330
203B
100
AcDbEntity
  8
AM_0
 48
0.5
100
AcDbLine
 10
-7.392684936519998
 20
-6.836837768555
 30
0.0
 11
-7.619583129879998
 21
-6.91520690918
 31
0.0
  0
LINE
  5
20C2
330
203B
100
AcDbEntity
  8
AM_0
 48
0.5
100
AcDbLine
 10
-7.09839630127
 20
-6.733982086181001
 30
0.0
 11
-6.98211669922
 21
-6.548694610596001
 31
0.0
  0
LINE
  5
20C3
330
203B
100
AcDbEntity
  8
AM_0
 48
0.5
100
AcDbLine
 10
-8.97691345215
 20
2.725200653076001
 30
0.0
 11
-10.04451751709
 21
3.128582000732997
 31
0.0
  0
LINE
  5
20C4
330
203B
100
AcDbEntity
  8
AM_0
 48
0.5
100
AcDbLine
 10
-10.38970184325999
 20
3.287456512451001
 30
0.0
 11
-10.41519927977999
 21
3.316078186034999
 31
0.0
  0
LINE
  5
20C5
330
203B
100
AcDbEntity
  8
AM_0
 48
0.5
100
AcDbLine
 10
-8.17343902588
 20
6.620208740235
 30
0.0
 11
-9.723838806149998
 21
4.88399887085
 31
0.0
  0
LINE
  5
20C6
330
203B
100
AcDbEntity
  8
AM_0
 48
0.5
100
AcDbLine
 10
-9.726470947259997
 20
4.878917694092002
 30
0.0
 11
-9.723869323729999
 21
4.884033203125
 31
0.0
  0
ARC
  5
20C7
330
203B
100
AcDbEntity
  8
AM_0
 48
0.5
100
AcDbCircle
 10
0.0841064453099989
 20
-0.1167602539060013
 30
0.0
 40
10.42769050598099
100
AcDbArc
 50
139.2672293274779
 51
139.5290987802576
  0
LINE
  5
20C8
330
203B
100
AcDbEntity
  8
AM_0
 48
0.5
100
AcDbLine
 10
-7.858680725100001
 20
5.698020935058998
 30
0.0
 11
-7.826873779300001
 21
5.681533813477003
 31
0.0
  0
LINE
  5
20C9
330
203B
100
AcDbEntity
  8
AM_0
 48
0.5
100
AcDbLine
 10
-7.788612365719998
 20
5.922008514403998
 30
0.0
 11
-7.61321258545
 21
5.802928924561001
 31
0.0
  0
LINE
  5
20CA
330
203B
100
AcDbEntity
  8
AM_0
 48
0.5
100
AcDbLine
 10
-8.17352294922
 20
6.620292663573998
 30
0.0
 11
-8.173828125
 21
6.617961883545
 31
0.0
  0
LINE
  5
20CB
330
203B
100
AcDbEntity
  8
AM_0
 48
0.5
100
AcDbLine
 10
-7.862106323239999
 20
6.656463623047002
 30
0.0
 11
-7.820625305169997
 21
6.640537261962997
 31
0.0
  0
LINE
  5
20CC
330
203B
100
AcDbEntity
  8
AM_0
 48
0.5
100
AcDbLine
 10
-8.173835754389997
 20
6.617954254151001
 30
0.0
 11
-8.17352294922
 21
6.615901947022003
 31
0.0
  0
LINE
  5
20CD
330
203B
100
AcDbEntity
  8
AM_0
 48
0.5
100
AcDbLine
 10
-8.130699157709997
 20
6.622745513916001
 30
0.0
 11
-8.173408508299999
 21
6.615970611572002
 31
0.0
  0
LINE
  5
20CE
330
203B
100
AcDbEntity
  8
AM_0
 48
0.5
100
AcDbLine
 10
-8.185249328609998
 20
5.941371917725
 30
0.0
 11
-8.17345428467
 21
6.616104125977003
 31
0.0
  0
LINE
  5
20CF
330
203B
100
AcDbEntity
  8
AM_0
 48
0.5
100
AcDbLine
 10
-7.906982421869997
 20
6.659736633301001
 30
0.0
 11
-7.918777465819999
 21
5.985248565673998
 31
0.0
  0
LINE
  5
20D0
330
203B
100
AcDbEntity
  8
AM_0
 48
0.5
100
AcDbLine
 10
-7.906997680659998
 20
6.659687042237003
 30
0.0
 11
-8.130683898919997
 21
6.622760772704999
 31
0.0
  0
LINE
  5
20D1
330
203B
100
AcDbEntity
  8
AM_0
 48
0.5
100
AcDbLine
 10
-8.185272216800001
 20
5.941364288329999
 30
0.0
 11
-8.186882019039998
 21
5.935604095458998
 31
0.0
  0
LINE
  5
20D2
330
203B
100
AcDbEntity
  8
AM_0
 48
0.5
100
AcDbLine
 10
-7.920814514159999
 20
5.727802276612003
 30
0.0
 11
-7.858718872069999
 21
5.698078155517997
 31
0.0
  0
ARC
  5
20D3
330
203B
100
AcDbEntity
  8
AM_0
 48
0.5
100
AcDbCircle
 10
0.0
 20
0.0
 30
0.0
 40
10.500023841857
100
AcDbArc
 50
42.82715073762067
 51
67.17348980772792
  0
LINE
  5
20D4
330
203B
100
AcDbEntity
  8
AM_0
 48
0.5
100
AcDbLine
 10
5.370254516599999
 20
1.69760131836
 30
0.0
 11
6.333053588870001
 21
2.262908935547002
 31
0.0
  0
LINE
  5
20D5
330
203B
100
AcDbEntity
  8
AM_0
 48
0.5
100
AcDbLine
 10
6.232872009280001
 20
2.419670104981001
 30
0.0
 11
5.270072937009999
 21
1.854362487792997
 31
0.0
  0
LINE
  5
20D6
330
203B
100
AcDbEntity
  8
AM_0
 48
0.5
100
AcDbLine
 10
0.7767028808600003
 20
-4.405693054198998
 30
0.0
 11
-0.5269927978499993
 21
-4.657890319823998
 31
0.0
  0
LINE
  5
20D7
330
203B
100
AcDbEntity
  8
AM_0
 48
0.5
100
AcDbLine
 10
1.2553024292
 20
-4.318290710448998
 30
0.0
 11
-1.085899353030001
 21
-4.777397155762002
 31
0.0
  0
LINE
  5
20D8
330
203B
100
AcDbEntity
  8
AM_0
 48
0.5
100
AcDbLine
 10
-1.064521789549999
 20
-4.766689300537002
 30
0.0
 11
-1.256118774409998
 21
-4.791286468506001
 31
0.0
  0
LINE
  5
20D9
330
203B
100
AcDbEntity
  8
AM_0
 48
0.5
100
AcDbLine
 10
-1.25848388672
 20
-4.806503295897996
 30
0.0
 11
-1.16872406006
 21
-4.822547912597002
 31
0.0
  0
LINE
  5
20DA
330
203B
100
AcDbEntity
  8
AM_0
 48
0.5
100
AcDbLine
 10
-0.5547637939399977
 20
-4.673187255858998
 30
0.0
 11
-0.527053833010001
 21
-4.657806396483998
 31
0.0
  0
LINE
  5
20DB
330
203B
100
AcDbEntity
  8
AM_0
 48
0.5
100
AcDbLine
 10
-1.228507995599997
 20
-4.657493591307996
 30
0.0
 11
-0.5270004272399973
 21
-4.657920837402002
 31
0.0
  0
LINE
  5
20DC
330
203B
100
AcDbEntity
  8
AM_0
 48
0.5
100
AcDbLine
 10
-1.091079711909998
 20
-4.779560089111001
 30
0.0
 11
-1.228065490719998
 21
-4.855484008788998
 31
0.0
  0
LINE
  5
20DD
330
203B
100
AcDbEntity
  8
AM_0
 48
0.5
100
AcDbLine
 10
-1.085906982419999
 20
-4.777366638182996
 30
0.0
 11
-1.088523864739997
 21
-4.778160095215
 31
0.0
  0
LINE
  5
20DE
330
203B
100
AcDbEntity
  8
AM_0
 48
0.5
100
AcDbLine
 10
-1.09100341797
 20
-4.779468536377002
 30
0.0
 11
-1.088500976559998
 21
-4.778247833252002
 31
0.0
  0
LINE
  5
20DF
330
203B
100
AcDbEntity
  8
AM_0
 48
0.5
100
AcDbLine
 10
-1.11883544922
 20
-4.812831878662002
 30
0.0
 11
-1.091133117669997
 21
-4.779430389403998
 31
0.0
  0
LINE
  5
20E0
330
203B
100
AcDbEntity
  8
AM_0
 48
0.5
100
AcDbLine
 10
-1.090950012210001
 20
-4.779460906982002
 30
0.0
 11
-1.118728637689997
 21
-4.812839508056001
 31
0.0
  0
LINE
  5
20E1
330
203B
100
AcDbEntity
  8
AM_0
 48
0.5
100
AcDbLine
 10
-1.053665161129998
 20
-4.83406829834
 30
0.0
 11
-1.227767944329997
 21
-5.012050628662002
 31
0.0
  0
LINE
  5
20E2
330
203B
100
AcDbEntity
  8
AM_0
 48
0.5
100
AcDbLine
 10
-1.029609680169997
 20
-5.048706054687002
 30
0.0
 11
-1.226203918460001
 21
-5.177673339843998
 31
0.0
  0
LINE
  5
20E3
330
203B
100
AcDbEntity
  8
AM_0
 48
0.5
100
AcDbLine
 10
-1.025222778319999
 20
-5.256847381592002
 30
0.0
 11
-1.218719482419999
 21
-5.327644348143998
 31
0.0
  0
LINE
  5
20E4
330
203B
100
AcDbEntity
  8
AM_0
 48
0.5
100
AcDbLine
 10
-1.214973449710001
 20
-5.499526977538998
 30
0.0
 11
-1.206779479979999
 21
-6.616073608397996
 31
0.0
  0
LINE
  5
20E5
330
203B
100
AcDbEntity
  8
AM_0
 48
0.5
100
AcDbLine
 10
-1.029212951659999
 20
-5.491180419922002
 30
0.0
 11
-1.21501159668
 21
-5.499542236327997
 31
0.0
  0
LINE
  5
20E6
330
203B
100
AcDbEntity
  8
AM_0
 48
0.5
100
AcDbLine
 10
-1.02101135254
 20
-6.607685089111001
 30
0.0
 11
-1.206825256350001
 21
-6.616111755371001
 31
0.0
  0
LINE
  5
20E7
330
203B
100
AcDbEntity
  8
AM_0
 48
0.5
100
AcDbLine
 10
-1.00686645508
 20
-6.750183105468998
 30
0.0
 11
-1.020973205559997
 21
-6.607627868652002
 31
0.0
  0
LINE
  5
20E8
330
203B
100
AcDbEntity
  8
AM_0
 48
0.5
100
AcDbLine
 10
-1.029167175289998
 20
-5.491214752197002
 30
0.0
 11
-1.028770446780001
 21
-5.458194732666001
 31
0.0
  0
LINE
  5
20E9
330
203B
100
AcDbEntity
  8
AM_0
 48
0.5
100
AcDbLine
 10
-1.020988464349997
 20
-6.607658386229999
 30
0.0
 11
-1.029182434079999
 21
-5.491172790527002
 31
0.0
  0
LINE
  5
20EA
330
203B
100
AcDbEntity
  8
AM_0
 48
0.5
100
AcDbLine
 10
0.7750701904300002
 20
-3.591133117676001
 30
0.0
 11
0.7766723632799995
 21
-4.405765533447002
 31
0.0
  0
LINE
  5
20EB
330
203B
100
AcDbEntity
  8
AM_0
 48
0.5
100
AcDbLine
 10
0.7766876220699999
 20
-4.405704498291001
 30
0.0
 11
0.7581863403299991
 21
-4.415897369385
 31
0.0
  0
LINE
  5
20EC
330
203B
100
AcDbEntity
  8
AM_0
 48
0.5
100
AcDbLine
 10
1.494995117190001
 20
-5.48987197876
 30
0.0
 11
1.59669494629
 21
-4.469165802002002
 31
0.0
  0
LINE
  5
20ED
330
203B
100
AcDbEntity
  8
AM_0
 48
0.5
100
AcDbLine
 10
-4.15520477295
 20
3.802040100097997
 30
0.0
 11
-5.126205444329997
 21
4.353130340576001
 31
0.0
  0
LINE
  5
20EE
330
203B
100
AcDbEntity
  8
AM_0
 48
0.5
100
AcDbLine
 10
-5.21192932129
 20
4.188007354737003
 30
0.0
 11
-4.24090576172
 21
3.636848449707002
 31
0.0
  0
LINE
  5
20EF
330
203B
100
AcDbEntity
  8
AM_0
 48
0.5
100
AcDbLine
 10
-3.533309936519998
 20
3.493072509766001
 30
0.0
 11
-3.592010498050001
 21
3.423370361327997
 31
0.0
  0
LINE
  5
20F0
330
203B
100
AcDbEntity
  8
AM_0
 48
0.5
100
AcDbLine
 10
-3.595825195309998
 20
3.305278778076001
 30
0.0
 11
-3.52133178711
 21
3.483444213867002
 31
0.0
  0
LINE
  5
20F1
330
203B
100
AcDbEntity
  8
AM_0
 48
0.5
100
AcDbLine
 10
-3.769805908199998
 20
2.816993713378998
 30
0.0
 11
-3.770309448239999
 21
2.785320281982997
 31
0.0
  0
LINE
  5
20F2
330
203B
100
AcDbEntity
  8
AM_0
 48
0.5
100
AcDbLine
 10
-4.203659057620001
 20
1.530227661132997
 30
0.0
 11
-4.203262329099999
 21
1.551342010497997
 31
0.0
  0
LINE
  5
20F3
330
203B
100
AcDbEntity
  8
AM_0
 48
0.5
100
AcDbLine
 10
-3.419258117669997
 20
3.392623901367002
 30
0.0
 11
-3.770240783689999
 21
2.785339355468998
 31
0.0
  0
LINE
  5
20F4
330
203B
100
AcDbEntity
  8
AM_0
 48
0.5
100
AcDbLine
 10
-4.203681945799999
 20
1.530208587647003
 30
0.0
 11
-3.77028656006
 21
2.785339355468998
 31
0.0
  0
LINE
  5
20F5
330
203B
100
AcDbEntity
  8
AM_0
 48
0.5
100
AcDbLine
 10
-3.49750518799
 20
1.124366760253998
 30
0.0
 11
-4.203689575189997
 21
1.530246734618998
 31
0.0
  0
LINE
  5
20F6
330
203B
100
AcDbEntity
  8
AM_0
 48
0.5
100
AcDbLine
 10
-5.501853942869999
 20
1.450206756592002
 30
0.0
 11
-4.668754577629997
 21
0.8518218994139985
 31
0.0
  0
LINE
  5
20F7
330
203B
100
AcDbEntity
  8
AM_0
 48
0.5
100
AcDbLine
 10
-3.593627929690001
 20
3.334701538086001
 30
0.0
 11
-3.5908203125
 21
3.491230010987003
 31
0.0
  0
LINE
  5
20F8
330
203B
100
AcDbEntity
  8
AM_0
 48
0.5
100
AcDbLine
 10
-4.367561340329999
 20
1.072154998778998
 30
0.0
 11
-3.594451904300001
 21
3.329257965087997
 31
0.0
  0
LINE
  5
20F9
330
203B
100
AcDbEntity
  8
AM_0
 48
0.5
100
AcDbLine
 10
-3.59442138672
 20
3.329208374023998
 30
0.0
 11
-3.593826293939997
 21
3.331764221192003
 31
0.0
  0
LINE
  5
20FA
330
203B
100
AcDbEntity
  8
AM_0
 48
0.5
100
AcDbLine
 10
-3.593605041499998
 20
3.334499359131001
 30
0.0
 11
-3.593803405759999
 21
3.331760406493998
 31
0.0
  0
LINE
  5
20FB
330
203B
100
AcDbEntity
  8
AM_0
 48
0.5
100
AcDbLine
 10
-3.608695983879997
 20
3.375362396239999
 30
0.0
 11
-3.59359741211
 21
3.334743499756001
 31
0.0
  0
LINE
  5
20FC
330
203B
100
AcDbEntity
  8
AM_0
 48
0.5
100
AcDbLine
 10
-3.5936126709
 20
3.334526062012002
 30
0.0
 11
-3.608695983879997
 21
3.375278472901001
 31
0.0
  0
LINE
  5
20FD
330
203B
100
AcDbEntity
  8
AM_0
 48
0.5
100
AcDbLine
 10
-3.659591674799997
 20
3.329528808593998
 30
0.0
 11
-3.726699829099999
 21
3.5693359375
 31
0.0
  0
LINE
  5
20FE
330
203B
100
AcDbEntity
  8
AM_0
 48
0.5
100
AcDbLine
 10
-3.857421875
 20
3.41605758667
 30
0.0
 11
-3.870811462399998
 21
3.650722503662002
 31
0.0
  0
LINE
  5
20FF
330
203B
100
AcDbEntity
  8
AM_0
 48
0.5
100
AcDbLine
 10
-4.03988647461
 20
3.516235351562997
 30
0.0
 11
-4.00447845459
 21
3.719318389892997
 31
0.0
  0
LINE
  5
2100
330
203B
100
AcDbEntity
  8
AM_0
 48
0.5
100
AcDbLine
 10
-4.240898132319998
 20
3.636825561523998
 30
0.0
 11
-4.155189514159999
 21
3.802013397217002
 31
0.0
  0
LINE
  5
2101
330
203B
100
AcDbEntity
  8
AM_0
 48
0.5
100
AcDbLine
 10
-4.240898132319998
 20
3.636837005614999
 30
0.0
 11
-4.212425231929998
 21
3.620121002197002
 31
0.0
  0
LINE
  5
2102
330
203B
100
AcDbEntity
  8
AM_0
 48
0.5
100
AcDbLine
 10
-5.211837768549997
 20
4.188011169433998
 30
0.0
 11
-5.126136779779997
 21
4.353096008301001
 31
0.0
  0
LINE
  5
2103
330
203B
100
AcDbEntity
  8
AM_0
 48
0.5
100
AcDbLine
 10
-5.342414855960001
 20
4.24715423584
 30
0.0
 11
-5.2119140625
 21
4.188007354737003
 31
0.0
  0
LINE
  5
2104
330
203B
100
AcDbEntity
  8
AM_0
 48
0.5
100
AcDbLine
 10
4.006904602049999
 20
4.039657592773998
 30
0.0
 11
3.07211303711
 21
3.617359161377002
 31
0.0
  0
LINE
  5
2105
330
203B
100
AcDbEntity
  8
AM_0
 48
0.5
100
AcDbLine
 10
4.66040802002
 20
1.461429595947002
 30
0.0
 11
4.777420043950002
 21
1.307796478272003
 31
0.0
  0
LINE
  5
2106
330
203B
100
AcDbEntity
  8
AM_0
 48
0.5
100
AcDbLine
 10
4.324661254879998
 20
1.856266021728998
 30
0.0
 11
4.297485351559998
 21
1.872550964356001
 31
0.0
  0
LINE
  5
2107
330
203B
100
AcDbEntity
  8
AM_0
 48
0.5
100
AcDbLine
 10
3.427085876470002
 20
2.875431060791001
 30
0.0
 11
3.445083618170002
 21
2.864498138427997
 31
0.0
  0
LINE
  5
2108
330
203B
100
AcDbEntity
  8
AM_0
 48
0.5
100
AcDbLine
 10
4.647789001470002
 20
1.264839172362997
 30
0.0
 11
4.297416687009999
 21
1.872478485107997
 31
0.0
  0
LINE
  5
2109
330
203B
100
AcDbEntity
  8
AM_0
 48
0.5
100
AcDbLine
 10
3.42710876465
 20
2.875450134277997
 30
0.0
 11
4.297401428219998
 21
1.872528076172002
 31
0.0
  0
LINE
  5
210A
330
203B
100
AcDbEntity
  8
AM_0
 48
0.5
100
AcDbLine
 10
2.72241973877
 20
2.466857910156001
 30
0.0
 11
3.427131652829999
 21
2.875484466552997
 31
0.0
  0
LINE
  5
210B
330
203B
100
AcDbEntity
  8
AM_0
 48
0.5
100
AcDbLine
 10
4.791801452640001
 20
1.313304901122997
 30
0.0
 11
4.760795593259999
 21
1.399124145507997
 31
0.0
  0
LINE
  5
210C
330
203B
100
AcDbEntity
  8
AM_0
 48
0.5
100
AcDbLine
 10
4.68473815918
 20
1.444862365722997
 30
0.0
 11
4.818939208990002
 21
1.364177703857997
 31
0.0
  0
LINE
  5
210D
330
203B
100
AcDbEntity
  8
AM_0
 48
0.5
100
AcDbLine
 10
3.112213134770001
 20
3.246360778808998
 30
0.0
 11
4.680404663090001
 21
1.448276519776001
 31
0.0
  0
LINE
  5
210E
330
203B
100
AcDbEntity
  8
AM_0
 48
0.5
100
AcDbLine
 10
4.680435180670002
 20
1.448261260987003
 30
0.0
 11
4.682418823239999
 21
1.446449279784999
 31
0.0
  0
LINE
  5
210F
330
203B
100
AcDbEntity
  8
AM_0
 48
0.5
100
AcDbLine
 10
4.684593200690002
 20
1.444877624512002
 30
0.0
 11
4.682388305670002
 21
1.446411132812997
 31
0.0
  0
LINE
  5
2110
330
203B
100
AcDbEntity
  8
AM_0
 48
0.5
100
AcDbLine
 10
4.72747039795
 20
1.437480926513998
 30
0.0
 11
4.684661865240002
 21
1.444805145263998
 31
0.0
  0
LINE
  5
2111
330
203B
100
AcDbEntity
  8
AM_0
 48
0.5
100
AcDbLine
 10
4.6845703125
 20
1.444873809815
 30
0.0
 11
4.72748565674
 21
1.437484741211001
 31
0.0
  0
LINE
  5
2112
330
203B
100
AcDbEntity
  8
AM_0
 48
0.5
100
AcDbLine
 10
4.713294982909999
 20
1.504467010497997
 30
0.0
 11
4.954483032230001
 21
1.442638397217002
 31
0.0
  0
LINE
  5
2113
330
203B
100
AcDbEntity
  8
AM_0
 48
0.5
100
AcDbLine
 10
4.887084960940001
 20
1.632686614989999
 30
0.0
 11
5.097091674810002
 21
1.526851654052997
 31
0.0
  0
LINE
  5
2114
330
203B
100
AcDbEntity
  8
AM_0
 48
0.5
100
AcDbLine
 10
5.065231323239999
 20
1.740566253662002
 30
0.0
 11
5.223335266120002
 21
1.608421325683998
 31
0.0
  0
LINE
  5
2115
330
203B
100
AcDbEntity
  8
AM_0
 48
0.5
100
AcDbLine
 10
5.27011871338
 20
1.854312896728998
 30
0.0
 11
5.37031555176
 21
1.697494506836001
 31
0.0
  0
LINE
  5
2116
330
203B
100
AcDbEntity
  8
AM_0
 48
0.5
100
AcDbLine
 10
5.270080566410001
 20
1.854316711426001
 30
0.0
 11
5.241271972660001
 21
1.838020324707002
 31
0.0
  0
ARC
  5
2117
330
203B
100
AcDbEntity
  8
AM_0
 48
0.5
100
AcDbCircle
 10
0.0
 20
0.0
 30
0.0
 40
10.500029563903
100
AcDbArc
 50
340.0111594033698
 51
20.66168082421905
  0
ARC
  5
2118
330
203B
100
AcDbEntity
  8
AM_0
 48
0.5
100
AcDbCircle
 10
0.0
 20
0.0
 30
0.0
 40
9.7843647003174
100
AcDbArc
 50
343.4908966062272
 51
22.75315304997179
  0
ARC
  5
2119
330
203B
100
AcDbEntity
  8
AM_0
 48
0.5
100
AcDbCircle
 10
0.0
 20
0.0
 30
0.0
 40
9.5726289749146
100
AcDbArc
 50
343.1655729885141
 51
22.6842774223777
  0
LINE
  5
211A
330
203B
100
AcDbEntity
  8
AM_0
 48
0.5
100
AcDbLine
 10
9.798614501949998
 20
-3.141166687012002
 30
0.0
 11
9.867515563962001
 21
-3.589271545409999
 31
0.0
  0
LINE
  5
211B
330
203B
100
AcDbEntity
  8
AM_0
 48
0.5
100
AcDbLine
 10
9.617095947262995
 20
-2.983837127684999
 30
0.0
 11
9.798591613767001
 21
-3.141132354736001
 31
0.0
  0
LINE
  5
211C
330
203B
100
AcDbEntity
  8
AM_0
 48
0.5
100
AcDbLine
 10
9.380989074704004
 20
-2.780387878417997
 30
0.0
 11
9.510200500485993
 21
-2.891590118407997
 31
0.0
  0
LINE
  5
211D
330
203B
100
AcDbEntity
  8
AM_0
 48
0.5
100
AcDbLine
 10
9.380996704099004
 20
-2.780387878417997
 30
0.0
 11
9.162414550779999
 21
-2.772270202637002
 31
0.0
  0
LINE
  5
211E
330
203B
100
AcDbEntity
  8
AM_0
 48
0.5
100
AcDbLine
 10
9.820098876949998
 20
3.768333435058998
 30
0.0
 11
9.091598510739999
 21
5.979156494141001
 31
0.0
  0
LINE
  5
211F
330
203B
100
AcDbEntity
  8
AM_0
 48
0.5
100
AcDbLine
 10
9.238006591800001
 20
4.1178855896
 30
0.0
 11
9.816421508785992
 21
3.770278930663998
 31
0.0
  0
LINE
  5
2120
330
203B
100
AcDbEntity
  8
AM_0
 48
0.5
100
AcDbLine
 10
8.920715332029999
 20
3.995700836182003
 30
0.0
 11
8.864013671880002
 21
3.956756591797002
 31
0.0
  0
LINE
  5
2121
330
203B
100
AcDbEntity
  8
AM_0
 48
0.5
100
AcDbLine
 10
6.848556518560002
 20
6.411525726318998
 30
0.0
 11
6.349250793460001
 21
2.503101348877002
 31
0.0
  0
LINE
  5
2122
330
203B
100
AcDbEntity
  8
AM_0
 48
0.5
100
AcDbLine
 10
6.333114624030002
 20
2.262847900391001
 30
0.0
 11
8.941619873050001
 21
3.768829345702997
 31
0.0
  0
LINE
  5
2123
330
203B
100
AcDbEntity
  8
AM_0
 48
0.5
100
AcDbLine
 10
8.83383178711
 20
3.937534332276001
 30
0.0
 11
6.349342346189999
 21
2.503147125243998
 31
0.0
  0
LINE
  5
2124
330
203B
100
AcDbEntity
  8
AM_0
 48
0.5
100
AcDbLine
 10
6.232933044440002
 20
2.419631958007997
 30
0.0
 11
6.333137512210001
 21
2.262813568114999
 31
0.0
  0
LINE
  5
2125
330
203B
100
AcDbEntity
  8
AM_0
 48
0.5
100
AcDbLine
 10
6.349143981940002
 20
2.503242492676001
 30
0.0
 11
6.232749938970002
 21
2.419746398926001
 31
0.0
  0
ARC
  5
2126
330
203B
100
AcDbEntity
  8
AM_0
 48
0.5
100
AcDbCircle
 10
-0.1232910156199978
 20
-0.0075073242189987
 30
0.0
 40
10.406634330749
100
AcDbArc
 50
19.26650540321615
 51
19.52979212024937
  0
LINE
  5
2127
330
203B
100
AcDbEntity
  8
AM_0
 48
0.5
100
AcDbLine
 10
9.022888183600002
 20
3.784248352051001
 30
0.0
 11
8.832092285160001
 21
3.691715240478998
 31
0.0
  0
LINE
  5
2128
330
203B
100
AcDbEntity
  8
AM_0
 48
0.5
100
AcDbLine
 10
9.820121765134004
 20
3.768341064452997
 30
0.0
 11
9.818237304684998
 21
3.76974105835
 31
0.0
  0
LINE
  5
2129
330
203B
100
AcDbEntity
  8
AM_0
 48
0.5
100
AcDbLine
 10
9.695800781247001
 20
3.480590820312997
 30
0.0
 11
9.661201477047995
 21
3.452632904052997
 31
0.0
  0
LINE
  5
212A
330
203B
100
AcDbEntity
  8
AM_0
 48
0.5
100
AcDbLine
 10
9.818191528317996
 20
3.769767761231001
 30
0.0
 11
9.816291809079004
 21
3.770435333252002
 31
0.0
  0
LINE
  5
212B
330
203B
100
AcDbEntity
  8
AM_0
 48
0.5
100
AcDbLine
 10
9.800857543942996
 20
3.730075836182003
 30
0.0
 11
9.816360473629998
 21
3.770351409912002
 31
0.0
  0
LINE
  5
212C
330
203B
100
AcDbEntity
  8
AM_0
 48
0.5
100
AcDbLine
 10
9.720993041989999
 20
3.517841339112003
 30
0.0
 11
9.142807006840001
 21
3.865245819092002
 31
0.0
  0
LINE
  5
212D
330
203B
100
AcDbEntity
  8
AM_0
 48
0.5
100
AcDbLine
 10
9.720993041989999
 20
3.517864227295
 30
0.0
 11
9.800880432125993
 21
3.730068206787002
 31
0.0
  0
LINE
  5
212E
330
203B
100
AcDbEntity
  8
AM_0
 48
0.5
100
AcDbLine
 10
8.863914489750001
 20
3.956893920898998
 30
0.0
 11
8.833717346189999
 21
3.937606811523998
 31
0.0
  0
LINE
  5
212F
330
203B
100
AcDbEntity
  8
AM_0
 48
0.5
100
AcDbLine
 10
8.041793823239999
 20
7.354030609131001
 30
0.0
 11
8.079399108890001
 21
7.361846923827997
 31
0.0
  0
LINE
  5
2130
330
203B
100
AcDbEntity
  8
AM_0
 48
0.5
100
AcDbLine
 10
6.848587036129998
 20
6.411544799805
 30
0.0
 11
7.731689453130002
 21
7.13444519043
 31
0.0
  0
LINE
  5
2131
330
203B
100
AcDbEntity
  8
AM_0
 48
0.5
100
AcDbLine
 10
9.08857727051
 20
5.983898162842002
 30
0.0
 11
9.09156036377
 21
5.979141235352003
 31
0.0
  0
LINE
  5
2132
330
203B
100
AcDbEntity
  8
AM_0
 48
0.5
100
AcDbLine
 10
9.23799133301
 20
4.117938995362003
 30
0.0
 11
9.233787536619999
 21
4.12215423584
 31
0.0
  0
LINE
  5
2133
330
203B
100
AcDbEntity
  8
AM_0
 48
0.5
100
AcDbLine
 10
-2.179000854489999
 20
10.056507110596
 30
0.0
 11
-1.825401306149998
 21
10.34020233154299
 31
0.0
  0
LINE
  5
2134
330
203B
100
AcDbEntity
  8
AM_0
 48
0.5
100
AcDbLine
 10
-2.28257751465
 20
9.514339447022003
 30
0.0
 11
-2.250885009759997
 21
9.681838989257997
 31
0.0
  0
LINE
  5
2135
330
203B
100
AcDbEntity
  8
AM_0
 48
0.5
100
AcDbLine
 10
-2.224365234369997
 20
9.820629119872997
 30
0.0
 11
-2.178871154779997
 21
10.05639266967799
 31
0.0
  0
LINE
  5
2136
330
203B
100
AcDbEntity
  8
AM_0
 48
0.5
100
AcDbLine
 10
-2.282608032219997
 20
9.514339447022003
 30
0.0
 11
-2.180320739739997
 21
9.321048736572002
 31
0.0
  0
ENDBLK
  5
2138
330
203B
100
AcDbEntity
  8
0
100
AcDbBlockEnd
  0
BLOCK
  5
2235
330
2139
100
AcDbEntity
  8
0
100
AcDbBlockBegin
  2
A$C77146ED9
 70
     0
 10
0.0
 20
0.0
 30
0.0
  3
A$C77146ED9
  1

  0
SPLINE
  5
213A
330
2139
100
AcDbEntity
  8
AM_0
 48
0.5
100
AcDbSpline
210
0.0
220
0.0
230
1.0
 70
     8
 71
     3
 72
    11
 73
     7
 74
     5
 42
0.0000000001
 43
0.0000000001
 44
0.0000000001
 40
0.0
 40
0.0
 40
0.0
 40
0.0
 40
0.0743123659344149
 40
0.1595603144593158
 40
0.2561926919939664
 40
0.3645865972928433
 40
0.3645865972928433
 40
0.3645865972928433
 40
0.3645865972928433
 10
-3.714996337889999
 20
0.5510864257810013
 30
0.0
 10
-3.694688672780365
 20
0.5653016550295983
 30
0.0
 10
-3.651084928099603
 20
0.5958239835882021
 30
0.0
 10
-3.587133779079425
 20
0.6526442013021935
 30
0.0
 10
-3.51837327989994
 20
0.7207681671625612
 30
0.0
 10
-3.473055446632646
 20
0.7719514828341298
 30
0.0
 10
-3.449096679690001
 20
0.799011230468004
 30
0.0
 11
-3.714996337889999
 21
0.5510864257810013
 31
0.0
 11
-3.654891967769998
 21
0.5947875976560013
 31
0.0
 11
-3.590484619139999
 21
0.6506347656250036
 31
0.0
 11
-3.521881103509997
 21
0.718688964843004
 31
0.0
 11
-3.449096679690001
 21
0.799011230468004
 31
0.0
  0
SPLINE
  5
213B
330
2139
100
AcDbEntity
  8
AM_0
 48
0.5
100
AcDbSpline
210
0.0
220
0.0
230
1.0
 70
     8
 71
     3
 72
    11
 73
     7
 74
     5
 42
0.0000000001
 43
0.0000000001
 44
0.0000000001
 40
0.0
 40
0.0
 40
0.0
 40
0.0
 40
0.0207422570432799
 40
0.0351885916331658
 40
0.0438104555878858
 40
0.0488857637193775
 40
0.0488857637193775
 40
0.0488857637193775
 40
0.0488857637193775
 10
-6.90838623047
 20
6.355834960937002
 30
0.0
 10
-6.915068059578011
 20
6.357979639170954
 30
0.0
 10
-6.926403574095733
 20
6.361618018851702
 30
0.0
 10
-6.939986097995119
 20
6.364088765257069
 30
0.0
 10
-6.95088205301361
 20
6.365369860604356
 30
0.0
 10
-6.953220005840664
 20
6.361084831757462
 30
0.0
 10
-6.954086303709999
 20
6.359497070312002
 30
0.0
 11
-6.90838623047
 21
6.355834960937002
 31
0.0
 11
-6.928283691410001
 21
6.361694335937002
 31
0.0
 11
-6.942489624019998
 21
6.364318847656001
 31
0.0
 11
-6.951080322259997
 21
6.363586425781001
 31
0.0
 11
-6.954086303709999
 21
6.359497070312002
 31
0.0
  0
SPLINE
  5
213C
330
2139
100
AcDbEntity
  8
AM_0
 48
0.5
100
AcDbSpline
210
0.0
220
0.0
230
1.0
 70
     8
 71
     3
 72
    11
 73
     7
 74
     5
 42
0.0000000001
 43
0.0000000001
 44
0.0000000001
 40
0.0
 40
0.0
 40
0.0
 40
0.0
 40
0.4501475228110718
 40
0.8848252550524357
 40
1.304081661101624
 40
1.708020156227326
 40
1.708020156227326
 40
1.708020156227326
 40
1.708020156227326
 10
-8.77279663086
 20
4.578308105468003
 30
0.0
 10
-8.835884925092994
 20
4.442164245010874
 30
0.0
 10
-8.95989341832414
 20
4.174555250296132
 30
0.0
 10
-9.137129062720863
 20
3.777622940554696
 30
0.0
 10
-9.304419836920692
 20
3.393135367604617
 30
0.0
 10
-9.409784695418007
 20
3.139768176899397
 30
0.0
 10
-9.461486816410001
 20
3.015441894531001
 30
0.0
 11
-8.77279663086
 21
4.578308105468003
 31
0.0
 11
-8.961090087889999
 21
4.16943359375
 31
0.0
 11
-9.138580322259997
 21
3.772644042968003
 31
0.0
 11
-9.305389404300001
 21
3.388000488281001
 31
0.0
 11
-9.461486816410001
 21
3.015441894531001
 31
0.0
  0
SPLINE
  5
213D
330
2139
100
AcDbEntity
  8
AM_0
 48
0.5
100
AcDbSpline
210
0.0
220
0.0
230
1.0
 70
     8
 71
     3
 72
    11
 73
     7
 74
     5
 42
0.0000000001
 43
0.0000000001
 44
0.0000000001
 40
0.0
 40
0.0
 40
0.0
 40
0.0
 40
0.0564972134855382
 40
0.1129591950071186
 40
0.1695265390454605
 40
0.2260087064526634
 40
0.2260087064526634
 40
0.2260087064526634
 40
0.2260087064526634
 10
-6.954086303709999
 20
6.359497070312002
 30
0.0
 10
-6.972654713206834
 20
6.356354769185347
 30
0.0
 10
-7.00977995284121
 20
6.350072126487797
 30
0.0
 10
-7.065524310469466
 20
6.340808200524241
 30
0.0
 10
-7.121270078571034
 20
6.331583286718657
 30
0.0
 10
-7.158423820188564
 20
6.325288551117754
 30
0.0
 10
-7.176986694340001
 20
6.322143554687002
 30
0.0
 11
-6.954086303709999
 21
6.359497070312002
 31
0.0
 11
-7.00979614258
 21
6.35009765625
 31
0.0
 11
-7.065490722660001
 21
6.3408203125
 31
0.0
 11
-7.12129211426
 21
6.33154296875
 31
0.0
 11
-7.176986694340001
 21
6.322143554687002
 31
0.0
  0
SPLINE
  5
213E
330
2139
100
AcDbEntity
  8
AM_0
 48
0.5
100
AcDbSpline
210
0.0
220
0.0
230
1.0
 70
     8
 71
     3
 72
    11
 73
     7
 74
     5
 42
0.0000000001
 43
0.0000000001
 44
0.0000000001
 40
0.0
 40
0.0
 40
0.0
 40
0.0
 40
0.0271346106806065
 40
0.0469849288240612
 40
0.0600543733802796
 40
0.0690860427613528
 40
0.0690860427613528
 40
0.0690860427613528
 40
0.0690860427613528
 10
-2.705886840819999
 20
3.028930664062002
 30
0.0
 10
-2.697120431266358
 20
3.026431708660786
 30
0.0
 10
-2.681940956839079
 20
3.022104643016002
 30
0.0
 10
-2.662571064436721
 20
3.019574613155633
 30
0.0
 10
-2.647279336497484
 20
3.019940005678842
 30
0.0
 10
-2.642598762242607
 20
3.026019158601322
 30
0.0
 10
-2.640686035160001
 20
3.028503417968003
 30
0.0
 11
-2.705886840819999
 21
3.028930664062002
 31
0.0
 11
-2.679595947259997
 21
3.022216796875
 31
0.0
 11
-2.659881591800001
 21
3.019897460937002
 31
0.0
 11
-2.64698791504
 21
3.022033691406001
 31
0.0
 11
-2.640686035160001
 21
3.028503417968003
 31
0.0
  0
SPLINE
  5
213F
330
2139
100
AcDbEntity
  8
AM_0
 48
0.5
100
AcDbSpline
210
0.0
220
0.0
230
1.0
 70
     8
 71
     3
 72
    11
 73
     7
 74
     5
 42
0.0000000001
 43
0.0000000001
 44
0.0000000001
 40
0.0
 40
0.0
 40
0.0
 40
0.0
 40
0.0506474125076578
 40
0.1935495362170898
 40
0.4126844102196118
 40
0.6804347763626737
 40
0.6804347763626737
 40
0.6804347763626737
 40
0.6804347763626737
 10
-3.413787841800001
 20
0.771423339843004
 30
0.0
 10
-3.430615559937814
 20
0.7730841896525598
 30
0.0
 10
-3.494922834088752
 20
0.7794311419340251
 30
0.0
 10
-3.626116100336385
 20
0.8240680260589263
 30
0.0
 10
-3.826512757422666
 20
0.8850752946299998
 30
0.0
 10
-3.979212977074791
 20
0.9404004881910989
 30
0.0
 10
-4.06318664551
 20
0.9708251953120026
 30
0.0
 11
-3.413787841800001
 21
0.771423339843004
 31
0.0
 11
-3.464080810550001
 21
0.7774047851560013
 31
0.0
 11
-3.60189819336
 21
0.8151855468750035
 31
0.0
 11
-3.810592651370001
 21
0.8820190429680039
 31
0.0
 11
-4.06318664551
 21
0.9708251953120026
 31
0.0
  0
SPLINE
  5
2140
330
2139
100
AcDbEntity
  8
AM_0
 48
0.5
100
AcDbSpline
210
0.0
220
0.0
230
1.0
 70
     8
 71
     3
 72
    11
 73
     7
 74
     5
 42
0.0000000001
 43
0.0000000001
 44
0.0000000001
 40
0.0
 40
0.0
 40
0.0
 40
0.0
 40
0.0389117670543026
 40
0.0778288262031494
 40
0.116688648266995
 40
0.1556004153212976
 40
0.1556004153212976
 40
0.1556004153212976
 40
0.1556004153212976
 10
-2.708984375
 20
3.220642089843003
 30
0.0
 10
-2.704488644829257
 20
3.208475554377913
 30
0.0
 10
-2.695496573057583
 20
3.184140828769447
 30
0.0
 10
-2.682005301694284
 20
3.147659305916568
 30
0.0
 10
-2.668471442959266
 20
3.111193552876419
 30
0.0
 10
-2.65949166643581
 20
3.086874619470985
 30
0.0
 10
-2.654998779300001
 20
3.07470703125
 30
0.0
 11
-2.708984375
 21
3.220642089843003
 31
0.0
 11
-2.69549560547
 21
3.184143066406001
 31
0.0
 11
-2.68199157715
 21
3.147644042968003
 31
0.0
 11
-2.66848754883
 21
3.111206054687002
 31
0.0
 11
-2.654998779300001
 21
3.07470703125
 31
0.0
  0
SPLINE
  5
2141
330
2139
100
AcDbEntity
  8
AM_0
 48
0.5
100
AcDbSpline
210
0.0
220
0.0
230
1.0
 70
     8
 71
     3
 72
    11
 73
     7
 74
     5
 42
0.0000000001
 43
0.0000000001
 44
0.0000000001
 40
0.0
 40
0.0
 40
0.0
 40
0.0
 40
0.0206572278025089
 40
0.0350925987258019
 40
0.0437094923875091
 40
0.0487848005190008
 40
0.0487848005190008
 40
0.0487848005190008
 40
0.0487848005190008
 10
-2.778778076169999
 20
3.289611816406001
 30
0.0
 10
-2.772136418318602
 20
3.287420338790028
 30
0.0
 10
-2.760853537765537
 20
3.283697445992931
 30
0.0
 10
-2.74728301394041
 20
3.281411338647613
 30
0.0
 10
-2.73638746707183
 20
3.280005268737456
 30
0.0
 10
-2.734050909577117
 20
3.284297619897159
 30
0.0
 10
-2.733184814449998
 20
3.285888671875
 30
0.0
 11
-2.778778076169999
 21
3.289611816406001
 31
0.0
 11
-2.75898742676
 21
3.28369140625
 31
0.0
 11
-2.744781494139999
 21
3.281127929687002
 31
0.0
 11
-2.7361907959
 21
3.281799316406001
 31
0.0
 11
-2.733184814449998
 21
3.285888671875
 31
0.0
  0
SPLINE
  5
2142
330
2139
100
AcDbEntity
  8
AM_0
 48
0.5
100
AcDbSpline
210
0.0
220
0.0
230
1.0
 70
     8
 71
     3
 72
    11
 73
     7
 74
     5
 42
0.0000000001
 43
0.0000000001
 44
0.0000000001
 40
0.0
 40
0.0
 40
0.0
 40
0.0
 40
0.0287174788344062
 40
0.0633948520860007
 40
0.1041601713746219
 40
0.1510346150602815
 40
0.1510346150602815
 40
0.1510346150602815
 40
0.1510346150602815
 10
-2.778778076169999
 20
3.289611816406001
 30
0.0
 10
-2.787777806097494
 20
3.292877180561339
 30
0.0
 10
-2.807645028803826
 20
3.300085587637333
 30
0.0
 10
-2.839625581593988
 20
3.313640131018871
 30
0.0
 10
-2.876688836332533
 20
3.330634763526676
 30
0.0
 10
-2.903007244557565
 20
3.343315381785669
 30
0.0
 10
-2.917083740229998
 20
3.35009765625
 30
0.0
 11
-2.778778076169999
 21
3.289611816406001
 31
0.0
 11
-2.80569458008
 21
3.299621582031001
 31
0.0
 11
-2.837692260739999
 21
3.31298828125
 31
0.0
 11
-2.874786376949998
 21
3.329895019531001
 31
0.0
 11
-2.917083740229998
 21
3.35009765625
 31
0.0
  0
SPLINE
  5
2143
330
2139
100
AcDbEntity
  8
AM_0
 48
0.5
100
AcDbSpline
210
0.0
220
0.0
230
1.0
 70
     8
 71
     3
 72
    11
 73
     7
 74
     5
 42
0.0000000001
 43
0.0000000001
 44
0.0000000001
 40
0.0
 40
0.0
 40
0.0
 40
0.0
 40
0.0676134626237362
 40
0.1262378989977962
 40
0.1756999763076367
 40
0.2160778143718561
 40
0.2160778143718561
 40
0.2160778143718561
 40
0.2160778143718561
 10
-2.903686523440001
 20
3.115417480468003
 30
0.0
 10
-2.883509702729257
 20
3.10537030120423
 30
0.0
 10
-2.845838514830571
 20
3.086611687876419
 30
0.0
 10
-2.792587195069316
 20
3.062232203444913
 30
0.0
 10
-2.747020149429373
 20
3.04283363969455
 30
0.0
 10
-2.718641430960138
 20
3.033241689892807
 30
0.0
 10
-2.705886840819999
 20
3.028930664062002
 30
0.0
 11
-2.903686523440001
 21
3.115417480468003
 31
0.0
 11
-2.842987060550001
 21
3.085632324218003
 31
0.0
 11
-2.789688110349999
 21
3.061218261718003
 31
0.0
 11
-2.74398803711
 21
3.042297363281001
 31
0.0
 11
-2.705886840819999
 21
3.028930664062002
 31
0.0
  0
SPLINE
  5
2144
330
2139
100
AcDbEntity
  8
AM_0
 48
0.5
100
AcDbSpline
210
0.0
220
0.0
230
1.0
 70
     8
 71
     3
 72
    11
 73
     7
 74
     5
 42
0.0000000001
 43
0.0000000001
 44
0.0000000001
 40
0.0
 40
0.0
 40
0.0
 40
0.0
 40
0.0559239927372535
 40
0.1092873007124415
 40
0.1600682228823782
 40
0.208235579742617
 40
0.208235579742617
 40
0.208235579742617
 40
0.208235579742617
 10
-3.086181640619997
 20
3.215637207031001
 30
0.0
 10
-3.070081294783161
 20
3.206240463651189
 30
0.0
 10
-3.038617816391846
 20
3.18787724119152
 30
0.0
 10
-2.991976210216458
 20
3.161960823722954
 30
0.0
 10
-2.947353471220401
 20
3.137736878692027
 30
0.0
 10
-2.917983586046607
 20
3.12272510900562
 30
0.0
 10
-2.903686523440001
 20
3.115417480468003
 30
0.0
 11
-3.086181640619997
 21
3.215637207031001
 31
0.0
 11
-3.03778076172
 21
3.187622070312002
 31
0.0
 11
-2.991180419919999
 21
3.16162109375
 31
0.0
 11
-2.94648742676
 21
3.137512207031001
 31
0.0
 11
-2.903686523440001
 21
3.115417480468003
 31
0.0
  0
SPLINE
  5
2145
330
2139
100
AcDbEntity
  8
AM_0
 48
0.5
100
AcDbSpline
210
0.0
220
0.0
230
1.0
 70
     8
 71
     3
 72
    11
 73
     7
 74
     5
 42
0.0000000001
 43
0.0000000001
 44
0.0000000001
 40
0.0
 40
0.0
 40
0.0
 40
0.0
 40
0.0416421830706627
 40
0.0841136183595885
 40
0.127523400976065
 40
0.1719161067756516
 40
0.1719161067756516
 40
0.1719161067756516
 40
0.1719161067756516
 10
-3.05078125
 20
3.418640136718003
 30
0.0
 10
-3.063029953006216
 20
3.425170557254444
 30
0.0
 10
-3.087771276685538
 20
3.438361443519886
 30
0.0
 10
-3.125074238725023
 20
3.458743826097553
 30
0.0
 10
-3.163098805094762
 20
3.479716652027741
 30
0.0
 10
-3.188599317817183
 20
3.494080466732106
 30
0.0
 10
-3.201492309569999
 20
3.501342773437002
 30
0.0
 11
-3.05078125
 21
3.418640136718003
 31
0.0
 11
-3.087493896479998
 21
3.438293457031001
 31
0.0
 11
-3.124786376949998
 21
3.458618164062002
 31
0.0
 11
-3.16278076172
 21
3.479614257812002
 31
0.0
 11
-3.201492309569999
 21
3.501342773437002
 31
0.0
  0
SPLINE
  5
2146
330
2139
100
AcDbEntity
  8
AM_0
 48
0.5
100
AcDbSpline
210
0.0
220
0.0
230
1.0
 70
     8
 71
     3
 72
    11
 73
     7
 74
     5
 42
0.0000000001
 43
0.0000000001
 44
0.0000000001
 40
0.0
 40
0.0
 40
0.0
 40
0.0
 40
0.0516812099487813
 40
0.1024278958371929
 40
0.1523787485115128
 40
0.2013214946113714
 40
0.2013214946113714
 40
0.2013214946113714
 40
0.2013214946113714
 10
-3.258697509759997
 20
3.319396972656001
 30
0.0
 10
-3.244041979009269
 20
3.310342153361345
 30
0.0
 10
-3.214995925740351
 20
3.292396248293396
 30
0.0
 10
-3.171552715898419
 20
3.266077637588154
 30
0.0
 10
-3.128710855422538
 20
3.240530591999311
 30
0.0
 10
-3.100261375638342
 20
3.223878418764882
 30
0.0
 10
-3.086181640619997
 20
3.215637207031001
 30
0.0
 11
-3.258697509759997
 21
3.319396972656001
 31
0.0
 11
-3.21469116211
 21
3.292297363281001
 31
0.0
 11
-3.171295166009997
 21
3.265991210937002
 31
0.0
 11
-3.128387451169999
 21
3.240417480468003
 31
0.0
 11
-3.086181640619997
 21
3.215637207031001
 31
0.0
  0
ELLIPSE
  5
2147
330
2139
100
AcDbEntity
  8
AM_0
 48
0.5
100
AcDbEllipse
 10
-6.76728820801
 20
5.570434570312002
 30
0.0
 11
-0.1975860677000014
 21
0.1149902263300007
 31
0.0
210
0.0
220
0.0
230
1.0
 40
0.0781877217101
 41
0.0
 42
0.6177700365849846
  0
SPLINE
  5
2148
330
2139
100
AcDbEntity
  8
AM_0
 48
0.5
100
AcDbSpline
210
0.0
220
0.0
230
1.0
 70
     8
 71
     3
 72
    11
 73
     7
 74
     5
 42
0.0000000001
 43
0.0000000001
 44
0.0000000001
 40
0.0
 40
0.0
 40
0.0
 40
0.0
 40
0.0095139008672987
 40
0.0221086425291743
 40
0.0391478460775567
 40
0.0611172860931085
 40
0.0611172860931085
 40
0.0611172860931085
 40
0.0611172860931085
 10
-7.23309326172
 20
5.634887695312002
 30
0.0
 10
-7.233712643248351
 20
5.631712861515222
 30
0.0
 10
-7.235151977648666
 20
5.624335102751326
 30
0.0
 10
-7.229562658680928
 20
5.61188375348717
 30
0.0
 10
-7.220105512222113
 20
5.59766910194879
 30
0.0
 10
-7.211273158246323
 20
5.588055772505909
 30
0.0
 10
-7.206298828119997
 20
5.582641601562002
 30
0.0
 11
-7.23309326172
 21
5.634887695312002
 31
0.0
 11
-7.234100341800001
 21
5.625427246093003
 31
0.0
 11
-7.22998046875
 21
5.613525390625
 31
0.0
 11
-7.220687866209999
 21
5.599243164062002
 31
0.0
 11
-7.206298828119997
 21
5.582641601562002
 31
0.0
  0
SPLINE
  5
2149
330
2139
100
AcDbEntity
  8
AM_0
 48
0.5
100
AcDbSpline
210
0.0
220
0.0
230
1.0
 70
     8
 71
     3
 72
    11
 73
     7
 74
     5
 42
0.0000000001
 43
0.0000000001
 44
0.0000000001
 40
0.0
 40
0.0
 40
0.0
 40
0.0
 40
0.1153804854945066
 40
0.2242254323513602
 40
0.3156307613279878
 40
0.3805010278890321
 40
0.3805010278890321
 40
0.3805010278890321
 40
0.3805010278890321
 10
-9.090789794919999
 20
2.828002929687002
 30
0.0
 10
-9.12666376776537
 20
2.841889382095322
 30
0.0
 10
-9.196379691016513
 20
2.868875711557687
 30
0.0
 10
-9.292802843619599
 20
2.910903698796224
 30
0.0
 10
-9.373160715934268
 20
2.948040477177922
 30
0.0
 10
-9.417559407285645
 20
2.975355728478929
 30
0.0
 10
-9.435989379879998
 20
2.986694335937002
 30
0.0
 11
-9.090789794919999
 21
2.828002929687002
 31
0.0
 11
-9.19808959961
 21
2.870422363281001
 31
0.0
 11
-9.297988891599999
 21
2.913635253906001
 31
0.0
 11
-9.380187988279999
 21
2.95361328125
 31
0.0
 11
-9.435989379879998
 21
2.986694335937002
 31
0.0
  0
SPLINE
  5
214A
330
2139
100
AcDbEntity
  8
AM_0
 48
0.5
100
AcDbSpline
210
0.0
220
0.0
230
1.0
 70
     8
 71
     3
 72
    11
 73
     7
 74
     5
 42
0.0000000001
 43
0.0000000001
 44
0.0000000001
 40
0.0
 40
0.0
 40
0.0
 40
0.0
 40
1.054630457359454
 40
2.109193024364743
 40
3.163808347403721
 40
4.218433845378934
 40
4.218433845378934
 40
4.218433845378934
 40
4.218433845378934
 10
-4.06318664551
 20
0.9708251953120026
 30
0.0
 10
-4.393301099795539
 20
1.091685747375733
 30
0.0
 10
-5.053508757712361
 20
1.333399071274938
 30
0.0
 10
-6.043629980617009
 20
1.696506635041926
 30
0.0
 10
-7.033543425174673
 20
2.060175612252336
 30
0.0
 10
-7.693308987072857
 20
2.303139201420921
 30
0.0
 10
-8.023193359369997
 20
2.424621582031001
 30
0.0
 11
-4.06318664551
 21
0.9708251953120026
 31
0.0
 11
-5.053497314449998
 21
1.333496093750003
 31
0.0
 11
-6.043579101559998
 21
1.696594238281001
 31
0.0
 11
-7.033493041989999
 21
2.060302734375
 31
0.0
 11
-8.023193359369997
 21
2.424621582031001
 31
0.0
  0
ELLIPSE
  5
214B
330
2139
100
AcDbEntity
  8
AM_0
 48
0.5
100
AcDbEllipse
 10
-6.786491394039998
 20
5.580322265625
 30
0.0
 11
-0.1752853278100019
 21
0.101989759317
 31
0.0
210
0.0
220
0.0
230
1.0
 40
0.0783776460807
 41
0.6168956570672381
 42
1.163173509895571
  0
SPLINE
  5
214C
330
2139
100
AcDbEntity
  8
AM_0
 48
0.5
100
AcDbSpline
210
0.0
220
0.0
230
1.0
 70
     8
 71
     3
 72
    11
 73
     7
 74
     5
 42
0.0000000001
 43
0.0000000001
 44
0.0000000001
 40
0.0
 40
0.0
 40
0.0
 40
0.0
 40
0.0352514884288024
 40
0.0785534692341141
 40
0.1287990096741018
 40
0.1843570045181007
 40
0.1843570045181007
 40
0.1843570045181007
 40
0.1843570045181007
 10
-7.206298828119997
 20
5.582641601562002
 30
0.0
 10
-7.197767024003617
 20
5.574549030291077
 30
0.0
 10
-7.178754981050561
 20
5.556515762003997
 30
0.0
 10
-7.144280129855358
 20
5.530807045196098
 30
0.0
 10
-7.103309341102955
 20
5.502656835818054
 30
0.0
 10
-7.073009168984057
 20
5.4845864901445
 30
0.0
 10
-7.057098388669999
 20
5.47509765625
 30
0.0
 11
-7.206298828119997
 21
5.582641601562002
 31
0.0
 11
-7.180297851559998
 21
5.558837890625
 31
0.0
 11
-7.14599609375
 21
5.532409667968003
 31
0.0
 11
-7.1044921875
 21
5.504089355468003
 31
0.0
 11
-7.057098388669999
 21
5.47509765625
 31
0.0
  0
ELLIPSE
  5
214D
330
2139
100
AcDbEntity
  8
AM_0
 48
0.5
100
AcDbEllipse
 10
-6.774291992190001
 20
5.575805664062002
 30
0.0
 11
-0.2022552674799982
 21
0.1176757627990028
 31
0.0
210
0.0
220
0.0
230
1.0
 40
0.0781669348587
 41
1.163804603015796
 42
1.362893776516335
  0
SPLINE
  5
214E
330
2139
100
AcDbEntity
  8
AM_0
 48
0.5
100
AcDbSpline
210
0.0
220
0.0
230
1.0
 70
     8
 71
     3
 72
    11
 73
     7
 74
     5
 42
0.0000000001
 43
0.0000000001
 44
0.0000000001
 40
0.0
 40
0.0
 40
0.0
 40
0.0
 40
0.0248464068287638
 40
0.0501239576280536
 40
0.0758540270606988
 40
0.1020719171368162
 40
0.1020719171368162
 40
0.1020719171368162
 40
0.1020719171368162
 10
-7.057098388669999
 20
5.47509765625
 30
0.0
 10
-7.049911395714337
 20
5.470981297539094
 30
0.0
 10
-7.035412698463447
 20
5.46267715155013
 30
0.0
 10
-7.013191383622555
 20
5.450609172044695
 30
0.0
 10
-6.990361506088774
 20
5.438714242758622
 30
0.0
 10
-6.974893447953382
 20
5.430930414515552
 30
0.0
 10
-6.967086791989999
 20
5.427001953125
 30
0.0
 11
-7.057098388669999
 21
5.47509765625
 31
0.0
 11
-7.03549194336
 21
5.462829589843003
 31
0.0
 11
-7.013290405269998
 21
5.450744628906001
 31
0.0
 11
-6.990478515619997
 21
5.438842773437002
 31
0.0
 11
-6.967086791989999
 21
5.427001953125
 31
0.0
  0
ELLIPSE
  5
214F
330
2139
100
AcDbEntity
  8
AM_0
 48
0.5
100
AcDbEllipse
 10
-6.780685424799997
 20
5.576843261718003
 30
0.0
 11
-0.1758880691200062
 21
0.1023559573559965
 31
0.0
210
0.0
220
0.0
230
1.0
 40
0.0787565015059
 41
1.361939715556173
 42
1.613883930738671
  0
SPLINE
  5
2150
330
2139
100
AcDbEntity
  8
AM_0
 48
0.5
100
AcDbSpline
210
0.0
220
0.0
230
1.0
 70
     8
 71
     3
 72
    11
 73
     7
 74
     5
 42
0.0000000001
 43
0.0000000001
 44
0.0000000001
 40
0.0
 40
0.0
 40
0.0
 40
0.0
 40
0.0743694093775764
 40
0.1596166518837821
 40
0.2562140186253163
 40
0.3645424114579596
 40
0.3645424114579596
 40
0.3645424114579596
 40
0.3645424114579596
 10
1.380310058589998
 20
-3.492797851562997
 30
0.0
 10
1.357851433018378
 20
-3.482256532547841
 30
0.0
 10
1.309649213185577
 20
-3.459632041352874
 30
0.0
 10
1.228388406633054
 20
-3.43285031341713
 30
0.0
 10
1.135074246407844
 20
-3.407279611968825
 30
0.0
 10
1.068112393937405
 20
-3.393669318452441
 30
0.0
 10
1.03271484375
 20
-3.386474609374996
 30
0.0
 11
1.380310058589998
 21
-3.492797851562997
 31
0.0
 11
1.312408447270001
 21
-3.462463378906996
 31
0.0
 11
1.231811523440001
 21
-3.434692382812997
 31
0.0
 11
1.138610839839998
 21
-3.409301757812997
 31
0.0
 11
1.03271484375
 21
-3.386474609374996
 31
0.0
  0
SPLINE
  5
2151
330
2139
100
AcDbEntity
  8
AM_0
 48
0.5
100
AcDbSpline
210
0.0
220
0.0
230
1.0
 70
     8
 71
     3
 72
    11
 73
     7
 74
     5
 42
0.0000000001
 43
0.0000000001
 44
0.0000000001
 40
0.0
 40
0.0
 40
0.0
 40
0.0
 40
0.0207420774400088
 40
0.0351500026704124
 40
0.0438094830967439
 40
0.0489292559329564
 40
0.0489292559329564
 40
0.0489292559329564
 40
0.0489292559329564
 10
-2.04998779297
 20
-9.160705566406996
 30
0.0
 10
-2.048603566448123
 20
-9.167595578288885
 30
0.0
 10
-2.046257824268674
 20
-9.179271551283783
 30
0.0
 10
-2.041376255675665
 20
-9.192151066445394
 30
0.0
 10
-2.037152615866688
 20
-9.202370227819116
 30
0.0
 10
-2.032226017916668
 20
-9.20216402016427
 30
0.0
 10
-2.030395507809998
 20
-9.202087402343998
 30
0.0
 11
-2.04998779297
 21
-9.160705566406996
 31
0.0
 11
-2.045288085940001
 21
-9.180908203124996
 31
0.0
 11
-2.04039001465
 21
-9.194458007812997
 31
0.0
 11
-2.03549194336
 21
-9.201599121093998
 31
0.0
 11
-2.030395507809998
 21
-9.202087402343998
 31
0.0
  0
SPLINE
  5
2152
330
2139
100
AcDbEntity
  8
AM_0
 48
0.5
100
AcDbSpline
210
0.0
220
0.0
230
1.0
 70
     8
 71
     3
 72
    11
 73
     7
 74
     5
 42
0.0000000001
 43
0.0000000001
 44
0.0000000001
 40
0.0
 40
0.0
 40
0.0
 40
0.0
 40
0.4502091022990792
 40
0.8848021676405902
 40
1.304158945545842
 40
1.70811368909372
 40
1.70811368909372
 40
1.70811368909372
 40
1.70811368909372
 10
0.4215087890599989
 20
-9.886596679687997
 30
0.0
 10
0.5709764255458359
 20
-9.873149033240128
 30
0.0
 10
0.8647272361790014
 20
-9.846720187919194
 30
0.0
 10
1.297135307901561
 20
-9.801850714947931
 30
0.0
 10
1.713761920518501
 20
-9.754430096194818
 30
0.0
 10
1.985894461545861
 20
-9.718906547941521
 30
0.0
 10
2.119415283199998
 20
-9.701477050781996
 30
0.0
 11
0.4215087890599989
 21
-9.886596679687997
 31
0.0
 11
0.8698120117200005
 21
-9.845214843749996
 31
0.0
 11
1.30210876465
 21
-9.800598144531996
 31
0.0
 11
1.718719482419999
 21
-9.752685546874996
 31
0.0
 11
2.119415283199998
 21
-9.701477050781996
 31
0.0
  0
SPLINE
  5
2153
330
2139
100
AcDbEntity
  8
AM_0
 48
0.5
100
AcDbSpline
210
0.0
220
0.0
230
1.0
 70
     8
 71
     3
 72
    11
 73
     7
 74
     5
 42
0.0000000001
 43
0.0000000001
 44
0.0000000001
 40
0.0
 40
0.0
 40
0.0
 40
0.0
 40
0.056464416492832
 40
0.1130341642204425
 40
0.1694985807132772
 40
0.2260212568543691
 40
0.2260212568543691
 40
0.2260212568543691
 40
0.2260212568543691
 10
-2.030395507809998
 20
-9.202087402343998
 30
0.0
 10
-2.018430627379333
 20
-9.216616322289127
 30
0.0
 10
-1.994478546697697
 20
-9.245701265073078
 30
0.0
 10
-1.95850576270106
 20
-9.289269106710786
 30
0.0
 10
-1.922596588431501
 20
-9.332914566367245
 30
0.0
 10
-1.898600773599216
 20
-9.361943095285887
 30
0.0
 10
-1.886596679690001
 20
-9.376464843749996
 30
0.0
 11
-2.030395507809998
 21
-9.202087402343998
 31
0.0
 11
-1.99449157715
 21
-9.245666503906996
 31
0.0
 11
-1.95849609375
 21
-9.289306640624996
 31
0.0
 11
-1.922592163090001
 21
-9.332885742187997
 31
0.0
 11
-1.886596679690001
 21
-9.376464843749996
 31
0.0
  0
SPLINE
  5
2154
330
2139
100
AcDbEntity
  8
AM_0
 48
0.5
100
AcDbSpline
210
0.0
220
0.0
230
1.0
 70
     8
 71
     3
 72
    11
 73
     7
 74
     5
 42
0.0000000001
 43
0.0000000001
 44
0.0000000001
 40
0.0
 40
0.0
 40
0.0
 40
0.0
 40
0.0389174629809538
 40
0.0777764072760434
 40
0.1167196620049409
 40
0.1555218985385803
 40
0.1555218985385803
 40
0.1555218985385803
 40
0.1555218985385803
 10
-1.43460083008
 20
-3.956298828124996
 30
0.0
 10
-1.426297387759796
 20
-3.946331971528157
 30
0.0
 10
-1.409702988684878
 20
-3.926413245111765
 30
0.0
 10
-1.38484749418914
 20
-3.896481157356437
 30
0.0
 10
-1.360150196753073
 20
-3.86646805310187
 30
0.0
 10
-1.343571128876589
 20
-3.846549899371871
 30
0.0
 10
-1.33529663086
 20
-3.836608886718998
 30
0.0
 11
-1.43460083008
 21
-3.956298828124996
 31
0.0
 11
-1.40969848633
 21
-3.926391601562997
 31
0.0
 11
-1.384887695309998
 21
-3.896484374999996
 31
0.0
 11
-1.360092163090001
 21
-3.866455078124996
 31
0.0
 11
-1.33529663086
 21
-3.836608886718998
 31
0.0
  0
SPLINE
  5
2155
330
2139
100
AcDbEntity
  8
AM_0
 48
0.5
100
AcDbSpline
210
0.0
220
0.0
230
1.0
 70
     8
 71
     3
 72
    11
 73
     7
 74
     5
 42
0.0000000001
 43
0.0000000001
 44
0.0000000001
 40
0.0
 40
0.0
 40
0.0
 40
0.0
 40
0.0206478029765193
 40
0.0351925268149579
 40
0.0437635666974695
 40
0.0488055287134963
 40
0.0488055287134963
 40
0.0488055287134963
 40
0.0488055287134963
 10
-1.45948791504
 20
-4.051269531249996
 30
0.0
 10
-1.460971707215436
 20
-4.044452893883127
 30
0.0
 10
-1.463500712164836
 20
-4.032834481328813
 30
0.0
 10
-1.467928622120109
 20
-4.019720722116941
 30
0.0
 10
-1.472477989473769
 20
-4.009822860524198
 30
0.0
 10
-1.477306925373316
 20
-4.009870172119494
 30
0.0
 10
-1.479095458979998
 20
-4.009887695312997
 30
0.0
 11
-1.45948791504
 21
-4.051269531249996
 31
0.0
 11
-1.464294433589998
 21
-4.031188964843998
 31
0.0
 11
-1.46908569336
 21
-4.017456054687997
 31
0.0
 11
-1.474090576169999
 21
-4.010498046874996
 31
0.0
 11
-1.479095458979998
 21
-4.009887695312997
 31
0.0
  0
SPLINE
  5
2156
330
2139
100
AcDbEntity
  8
AM_0
 48
0.5
100
AcDbSpline
210
0.0
220
0.0
230
1.0
 70
     8
 71
     3
 72
    11
 73
     7
 74
     5
 42
0.0000000001
 43
0.0000000001
 44
0.0000000001
 40
0.0
 40
0.0
 40
0.0
 40
0.0
 40
0.0272139636666502
 40
0.0469411880621241
 40
0.0600864377926874
 40
0.0691756054671422
 40
0.0691756054671422
 40
0.0691756054671422
 40
0.0691756054671422
 10
-1.270080566410001
 20
-3.857788085937997
 30
0.0
 10
-1.272331669525778
 20
-3.848925350558765
 30
0.0
 10
-1.2762145825773
 20
-3.833638076228668
 30
0.0
 10
-1.28370779953185
 20
-3.815608887649394
 30
0.0
 10
-1.291598023060743
 20
-3.802460304038103
 30
0.0
 10
-1.299264653508407
 20
-3.801485084166799
 30
0.0
 10
-1.302398681639999
 20
-3.801086425781996
 30
0.0
 11
-1.270080566410001
 21
-3.857788085937997
 31
0.0
 11
-1.277496337889999
 21
-3.831604003906996
 31
0.0
 11
-1.285278320309998
 21
-3.813476562499996
 31
0.0
 11
-1.293579101559998
 21
-3.803283691406996
 31
0.0
 11
-1.302398681639999
 21
-3.801086425781996
 31
0.0
  0
SPLINE
  5
2157
330
2139
100
AcDbEntity
  8
AM_0
 48
0.5
100
AcDbSpline
210
0.0
220
0.0
230
1.0
 70
     8
 71
     3
 72
    11
 73
     7
 74
     5
 42
0.0000000001
 43
0.0000000001
 44
0.0000000001
 40
0.0
 40
0.0
 40
0.0
 40
0.0
 40
0.0506784884856965
 40
0.1936454640468055
 40
0.4127466032253797
 40
0.6804480861908742
 40
0.6804480861908742
 40
0.6804480861908742
 40
0.6804480861908742
 10
1.038818359380002
 20
-3.342102050781996
 30
0.0
 10
1.045802208915489
 20
-3.35751344116345
 30
0.0
 10
1.072487905836268
 20
-3.416401263811624
 30
0.0
 10
1.09941291036601
 20
-3.552363629523751
 30
0.0
 10
1.146854891511138
 20
-3.756392386884887
 30
0.0
 10
1.175215274531846
 20
-3.916284105346535
 30
0.0
 10
1.190811157230001
 20
-4.004211425781996
 30
0.0
 11
1.038818359380002
 21
-3.342102050781996
 31
0.0
 11
1.058807373050001
 21
-3.388671874999996
 31
0.0
 11
1.095016479489999
 21
-3.526977539062997
 31
0.0
 11
1.141510009770001
 21
-3.741088867187997
 31
0.0
 11
1.190811157230001
 21
-4.004211425781996
 31
0.0
  0
SPLINE
  5
2158
330
2139
100
AcDbEntity
  8
AM_0
 48
0.5
100
AcDbSpline
210
0.0
220
0.0
230
1.0
 70
     8
 71
     3
 72
    11
 73
     7
 74
     5
 42
0.0000000001
 43
0.0000000001
 44
0.0000000001
 40
0.0
 40
0.0
 40
0.0
 40
0.0
 40
0.0287252975748782
 40
0.063428494080197
 40
0.1042132820404911
 40
0.1510438356399533
 40
0.1510438356399533
 40
0.1510438356399533
 40
0.1510438356399533
 10
-1.45948791504
 20
-4.051269531249996
 30
0.0
 10
-1.457804668331404
 20
-4.060697176130886
 30
0.0
 10
-1.454087881634474
 20
-4.081514412782968
 30
0.0
 10
-1.449929596078296
 20
-4.116016648262619
 30
0.0
 10
-1.445927556115841
 20
-4.156593372588694
 30
0.0
 10
-1.443816403208516
 20
-4.18572372232915
 30
0.0
 10
-1.442687988279999
 20
-4.201293945312997
 30
0.0
 11
-1.45948791504
 21
-4.051269531249996
 31
0.0
 11
-1.454681396479998
 21
-4.079589843749996
 31
0.0
 11
-1.450286865229998
 21
-4.114013671874996
 31
0.0
 11
-1.4462890625
 21
-4.154602050781996
 31
0.0
 11
-1.442687988279999
 21
-4.201293945312997
 31
0.0
  0
SPLINE
  5
2159
330
2139
100
AcDbEntity
  8
AM_0
 48
0.5
100
AcDbSpline
210
0.0
220
0.0
230
1.0
 70
     8
 71
     3
 72
    11
 73
     7
 74
     5
 42
0.0000000001
 43
0.0000000001
 44
0.0000000001
 40
0.0
 40
0.0
 40
0.0
 40
0.0
 40
0.0676609480618437
 40
0.126209223926963
 40
0.1756496313480721
 40
0.2160040254876897
 40
0.2160040254876897
 40
0.2160040254876897
 40
0.2160040254876897
 10
-1.24609375
 20
-4.072265624999996
 30
0.0
 10
-1.24749842175582
 20
-4.04975392217805
 30
0.0
 10
-1.250118582088369
 20
-4.007762424514798
 30
0.0
 10
-1.25559984365583
 20
-3.949467806936612
 30
0.0
 10
-1.261682397457719
 20
-3.900362248641364
 30
0.0
 10
-1.267476608558953
 20
-3.870988740253614
 30
0.0
 10
-1.270080566410001
 20
-3.857788085937997
 30
0.0
 11
-1.24609375
 21
-4.072265624999996
 31
0.0
 11
-1.25068664551
 21
-4.004760742187997
 31
0.0
 11
-1.25619506836
 21
-3.946472167968998
 31
0.0
 11
-1.2626953125
 21
-3.897460937499996
 31
0.0
 11
-1.270080566410001
 21
-3.857788085937997
 31
0.0
  0
SPLINE
  5
215A
330
2139
100
AcDbEntity
  8
AM_0
 48
0.5
100
AcDbSpline
210
0.0
220
0.0
230
1.0
 70
     8
 71
     3
 72
    11
 73
     7
 74
     5
 42
0.0000000001
 43
0.0000000001
 44
0.0000000001
 40
0.0
 40
0.0
 40
0.0
 40
0.0
 40
0.0559693402002946
 40
0.1092574556849538
 40
0.1600001612389358
 40
0.2082679729934288
 40
0.2082679729934288
 40
0.2082679729934288
 40
0.2082679729934288
 10
-1.241592407230001
 20
-4.280456542968998
 30
0.0
 10
-1.241589781925359
 20
-4.261800005597234
 30
0.0
 10
-1.241584657081925
 20
-4.225380676767636
 30
0.0
 10
-1.242217162396456
 20
-4.172049116751932
 30
0.0
 10
-1.243704355406328
 20
-4.121301034466087
 30
0.0
 10
-1.245310669086546
 20
-4.088336094623548
 30
0.0
 10
-1.24609375
 20
-4.072265624999996
 30
0.0
 11
-1.241592407230001
 21
-4.280456542968998
 31
0.0
 11
-1.24169921875
 21
-4.224487304687997
 31
0.0
 11
-1.24238586426
 21
-4.171203613281996
 31
0.0
 11
-1.243896484369997
 21
-4.120483398437997
 31
0.0
 11
-1.24609375
 21
-4.072265624999996
 31
0.0
  0
SPLINE
  5
215B
330
2139
100
AcDbEntity
  8
AM_0
 48
0.5
100
AcDbSpline
210
0.0
220
0.0
230
1.0
 70
     8
 71
     3
 72
    11
 73
     7
 74
     5
 42
0.0000000001
 43
0.0000000001
 44
0.0000000001
 40
0.0
 40
0.0
 40
0.0
 40
0.0
 40
0.041523693080303
 40
0.0840183659143293
 40
0.127543946036766
 40
0.1718594652678946
 40
0.1718594652678946
 40
0.1718594652678946
 40
0.1718594652678946
 10
-1.435180664059998
 20
-4.351379394531996
 30
0.0
 10
-1.434740834281723
 20
-4.365213644973008
 30
0.0
 10
-1.43385088985458
 20
-4.39320564254065
 30
0.0
 10
-1.432734534487176
 20
-4.435706027578627
 30
0.0
 10
-1.431945990901962
 20
-4.479144547046811
 30
0.0
 10
-1.431580748068219
 20
-4.508422657682239
 30
0.0
 10
-1.431396484369997
 20
-4.523193359374996
 30
0.0
 11
-1.435180664059998
 21
-4.351379394531996
 31
0.0
 11
-1.433898925779999
 21
-4.392883300781996
 31
0.0
 11
-1.43280029297
 21
-4.435363769531996
 31
0.0
 11
-1.43199157715
 21
-4.478881835937997
 31
0.0
 11
-1.431396484369997
 21
-4.523193359374996
 31
0.0
  0
SPLINE
  5
215C
330
2139
100
AcDbEntity
  8
AM_0
 48
0.5
100
AcDbSpline
210
0.0
220
0.0
230
1.0
 70
     8
 71
     3
 72
    11
 73
     7
 74
     5
 42
0.0000000001
 43
0.0000000001
 44
0.0000000001
 40
0.0
 40
0.0
 40
0.0
 40
0.0
 40
0.051715833806876
 40
0.1025699875598917
 40
0.1523796208311678
 40
0.2013934379101009
 40
0.2013934379101009
 40
0.2013934379101009
 40
0.2013934379101009
 10
-1.24530029297
 20
-4.481811523437997
 30
0.0
 10
-1.244814769437045
 20
-4.464579739947936
 30
0.0
 10
-1.24385181207816
 20
-4.430403285889195
 30
0.0
 10
-1.24272956112649
 20
-4.379621858395861
 30
0.0
 10
-1.242069894825092
 20
-4.329733292918518
 30
0.0
 10
-1.241750712980981
 20
-4.296793706461469
 30
0.0
 10
-1.241592407230001
 20
-4.280456542968998
 30
0.0
 11
-1.24530029297
 21
-4.481811523437997
 31
0.0
 11
-1.243896484369997
 21
-4.430114746093998
 31
0.0
 11
-1.242797851559998
 21
-4.379272460937997
 31
0.0
 11
-1.242095947259997
 21
-4.329467773437997
 31
0.0
 11
-1.241592407230001
 21
-4.280456542968998
 31
0.0
  0
ELLIPSE
  5
215D
330
2139
100
AcDbEntity
  8
AM_0
 48
0.5
100
AcDbEllipse
 10
-1.440383911129998
 20
-8.645812988281996
 30
0.0
 11
0.0007782090699919
 21
0.2285766616240004
 31
0.0
210
0.0
220
0.0
230
1.0
 40
0.0783044078894
 41
3.141591537141702
 42
3.759046008083711
  0
SPLINE
  5
215E
330
2139
100
AcDbEntity
  8
AM_0
 48
0.5
100
AcDbSpline
210
0.0
220
0.0
230
1.0
 70
     8
 71
     3
 72
    11
 73
     7
 74
     5
 42
0.0000000001
 43
0.0000000001
 44
0.0000000001
 40
0.0
 40
0.0
 40
0.0
 40
0.0
 40
0.0094850773381313
 40
0.0221031640970514
 40
0.0391301199319479
 40
0.0612116913546958
 40
0.0612116913546958
 40
0.0612116913546958
 40
0.0612116913546958
 10
-1.263397216800001
 20
-9.081359863281996
 30
0.0
 10
-1.260331822656794
 20
-9.080340632324158
 30
0.0
 10
-1.25318850612346
 20
-9.07796550892656
 30
0.0
 10
-1.245336421192343
 20
-9.066776613816998
 30
0.0
 10
-1.237550776781528
 20
-9.051560892521983
 30
0.0
 10
-1.23367783859428
 20
-9.03904767274504
 30
0.0
 10
-1.231491088870001
 20
-9.031982421874996
 30
0.0
 11
-1.263397216800001
 21
-9.081359863281996
 31
0.0
 11
-1.254699707029999
 21
-9.077575683593998
 31
0.0
 11
-1.246490478509997
 21
-9.067993164062997
 31
0.0
 11
-1.238693237299997
 21
-9.052856445312997
 31
0.0
 11
-1.231491088870001
 21
-9.031982421874996
 31
0.0
  0
SPLINE
  5
215F
330
2139
100
AcDbEntity
  8
AM_0
 48
0.5
100
AcDbSpline
210
0.0
220
0.0
230
1.0
 70
     8
 71
     3
 72
    11
 73
     7
 74
     5
 42
0.0000000001
 43
0.0000000001
 44
0.0000000001
 40
0.0
 40
0.0
 40
0.0
 40
0.0
 40
0.1154415079381035
 40
0.2241440770455302
 40
0.3155555280913214
 40
0.3805019696182061
 40
0.3805019696182061
 40
0.3805019696182061
 40
0.3805019696182061
 10
2.096313476559998
 20
-9.286804199218998
 30
0.0
 10
2.102208881936872
 20
-9.324837648400881
 30
0.0
 10
2.113655546317913
 20
-9.398684330725075
 30
0.0
 10
2.125633466503429
 20
-9.503159289238402
 30
0.0
 10
2.133535103503854
 20
-9.591311635943664
 30
0.0
 10
2.13203273205194
 20
-9.643445311574643
 30
0.0
 10
2.131408691410001
 20
-9.665100097656996
 30
0.0
 11
2.096313476559998
 21
-9.286804199218998
 31
0.0
 11
2.113220214839998
 21
-9.401000976562997
 31
0.0
 11
2.125808715819999
 21
-9.508972167968998
 31
0.0
 11
2.132217407230001
 21
-9.600158691406996
 31
0.0
 11
2.131408691410001
 21
-9.665100097656996
 31
0.0
  0
SPLINE
  5
2160
330
2139
100
AcDbEntity
  8
AM_0
 48
0.5
100
AcDbSpline
210
0.0
220
0.0
230
1.0
 70
     8
 71
     3
 72
    11
 73
     7
 74
     5
 42
0.0000000001
 43
0.0000000001
 44
0.0000000001
 40
0.0
 40
0.0
 40
0.0
 40
0.0
 40
1.054547289185869
 40
2.109128484463097
 40
3.163770122769301
 40
4.218325983767873
 40
4.218325983767873
 40
4.218325983767873
 40
4.218325983767873
 10
1.190811157230001
 20
-4.004211425781996
 30
0.0
 10
1.251211443532186
 20
-4.350499079214833
 30
0.0
 10
1.372013958142993
 20
-5.043085520015359
 30
0.0
 10
1.552656381808962
 20
-6.082089207180294
 30
0.0
 10
1.732506190986385
 20
-7.12123328213401
 30
0.0
 10
1.852049989546623
 20
-7.814061436595237
 30
0.0
 10
1.91181945801
 20
-8.160461425781996
 30
0.0
 11
1.190811157230001
 21
-4.004211425781996
 31
0.0
 11
1.37191772461
 21
-5.043090820312997
 31
0.0
 11
1.552520751949998
 21
-6.082092285156996
 31
0.0
 11
1.732421875
 21
-7.121276855468998
 31
0.0
 11
1.91181945801
 21
-8.160461425781996
 31
0.0
  0
ELLIPSE
  5
2161
330
2139
100
AcDbEntity
  8
AM_0
 48
0.5
100
AcDbEllipse
 10
-1.439392089839998
 20
-8.667358398437997
 30
0.0
 11
0.0006866491600022
 21
0.202819824182999
 31
0.0
210
0.0
220
0.0
230
1.0
 40
0.0783931476886
 41
3.758509412635199
 42
4.304821971516188
  0
SPLINE
  5
2162
330
2139
100
AcDbEntity
  8
AM_0
 48
0.5
100
AcDbSpline
210
0.0
220
0.0
230
1.0
 70
     8
 71
     3
 72
    11
 73
     7
 74
     5
 42
0.0000000001
 43
0.0000000001
 44
0.0000000001
 40
0.0
 40
0.0
 40
0.0
 40
0.0
 40
0.0351333676160755
 40
0.0784774210857253
 40
0.1286714158646949
 40
0.1841701300089096
 40
0.1841701300089096
 40
0.1841701300089096
 40
0.1841701300089096
 10
-1.231491088870001
 20
-9.031982421874996
 30
0.0
 10
-1.228749157893191
 20
-9.020587150876918
 30
0.0
 10
-1.222624505277862
 20
-8.995133528261677
 30
0.0
 10
-1.217711111038576
 20
-8.952451319002253
 30
0.0
 10
-1.213711912911333
 20
-8.902927312890264
 30
0.0
 10
-1.213233427849013
 20
-8.867686764859422
 30
0.0
 10
-1.212982177729998
 20
-8.849182128906996
 30
0.0
 11
-1.231491088870001
 21
-9.031982421874996
 31
0.0
 11
-1.223892211909998
 21
-8.997680664062997
 31
0.0
 11
-1.218200683589998
 21
-8.954711914062997
 31
0.0
 11
-1.21438598633
 21
-8.904663085937997
 31
0.0
 11
-1.212982177729998
 21
-8.849182128906996
 31
0.0
  0
ELLIPSE
  5
2163
330
2139
100
AcDbEntity
  8
AM_0
 48
0.5
100
AcDbEllipse
 10
-1.44158935547
 20
-8.654602050781996
 30
0.0
 11
0.0007934672400012
 21
0.2340087849430006
 31
0.0
210
0.0
220
0.0
230
1.0
 40
0.0782472506956
 41
4.305447671141001
 42
4.504527412739605
  0
SPLINE
  5
2164
330
2139
100
AcDbEntity
  8
AM_0
 48
0.5
100
AcDbSpline
210
0.0
220
0.0
230
1.0
 70
     8
 71
     3
 72
    11
 73
     7
 74
     5
 42
0.0000000001
 43
0.0000000001
 44
0.0000000001
 40
0.0
 40
0.0
 40
0.0
 40
0.0
 40
0.0249025728178055
 40
0.0501808742965962
 40
0.0759567992452177
 40
0.102190789352873
 40
0.102190789352873
 40
0.102190789352873
 40
0.102190789352873
 10
-1.212982177729998
 20
-8.849182128906996
 30
0.0
 10
-1.212968874242336
 20
-8.840880556290118
 30
0.0
 10
-1.212942066544716
 20
-8.82415215738132
 30
0.0
 10
-1.213803291762432
 20
-8.798845635427763
 30
0.0
 10
-1.21463789370743
 20
-8.773094301721496
 30
0.0
 10
-1.215809289956338
 20
-8.755795759860632
 30
0.0
 10
-1.216400146479998
 20
-8.747070312499996
 30
0.0
 11
-1.212982177729998
 21
-8.849182128906996
 31
0.0
 11
-1.21308898926
 21
-8.824279785156996
 31
0.0
 11
-1.213790893549997
 21
-8.799011230468998
 31
0.0
 11
-1.214782714839998
 21
-8.773254394531996
 31
0.0
 11
-1.216400146479998
 21
-8.747070312499996
 31
0.0
  0
ELLIPSE
  5
2165
330
2139
100
AcDbEntity
  8
AM_0
 48
0.5
100
AcDbEllipse
 10
-1.439292907709997
 20
-8.660583496093998
 30
0.0
 11
0.0006942832099952
 21
0.2034912037350018
 31
0.0
210
0.0
220
0.0
230
1.0
 40
0.078621897486
 41
4.503473577046033
 42
4.755421142851702
  0
SPLINE
  5
2166
330
2139
100
AcDbEntity
  8
AM_0
 48
0.5
100
AcDbSpline
210
0.0
220
0.0
230
1.0
 70
     8
 71
     3
 72
    11
 73
     7
 74
     5
 42
0.0000000001
 43
0.0000000001
 44
0.0000000001
 40
0.0
 40
0.0
 40
0.0
 40
0.0
 40
0.0743141580631255
 40
0.1595479836621925
 40
0.2561759084327473
 40
0.3645956683372644
 40
0.3645956683372644
 40
0.3645956683372644
 40
0.3645956683372644
 10
2.33480834961
 20
2.941833496093003
 30
0.0
 10
2.33692336333853
 20
2.917133427367216
 30
0.0
 10
2.341464169351808
 20
2.86410388004772
 30
0.0
 10
2.358825108403636
 20
2.780339006341831
 30
0.0
 10
2.383336531412439
 20
2.68670154001605
 30
0.0
 10
2.405042205524396
 20
2.621866976543468
 30
0.0
 10
2.41651916504
 20
2.587585449218003
 30
0.0
 11
2.33480834961
 21
2.941833496093003
 31
0.0
 11
2.342514038090001
 21
2.867919921875
 31
0.0
 11
2.358718872069999
 21
2.784240722656001
 31
0.0
 11
2.38331604004
 21
2.690795898437002
 31
0.0
 11
2.41651916504
 21
2.587585449218003
 31
0.0
  0
SPLINE
  5
2167
330
2139
100
AcDbEntity
  8
AM_0
 48
0.5
100
AcDbSpline
210
0.0
220
0.0
230
1.0
 70
     8
 71
     3
 72
    11
 73
     7
 74
     5
 42
0.0000000001
 43
0.0000000001
 44
0.0000000001
 40
0.0
 40
0.0
 40
0.0
 40
0.0
 40
0.0208309018189015
 40
0.0352201988002636
 40
0.0438679483880599
 40
0.0489066768686766
 40
0.0489066768686766
 40
0.0489066768686766
 40
0.0489066768686766
 10
8.958511352534998
 20
2.804992675781001
 30
0.0
 10
8.963758513145641
 20
2.809709807103084
 30
0.0
 10
8.972630238501096
 20
2.81768537649394
 30
0.0
 10
8.981418293129245
 20
2.828302381819939
 30
0.0
 10
8.988109975266571
 20
2.837066259558966
 30
0.0
 10
8.985480412529565
 20
2.841193093043153
 30
0.0
 10
8.984512329097995
 20
2.842712402343003
 30
0.0
 11
8.958511352534998
 21
2.804992675781001
 31
0.0
 11
8.973617553707001
 21
2.8193359375
 31
0.0
 11
8.982910156245992
 21
2.830322265625
 31
0.0
 11
8.986618041989004
 21
2.838134765625
 31
0.0
 11
8.984512329097995
 21
2.842712402343003
 31
0.0
  0
SPLINE
  5
2168
330
2139
100
AcDbEntity
  8
AM_0
 48
0.5
100
AcDbSpline
210
0.0
220
0.0
230
1.0
 70
     8
 71
     3
 72
    11
 73
     7
 74
     5
 42
0.0000000001
 43
0.0000000001
 44
0.0000000001
 40
0.0
 40
0.0
 40
0.0
 40
0.0
 40
0.4501732388459443
 40
0.8848010305313922
 40
1.304067021947129
 40
1.708020340686762
 40
1.708020340686762
 40
1.708020340686762
 40
1.708020340686762
 10
8.351318359370992
 20
5.308410644531001
 30
0.0
 10
8.264927059667421
 20
5.431106832652119
 30
0.0
 10
8.095127737071917
 20
5.672262246443809
 30
0.0
 10
7.840109344153793
 20
6.024297231791965
 30
0.0
 10
7.590786737313451
 20
6.361415624056725
 30
0.0
 10
7.423972818924077
 20
6.579301679381253
 30
0.0
 10
7.342117309567001
 20
6.686218261718003
 30
0.0
 11
8.351318359370992
 21
5.308410644531001
 31
0.0
 11
8.091308593745992
 21
5.675903320312002
 31
0.0
 11
7.836517333980992
 21
6.028015136718003
 31
0.0
 11
7.586807250972995
 21
6.364807128906001
 31
0.0
 11
7.342117309567001
 21
6.686218261718003
 31
0.0
  0
SPLINE
  5
2169
330
2139
100
AcDbEntity
  8
AM_0
 48
0.5
100
AcDbSpline
210
0.0
220
0.0
230
1.0
 70
     8
 71
     3
 72
    11
 73
     7
 74
     5
 42
0.0000000001
 43
0.0000000001
 44
0.0000000001
 40
0.0
 40
0.0
 40
0.0
 40
0.0
 40
0.0565025109082101
 40
0.1130248739854591
 40
0.1695220380153017
 40
0.2260245489235118
 40
0.2260245489235118
 40
0.2260245489235118
 40
0.2260245489235118
 10
8.984512329097995
 20
2.842712402343003
 30
0.0
 10
8.991126761102187
 20
2.860346913693543
 30
0.0
 10
9.004357949092641
 20
2.895622132283879
 30
0.0
 10
9.023978557692386
 20
2.948613893823058
 30
0.0
 10
9.043814219570428
 20
3.001525459648361
 30
0.0
 10
9.05701379273124
 20
3.036803503041489
 30
0.0
 10
9.063613891597995
 20
3.054443359375
 30
0.0
 11
8.984512329097995
 21
2.842712402343003
 31
0.0
 11
9.004318237300992
 21
2.895629882812002
 31
0.0
 11
9.024017333980992
 21
2.948608398437002
 31
0.0
 11
9.043807983394998
 21
3.001525878906001
 31
0.0
 11
9.063613891597995
 21
3.054443359375
 31
0.0
  0
SPLINE
  5
216A
330
2139
100
AcDbEntity
  8
AM_0
 48
0.5
100
AcDbSpline
210
0.0
220
0.0
230
1.0
 70
     8
 71
     3
 72
    11
 73
     7
 74
     5
 42
0.0000000001
 43
0.0000000001
 44
0.0000000001
 40
0.0
 40
0.0
 40
0.0
 40
0.0
 40
0.0388626829280286
 40
0.0778101703613188
 40
0.11666254721208
 40
0.1555949879352716
 40
0.1555949879352716
 40
0.1555949879352716
 40
0.1555949879352716
 10
4.143615722660001
 20
0.7358398437500036
 30
0.0
 10
4.130851655796669
 20
0.738051527270449
 30
0.0
 10
4.105295668862405
 20
0.742479720553704
 30
0.0
 10
4.066934763804578
 20
0.7488590395466489
 30
0.0
 10
4.028588641901428
 20
0.7554644521998495
 30
0.0
 10
4.003017731482091
 20
0.7597545824356762
 30
0.0
 10
3.990219116209999
 20
0.761901855468004
 30
0.0
 11
4.143615722660001
 21
0.7358398437500036
 31
0.0
 11
4.10531616211
 21
0.7424316406250036
 31
0.0
 11
4.06690979004
 21
0.7489013671870027
 31
0.0
 11
4.028610229489999
 21
0.7554321289060013
 31
0.0
 11
3.990219116209999
 21
0.761901855468004
 31
0.0
  0
SPLINE
  5
216B
330
2139
100
AcDbEntity
  8
AM_0
 48
0.5
100
AcDbSpline
210
0.0
220
0.0
230
1.0
 70
     8
 71
     3
 72
    11
 73
     7
 74
     5
 42
0.0000000001
 43
0.0000000001
 44
0.0000000001
 40
0.0
 40
0.0
 40
0.0
 40
0.0
 40
0.0208198390641267
 40
0.0352189948799616
 40
0.0438602129720908
 40
0.0488925838157406
 40
0.0488925838157406
 40
0.0488925838157406
 40
0.0488925838157406
 10
4.23831176758
 20
0.7618408203120027
 30
0.0
 10
4.233074378015704
 20
0.7571208495201587
 30
0.0
 10
4.224214770807348
 20
0.7491365117623351
 30
0.0
 10
4.215395221690156
 20
0.7385397730992132
 30
0.0
 10
4.208738159628538
 20
0.7297688551594687
 30
0.0
 10
4.211349663857241
 20
0.7256404827674086
 30
0.0
 10
4.212310791020001
 20
0.7241210937500036
 30
0.0
 11
4.23831176758
 21
0.7618408203120027
 31
0.0
 11
4.223220825200002
 21
0.747497558593004
 31
0.0
 11
4.213912963870001
 21
0.736511230468004
 31
0.0
 11
4.210220336909998
 21
0.728698730468004
 31
0.0
 11
4.212310791020001
 21
0.7241210937500036
 31
0.0
  0
SPLINE
  5
216C
330
2139
100
AcDbEntity
  8
AM_0
 48
0.5
100
AcDbSpline
210
0.0
220
0.0
230
1.0
 70
     8
 71
     3
 72
    11
 73
     7
 74
     5
 42
0.0000000001
 43
0.0000000001
 44
0.0000000001
 40
0.0
 40
0.0
 40
0.0
 40
0.0
 40
0.0271825851743336
 40
0.0469061563588301
 40
0.0600436104323704
 40
0.0691232951356326
 40
0.0691232951356326
 40
0.0691232951356326
 40
0.0691232951356326
 10
3.976013183589998
 20
0.8290405273430039
 30
0.0
 10
3.969484557862322
 20
0.8226520743131548
 30
0.0
 10
3.958218788354872
 20
0.8116281862323372
 30
0.0
 10
3.946390547514469
 20
0.7961220779138927
 30
0.0
 10
3.938905687237883
 20
0.7827399800228391
 30
0.0
 10
3.941893980701708
 20
0.7756163558563858
 30
0.0
 10
3.943115234380002
 20
0.7727050781250036
 30
0.0
 11
3.976013183589998
 21
0.8290405273430039
 31
0.0
 11
3.957107543950002
 21
0.8095092773430039
 31
0.0
 11
3.9453125
 21
0.7937011718750036
 31
0.0
 11
3.94061279297
 21
0.781433105468004
 31
0.0
 11
3.943115234380002
 21
0.7727050781250036
 31
0.0
  0
SPLINE
  5
216D
330
2139
100
AcDbEntity
  8
AM_0
 48
0.5
100
AcDbSpline
210
0.0
220
0.0
230
1.0
 70
     8
 71
     3
 72
    11
 73
     7
 74
     5
 42
0.0000000001
 43
0.0000000001
 44
0.0000000001
 40
0.0
 40
0.0
 40
0.0
 40
0.0
 40
0.0507171689617778
 40
0.1936711610331319
 40
0.4127219412055458
 40
0.6804077649200556
 40
0.6804077649200556
 40
0.6804077649200556
 40
0.6804077649200556
 10
2.374908447270001
 20
2.570739746093003
 30
0.0
 10
2.384789240892417
 20
2.584490521562817
 30
0.0
 10
2.422520541987402
 20
2.636999932179797
 30
0.0
 10
2.526805300957911
 20
2.728267610483006
 30
0.0
 10
2.679683446686723
 20
2.871442590372119
 30
0.0
 10
2.803964696089155
 20
2.975925032194488
 30
0.0
 10
2.872314453130002
 20
3.033386230468003
 30
0.0
 11
2.374908447270001
 21
2.570739746093003
 31
0.0
 11
2.405319213870001
 21
2.611328125
 31
0.0
 11
2.50701904297
 21
2.711791992187002
 31
0.0
 11
2.66911315918
 21
2.859130859375
 31
0.0
 11
2.872314453130002
 21
3.033386230468003
 31
0.0
  0
SPLINE
  5
216E
330
2139
100
AcDbEntity
  8
AM_0
 48
0.5
100
AcDbSpline
210
0.0
220
0.0
230
1.0
 70
     8
 71
     3
 72
    11
 73
     7
 74
     5
 42
0.0000000001
 43
0.0000000001
 44
0.0000000001
 40
0.0
 40
0.0
 40
0.0
 40
0.0
 40
0.0286299167281363
 40
0.0632987451215469
 40
0.1040785547324468
 40
0.1509729420991522
 40
0.1509729420991522
 40
0.1509729420991522
 40
0.1509729420991522
 10
4.23831176758
 20
0.7618408203120027
 30
0.0
 10
4.24563487375727
 20
0.7679623664225956
 30
0.0
 10
4.261825749749495
 20
0.7814966770768566
 30
0.0
 10
4.289578090561113
 20
0.8023344958014646
 30
0.0
 10
4.322669348267162
 20
0.826171610305526
 30
0.0
 10
4.346872135389418
 20
0.8425552338830966
 30
0.0
 10
4.359817504879998
 20
0.8513183593750035
 30
0.0
 11
4.23831176758
 21
0.7618408203120027
 31
0.0
 11
4.26042175293
 21
0.7800292968750036
 31
0.0
 11
4.288009643560002
 21
0.8010253906250035
 31
0.0
 11
4.321121215819999
 21
0.8248291015620026
 31
0.0
 11
4.359817504879998
 21
0.8513183593750035
 31
0.0
  0
SPLINE
  5
216F
330
2139
100
AcDbEntity
  8
AM_0
 48
0.5
100
AcDbSpline
210
0.0
220
0.0
230
1.0
 70
     8
 71
     3
 72
    11
 73
     7
 74
     5
 42
0.0000000001
 43
0.0000000001
 44
0.0000000001
 40
0.0
 40
0.0
 40
0.0
 40
0.0
 40
0.0677171666646638
 40
0.1262207966635453
 40
0.1756751346402547
 40
0.2160649619451492
 40
0.2160649619451492
 40
0.2160649619451492
 40
0.2160649619451492
 10
4.149810791020001
 20
0.9570922851560013
 30
0.0
 10
4.131009211361851
 20
0.944598775092208
 30
0.0
 10
4.095964178028769
 20
0.9213116106840304
 30
0.0
 10
4.04818732538739
 20
0.8874485681286538
 30
0.0
 10
4.008719468071251
 20
0.8576027575497031
 30
0.0
 10
3.986156473799773
 20
0.8378986105713515
 30
0.0
 10
3.976013183589998
 20
0.8290405273430039
 30
0.0
 11
4.149810791020001
 21
0.9570922851560013
 31
0.0
 11
4.0936126709
 21
0.9193115234370026
 31
0.0
 11
4.04591369629
 21
0.8854370117180039
 31
0.0
 11
4.006713867190001
 21
0.8552856445310013
 31
0.0
 11
3.976013183589998
 21
0.8290405273430039
 31
0.0
  0
SPLINE
  5
2170
330
2139
100
AcDbEntity
  8
AM_0
 48
0.5
100
AcDbSpline
210
0.0
220
0.0
230
1.0
 70
     8
 71
     3
 72
    11
 73
     7
 74
     5
 42
0.0000000001
 43
0.0000000001
 44
0.0000000001
 40
0.0
 40
0.0
 40
0.0
 40
0.0
 40
0.0560032482249399
 40
0.1093194485835048
 40
0.1600880447781805
 40
0.2082703647078745
 40
0.2082703647078745
 40
0.2082703647078745
 40
0.2082703647078745
 10
4.327911376949998
 20
1.065002441406001
 30
0.0
 10
4.311721410868007
 20
1.055708397189829
 30
0.0
 10
4.280118276750498
 20
1.037566238993188
 30
0.0
 10
4.2342707202774
 20
1.010256600244905
 30
0.0
 10
4.191058557469741
 20
0.9836265319030545
 30
0.0
 10
4.163318365058109
 20
0.9657815629843648
 30
0.0
 10
4.149810791020001
 20
0.9570922851560013
 30
0.0
 11
4.327911376949998
 21
1.065002441406001
 31
0.0
 11
4.279418945309998
 21
1.036987304687002
 31
0.0
 11
4.233612060550001
 21
1.009704589843003
 31
0.0
 11
4.190414428709999
 21
0.9830322265620026
 31
0.0
 11
4.149810791020001
 21
0.9570922851560013
 31
0.0
  0
SPLINE
  5
2171
330
2139
100
AcDbEntity
  8
AM_0
 48
0.5
100
AcDbSpline
210
0.0
220
0.0
230
1.0
 70
     8
 71
     3
 72
    11
 73
     7
 74
     5
 42
0.0000000001
 43
0.0000000001
 44
0.0000000001
 40
0.0
 40
0.0
 40
0.0
 40
0.0
 40
0.0416196779199596
 40
0.0841157341928896
 40
0.1275399745401607
 40
0.1719720198494523
 40
0.1719720198494523
 40
0.1719720198494523
 40
0.1719720198494523
 10
4.48600769043
 20
0.9328002929680039
 30
0.0
 10
4.49775752115414
 20
0.9401769173401303
 30
0.0
 10
4.521504596753905
 20
0.9550854943867829
 30
0.0
 10
4.557878506110805
 20
0.9770948467051665
 30
0.0
 10
4.595075552553547
 20
0.9995525576553278
 30
0.0
 10
4.620269426853868
 20
1.014482891224903
 30
0.0
 10
4.63301086426
 20
1.022033691406001
 30
0.0
 11
4.48600769043
 21
0.9328002929680039
 31
0.0
 11
4.521316528319999
 21
0.9548339843750035
 31
0.0
 11
4.5576171875
 21
0.9769287109370026
 31
0.0
 11
4.594818115240002
 21
0.9993286132810013
 31
0.0
 11
4.63301086426
 21
1.022033691406001
 31
0.0
  0
SPLINE
  5
2172
330
2139
100
AcDbEntity
  8
AM_0
 48
0.5
100
AcDbSpline
210
0.0
220
0.0
230
1.0
 70
     8
 71
     3
 72
    11
 73
     7
 74
     5
 42
0.0000000001
 43
0.0000000001
 44
0.0000000001
 40
0.0
 40
0.0
 40
0.0
 40
0.0
 40
0.0516305857748089
 40
0.1025355000940382
 40
0.1523611476499468
 40
0.2013122942559339
 40
0.2013122942559339
 40
0.2013122942559339
 40
0.2013122942559339
 10
4.504013061519998
 20
1.162536621093003
 30
0.0
 10
4.488870211851638
 20
1.154358168908123
 30
0.0
 10
4.4587973463148
 20
1.138116213249719
 30
0.0
 10
4.41430822021605
 20
1.113619467922702
 30
0.0
 10
4.370739074361697
 20
1.089305527641382
 30
0.0
 10
4.342102767447284
 20
1.07305551471835
 30
0.0
 10
4.327911376949998
 20
1.065002441406001
 30
0.0
 11
4.504013061519998
 21
1.162536621093003
 31
0.0
 11
4.458618164059998
 21
1.137939453125003
 31
0.0
 11
4.414016723629998
 21
1.113403320312002
 31
0.0
 11
4.370513916020001
 21
1.089111328125003
 31
0.0
 11
4.327911376949998
 21
1.065002441406001
 31
0.0
  0
ELLIPSE
  5
2173
330
2139
100
AcDbEntity
  8
AM_0
 48
0.5
100
AcDbEllipse
 10
8.207710266109998
 20
3.075500488281001
 30
0.0
 11
0.198356633013006
 21
0.1136474583000009
 31
0.0
210
0.0
220
0.0
230
1.0
 40
0.078169724344
 41
0.0
 42
0.6175747840080512
  0
SPLINE
  5
2174
330
2139
100
AcDbEntity
  8
AM_0
 48
0.5
100
AcDbSpline
210
0.0
220
0.0
230
1.0
 70
     8
 71
     3
 72
    11
 73
     7
 74
     5
 42
0.0000000001
 43
0.0000000001
 44
0.0000000001
 40
0.0
 40
0.0
 40
0.0
 40
0.0
 40
0.0095222668444386
 40
0.0221539731525878
 40
0.0391737279793703
 40
0.0612651032554329
 40
0.0612651032554329
 40
0.0612651032554329
 40
0.0612651032554329
 10
8.496505737300992
 20
3.446594238281001
 30
0.0
 10
8.494066151973989
 20
3.448724068063221
 30
0.0
 10
8.488390349276919
 20
3.453679210844422
 30
0.0
 10
8.474796761335149
 20
3.455030594569366
 30
0.0
 10
8.457711451062467
 20
3.45403308490254
 30
0.0
 10
8.444931947207164
 20
3.451190535336102
 30
0.0
 10
8.437713623042995
 20
3.449584960937002
 30
0.0
 11
8.496505737300992
 21
3.446594238281001
 31
0.0
 11
8.488815307614004
 21
3.452209472656001
 31
0.0
 11
8.476409912105992
 21
3.45458984375
 31
0.0
 11
8.459411621089998
 21
3.453735351562002
 31
0.0
 11
8.437713623042995
 21
3.449584960937002
 31
0.0
  0
SPLINE
  5
2175
330
2139
100
AcDbEntity
  8
AM_0
 48
0.5
100
AcDbSpline
210
0.0
220
0.0
230
1.0
 70
     8
 71
     3
 72
    11
 73
     7
 74
     5
 42
0.0000000001
 43
0.0000000001
 44
0.0000000001
 40
0.0
 40
0.0
 40
0.0
 40
0.0
 40
0.1154705885648572
 40
0.2243091264801281
 40
0.3157220446211688
 40
0.3805589089140971
 40
0.3805589089140971
 40
0.3805589089140971
 40
0.3805589089140971
 10
6.994415283199998
 20
6.458923339843003
 30
0.0
 10
7.024432773713872
 20
6.483025888199946
 30
0.0
 10
7.082743700851048
 20
6.529846655592628
 30
0.0
 10
7.167194492007953
 20
6.592607511045649
 30
0.0
 10
7.239692910769194
 20
6.643378986276176
 30
0.0
 10
7.285508271257744
 20
6.668219923453086
 30
0.0
 10
7.304519653317001
 20
6.678527832031001
 30
0.0
 11
6.994415283199998
 21
6.458923339843003
 31
0.0
 11
7.084915161129003
 21
6.530639648437002
 31
0.0
 11
7.172210693355992
 21
6.595642089843003
 31
0.0
 11
7.248016357417995
 21
6.646728515625
 31
0.0
 11
7.304519653317001
 21
6.678527832031001
 31
0.0
  0
SPLINE
  5
2176
330
2139
100
AcDbEntity
  8
AM_0
 48
0.5
100
AcDbSpline
210
0.0
220
0.0
230
1.0
 70
     8
 71
     3
 72
    11
 73
     7
 74
     5
 42
0.0000000001
 43
0.0000000001
 44
0.0000000001
 40
0.0
 40
0.0
 40
0.0
 40
0.0
 40
1.054625200266868
 40
2.109280974666751
 40
3.163846523687803
 40
4.218455001741773
 40
4.218455001741773
 40
4.218455001741773
 40
4.218455001741773
 10
2.872314453130002
 20
3.033386230468003
 30
0.0
 10
3.142022123824039
 20
3.258862105621664
 30
0.0
 10
3.681445284177748
 20
3.709820392591864
 30
0.0
 10
4.491047399587374
 20
4.385659444035471
 30
0.0
 10
5.300938594154257
 20
5.061143352690825
 30
0.0
 10
5.84118444356359
 20
5.511060031252128
 30
0.0
 10
6.111312866209999
 20
5.736022949218003
 30
0.0
 11
2.872314453130002
 21
3.033386230468003
 31
0.0
 11
3.681518554690001
 21
3.709716796875
 31
0.0
 11
4.491119384770001
 21
4.385620117187002
 31
0.0
 11
5.301010131840001
 21
5.06103515625
 31
0.0
 11
6.111312866209999
 21
5.736022949218003
 31
0.0
  0
ELLIPSE
  5
2177
330
2139
100
AcDbEntity
  8
AM_0
 48
0.5
100
AcDbEllipse
 10
8.225914001460992
 20
3.087219238281001
 30
0.0
 11
0.1759719932069998
 21
0.1008300769570027
 31
0.0
210
0.0
220
0.0
230
1.0
 40
0.0784065357306
 41
0.6166763168713696
 42
1.163129214530503
  0
SPLINE
  5
2178
330
2139
100
AcDbEntity
  8
AM_0
 48
0.5
100
AcDbSpline
210
0.0
220
0.0
230
1.0
 70
     8
 71
     3
 72
    11
 73
     7
 74
     5
 42
0.0000000001
 43
0.0000000001
 44
0.0000000001
 40
0.0
 40
0.0
 40
0.0
 40
0.0
 40
0.0351694929822039
 40
0.0785005853213112
 40
0.1286753911187177
 40
0.1842282897546266
 40
0.1842282897546266
 40
0.1842282897546266
 40
0.1842282897546266
 10
8.437713623042995
 20
3.449584960937002
 30
0.0
 10
8.426480644600996
 20
3.446205148375252
 30
0.0
 10
8.401407909459639
 20
3.438661187917593
 30
0.0
 10
8.361866383978654
 20
3.421871479067047
 30
0.0
 10
8.317069115029912
 20
3.400350254634136
 30
0.0
 10
8.286285718061961
 20
3.383171699531814
 30
0.0
 10
8.270111083980992
 20
3.374145507812002
 30
0.0
 11
8.437713623042995
 21
3.449584960937002
 31
0.0
 11
8.404205322262001
 21
3.438903808593003
 31
0.0
 11
8.364105224605992
 21
3.422485351562002
 31
0.0
 11
8.318908691402995
 21
3.400695800781001
 31
0.0
 11
8.270111083980992
 21
3.374145507812002
 31
0.0
  0
ELLIPSE
  5
2179
330
2139
100
AcDbEntity
  8
AM_0
 48
0.5
100
AcDbEllipse
 10
8.215911865230992
 20
3.078918457031001
 30
0.0
 11
0.2030486998639987
 21
0.116333006049004
 31
0.0
210
0.0
220
0.0
230
1.0
 40
0.0781592590081
 41
1.163802812200309
 42
1.362912611523845
  0
SPLINE
  5
217A
330
2139
100
AcDbEntity
  8
AM_0
 48
0.5
100
AcDbSpline
210
0.0
220
0.0
230
1.0
 70
     8
 71
     3
 72
    11
 73
     7
 74
     5
 42
0.0000000001
 43
0.0000000001
 44
0.0000000001
 40
0.0
 40
0.0
 40
0.0
 40
0.0
 40
0.0247832235451942
 40
0.050126046471582
 40
0.0759276481219699
 40
0.1021370825037226
 40
0.1021370825037226
 40
0.1021370825037226
 40
0.1021370825037226
 10
8.270111083980992
 20
3.374145507812002
 30
0.0
 10
8.262959813855813
 20
3.3700088305259
 30
0.0
 10
8.248495799601499
 20
3.36164207074976
 30
0.0
 10
8.226964573305561
 20
3.348335521264008
 30
0.0
 10
8.205134517017262
 20
3.334611157299161
 30
0.0
 10
8.190689690633348
 20
3.325022401574771
 30
0.0
 10
8.183410644527995
 20
3.320190429687002
 30
0.0
 11
8.270111083980992
 21
3.374145507812002
 31
0.0
 11
8.248718261714998
 21
3.361633300781001
 31
0.0
 11
8.227111816402995
 21
3.348388671875
 31
0.0
 11
8.205307006832001
 21
3.334594726562002
 31
0.0
 11
8.183410644527995
 21
3.320190429687002
 31
0.0
  0
ELLIPSE
  5
217B
330
2139
100
AcDbEntity
  8
AM_0
 48
0.5
100
AcDbEllipse
 10
8.219917297359998
 20
3.083923339843003
 30
0.0
 11
0.1765823347409992
 21
0.1011352584779956
 31
0.0
210
0.0
220
0.0
230
1.0
 40
0.078516141391
 41
1.362025480578609
 42
1.613954787546941
  0
SPLINE
  5
217C
330
2139
100
AcDbEntity
  8
AM_0
 48
0.5
100
AcDbSpline
210
0.0
220
0.0
230
1.0
 70
     8
 71
     3
 72
    11
 73
     7
 74
     5
 42
0.0000000001
 43
0.0000000001
 44
0.0000000001
 40
0.0
 40
0.0
 40
0.0
 40
0.0
 40
2.279919518036304
 40
4.034615889311313
 40
5.269998151826038
 40
6.014839662697275
 40
6.014839662697275
 40
6.014839662697275
 40
6.014839662697275
 10
-9.384689331049997
 20
-1.475463867187997
 30
0.0
 10
-9.215679680708706
 20
-2.220690204238328
 30
0.0
 10
-8.916594991394218
 20
-3.539465712237928
 30
0.0
 10
-8.058104444452418
 20
-5.089935968258615
 30
0.0
 10
-7.322287828609857
 20
-6.098285237491418
 30
0.0
 10
-6.860341134875407
 20
-6.570625075415414
 30
0.0
 10
-6.686584472660001
 20
-6.748291015624996
 30
0.0
 11
-9.384689331049997
 21
-1.475463867187997
 31
0.0
 11
-8.763290405269998
 21
-3.669067382812997
 31
0.0
 11
-7.938385009759997
 21
-5.217773437499996
 31
0.0
 11
-7.197692871089998
 21
-6.206481933593998
 31
0.0
 11
-6.686584472660001
 21
-6.748291015624996
 31
0.0
  0
SPLINE
  5
217D
330
2139
100
AcDbEntity
  8
AM_0
 48
0.5
100
AcDbSpline
210
0.0
220
0.0
230
1.0
 70
     8
 71
     3
 72
    11
 73
     7
 74
     5
 42
0.0000000001
 43
0.0000000001
 44
0.0000000001
 40
0.0
 40
0.0
 40
0.0
 40
0.0
 40
2.279892619318816
 40
4.034626518103408
 40
5.270007952866924
 40
6.014797502449982
 40
6.014797502449982
 40
6.014797502449982
 40
6.014797502449982
 10
3.414520263669999
 20
8.865234375
 30
0.0
 10
2.684632092706607
 20
9.091452269968163
 30
0.0
 10
1.392980834719402
 20
9.491780210930921
 30
0.0
 10
-0.3790016823461836
 20
9.523570639417339
 30
0.0
 10
-1.620179743624508
 20
9.390583747436121
 30
0.0
 10
-2.260169568081818
 20
9.226596506038708
 30
0.0
 10
-2.500885009759997
 20
9.164916992187002
 30
0.0
 11
3.414520263669999
 21
8.865234375
 31
0.0
 11
1.20411682129
 21
9.423828125
 31
0.0
 11
-0.5495910644499987
 21
9.483825683593003
 31
0.0
 11
-1.776184082029999
 21
9.336730957031001
 31
0.0
 11
-2.500885009759997
 21
9.164916992187002
 31
0.0
  0
SPLINE
  5
217E
330
2139
100
AcDbEntity
  8
AM_0
 48
0.5
100
AcDbSpline
210
0.0
220
0.0
230
1.0
 70
     8
 71
     3
 72
    11
 73
     7
 74
     5
 42
0.0000000001
 43
0.0000000001
 44
0.0000000001
 40
0.0
 40
0.0
 40
0.0
 40
0.0
 40
2.289703408846427
 40
4.030493183480875
 40
5.280105481568104
 40
6.014218156523912
 40
6.014218156523912
 40
6.014218156523912
 40
6.014218156523912
 10
5.97021484375
 20
-7.389587402343998
 30
0.0
 10
6.529245390784632
 20
-6.865721724476042
 30
0.0
 10
7.513289350572348
 20
-5.943577382309843
 30
0.0
 10
8.46108900690498
 20
-4.438732705519514
 30
0.0
 10
8.922198113399645
 20
-3.282871285397499
 30
0.0
 10
9.115850684025026
 20
-2.650562166364976
 30
0.0
 10
9.187515258784998
 20
-2.416564941406996
 30
0.0
 11
5.97021484375
 21
-7.389587402343998
 31
0.0
 11
7.563217163082001
 21
-5.744873046874996
 31
0.0
 11
8.492813110347995
 21
-4.273071289062997
 31
0.0
 11
8.965408325192001
 21
-3.116271972656996
 31
0.0
 11
9.187515258784998
 21
-2.416564941406996
 31
0.0
  0
ELLIPSE
  5
217F
330
2139
100
AcDbEntity
  8
AM_0
 48
0.5
100
AcDbEllipse
 10
-15.25339508057
 20
0.0524291992180039
 30
0.0
 11
-19.60869565501001
 21
0.0665295668919974
 31
0.0
210
0.0
220
0.0
230
1.0
 40
0.6284019814675001
 41
2.308006504750632
 42
2.353810894365623
  0
ELLIPSE
  5
2180
330
2139
100
AcDbEntity
  8
AM_0
 48
0.5
100
AcDbEllipse
 10
7.672012329097995
 20
13.183715820312
 30
0.0
 11
9.862046231801002
 21
16.94830277007699
 31
0.0
210
0.0
220
0.0
230
1.0
 40
0.6284018132304001
 41
2.308006625078467
 42
2.353810760506074
  0
ELLIPSE
  5
2181
330
2139
100
AcDbEntity
  8
AM_0
 48
0.5
100
AcDbEllipse
 10
7.581314086909998
 20
-13.23596191406299
 30
0.0
 11
-9.746688154620002
 21
17.01489402473399
 31
0.0
210
0.0
220
0.0
230
1.0
 40
0.6284017297736
 41
5.449591132241194
 42
5.495395196868865
  0
SPLINE
  5
2182
330
2139
100
AcDbEntity
  8
AM_0
 48
0.5
100
AcDbSpline
210
0.0
220
0.0
230
1.0
 70
     8
 71
     3
 72
    11
 73
     7
 74
     5
 42
0.0000000001
 43
0.0000000001
 44
0.0000000001
 40
0.0
 40
0.0
 40
0.0
 40
0.0
 40
0.2122103821180166
 40
0.4245066332493811
 40
0.6369780359072559
 40
0.848742622610967
 40
0.848742622610967
 40
0.848742622610967
 40
0.848742622610967
 10
-2.140289306639999
 20
0.1113891601560013
 30
0.0
 10
-2.144479805815582
 20
0.1824545223032497
 30
0.0
 10
-2.152862499814371
 20
0.3246140025543114
 30
0.0
 10
-2.235816368643258
 20
0.5236316408260883
 30
0.0
 10
-2.363111760946345
 20
0.6975072623281737
 30
0.0
 10
-2.480426543400736
 20
0.778079394184694
 30
0.0
 10
-2.538986206049997
 20
0.8182983398430039
 30
0.0
 11
-2.140289306639999
 21
0.1113891601560013
 31
0.0
 11
-2.16458129883
 21
0.3222045898430039
 31
0.0
 11
-2.24319458008
 21
0.5194091796870027
 31
0.0
 11
-2.371398925779999
 21
0.6888427734370027
 31
0.0
 11
-2.538986206049997
 21
0.8182983398430039
 31
0.0
  0
SPLINE
  5
2183
330
2139
100
AcDbEntity
  8
AM_0
 48
0.5
100
AcDbSpline
210
0.0
220
0.0
230
1.0
 70
     8
 71
     3
 72
    11
 73
     7
 74
     5
 42
0.0000000001
 43
0.0000000001
 44
0.0000000001
 40
0.0
 40
0.0
 40
0.0
 40
0.0
 40
0.1016228019991304
 40
0.2037018199679391
 40
0.3059997837677025
 40
0.407840101593394
 40
0.407840101593394
 40
0.407840101593394
 40
0.407840101593394
 10
-2.248092651370001
 20
-0.2777709960939987
 30
0.0
 10
-2.232205930289834
 20
-0.2477926791291773
 30
0.0
 10
-2.20036116775927
 20
-0.1877014633274118
 30
0.0
 10
-2.167946667505405
 20
-0.0906153289244141
 30
0.0
 10
-2.145858342452339
 20
0.0093916936171476
 30
0.0
 10
-2.142142875412877
 20
0.0774408564891278
 30
0.0
 10
-2.140289306639999
 20
0.1113891601560013
 30
0.0
 11
-2.248092651370001
 21
-0.2777709960939987
 31
0.0
 11
-2.2029876709
 21
-0.1867065429689987
 31
0.0
 11
-2.169692993159998
 21
-0.0902099609379974
 31
0.0
 11
-2.148590087889999
 21
0.0098876953120026
 31
0.0
 11
-2.140289306639999
 21
0.1113891601560013
 31
0.0
  0
SPLINE
  5
2184
330
2139
100
AcDbEntity
  8
AM_0
 48
0.5
100
AcDbSpline
210
0.0
220
0.0
230
1.0
 70
     8
 71
     3
 72
    11
 73
     7
 74
     5
 42
0.0000000001
 43
0.0000000001
 44
0.0000000001
 40
0.0
 40
0.0
 40
0.0
 40
0.0
 40
0.212087604666786
 40
0.4244966064932239
 40
0.636934559869729
 40
0.8487322971112673
 40
0.8487322971112673
 40
0.8487322971112673
 40
0.8487322971112673
 10
0.973709106450002
 20
-1.909179687499996
 30
0.0
 10
0.9142979075396283
 20
-1.94832861127479
 30
0.0
 10
0.795385478099111
 20
-2.026685785030284
 30
0.0
 10
0.6646315456248465
 20
-2.198096279245882
 30
0.0
 10
0.5775084095803673
 20
-2.39523146577769
 30
0.0
 10
0.5664392923339778
 20
-2.537129329114783
 30
0.0
 10
0.5609130859400011
 20
-2.607971191406996
 30
0.0
 11
0.973709106450002
 21
-1.909179687499996
 31
0.0
 11
0.8034057617200005
 21
-2.035583496093998
 31
0.0
 11
0.6719055175800009
 21
-2.202392578124996
 31
0.0
 11
0.5892028808600003
 21
-2.398071289062997
 31
0.0
 11
0.5609130859400011
 21
-2.607971191406996
 31
0.0
  0
SPLINE
  5
2185
330
2139
100
AcDbEntity
  8
AM_0
 48
0.5
100
AcDbSpline
210
0.0
220
0.0
230
1.0
 70
     8
 71
     3
 72
    11
 73
     7
 74
     5
 42
0.0000000001
 43
0.0000000001
 44
0.0000000001
 40
0.0
 40
0.0
 40
0.0
 40
0.0
 40
0.1017113475148951
 40
0.2039614300402251
 40
0.3061279110469635
 40
0.4079107870786669
 40
0.4079107870786669
 40
0.4079107870786669
 40
0.4079107870786669
 10
1.364715576169999
 20
-1.807983398437997
 30
0.0
 10
1.33078512051439
 20
-1.809252288478563
 30
0.0
 10
1.262744489586548
 20
-1.81179678949601
 30
0.0
 10
1.162371272361663
 20
-1.832057071942029
 30
0.0
 10
1.064772931295787
 20
-1.863096491117909
 30
0.0
 10
1.004025628532659
 20
-1.893837895705912
 30
0.0
 10
0.973709106450002
 20
-1.909179687499996
 30
0.0
 11
1.364715576169999
 21
-1.807983398437997
 31
0.0
 11
1.26321411133
 21
-1.814514160156996
 31
0.0
 11
1.162811279300001
 21
-1.833862304687997
 31
0.0
 11
1.065719604489999
 21
-1.865661621093998
 31
0.0
 11
0.973709106450002
 21
-1.909179687499996
 31
0.0
  0
SPLINE
  5
2186
330
2139
100
AcDbEntity
  8
AM_0
 48
0.5
100
AcDbSpline
210
0.0
220
0.0
230
1.0
 70
     8
 71
     3
 72
    11
 73
     7
 74
     5
 42
0.0000000001
 43
0.0000000001
 44
0.0000000001
 40
0.0
 40
0.0
 40
0.0
 40
0.0
 40
0.2122127432150789
 40
0.4244808817719307
 40
0.6367951540805845
 40
0.8486605741589819
 40
0.8486605741589819
 40
0.8486605741589819
 40
0.8486605741589819
 10
1.166610717769998
 20
1.797912597656001
 30
0.0
 10
1.230240402353888
 20
1.76595728709931
 30
0.0
 10
1.357516381212827
 20
1.702038324472961
 30
0.0
 10
1.571339681310846
 20
1.67490053872793
 30
0.0
 10
1.78556777551388
 20
1.697705215190433
 30
0.0
 10
1.913980483455048
 20
1.759079310854873
 30
0.0
 10
1.978118896490002
 20
1.789733886718003
 30
0.0
 11
1.166610717769998
 21
1.797912597656001
 31
0.0
 11
1.361312866209999
 21
1.713500976562002
 31
0.0
 11
1.571411132809998
 21
1.683227539062002
 31
0.0
 11
1.782119750980001
 21
1.709289550781001
 31
0.0
 11
1.978118896490002
 21
1.789733886718003
 31
0.0
  0
SPLINE
  5
2187
330
2139
100
AcDbEntity
  8
AM_0
 48
0.5
100
AcDbSpline
210
0.0
220
0.0
230
1.0
 70
     8
 71
     3
 72
    11
 73
     7
 74
     5
 42
0.0000000001
 43
0.0000000001
 44
0.0000000001
 40
0.0
 40
0.0
 40
0.0
 40
0.0
 40
0.1020426267853639
 40
0.2029887416345152
 40
0.3044296303761688
 40
0.4079392137563622
 40
0.4079392137563622
 40
0.4079392137563622
 40
0.4079392137563622
 10
0.8834075927699984
 20
2.0859375
 30
0.0
 10
0.9015332243904373
 20
2.057095330200551
 30
0.0
 10
0.9375897163670961
 20
1.999720917780596
 30
0.0
 10
1.004918304676726
 20
1.923327770457602
 30
0.0
 10
1.080529526216933
 20
1.854414304224374
 30
0.0
 10
1.137724552071732
 20
1.816872809854768
 30
0.0
 10
1.166610717769998
 20
1.797912597656001
 30
0.0
 11
0.8834075927699984
 21
2.0859375
 31
0.0
 11
0.940017700200002
 21
2.001037597656001
 31
0.0
 11
1.006118774409998
 21
1.924743652343003
 31
0.0
 11
1.081619262700002
 21
1.856994628906001
 31
0.0
 11
1.166610717769998
 21
1.797912597656001
 31
0.0
  0
SPLINE
  5
2188
330
2139
100
AcDbEntity
  8
AM_0
 48
0.5
100
AcDbSpline
210
0.0
220
0.0
230
1.0
 70
     8
 71
     3
 72
    11
 73
     7
 74
     5
 42
0.0000000001
 43
0.0000000001
 44
0.0000000001
 40
0.0
 40
0.0
 40
0.0
 40
0.0
 40
0.5534897922742336
 40
1.077268756432021
 40
1.532615215595531
 40
1.785202523674835
 40
1.785202523674835
 40
1.785202523674835
 40
1.785202523674835
 10
-2.713195800779999
 20
8.739501953125
 30
0.0
 10
-2.888176349582371
 20
8.680552164246751
 30
0.0
 10
-3.228744650640991
 20
8.565816957485546
 30
0.0
 10
-3.694633903177772
 20
8.356039635241351
 30
0.0
 10
-4.064034576094533
 20
8.173526305788074
 30
0.0
 10
-4.256146998948005
 20
8.036050284271871
 30
0.0
 10
-4.324691772459999
 20
7.986999511718003
 30
0.0
 11
-2.713195800779999
 21
8.739501953125
 31
0.0
 11
-3.234680175779999
 21
8.554016113281001
 31
0.0
 11
-3.714294433589998
 21
8.343505859375
 31
0.0
 11
-4.116485595699998
 21
8.130004882812002
 31
0.0
 11
-4.324691772459999
 21
7.986999511718003
 31
0.0
  0
SPLINE
  5
2189
330
2139
100
AcDbEntity
  8
AM_0
 48
0.5
100
AcDbSpline
210
0.0
220
0.0
230
1.0
 70
     8
 71
     3
 72
    11
 73
     7
 74
     5
 42
0.0000000001
 43
0.0000000001
 44
0.0000000001
 40
0.0
 40
0.0
 40
0.0
 40
0.0
 40
0.1746625702131706
 40
0.6063253675719393
 40
1.125523842011548
 40
1.689661742639765
 40
1.689661742639765
 40
1.689661742639765
 40
1.689661742639765
 10
-4.324691772459999
 20
7.986999511718003
 30
0.0
 10
-4.268652806451674
 20
8.003016010783397
 30
0.0
 10
-4.074118587575357
 20
8.058615843484743
 30
0.0
 10
-3.735774181469129
 20
8.224299914991027
 30
0.0
 10
-3.262628234165153
 20
8.401164256121949
 30
0.0
 10
-2.91961726396426
 20
8.51415770235341
 30
0.0
 10
-2.740997314449998
 20
8.572998046875
 30
0.0
 11
-4.324691772459999
 21
7.986999511718003
 31
0.0
 11
-4.157592773440001
 21
8.037841796875
 31
0.0
 11
-3.75979614258
 21
8.205444335937002
 31
0.0
 11
-3.27558898926
 21
8.392822265625
 31
0.0
 11
-2.740997314449998
 21
8.572998046875
 31
0.0
  0
SPLINE
  5
218A
330
2139
100
AcDbEntity
  8
AM_0
 48
0.5
100
AcDbSpline
210
0.0
220
0.0
230
1.0
 70
     8
 71
     3
 72
    11
 73
     7
 74
     5
 42
0.0000000001
 43
0.0000000001
 44
0.0000000001
 40
0.0
 40
0.0
 40
0.0
 40
0.0
 40
0.5536642544748841
 40
1.078887406720651
 40
1.532686228469331
 40
1.785200797409029
 40
1.785200797409029
 40
1.785200797409029
 40
1.785200797409029
 10
-6.211990356439997
 20
-6.719360351562997
 30
0.0
 10
-6.073427070295153
 20
-6.841491979524776
 30
0.0
 10
-5.80341833621625
 20
-7.079481472805731
 30
0.0
 10
-5.388532387407003
 20
-7.377730557591538
 30
0.0
 10
-5.045976089415637
 20
-7.606586776144364
 30
0.0
 10
-4.831330855502213
 20
-7.7039582065576
 30
0.0
 10
-4.75459289551
 20
-7.738769531249996
 30
0.0
 11
-6.211990356439997
 21
-6.719360351562997
 31
0.0
 11
-5.790496826169999
 21
-7.078369140624996
 31
0.0
 11
-5.367095947259997
 21
-7.389160156249996
 31
0.0
 11
-4.982482910160001
 21
-7.630004882812997
 31
0.0
 11
-4.75459289551
 21
-7.738769531249996
 31
0.0
  0
SPLINE
  5
218B
330
2139
100
AcDbEntity
  8
AM_0
 48
0.5
100
AcDbSpline
210
0.0
220
0.0
230
1.0
 70
     8
 71
     3
 72
    11
 73
     7
 74
     5
 42
0.0000000001
 43
0.0000000001
 44
0.0000000001
 40
0.0
 40
0.0
 40
0.0
 40
0.0
 40
0.1747368009434031
 40
0.6051027868044026
 40
1.12646412709768
 40
1.689613939919186
 40
1.689613939919186
 40
1.689613939919186
 40
1.689613939919186
 10
-4.75459289551
 20
-7.738769531249996
 30
0.0
 10
-4.796491454395992
 20
-7.698220874337007
 30
0.0
 10
-4.941583585006841
 20
-7.557803371173649
 30
0.0
 10
-5.254066841301383
 20
-7.346880848887691
 30
0.0
 10
-5.644454183417476
 20
-7.026433251149477
 30
0.0
 10
-5.913952644201934
 20
-6.785425474386081
 30
0.0
 10
-6.05389404297
 20
-6.660278320312997
 30
0.0
 11
-4.75459289551
 21
-7.738769531249996
 31
0.0
 11
-4.88218688965
 21
-7.619384765624996
 31
0.0
 11
-5.224990844730001
 21
-7.359191894531996
 31
0.0
 11
-5.63137817383
 21
-7.032592773437997
 31
0.0
 11
-6.05389404297
 21
-6.660278320312997
 31
0.0
  0
SPLINE
  5
218C
330
2139
100
AcDbEntity
  8
AM_0
 48
0.5
100
AcDbSpline
210
0.0
220
0.0
230
1.0
 70
     8
 71
     3
 72
    11
 73
     7
 74
     5
 42
0.0000000001
 43
0.0000000001
 44
0.0000000001
 40
0.0
 40
0.0
 40
0.0
 40
0.0
 40
0.5545601767915743
 40
1.078245545180612
 40
1.533307114625665
 40
1.785177275244316
 40
1.785177275244316
 40
1.785177275244316
 40
1.785177275244316
 10
8.925216674800992
 20
-2.019958496093998
 30
0.0
 10
8.961583762734306
 20
-1.838570603270138
 30
0.0
 10
9.032293222584366
 20
-1.485893480800645
 30
0.0
 10
9.08386831721776
 20
-0.9773438606771541
 30
0.0
 10
9.110473860786914
 20
-0.5665341860066745
 30
0.0
 10
9.087500338925165
 20
-0.331756136159533
 30
0.0
 10
9.079315185542995
 20
-0.2481079101569961
 30
0.0
 11
8.925216674800992
 21
-2.019958496093998
 31
0.0
 11
9.025207519527995
 21
-1.474487304687997
 31
0.0
 11
9.082809448239004
 21
-0.9539794921879973
 31
0.0
 11
9.099014282222995
 21
-0.4992065429689987
 31
0.0
 11
9.079315185542995
 21
-0.2481079101569961
 31
0.0
  0
SPLINE
  5
218D
330
2139
100
AcDbEntity
  8
AM_0
 48
0.5
100
AcDbSpline
210
0.0
220
0.0
230
1.0
 70
     8
 71
     3
 72
    11
 73
     7
 74
     5
 42
0.0000000001
 43
0.0000000001
 44
0.0000000001
 40
0.0
 40
0.0
 40
0.0
 40
0.0
 40
0.1739395037921402
 40
0.6043176815938772
 40
1.12552255176653
 40
1.689653120794795
 40
1.689653120794795
 40
1.689653120794795
 40
1.689653120794795
 10
9.079315185542995
 20
-0.2481079101569961
 30
0.0
 10
9.065141082839051
 20
-0.3043928549869422
 30
0.0
 10
9.01589602523008
 20
-0.4999435299441361
 30
0.0
 10
8.989953585483318
 20
-0.8757896262345962
 30
0.0
 10
8.9072767033598
 20
-1.374321306531133
 30
0.0
 10
8.833338084870803
 20
-1.728502838929475
 30
0.0
 10
8.794906616207001
 20
-1.912597656249996
 30
0.0
 11
9.079315185542995
 21
-0.2481079101569961
 31
0.0
 11
9.039718627925992
 21
-0.4174804687499965
 31
0.0
 11
8.985916137692001
 21
-0.8444824218749964
 31
0.0
 11
8.906219482417995
 21
-1.359558105468998
 31
0.0
 11
8.794906616207001
 21
-1.912597656249996
 31
0.0
  0
SPLINE
  5
218E
330
2139
100
AcDbEntity
  8
AM_0
 48
0.5
100
AcDbSpline
210
0.0
220
0.0
230
1.0
 70
     8
 71
     3
 72
    13
 73
     9
 74
     7
 42
0.0000000001
 43
0.0000000001
 44
0.0000000001
 40
0.0
 40
0.0
 40
0.0
 40
0.0
 40
0.9711040349160853
 40
1.413847347576417
 40
1.571930694749061
 40
1.59898849922743
 40
1.614335928528005
 40
1.616106539899952
 40
1.616106539899952
 40
1.616106539899952
 40
1.616106539899952
 10
-2.740997314449998
 20
8.572998046875
 30
0.0
 10
-2.577716147228747
 20
8.290230151327575
 30
0.0
 10
-2.339992240330455
 20
7.878543427016889
 30
0.0
 10
-2.066352338505447
 20
7.449393729186839
 30
0.0
 10
-1.944131556627354
 20
7.261109189206054
 30
0.0
 10
-1.905034635322237
 20
7.219095075843735
 30
0.0
 10
-1.891395561147664
 20
7.202115444151655
 30
0.0
 10
-1.886949724997361
 20
7.206017307630148
 30
0.0
 10
-1.886489868159998
 20
7.206420898437002
 30
0.0
 11
-2.740997314449998
 21
8.572998046875
 31
0.0
 11
-2.247192382809998
 21
7.73681640625
 31
0.0
 11
-2.010086059569999
 21
7.362915039062002
 31
0.0
 11
-1.918579101559998
 21
7.234008789062002
 31
0.0
 11
-1.900787353509997
 21
7.213623046875
 31
0.0
 11
-1.88787841797
 21
7.205322265625
 31
0.0
 11
-1.886489868159998
 21
7.206420898437002
 31
0.0
  0
SPLINE
  5
218F
330
2139
100
AcDbEntity
  8
AM_0
 48
0.5
100
AcDbSpline
210
0.0
220
0.0
230
1.0
 70
     8
 71
     3
 72
    11
 73
     7
 74
     5
 42
0.0000000001
 43
0.0000000001
 44
0.0000000001
 40
0.0
 40
0.0
 40
0.0
 40
0.0
 40
0.0010231356578321
 40
0.0167063503560763
 40
0.2844912244693531
 40
1.615485428279717
 40
1.615485428279717
 40
1.615485428279717
 40
1.615485428279717
 10
7.184112548824998
 20
-1.969360351562997
 30
0.0
 10
7.183998453738993
 20
-1.969029993954481
 30
0.0
 10
7.182135443231929
 20
-1.963635723988024
 30
0.0
 10
7.318898320476071
 20
-1.937658243678725
 30
0.0
 10
7.72987237376246
 20
-1.932072039682452
 30
0.0
 10
8.311062213504872
 20
-1.921444856691403
 30
0.0
 10
8.794906616207001
 20
-1.912597656249996
 30
0.0
 11
7.184112548824998
 21
-1.969360351562997
 31
0.0
 11
7.183807373042995
 21
-1.968383789062997
 31
0.0
 11
7.197509765620992
 21
-1.960754394531996
 31
0.0
 11
7.464111328120992
 21
-1.935607910156996
 31
0.0
 11
8.794906616207001
 21
-1.912597656249996
 31
0.0
  0
SPLINE
  5
2190
330
2139
100
AcDbEntity
  8
AM_0
 48
0.5
100
AcDbSpline
210
0.0
220
0.0
230
1.0
 70
     8
 71
     3
 72
    10
 73
     6
 74
     4
 42
0.0000000001
 43
0.0000000001
 44
0.0000000001
 40
0.0
 40
0.0
 40
0.0
 40
0.0
 40
0.0478989721481688
 40
0.5831874576385938
 40
1.743527122924783
 40
1.743527122924783
 40
1.743527122924783
 40
1.743527122924783
 10
-1.886489868159998
 20
7.206420898437002
 30
0.0
 10
-1.890493923254463
 20
7.221891805007503
 30
0.0
 10
-1.939244754557543
 20
7.410255735705318
 30
0.0
 10
-2.259266253282782
 20
7.907775317166807
 30
0.0
 10
-2.528770592539189
 20
8.401583086900592
 30
0.0
 10
-2.713195800779999
 20
8.739501953125
 30
0.0
 11
-1.886489868159998
 21
7.206420898437002
 31
0.0
 11
-1.898895263669999
 21
7.252685546875
 31
0.0
 11
-2.140380859369997
 21
7.730407714843003
 31
0.0
 11
-2.713195800779999
 21
8.739501953125
 31
0.0
  0
SPLINE
  5
2191
330
2139
100
AcDbEntity
  8
AM_0
 48
0.5
100
AcDbSpline
210
0.0
220
0.0
230
1.0
 70
     8
 71
     3
 72
    12
 73
     8
 74
     6
 42
0.0000000001
 43
0.0000000001
 44
0.0000000001
 40
0.0
 40
0.0
 40
0.0
 40
0.0
 40
0.01689045256142
 40
1.27691810522863
 40
1.556693741215164
 40
1.603027669147565
 40
1.615185659321583
 40
1.615185659321583
 40
1.615185659321583
 40
1.615185659321583
 10
-6.05389404297
 20
-6.660278320312997
 30
0.0
 10
-6.051056814682847
 20
-6.655416046372633
 30
0.0
 10
-5.836562374385375
 20
-6.287828167690551
 30
0.0
 10
-5.556123739354594
 20
-5.835656100467204
 30
0.0
 10
-5.352935940393168
 20
-5.364855287174535
 30
0.0
 10
-5.292911629845587
 20
-5.260275520275767
 30
0.0
 10
-5.296786700229824
 20
-5.240903966280151
 30
0.0
 10
-5.297592163090001
 20
-5.236877441406996
 30
0.0
 11
-6.05389404297
 21
-6.660278320312997
 31
0.0
 11
-6.045379638669999
 21
-6.645690917968998
 31
0.0
 11
-5.433197021479998
 21
-5.544372558593998
 31
0.0
 11
-5.311187744139999
 21
-5.292602539062997
 31
0.0
 11
-5.295791625980001
 21
-5.248901367187997
 31
0.0
 11
-5.297592163090001
 21
-5.236877441406996
 31
0.0
  0
SPLINE
  5
2192
330
2139
100
AcDbEntity
  8
AM_0
 48
0.5
100
AcDbSpline
210
0.0
220
0.0
230
1.0
 70
     8
 71
     3
 72
    10
 73
     6
 74
     4
 42
0.0000000001
 43
0.0000000001
 44
0.0000000001
 40
0.0
 40
0.0
 40
0.0
 40
0.0
 40
0.0420309625146124
 40
0.5731898755234705
 40
1.7435790821784
 40
1.7435790821784
 40
1.7435790821784
 40
1.7435790821784
 10
-5.297592163090001
 20
-5.236877441406996
 30
0.0
 10
-5.307748284474418
 20
-5.246547183275729
 30
0.0
 10
-5.44625060761563
 20
-5.378416591123725
 30
0.0
 10
-5.71412418006931
 20
-5.907748679733643
 30
0.0
 10
-6.009096931906349
 20
-6.388607471965226
 30
0.0
 10
-6.211990356439997
 20
-6.719360351562997
 30
0.0
 11
-5.297592163090001
 21
-5.236877441406996
 31
0.0
 11
-5.327789306639999
 21
-5.266113281249996
 31
0.0
 11
-5.619186401370001
 21
-5.710205078124996
 31
0.0
 11
-6.211990356439997
 21
-6.719360351562997
 31
0.0
  0
SPLINE
  5
2193
330
2139
100
AcDbEntity
  8
AM_0
 48
0.5
100
AcDbSpline
210
0.0
220
0.0
230
1.0
 70
     8
 71
     3
 72
    11
 73
     7
 74
     5
 42
0.0000000001
 43
0.0000000001
 44
0.0000000001
 40
0.0
 40
0.0
 40
0.0
 40
0.0
 40
1.037612196876513
 40
1.641291935129837
 40
1.702917242510592
 40
1.743779177074349
 40
1.743779177074349
 40
1.743779177074349
 40
1.743779177074349
 10
8.925216674800992
 20
-2.019958496093998
 30
0.0
 10
8.5790038189457
 20
-2.021422919528193
 30
0.0
 10
8.03136533718527
 20
-2.023739340228909
 30
0.0
 10
7.465867001189838
 20
-2.000477282447155
 30
0.0
 10
7.229627617614682
 20
-1.984417768233204
 30
0.0
 10
7.197086699133016
 20
-1.973652494633953
 30
0.0
 10
7.184112548824998
 20
-1.969360351562997
 30
0.0
 11
8.925216674800992
 21
-2.019958496093998
 31
0.0
 11
7.887619018550992
 21
-2.014465332031996
 31
0.0
 11
7.284515380855992
 21
-1.988098144531996
 31
0.0
 11
7.223312377925992
 21
-1.980895996093998
 31
0.0
 11
7.184112548824998
 21
-1.969360351562997
 31
0.0
  0
LINE
  5
2194
330
2139
100
AcDbEntity
  8
AM_7
 48
0.5
100
AcDbLine
 10
0.0
 20
12.5
 30
0.0
 11
0.0
 21
-12.49999999999999
 31
0.0
  0
ARC
  5
2195
330
2139
100
AcDbEntity
  8
AM_0
 48
0.5
100
AcDbCircle
 10
0.0
 20
0.0000000000000036
 30
0.0
 40
9.9999961853027
100
AcDbArc
 50
282.6174264398512
 51
27.80993653595606
  0
LINE
  5
2196
330
2139
100
AcDbEntity
  8
AM_0
 48
0.5
100
AcDbLine
 10
-2.705863952640001
 20
3.028934478759005
 30
0.0
 11
-2.769248962399998
 21
3.255397796631001
 31
0.0
  0
LINE
  5
2197
330
2139
100
AcDbEntity
  8
AM_0
 48
0.5
100
AcDbLine
 10
-2.903701782230001
 20
3.115417480468003
 30
0.0
 11
-2.91660308838
 21
3.340511322021001
 31
0.0
  0
LINE
  5
2198
330
2139
100
AcDbEntity
  8
AM_0
 48
0.5
100
AcDbLine
 10
-3.086235046390001
 20
3.215621948242002
 30
0.0
 11
-3.050933837889999
 21
3.418071746826001
 31
0.0
  0
LINE
  5
2199
330
2139
100
AcDbEntity
  8
AM_0
 48
0.5
100
AcDbLine
 10
-8.02320098877
 20
2.424636840819999
 30
0.0
 11
-4.38870239258
 21
3.946426391601001
 31
0.0
  0
LINE
  5
219A
330
2139
100
AcDbEntity
  8
AM_0
 48
0.5
100
AcDbLine
 10
3.271392822270001
 20
3.364917755127002
 30
0.0
 11
2.334800720220002
 21
2.941825866699005
 31
0.0
  0
LINE
  5
219B
330
2139
100
AcDbEntity
  8
AM_0
 48
0.5
100
AcDbLine
 10
9.082801818844004
 20
3.0927734375
 30
0.0
 11
8.354301452632995
 21
5.303535461424999
 31
0.0
  0
LINE
  5
219C
330
2139
100
AcDbEntity
  8
AM_0
 48
0.5
100
AcDbLine
 10
8.500686645504003
 20
3.442447662353004
 30
0.0
 11
9.079078674312995
 21
3.094795227049999
 31
0.0
  0
LINE
  5
219D
330
2139
100
AcDbEntity
  8
AM_0
 48
0.5
100
AcDbLine
 10
8.096527099605992
 20
3.261886596679005
 30
0.0
 11
5.612022399899998
 21
1.827499389648004
 31
0.0
  0
LINE
  5
219E
330
2139
100
AcDbEntity
  8
AM_0
 48
0.5
100
AcDbLine
 10
6.111312866209999
 20
5.736057281494005
 30
0.0
 11
5.61201477051
 21
1.827573776245003
 31
0.0
  0
LINE
  5
219F
330
2139
100
AcDbEntity
  8
AM_0
 48
0.5
100
AcDbLine
 10
-2.668609619139999
 20
8.213928222656001
 30
0.0
 11
0.8833923339900024
 21
2.085933685302002
 31
0.0
  0
LINE
  5
21A0
330
2139
100
AcDbEntity
  8
AM_0
 48
0.5
100
AcDbLine
 10
-6.65788269043
 20
5.501091003418004
 30
0.0
 11
-2.432167053219998
 21
3.060714721679005
 31
0.0
  0
LINE
  5
21A1
330
2139
100
AcDbEntity
  8
AM_7
 48
0.5
100
AcDbLine
 10
-12.5
 20
0.0000000000000036
 30
0.0
 11
12.49999999999599
 21
0.0000000000000036
 31
0.0
  0
ARC
  5
21A2
330
2139
100
AcDbEntity
  8
AM_0
 48
0.5
100
AcDbCircle
 10
0.0
 20
0.0000000000000036
 30
0.0
 40
10.00006866454999
100
AcDbArc
 50
162.6331971950655
 51
269.9283929799859
  0
LINE
  5
21A3
330
2139
100
AcDbEntity
  8
AM_0
 48
0.5
100
AcDbLine
 10
-8.02320098877
 20
2.424633026123004
 30
0.0
 11
-9.090805053709999
 21
2.828014373779005
 31
0.0
  0
ARC
  5
21A4
330
2139
100
AcDbEntity
  8
AM_0
 48
0.5
100
AcDbCircle
 10
0.0
 20
0.0000000000000036
 30
0.0
 40
9.500003814697299
100
AcDbArc
 50
162.8664481552237
 51
188.9351218773827
  0
LINE
  5
21A5
330
2139
100
AcDbEntity
  8
AM_0
 48
0.5
100
AcDbLine
 10
-9.436004638669999
 20
2.986686706543004
 30
0.0
 11
-9.461494445799999
 21
3.015308380127002
 31
0.0
  0
ARC
  5
21A6
330
2139
100
AcDbEntity
  8
AM_0
 48
0.5
100
AcDbCircle
 10
0.0
 20
0.0000000000000036
 30
0.0
 40
9.499917984008799
100
AcDbArc
 50
282.8662297407499
 51
308.9354123120032
  0
LINE
  5
21A7
330
2139
100
AcDbEntity
  8
AM_0
 48
0.5
100
AcDbLine
 10
2.374900817869999
 20
2.570751190184999
 30
0.0
 11
3.943107604979999
 21
0.7727127075190019
 31
0.0
  0
LINE
  5
21A8
330
2139
100
AcDbEntity
  8
AM_0
 48
0.5
100
AcDbLine
 10
8.447692871089998
 20
-1.795759201049996
 30
0.0
 11
1.364685058589998
 21
-1.807966232299996
 31
0.0
  0
LINE
  5
21A9
330
2139
100
AcDbEntity
  8
AM_0
 48
0.5
100
AcDbLine
 10
2.686141967769998
 20
2.198406219482002
 30
0.0
 11
1.97814178467
 21
1.789716720581001
 31
0.0
  0
LINE
  5
21AA
330
2139
100
AcDbEntity
  8
AM_0
 48
0.5
100
AcDbLine
 10
-1.431388854979999
 20
-4.523174285888998
 30
0.0
 11
-1.42328643799
 21
-5.639722824096995
 31
0.0
  0
LINE
  5
21AB
330
2139
100
AcDbEntity
  8
AM_0
 48
0.5
100
AcDbLine
 10
-1.237464904779997
 20
-5.631288528442997
 30
0.0
 11
-1.245567321780001
 21
-4.514739990234996
 31
0.0
  0
LINE
  5
21AC
330
2139
100
AcDbEntity
  8
AM_0
 48
0.5
100
AcDbLine
 10
-5.779121398919997
 20
-6.417953491210997
 30
0.0
 11
-2.248115539549999
 21
-0.2777366638189989
 31
0.0
  0
LINE
  5
21AD
330
2139
100
AcDbEntity
  8
AM_0
 48
0.5
100
AcDbLine
 10
-1.43508911133
 20
-8.516366958617997
 30
0.0
 11
-1.434593200679998
 21
-3.636606216430998
 31
0.0
  0
ARC
  5
21AE
330
2139
100
AcDbEntity
  8
AM_0
 48
0.5
100
AcDbCircle
 10
0.0
 20
0.0000000000000036
 30
0.0
 40
9.500009536743199
100
AcDbArc
 50
225.2631258659647
 51
257.7029658949647
  0
ARC
  5
21AF
330
2139
100
AcDbEntity
  8
AM_0
 48
0.5
100
AcDbCircle
 10
0.0
 20
0.0000000000000036
 30
0.0
 40
8.848477363586399
100
AcDbArc
 50
228.2347089474057
 51
260.5632237231227
  0
ARC
  5
21B0
330
2139
100
AcDbEntity
  8
AM_0
 48
0.5
100
AcDbCircle
 10
0.0
 20
0.0000000000000036
 30
0.0
 40
8.6364765167236
100
AcDbArc
 50
227.9984936851453
 51
260.4349391101337
  0
LINE
  5
21B1
330
2139
100
AcDbEntity
  8
AM_0
 48
0.5
100
AcDbLine
 10
-6.686592102049999
 20
-6.748268127441996
 30
0.0
 11
-6.422286987299997
 21
-6.797279357909996
 31
0.0
  0
LINE
  5
21B2
330
2139
100
AcDbEntity
  8
AM_0
 48
0.5
100
AcDbLine
 10
-6.4222946167
 20
-6.797300338744996
 30
0.0
 11
-6.211982727049999
 21
-6.719354629516995
 31
0.0
  0
LINE
  5
21B3
330
2139
100
AcDbEntity
  8
AM_0
 48
0.5
100
AcDbLine
 10
-6.05389404297
 20
-6.660310745239996
 30
0.0
 11
-5.893798828119997
 21
-6.599946975707997
 31
0.0
  0
LINE
  5
21B4
330
2139
100
AcDbEntity
  8
AM_0
 48
0.5
100
AcDbLine
 10
-5.893775939939999
 20
-6.599872589111996
 30
0.0
 11
-5.77907562256
 21
-6.417922973632997
 31
0.0
  0
LINE
  5
21B5
330
2139
100
AcDbEntity
  8
AM_0
 48
0.5
100
AcDbLine
 10
-2.03038787842
 20
-9.201200485229996
 30
0.0
 11
-1.440399169919999
 21
-8.874238967895998
 31
0.0
  0
LINE
  5
21B6
330
2139
100
AcDbEntity
  8
AM_0
 48
0.5
100
AcDbLine
 10
1.911827087399998
 20
-8.160463333129996
 30
0.0
 11
2.096328735349999
 21
-9.286809921264996
 31
0.0
  0
LINE
  5
21B7
330
2139
100
AcDbEntity
  8
AM_0
 48
0.5
100
AcDbLine
 10
-1.86299133301
 20
-9.412326812743998
 30
0.0
 11
0.4158172607399991
 21
-9.886814117431995
 31
0.0
  0
ARC
  5
21B8
330
2139
100
AcDbEntity
  8
AM_0
 48
0.5
100
AcDbCircle
 10
0.0564117431599982
 20
0.1227416992180039
 30
0.0
 40
9.487145423889199
100
AcDbArc
 50
256.8427855312739
 51
257.1384234393077
  0
LINE
  5
21B9
330
2139
100
AcDbEntity
  8
AM_0
 48
0.5
100
AcDbLine
 10
-1.863021850590001
 20
-9.412300109863995
 30
0.0
 11
-1.860832214349997
 21
-9.411268234252997
 31
0.0
  0
LINE
  5
21BA
330
2139
100
AcDbEntity
  8
AM_0
 48
0.5
100
AcDbLine
 10
-2.049957275389999
 20
-9.160654067992997
 30
0.0
 11
-2.05966949463
 21
-9.093172073364996
 31
0.0
  0
LINE
  5
21BB
330
2139
100
AcDbEntity
  8
AM_0
 48
0.5
100
AcDbLine
 10
-1.860816955570001
 20
-9.411264419555998
 30
0.0
 11
-1.85932159424
 21
-9.410104751586995
 31
0.0
  0
LINE
  5
21BC
330
2139
100
AcDbEntity
  8
AM_0
 48
0.5
100
AcDbLine
 10
-1.886596679690001
 20
-9.376468658447997
 30
0.0
 11
-1.859382629389997
 21
-9.410114288329996
 31
0.0
  0
LINE
  5
21BD
330
2139
100
AcDbEntity
  8
AM_0
 48
0.5
100
AcDbLine
 10
-1.269187927250001
 20
-9.082897186279996
 30
0.0
 11
-1.85940551758
 21
-9.410112380981995
 31
0.0
  0
LINE
  5
21BE
330
2139
100
AcDbEntity
  8
AM_0
 48
0.5
100
AcDbLine
 10
-2.030403137210001
 20
-9.201181411742997
 30
0.0
 11
-1.886596679690001
 21
-9.376487731933998
 31
0.0
  0
LINE
  5
21BF
330
2139
100
AcDbEntity
  8
AM_0
 48
0.5
100
AcDbLine
 10
-1.269195556639999
 20
-9.082887649535997
 30
0.0
 11
-1.263397216800001
 21
-9.081361770629996
 31
0.0
  0
LINE
  5
21C0
330
2139
100
AcDbEntity
  8
AM_0
 48
0.5
100
AcDbLine
 10
0.4215011596700009
 20
-9.886556625366996
 30
0.0
 11
0.4158020019499987
 21
-9.886739730834996
 31
0.0
  0
LINE
  5
21C1
330
2139
100
AcDbEntity
  8
AM_0
 48
0.5
100
AcDbLine
 10
2.131469726559998
 20
-9.665100097656996
 30
0.0
 11
2.119468688970002
 21
-9.701471328735998
 31
0.0
  0
LINE
  5
21C2
330
2139
100
AcDbEntity
  8
AM_0
 48
0.5
100
AcDbLine
 10
1.911796569830002
 20
-8.160509109496995
 30
0.0
 11
-1.223403930659998
 21
-5.773912429809996
 31
0.0
  0
LINE
  5
21C3
330
2139
100
AcDbEntity
  8
AM_0
 48
0.5
100
AcDbLine
 10
-1.423278808589998
 20
-5.639709472656996
 30
0.0
 11
-1.423278808589998
 21
-8.651794433593998
 31
0.0
  0
LINE
  5
21C4
330
2139
100
AcDbEntity
  8
AM_0
 48
0.5
100
AcDbLine
 10
-1.23750305176
 20
-5.631317138671995
 30
0.0
 11
-1.423301696780001
 21
-5.639739990234996
 31
0.0
  0
LINE
  5
21C5
330
2139
100
AcDbEntity
  8
AM_0
 48
0.5
100
AcDbLine
 10
-1.223426818850001
 20
-5.773851394653995
 30
0.0
 11
-1.237518310550001
 21
-5.631296157836995
 31
0.0
  0
LINE
  5
21C6
330
2139
100
AcDbEntity
  8
AM_0
 48
0.5
100
AcDbLine
 10
-1.216415405269998
 20
-8.747058868408995
 30
0.0
 11
-1.22171020508
 21
-8.678598403930998
 31
0.0
  0
LINE
  5
21C7
330
2139
100
AcDbEntity
  8
AM_0
 48
0.5
100
AcDbLine
 10
-1.223388671869997
 20
-8.642700195312997
 30
0.0
 11
-1.223388671869997
 21
-5.773864746093998
 31
0.0
  0
LINE
  5
21C8
330
2139
100
AcDbEntity
  8
AM_0
 48
0.5
100
AcDbLine
 10
-1.2216796875
 20
-8.678569793700997
 30
0.0
 11
-1.223381042479999
 21
-8.642660140991996
 31
0.0
  0
LINE
  5
21C9
330
2139
100
AcDbEntity
  8
AM_0
 48
0.5
100
AcDbLine
 10
-1.450790405269998
 20
-8.728729248046995
 30
0.0
 11
-1.43508911133
 21
-8.516357421874996
 31
0.0
  0
LINE
  5
21CA
330
2139
100
AcDbEntity
  8
AM_0
 48
0.5
100
AcDbLine
 10
-3.41375732422
 20
0.7714328765870029
 30
0.0
 11
-2.64065551758
 21
3.028507232666001
 31
0.0
  0
LINE
  5
21CB
330
2139
100
AcDbEntity
  8
AM_0
 48
0.5
100
AcDbLine
 10
-4.549705505369999
 20
1.150682449340003
 30
0.0
 11
-3.71501159668
 21
0.551074981689002
 31
0.0
  0
LINE
  5
21CC
330
2139
100
AcDbEntity
  8
AM_0
 48
0.5
100
AcDbLine
 10
1.038803100590001
 20
-3.342100143432997
 30
0.0
 11
-1.302391052250001
 21
-3.801084518432997
 31
0.0
  0
LINE
  5
21CD
330
2139
100
AcDbEntity
  8
AM_0
 48
0.5
100
AcDbLine
 10
-0.5326080322300016
 20
-3.637092590331995
 30
0.0
 11
0.5607986450200002
 21
-3.425422668456995
 31
0.0
  0
LINE
  5
21CE
330
2139
100
AcDbEntity
  8
AM_0
 48
0.5
100
AcDbLine
 10
-1.307579040530001
 20
-3.803123474120997
 30
0.0
 11
-1.434593200679998
 21
-3.873558044433998
 31
0.0
  0
LINE
  5
21CF
330
2139
100
AcDbEntity
  8
AM_0
 48
0.5
100
AcDbLine
 10
-1.307342529300001
 20
-3.803123474120997
 30
0.0
 11
-1.30495452881
 21
-3.801902770995997
 31
0.0
  0
LINE
  5
21D0
330
2139
100
AcDbEntity
  8
AM_0
 48
0.5
100
AcDbLine
 10
-1.30241394043
 20
-3.801057815551995
 30
0.0
 11
-1.305015563959997
 21
-3.801851272582997
 31
0.0
  0
LINE
  5
21D1
330
2139
100
AcDbEntity
  8
AM_0
 48
0.5
100
AcDbLine
 10
-1.33531188965
 20
-3.836626052856995
 30
0.0
 11
-1.3076171875
 21
-3.803180694579996
 31
0.0
  0
LINE
  5
21D2
330
2139
100
AcDbEntity
  8
AM_0
 48
0.5
100
AcDbLine
 10
-1.307373046869997
 20
-3.803131103515998
 30
0.0
 11
-1.335258483890001
 21
-3.836622238159996
 31
0.0
  0
LINE
  5
21D3
330
2139
100
AcDbEntity
  8
AM_0
 48
0.5
100
AcDbLine
 10
-1.270088195799999
 20
-3.857769012450997
 30
0.0
 11
-1.434593200679998
 21
-4.025861740112997
 31
0.0
  0
LINE
  5
21D4
330
2139
100
AcDbEntity
  8
AM_0
 48
0.5
100
AcDbLine
 10
-1.246086120599997
 20
-4.072286605834996
 30
0.0
 11
-1.434593200679998
 21
-4.196004867553998
 31
0.0
  0
LINE
  5
21D5
330
2139
100
AcDbEntity
  8
AM_0
 48
0.5
100
AcDbLine
 10
-1.241607666009997
 20
-4.280475616454996
 30
0.0
 11
-1.43460083008
 21
-4.351213455200998
 31
0.0
  0
LINE
  5
21D6
330
2139
100
AcDbEntity
  8
AM_0
 48
0.5
100
AcDbLine
 10
-1.24560546875
 20
-4.514768600463998
 30
0.0
 11
-1.43140411377
 21
-4.523191452026996
 31
0.0
  0
LINE
  5
21D7
330
2139
100
AcDbEntity
  8
AM_0
 48
0.5
100
AcDbLine
 10
-1.245574951169999
 20
-4.514764785766995
 30
0.0
 11
-1.245277404779997
 21
-4.481805801391995
 31
0.0
  0
LINE
  5
21D8
330
2139
100
AcDbEntity
  8
AM_0
 48
0.5
100
AcDbLine
 10
-0.5691757202099979
 20
-3.657417297363995
 30
0.0
 11
-0.5325851440399987
 21
-3.637096405029996
 31
0.0
  0
LINE
  5
21D9
330
2139
100
AcDbEntity
  8
AM_0
 48
0.5
100
AcDbLine
 10
-1.43460083008
 20
-3.636556625366996
 30
0.0
 11
-0.5326080322300016
 21
-3.637044906616996
 31
0.0
  0
LINE
  5
21DA
330
2139
100
AcDbEntity
  8
AM_0
 48
0.5
100
AcDbLine
 10
-1.32660675049
 20
-3.813619613647997
 30
0.0
 11
-1.465408325189997
 21
-3.796163558959996
 31
0.0
  0
LINE
  5
21DB
330
2139
100
AcDbEntity
  8
AM_0
 48
0.5
100
AcDbLine
 10
-1.474395751949998
 20
-3.774257659911995
 30
0.0
 11
-1.006607055659998
 21
-3.736232757568998
 31
0.0
  0
LINE
  5
21DC
330
2139
100
AcDbEntity
  8
AM_0
 48
0.5
100
AcDbLine
 10
1.278358459469998
 20
-4.515497207641995
 30
0.0
 11
1.380249023440001
 21
-3.492851257324996
 31
0.0
  0
LINE
  5
21DD
330
2139
100
AcDbEntity
  8
AM_0
 48
0.5
100
AcDbLine
 10
0.5608215331999987
 20
-3.425395965575997
 30
0.0
 11
0.5317077636699992
 21
-3.441452026367997
 31
0.0
  0
LINE
  5
21DE
330
2139
100
AcDbEntity
  8
AM_0
 48
0.5
100
AcDbLine
 10
0.5608062744099982
 20
-3.425436019897997
 30
0.0
 11
0.5609054565399987
 21
-2.607992172241996
 31
0.0
  0
LINE
  5
21DF
330
2139
100
AcDbEntity
  8
AM_0
 48
0.5
100
AcDbLine
 10
-2.639907836909998
 20
3.034004211424999
 30
0.0
 11
-2.63730621338
 21
3.179183959961001
 31
0.0
  0
LINE
  5
21E0
330
2139
100
AcDbEntity
  8
AM_0
 48
0.5
100
AcDbLine
 10
-2.640663146969998
 20
3.028469085693004
 30
0.0
 11
-2.640060424799997
 21
3.031147003174005
 31
0.0
  0
LINE
  5
21E1
330
2139
100
AcDbEntity
  8
AM_0
 48
0.5
100
AcDbLine
 10
-2.639877319340001
 20
3.033927917479999
 30
0.0
 11
-2.6400680542
 21
3.031127929687002
 31
0.0
  0
LINE
  5
21E2
330
2139
100
AcDbEntity
  8
AM_0
 48
0.5
100
AcDbLine
 10
-2.654991149899998
 20
3.074703216552002
 30
0.0
 11
-2.63990020752
 21
3.034015655517002
 31
0.0
  0
LINE
  5
21E3
330
2139
100
AcDbEntity
  8
AM_0
 48
0.5
100
AcDbLine
 10
-2.63990020752
 20
3.033931732177002
 30
0.0
 11
-2.654991149899998
 21
3.074684143066001
 31
0.0
  0
LINE
  5
21E4
330
2139
100
AcDbEntity
  8
AM_0
 48
0.5
100
AcDbLine
 10
-2.882804870599997
 20
2.321704864502002
 30
0.0
 11
-2.883506774899998
 21
2.279781341552002
 31
0.0
  0
LINE
  5
21E5
330
2139
100
AcDbEntity
  8
AM_0
 48
0.5
100
AcDbLine
 10
-3.246910095209997
 20
1.226955413818004
 30
0.0
 11
-3.246315002439999
 21
1.260274887085003
 31
0.0
  0
LINE
  5
21E6
330
2139
100
AcDbEntity
  8
AM_0
 48
0.5
100
AcDbLine
 10
-2.432174682620001
 20
3.060737609863004
 30
0.0
 11
-2.883476257319998
 21
2.27978515625
 31
0.0
  0
LINE
  5
21E7
330
2139
100
AcDbEntity
  8
AM_0
 48
0.5
100
AcDbLine
 10
-2.883491516109998
 20
2.279758453369005
 30
0.0
 11
-3.246887207029999
 21
1.226970672607002
 31
0.0
  0
LINE
  5
21E8
330
2139
100
AcDbEntity
  8
AM_0
 48
0.5
100
AcDbLine
 10
-3.246902465819999
 20
1.226976394653004
 30
0.0
 11
-2.53899383545
 21
0.8182811737060013
 31
0.0
  0
LINE
  5
21E9
330
2139
100
AcDbEntity
  8
AM_0
 48
0.5
100
AcDbLine
 10
-2.639472961419997
 20
3.055767059326001
 30
0.0
 11
-2.55487060547
 21
3.167217254638003
 31
0.0
  0
LINE
  5
21EA
330
2139
100
AcDbEntity
  8
AM_0
 48
0.5
100
AcDbLine
 10
-2.531509399409998
 20
3.164123535156001
 30
0.0
 11
-2.73250579834
 21
2.739944458007002
 31
0.0
  0
ARC
  5
21EB
330
2139
100
AcDbEntity
  8
AM_0
 48
0.5
100
AcDbCircle
 10
0.0
 20
0.0000000000000036
 30
0.0
 40
8.848489761352499
100
AcDbArc
 50
348.2349334140841
 51
20.56354808132015
  0
ARC
  5
21EC
330
2139
100
AcDbEntity
  8
AM_0
 48
0.5
100
AcDbCircle
 10
0.0
 20
0.0000000000000036
 30
0.0
 40
8.6364650726318
100
AcDbArc
 50
347.9987932839057
 51
20.43507222302931
  0
LINE
  5
21ED
330
2139
100
AcDbEntity
  8
AM_0
 48
0.5
100
AcDbLine
 10
4.633003234859998
 20
1.022064208984001
 30
0.0
 11
5.59580230713
 21
1.587368011474001
 31
0.0
  0
LINE
  5
21EE
330
2139
100
AcDbEntity
  8
AM_0
 48
0.5
100
AcDbLine
 10
5.49560546875
 20
1.744058609008003
 30
0.0
 11
4.53279876709
 21
1.178747177124002
 31
0.0
  0
LINE
  5
21EF
330
2139
100
AcDbEntity
  8
AM_0
 48
0.5
100
AcDbLine
 10
8.093009948727001
 20
3.015419006347002
 30
0.0
 11
3.866706848150002
 21
0.5759639739990022
 31
0.0
  0
LINE
  5
21F0
330
2139
100
AcDbEntity
  8
AM_0
 48
0.5
100
AcDbLine
 10
3.947441101080002
 20
0.7692375183100033
 30
0.0
 11
4.071914672849999
 21
0.6944198608400037
 31
0.0
  0
LINE
  5
21F1
330
2139
100
AcDbEntity
  8
AM_0
 48
0.5
100
AcDbLine
 10
3.947395324710001
 20
0.7692928314210015
 30
0.0
 11
3.945114135739999
 21
0.7709293365480044
 31
0.0
  0
LINE
  5
21F2
330
2139
100
AcDbEntity
  8
AM_0
 48
0.5
100
AcDbLine
 10
3.943092346189999
 20
0.7727127075190019
 30
0.0
 11
3.945106506350001
 21
0.7709369659420027
 31
0.0
  0
LINE
  5
21F3
330
2139
100
AcDbEntity
  8
AM_0
 48
0.5
100
AcDbLine
 10
3.990188598629998
 20
0.7618827819820027
 30
0.0
 11
3.947402954099999
 21
0.769205093383004
 31
0.0
  0
LINE
  5
21F4
330
2139
100
AcDbEntity
  8
AM_0
 48
0.5
100
AcDbLine
 10
3.947402954099999
 20
0.7693176269530042
 30
0.0
 11
3.990211486820001
 21
0.7619304656980042
 31
0.0
  0
LINE
  5
21F5
330
2139
100
AcDbEntity
  8
AM_0
 48
0.5
100
AcDbLine
 10
3.976013183589998
 20
0.8290023803710013
 30
0.0
 11
4.20379638672
 21
0.7705955505370028
 31
0.0
  0
LINE
  5
21F6
330
2139
100
AcDbEntity
  8
AM_0
 48
0.5
100
AcDbLine
 10
4.149787902829999
 20
0.9570999145500032
 30
0.0
 11
4.351203918460001
 21
0.8555870056150034
 31
0.0
  0
LINE
  5
21F7
330
2139
100
AcDbEntity
  8
AM_0
 48
0.5
100
AcDbLine
 10
4.327934265140001
 20
1.065008163452002
 30
0.0
 11
4.485626220699998
 21
0.9332351684570028
 31
0.0
  0
LINE
  5
21F8
330
2139
100
AcDbEntity
  8
AM_0
 48
0.5
100
AcDbLine
 10
4.532775878910001
 20
1.178712844848003
 30
0.0
 11
4.632972717290002
 21
1.022037506103004
 31
0.0
  0
LINE
  5
21F9
330
2139
100
AcDbEntity
  8
AM_0
 48
0.5
100
AcDbLine
 10
4.532821655269998
 20
1.178707122802002
 30
0.0
 11
4.504035949710001
 21
1.162538528442002
 31
0.0
  0
LINE
  5
21FA
330
2139
100
AcDbEntity
  8
AM_0
 48
0.5
100
AcDbLine
 10
3.452003478999998
 20
1.335807800293004
 30
0.0
 11
3.41609954834
 21
1.357292175293004
 31
0.0
  0
LINE
  5
21FB
330
2139
100
AcDbEntity
  8
AM_0
 48
0.5
100
AcDbLine
 10
2.686088562009999
 20
2.198417663574005
 30
0.0
 11
2.714591979979999
 21
2.181324005127002
 31
0.0
  0
LINE
  5
21FC
330
2139
100
AcDbEntity
  8
AM_0
 48
0.5
100
AcDbLine
 10
3.866706848150002
 20
0.575950622558004
 30
0.0
 11
3.41609954834
 21
1.357273101806001
 31
0.0
  0
LINE
  5
21FD
330
2139
100
AcDbEntity
  8
AM_0
 48
0.5
100
AcDbLine
 10
3.416084289549999
 20
1.357309341430003
 30
0.0
 11
2.686103820799999
 21
2.198421478271001
 31
0.0
  0
LINE
  5
21FE
330
2139
100
AcDbEntity
  8
AM_0
 48
0.5
100
AcDbLine
 10
3.966110229489999
 20
0.7580261230470029
 30
0.0
 11
4.020309448239999
 21
0.6290607452390021
 31
0.0
  0
LINE
  5
21FF
330
2139
100
AcDbEntity
  8
AM_0
 48
0.5
100
AcDbLine
 10
4.005920410160001
 20
0.6102771759030042
 30
0.0
 11
3.7391204834
 21
0.9965076446530041
 31
0.0
  0
LINE
  5
2200
330
2139
100
AcDbEntity
  8
AM_0
 48
0.5
100
AcDbLine
 10
5.595832824710001
 20
1.587358474731001
 30
0.0
 11
8.204338073727001
 21
3.093341827392002
 31
0.0
  0
LINE
  5
2201
330
2139
100
AcDbEntity
  8
AM_0
 48
0.5
100
AcDbLine
 10
5.495590209959999
 20
1.743955612182002
 30
0.0
 11
5.59578704834
 21
1.587280273437002
 31
0.0
  0
LINE
  5
2202
330
2139
100
AcDbEntity
  8
AM_0
 48
0.5
100
AcDbLine
 10
5.611991882330002
 20
1.827554702758003
 30
0.0
 11
5.495597839360002
 21
1.744056701660003
 31
0.0
  0
LINE
  5
2203
330
2139
100
AcDbEntity
  8
AM_0
 48
0.5
100
AcDbLine
 10
8.284698486324998
 20
3.108062744139999
 30
0.0
 11
8.093002319332001
 21
3.015472412109005
 31
0.0
  0
ARC
  5
2204
330
2139
100
AcDbEntity
  8
AM_0
 48
0.5
100
AcDbCircle
 10
0.0
 20
0.0000000000000036
 30
0.0
 40
9.5000057220459
100
AcDbArc
 50
345.2632214128194
 51
17.70312974371676
  0
LINE
  5
2205
330
2139
100
AcDbEntity
  8
AM_0
 48
0.5
100
AcDbLine
 10
9.187507629390992
 20
-2.416563034057997
 30
0.0
 11
9.097908020015992
 21
-2.163202285766995
 31
0.0
  0
LINE
  5
2206
330
2139
100
AcDbEntity
  8
AM_0
 48
0.5
100
AcDbLine
 10
9.097854614254003
 20
-2.163202285766995
 30
0.0
 11
8.925163269039003
 21
-2.019962310790997
 31
0.0
  0
LINE
  5
2207
330
2139
100
AcDbEntity
  8
AM_0
 48
0.5
100
AcDbLine
 10
8.794891357417995
 20
-1.912628173827997
 30
0.0
 11
8.662605285640992
 21
-1.804241180419996
 31
0.0
  0
LINE
  5
2208
330
2139
100
AcDbEntity
  8
AM_0
 48
0.5
100
AcDbLine
 10
8.662597656245992
 20
-1.804243087768998
 30
0.0
 11
8.447700500484998
 21
-1.795820236205997
 31
0.0
  0
ARC
  5
2209
330
2139
100
AcDbEntity
  8
AM_0
 48
0.5
100
AcDbCircle
 10
-0.0820922851600017
 20
0.0035400390620026
 30
0.0
 40
9.432386398315399
100
AcDbArc
 50
16.84213829505882
 51
17.13939495792475
  0
LINE
  5
220A
330
2139
100
AcDbEntity
  8
AM_0
 48
0.5
100
AcDbLine
 10
9.082817077632995
 20
3.092842102049999
 30
0.0
 11
9.080924987789003
 21
3.09423828125
 31
0.0
  0
LINE
  5
220B
330
2139
100
AcDbEntity
  8
AM_0
 48
0.5
100
AcDbLine
 10
8.958549499507995
 20
2.804985046386001
 30
0.0
 11
8.904930114742001
 21
2.762920379638003
 31
0.0
  0
LINE
  5
220C
330
2139
100
AcDbEntity
  8
AM_0
 48
0.5
100
AcDbLine
 10
9.080909728999998
 20
3.094242095947002
 30
0.0
 11
9.079109191890992
 21
3.094913482666001
 31
0.0
  0
LINE
  5
220D
330
2139
100
AcDbEntity
  8
AM_0
 48
0.5
100
AcDbLine
 10
9.063598632809004
 20
3.054420471191001
 30
0.0
 11
9.079101562495992
 21
3.094787597656001
 31
0.0
  0
LINE
  5
220E
330
2139
100
AcDbEntity
  8
AM_0
 48
0.5
100
AcDbLine
 10
8.983711242672001
 20
2.842216491699005
 30
0.0
 11
8.405494689937995
 21
3.189697265625
 31
0.0
  0
LINE
  5
220F
330
2139
100
AcDbEntity
  8
AM_0
 48
0.5
100
AcDbLine
 10
8.983711242672001
 20
2.842205047607002
 30
0.0
 11
9.063613891597995
 21
3.054439544677002
 31
0.0
  0
ARC
  5
2210
330
2139
100
AcDbEntity
  8
AM_0
 48
0.5
100
AcDbCircle
 10
0.0
 20
0.0000000000000036
 30
0.0
 40
10.000012397766
100
AcDbArc
 50
42.52867830108473
 51
149.5518276513641
  0
ARC
  5
2211
330
2139
100
AcDbEntity
  8
AM_0
 48
0.5
100
AcDbCircle
 10
0.0
 20
0.0000000000000036
 30
0.0
 40
9.499994277954099
100
AcDbArc
 50
105.2631598653263
 51
137.7026652150623
  0
ARC
  5
2212
330
2139
100
AcDbEntity
  8
AM_0
 48
0.5
100
AcDbCircle
 10
0.0
 20
0.0000000000000036
 30
0.0
 40
8.848581314086899
100
AcDbArc
 50
108.2353030222828
 51
140.5626156847091
  0
ARC
  5
2213
330
2139
100
AcDbEntity
  8
AM_0
 48
0.5
100
AcDbCircle
 10
0.0
 20
0.0000000000000036
 30
0.0
 40
8.6365261077881
100
AcDbArc
 50
107.9983705901596
 51
140.4347272226868
  0
LINE
  5
2214
330
2139
100
AcDbEntity
  8
AM_0
 48
0.5
100
AcDbLine
 10
-3.201499938959997
 20
3.501342773437002
 30
0.0
 11
-4.172500610349999
 21
4.052490234375
 31
0.0
  0
LINE
  5
2215
330
2139
100
AcDbEntity
  8
AM_0
 48
0.5
100
AcDbLine
 10
-3.287185668939997
 20
3.336227416992002
 30
0.0
 11
-3.201499938959997
 21
3.501316070556001
 31
0.0
  0
LINE
  5
2216
330
2139
100
AcDbEntity
  8
AM_0
 48
0.5
100
AcDbLine
 10
-4.17253112793
 20
4.052494049072002
 30
0.0
 11
-6.78101348877
 21
5.558525085449005
 31
0.0
  0
LINE
  5
2217
330
2139
100
AcDbEntity
  8
AM_0
 48
0.5
100
AcDbLine
 10
-6.873207092279997
 20
5.380790710449005
 30
0.0
 11
-4.388710021969998
 21
3.946403503418004
 31
0.0
  0
ARC
  5
2218
330
2139
100
AcDbEntity
  8
AM_0
 48
0.5
100
AcDbCircle
 10
0.062408447270002
 20
-0.0955810546879974
 30
0.0
 40
9.4656991958618
100
AcDbArc
 50
136.8424711909922
 51
137.1383959669678
  0
LINE
  5
2219
330
2139
100
AcDbEntity
  8
AM_0
 48
0.5
100
AcDbLine
 10
-8.77279663086
 20
4.578289031982002
 30
0.0
 11
-8.77018737793
 21
4.583297729492002
 31
0.0
  0
LINE
  5
221A
330
2139
100
AcDbEntity
  8
AM_0
 48
0.5
100
AcDbLine
 10
-7.219787597660001
 20
6.319637298584005
 30
0.0
 11
-8.77018737793
 21
4.583305358886001
 31
0.0
  0
LINE
  5
221B
330
2139
100
AcDbEntity
  8
AM_0
 48
0.5
100
AcDbLine
 10
-7.219764709469998
 20
6.319656372069999
 30
0.0
 11
-7.22006225586
 21
6.317230224609005
 31
0.0
  0
LINE
  5
221C
330
2139
100
AcDbEntity
  8
AM_0
 48
0.5
100
AcDbLine
 10
-6.908378601069998
 20
6.355838775634005
 30
0.0
 11
-6.845207214349997
 21
6.330455780029005
 31
0.0
  0
LINE
  5
221D
330
2139
100
AcDbEntity
  8
AM_0
 48
0.5
100
AcDbLine
 10
-7.220108032230001
 20
6.317203521728004
 30
0.0
 11
-7.219802856439997
 21
6.315338134764999
 31
0.0
  0
LINE
  5
221E
330
2139
100
AcDbEntity
  8
AM_0
 48
0.5
100
AcDbLine
 10
-7.17700958252
 20
6.322143554687002
 30
0.0
 11
-7.219703674320001
 21
6.3154296875
 31
0.0
  0
LINE
  5
221F
330
2139
100
AcDbEntity
  8
AM_0
 48
0.5
100
AcDbLine
 10
-7.23147583008
 20
5.640670776367002
 30
0.0
 11
-7.21967315674
 21
6.315494537353004
 31
0.0
  0
LINE
  5
2220
330
2139
100
AcDbEntity
  8
AM_0
 48
0.5
100
AcDbLine
 10
-6.953285217279997
 20
6.358997344969999
 30
0.0
 11
-6.965080261229999
 21
5.684600830078004
 31
0.0
  0
LINE
  5
2221
330
2139
100
AcDbEntity
  8
AM_0
 48
0.5
100
AcDbLine
 10
-6.953315734859998
 20
6.358989715576001
 30
0.0
 11
-7.17700958252
 21
6.322124481201001
 31
0.0
  0
LINE
  5
2222
330
2139
100
AcDbEntity
  8
AM_0
 48
0.5
100
AcDbLine
 10
-7.231498718259999
 20
5.640617370604999
 30
0.0
 11
-7.23309326172
 21
5.634883880614999
 31
0.0
  0
LINE
  5
2223
330
2139
100
AcDbEntity
  8
AM_0
 48
0.5
100
AcDbLine
 10
-6.967094421390001
 20
5.426986694336001
 30
0.0
 11
-6.904998779300001
 21
5.397384643554005
 31
0.0
  0
LINE
  5
2224
330
2139
100
AcDbEntity
  8
AM_0
 48
0.5
100
AcDbLine
 10
-6.904998779300001
 20
5.397403717041001
 30
0.0
 11
-6.873184204099999
 21
5.380794525146001
 31
0.0
  0
LINE
  5
2225
330
2139
100
AcDbEntity
  8
AM_0
 48
0.5
100
AcDbLine
 10
-6.833900451659999
 20
5.620906829834005
 30
0.0
 11
-6.65791320801
 21
5.501106262207002
 31
0.0
  0
LINE
  5
2226
330
2139
100
AcDbEntity
  8
AM_0
 48
0.5
100
AcDbLine
 10
-4.258186340329999
 20
3.887393951416001
 30
0.0
 11
-4.172485351559998
 21
4.052509307861001
 31
0.0
  0
LINE
  5
2227
330
2139
100
AcDbEntity
  8
AM_0
 48
0.5
100
AcDbLine
 10
-4.38868713379
 20
3.946407318114999
 30
0.0
 11
-4.258193969730001
 21
3.887390136718003
 31
0.0
  0
LINE
  5
2228
330
2139
100
AcDbEntity
  8
AM_0
 48
0.5
100
AcDbLine
 10
-3.28719329834
 20
3.336242675781001
 30
0.0
 11
-3.25872039795
 21
3.319408416748004
 31
0.0
  0
LINE
  5
2229
330
2139
100
AcDbEntity
  8
AM_0
 48
0.5
100
AcDbLine
 10
-4.258178710940001
 20
3.887386322021001
 30
0.0
 11
-3.287178039549999
 21
3.336238861084005
 31
0.0
  0
LINE
  5
222A
330
2139
100
AcDbEntity
  8
AM_0
 48
0.5
100
AcDbLine
 10
-2.500869750980001
 20
9.164920806884005
 30
0.0
 11
-2.675468444819998
 21
8.960632324218003
 31
0.0
  0
LINE
  5
222B
330
2139
100
AcDbEntity
  8
AM_0
 48
0.5
100
AcDbLine
 10
-2.675483703609998
 20
8.960620880127002
 30
0.0
 11
-2.713172912600001
 21
8.739505767822002
 31
0.0
  0
LINE
  5
222C
330
2139
100
AcDbEntity
  8
AM_0
 48
0.5
100
AcDbLine
 10
-2.741020202640001
 20
8.573020935058003
 30
0.0
 11
-2.768928527829999
 21
8.404232025146001
 31
0.0
  0
LINE
  5
222D
330
2139
100
AcDbEntity
  8
AM_0
 48
0.5
100
AcDbLine
 10
-2.768943786619999
 20
8.404289245604999
 30
0.0
 11
-2.66862487793
 21
8.213958740234005
 31
0.0
  0
ARC
  5
222E
330
2139
100
AcDbEntity
  8
AM_0
 48
0.5
100
AcDbCircle
 10
0.0
 20
0.0000000000000036
 30
0.0
 40
9.499987602233899
100
AcDbArc
 50
42.86674875933568
 51
68.93542589659247
  0
LINE
  5
222F
330
2139
100
AcDbEntity
  8
AM_0
 48
0.5
100
AcDbLine
 10
7.304489135739004
 20
6.678588867187002
 30
0.0
 11
7.342086791989004
 21
6.686401367187002
 31
0.0
  0
LINE
  5
2230
330
2139
100
AcDbEntity
  8
AM_0
 48
0.5
100
AcDbLine
 10
8.183410644527995
 20
3.320194244384005
 30
0.0
 11
8.126708984370992
 21
3.281311035156001
 31
0.0
  0
LINE
  5
2231
330
2139
100
AcDbEntity
  8
AM_0
 48
0.5
100
AcDbLine
 10
8.126647949214998
 20
3.281314849853004
 30
0.0
 11
8.096458435054998
 21
3.261909484863004
 31
0.0
  0
LINE
  5
2232
330
2139
100
AcDbEntity
  8
AM_0
 48
0.5
100
AcDbLine
 10
6.111328125
 20
5.736007690429005
 30
0.0
 11
6.994415283199998
 21
6.458900451659999
 31
0.0
  0
LINE
  5
2233
330
2139
100
AcDbEntity
  8
AM_0
 48
0.5
100
AcDbLine
 10
8.351295471187995
 20
5.308418273924999
 30
0.0
 11
8.354293823239004
 21
5.303596496582002
 31
0.0
  0
LINE
  5
2234
330
2139
100
AcDbEntity
  8
AM_0
 48
0.5
100
AcDbLine
 10
8.500694274899004
 20
3.442447662353004
 30
0.0
 11
8.496505737300992
 21
3.446590423584005
 31
0.0
  0
ENDBLK
  5
2236
330
2139
100
AcDbEntity
  8
0
100
AcDbBlockEnd
  0
ENDSEC
  0
SECTION
  2
ENTITIES
  0
TEXT
  5
1142
330
1F
100
AcDbEntity
  8
AM_6
100
AcDbText
 10
-74.04761904761854
 20
-56.49999999999998
 30
0.0
 40
5.0
  1
WEM2020E
 72
     4
 11
-54.9999999999995
 21
-53.99999999999998
 31
0.0
100
AcDbText
  0
DIMENSION
  5
155D
330
1F
100
AcDbEntity
  8
AM_5
100
AcDbDimension
  2
*D5
 10
-29.99999237060499
 20
-24.00000000000004
 30
0.0
 11
-14.99999618530249
 21
-20.60000000000004
 31
0.0
 70
    32
  1
<>
  3
AM_JIS$0
100
AcDbAlignedDimension
 13
-0.0000000000000008
 23
-6.0
 33
0.0
 14
-29.99999237060499
 24
-9.499999999999982
 34
0.0
 50
0.0000000000001132
100
AcDbRotatedDimension
1001
ACAD
1000
DSTYLE
1002
{
1070
   171
1070
     0
1070
   271
1070
     0
1002
}
1001
GENIUS_GENDTOL_13
1000

1000
h7
1000

1040
0.0
  0
DIMENSION
  5
15E8
330
1F
100
AcDbEntity
  8
AM_5
100
AcDbDimension
  2
*D6
 10
-109.9999999999989
 20
-24.0000000000002
 30
0.0
 11
-69.999996185302
 21
-20.6000000000002
 31
0.0
 70
    32
  1
<>
  3
AM_JIS$0
100
AcDbAlignedDimension
 13
-29.99999237060499
 23
-9.499999999999982
 33
0.0
 14
-109.9999999999989
 24
-7.661499023436975
 34
0.0
 50
0.0000000000001132
100
AcDbRotatedDimension
1001
ACAD
1000
DSTYLE
1002
{
1070
   171
1070
     0
1070
   271
1070
     0
1002
}
1001
GENIUS_GENDTOL_13
1000

1000
h7
1000

1040
0.0
  0
DIMENSION
  5
1673
330
1F
100
AcDbEntity
  8
AM_5
100
AcDbDimension
  2
*D7
 10
-0.0000000000000025
 20
-33.99999999999998
 30
0.0
 11
-54.9999999999995
 21
-30.59999999999998
 31
0.0
 70
    32
  1
<>
  3
AM_JIS$0
100
AcDbAlignedDimension
 13
-109.9999999999989
 23
-7.661499023436975
 33
0.0
 14
-0.0000000000000009
 24
-7.918792724599995
 34
0.0
 50
0.0000000000001132
100
AcDbRotatedDimension
1001
ACAD
1000
DSTYLE
1002
{
1070
   171
1070
     0
1070
   271
1070
     0
1002
}
1001
GENIUS_GENDTOL_13
1000

1000
h7
1000

1040
0.0
  0
DIMENSION
  5
1895
330
1F
100
AcDbEntity
  8
AM_5
100
AcDbDimension
  2
*D8
 10
14.00000000000001
 20
10.0
 30
0.0
 11
10.6
 21
0.000000000000012
 31
0.0
 70
    32
  1
%%c<>
  3
AM_JIS$0
100
AcDbAlignedDimension
 13
0.0000000000000059
 23
-9.999999999999985
 33
0.0
 14
0.0000000000000089
 24
10.00000000000001
 34
0.0
 50
90.00000000000003
100
AcDbRotatedDimension
1001
ACAD
1000
DSTYLE
1002
{
1070
   171
1070
     0
1070
   271
1070
     0
1002
}
1001
GENIUS_GENDTOL_13
1000

1000
h7
1000

1040
0.0
  0
LINE
  5
1D46
330
1F
100
AcDbEntity
  8
AM_0
100
AcDbLine
 10
-106.9999999999989
 20
-9.999999999999973
 30
0.0
 11
-30.86599731445299
 21
-9.999999999999982
 31
0.0
  0
LINE
  5
1D47
330
1F
100
AcDbEntity
  8
AM_0
100
AcDbLine
 10
-30.86599731445299
 20
10.00000000000001
 30
0.0
 11
-106.9999999999989
 21
10.00000000000002
 31
0.0
  0
ELLIPSE
  5
1D4B
330
1F
100
AcDbEntity
  8
AM_0
100
AcDbEllipse
 10
-8.479995727538991
 20
0.0000000000000117
 30
0.0
 11
120.8245338240999
 21
-8.252138520275016
 31
0.0
210
0.0
220
0.0
230
1.0
 40
0.0388979683383
 41
4.600116850935348
 42
4.701478321991404
  0
SPLINE
  5
1D4C
330
1F
100
AcDbEntity
  8
AM_0
100
AcDbSpline
210
0.0
220
0.0
230
1.0
 70
     8
 71
     3
 72
    11
 73
     7
 74
     5
 42
0.0000000001
 43
0.0000000001
 44
0.0000000001
 40
0.0
 40
0.0
 40
0.0
 40
0.0
 40
1.518140427412854
 40
3.134179043488391
 40
4.819093496649918
 40
6.54293172869056
 40
6.54293172869056
 40
6.54293172869056
 40
6.54293172869056
 10
-18.34839248657198
 20
-9.499999999999984
 30
0.0
 10
-17.8423876333494
 20
-9.490009053690327
 30
0.0
 10
-16.79774790290215
 20
-9.46938288895423
 30
0.0
 10
-15.19422671306226
 20
-9.368900550654892
 30
0.0
 10
-13.52322577307812
 20
-9.254982349322688
 30
0.0
 10
-12.38852066251096
 20
-9.195166452647846
 30
0.0
 10
-11.81468963622999
 20
-9.164916992186986
 30
0.0
 11
-18.34839248657198
 21
-9.499999999999984
 31
0.0
 11
-16.83079147338899
 21
-9.459533691405985
 31
0.0
 11
-15.21729660034199
 21
-9.368896484374984
 31
0.0
 11
-13.53589630126899
 21
-9.260131835936986
 31
0.0
 11
-11.81468963622999
 21
-9.164916992186986
 31
0.0
  0
SPLINE
  5
1D4D
330
1F
100
AcDbEntity
  8
AM_0
100
AcDbSpline
210
0.0
220
0.0
230
1.0
 70
     8
 71
     3
 72
    11
 73
     7
 74
     5
 42
0.0000000001
 43
0.0000000001
 44
0.0000000001
 40
0.0
 40
0.0
 40
0.0
 40
0.0
 40
0.7890957663989511
 40
1.636327849456585
 40
2.557138654761973
 40
3.563763032399637
 40
3.563763032399637
 40
3.563763032399637
 40
3.563763032399637
 10
-21.81988906860298
 20
-8.865234374999982
 30
0.0
 10
-21.57956629572539
 20
-8.973465558267333
 30
0.0
 10
-21.0812150652875
 20
-9.19790181417099
 30
0.0
 10
-20.24714627130141
 20
-9.3932779325563
 30
0.0
 10
-19.32741620603829
 20
-9.506679863555419
 30
0.0
 10
-18.68427835458252
 20
-9.502291744034266
 30
0.0
 10
-18.34839248657198
 20
-9.499999999999984
 30
0.0
 11
-21.81988906860298
 21
-8.865234374999982
 31
0.0
 11
-21.09069442748999
 21
-9.166809082030985
 31
0.0
 11
-20.26899337768499
 21
-9.373229980467987
 31
0.0
 11
-19.35489273071299
 21
-9.484191894530985
 31
0.0
 11
-18.34839248657198
 21
-9.499999999999984
 31
0.0
  0
ELLIPSE
  5
1D4E
330
1F
100
AcDbEntity
  8
AM_0
100
AcDbEllipse
 10
-13.28389358520499
 20
0.0000000000000123
 30
0.0
 11
10.41828604558699
 21
-9.493590877409003
 31
0.0
210
0.0
220
0.0
230
1.0
 40
0.0340131800758
 41
3.102011677299462
 42
3.784192443475461
  0
ELLIPSE
  5
1D4F
330
1F
100
AcDbEntity
  8
AM_0
100
AcDbEllipse
 10
-13.28389358520499
 20
0.0000000000000123
 30
0.0
 11
10.41828604558699
 21
-9.493590877409003
 31
0.0
210
0.0
220
0.0
230
1.0
 40
0.0340131800758
 41
3.057684355207148
 42
3.102011677299462
  0
SPLINE
  5
1D50
330
1F
100
AcDbEntity
  8
AM_0
100
AcDbSpline
210
0.0
220
0.0
230
1.0
 70
     8
 71
     3
 72
    11
 73
     7
 74
     5
 42
0.0000000001
 43
0.0000000001
 44
0.0000000001
 40
0.0
 40
0.0
 40
0.0
 40
0.0
 40
0.3628867353557565
 40
0.7247725935754934
 40
1.11860846603727
 40
1.602119284905731
 40
1.602119284905731
 40
1.602119284905731
 40
1.602119284905731
 10
-6.107795715331987
 20
6.719360351563012
 30
0.0
 10
-6.084989692328196
 20
6.839243604666899
 30
0.0
 10
-6.03944054756435
 20
7.078679461128256
 30
0.0
 10
-5.830750022146544
 20
7.396930215147661
 30
0.0
 10
-5.498603705099787
 20
7.664661112672929
 30
0.0
 10
-5.204678156113797
 20
7.711730621049579
 30
0.0
 10
-5.042694091796987
 20
7.737670898438012
 30
0.0
 11
-6.107795715331987
 21
6.719360351563012
 31
0.0
 11
-6.016899108886987
 21
7.070678710938012
 31
0.0
 11
-5.822593688964992
 21
7.375976562500011
 31
0.0
 11
-5.510795593261987
 21
7.616577148438012
 31
0.0
 11
-5.042694091796987
 21
7.737670898438012
 31
0.0
  0
ELLIPSE
  5
1D51
330
1F
100
AcDbEntity
  8
AM_0
100
AcDbEllipse
 10
-4.891899108886987
 20
6.484375000000011
 30
0.0
 11
-0.9236373610210007
 21
-0.8814087117720001
 31
0.0
210
0.0
220
0.0
230
1.0
 40
0.9559117542261999
 41
5.309640783353258
 42
6.913707304927437
  0
SPLINE
  5
1D52
330
1F
100
AcDbEntity
  8
AM_0
100
AcDbSpline
210
0.0
220
0.0
230
1.0
 70
     8
 71
     3
 72
    11
 73
     7
 74
     5
 42
0.0000000001
 43
0.0000000001
 44
0.0000000001
 40
0.0
 40
0.0
 40
0.0
 40
0.0
 40
0.507064652197097
 40
1.428472040008095
 40
2.360543346470844
 40
2.898649572101319
 40
2.898649572101319
 40
2.898649572101319
 40
2.898649572101319
 10
-6.107795715331989
 20
-8.739501953124985
 30
0.0
 10
-6.015212625836771
 20
-8.595492485127417
 30
0.0
 10
-5.754393114659173
 20
-8.189797673549415
 30
0.0
 10
-4.950293066503931
 20
-7.884679397210911
 30
0.0
 10
-4.11510646298201
 20
-8.084420743791174
 30
0.0
 10
-3.772785774659902
 20
-8.442087020243402
 30
0.0
 10
-3.64749145507799
 20
-8.572998046874985
 30
0.0
 11
-6.107795715331989
 21
-8.739501953124985
 31
0.0
 11
-5.801597595214993
 21
-8.335327148436988
 31
0.0
 11
-4.949996948241989
 21
-7.983520507811987
 31
0.0
 11
-4.046295166015995
 21
-8.211730957030987
 31
0.0
 11
-3.64749145507799
 21
-8.572998046874985
 31
0.0
  0
SPLINE
  5
1D53
330
1F
100
AcDbEntity
  8
AM_0
100
AcDbSpline
210
0.0
220
0.0
230
1.0
 70
     8
 71
     3
 72
    11
 73
     7
 74
     5
 42
0.0000000001
 43
0.0000000001
 44
0.0000000001
 40
0.0
 40
0.0
 40
0.0
 40
0.0
 40
0.2004377538414855
 40
0.397816235542841
 40
0.5956716468823453
 40
0.7975435836975873
 40
0.7975435836975873
 40
0.7975435836975873
 40
0.7975435836975873
 10
-9.914398193358991
 20
2.886901855469014
 30
0.0
 10
-9.981090560509347
 20
2.892440668013317
 30
0.0
 10
-10.11345737230358
 20
2.903433754462962
 30
0.0
 10
-10.30645946137783
 20
2.95328716730182
 30
0.0
 10
-10.49262404217179
 20
3.025813106989853
 30
0.0
 10
-10.60715833799117
 20
3.094312438185774
 30
0.0
 10
-10.66500091552698
 20
3.128906250000011
 30
0.0
 11
-9.914398193358991
 21
2.886901855469014
 31
0.0
 11
-10.11359405517599
 21
2.909179687500012
 31
0.0
 11
-10.30509948730499
 21
2.956970214844014
 31
0.0
 11
-10.48889923095698
 21
3.030212402344014
 31
0.0
 11
-10.66500091552698
 21
3.128906250000011
 31
0.0
  0
SPLINE
  5
1D54
330
1F
100
AcDbEntity
  8
AM_0
100
AcDbSpline
210
0.0
220
0.0
230
1.0
 70
     8
 71
     3
 72
    11
 73
     7
 74
     5
 42
0.0000000001
 43
0.0000000001
 44
0.0000000001
 40
0.0
 40
0.0
 40
0.0
 40
0.0
 40
0.1479714712475319
 40
0.2938056575809948
 40
0.4390717945631027
 40
0.5851768543771638
 40
0.5851768543771638
 40
0.5851768543771638
 40
0.5851768543771638
 10
-9.33939361572299
 20
2.974975585938013
 30
0.0
 10
-9.38629543768669
 20
2.959575392802071
 30
0.0
 10
-9.479421636457399
 20
2.928997445356981
 30
0.0
 10
-9.623287331252081
 20
2.90054379242865
 30
0.0
 10
-9.768463010391419
 20
2.88466377054898
 30
0.0
 10
-9.865659848559056
 20
2.886154396547142
 30
0.0
 10
-9.914398193358991
 20
2.886901855469014
 30
0.0
 11
-9.33939361572299
 21
2.974975585938013
 31
0.0
 11
-9.480895996093991
 21
2.931701660157011
 31
0.0
 11
-9.623794555663991
 21
2.902587890625012
 31
0.0
 11
-9.768295288085994
 21
2.887695312500012
 31
0.0
 11
-9.914398193358991
 21
2.886901855469014
 31
0.0
  0
ELLIPSE
  5
1D55
330
1F
100
AcDbEntity
  8
AM_0
100
AcDbEllipse
 10
-4.579597473143991
 20
3.137878417969013
 30
0.0
 11
1.499397266226999
 21
-0.0426027063870011
 31
0.0
210
0.0
220
0.0
230
1.0
 40
0.1901805954288
 41
1.960943230825914
 42
3.064536088536435
  0
ELLIPSE
  5
1D56
330
1F
100
AcDbEntity
  8
AM_0
100
AcDbEllipse
 10
-4.579597473143991
 20
3.137878417969013
 30
0.0
 11
1.499397266226999
 21
-0.0426027063870011
 31
0.0
210
0.0
220
0.0
230
1.0
 40
0.1901805954288
 41
0.2130740312399734
 42
1.325962568633812
  0
SPLINE
  5
1D57
330
1F
100
AcDbEntity
  8
AM_0
100
AcDbSpline
210
0.0
220
0.0
230
1.0
 70
     8
 71
     3
 72
    11
 73
     7
 74
     5
 42
0.0000000001
 43
0.0000000001
 44
0.0000000001
 40
0.0
 40
0.0
 40
0.0
 40
0.0
 40
0.4017070540228108
 40
0.789001626106238
 40
1.122152845366281
 40
1.304813909363876
 40
1.304813909363876
 40
1.304813909363876
 40
1.304813909363876
 10
-22.33858871459999
 20
9.433471679688015
 30
0.0
 10
-22.47251107339337
 20
9.433211361402038
 30
0.0
 10
-22.73555091250449
 20
9.432700064553049
 30
0.0
 10
-23.10930552960138
 20
9.446304181260542
 30
0.0
 10
-23.41033168695357
 20
9.459899724226964
 30
0.0
 10
-23.58082247267283
 20
9.482571858588833
 30
0.0
 10
-23.64119720458999
 20
9.490600585938015
 30
0.0
 11
-22.33858871459999
 21
9.433471679688015
 31
0.0
 11
-22.74029159545899
 21
9.435302734375014
 31
0.0
 11
-23.12739181518499
 21
9.447570800782013
 31
0.0
 11
-23.45989227294899
 21
9.468383789063015
 31
0.0
 11
-23.64119720458999
 21
9.490600585938015
 31
0.0
  0
ELLIPSE
  5
1D58
330
1F
100
AcDbEntity
  8
AM_0
100
AcDbEllipse
 10
-8.479995727538991
 20
0.0000000000000117
 30
0.0
 11
-120.8247015918959
 21
-0.0362548822519842
 31
0.0
210
0.0
220
0.0
230
0.9999999999999998
 40
0.0786252924845
 41
4.723467684876059
 42
4.827329794204585
  0
SPLINE
  5
1D59
330
1F
100
AcDbEntity
  8
AM_0
100
AcDbSpline
210
0.0
220
0.0
230
1.0
 70
     8
 71
     3
 72
    11
 73
     7
 74
     5
 42
0.0000000001
 43
0.0000000001
 44
0.0000000001
 40
0.0
 40
0.0
 40
0.0
 40
0.0
 40
2.540157811070643
 40
5.378901331350516
 40
8.359539302032615
 40
11.33789750413565
 40
11.33789750413565
 40
11.33789750413565
 40
11.33789750413565
 10
-21.81988906860298
 20
7.389587402344015
 30
0.0
 10
-21.19157671966027
 20
6.818800926502357
 30
0.0
 10
-19.86109633946394
 20
5.610134236015314
 30
0.0
 10
-17.43890862634397
 20
4.203104125646283
 30
0.0
 10
-14.74152425035657
 20
3.015103458661333
 30
0.0
 10
-12.79005231219997
 20
2.616026888126708
 30
0.0
 10
-11.81468963622999
 20
2.416564941407011
 30
0.0
 11
-21.81988906860298
 21
7.389587402344015
 31
0.0
 11
-19.88409042358399
 21
5.744873046875013
 31
0.0
 11
-17.45669174194299
 21
4.273071289063013
 31
0.0
 11
-14.70969009399399
 21
3.116271972657012
 31
0.0
 11
-11.81468963622999
 21
2.416564941407011
 31
0.0
  0
SPLINE
  5
1D5A
330
1F
100
AcDbEntity
  8
AM_0
100
AcDbSpline
210
0.0
220
0.0
230
1.0
 70
     8
 71
     3
 72
    11
 73
     7
 74
     5
 42
0.0000000001
 43
0.0000000001
 44
0.0000000001
 40
0.0
 40
0.0
 40
0.0
 40
0.0
 40
0.0610132883951558
 40
0.2341206210129191
 40
0.4939610208178919
 40
0.8006042350023429
 40
0.8006042350023429
 40
0.8006042350023429
 40
0.8006042350023429
 10
-1.250396728515994
 20
1.807983398438011
 30
0.0
 10
-1.252398281979659
 20
1.828236535553189
 30
0.0
 10
-1.260078657062361
 20
1.905952016288394
 30
0.0
 10
-1.25138655002812
 20
2.070902378266534
 30
0.0
 10
-1.245645529164286
 20
2.317138073685713
 30
0.0
 10
-1.237372934971944
 20
2.505830243343525
 30
0.0
 10
-1.232894897460994
 20
2.60797119140701
 30
0.0
 11
-1.250396728515994
 21
1.807983398438011
 31
0.0
 11
-1.255599975585994
 21
1.868774414063011
 31
0.0
 11
-1.253593444823991
 21
2.041870117188011
 31
0.0
 11
-1.245193481444992
 21
2.30157470703201
 31
0.0
 11
-1.232894897460994
 21
2.60797119140701
 31
0.0
  0
ELLIPSE
  5
1D5B
330
1F
100
AcDbEntity
  8
AM_0
100
AcDbEllipse
 10
-13.28389739990198
 20
0.0000000000000123
 30
0.0
 11
-9.512868620239004
 21
-8.059875725629
 31
0.0
210
0.0
220
0.0
230
1.0
 40
0.5286248918262001
 41
5.749427115179814
 42
6.473389724477755
  0
SPLINE
  5
1D5C
330
1F
100
AcDbEntity
  8
AM_0
100
AcDbSpline
210
0.0
220
0.0
230
1.0
 70
     8
 71
     3
 72
    11
 73
     7
 74
     5
 42
0.0000000001
 43
0.0000000001
 44
0.0000000001
 40
0.0
 40
0.0
 40
0.0
 40
0.0
 40
0.1972495535160013
 40
0.3919692870337734
 40
0.5864343446042177
 40
0.783011248994471
 40
0.783011248994471
 40
0.783011248994471
 40
0.783011248994471
 10
-22.33858871459999
 20
-3.745117187499983
 30
0.0
 10
-22.40434420202402
 20
-3.7421992623198
 30
0.0
 10
-22.53501183125171
 20
-3.736400835747435
 30
0.0
 10
-22.73014116164531
 20
-3.754561809100138
 30
0.0
 10
-22.92244713904851
 20
-3.791098465327207
 30
0.0
 10
-23.04611828924895
 20
-3.832716365284411
 30
0.0
 10
-23.10828781127899
 20
-3.853637695311985
 30
0.0
 11
-22.33858871459999
 21
-3.745117187499983
 31
0.0
 11
-22.53579330444299
 21
-3.740905761717987
 31
0.0
 11
-22.72979354858399
 21
-3.757629394530984
 31
0.0
 11
-22.92058944702099
 21
-3.795227050780984
 31
0.0
 11
-23.10828781127899
 21
-3.853637695311985
 31
0.0
  0
SPLINE
  5
1D5D
330
1F
100
AcDbEntity
  8
AM_0
100
AcDbSpline
210
0.0
220
0.0
230
1.0
 70
     8
 71
     3
 72
    11
 73
     7
 74
     5
 42
0.0000000001
 43
0.0000000001
 44
0.0000000001
 40
0.0
 40
0.0
 40
0.0
 40
0.0
 40
0.2023398376434212
 40
0.4014828496361603
 40
0.5949934775887616
 40
0.7808602643250097
 40
0.7808602643250097
 40
0.7808602643250097
 40
0.7808602643250097
 10
-23.10828781127899
 20
-3.853637695311985
 30
0.0
 10
-23.17038279714647
 20
-3.880542297929681
 30
0.0
 10
-23.29359171222986
 20
-3.93392642956231
 30
0.0
 10
-23.45471905829781
 20
-4.050642096067642
 30
0.0
 10
-23.58932278432111
 20
-4.196002616540477
 30
0.0
 10
-23.62413956510448
 20
-4.319295393539246
 30
0.0
 10
-23.64119720458999
 20
-4.379699707030984
 30
0.0
 11
-23.10828781127899
 21
-3.853637695311985
 31
0.0
 11
-23.29089355468699
 21
-3.940795898436985
 31
0.0
 11
-23.45239257812499
 21
-4.057312011717987
 31
0.0
 11
-23.57719421386698
 21
-4.205200195311985
 31
0.0
 11
-23.64119720458999
 21
-4.379699707030984
 31
0.0
  0
SPLINE
  5
1D5E
330
1F
100
AcDbEntity
  8
AM_0
100
AcDbSpline
210
0.0
220
0.0
230
1.0
 70
     8
 71
     3
 72
    11
 73
     7
 74
     5
 42
0.0000000001
 43
0.0000000001
 44
0.0000000001
 40
0.0
 40
0.0
 40
0.0
 40
0.0
 40
1.126540742656928
 40
2.222629449541589
 40
3.31738238199408
 40
4.440895219411268
 40
4.440895219411268
 40
4.440895219411268
 40
4.440895219411268
 10
-6.107795715331988
 20
2.019958496094013
 30
0.0
 10
-6.052518382371249
 20
1.654631987227163
 30
0.0
 10
-5.943457943206938
 20
0.9338542767019104
 30
0.0
 10
-4.963437845964548
 20
-0.0726054118349782
 30
0.0
 10
-3.904862139494991
 20
0.847543238993461
 30
0.0
 10
-3.734020008252286
 20
1.554524171750953
 30
0.0
 10
-3.647491455077989
 20
1.912597656250011
 30
0.0
 11
-6.107795715331988
 21
2.019958496094013
 31
0.0
 11
-5.801300048827989
 21
0.9359130859380123
 31
0.0
 11
-4.949897766112989
 21
0.2456054687500113
 31
0.0
 11
-4.044998168944992
 21
0.8617553710940132
 31
0.0
 11
-3.647491455077989
 21
1.912597656250011
 31
0.0
  0
ELLIPSE
  5
1D5F
330
1F
100
AcDbEntity
  8
AM_0
100
AcDbEllipse
 10
-11.11399459838899
 20
-0.1015014648429884
 30
0.0
 11
-1.768634267895998
 21
-9.445861589726
 31
0.0
210
0.0
220
0.0
230
1.0
 40
0.247076213452
 41
1.070603845244599
 42
1.235155163967165
  0
ELLIPSE
  5
1D60
330
1F
100
AcDbEntity
  8
AM_0
100
AcDbEllipse
 10
-10.82419586181599
 20
-0.0015258789059858
 30
0.0
 11
-0.0245056401189968
 21
-9.438964504023998
 31
0.0
210
0.0
220
0.0
230
1.0
 40
0.1537976616329
 41
1.177223521665377
 42
1.277213930172679
  0
ELLIPSE
  5
1D61
330
1F
100
AcDbEntity
  8
AM_0
100
AcDbEllipse
 10
-177.091903686519
 20
13.23596191406303
 30
0.0
 11
249.3913154893099
 21
-17.03306121724903
 31
0.0
210
0.0
220
0.0
230
1.0
 40
0.0244435495021
 41
5.451282786974093
 42
5.49672119875131
  0
SPLINE
  5
1D62
330
1F
100
AcDbEntity
  8
AM_0
100
AcDbSpline
210
0.0
220
0.0
230
1.0
 70
     8
 71
     3
 72
    11
 73
     7
 74
     5
 42
0.0000000001
 43
0.0000000001
 44
0.0000000001
 40
0.0
 40
0.0
 40
0.0
 40
0.0
 40
0.3964749997104094
 40
0.7933039090592016
 40
1.190648344801666
 40
1.588554608443855
 40
1.588554608443855
 40
1.588554608443855
 40
1.588554608443855
 10
-0.7217941284179902
 20
-0.9708251953119882
 30
0.0
 10
-0.6683812590153719
 20
-1.09170898656019
 30
0.0
 10
-0.5615078417201694
 20
-1.33358447482336
 30
0.0
 10
-0.4013700838896037
 20
-1.696726163220313
 30
0.0
 10
-0.241385313669465
 20
-2.060456529705084
 30
0.0
 10
-0.1348183285899782
 20
-2.303176072504339
 30
0.0
 10
-0.0814971923829904
 20
-2.424621582030987
 30
0.0
 11
-0.7217941284179902
 21
-0.9708251953119882
 31
0.0
 11
-0.5615997314449929
 21
-1.333496093749989
 31
0.0
 11
-0.4014968872069888
 21
-1.696594238280987
 31
0.0
 11
-0.2415008544919888
 21
-2.060302734374985
 31
0.0
 11
-0.0814971923829904
 21
-2.424621582030987
 31
0.0
  0
SPLINE
  5
1D63
330
1F
100
AcDbEntity
  8
AM_0
100
AcDbSpline
210
0.0
220
0.0
230
1.0
 70
     8
 71
     3
 72
    11
 73
     7
 74
     5
 42
0.0000000001
 43
0.0000000001
 44
0.0000000001
 40
0.0
 40
0.0
 40
0.0
 40
0.0
 40
0.0939599089402554
 40
0.1737808794855847
 40
0.2394465175539016
 40
0.2929225330303878
 40
0.2929225330303878
 40
0.2929225330303878
 40
0.2929225330303878
 10
-0.9655914306639916
 20
-0.8223876953119882
 30
0.0
 10
-0.9355031290321701
 20
-0.8313681315536445
 30
0.0
 10
-0.8798541657798724
 20
-0.8479776422038899
 30
0.0
 10
-0.8082190312227389
 20
-0.8831165043439254
 30
0.0
 10
-0.7523760043251798
 20
-0.9214608043333649
 30
0.0
 10
-0.7312682273244651
 20
-0.9555323753421241
 30
0.0
 10
-0.7217941284179902
 20
-0.9708251953119882
 30
0.0
 11
-0.9655914306639916
 21
-0.8223876953119882
 31
0.0
 11
-0.8763961791989915
 21
-0.8519287109369882
 31
0.0
 11
-0.80479431152299
 21
-0.8872070312499891
 31
0.0
 11
-0.7527008056639916
 21
-0.9271850585929895
 31
0.0
 11
-0.7217941284179902
 21
-0.9708251953119882
 31
0.0
  0
ELLIPSE
  5
1D64
330
1F
100
AcDbEntity
  8
AM_0
100
AcDbEllipse
 10
-6.014694213866987
 20
5.531494140625011
 30
0.0
 11
0.0298385645489958
 21
-0.0249633786330001
 31
0.0
210
0.0
220
0.0
230
1.0
 40
0.0284242968494
 41
4.686665382327103
 42
4.712493936555068
  0
SPLINE
  5
1D65
330
1F
100
AcDbEntity
  8
AM_0
100
AcDbSpline
210
0.0
220
0.0
230
1.0
 70
     8
 71
     3
 72
    11
 73
     7
 74
     5
 42
0.0000000001
 43
0.0000000001
 44
0.0000000001
 40
0.0
 40
0.0
 40
0.0
 40
0.0
 40
1.064166018746174
 40
2.137127643784668
 40
3.209888511031359
 40
4.273556146586418
 40
4.273556146586418
 40
4.273556146586418
 40
4.273556146586418
 10
-5.122299194335993
 20
8.00738525390701
 30
0.0
 10
-4.763476521391738
 20
7.903233534931964
 30
0.0
 10
-4.04286541367248
 20
7.694069256193278
 30
0.0
 10
-3.642394920592696
 20
6.541098563816959
 30
0.0
 10
-4.142373878980128
 20
5.428037643054842
 30
0.0
 10
-4.878168011925791
 20
5.282528109929533
 30
0.0
 10
-5.244499206542989
 20
5.210083007813012
 30
0.0
 11
-5.122299194335993
 21
8.00738525390701
 31
0.0
 11
-4.158393859862989
 21
7.556457519532011
 31
0.0
 11
-3.792892456054992
 21
6.547668457032011
 31
0.0
 11
-4.245391845702989
 21
5.575012207032011
 31
0.0
 11
-5.244499206542989
 21
5.210083007813012
 31
0.0
  0
SPLINE
  5
1D66
330
1F
100
AcDbEntity
  8
AM_0
100
AcDbSpline
210
0.0
220
0.0
230
1.0
 70
     8
 71
     3
 72
    11
 73
     7
 74
     5
 42
0.0000000001
 43
0.0000000001
 44
0.0000000001
 40
0.0
 40
0.0
 40
0.0
 40
0.0
 40
1.330733811582526
 40
2.672375209248913
 40
4.00980163160021
 40
5.351222174821581
 40
5.351222174821581
 40
5.351222174821581
 40
5.351222174821581
 10
-5.28070068359399
 20
8.364685058594012
 30
0.0
 10
-5.738218772442687
 20
8.272972405940436
 30
0.0
 10
-6.657005074992705
 20
8.088795362272771
 30
0.0
 10
-7.289768831900947
 20
6.703655448869883
 30
0.0
 10
-6.792419335783096
 20
5.256081529579956
 30
0.0
 10
-5.88685343084154
 20
4.997476340041475
 30
0.0
 10
-5.433395385741987
 20
4.867980957032011
 30
0.0
 11
-5.28070068359399
 21
8.364685058594012
 31
0.0
 11
-6.529998779296987
 21
7.906311035157011
 31
0.0
 11
-7.101295471190993
 21
6.692382812500011
 31
0.0
 11
-6.649795532225993
 21
5.433471679688012
 31
0.0
 11
-5.433395385741987
 21
4.867980957032011
 31
0.0
  0
SPLINE
  5
1D67
330
1F
100
AcDbEntity
  8
AM_0
100
AcDbSpline
210
0.0
220
0.0
230
1.0
 70
     8
 71
     3
 72
    11
 73
     7
 74
     5
 42
0.0000000001
 43
0.0000000001
 44
0.0000000001
 40
0.0
 40
0.0
 40
0.0
 40
0.0
 40
1.341540723057472
 40
2.678071482082717
 40
4.020215175223134
 40
5.347522836958741
 40
5.347522836958741
 40
5.347522836958741
 40
5.347522836958741
 10
-5.433395385741987
 20
4.867980957032011
 30
0.0
 10
-4.970251515013586
 20
4.957776936871793
 30
0.0
 10
-4.04569337750709
 20
5.137033554789825
 30
0.0
 10
-3.427268942137462
 20
6.536686389290693
 30
0.0
 10
-3.935952805859506
 20
7.970229424294082
 30
0.0
 10
-4.834115299336104
 20
8.233687922303085
 30
0.0
 10
-5.28070068359399
 20
8.364685058594012
 30
0.0
 11
-5.433395385741987
 21
4.867980957032011
 31
0.0
 11
-4.172592163085993
 21
5.326354980469013
 31
0.0
 11
-3.615394592284991
 21
6.541198730469012
 31
0.0
 11
-4.07919311523399
 21
7.800659179688012
 31
0.0
 11
-5.28070068359399
 21
8.364685058594012
 31
0.0
  0
SPLINE
  5
1D68
330
1F
100
AcDbEntity
  8
AM_0
100
AcDbSpline
210
0.0
220
0.0
230
1.0
 70
     8
 71
     3
 72
    11
 73
     7
 74
     5
 42
0.0000000001
 43
0.0000000001
 44
0.0000000001
 40
0.0
 40
0.0
 40
0.0
 40
0.0
 40
2.223020972061419
 40
4.445475940854705
 40
6.667365234195482
 40
8.888687088160951
 40
8.888687088160951
 40
8.888687088160951
 40
8.888687088160951
 10
-10.42569732665999
 20
3.534484863282011
 30
0.0
 10
-9.684903344008471
 20
3.516713634288699
 30
0.0
 10
-8.203503992227506
 20
3.481175701033876
 30
0.0
 10
-5.981598393952017
 20
3.431716201408927
 30
0.0
 10
-3.760196976335214
 20
3.385135828169379
 30
0.0
 10
-2.27939796656319
 20
3.356770956591856
 30
0.0
 10
-1.539093017577989
 20
3.34259033203201
 30
0.0
 11
-10.42569732665999
 21
3.534484863282011
 31
0.0
 11
-8.203300476073991
 21
3.481811523438012
 31
0.0
 11
-5.98139953613299
 21
3.432189941407011
 31
0.0
 11
-3.759994506835993
 21
3.38580322265701
 31
0.0
 11
-1.539093017577989
 21
3.34259033203201
 31
0.0
  0
SPLINE
  5
1D69
330
1F
100
AcDbEntity
  8
AM_0
100
AcDbSpline
210
0.0
220
0.0
230
1.0
 70
     8
 71
     3
 72
    11
 73
     7
 74
     5
 42
0.0000000001
 43
0.0000000001
 44
0.0000000001
 40
0.0
 40
0.0
 40
0.0
 40
0.0
 40
0.2882893054631648
 40
0.574863826229338
 40
0.8598896216278962
 40
1.143976305030896
 40
1.143976305030896
 40
1.143976305030896
 40
1.143976305030896
 10
-1.539093017577989
 20
3.34259033203201
 30
0.0
 10
-1.442114884978716
 20
3.349123490697533
 30
0.0
 10
-1.248735459137623
 20
3.362150947896445
 30
0.0
 10
-0.9923904518814474
 20
3.50719979604865
 30
0.0
 10
-0.7960915978075787
 20
3.725970735554784
 30
0.0
 10
-0.7465326919317965
 20
3.911566615078993
 30
0.0
 10
-0.7217941284179897
 20
4.00421142578201
 30
0.0
 11
-1.539093017577989
 21
3.34259033203201
 31
0.0
 11
-1.253692626952989
 21
3.38330078125001
 31
0.0
 11
-1.00180053710899
 21
3.519958496094012
 31
0.0
 11
-0.8161926269529896
 21
3.736267089844012
 31
0.0
 11
-0.7217941284179897
 21
4.00421142578201
 31
0.0
  0
SPLINE
  5
1D6A
330
1F
100
AcDbEntity
  8
AM_0
100
AcDbSpline
210
0.0
220
0.0
230
1.0
 70
     8
 71
     3
 72
    11
 73
     7
 74
     5
 42
0.0000000001
 43
0.0000000001
 44
0.0000000001
 40
0.0
 40
0.0
 40
0.0
 40
0.0
 40
1.051157762280544
 40
2.102422222195876
 40
3.153851393209825
 40
4.205281725217086
 40
4.205281725217086
 40
4.205281725217086
 40
4.205281725217086
 10
-0.7217941284179897
 20
4.00421142578201
 30
0.0
 10
-0.6683895549191811
 20
4.350503564031726
 30
0.0
 10
-0.5615749870971324
 20
5.043122990870549
 30
0.0
 10
-0.4014580176526936
 20
6.082141850265316
 30
0.0
 10
-0.2415102880275002
 20
7.12127869970962
 30
0.0
 10
-0.1348349105630623
 20
7.814067056261227
 30
0.0
 10
-0.0814971923829892
 20
8.16046142578201
 30
0.0
 11
-0.7217941284179897
 21
4.00421142578201
 31
0.0
 11
-0.5615997314449921
 21
5.043090820313011
 31
0.0
 11
-0.4014968872069879
 21
6.08209228515701
 31
0.0
 11
-0.2415008544919877
 21
7.121276855469012
 31
0.0
 11
-0.0814971923829892
 21
8.16046142578201
 31
0.0
  0
SPLINE
  5
1D6B
330
1F
100
AcDbEntity
  8
AM_0
100
AcDbSpline
210
0.0
220
0.0
230
1.0
 70
     8
 71
     3
 72
    11
 73
     7
 74
     5
 42
0.0000000001
 43
0.0000000001
 44
0.0000000001
 40
0.0
 40
0.0
 40
0.0
 40
0.0
 40
0.1144422780276687
 40
0.2294819915821558
 40
0.3450495506961832
 40
0.4604538615381885
 40
0.4604538615381885
 40
0.4604538615381885
 40
0.4604538615381885
 10
0.0000000000000082
 20
9.286804199219012
 30
0.0
 10
-0.0002332251440592
 20
9.325222177331335
 30
0.0
 10
-0.0007008929628935
 20
9.402258691124284
 30
0.0
 10
-0.042469823803267
 20
9.511699528501351
 30
0.0
 10
-0.1132326654594094
 20
9.606010801362101
 30
0.0
 10
-0.1801550079995103
 20
9.645412948554142
 30
0.0
 10
-0.2135925292969875
 20
9.66510009765701
 30
0.0
 11
0.0000000000000082
 21
9.286804199219012
 31
0.0
 11
-0.0074920654299919
 21
9.401000976563011
 31
0.0
 11
-0.0471954345699916
 21
9.508972167969012
 31
0.0
 11
-0.1181945800779888
 21
9.60015869140701
 31
0.0
 11
-0.2135925292969875
 21
9.66510009765701
 31
0.0
  0
SPLINE
  5
1D6C
330
1F
100
AcDbEntity
  8
AM_0
100
AcDbSpline
210
0.0
220
0.0
230
1.0
 70
     8
 71
     3
 72
    11
 73
     7
 74
     5
 42
0.0000000001
 43
0.0000000001
 44
0.0000000001
 40
0.0
 40
0.0
 40
0.0
 40
0.0
 40
2.178097001278011
 40
4.35915642566583
 40
6.543382549355888
 40
8.730673358183302
 40
8.730673358183302
 40
8.730673358183302
 40
8.730673358183302
 10
-9.094497680663989
 20
9.886596679688013
 30
0.0
 10
-8.368591997447548
 20
9.873028446715441
 30
0.0
 10
-6.915793328901749
 20
9.845873526657882
 30
0.0
 10
-4.735125610125352
 20
9.801040951158578
 30
0.0
 10
-2.551453113777639
 20
9.753352332938977
 30
0.0
 10
-1.094690762824861
 20
9.718776891292963
 30
0.0
 10
-0.3657989501949916
 20
9.70147705078201
 30
0.0
 11
-9.094497680663989
 21
9.886596679688013
 31
0.0
 11
-6.916793823241987
 21
9.84521484375001
 31
0.0
 11
-4.736190795897988
 21
9.80059814453201
 31
0.0
 11
-2.552490234374991
 21
9.75268554687501
 31
0.0
 11
-0.3657989501949916
 21
9.70147705078201
 31
0.0
  0
SPLINE
  5
1D6D
330
1F
100
AcDbEntity
  8
AM_0
100
AcDbSpline
210
0.0
220
0.0
230
1.0
 70
     8
 71
     3
 72
    11
 73
     7
 74
     5
 42
0.0000000001
 43
0.0000000001
 44
0.0000000001
 40
0.0
 40
0.0
 40
0.0
 40
0.0
 40
0.287709934847225
 40
0.5765517364879223
 40
0.8648247342604255
 40
1.150899448100424
 40
1.150899448100424
 40
1.150899448100424
 40
1.150899448100424
 10
-9.094497680663989
 20
9.886596679688013
 30
0.0
 10
-9.191250939883349
 20
9.879901013393052
 30
0.0
 10
-9.385138090994097
 20
9.866483339681664
 30
0.0
 10
-9.643066250113244
 20
9.721394021045597
 30
0.0
 10
-9.844145095071453
 20
9.504143957017308
 30
0.0
 10
-9.898715113539676
 20
9.318201382383772
 30
0.0
 10
-9.925895690917988
 20
9.225585937500012
 30
0.0
 11
-9.094497680663989
 21
9.886596679688013
 31
0.0
 11
-9.379295349120992
 21
9.845764160157012
 31
0.0
 11
-9.633796691893989
 21
9.709167480469014
 31
0.0
 11
-9.82469940185499
 21
9.493164062500012
 31
0.0
 11
-9.925895690917988
 21
9.225585937500012
 31
0.0
  0
SPLINE
  5
1D6E
330
1F
100
AcDbEntity
  8
AM_0
100
AcDbSpline
210
0.0
220
0.0
230
1.0
 70
     8
 71
     3
 72
    11
 73
     7
 74
     5
 42
0.0000000001
 43
0.0000000001
 44
0.0000000001
 40
0.0
 40
0.0
 40
0.0
 40
0.0
 40
1.054512467252999
 40
2.109048473182499
 40
3.163669482795881
 40
4.218410634910922
 40
4.218410634910922
 40
4.218410634910922
 40
4.218410634910922
 10
-9.925895690917988
 20
9.225585937500012
 30
0.0
 10
-9.988277258303831
 20
8.87966150638163
 30
0.0
 10
-10.11304178554794
 20
8.187804922469181
 30
0.0
 10
-10.2999457040006
 20
7.149943488431841
 30
0.0
 10
-10.48659644613213
 20
6.111959053501432
 30
0.0
 10
-10.611059163967
 20
5.419941872339343
 30
0.0
 10
-10.67329406738299
 20
5.073913574219013
 30
0.0
 11
-9.925895690917988
 21
9.225585937500012
 31
0.0
 11
-10.11299896240198
 21
8.187805175782012
 31
0.0
 11
-10.29989624023399
 21
7.149963378907011
 31
0.0
 11
-10.48659515380899
 21
6.111999511719013
 31
0.0
 11
-10.67329406738299
 21
5.073913574219013
 31
0.0
  0
SPLINE
  5
1D6F
330
1F
100
AcDbEntity
  8
AM_0
100
AcDbSpline
210
0.0
220
0.0
230
1.0
 70
     8
 71
     3
 72
    11
 73
     7
 74
     5
 42
0.0000000001
 43
0.0000000001
 44
0.0000000001
 40
0.0
 40
0.0
 40
0.0
 40
0.0
 40
0.1142324598822733
 40
0.2283749622473852
 40
0.3427852448602327
 40
0.457213857479425
 40
0.457213857479425
 40
0.457213857479425
 40
0.457213857479425
 10
-10.78319549560499
 20
3.948913574219014
 30
0.0
 10
-10.78392819749456
 20
3.910566534705101
 30
0.0
 10
-10.78539302427445
 20
3.83390265378794
 30
0.0
 10
-10.74621050617994
 20
3.724263550941658
 30
0.0
 10
-10.67724516779778
 20
3.629714760856239
 30
0.0
 10
-10.61101423640883
 20
3.590480512111814
 30
0.0
 10
-10.57789611816399
 20
3.570861816407011
 30
0.0
 11
-10.78319549560499
 21
3.948913574219014
 31
0.0
 11
-10.77849578857399
 21
3.834777832032011
 31
0.0
 11
-10.74129486083999
 21
3.726867675782011
 31
0.0
 11
-10.67219543456999
 21
3.635681152344014
 31
0.0
 11
-10.57789611816399
 21
3.570861816407011
 31
0.0
  0
SPLINE
  5
1D70
330
1F
100
AcDbEntity
  8
AM_0
100
AcDbSpline
210
0.0
220
0.0
230
1.0
 70
     8
 71
     3
 72
    11
 73
     7
 74
     5
 42
0.0000000001
 43
0.0000000001
 44
0.0000000001
 40
0.0
 40
0.0
 40
0.0
 40
0.0
 40
0.0260567056666638
 40
0.0532378571697959
 40
0.0817875082048939
 40
0.1120568855877503
 40
0.1120568855877503
 40
0.1120568855877503
 40
0.1120568855877503
 10
-0.912597656249993
 20
-1.162536621092989
 30
0.0
 10
-0.9152802975408354
 20
-1.154266409545846
 30
0.0
 10
-0.9207613462853196
 20
-1.137369095405552
 30
0.0
 10
-0.9327114935281139
 20
-1.112779311486554
 30
0.0
 10
-0.9477442974045859
 20
-1.088301914435335
 30
0.0
 10
-0.9599254848547005
 20
-1.072918853599105
 30
0.0
 10
-0.9661941528319887
 20
-1.065002441405986
 30
0.0
 11
-0.912597656249993
 21
-1.162536621092989
 31
0.0
 11
-0.9211959838869889
 21
-1.137939453124989
 31
0.0
 11
-0.9328918457029901
 21
-1.113403320311988
 31
0.0
 11
-0.9478912353509942
 21
-1.089111328124989
 31
0.0
 11
-0.9661941528319887
 21
-1.065002441405986
 31
0.0
  0
SPLINE
  5
1D71
330
1F
100
AcDbEntity
  8
AM_0
100
AcDbSpline
210
0.0
220
0.0
230
1.0
 70
     8
 71
     3
 72
    11
 73
     7
 74
     5
 42
0.0000000001
 43
0.0000000001
 44
0.0000000001
 40
0.0
 40
0.0
 40
0.0
 40
0.0
 40
0.0721065875129107
 40
0.1482753140994024
 40
0.2357436029934076
 40
0.3363018708736751
 40
0.3363018708736751
 40
0.3363018708736751
 40
0.3363018708736751
 10
0.0000000000000063
 20
-6.458923339842989
 30
0.0
 10
-0.0002927679891229
 20
-6.483389351045845
 30
0.0
 10
-0.0008947971107842
 20
-6.533699671101045
 30
0.0
 10
-0.046315851481875
 20
-6.602382152838689
 30
0.0
 10
-0.1199961245779263
 20
-6.653660500168488
 30
0.0
 10
-0.1809785748049739
 20
-6.669862733920266
 30
0.0
 10
-0.2135925292969895
 20
-6.678527832030987
 30
0.0
 11
0.0000000000000063
 21
-6.458923339842989
 31
0.0
 11
-0.0074920654299938
 21
-6.530639648436988
 31
0.0
 11
-0.0471954345699936
 21
-6.595642089842989
 31
0.0
 11
-0.1181945800779908
 21
-6.646728515624985
 31
0.0
 11
-0.2135925292969895
 21
-6.678527832030987
 31
0.0
  0
SPLINE
  5
1D72
330
1F
100
AcDbEntity
  8
AM_0
100
AcDbSpline
210
0.0
220
0.0
230
1.0
 70
     8
 71
     3
 72
    11
 73
     7
 74
     5
 42
0.0000000001
 43
0.0000000001
 44
0.0000000001
 40
0.0
 40
0.0
 40
0.0
 40
0.0
 40
2.208493820997321
 40
4.417342456398702
 40
6.62686208482426
 40
8.837048477100774
 40
8.837048477100774
 40
8.837048477100774
 40
8.837048477100774
 10
-9.094497680663991
 20
-5.308410644530986
 30
0.0
 10
-8.368779880157342
 20
-5.432011431016469
 30
0.0
 10
-6.91722768604949
 20
-5.679232861565928
 30
0.0
 10
-4.736316918986945
 20
-6.030248653422386
 30
0.0
 10
-2.552766489020894
 20
-6.368160246309807
 30
0.0
 10
-1.094861443758428
 20
-6.580188260954551
 30
0.0
 10
-0.3657989501949936
 20
-6.686218261717989
 30
0.0
 11
-9.094497680663991
 21
-5.308410644530986
 31
0.0
 11
-6.916793823241989
 21
-5.675903320311987
 31
0.0
 11
-4.73619079589799
 21
-6.028015136717988
 31
0.0
 11
-2.552490234374993
 21
-6.364807128905987
 31
0.0
 11
-0.3657989501949936
 21
-6.686218261717989
 31
0.0
  0
SPLINE
  5
1D73
330
1F
100
AcDbEntity
  8
AM_0
100
AcDbSpline
210
0.0
220
0.0
230
1.0
 70
     8
 71
     3
 72
    11
 73
     7
 74
     5
 42
0.0000000001
 43
0.0000000001
 44
0.0000000001
 40
0.0
 40
0.0
 40
0.0
 40
0.0
 40
0.2879484366753267
 40
0.5520654365181409
 40
0.763759970449544
 40
0.9074352892361748
 40
0.9074352892361748
 40
0.9074352892361748
 40
0.9074352892361748
 10
-9.094497680663991
 20
-5.308410644530986
 30
0.0
 10
-9.190092414153083
 20
-5.296822331066247
 30
0.0
 10
-9.373370187360778
 20
-5.274604786129084
 30
0.0
 10
-9.616825352366333
 20
-5.204631815844376
 30
0.0
 10
-9.815395977520228
 20
-5.128792092540557
 30
0.0
 10
-9.894082776066241
 20
-5.038383191905537
 30
0.0
 10
-9.92589569091799
 20
-5.001831054686987
 30
0.0
 11
-9.094497680663991
 21
-5.308410644530986
 31
0.0
 11
-9.379295349120994
 21
-5.265930175780986
 31
0.0
 11
-9.633796691893991
 21
-5.195312499999984
 31
0.0
 11
-9.824699401854992
 21
-5.103820800780986
 31
0.0
 11
-9.92589569091799
 21
-5.001831054686987
 31
0.0
  0
ELLIPSE
  5
1D74
330
1F
100
AcDbEntity
  8
AM_0
100
AcDbEllipse
 10
-1.019096374511989
 20
-3.083923339842989
 30
0.0
 11
0.2026748674200007
 21
-0.0183715671360006
 31
0.0
210
0.0
220
0.0
230
1.0
 40
0.4953890095104
 41
6.12030931206417
 42
6.378960577734896
  0
ELLIPSE
  5
1D75
330
1F
100
AcDbEntity
  8
AM_0
100
AcDbEllipse
 10
-1.048896789550994
 20
-3.078918457030987
 30
0.0
 11
0.2330398528710021
 21
-0.0211181909769991
 31
0.0
210
0.0
220
0.0
230
1.0
 40
0.4952695396960001
 41
5.906206196414477
 42
6.12981097785712
  0
SPLINE
  5
1D76
330
1F
100
AcDbEntity
  8
AM_0
100
AcDbSpline
210
0.0
220
0.0
230
1.0
 70
     8
 71
     3
 72
    11
 73
     7
 74
     5
 42
0.0000000001
 43
0.0000000001
 44
0.0000000001
 40
0.0
 40
0.0
 40
0.0
 40
0.0
 40
0.0155310863206903
 40
0.03065858084454
 40
0.0455459128368936
 40
0.0604428756549873
 40
0.0604428756549873
 40
0.0604428756549873
 40
0.0604428756549873
 10
-0.635299682616989
 20
-3.374145507811988
 30
0.0
 10
-0.6321081593530801
 20
-3.370057508850424
 30
0.0
 10
-0.6258080479517656
 20
-3.361987741928293
 30
0.0
 10
-0.6186109785705502
 20
-3.34856255169342
 30
0.0
 10
-0.6127902845204804
 20
-3.334717016382236
 30
0.0
 10
-0.6105238449857732
 20
-3.325033668963555
 30
0.0
 10
-0.6093902587889919
 20
-3.320190429686988
 30
0.0
 11
-0.635299682616989
 21
-3.374145507811988
 31
0.0
 11
-0.6260986328119889
 21
-3.361633300780987
 31
0.0
 11
-0.6187896728509945
 21
-3.348388671874985
 31
0.0
 11
-0.613189697265995
 21
-3.334594726561988
 31
0.0
 11
-0.6093902587889919
 21
-3.320190429686988
 31
0.0
  0
ELLIPSE
  5
1D77
330
1F
100
AcDbEntity
  8
AM_0
100
AcDbEllipse
 10
-1.020500183104993
 20
-3.087219238280987
 30
0.0
 11
0.2019729666490023
 21
-0.0183105646710047
 31
0.0
210
0.0
220
0.0
230
1.0
 40
0.4955977925552001
 41
5.333407270700896
 42
5.90624656133211
  0
SPLINE
  5
1D78
330
1F
100
AcDbEntity
  8
AM_0
100
AcDbSpline
210
0.0
220
0.0
230
1.0
 70
     8
 71
     3
 72
    11
 73
     7
 74
     5
 42
0.0000000001
 43
0.0000000001
 44
0.0000000001
 40
0.0
 40
0.0
 40
0.0
 40
0.0
 40
0.0526990153830305
 40
0.1009718073757635
 40
0.1445196134440186
 40
0.1835399979403985
 40
0.1835399979403985
 40
0.1835399979403985
 40
0.1835399979403985
 10
-0.7985992431639919
 20
-3.449584960936988
 30
0.0
 10
-0.7812609663421548
 20
-3.446544510550095
 30
0.0
 10
-0.7480406654549786
 20
-3.440718979113322
 30
0.0
 10
-0.7026451148450685
 20
-3.424185176489044
 30
0.0
 10
-0.6638053258976053
 20
-3.403239593192258
 30
0.0
 10
-0.6444477556211189
 20
-3.383482424520971
 30
0.0
 10
-0.635299682616989
 20
-3.374145507811988
 30
0.0
 11
-0.7985992431639919
 21
-3.449584960936988
 31
0.0
 11
-0.7469940185549935
 21
-3.438903808592989
 31
0.0
 11
-0.7015991210939921
 21
-3.422485351561988
 31
0.0
 11
-0.6638946533199932
 21
-3.400695800780987
 31
0.0
 11
-0.635299682616989
 21
-3.374145507811988
 31
0.0
  0
ELLIPSE
  5
1D79
330
1F
100
AcDbEntity
  8
AM_0
100
AcDbEllipse
 10
-1.034595489501989
 20
-3.075500488280987
 30
0.0
 11
0.2276649542099989
 21
-0.0206298562230032
 31
0.0
210
0.0
220
0.0
230
0.9999999999999998
 40
0.4957025106816
 41
4.804098887656363
 42
5.333445849936778
  0
SPLINE
  5
1D7A
330
1F
100
AcDbEntity
  8
AM_0
100
AcDbSpline
210
0.0
220
0.0
230
1.0
 70
     8
 71
     3
 72
    11
 73
     7
 74
     5
 42
0.0000000001
 43
0.0000000001
 44
0.0000000001
 40
0.0
 40
0.0
 40
0.0
 40
0.0
 40
0.0486269962944763
 40
0.0958900412051571
 40
0.1416896390901313
 40
0.1864837707456388
 40
0.1864837707456388
 40
0.1864837707456388
 40
0.1864837707456388
 10
-0.9844970703119887
 20
-3.446594238280987
 30
0.0
 10
-0.9684178258580695
 20
-3.448692718645496
 30
0.0
 10
-0.936710347898769
 20
-3.452830818547916
 30
0.0
 10
-0.8894910208628356
 20
-3.455036995845055
 30
0.0
 10
-0.843485827332627
 20
-3.454484503430069
 30
0.0
 10
-0.813450320232897
 20
-3.451206012850712
 30
0.0
 10
-0.7985992431639919
 20
-3.449584960936988
 30
0.0
 11
-0.9844970703119887
 21
-3.446594238280987
 31
0.0
 11
-0.9361953735349931
 21
-3.452209472655987
 31
0.0
 11
-0.8889923095699931
 21
-3.454589843749985
 31
0.0
 11
-0.8432006835939919
 21
-3.453735351561988
 31
0.0
 11
-0.7985992431639919
 21
-3.449584960936988
 31
0.0
  0
SPLINE
  5
1D7B
330
1F
100
AcDbEntity
  8
AM_0
100
AcDbSpline
210
0.0
220
0.0
230
1.0
 70
     8
 71
     3
 72
    11
 73
     7
 74
     5
 42
0.0000000001
 43
0.0000000001
 44
0.0000000001
 40
0.0
 40
0.0
 40
0.0
 40
0.0
 40
0.0190069456992775
 40
0.0384772816204991
 40
0.0583780786752676
 40
0.078940410883173
 40
0.078940410883173
 40
0.078940410883173
 40
0.078940410883173
 10
-9.343498229979992
 20
-2.741088867186987
 30
0.0
 10
-9.340975856165332
 20
-2.746903195036946
 30
0.0
 10
-9.335869612944861
 20
-2.758673604320816
 30
0.0
 10
-9.326691559836676
 20
-2.775854051659705
 30
0.0
 10
-9.316272347884867
 20
-2.792915841653054
 30
0.0
 10
-9.308464509723735
 20
-2.803918172762953
 30
0.0
 10
-9.304496765136988
 20
-2.809509277342988
 30
0.0
 11
-9.343498229979992
 21
-2.741088867186987
 31
0.0
 11
-9.335700988768991
 21
-2.758422851561987
 31
0.0
 11
-9.326599121093991
 21
-2.775634765624984
 31
0.0
 11
-9.31620025634799
 21
-2.792602539061987
 31
0.0
 11
-9.304496765136988
 21
-2.809509277342988
 31
0.0
  0
SPLINE
  5
1D7C
330
1F
100
AcDbEntity
  8
AM_0
100
AcDbSpline
210
0.0
220
0.0
230
1.0
 70
     8
 71
     3
 72
    11
 73
     7
 74
     5
 42
0.0000000001
 43
0.0000000001
 44
0.0000000001
 40
0.0
 40
0.0
 40
0.0
 40
0.0
 40
0.0401122308552008
 40
0.0818040232377744
 40
0.1257501735067234
 40
0.1719507732292352
 40
0.1719507732292352
 40
0.1719507732292352
 40
0.1719507732292352
 10
-9.304496765136988
 20
-2.809509277342988
 30
0.0
 10
-9.296273132197987
 20
-2.820067275744016
 30
0.0
 10
-9.279502031571109
 20
-2.84159903122428
 30
0.0
 10
-9.24970514143081
 20
-2.871206719432675
 30
0.0
 10
-9.216266888817301
 20
-2.899807955424565
 30
0.0
 10
-9.191557639989035
 20
-2.916939978719529
 30
0.0
 10
-9.178894042968991
 20
-2.925720214842988
 30
0.0
 11
-9.304496765136988
 21
-2.809509277342988
 31
0.0
 11
-9.279197692870994
 21
-2.840637207030985
 31
0.0
 11
-9.249900817870994
 21
-2.870300292967988
 31
0.0
 11
-9.216400146483991
 21
-2.898742675780985
 31
0.0
 11
-9.178894042968991
 21
-2.925720214842988
 31
0.0
  0
SPLINE
  5
1D7D
330
1F
100
AcDbEntity
  8
AM_0
100
AcDbSpline
210
0.0
220
0.0
230
1.0
 70
     8
 71
     3
 72
    11
 73
     7
 74
     5
 42
0.0000000001
 43
0.0000000001
 44
0.0000000001
 40
0.0
 40
0.0
 40
0.0
 40
0.0
 40
0.0645142905308117
 40
0.1255440225169067
 40
0.1833671070312344
 40
0.2383685906282594
 40
0.2383685906282594
 40
0.2383685906282594
 40
0.2383685906282594
 10
-8.765296936034992
 20
-2.804992675780986
 30
0.0
 10
-8.786020315530073
 20
-2.799216879237107
 30
0.0
 10
-8.826347759272387
 20
-2.787977249607891
 30
0.0
 10
-8.883740023941028
 20
-2.766798176351668
 30
0.0
 10
-8.936795239345947
 20
-2.743279938820013
 30
0.0
 10
-8.969469015746852
 20
-2.724614470771575
 30
0.0
 10
-8.985397338866988
 20
-2.715515136717988
 30
0.0
 11
-8.765296936034992
 21
-2.804992675780986
 31
0.0
 11
-8.827194213866988
 21
-2.786804199217988
 31
0.0
 11
-8.884498596190994
 21
-2.765808105467988
 31
0.0
 11
-8.937194824218991
 21
-2.742004394530986
 31
0.0
 11
-8.985397338866988
 21
-2.715515136717988
 31
0.0
  0
SPLINE
  5
1D7E
330
1F
100
AcDbEntity
  8
AM_0
100
AcDbSpline
210
0.0
220
0.0
230
1.0
 70
     8
 71
     3
 72
    11
 73
     7
 74
     5
 42
0.0000000001
 43
0.0000000001
 44
0.0000000001
 40
0.0
 40
0.0
 40
0.0
 40
0.0
 40
0.075509918043869
 40
0.1541677783326838
 40
0.2366696463772785
 40
0.3236256015165617
 40
0.3236256015165617
 40
0.3236256015165617
 40
0.3236256015165617
 10
-9.178894042968991
 20
-2.925720214842988
 30
0.0
 10
-9.157428290516952
 20
-2.938900824280779
 30
0.0
 10
-9.11360189722319
 20
-2.965811531201618
 30
0.0
 10
-9.041863515462781
 20
-2.998978470388546
 30
0.0
 10
-8.964493145899808
 20
-3.028448979965659
 30
0.0
 10
-8.910038375812298
 20
-3.043570881193153
 30
0.0
 10
-8.882095336913991
 20
-3.051330566405986
 30
0.0
 11
-9.178894042968991
 21
-2.925720214842988
 31
0.0
 11
-9.113800048827989
 21
-2.963989257811986
 31
0.0
 11
-9.042694091796988
 21
-2.997619628905986
 31
0.0
 11
-8.965499877929993
 21
-3.026733398436987
 31
0.0
 11
-8.882095336913991
 21
-3.051330566405986
 31
0.0
  0
SPLINE
  5
1D7F
330
1F
100
AcDbEntity
  8
AM_0
100
AcDbSpline
210
0.0
220
0.0
230
1.0
 70
     8
 71
     3
 72
    11
 73
     7
 74
     5
 42
0.0000000001
 43
0.0000000001
 44
0.0000000001
 40
0.0
 40
0.0
 40
0.0
 40
0.0
 40
0.0529251379087119
 40
0.1059113021527812
 40
0.1588382200760518
 40
0.2117633579847637
 40
0.2117633579847637
 40
0.2117633579847637
 40
0.2117633579847637
 10
-8.51419830322299
 20
-2.842712402342988
 30
0.0
 10
-8.514501460894312
 20
-2.860351507537547
 30
0.0
 10
-8.515108125798668
 20
-2.895650057031889
 30
0.0
 10
-8.515962678111906
 20
-2.948589295245158
 30
0.0
 10
-8.517032008403194
 20
-3.001524680339375
 30
0.0
 10
-8.517609712419297
 20
-3.03680399744949
 30
0.0
 10
-8.517898559569992
 20
-3.054443359374984
 30
0.0
 11
-8.51419830322299
 21
-2.842712402342988
 31
0.0
 11
-8.515098571776988
 21
-2.895629882811987
 31
0.0
 11
-8.515998840331988
 21
-2.948608398436987
 31
0.0
 11
-8.516998291015994
 21
-3.001525878905986
 31
0.0
 11
-8.517898559569992
 21
-3.054443359374984
 31
0.0
  0
SPLINE
  5
1D80
330
1F
100
AcDbEntity
  8
AM_0
100
AcDbSpline
210
0.0
220
0.0
230
1.0
 70
     8
 71
     3
 72
    11
 73
     7
 74
     5
 42
0.0000000001
 43
0.0000000001
 44
0.0000000001
 40
0.0
 40
0.0
 40
0.0
 40
0.0
 40
0.0840511115781009
 40
0.1682686969021187
 40
0.2528748777902988
 40
0.3383516573706824
 40
0.3383516573706824
 40
0.3383516573706824
 40
0.3383516573706824
 10
-8.882095336913991
 20
-3.051330566405986
 30
0.0
 10
-8.854799475053125
 20
-3.057690084914509
 30
0.0
 10
-8.800153688460756
 20
-3.070421717753888
 30
0.0
 10
-8.716752894949028
 20
-3.083090939812977
 30
0.0
 10
-8.632372336902166
 20
-3.091751763198158
 30
0.0
 10
-8.57568445754596
 20
-3.093406618346439
 30
0.0
 10
-8.547195434569992
 20
-3.094238281249984
 30
0.0
 11
-8.882095336913991
 21
-3.051330566405986
 31
0.0
 11
-8.799995422362989
 21
-3.069335937499984
 31
0.0
 11
-8.716796874999992
 21
-3.082397460936987
 31
0.0
 11
-8.632598876952989
 21
-3.090698242186987
 31
0.0
 11
-8.547195434569992
 21
-3.094238281249984
 31
0.0
  0
SPLINE
  5
1D81
330
1F
100
AcDbEntity
  8
AM_0
100
AcDbSpline
210
0.0
220
0.0
230
1.0
 70
     8
 71
     3
 72
    11
 73
     7
 74
     5
 42
0.0000000001
 43
0.0000000001
 44
0.0000000001
 40
0.0
 40
0.0
 40
0.0
 40
0.0
 40
0.0632475775886776
 40
0.1266081447944725
 40
0.1902910770684933
 40
0.2543510214499283
 40
0.2543510214499283
 40
0.2543510214499283
 40
0.2543510214499283
 10
-8.765296936034992
 20
-2.804992675780986
 30
0.0
 10
-8.744815694125826
 20
-2.810017991058923
 30
0.0
 10
-8.703816621274841
 20
-2.82007759916731
 30
0.0
 10
-8.641255749232389
 20
-2.830784366273955
 30
0.0
 10
-8.578032622530258
 20
-2.838851933770644
 30
0.0
 10
-8.535518234402019
 20
-2.841423050076459
 30
0.0
 10
-8.51419830322299
 20
-2.842712402342988
 30
0.0
 11
-8.765296936034992
 21
-2.804992675780986
 31
0.0
 11
-8.703697204589992
 21
-2.819335937499984
 31
0.0
 11
-8.641296386718991
 21
-2.830322265624984
 31
0.0
 11
-8.578094482421988
 21
-2.838134765624984
 31
0.0
 11
-8.51419830322299
 21
-2.842712402342988
 31
0.0
  0
ARC
  5
1D82
330
1F
100
AcDbEntity
  8
AM_0
100
AcDbCircle
 10
-9.691894531249992
 20
4.378601074219013
 30
0.0
 40
1.497969985008199
100
AcDbArc
 50
129.9113507217525
 51
266.2270879692324
  0
LINE
  5
1D83
330
1F
100
AcDbEntity
  8
AM_0
100
AcDbLine
 10
-11.81470489501899
 20
-9.164844512938989
 30
0.0
 11
-9.386707305907991
 21
-8.960559844969983
 31
0.0
  0
LINE
  5
1D84
330
1F
100
AcDbEntity
  8
AM_0
100
AcDbLine
 10
-10.80897521972599
 20
5.534357070923012
 30
0.0
 11
-10.55147171020499
 21
5.751096725464013
 31
0.0
  0
LINE
  5
1D85
330
1F
100
AcDbEntity
  8
AM_0
100
AcDbLine
 10
-11.81470489501899
 20
2.416473388672011
 30
0.0
 11
-9.386699676513991
 21
2.163116455078012
 31
0.0
  0
LINE
  5
1D86
330
1F
100
AcDbEntity
  8
AM_0
100
AcDbLine
 10
-10.42570495605499
 20
3.534427642823013
 30
0.0
 11
-10.57791137695299
 21
3.570806503296013
 31
0.0
  0
LINE
  5
1D87
330
1F
100
AcDbEntity
  8
AM_0
100
AcDbLine
 10
-10.57791137695299
 20
3.570745468140012
 30
0.0
 11
-10.42650222778298
 21
3.534368515015012
 31
0.0
  0
LWPOLYLINE
  5
1D88
330
1F
100
AcDbEntity
  8
AM_11
100
AcDbPolyline
 90
        4
 70
     1
 43
0.0
 10
0.0000000000000059
 20
-9.999999999999985
 10
-8.999999999999994
 20
-9.999999999999984
 10
-8.999999999999991
 20
10.00000000000001
 10
0.0000000000000083
 20
10.00000000000001
1001
GENIUS_GENREC_14
1002
{
1000
PYDIR
1011
0.0000000000000083
1021
10.00000000000001
1031
0.0
1002
}
1002
{
1000
PXDIR
1011
-8.999999999999994
1021
-9.999999999999984
1031
0.0
1002
}
1002
{
1000
PORI
1011
0.0000000000000059
1021
-9.999999999999985
1031
0.0
1002
}
1002
{
1000
PINS
1011
0.0000000000000059
1021
-9.999999999999985
1031
0.0
1002
}
1002
{
1000
PINS2
1011
-8.999999999999991
1021
10.00000000000001
1031
0.0
1002
}
1002
{
1000
C
1070
     1
1002
}
1001
GENIUS_GENODEF_13
1002
{
1000
HIER
1070
     0
1002
}
1002
{
1000
MANEDIT
1070
     0
1002
}
1002
{
1000
NOSEL
1070
     0
1002
}
1002
{
1000
BEHIND
1070
     0
1002
}
1002
{
1000
REACTOR
1002
}
1001
GENIUS_GENOBJ-N-REC_13
1002
{
1000
OWNER
1000
GEN
1002
}
  0
LINE
  5
1D89
330
1F
100
AcDbEntity
  8
AM_0
100
AcDbLine
 10
-0.3303222656249934
 20
-4.247238159178991
 30
0.0
 11
-0.000511169433992
 21
-2.852535247801988
 31
0.0
  0
LINE
  5
1D8A
330
1F
100
AcDbEntity
  8
AM_0
100
AcDbLine
 10
-0.0814476013179902
 20
-2.424652099608991
 30
0.0
 11
-0.4798469543459948
 21
-3.352634429930986
 31
0.0
  0
LINE
  5
1D8B
330
1F
100
AcDbEntity
  8
AM_0
100
AcDbLine
 10
-0.6094818115229903
 20
-3.261848449706988
 30
0.0
 11
-0.7347831726069887
 21
-1.827430725096988
 31
0.0
  0
LINE
  5
1D8C
330
1F
100
AcDbEntity
  8
AM_0
100
AcDbLine
 10
-0.0815238952639924
 20
-5.736003875731988
 30
0.0
 11
-0.7348175048829904
 21
-1.827524185179989
 31
0.0
  0
LINE
  5
1D8D
330
1F
100
AcDbEntity
  8
AM_0
100
AcDbLine
 10
-1.028995513915994
 20
-3.442405700682989
 30
0.0
 11
-8.521694183349993
 21
-3.094749450682988
 31
0.0
  0
ARC
  5
1D8E
330
1F
100
AcDbEntity
  8
AM_0
100
AcDbCircle
 10
-5.252899169921987
 20
6.611755371094013
 30
0.0
 40
1.749966859817499
100
AcDbArc
 50
88.30376782647325
 51
266.5306830476537
  0
ARC
  5
1D8F
330
1F
100
AcDbEntity
  8
AM_0
100
AcDbCircle
 10
-5.226196289061987
 20
6.498962402344013
 30
0.0
 40
1.2499930858612
100
AcDbArc
 50
267.4965127774277
 51
87.5010803527499
  0
LINE
  5
1D90
330
1F
100
AcDbEntity
  8
AM_0
100
AcDbLine
 10
-0.0815086364749921
 20
8.16041946411201
 30
0.0
 11
-0.0000076293939901
 21
9.28674697876001
 31
0.0
  0
LINE
  5
1D91
330
1F
100
AcDbEntity
  8
AM_0
100
AcDbLine
 10
-0.3657760620119876
 20
9.70154953003001
 30
0.0
 11
-0.2135696411129887
 21
9.665170669556012
 31
0.0
  0
LINE
  5
1D92
330
1F
100
AcDbEntity
  8
AM_0
100
AcDbLine
 10
-0.2135658264159931
 20
9.66522789001501
 30
0.0
 11
-0.3649597167969875
 21
9.701602935791012
 31
0.0
  0
ARC
  5
1D93
330
1F
100
AcDbEntity
  8
AM_0
100
AcDbCircle
 10
-5.226196289061987
 20
6.498962402344013
 30
0.0
 40
1.248564720153799
100
AcDbArc
 50
230.8313503882177
 51
267.4965127774277
  0
ARC
  5
1D94
330
1F
100
AcDbEntity
  8
AM_0
100
AcDbCircle
 10
-5.226196289061987
 20
6.498962402344013
 30
0.0
 40
1.2499886751175
100
AcDbArc
 50
87.50109082540339
 51
230.8084214431754
  0
ARC
  5
1D95
330
1F
100
AcDbEntity
  8
AM_0
100
AcDbCircle
 10
-5.121398925780993
 20
6.605957031250011
 30
0.0
 40
1.3984200954437
100
AcDbArc
 50
230.2715446687505
 51
266.363158997876
  0
ARC
  5
1D96
330
1F
100
AcDbEntity
  8
AM_0
100
AcDbCircle
 10
-5.121398925780993
 20
6.605957031250011
 30
0.0
 40
1.4000227451324
100
AcDbArc
 50
88.59204279058397
 51
230.2510848370889
  0
LINE
  5
1D97
330
1F
100
AcDbEntity
  8
AM_0
100
AcDbLine
 10
-3.118991851806988
 20
2.999420166016012
 30
0.0
 11
-6.10688781738299
 21
3.129913330078012
 31
0.0
  0
LINE
  5
1D98
330
1F
100
AcDbEntity
  8
AM_0
100
AcDbLine
 10
-3.643692016600993
 20
1.91248321533201
 30
0.0
 11
-6.136089324950994
 21
2.02130699157701
 31
0.0
  0
LINE
  5
1D99
330
1F
100
AcDbEntity
  8
AM_0
100
AcDbLine
 10
-8.514190673827989
 20
-2.84214019775399
 30
0.0
 11
-1.024589538573991
 21
-3.189613342284985
 31
0.0
  0
LINE
  5
1D9A
330
1F
100
AcDbEntity
  8
AM_0
100
AcDbLine
 10
-0.9722900390619887
 20
-3.015441894530987
 30
0.0
 11
-0.9722900390619882
 21
1.795776367188011
 31
0.0
  0
LINE
  5
1D9B
330
1F
100
AcDbEntity
  8
AM_0
100
AcDbLine
 10
-1.16319274902299
 20
-3.108032226561988
 30
0.0
 11
-1.163192749022989
 21
1.80419921875001
 31
0.0
  0
LINE
  5
1D9C
330
1F
100
AcDbEntity
  8
AM_0
100
AcDbLine
 10
-3.647491455077989
 20
1.912559509278012
 30
0.0
 11
-1.163188934325994
 21
1.804161071778011
 31
0.0
  0
LINE
  5
1D9D
330
1F
100
AcDbEntity
  8
AM_0
100
AcDbLine
 10
-1.11577224731399
 20
3.46044731140201
 30
0.0
 11
-1.191673278808991
 21
1.805143356324009
 31
0.0
  0
LINE
  5
1D9E
330
1F
100
AcDbEntity
  8
AM_0
100
AcDbLine
 10
-1.198280334472989
 20
3.414100646973011
 30
0.0
 11
-1.232879638671988
 21
2.608018875122009
 31
0.0
  0
LINE
  5
1D9F
330
1F
100
AcDbEntity
  8
AM_0
100
AcDbLine
 10
-1.163196563720994
 20
1.804058074951012
 30
0.0
 11
-0.9722976684569884
 21
1.795635223389013
 31
0.0
  0
LINE
  5
1DA0
330
1F
100
AcDbEntity
  8
AM_0
100
AcDbLine
 10
-3.102619171141987
 20
3.374185562134013
 30
0.0
 11
-3.119018554686987
 21
2.999361038208011
 31
0.0
  0
LINE
  5
1DA1
330
1F
100
AcDbEntity
  8
AM_0
100
AcDbLine
 10
-1.163307189940994
 20
-3.107963562010986
 30
0.0
 11
-0.9723892211909944
 21
-3.015365600585987
 31
0.0
  0
LINE
  5
1DA2
330
1F
100
AcDbEntity
  8
AM_0
100
AcDbLine
 10
-0.0000267028809947
 20
-2.827865600585987
 30
0.0
 11
-0.0005264282229906
 21
-2.852397918700987
 31
0.0
  0
LINE
  5
1DA3
330
1F
100
AcDbEntity
  8
AM_0
100
AcDbLine
 10
-0.0815086364749934
 20
-2.424591064452989
 30
0.0
 11
0.0000000000000068
 21
-2.827999114989985
 31
0.0
  0
LINE
  5
1DA4
330
1F
100
AcDbEntity
  8
AM_0
100
AcDbLine
 10
-0.9662170410159946
 20
-1.065002441405986
 30
0.0
 11
-0.9711112976069886
 21
-1.059150695799988
 31
0.0
  0
LINE
  5
1DA5
330
1F
100
AcDbEntity
  8
AM_0
100
AcDbLine
 10
-0.9081916809079901
 20
-1.178768157958987
 30
0.0
 11
-0.912597656249993
 21
-1.162570953368987
 31
0.0
  0
LINE
  5
1DA6
330
1F
100
AcDbEntity
  8
AM_0
100
AcDbLine
 10
-0.9661788940429902
 20
-1.065006256102989
 30
0.0
 11
-0.9722824096679902
 21
-1.060792922972989
 31
0.0
  0
LINE
  5
1DA7
330
1F
100
AcDbEntity
  8
AM_0
100
AcDbLine
 10
-0.9722862243649929
 20
-1.496757507323987
 30
0.0
 11
-0.9478836059569887
 21
-1.587213516234989
 31
0.0
  0
LINE
  5
1DA8
330
1F
100
AcDbEntity
  8
AM_0
100
AcDbLine
 10
-0.7555656433099929
 20
-1.744104385375987
 30
0.0
 11
-0.9081535339349928
 21
-1.178827285765986
 31
0.0
  0
LINE
  5
1DA9
330
1F
100
AcDbEntity
  8
AM_0
100
AcDbLine
 10
-0.9082145690919888
 20
-1.17872238159099
 30
0.0
 11
-0.9723014831539915
 21
-1.126544952391988
 31
0.0
  0
LINE
  5
1DAA
330
1F
100
AcDbEntity
  8
AM_0
100
AcDbLine
 10
-0.9478950500489917
 20
-1.587417602538987
 30
0.0
 11
-0.8163948059079903
 21
-3.093406677245987
 31
0.0
  0
LINE
  5
1DAB
330
1F
100
AcDbEntity
  8
AM_0
100
AcDbLine
 10
-0.734779357909993
 20
-1.827589035033987
 30
0.0
 11
-0.7555847167969889
 21
-1.744081497191988
 31
0.0
  0
LINE
  5
1DAC
330
1F
100
AcDbEntity
  8
AM_0
100
AcDbLine
 10
-0.7556037902829902
 20
-1.744035720824989
 30
0.0
 11
-0.94790267944299
 21
-1.587356567381988
 31
0.0
  0
LINE
  5
1DAD
330
1F
100
AcDbEntity
  8
AM_0
100
AcDbLine
 10
-9.386684417724993
 20
2.163206100464014
 30
0.0
 11
-6.10778045654299
 21
2.019954681397011
 31
0.0
  0
LINE
  5
1DAE
330
1F
100
AcDbEntity
  8
AM_0
100
AcDbLine
 10
-6.073574066161988
 20
3.203054428101013
 30
0.0
 11
-6.106975555419992
 21
3.12987136840901
 31
0.0
  0
LINE
  5
1DAF
330
1F
100
AcDbEntity
  8
AM_0
100
AcDbLine
 10
-6.106910705565994
 20
3.129911422730011
 30
0.0
 11
-6.093612670897989
 21
3.434675216675011
 31
0.0
  0
ARC
  5
1DB0
330
1F
100
AcDbEntity
  8
AM_0
100
AcDbCircle
 10
-9.847900390624992
 20
4.385375976563012
 30
0.0
 40
1.4992666244507
100
AcDbArc
 50
289.8260609101637
 51
309.9108673721792
  0
LINE
  5
1DB1
330
1F
100
AcDbEntity
  8
AM_0
100
AcDbLine
 10
-8.583274841308991
 20
3.492019653321013
 30
0.0
 11
-8.886859893798991
 21
3.236476898194013
 31
0.0
  0
LINE
  5
1DB2
330
1F
100
AcDbEntity
  8
AM_0
100
AcDbLine
 10
-8.517913818358991
 20
-3.054424285887988
 30
0.0
 11
-8.521717071532989
 21
-3.094772338866987
 31
0.0
  0
LINE
  5
1DB3
330
1F
100
AcDbEntity
  8
AM_0
100
AcDbLine
 10
-9.304546356200994
 20
-2.809455871581987
 30
0.0
 11
-9.226455688475994
 21
-2.746295928954984
 31
0.0
  0
LINE
  5
1DB4
330
1F
100
AcDbEntity
  8
AM_0
100
AcDbLine
 10
-9.178882598876988
 20
-2.925739288329984
 30
0.0
 11
-9.022388458251988
 21
-2.755760192870986
 31
0.0
  0
LINE
  5
1DB5
330
1F
100
AcDbEntity
  8
AM_0
100
AcDbLine
 10
-8.882057189940994
 20
-3.051322937010986
 30
0.0
 11
-8.765274047850994
 21
-2.80502319335899
 31
0.0
  0
LINE
  5
1DB6
330
1F
100
AcDbEntity
  8
AM_0
100
AcDbLine
 10
-8.54719161987299
 20
-3.094272613524984
 30
0.0
 11
-8.521686553954992
 21
-3.09494400024399
 31
0.0
  0
ARC
  5
1DB7
330
1F
100
AcDbEntity
  8
AM_0
100
AcDbCircle
 10
-4.891891479491989
 20
-8.451538085936988
 30
0.0
 40
1.2500380277634
100
AcDbArc
 50
5.094414526903357
 51
185.0948276396611
  0
LINE
  5
1DB8
330
1F
100
AcDbEntity
  8
AM_0
100
AcDbLine
 10
-0.9722900390619894
 20
-8.213897705077989
 30
0.0
 11
-1.052188873290995
 21
-6.58340835571299
 31
0.0
  0
LINE
  5
1DB9
330
1F
100
AcDbEntity
  8
AM_0
100
AcDbLine
 10
-0.9722900390619891
 20
-6.597941877461702
 30
0.0
 11
-0.9722900390619894
 21
-8.213928222655987
 31
0.0
  0
LINE
  5
1DBA
330
1F
100
AcDbEntity
  8
AM_0
100
AcDbLine
 10
-0.0815048217769892
 20
-5.735973358153991
 30
0.0
 11
0.0000000000000063
 21
-6.458927154540987
 31
0.0
  0
LINE
  5
1DBB
330
1F
100
AcDbEntity
  8
AM_0
100
AcDbLine
 10
-0.2136039733889924
 20
-6.678459167479985
 30
0.0
 11
-0.3650054931639923
 21
-6.686271667479985
 31
0.0
  0
LINE
  5
1DBC
330
1F
100
AcDbEntity
  8
AM_0
100
AcDbLine
 10
-0.6094169616699934
 20
-3.320274353026988
 30
0.0
 11
-0.6077194213869892
 21
-3.281368255614985
 31
0.0
  0
LINE
  5
1DBD
330
1F
100
AcDbEntity
  8
AM_0
100
AcDbLine
 10
-0.6077003478999932
 20
-3.281314849852989
 30
0.0
 11
-0.6095046997069891
 21
-3.261867523192989
 31
0.0
  0
LINE
  5
1DBE
330
1F
100
AcDbEntity
  8
AM_0
100
AcDbLine
 10
-1.02899932861299
 20
-3.442531585692989
 30
0.0
 11
-0.9844970703119887
 21
-3.446681976317989
 31
0.0
  0
LINE
  5
1DBF
330
1F
100
AcDbEntity
  8
AM_0
100
AcDbLine
 10
-3.647464752196989
 20
-8.573085784911988
 30
0.0
 11
-1.163169860839994
 21
-8.404323577880987
 31
0.0
  0
LINE
  5
1DC3
330
1F
100
AcDbEntity
  8
AM_0
100
AcDbLine
 10
-1.163253784179994
 20
-8.404186248778991
 30
0.0
 11
-0.9723701477049939
 21
-8.213897705077989
 31
0.0
  0
ARC
  5
1DC4
330
1F
100
AcDbEntity
  8
AM_0
100
AcDbCircle
 10
-4.891891479491989
 20
-8.451538085936988
 30
0.0
 40
1.250317454338099
100
AcDbArc
 50
354.4234697403439
 51
5.094424544813304
  0
LINE
  5
1DC5
330
1F
100
AcDbEntity
  8
AM_0
100
AcDbLine
 10
-9.92589569091799
 20
-5.00180816650399
 30
0.0
 11
-10.11921710392437
 21
-4.609514676279973
 31
0.0
  0
LINE
  5
1DC6
330
1F
100
AcDbEntity
  8
AM_0
100
AcDbLine
 10
-9.386684417724994
 20
-8.960662841796986
 30
0.0
 11
-6.107784271239993
 21
-8.739532470702989
 31
0.0
  0
ARC
  5
1DC7
330
1F
100
AcDbEntity
  8
AM_0
100
AcDbCircle
 10
-4.891891479491989
 20
-8.451538085936988
 30
0.0
 40
1.2499383687973
100
AcDbArc
 50
185.0948276396611
 51
193.3255880801197
  0
LINE
  5
1DC8
330
1F
100
AcDbEntity
  8
AM_0
100
AcDbLine
 10
-11.81468963622999
 20
-4.492431640624984
 30
0.0
 11
-11.81468963622999
 21
2.416564941407011
 31
0.0
  0
LINE
  5
1DC9
330
1F
100
AcDbEntity
  8
AM_0
100
AcDbLine
 10
-30.86599731445299
 20
-9.999999999999982
 30
0.0
 11
-30.86599731445299
 21
10.00000000000001
 31
0.0
  0
LINE
  5
1DCA
330
1F
100
AcDbEntity
  8
AM_0
100
AcDbLine
 10
-29.99999237060499
 20
-9.499999999999982
 30
0.0
 11
-29.99999237060499
 21
9.500000000000014
 31
0.0
  0
ARC
  5
1DCB
330
1F
100
AcDbEntity
  8
AM_0
100
AcDbCircle
 10
-9.847900390624992
 20
4.385375976563012
 30
0.0
 40
1.497969985008199
100
AcDbArc
 50
129.9113507217525
 51
236.9641123571754
  0
LINE
  5
1DCC
330
1F
100
AcDbEntity
  8
AM_0
100
AcDbLine
 10
-10.67327880859399
 20
5.073894500733012
 30
0.0
 11
-10.78318405151399
 21
3.948879241944014
 31
0.0
  0
LINE
  5
1DCD
330
1F
100
AcDbEntity
  8
AM_0
100
AcDbLine
 10
-10.65295028686499
 20
5.527544021607011
 30
0.0
 11
-10.58075332641599
 21
5.58820915222201
 31
0.0
  0
LINE
  5
1DCE
330
1F
100
AcDbEntity
  8
AM_0
100
AcDbLine
 10
-23.68299865722599
 20
9.500000000000014
 30
0.0
 11
-29.99999237060499
 21
9.500000000000014
 31
0.0
  0
LINE
  5
1DCF
330
1F
100
AcDbEntity
  8
AM_0
100
AcDbLine
 10
-30.00000381469699
 20
9.500022888184016
 30
0.0
 11
-30.86601066589299
 21
10.00002288818401
 31
0.0
  0
LINE
  5
1DD0
330
1F
100
AcDbEntity
  8
AM_0
100
AcDbLine
 10
-29.99999237060499
 20
-9.499999999999982
 30
0.0
 11
-18.34839630126899
 21
-9.499999999999984
 31
0.0
  0
LINE
  5
1DD1
330
1F
100
AcDbEntity
  8
AM_0
100
AcDbLine
 10
-30.86597824096699
 20
-9.999961853026984
 30
0.0
 11
-29.99998283386199
 21
-9.499969482421985
 31
0.0
  0
LINE
  5
1DD2
330
1F
100
AcDbEntity
  8
AM_0
100
AcDbLine
 10
-109.9999999999989
 20
-7.661499023436975
 30
0.0
 11
-109.9999999999989
 21
7.661499023438024
 31
0.0
  0
LINE
  5
1DD3
330
1F
100
AcDbEntity
  8
AM_0
100
AcDbLine
 10
-106.9999999999989
 20
-9.999999999999973
 30
0.0
 11
-106.9999999999989
 21
10.00000000000002
 31
0.0
  0
ARC
  5
1DD4
330
1F
100
AcDbEntity
  8
AM_0
100
AcDbCircle
 10
-107.9999999999989
 20
7.661499023438024
 30
0.0
 40
1.999940276145899
100
AcDbArc
 50
104.9993319694928
 51
180.0
  0
LINE
  5
1DD5
330
1F
100
AcDbEntity
  8
AM_0
100
AcDbLine
 10
-106.9999847412099
 20
10.00003433227602
 30
0.0
 11
-108.5175628662099
 21
9.593301773072022
 31
0.0
  0
ARC
  5
1DD6
330
1F
100
AcDbEntity
  8
AM_0
100
AcDbCircle
 10
-107.9999999999989
 20
-7.661499023436975
 30
0.0
 40
2.0
100
AcDbArc
 50
180.0
 51
255.0014125211288
  0
LINE
  5
1DD7
330
1F
100
AcDbEntity
  8
AM_0
100
AcDbLine
 10
-108.5175552368149
 20
-9.593406677245974
 30
0.0
 11
-106.999961853026
 21
-9.999961853026976
 31
0.0
  0
LINE
  5
1DD8
330
1F
100
AcDbEntity
  8
AM_7
  6
AM_ISO08W050X2
100
AcDbLine
 10
-115.5323079925009
 20
0.0000000000000248
 30
0.0
 11
5.117897033691008
 21
0.00000000000001
 31
0.0
  0
DIMENSION
  5
1E16
330
1F
100
AcDbEntity
  8
AM_5
100
AcDbDimension
  2
*D9
 10
-123.9999999999989
 20
-9.99996185302697
 30
0.0
 11
-127.399999999999
 21
0.0000362396245111
 31
0.0
 70
    32
  1
%%c<>
  3
AM_JIS$0
100
AcDbAlignedDimension
 13
-106.9999847412099
 23
10.00003433227602
 33
0.0
 14
-106.999961853026
 24
-9.999961853026976
 34
0.0
 50
270.0
100
AcDbRotatedDimension
1001
ACAD
1000
DSTYLE
1002
{
1070
   171
1070
     0
1070
   271
1070
     0
1002
}
1001
GENIUS_GENDTOL_13
1000

1000
h7
1000

1040
0.0
  0
DIMENSION
  5
1F37
330
1F
100
AcDbEntity
  8
AM_5
100
AcDbDimension
  2
*D10
 10
0.0000000000000092
 20
24.00003433227622
 30
0.0
 11
-4.499999999999991
 21
27.40003433227622
 31
0.0
 70
    32
  1
<>
  3
AM_JIS$0
100
AcDbAlignedDimension
 13
-8.999999999999991
 23
10.00000000000001
 33
0.0
 14
0.0000000000000083
 24
10.00000000000001
 34
0.0
 50
180.0
100
AcDbRotatedDimension
1001
ACAD
1000
DSTYLE
1002
{
1070
   271
1070
     0
1002
}
1001
GENIUS_GENDTOL_13
1000

1000
h7
1000

1040
0.0
  0
VIEWPORT
  5
110
330
101
100
AcDbEntity
 67
     1
  8
0
100
AcDbViewport
 10
420.5
 20
297.0
 30
0.0
 40
948.9782706766916
 41
628.452
 68
     1
 69
     1
1001
ACAD
1000
MVIEW
1002
{
1070
    16
1010
0.0
1020
0.0
1030
0.0
1010
0.0
1020
0.0
1030
1.0
1040
0.0
1040
628.452
1040
420.5
1040
297.0
1040
50.0
1040
0.0
1040
0.0
1070
     0
1070
   100
1070
     1
1070
     1
1070
     0
1070
     0
1070
     0
1070
     0
1040
0.0
1040
0.0
1040
0.0
1040
10.0
1040
10.0
1040
10.0
1040
10.0
1070
     0
1002
{
1002
}
1002
}
  0
ENDSEC
  0
SECTION
  2
OBJECTS
  0
DICTIONARY
  5
C
330
0
100
AcDbDictionary
  3
ACAD_GROUP
350
D
  3
ACAD_LAYOUT
350
1A
  3
ACAD_MLINESTYLE
350
17
  3
ACAD_PLOTSETTINGS
350
19
  3
ACAD_PLOTSTYLENAME
350
E
  3
ACDBVARIABLEDICTIONARY
350
34
  3
ACMDICTIONARY
350
43
  3
AMG
350
2B
  3
AMGSNAPSETTINGS
350
6E
  3
DWGPROPS
350
2376
  3
ACDBHEADERROUNDTRIPXREC
350
2382
  0
DICTIONARY
  5
74
330
1F
100
AcDbDictionary
280
     1
  3
ACAD_INDEX
360
2378
  3
ACAD_LAYOUTSELFREF
360
23A5
  0
DICTIONARY
  5
23AA
330
101
100
AcDbDictionary
280
     1
  3
ACAD_LAYOUTSELFREF
360
23AB
  0
DICTIONARY
  5
D
102
{ACAD_REACTORS
330
C
102
}
330
C
100
AcDbDictionary
  0
DICTIONARY
  5
1A
102
{ACAD_REACTORS
330
C
102
}
330
C
100
AcDbDictionary
  0
DICTIONARY
  5
17
102
{ACAD_REACTORS
330
C
102
}
330
C
100
AcDbDictionary
  3
STANDARD
350
18
  0
DICTIONARY
  5
19
102
{ACAD_REACTORS
330
C
102
}
330
C
100
AcDbDictionary
  0
ACDBDICTIONARYWDFLT
  5
E
102
{ACAD_REACTORS
330
C
102
}
330
C
100
AcDbDictionary
281
     1
  3
Normal
350
F
100
AcDbDictionaryWithDefault
340
F
  0
DICTIONARY
  5
34
102
{ACAD_REACTORS
330
C
102
}
330
C
100
AcDbDictionary
  3
INDEXCTL
350
35
  3
SORTENTS
350
B5E
  0
DICTIONARY
  5
43
102
{ACAD_REACTORS
330
C
102
}
330
C
100
AcDbDictionary
  3
ACMSTDDICTIONARY
350
260
  0
DICTIONARY
  5
2B
102
{ACAD_REACTORS
330
C
102
}
330
C
100
AcDbDictionary
  3
ACMGSETTINGS
350
2C
  0
DICTIONARY
  5
6E
102
{ACAD_REACTORS
330
C
102
}
330
C
100
AcDbDictionary
  0
XRECORD
  5
2376
102
{ACAD_REACTORS
330
C
102
}
330
C
100
AcDbXrecord
  1
DWGPROPS COOKIE
  2

  3

  4

  6

  7

  8

  9

300
AmdtFileType=82
301
=
302
=
303
=
304
=
305
=
306
=
307
=
308
=
309
=
 40
0.1011429282407407
 41
2452839.420061482
 42
2453075.594995659
  1

 90
        1
  0
DICTIONARY
  5
2382
102
{ACAD_REACTORS
330
C
102
}
330
C
100
AcDbDictionary
  3
TSTACKALIGN
350
2383
  3
TSTACKSIZE
350
2384
  3
HYPERLINKBASE
350
2385
  3
STYLESHEET
350
2386
  3
LAYOUTDICT
350
2387
  3
PLOTSETDICT
350
2388
  3
PLOTSTYLNAMDICT
350
2389
  3
LWETCUNION
350
238A
  3
INSUNITS
350
238B
  3
CEPSNTYPE
350
238C
  3
FINGERPRINTGUID
350
238D
  3
VERSIONGUID
350
238E
  3
PSVPSCALE
350
238F
  3
DIMSTYLEDATA
350
2390
  3
PUCSORTHOREF
350
2391
  3
PUCSORTHOVIEW
350
2392
  3
PUCSBASE
350
2393
  3
PUCSORGTOP
350
2394
  3
PUCSORGBOTTOM
350
2395
  3
PUCSORGLEFT
350
2396
  3
PUCSORGRIGHT
350
2397
  3
PUCSORGFRONT
350
2398
  3
PUCSORGBACK
350
2399
  3
UCSORTHOREF
350
239A
  3
UCSORTHOVIEW
350
239B
  3
UCSBASE
350
239C
  3
UCSORGTOP
350
239D
  3
UCSORGBOTTOM
350
239E
  3
UCSORGLEFT
350
239F
  3
UCSORGRIGHT
350
23A0
  3
UCSORGFRONT
350
23A1
  3
UCSORGBACK
350
23A2
  0
DICTIONARY
  5
2378
102
{ACAD_REACTORS
330
74
102
}
330
74
100
AcDbDictionary
  3
*A1
350
2379
  0
XRECORD
  5
23A5
102
{ACAD_REACTORS
330
74
102
}
330
74
100
AcDbXrecord
340
1F
  0
XRECORD
  5
23AB
102
{ACAD_REACTORS
330
23AA
102
}
330
23AA
100
AcDbXrecord
340
101
  0
MLINESTYLE
  5
18
102
{ACAD_REACTORS
330
17
102
}
330
17
100
AcDbMlineStyle
  2
STANDARD
 70
     0
  3

 62
   256
 51
90.0
 52
90.0
 71
     2
 49
0.5
 62
   256
  6
BYLAYER
 49
-0.5
 62
   256
  6
BYLAYER
  0
ACDBPLACEHOLDER
  5
F
102
{ACAD_REACTORS
330
E
102
}
330
E
100
AcDbPlaceHolder
280
     0
  0
DICTIONARYVAR
  5
35
102
{ACAD_REACTORS
330
34
102
}
330
34
100
DictionaryVariables
280
     0
  1
1
  0
DICTIONARYVAR
  5
B5E
102
{ACAD_REACTORS
330
34
102
}
330
34
100
DictionaryVariables
280
     0
  1
96
  0
DICTIONARY
  5
260
102
{ACAD_REACTORS
330
43
102
}
330
43
100
AcDbDictionary
  0
DICTIONARY
  5
2C
102
{ACAD_REACTORS
330
2B
102
}
330
2B
100
AcDbDictionary
  3
DWGSETTINGS
350
2D
  0
XRECORD
  5
2383
102
{ACAD_REACTORS
330
2382
102
}
330
2382
100
AcDbXrecord
 90
        1
  0
XRECORD
  5
2384
102
{ACAD_REACTORS
330
2382
102
}
330
2382
100
AcDbXrecord
 90
       70
  0
XRECORD
  5
2385
102
{ACAD_REACTORS
330
2382
102
}
330
2382
100
AcDbXrecord
  1

  0
XRECORD
  5
2386
102
{ACAD_REACTORS
330
2382
102
}
330
2382
100
AcDbXrecord
  1
ASAMI.ctb
  0
XRECORD
  5
2387
102
{ACAD_REACTORS
330
2382
102
}
330
2382
100
AcDbXrecord
340
1A
  0
XRECORD
  5
2388
102
{ACAD_REACTORS
330
2382
102
}
330
2382
100
AcDbXrecord
340
19
  0
XRECORD
  5
2389
102
{ACAD_REACTORS
330
2382
102
}
330
2382
100
AcDbXrecord
340
E
  0
XRECORD
  5
238A
102
{ACAD_REACTORS
330
2382
102
}
330
2382
100
AcDbXrecord
 90
    10781
  0
XRECORD
  5
238B
102
{ACAD_REACTORS
330
2382
102
}
330
2382
100
AcDbXrecord
 90
        4
  0
XRECORD
  5
238C
102
{ACAD_REACTORS
330
2382
102
}
330
2382
100
AcDbXrecord
 90
        0
  0
XRECORD
  5
238D
102
{ACAD_REACTORS
330
2382
102
}
330
2382
100
AcDbXrecord
  1
{AFB28963-8C59-40AE-9337-C84526B81ACE}
  0
XRECORD
  5
238E
102
{ACAD_REACTORS
330
2382
102
}
330
2382
100
AcDbXrecord
  1
{FCA99F47-1AFD-41DD-8F42-E8887751DDA7}
  0
XRECORD
  5
238F
102
{ACAD_REACTORS
330
2382
102
}
330
2382
100
AcDbXrecord
 40
0.0
  0
XRECORD
  5
2390
102
{ACAD_REACTORS
330
2382
102
}
330
2382
100
AcDbXrecord
1000
DSTYLE
1002
{
1070
    79
 70
     2
1070
   341
340
59
1070
   342
340
59
1070
   371
 70
    -1
1070
   372
 70
    -1
1002
}
  0
XRECORD
  5
2391
102
{ACAD_REACTORS
330
2382
102
}
330
2382
100
AcDbXrecord
340
0
  0
XRECORD
  5
2392
102
{ACAD_REACTORS
330
2382
102
}
330
2382
100
AcDbXrecord
 70
     0
  0
XRECORD
  5
2393
102
{ACAD_REACTORS
330
2382
102
}
330
2382
100
AcDbXrecord
340
0
  0
XRECORD
  5
2394
102
{ACAD_REACTORS
330
2382
102
}
330
2382
100
AcDbXrecord
 10
0.0
 20
0.0
 30
0.0
  0
XRECORD
  5
2395
102
{ACAD_REACTORS
330
2382
102
}
330
2382
100
AcDbXrecord
 10
0.0
 20
0.0
 30
0.0
  0
XRECORD
  5
2396
102
{ACAD_REACTORS
330
2382
102
}
330
2382
100
AcDbXrecord
 10
0.0
 20
0.0
 30
0.0
  0
XRECORD
  5
2397
102
{ACAD_REACTORS
330
2382
102
}
330
2382
100
AcDbXrecord
 10
0.0
 20
0.0
 30
0.0
  0
XRECORD
  5
2398
102
{ACAD_REACTORS
330
2382
102
}
330
2382
100
AcDbXrecord
 10
0.0
 20
0.0
 30
0.0
  0
XRECORD
  5
2399
102
{ACAD_REACTORS
330
2382
102
}
330
2382
100
AcDbXrecord
 10
0.0
 20
0.0
 30
0.0
  0
XRECORD
  5
239A
102
{ACAD_REACTORS
330
2382
102
}
330
2382
100
AcDbXrecord
340
0
  0
XRECORD
  5
239B
102
{ACAD_REACTORS
330
2382
102
}
330
2382
100
AcDbXrecord
 70
     0
  0
XRECORD
  5
239C
102
{ACAD_REACTORS
330
2382
102
}
330
2382
100
AcDbXrecord
340
0
  0
XRECORD
  5
239D
102
{ACAD_REACTORS
330
2382
102
}
330
2382
100
AcDbXrecord
 10
0.0
 20
0.0
 30
0.0
  0
XRECORD
  5
239E
102
{ACAD_REACTORS
330
2382
102
}
330
2382
100
AcDbXrecord
 10
0.0
 20
0.0
 30
0.0
  0
XRECORD
  5
239F
102
{ACAD_REACTORS
330
2382
102
}
330
2382
100
AcDbXrecord
 10
0.0
 20
0.0
 30
0.0
  0
XRECORD
  5
23A0
102
{ACAD_REACTORS
330
2382
102
}
330
2382
100
AcDbXrecord
 10
0.0
 20
0.0
 30
0.0
  0
XRECORD
  5
23A1
102
{ACAD_REACTORS
330
2382
102
}
330
2382
100
AcDbXrecord
 10
0.0
 20
0.0
 30
0.0
  0
XRECORD
  5
23A2
102
{ACAD_REACTORS
330
2382
102
}
330
2382
100
AcDbXrecord
 10
0.0
 20
0.0
 30
0.0
  0
LAYER_INDEX
  5
2379
102
{ACAD_REACTORS
330
2378
102
}
330
2378
100
AcDbIndex
 40
2453152.406379352
100
AcDbLayerIndex
  8
0
360
237A
 90
        0
  8
AM_0
360
237B
 90
      139
  8
AM_7
360
237C
 90
        1
  8
AM_11
360
237D
 90
        1
  8
AM_5
360
237E
 90
        6
  8
Defpoints
360
237F
 90
        0
  8
AM_6
360
2380
 90
        1
  0
XRECORD
  5
2D
102
{ACAD_REACTORS
330
2C
102
}
330
2C
100
AcDbXrecord
  1
VERSION
140
15.0
  1
PRODUCT
  2
AutoCAD Mechanical 2000
  0
IDBUFFER
  5
237A
330
0
100
AcDbIdBuffer
  0
IDBUFFER
  5
237B
330
0
100
AcDbIdBuffer
330
1DBA
330
1DBB
330
1DBC
330
1DBD
330
1DBE
330
1DBF
330
1DC3
330
1DC4
330
1DC5
330
1DC6
330
1DC7
330
1DC8
330
1DC9
330
1DCA
330
1DCB
330
1DCC
330
1DCD
330
1DCE
330
1DCF
330
1DD0
330
1DD1
330
1DD2
330
1DD3
330
1DD4
330
1DD5
330
1DD6
330
1DD7
330
1D46
330
1D47
330
1D4B
330
1D4C
330
1D4D
330
1D4E
330
1D4F
330
1D50
330
1D51
330
1D52
330
1D53
330
1D54
330
1D55
330
1D56
330
1D57
330
1D58
330
1D59
330
1D5A
330
1D5B
330
1D5C
330
1D5D
330
1D5E
330
1D5F
330
1D60
330
1D61
330
1D62
330
1D63
330
1D64
330
1D65
330
1D66
330
1D67
330
1D68
330
1D69
330
1D6A
330
1D6B
330
1D6C
330
1D6D
330
1D6E
330
1D6F
330
1D70
330
1D71
330
1D72
330
1D73
330
1D74
330
1D75
330
1D76
330
1D77
330
1D78
330
1D79
330
1D7A
330
1D7B
330
1D7C
330
1D7D
330
1D7E
330
1D7F
330
1D80
330
1D81
330
1D82
330
1D83
330
1D84
330
1D85
330
1D86
330
1D87
330
1D89
330
1D8A
330
1D8B
330
1D8C
330
1D8D
330
1D8E
330
1D8F
330
1D90
330
1D91
330
1D92
330
1D93
330
1D94
330
1D95
330
1D96
330
1D97
330
1D98
330
1D99
330
1D9A
330
1D9B
330
1D9C
330
1D9D
330
1D9E
330
1D9F
330
1DA0
330
1DA1
330
1DA2
330
1DA3
330
1DA4
330
1DA5
330
1DA6
330
1DA7
330
1DA8
330
1DA9
330
1DAA
330
1DAB
330
1DAC
330
1DAD
330
1DAE
330
1DAF
330
1DB0
330
1DB1
330
1DB2
330
1DB3
330
1DB4
330
1DB5
330
1DB6
330
1DB7
330
1DB8
330
1DB9
  0
IDBUFFER
  5
237C
330
0
100
AcDbIdBuffer
330
1DD8
  0
IDBUFFER
  5
237D
330
0
100
AcDbIdBuffer
330
1D88
  0
IDBUFFER
  5
237E
330
0
100
AcDbIdBuffer
330
155D
330
15E8
330
1673
330
1895
330
1E16
330
1F37
  0
IDBUFFER
  5
237F
330
0
100
AcDbIdBuffer
  0
IDBUFFER
  5
2380
330
0
100
AcDbIdBuffer
330
1142
  0
ENDSEC
  0
EOF
