  0
SECTION
  2
HEADER
  9
$ACADVER
  1
AC1014
  9
$ACADMAINTVER
 70
     9
  9
$DWGCODEPAGE
  3
ANSI_932
  9
$INSBASE
 10
0.0
 20
0.0
 30
0.0
  9
$EXTMIN
 10
-182.4063311761624
 20
-60.99999999999991
 30
-0.00000001
  9
$EXTMAX
 10
16.26467995507801
 20
32.79999432427828
 30
0.00000001
  9
$LIMMIN
 10
-196.6013384139777
 20
-87.2662937332455
  9
$LIMMAX
 10
35.72877847990207
 20
33.38994917560779
  9
$ORTHOMODE
 70
     0
  9
$REGENMODE
 70
     1
  9
$FILLMODE
 70
     1
  9
$QTEXTMODE
 70
     0
  9
$MIRRTEXT
 70
     0
  9
$DRAGMODE
 70
     2
  9
$LTSCALE
 40
1.0
  9
$OSMODE
 70
    55
  9
$ATTMODE
 70
     1
  9
$TEXTSIZE
 40
2.5
  9
$TRACEWID
 40
1.0
  9
$TEXTSTYLE
  7
STANDARD
  9
$CLAYER
  8
AM_11
  9
$CELTYPE
  6
BYLAYER
  9
$CECOLOR
 62
   256
  9
$CELTSCALE
 40
1.0
  9
$DELOBJ
 70
     1
  9
$DISPSILH
 70
     0
  9
$DIMSCALE
 40
1.0
  9
$DIMASZ
 40
2.5
  9
$DIMEXO
 40
1.0
  9
$DIMDLI
 40
12.0
  9
$DIMRND
 40
0.0
  9
$DIMDLE
 40
0.0
  9
$DIMEXE
 40
1.0
  9
$DIMTP
 40
0.1
  9
$DIMTM
 40
0.1
  9
$DIMTXT
 40
3.2
  9
$DIMCEN
 40
0.0
  9
$DIMTSZ
 40
0.0
  9
$DIMTOL
 70
     0
  9
$DIMLIM
 70
     0
  9
$DIMTIH
 70
     0
  9
$DIMTOH
 70
     0
  9
$DIMSE1
 70
     0
  9
$DIMSE2
 70
     0
  9
$DIMTAD
 70
     3
  9
$DIMZIN
 70
     8
  9
$DIMBLK
  1
OPEN30
  9
$DIMASO
 70
     1
  9
$DIMSHO
 70
     1
  9
$DIMPOST
  1

  9
$DIMAPOST
  1
"
  9
$DIMALT
 70
     0
  9
$DIMALTD
 70
     2
  9
$DIMALTF
 40
0.0393701
  9
$DIMLFAC
 40
1.0
  9
$DIMTOFL
 70
     1
  9
$DIMTVP
 40
0.0
  9
$DIMTIX
 70
     0
  9
$DIMSOXD
 70
     0
  9
$DIMSAH
 70
     0
  9
$DIMBLK1
  1

  9
$DIMBLK2
  1

  9
$DIMSTYLE
  2
AM_JIS
  9
$DIMCLRD
 70
   256
  9
$DIMCLRE
 70
   256
  9
$DIMCLRT
 70
     2
  9
$DIMTFAC
 40
0.71
  9
$DIMGAP
 40
1.5
  9
$DIMJUST
 70
     0
  9
$DIMSD1
 70
     0
  9
$DIMSD2
 70
     0
  9
$DIMTOLJ
 70
     0
  9
$DIMTZIN
 70
     0
  9
$DIMALTZ
 70
     0
  9
$DIMALTTZ
 70
     0
  9
$DIMFIT
 70
     3
  9
$DIMUPT
 70
     0
  9
$DIMUNIT
 70
     2
  9
$DIMDEC
 70
     3
  9
$DIMTDEC
 70
     3
  9
$DIMALTU
 70
     2
  9
$DIMALTTD
 70
     2
  9
$DIMTXSTY
  7
ASAMI
  9
$DIMAUNIT
 70
     0
  9
$LUNITS
 70
     2
  9
$LUPREC
 70
     0
  9
$SKETCHINC
 40
1.0
  9
$FILLETRAD
 40
2.5
  9
$AUNITS
 70
     0
  9
$AUPREC
 70
     0
  9
$MENU
  1
.
  9
$ELEVATION
 40
0.0
  9
$PELEVATION
 40
0.0
  9
$THICKNESS
 40
0.0
  9
$LIMCHECK
 70
     0
  9
$BLIPMODE
 70
     0
  9
$CHAMFERA
 40
2.5
  9
$CHAMFERB
 40
2.5
  9
$CHAMFERC
 40
20.0
  9
$CHAMFERD
 40
0.0
  9
$SKPOLY
 70
     0
  9
$TDCREATE
 40
2452839.420061482
  9
$TDUPDATE
 40
2453152.400185440
  9
$TDINDWG
 40
0.1609405787
  9
$TDUSRTIMER
 40
0.1609405787
  9
$USRTIMER
 70
     1
  9
$ANGBASE
 50
0.0
  9
$ANGDIR
 70
     0
  9
$PDMODE
 70
     0
  9
$PDSIZE
 40
0.0
  9
$PLINEWID
 40
0.0
  9
$COORDS
 70
     1
  9
$SPLFRAME
 70
     0
  9
$SPLINETYPE
 70
     6
  9
$SPLINESEGS
 70
     8
  9
$ATTDIA
 70
     1
  9
$ATTREQ
 70
     1
  9
$HANDLING
 70
 12289
  9
$HANDSEED
  5
3B64
  9
$SURFTAB1
 70
     6
  9
$SURFTAB2
 70
     6
  9
$SURFTYPE
 70
     6
  9
$SURFU
 70
     6
  9
$SURFV
 70
     6
  9
$UCSNAME
  2

  9
$UCSORG
 10
0.0
 20
0.0
 30
0.0
  9
$UCSXDIR
 10
1.0
 20
0.0
 30
0.0
  9
$UCSYDIR
 10
0.0
 20
1.0
 30
0.0
  9
$PUCSNAME
  2

  9
$PUCSORG
 10
0.0
 20
0.0
 30
0.0
  9
$PUCSXDIR
 10
1.0
 20
0.0
 30
0.0
  9
$PUCSYDIR
 10
0.0
 20
1.0
 30
0.0
  9
$USERI1
 70
     0
  9
$USERI2
 70
     0
  9
$USERI3
 70
     0
  9
$USERI4
 70
     0
  9
$USERI5
 70
     0
  9
$USERR1
 40
0.0
  9
$USERR2
 40
0.0
  9
$USERR3
 40
0.0
  9
$USERR4
 40
0.0
  9
$USERR5
 40
0.0
  9
$WORLDVIEW
 70
     1
  9
$SHADEDGE
 70
     3
  9
$SHADEDIF
 70
    70
  9
$TILEMODE
 70
     1
  9
$MAXACTVP
 70
    64
  9
$PINSBASE
 10
0.0
 20
0.0
 30
0.0
  9
$PLIMCHECK
 70
     0
  9
$PEXTMIN
 10
1.000000000000000E+20
 20
1.000000000000000E+20
 30
1.000000000000000E+20
  9
$PEXTMAX
 10
-1.000000000000000E+20
 20
-1.000000000000000E+20
 30
-1.000000000000000E+20
  9
$PLIMMIN
 10
0.0
 20
0.0
  9
$PLIMMAX
 10
841.0
 20
594.0
  9
$UNITMODE
 70
     0
  9
$VISRETAIN
 70
     1
  9
$PLINEGEN
 70
     0
  9
$PSLTSCALE
 70
     0
  9
$TREEDEPTH
 70
  3020
  9
$PICKSTYLE
 70
     0
  9
$CMLSTYLE
  2
STANDARD
  9
$CMLJUST
 70
     0
  9
$CMLSCALE
 40
20.0
  9
$PROXYGRAPHICS
 70
     1
  9
$MEASUREMENT
 70
     1
  0
ENDSEC
  0
SECTION
  2
CLASSES
  0
CLASS
  1
ACDBDICTIONARYWDFLT
  2
AcDbDictionaryWithDefault
  3
AutoCAD 2000
 90
        0
280
     0
281
     0
  0
CLASS
  1
ACDBPLACEHOLDER
  2
AcDbPlaceHolder
  3
AutoCAD 2000
 90
        0
280
     0
281
     0
  0
CLASS
  1
LAYOUT
  2
AcDbLayout
  3
AutoCAD 2000
 90
        0
280
     0
281
     0
  0
CLASS
  1
AMGSETTINGSOBJ
  2
AmgSettingsObj
  3
"AcadM|Product Description: AutoCAD Mechanical 2000|Company: Autodesk"
 90
        0
280
     0
281
     0
  0
CLASS
  1
ACME_DOCUMENT
  2
AcMeDbDoc
  3
AcMeServices
 90
        0
280
     0
281
     0
  0
CLASS
  1
ACMESCOPE
  2
AcMeScope
  3
AcMeServices
 90
        0
280
     0
281
     0
  0
CLASS
  1
ACMECOMMANDHISTORY
  2
AcMeCommandHistory
  3
AcMeServices
 90
        0
280
     0
281
     0
  0
CLASS
  1
DICTIONARYVAR
  2
AcDbDictionaryVar
  3
AutoCAD 2000
 90
        0
280
     0
281
     0
  0
CLASS
  1
ACIMSYSVARMAN
  2
AcImSysVarManager
  3
AcMeServices
 90
        0
280
     0
281
     0
  0
CLASS
  1
ACIMREALSYSVAR
  2
AcImRealSysVar
  3
AcMeServices
 90
        0
280
     0
281
     0
  0
CLASS
  1
ACIMINTSYSVAR
  2
AcImIntSysVar
  3
AcMeServices
 90
        0
280
     0
281
     0
  0
CLASS
  1
ACMEDRAWINGMAN
  2
AcMeDrawingMan
  3
AcMeServices
 90
        0
280
     0
281
     0
  0
CLASS
  1
ACMEVIEW
  2
AcMeView
  3
AcMeServices
 90
        0
280
     0
281
     0
  0
CLASS
  1
ACDBENTITYCACHE
  2
AcMeEntityCache
  3
AcMeServices
 90
        0
280
     0
281
     0
  0
CLASS
  1
GSMANAGER
  2
AcMeGSManager
  3
AcMeServices
 90
        0
280
     0
281
     0
  0
CLASS
  1
AmdtInternalReactor
  2
AmdtInternalReactor
  3
AcMeServices
 90
        0
280
     0
281
     0
  0
CLASS
  1
ACMESTATEMGR
  2
AcMeStateMgr
  3
AcMeServices
 90
        0
280
     0
281
     0
  0
CLASS
  1
ACME_DATABASE
  2
AcMeDbDatabase
  3
AcMeServices
 90
        0
280
     0
281
     0
  0
CLASS
  1
ACRFINSADJUSTERMGR
  2
AcRfInsAdjusterMgr
  3
AcMeServices
 90
        0
280
     0
281
     0
  0
CLASS
  1
ACMDATADICTIONARY
  2
AcmDataDictionary
  3
"AcmSymBB|Product Description: AutoCAD Mechanical 2000|Company: Autodesk"
 90
        0
280
     0
281
     0
  0
CLASS
  1
ACMDATAENTRYBLOCK
  2
AcmDataEntryBlock
  3
"AcmSymBB|Product Description: AutoCAD Mechanical 2000|Company: Autodesk"
 90
        0
280
     0
281
     0
  0
CLASS
  1
AMGOBJPROPCFG
  2
AmgObjPropCfg
  3
"AmgLay|Product Description: AutoCAD Mechanical 2000|Company: Autodesk"
 90
        1
280
     0
281
     0
  0
CLASS
  1
ACAMGFILTERDAT
  2
AcAmgFilterDat
  3
"AcadM|Product Description: AutoCAD Mechanical 2000|Company: Autodesk"
 90
        0
280
     0
281
     0
  0
CLASS
  1
LAYER_INDEX
  2
AcDbLayerIndex
  3
AutoCAD 2000
 90
        0
280
     0
281
     0
  0
CLASS
  1
IDBUFFER
  2
AcDbIdBuffer
  3
AutoCAD 2000
 90
        0
280
     0
281
     0
  0
CLASS
  1
ACIMSTRSYSVAR
  2
AcImStrSysVar
  3
AcMeServices
 90
        0
280
     0
281
     0
  0
CLASS
  1
ACMSTANDARDJIS
  2
AcmStandardJIS
  3
"AcmSymBB|Product Description: AutoCAD Mechanical 2000|Company: Autodesk"
 90
        0
280
     0
281
     0
  0
CLASS
  1
ACMSURFSTANDARDJIS
  2
AcmSurfTextStdJIS
  3
"AcmSymBB|Product Description: AutoCAD Mechanical 2000|Company: Autodesk"
 90
        0
280
     0
281
     0
  0
CLASS
  1
ACMFCFSTANDARDJIS
  2
AcmFCFStdJIS
  3
"AcmSymBB|Product Description: AutoCAD Mechanical 2000|Company: Autodesk"
 90
        0
280
     0
281
     0
  0
CLASS
  1
ACMWELDSTANDARDJIS
  2
AcmWeldingStdJIS
  3
"AcmSymBB|Product Description: AutoCAD Mechanical 2000|Company: Autodesk"
 90
        0
280
     0
281
     0
  0
CLASS
  1
ACMIDSTANDARDJIS
  2
AcmIdStdJIS
  3
"AcmSymBB|Product Description: AutoCAD Mechanical 2000|Company: Autodesk"
 90
        0
280
     0
281
     0
  0
CLASS
  1
ACMDATUMSTANDARDJIS
  2
AcmDatumStdJIS
  3
"AcmSymBB|Product Description: AutoCAD Mechanical 2000|Company: Autodesk"
 90
        0
280
     0
281
     0
  0
CLASS
  1
ACMBOMSTANDARDJIS
  2
AcmBOMStdJIS
  3
"AcmSymBB|Product Description: AutoCAD Mechanical 2000|Company: Autodesk"
 90
        0
280
     0
281
     0
  0
CLASS
  1
ACMSTANDARDANSI
  2
AcmStandardANSI
  3
"AcmSymBB|Product Description: AutoCAD Mechanical 2000|Company: Autodesk"
 90
        0
280
     0
281
     0
  0
CLASS
  1
ACMSURFSTANDARDANSI
  2
AcmSurfTextStdANSI
  3
"AcmSymBB|Product Description: AutoCAD Mechanical 2000|Company: Autodesk"
 90
        0
280
     0
281
     0
  0
CLASS
  1
ACMFCFSTANDARDANSI
  2
AcmFCFStdANSI
  3
"AcmSymBB|Product Description: AutoCAD Mechanical 2000|Company: Autodesk"
 90
        0
280
     0
281
     0
  0
CLASS
  1
ACMWELDSTANDARDANSI
  2
AcmWeldingStdANSI
  3
"AcmSymBB|Product Description: AutoCAD Mechanical 2000|Company: Autodesk"
 90
        0
280
     0
281
     0
  0
CLASS
  1
ACMIDSTANDARDANSI
  2
AcmIdStdANSI
  3
"AcmSymBB|Product Description: AutoCAD Mechanical 2000|Company: Autodesk"
 90
        0
280
     0
281
     0
  0
CLASS
  1
ACMDATUMSTANDARDANSI
  2
AcmDatumStdANSI
  3
"AcmSymBB|Product Description: AutoCAD Mechanical 2000|Company: Autodesk"
 90
        0
280
     0
281
     0
  0
CLASS
  1
ACMBOMSTANDARDANSI
  2
AcmBOMStdANSI
  3
"AcmSymBB|Product Description: AutoCAD Mechanical 2000|Company: Autodesk"
 90
        0
280
     0
281
     0
  0
CLASS
  1
ACMSTANDARDBSI
  2
AcmStandardBSI
  3
"AcmSymBB|Product Description: AutoCAD Mechanical 2000|Company: Autodesk"
 90
        0
280
     0
281
     0
  0
CLASS
  1
ACMSURFSTANDARDBSI
  2
AcmSurfTextStdBSI
  3
"AcmSymBB|Product Description: AutoCAD Mechanical 2000|Company: Autodesk"
 90
        0
280
     0
281
     0
  0
CLASS
  1
ACMFCFSTANDARDBSI
  2
AcmFCFStdBSI
  3
"AcmSymBB|Product Description: AutoCAD Mechanical 2000|Company: Autodesk"
 90
        0
280
     0
281
     0
  0
CLASS
  1
ACMWELDSTANDARDBSI
  2
AcmWeldingStdBSI
  3
"AcmSymBB|Product Description: AutoCAD Mechanical 2000|Company: Autodesk"
 90
        0
280
     0
281
     0
  0
CLASS
  1
ACMIDSTANDARDBSI
  2
AcmIdStdBSI
  3
"AcmSymBB|Product Description: AutoCAD Mechanical 2000|Company: Autodesk"
 90
        0
280
     0
281
     0
  0
CLASS
  1
ACMDATUMSTANDARDBSI
  2
AcmDatumStdBSI
  3
"AcmSymBB|Product Description: AutoCAD Mechanical 2000|Company: Autodesk"
 90
        0
280
     0
281
     0
  0
CLASS
  1
ACMBOMSTANDARDBSI
  2
AcmBOMStdBSI
  3
"AcmSymBB|Product Description: AutoCAD Mechanical 2000|Company: Autodesk"
 90
        0
280
     0
281
     0
  0
CLASS
  1
LONG_TRANSACTION
  2
AcDbLongTransaction
  3
AutoCAD 2000
 90
        0
280
     0
281
     0
  0
CLASS
  1
LWPOLYLINE
  2
AcDbPolyline
  3
AutoCAD 2000
 90
        0
280
     0
281
     1
  0
CLASS
  1
HATCH
  2
AcDbHatch
  3
AutoCAD 2000
 90
        0
280
     0
281
     1
  0
CLASS
  1
XRECORD
  2
AcDbXrecord
  3
AutoCAD 2000
 90
        0
280
     0
281
     0
  0
ENDSEC
  0
SECTION
  2
TABLES
  0
TABLE
  2
VPORT
  5
8
330
0
100
AcDbSymbolTable
 70
     3
  0
VPORT
  5
3B39
330
8
100
AcDbSymbolTableRecord
100
AcDbViewportTableRecord
  2
*ACTIVE
 70
     0
 10
0.0
 20
0.0
 11
1.0
 21
1.0
 12
-85.49060221742479
 22
2.529552181690334
 13
0.0
 23
0.0
 14
2.5
 24
2.5
 15
10.0
 25
10.0
 16
0.0
 26
0.0
 36
1.0
 17
0.0
 27
0.0
 37
0.0
 40
186.6423118713117
 41
1.56570841889117
 42
50.0
 43
0.0
 44
0.0
 50
0.0
 51
0.0
 71
     0
 72
   100
 73
     1
 74
     3
 75
     0
 76
     0
 77
     0
 78
     0
  0
ENDTAB
  0
TABLE
  2
LTYPE
  5
5
330
0
100
AcDbSymbolTable
 70
    10
  0
LTYPE
  5
14
330
5
100
AcDbSymbolTableRecord
100
AcDbLinetypeTableRecord
  2
BYBLOCK
 70
     0
  3

 72
    65
 73
     0
 40
0.0
  0
LTYPE
  5
15
330
5
100
AcDbSymbolTableRecord
100
AcDbLinetypeTableRecord
  2
BYLAYER
 70
     0
  3

 72
    65
 73
     0
 40
0.0
  0
LTYPE
  5
16
330
5
100
AcDbSymbolTableRecord
100
AcDbLinetypeTableRecord
  2
CONTINUOUS
 70
     0
  3
Solid line
 72
    65
 73
     0
 40
0.0
  0
LTYPE
  5
4B
330
5
100
AcDbSymbolTableRecord
100
AcDbLinetypeTableRecord
  2
AM_ISO02W050
 70
     0
  3
__ __ __ __ __ __ __ __ __ __ __ __ __ __ __
 72
    65
 73
     2
 40
7.5
 49
6.0
 74
     0
 49
-1.5
 74
     0
  0
LTYPE
  5
4C
330
5
100
AcDbSymbolTableRecord
100
AcDbLinetypeTableRecord
  2
AM_ISO08W050
 70
     0
  3
____ . ____ . ____ . ____ . ____ . ____ . ____
 72
    65
 73
     4
 40
18.0
 49
12.0
 74
     0
 49
-1.5
 74
     0
 49
3.0
 74
     0
 49
-1.5
 74
     0
  0
LTYPE
  5
4D
330
5
100
AcDbSymbolTableRecord
100
AcDbLinetypeTableRecord
  2
AM_ISO09W050
 70
     0
  3
_____ . . _____ . . _____ . . ____ .. ____
 72
    65
 73
     6
 40
22.5
 49
12.0
 74
     0
 49
-1.5
 74
     0
 49
3.0
 74
     0
 49
-1.5
 74
     0
 49
3.0
 74
     0
 49
-1.5
 74
     0
  0
LTYPE
  5
4E
330
5
100
AcDbSymbolTableRecord
100
AcDbLinetypeTableRecord
  2
AMCONSTR
 70
     0
  3
_______________________
 72
    65
 73
     2
 40
9999.0
 49
9999.0
 74
     0
 49
0.0
 74
     0
  0
LTYPE
  5
4F
330
5
100
AcDbSymbolTableRecord
100
AcDbLinetypeTableRecord
  2
AM_ISO02W050X2
 70
     0
  3
 _ _ _ _ _ _ _ _ _ _ _ _
 72
    65
 73
     2
 40
3.75
 49
3.0
 74
     0
 49
-0.75
 74
     0
  0
LTYPE
  5
50
330
5
100
AcDbSymbolTableRecord
100
AcDbLinetypeTableRecord
  2
AM_ISO08W050X2
 70
     0
  3
__ . __ . __ . __ . __ . __
 72
    65
 73
     4
 40
9.0
 49
6.0
 74
     0
 49
-0.75
 74
     0
 49
1.5
 74
     0
 49
-0.75
 74
     0
  0
LTYPE
  5
53
330
5
100
AcDbSymbolTableRecord
100
AcDbLinetypeTableRecord
  2
AMZIGZAG
 70
     0
  3
/\/-/\/-/\/-/\/-/\/-/\/
 72
    65
 73
     2
 40
11.00009999999999
 49
0.0001
 74
     4
 75
   135
340
52
 46
0.04
 50
0.0
 44
0.0
 45
0.0
 49
-11.0
 74
     0
  0
LTYPE
  5
166
330
5
100
AcDbSymbolTableRecord
100
AcDbLinetypeTableRecord
  2
ACJISTGL
 70
     0
  3
_ _ _ _ _
 72
    65
 73
     2
 40
3.0
 49
2.0
 74
     0
 49
-1.0
 74
     0
  0
LTYPE
  5
26A
330
5
100
AcDbSymbolTableRecord
100
AcDbLinetypeTableRecord
  2
ACJISTGB
 70
     0
  3
__ . . __ . .
 72
    65
 73
     6
 40
9.0
 49
4.0
 74
     0
 49
-1.0
 74
     0
 49
1.0
 74
     0
 49
-1.0
 74
     0
 49
1.0
 74
     0
 49
-1.0
 74
     0
  0
ENDTAB
  0
TABLE
  2
LAYER
  5
2
330
0
100
AcDbSymbolTable
 70
     7
  0
LAYER
  5
10
330
2
100
AcDbSymbolTableRecord
100
AcDbLayerTableRecord
  2
0
 70
     0
 62
     7
  6
CONTINUOUS
  0
LAYER
  5
3F9
330
2
100
AcDbSymbolTableRecord
100
AcDbLayerTableRecord
  2
AM_0
 70
     0
 62
     7
  6
CONTINUOUS
  0
LAYER
  5
CD5
330
2
100
AcDbSymbolTableRecord
100
AcDbLayerTableRecord
  2
AM_7
 70
     0
 62
     4
  6
AM_ISO08W050
  0
LAYER
  5
CDE
330
2
100
AcDbSymbolTableRecord
100
AcDbLayerTableRecord
  2
AM_11
 70
     0
 62
     3
  6
AM_ISO09W050
  0
LAYER
  5
CFB
330
2
100
AcDbSymbolTableRecord
100
AcDbLayerTableRecord
  2
AM_5
 70
     0
 62
     3
  6
CONTINUOUS
  0
LAYER
  5
CFD
330
2
100
AcDbSymbolTableRecord
100
AcDbLayerTableRecord
  2
DEFPOINTS
 70
     0
 62
     7
  6
CONTINUOUS
  0
LAYER
  5
113C
330
2
100
AcDbSymbolTableRecord
100
AcDbLayerTableRecord
  2
AM_6
 70
     0
 62
     2
  6
CONTINUOUS
  0
ENDTAB
  0
TABLE
  2
STYLE
  5
3
330
0
100
AcDbSymbolTable
 70
     5
  0
STYLE
  5
11
330
3
100
AcDbSymbolTableRecord
100
AcDbTextStyleTableRecord
  2
STANDARD
 70
     0
 40
0.0
 41
1.0
 50
0.0
 71
     0
 42
2.5
  3
simplex.shx
  4
EXTFONT.SHX
  0
STYLE
  5
52
330
3
100
AcDbSymbolTableRecord
100
AcDbTextStyleTableRecord
  2

 70
     1
 40
0.0
 41
1.0
 50
0.0
 71
     0
 42
2.5
  3
ltypeshp.shx
  4

  0
STYLE
  5
6B
330
3
100
AcDbSymbolTableRecord
100
AcDbTextStyleTableRecord
  2
ASAMI
 70
     0
 40
0.0
 41
1.0
 50
0.0
 71
     0
 42
2.5
  3
simplex.shx
  4
EXTFONT.SHX
  0
STYLE
  5
262
330
3
100
AcDbSymbolTableRecord
100
AcDbTextStyleTableRecord
  2
ACJISTS
 70
     0
 40
1.0
 41
1.0
 50
0.0
 71
     0
 42
2.5
  3
simplex.shx
  4
bigfont.shx
  0
STYLE
  5
269
330
3
100
AcDbSymbolTableRecord
100
AcDbTextStyleTableRecord
  2
ACJISGDT
 70
     0
 40
0.0
 41
1.0
 50
0.0
 71
     0
 42
2.5
  3
amgdtans.shx
  4

  0
ENDTAB
  0
TABLE
  2
VIEW
  5
6
330
0
100
AcDbSymbolTable
 70
     0
  0
ENDTAB
  0
TABLE
  2
UCS
  5
7
330
0
100
AcDbSymbolTable
 70
     0
  0
ENDTAB
  0
TABLE
  2
APPID
  5
9
330
0
100
AcDbSymbolTable
 70
    13
  0
APPID
  5
12
330
9
100
AcDbSymbolTableRecord
100
AcDbRegAppTableRecord
  2
ACAD
 70
     0
  0
APPID
  5
30
330
9
100
AcDbSymbolTableRecord
100
AcDbRegAppTableRecord
  2
MCAD_NO_VIS
 70
     0
  0
APPID
  5
31
330
9
100
AcDbSymbolTableRecord
100
AcDbRegAppTableRecord
  2
ACAD_TEMP_GRAPHIC
 70
     0
  0
APPID
  5
2C2
330
9
100
AcDbSymbolTableRecord
100
AcDbRegAppTableRecord
  2
GENIUS_GENDTOL_13
 70
     0
  0
APPID
  5
339
330
9
100
AcDbSymbolTableRecord
100
AcDbRegAppTableRecord
  2
GENIUS_GENODEF_13
 70
     0
  0
APPID
  5
33A
330
9
100
AcDbSymbolTableRecord
100
AcDbRegAppTableRecord
  2
GENIUS_GENOBJ-N-RSBK_13
 70
     0
  0
APPID
  5
33B
330
9
100
AcDbSymbolTableRecord
100
AcDbRegAppTableRecord
  2
GENIUS_GENOBJ-N-LIB_13
 70
     0
  0
APPID
  5
33C
330
9
100
AcDbSymbolTableRecord
100
AcDbRegAppTableRecord
  2
GENIUS_GENSCALE_13
 70
     0
  0
APPID
  5
378
330
9
100
AcDbSymbolTableRecord
100
AcDbRegAppTableRecord
  2
GENIUS_GENDIMSH_14
 70
     0
  0
APPID
  5
13A0
330
9
100
AcDbSymbolTableRecord
100
AcDbRegAppTableRecord
  2
GENIUS_GENOBJ-N-CEN_13
 70
     0
  0
APPID
  5
13D7
330
9
100
AcDbSymbolTableRecord
100
AcDbRegAppTableRecord
  2
GENIUS_GENREC_14
 70
     0
  0
APPID
  5
13D8
330
9
100
AcDbSymbolTableRecord
100
AcDbRegAppTableRecord
  2
GENIUS_GENOBJ-N-REC_13
 70
     0
  0
APPID
  5
31E2
330
9
100
AcDbSymbolTableRecord
100
AcDbRegAppTableRecord
  2
DCO15
 70
     0
  0
ENDTAB
  0
TABLE
  2
DIMSTYLE
  5
A
330
0
100
AcDbSymbolTable
 70
     9
  0
DIMSTYLE
105
58
330
A
100
AcDbSymbolTableRecord
100
AcDbDimStyleTableRecord
  2
AM_JIS
 70
     0
  3

  4
"
  5
OPEN30
  6

  7

 40
1.0
 41
2.5
 42
1.0
 43
12.0
 44
1.0
 45
0.0
 46
0.0
 47
0.1
 48
0.1
140
3.2
141
0.0
142
0.0
143
0.0393701
144
1.0
145
0.0
146
0.71
147
1.5
 71
     0
 72
     0
 73
     0
 74
     0
 75
     0
 76
     0
 77
     3
 78
     8
170
     0
171
     2
172
     1
173
     0
174
     0
175
     0
176
   256
177
   256
178
     2
270
     2
271
     3
272
     3
273
     2
274
     2
340
6B
275
     0
280
     0
281
     0
282
     0
283
     0
284
     0
285
     0
286
     0
287
     3
288
     0
  0
DIMSTYLE
105
5F
330
A
100
AcDbSymbolTableRecord
100
AcDbDimStyleTableRecord
  2
AM_JIS$3
 70
     0
  3

  4
"
  5
OPEN30
  6

  7

 40
1.0
 41
2.5
 42
1.0
 43
10.0
 44
1.0
 45
0.0
 46
0.0
 47
0.1
 48
0.1
140
3.2
141
0.0
142
0.0
143
0.0393701
144
1.0
145
0.0
146
0.71
147
1.5
 71
     0
 72
     0
 73
     0
 74
     1
 75
     0
 76
     0
 77
     3
 78
     8
170
     0
171
     2
172
     0
173
     0
174
     0
175
     0
176
   256
177
   256
178
     2
270
     2
271
     2
272
     3
273
     2
274
     2
340
6B
275
     0
280
     0
281
     0
282
     0
283
     0
284
     0
285
     0
286
     0
287
     0
288
     1
  0
DIMSTYLE
105
60
330
A
100
AcDbSymbolTableRecord
100
AcDbDimStyleTableRecord
  2
AM_JIS$4
 70
     0
  3

  4
"
  5
OPEN30
  6

  7

 40
1.0
 41
2.5
 42
1.0
 43
10.0
 44
1.0
 45
0.0
 46
0.0
 47
0.1
 48
0.1
140
3.2
141
0.0
142
0.0
143
0.0393701
144
1.0
145
0.0
146
0.71
147
1.5
 71
     0
 72
     0
 73
     0
 74
     1
 75
     0
 76
     0
 77
     3
 78
     8
170
     0
171
     2
172
     0
173
     0
174
     0
175
     0
176
   256
177
   256
178
     2
270
     2
271
     2
272
     3
273
     2
274
     2
340
6B
275
     0
280
     0
281
     0
282
     0
283
     0
284
     0
285
     0
286
     0
287
     0
288
     1
  0
DIMSTYLE
105
61
330
A
100
AcDbSymbolTableRecord
100
AcDbDimStyleTableRecord
  2
AM_JIS$6
 70
     0
  3

  4
"
  5
OPEN30
  6

  7

 40
1.0
 41
2.5
 42
1.0
 43
10.0
 44
1.0
 45
0.0
 46
0.0
 47
0.1
 48
0.1
140
3.2
141
0.0
142
0.0
143
0.0393701
144
1.0
145
0.0
146
0.71
147
1.5
 71
     0
 72
     0
 73
     0
 74
     0
 75
     0
 76
     0
 77
     0
 78
     8
170
     0
171
     2
172
     1
173
     0
174
     0
175
     0
176
   256
177
   256
178
     2
270
     2
271
     2
272
     2
273
     2
274
     2
340
6B
275
     0
280
     0
281
     0
282
     0
283
     0
284
     0
285
     0
286
     0
287
     3
288
     0
  0
DIMSTYLE
105
62
330
A
100
AcDbSymbolTableRecord
100
AcDbDimStyleTableRecord
  2
AM_JIS$7
 70
     0
  3

  4
"
  5
OPEN30
  6

  7

 40
1.0
 41
2.5
 42
1.0
 43
10.0
 44
1.0
 45
0.0
 46
0.0
 47
0.1
 48
0.1
140
3.2
141
0.0
142
0.0
143
0.0393701
144
1.0
145
0.0
146
0.71
147
1.5
 71
     0
 72
     0
 73
     0
 74
     0
 75
     0
 76
     0
 77
     3
 78
     8
170
     0
171
     2
172
     1
173
     0
174
     0
175
     0
176
   256
177
   256
178
     2
270
     2
271
     2
272
     3
273
     2
274
     2
340
6B
275
     0
280
     0
281
     0
282
     0
283
     0
284
     0
285
     0
286
     0
287
     3
288
     0
  0
DIMSTYLE
105
63
330
A
100
AcDbSymbolTableRecord
100
AcDbDimStyleTableRecord
  2
AM_JIS$SF
 70
     0
  3

  4
"
  5
OPEN30
  6

  7

 40
1.0
 41
2.5
 42
1.0
 43
10.0
 44
1.0
 45
0.0
 46
0.0
 47
0.1
 48
0.1
140
3.2
141
0.0
142
0.0
143
0.0393701
144
1.0
145
0.0
146
0.71
147
1.5
 71
     0
 72
     0
 73
     0
 74
     0
 75
     1
 76
     1
 77
     3
 78
     8
170
     0
171
     2
172
     1
173
     0
174
     0
175
     0
176
   256
177
   256
178
     2
270
     2
271
     2
272
     2
273
     2
274
     2
340
6B
275
     0
280
     0
281
     0
282
     0
283
     0
284
     0
285
     0
286
     0
287
     3
288
     0
  0
DIMSTYLE
105
68
330
A
100
AcDbSymbolTableRecord
100
AcDbDimStyleTableRecord
  2
AM_JIS$SH
 70
     0
  3

  4
"
  5

  6
GENAXEH
  7
OPEN30
 40
1.0
 41
2.5
 42
1.0
 43
10.0
 44
1.0
 45
0.0
 46
0.0
 47
0.1
 48
0.1
140
3.2
141
0.0
142
0.0
143
0.0393701
144
2.0
145
0.0
146
0.71
147
1.5
 71
     0
 72
     0
 73
     0
 74
     0
 75
     1
 76
     1
 77
     3
 78
     8
170
     0
171
     2
172
     1
173
     1
174
     0
175
     0
176
   256
177
   256
178
     2
270
     2
271
     2
272
     2
273
     2
274
     2
340
6B
275
     0
280
     0
281
     0
282
     0
283
     0
284
     0
285
     0
286
     0
287
     3
288
     0
  0
DIMSTYLE
105
B34
330
A
100
AcDbSymbolTableRecord
100
AcDbDimStyleTableRecord
  2
AM_JIS$2
 70
     0
  3

  4
"
  5
OPEN30
  6

  7

 40
1.0
 41
2.5
 42
1.0
 43
12.0
 44
1.0
 45
0.0
 46
0.0
 47
0.1
 48
0.1
140
3.2
141
0.0
142
0.0
143
0.0393701
144
1.0
145
0.0
146
0.71
147
1.5
 71
     0
 72
     0
 73
     0
 74
     0
 75
     0
 76
     0
 77
     3
 78
     8
170
     0
171
     2
172
     1
173
     0
174
     0
175
     0
176
   256
177
   256
178
     2
270
     2
271
     3
272
     3
273
     2
274
     2
340
6B
275
     0
280
     0
281
     0
282
     0
283
     0
284
     0
285
     0
286
     0
287
     3
288
     0
  0
DIMSTYLE
105
BA5
102
{ACAD_REACTORS
330
1673
330
155D
330
15E8
330
2B71
330
300D
330
3A28
102
}
330
A
100
AcDbSymbolTableRecord
100
AcDbDimStyleTableRecord
  2
AM_JIS$0
 70
     0
  3

  4
"
  5
OPEN30
  6

  7

 40
1.0
 41
2.5
 42
0.0
 43
10.0
 44
1.0
 45
0.0
 46
0.0
 47
0.1
 48
0.1000000001
140
3.799999999999999
141
0.0
142
0.0
143
0.0393701
144
1.0
145
0.0
146
0.71
147
1.5
 71
     0
 72
     0
 73
     0
 74
     0
 75
     0
 76
     0
 77
     3
 78
     1
170
     0
171
     2
172
     1
173
     0
174
     0
175
     0
176
     3
177
     3
178
     2
270
     2
271
     2
272
     2
273
     2
274
     2
340
11
275
     1
280
     0
281
     0
282
     0
283
     0
284
     8
285
     0
286
     0
287
     0
288
     0
  0
ENDTAB
  0
TABLE
  2
BLOCK_RECORD
  5
1
330
0
100
AcDbSymbolTable
 70
    12
  0
BLOCK_RECORD
  5
1F
102
{ACAD_XDICTIONARY
360
74
102
}
330
1
100
AcDbSymbolTableRecord
100
AcDbBlockTableRecord
  2
*MODEL_SPACE
  0
BLOCK_RECORD
  5
101
102
{ACAD_XDICTIONARY
360
3B62
102
}
330
1
100
AcDbSymbolTableRecord
100
AcDbBlockTableRecord
  2
*PAPER_SPACE
  0
BLOCK_RECORD
  5
59
330
1
100
AcDbSymbolTableRecord
100
AcDbBlockTableRecord
  2
_OPEN30
  0
BLOCK_RECORD
  5
64
330
1
100
AcDbSymbolTableRecord
100
AcDbBlockTableRecord
  2
GENAXEH
  0
BLOCK_RECORD
  5
155E
330
1
100
AcDbSymbolTableRecord
100
AcDbBlockTableRecord
  2
*D5
  0
BLOCK_RECORD
  5
15E9
330
1
100
AcDbSymbolTableRecord
100
AcDbBlockTableRecord
  2
*D6
  0
BLOCK_RECORD
  5
1674
330
1
100
AcDbSymbolTableRecord
100
AcDbBlockTableRecord
  2
*D7
  0
BLOCK_RECORD
  5
2B72
330
1
100
AcDbSymbolTableRecord
100
AcDbBlockTableRecord
  2
*D8
  0
BLOCK_RECORD
  5
300E
330
1
100
AcDbSymbolTableRecord
100
AcDbBlockTableRecord
  2
*D9
  0
BLOCK_RECORD
  5
38CE
330
1
100
AcDbSymbolTableRecord
100
AcDbBlockTableRecord
  2
A$C54201F01
  0
BLOCK_RECORD
  5
3A29
330
1
100
AcDbSymbolTableRecord
100
AcDbBlockTableRecord
  2
*D11
  0
ENDTAB
  0
ENDSEC
  0
SECTION
  2
BLOCKS
  0
BLOCK
  5
20
330
1F
100
AcDbEntity
  8
0
100
AcDbBlockBegin
  2
*MODEL_SPACE
 70
     0
 10
0.0
 20
0.0
 30
0.0
  3
*MODEL_SPACE
  1

  0
ENDBLK
  5
21
330
1F
100
AcDbEntity
  8
0
100
AcDbBlockEnd
  0
BLOCK
  5
103
330
101
100
AcDbEntity
 67
     1
  8
0
100
AcDbBlockBegin
  2
*PAPER_SPACE
 70
     0
 10
0.0
 20
0.0
 30
0.0
  3
*PAPER_SPACE
  1

  0
ENDBLK
  5
104
330
101
100
AcDbEntity
 67
     1
  8
0
100
AcDbBlockEnd
  0
BLOCK
  5
5D
330
59
100
AcDbEntity
  8
0
100
AcDbBlockBegin
  2
_OPEN30
 70
     0
 10
0.0
 20
0.0
 30
0.0
  3
_OPEN30
  1

  0
LINE
  5
5A
330
59
100
AcDbEntity
  8
0
 62
     0
100
AcDbLine
 10
-1.0
 20
0.26794919
 30
0.0
 11
0.0
 21
0.0
 31
0.0
  0
LINE
  5
5B
330
59
100
AcDbEntity
  8
0
 62
     0
100
AcDbLine
 10
0.0
 20
0.0
 30
0.0
 11
-1.0
 21
-0.26794919
 31
0.0
  0
LINE
  5
5C
330
59
100
AcDbEntity
  8
0
 62
     0
100
AcDbLine
 10
0.0
 20
0.0
 30
0.0
 11
-1.0
 21
0.0
 31
0.0
  0
ENDBLK
  5
5E
330
59
100
AcDbEntity
  8
0
100
AcDbBlockEnd
  0
BLOCK
  5
66
330
64
100
AcDbEntity
  8
0
100
AcDbBlockBegin
  2
GENAXEH
 70
     0
 10
0.0
 20
0.0
 30
0.0
  3
GENAXEH
  1

  0
LINE
  5
65
330
64
100
AcDbEntity
  8
0
100
AcDbLine
 10
-1.0
 20
0.0
 30
0.0
 11
1.0
 21
0.0
 31
0.0
  0
ENDBLK
  5
67
330
64
100
AcDbEntity
  8
0
100
AcDbBlockEnd
  0
BLOCK
  5
1568
330
155E
100
AcDbEntity
  8
0
100
AcDbBlockBegin
  2
*D5
 70
     1
 10
0.0
 20
0.0
 30
0.0
  3
*D5
  1

  0
LINE
  5
3A18
330
155E
100
AcDbEntity
  8
AM_5
 62
     3
100
AcDbLine
 10
-0.0000000000000008
 20
-6.0
 30
0.0
 11
-0.0000000000000023
 21
-30.99999999999998
 31
0.0
  0
LINE
  5
3A19
330
155E
100
AcDbEntity
  8
AM_5
 62
     3
100
AcDbLine
 10
-35.00002670288099
 20
-12.00003623962733
 30
0.0
 11
-35.00002670288099
 21
-30.99999999999998
 31
0.0
  0
LINE
  5
3A1A
330
155E
100
AcDbEntity
  8
AM_5
 62
     3
100
AcDbLine
 10
-2.500000000000002
 20
-29.99999999999998
 30
0.0
 11
-32.50002670288099
 21
-29.99999999999998
 31
0.0
  0
INSERT
  5
3A1B
330
155E
100
AcDbEntity
  8
AM_5
 62
     3
100
AcDbBlockReference
  2
_OPEN30
 10
-0.0000000000000022
 20
-29.99999999999998
 30
0.0
 41
2.5
 42
2.5
 43
2.5
  0
INSERT
  5
3A1C
330
155E
100
AcDbEntity
  8
AM_5
 62
     3
100
AcDbBlockReference
  2
_OPEN30
 10
-35.00002670288099
 20
-29.99999999999998
 30
0.0
 41
2.5
 42
2.5
 43
2.5
 50
180.0
  0
MTEXT
  5
3A1D
330
155E
100
AcDbEntity
  8
AM_5
 62
     2
100
AcDbMText
 10
-17.50001335144049
 20
-26.59999999999998
 30
0.0
 40
3.799999999999999
 41
0.0
 71
     5
 72
     1
  1
35
1001
ACAD
1000
MTEXTBEGIN
1070
    73
1070
     1
1070
    44
1040
1.0
1070
    74
1070
     0
1000
MTEXTEND
  0
POINT
  5
3A1E
330
155E
100
AcDbEntity
  8
DEFPOINTS
 62
     0
100
AcDbPoint
 10
-0.0000000000000008
 20
-6.0
 30
0.0
  0
POINT
  5
3A1F
330
155E
100
AcDbEntity
  8
DEFPOINTS
 62
     0
100
AcDbPoint
 10
-35.00002670288099
 20
-12.00003623962733
 30
0.0
  0
POINT
  5
3A20
330
155E
100
AcDbEntity
  8
DEFPOINTS
 62
     0
100
AcDbPoint
 10
-35.00002670288099
 20
-29.99999999999998
 30
0.0
  0
ENDBLK
  5
1569
330
155E
100
AcDbEntity
  8
0
100
AcDbBlockEnd
  0
BLOCK
  5
15F3
330
15E9
100
AcDbEntity
  8
0
100
AcDbBlockBegin
  2
*D6
 70
     1
 10
0.0
 20
0.0
 30
0.0
  3
*D6
  1

  0
LINE
  5
3ABB
330
15E9
100
AcDbEntity
  8
AM_5
 62
     3
100
AcDbLine
 10
-35.00002670288099
 20
-12.00003623962733
 30
0.0
 11
-35.00002670288099
 21
-31.00000000000023
 31
0.0
  0
LINE
  5
3ABC
330
15E9
100
AcDbEntity
  8
AM_5
 62
     3
100
AcDbLine
 10
-159.9999999999989
 20
-10.16150682767889
 30
0.0
 11
-159.9999999999989
 21
-31.00000000000023
 31
0.0
  0
LINE
  5
3ABD
330
15E9
100
AcDbEntity
  8
AM_5
 62
     3
100
AcDbLine
 10
-37.50002670288099
 20
-30.00000000000023
 30
0.0
 11
-157.4999999999989
 21
-30.00000000000023
 31
0.0
  0
INSERT
  5
3ABE
330
15E9
100
AcDbEntity
  8
AM_5
 62
     3
100
AcDbBlockReference
  2
_OPEN30
 10
-35.00002670288099
 20
-30.00000000000023
 30
0.0
 41
2.5
 42
2.5
 43
2.5
  0
INSERT
  5
3ABF
330
15E9
100
AcDbEntity
  8
AM_5
 62
     3
100
AcDbBlockReference
  2
_OPEN30
 10
-159.9999999999989
 20
-30.00000000000023
 30
0.0
 41
2.5
 42
2.5
 43
2.5
 50
180.0
  0
MTEXT
  5
3AC0
330
15E9
100
AcDbEntity
  8
AM_5
 62
     2
100
AcDbMText
 10
-97.50001335143998
 20
-26.60000000000023
 30
0.0
 40
3.799999999999999
 41
0.0
 71
     5
 72
     1
  1
125
1001
ACAD
1000
MTEXTBEGIN
1070
    73
1070
     1
1070
    44
1040
1.0
1070
    74
1070
     0
1000
MTEXTEND
  0
POINT
  5
3AC1
330
15E9
100
AcDbEntity
  8
DEFPOINTS
 62
     0
100
AcDbPoint
 10
-35.00002670288099
 20
-12.00003623962733
 30
0.0
  0
POINT
  5
3AC2
330
15E9
100
AcDbEntity
  8
DEFPOINTS
 62
     0
100
AcDbPoint
 10
-159.9999999999989
 20
-10.16150682767889
 30
0.0
  0
POINT
  5
3AC3
330
15E9
100
AcDbEntity
  8
DEFPOINTS
 62
     0
100
AcDbPoint
 10
-159.9999999999989
 20
-30.00000000000023
 30
0.0
  0
ENDBLK
  5
15F4
330
15E9
100
AcDbEntity
  8
0
100
AcDbBlockEnd
  0
BLOCK
  5
167E
330
1674
100
AcDbEntity
  8
0
100
AcDbBlockBegin
  2
*D7
 70
     1
 10
0.0
 20
0.0
 30
0.0
  3
*D7
  1

  0
LINE
  5
3AB2
330
1674
100
AcDbEntity
  8
AM_5
 62
     3
100
AcDbLine
 10
-160.0000305175769
 20
-10.16150474548731
 30
0.0
 11
-160.0000305175769
 21
-40.99999999999991
 31
0.0
  0
LINE
  5
3AB3
330
1674
100
AcDbEntity
  8
AM_5
 62
     3
100
AcDbLine
 10
0.0000000000000196
 20
-15.99999999999991
 30
0.0
 11
0.000000000000018
 21
-40.99999999999991
 31
0.0
  0
LINE
  5
3AB4
330
1674
100
AcDbEntity
  8
AM_5
 62
     3
100
AcDbLine
 10
-157.5000305175769
 20
-39.99999999999991
 30
0.0
 11
-2.499999999999981
 21
-39.99999999999991
 31
0.0
  0
INSERT
  5
3AB5
330
1674
100
AcDbEntity
  8
AM_5
 62
     3
100
AcDbBlockReference
  2
_OPEN30
 10
-160.0000305175769
 20
-39.99999999999991
 30
0.0
 41
2.5
 42
2.5
 43
2.5
 50
180.0
  0
INSERT
  5
3AB6
330
1674
100
AcDbEntity
  8
AM_5
 62
     3
100
AcDbBlockReference
  2
_OPEN30
 10
0.0000000000000181
 20
-39.99999999999991
 30
0.0
 41
2.5
 42
2.5
 43
2.5
  0
MTEXT
  5
3AB7
330
1674
100
AcDbEntity
  8
AM_5
 62
     2
100
AcDbMText
 10
-80.00001525878849
 20
-36.59999999999991
 30
0.0
 40
3.799999999999999
 41
0.0
 71
     5
 72
     1
  1
160
1001
ACAD
1000
MTEXTBEGIN
1070
    73
1070
     1
1070
    44
1040
1.0
1070
    74
1070
     0
1000
MTEXTEND
  0
POINT
  5
3AB8
330
1674
100
AcDbEntity
  8
DEFPOINTS
 62
     0
100
AcDbPoint
 10
-160.0000305175769
 20
-10.16150474548731
 30
0.0
  0
POINT
  5
3AB9
330
1674
100
AcDbEntity
  8
DEFPOINTS
 62
     0
100
AcDbPoint
 10
0.0000000000000196
 20
-15.99999999999991
 30
0.0
  0
POINT
  5
3ABA
330
1674
100
AcDbEntity
  8
DEFPOINTS
 62
     0
100
AcDbPoint
 10
0.0000000000000181
 20
-39.99999999999991
 30
0.0
  0
ENDBLK
  5
167F
330
1674
100
AcDbEntity
  8
0
100
AcDbBlockEnd
  0
BLOCK
  5
2B7C
330
2B72
100
AcDbEntity
  8
0
100
AcDbBlockBegin
  2
*D8
 70
     1
 10
0.0
 20
0.0
 30
0.0
  3
*D8
  1

  0
LINE
  5
3AD6
330
2B72
100
AcDbEntity
  8
AM_5
 62
     3
100
AcDbLine
 10
0.0000000000000426
 20
-13.50000572204732
 30
0.0
 11
16.264679955078
 21
-13.50000572204733
 31
0.0
  0
LINE
  5
3AD7
330
2B72
100
AcDbEntity
  8
AM_5
 62
     3
100
AcDbLine
 10
0.0000000000000452
 20
13.49999332427828
 30
0.0
 11
16.26467995507801
 21
13.49999332427828
 31
0.0
  0
LINE
  5
3AD8
330
2B72
100
AcDbEntity
  8
AM_5
 62
     3
100
AcDbLine
 10
15.264679955078
 20
-11.00000572204732
 30
0.0
 11
15.26467995507801
 21
10.99999332427828
 31
0.0
  0
INSERT
  5
3AD9
330
2B72
100
AcDbEntity
  8
AM_5
 62
     3
100
AcDbBlockReference
  2
_OPEN30
 10
15.264679955078
 20
-13.50000572204733
 30
0.0
 41
2.5
 42
2.5
 43
2.5
 50
270.0
  0
INSERT
  5
3ADA
330
2B72
100
AcDbEntity
  8
AM_5
 62
     3
100
AcDbBlockReference
  2
_OPEN30
 10
15.26467995507801
 20
13.49999332427828
 30
0.0
 41
2.5
 42
2.5
 43
2.5
 50
90.0
  0
MTEXT
  5
3ADB
330
2B72
100
AcDbEntity
  8
AM_5
 62
     2
100
AcDbMText
 10
11.86467995507801
 20
-0.0000061988845209
 30
0.0
 40
3.799999999999999
 41
0.0
 71
     5
 72
     1
  1
%%c27
 11
0.0000000000000001
 21
1.0
 31
0.0
1001
ACAD
1000
MTEXTBEGIN
1070
    73
1070
     1
1070
    44
1040
1.0
1070
    74
1070
     0
1000
MTEXTEND
  0
POINT
  5
3ADC
330
2B72
100
AcDbEntity
  8
DEFPOINTS
 62
     0
100
AcDbPoint
 10
0.0000000000000426
 20
-13.50000572204732
 30
0.0
  0
POINT
  5
3ADD
330
2B72
100
AcDbEntity
  8
DEFPOINTS
 62
     0
100
AcDbPoint
 10
0.0000000000000452
 20
13.49999332427828
 30
0.0
  0
POINT
  5
3ADE
330
2B72
100
AcDbEntity
  8
DEFPOINTS
 62
     0
100
AcDbPoint
 10
15.26467995507801
 20
13.49999332427828
 30
0.0
  0
ENDBLK
  5
2B7D
330
2B72
100
AcDbEntity
  8
0
100
AcDbBlockEnd
  0
BLOCK
  5
3018
330
300E
100
AcDbEntity
  8
0
100
AcDbBlockBegin
  2
*D9
 70
     1
 10
0.0
 20
0.0
 30
0.0
  3
*D9
  1

  0
LINE
  5
3AC4
330
300E
100
AcDbEntity
  8
AM_5
 62
     3
100
AcDbLine
 10
-157.0000305175769
 20
-12.50000572204731
 30
0.0
 11
-178.1063311761623
 21
-12.50000572204731
 31
0.0
  0
LINE
  5
3AC5
330
300E
100
AcDbEntity
  8
AM_5
 62
     3
100
AcDbLine
 10
-157.0000305175769
 20
12.49999427795268
 30
0.0
 11
-178.1063311761623
 21
12.49999427795268
 31
0.0
  0
LINE
  5
3AC6
330
300E
100
AcDbEntity
  8
AM_5
 62
     3
100
AcDbLine
 10
-177.1063311761623
 20
-10.00000572204731
 30
0.0
 11
-177.1063311761623
 21
9.999994277952687
 31
0.0
  0
INSERT
  5
3AC7
330
300E
100
AcDbEntity
  8
AM_5
 62
     3
100
AcDbBlockReference
  2
_OPEN30
 10
-177.1063311761623
 20
-12.50000572204731
 30
0.0
 41
2.5
 42
2.5
 43
2.5
 50
270.0
  0
INSERT
  5
3AC8
330
300E
100
AcDbEntity
  8
AM_5
 62
     3
100
AcDbBlockReference
  2
_OPEN30
 10
-177.1063311761623
 20
12.49999427795268
 30
0.0
 41
2.5
 42
2.5
 43
2.5
 50
90.0
  0
MTEXT
  5
3AC9
330
300E
100
AcDbEntity
  8
AM_5
 62
     2
100
AcDbMText
 10
-180.5063311761623
 20
0.0000171661371168
 30
0.0
 40
3.799999999999999
 41
0.0
 71
     5
 72
     1
  1
%%c25
 11
0.0000000000000001
 21
1.0
 31
0.0
1001
ACAD
1000
MTEXTBEGIN
1070
    73
1070
     1
1070
    44
1040
1.0
1070
    74
1070
     0
1000
MTEXTEND
  0
POINT
  5
3ACA
330
300E
100
AcDbEntity
  8
DEFPOINTS
 62
     0
100
AcDbPoint
 10
-157.0000305175769
 20
-12.50000572204731
 30
0.0
  0
POINT
  5
3ACB
330
300E
100
AcDbEntity
  8
DEFPOINTS
 62
     0
100
AcDbPoint
 10
-157.0000305175769
 20
12.49999427795268
 30
0.0
  0
POINT
  5
3ACC
330
300E
100
AcDbEntity
  8
DEFPOINTS
 62
     0
100
AcDbPoint
 10
-177.1063311761623
 20
12.49999427795268
 30
0.0
  0
ENDBLK
  5
3019
330
300E
100
AcDbEntity
  8
0
100
AcDbBlockEnd
  0
BLOCK
  5
39B6
330
38CE
100
AcDbEntity
  8
0
100
AcDbBlockBegin
  2
A$C54201F01
 70
     0
 10
0.0
 20
0.0
 30
0.0
  3
A$C54201F01
  1

  0
LINE
  5
38CF
330
38CE
100
AcDbEntity
  8
AM_7
  6
AM_ISO08W050X2
100
AcDbLine
 10
163.1063301761624
 20
0.0
 30
0.0
 11
-1.264678955077997
 21
0.0
 31
0.0
  0
LINE
  5
38D0
330
38CE
100
AcDbEntity
  8
AM_0
100
AcDbLine
 10
156.999996185302
 20
12.5
 30
0.0
 11
37.999996185303
 21
12.5
 31
0.0
  0
LINE
  5
38D1
330
38CE
100
AcDbEntity
  8
AM_0
100
AcDbLine
 10
37.999996185303
 20
-12.4999990463256
 30
0.0
 11
156.999996185302
 21
-12.4999990463256
 31
0.0
  0
SPLINE
  5
38D2
330
38CE
100
AcDbEntity
  8
AM_0
100
AcDbSpline
210
0.0
220
0.0
230
1.0
 70
     8
 71
     3
 72
    11
 73
     7
 74
     5
 42
0.0000000001
 43
0.0000000001
 44
0.0000000001
 40
0.0
 40
0.0
 40
0.0
 40
0.0
 40
2.607287617248568
 40
5.218186157960511
 40
7.829274038631542
 40
10.43715040612864
 40
10.43715040612864
 40
10.43715040612864
 40
10.43715040612864
 10
10.95508575439499
 20
-2.67904663086
 30
0.0
 10
11.82270072181999
 20
-2.749652597687137
 30
0.0
 10
13.55913224686752
 20
-2.8909623160049
 30
0.0
 10
16.09809226944797
 20
-3.535112856306415
 30
0.0
 10
18.54974262029203
 20
-4.456980061799234
 30
0.0
 10
20.05831283463304
 20
-5.328733705140995
 30
0.0
 10
20.81213378906301
 20
-5.764342308045002
 30
0.0
 11
10.95508575439499
 21
-2.67904663086
 31
0.0
 11
13.546890258789
 21
-2.962768554688
 31
0.0
 11
16.08344268798801
 21
-3.58139038086
 31
0.0
 11
18.51931762695301
 21
-4.521759033203
 31
0.0
 11
20.81213378906301
 21
-5.764342308045002
 31
0.0
  0
SPLINE
  5
38D3
330
38CE
100
AcDbEntity
  8
AM_0
100
AcDbSpline
210
0.0
220
0.0
230
1.0
 70
     8
 71
     3
 72
    11
 73
     7
 74
     5
 42
0.0000000001
 43
0.0000000001
 44
0.0000000001
 40
0.0
 40
0.0
 40
0.0
 40
0.0
 40
1.326331053587083
 40
2.65348057267605
 40
3.981663676138331
 40
5.310872685571902
 40
5.310872685571902
 40
5.310872685571902
 40
5.310872685571902
 10
17.09216308593801
 20
1.8447265625
 30
0.0
 10
16.66170608801262
 20
1.946541535070325
 30
0.0
 10
15.80052646149452
 20
2.150234309202576
 30
0.0
 10
14.48444242767272
 20
2.333299795633327
 30
0.0
 10
13.15899200363838
 20
2.437118512987952
 30
0.0
 10
12.27284301810962
 20
2.428462818715012
 30
0.0
 10
11.829597473145
 20
2.424133300780997
 30
0.0
 11
17.09216308593801
 21
1.8447265625
 31
0.0
 11
15.79682159423801
 21
2.129760742186999
 31
0.0
 11
14.483383178711
 21
2.320037841796999
 31
0.0
 11
13.158790588379
 21
2.417633056639999
 31
0.0
 11
11.829597473145
 21
2.424133300780997
 31
0.0
  0
SPLINE
  5
38D4
330
38CE
100
AcDbEntity
  8
AM_0
100
AcDbSpline
210
0.0
220
0.0
230
1.0
 70
     8
 71
     3
 72
    11
 73
     7
 74
     5
 42
0.0000000001
 43
0.0000000001
 44
0.0000000001
 40
0.0
 40
0.0
 40
0.0
 40
0.0
 40
1.302882569364754
 40
2.605477101345823
 40
3.90764307290355
 40
5.209609572774538
 40
5.209609572774538
 40
5.209609572774538
 40
5.209609572774538
 10
21.788177490234
 20
-0.3607482910160016
 30
0.0
 10
21.42493472236555
 20
-0.1221543232329337
 30
0.0
 10
20.69852949125392
 20
0.3549808646920416
 30
0.0
 10
19.53599725909478
 20
0.9470753584907036
 30
0.0
 10
18.33573584013991
 20
1.456505940652799
 30
0.0
 10
17.50666616894219
 20
1.715326296936335
 30
0.0
 10
17.09216308593801
 20
1.8447265625
 30
0.0
 11
21.788177490234
 21
-0.3607482910160016
 31
0.0
 11
20.686264038086
 21
0.3344421386719993
 31
0.0
 11
19.52953338623101
 21
0.9333801269529971
 31
0.0
 11
18.328422546387
 21
1.436340332030997
 31
0.0
 11
17.09216308593801
 21
1.8447265625
 31
0.0
  0
SPLINE
  5
38D5
330
38CE
100
AcDbEntity
  8
AM_0
100
AcDbSpline
210
0.0
220
0.0
230
1.0
 70
     8
 71
     3
 72
    11
 73
     7
 74
     5
 42
0.0000000001
 43
0.0000000001
 44
0.0000000001
 40
0.0
 40
0.0
 40
0.0
 40
0.0
 40
0.4791537683775305
 40
1.029717868611154
 40
1.675107373219636
 40
2.408159549646679
 40
2.408159549646679
 40
2.408159549646679
 40
2.408159549646679
 10
6.210800170899005
 20
9.993988037108998
 30
0.0
 10
6.186749378435106
 20
9.83479436330561
 30
0.0
 10
6.135063401221162
 20
9.492681702811935
 30
0.0
 10
5.844813854377151
 20
9.002951003644565
 30
0.0
 10
5.349203289896943
 20
8.556720242245392
 30
0.0
 10
4.889039383638726
 20
8.470183736762209
 30
0.0
 10
4.644325256348011
 20
8.424163818358998
 30
0.0
 11
6.210800170899005
 21
9.993988037108998
 31
0.0
 11
6.111206054688011
 21
9.525299072264999
 31
0.0
 11
5.840042114258011
 21
9.046142578125
 31
0.0
 11
5.348487854004005
 21
8.6279296875
 31
0.0
 11
4.644325256348011
 21
8.424163818358998
 31
0.0
  0
SPLINE
  5
38D6
330
38CE
100
AcDbEntity
  8
AM_0
100
AcDbSpline
210
0.0
220
0.0
230
1.0
 70
     8
 71
     3
 72
    11
 73
     7
 74
     5
 42
0.0000000001
 43
0.0000000001
 44
0.0000000001
 40
0.0
 40
0.0
 40
0.0
 40
0.0
 40
0.2200023403976668
 40
0.4399743665962632
 40
0.658354260431735
 40
0.8731610871934559
 40
0.8731610871934559
 40
0.8731610871934559
 40
0.8731610871934559
 10
30.303775787354
 20
-12.957854270935
 30
0.0
 10
30.37710943061067
 20
-12.95751561115343
 30
0.0
 10
30.52376661245576
 20
-12.95683833825434
 30
0.0
 10
30.74321836661126
 20
-12.95770450490505
 30
0.0
 10
30.96093019147043
 20
-12.95979876708967
 30
0.0
 10
31.10530122173178
 20
-12.96249748650443
 30
0.0
 10
31.176891326904
 20
-12.9638357162475
 30
0.0
 11
30.303775787354
 21
-12.957854270935
 31
0.0
 11
30.523777008057
 21
-12.9571523666381
 31
0.0
 11
30.743747711182
 21
-12.9579153060912
 31
0.0
 11
30.962116241455
 21
-12.9601430892943
 31
0.0
 11
31.176891326904
 21
-12.9638357162475
 31
0.0
  0
SPLINE
  5
38D7
330
38CE
100
AcDbEntity
  8
AM_0
100
AcDbSpline
210
0.0
220
0.0
230
1.0
 70
     8
 71
     3
 72
    11
 73
     7
 74
     5
 42
0.0000000001
 43
0.0000000001
 44
0.0000000001
 40
0.0
 40
0.0
 40
0.0
 40
0.0
 40
0.0995305862359773
 40
0.1913358866637017
 40
0.2717813470319682
 40
0.3363797621218381
 40
0.3363797621218381
 40
0.3363797621218381
 40
0.3363797621218381
 10
30.956256866455
 20
-12.1615285873412
 30
0.0
 10
30.98856246185403
 20
-12.15381390632018
 30
0.0
 10
31.0506661826662
 20
-12.13898333624814
 30
0.0
 10
31.13635467816985
 20
-12.11012927327193
 30
0.0
 10
31.2101718538619
 20
-12.0794844168085
 30
0.0
 10
31.24678276722369
 20
-12.04748452859696
 30
0.0
 10
31.263088226318
 20
-12.0332326889037
 30
0.0
 11
30.956256866455
 21
-12.1615285873412
 31
0.0
 11
31.05269241333
 21
-12.1369009017943
 31
0.0
 11
31.139759063721
 21
-12.1077871322631
 31
0.0
 11
31.212467193604
 21
-12.0733633041381
 31
0.0
 11
31.263088226318
 21
-12.0332326889037
 31
0.0
  0
SPLINE
  5
38D8
330
38CE
100
AcDbEntity
  8
AM_0
100
AcDbSpline
210
0.0
220
0.0
230
1.0
 70
     8
 71
     3
 72
    11
 73
     7
 74
     5
 42
0.0000000001
 43
0.0000000001
 44
0.0000000001
 40
0.0
 40
0.0
 40
0.0
 40
0.0
 40
0.2200023403976671
 40
0.4399743665962632
 40
0.658354260431734
 40
0.8731610871934687
 40
0.8731610871934687
 40
0.8731610871934687
 40
0.8731610871934687
 10
30.303775787354
 20
12.95785522460899
 30
0.0
 10
30.37710943061067
 20
12.95751656482739
 30
0.0
 10
30.52376661245576
 20
12.95683929192822
 30
0.0
 10
30.74321836661125
 20
12.95770545857891
 30
0.0
 10
30.96093019147044
 20
12.95979972076312
 30
0.0
 10
31.10530122173178
 20
12.96249844017858
 30
0.0
 10
31.176891326904
 20
12.96383666992199
 30
0.0
 11
30.303775787354
 21
12.95785522460899
 31
0.0
 11
30.523777008057
 21
12.95715332031199
 31
0.0
 11
30.743747711182
 21
12.957916259765
 31
0.0
 11
30.962116241455
 21
12.96014404296799
 31
0.0
 11
31.176891326904
 21
12.96383666992199
 31
0.0
  0
SPLINE
  5
38D9
330
38CE
100
AcDbEntity
  8
AM_0
100
AcDbSpline
210
0.0
220
0.0
230
1.0
 70
     8
 71
     3
 72
    11
 73
     7
 74
     5
 42
0.0000000001
 43
0.0000000001
 44
0.0000000001
 40
0.0
 40
0.0
 40
0.0
 40
0.0
 40
1.074998891813806
 40
2.149435607541064
 40
3.222992956812864
 40
4.294737386589589
 40
4.294737386589589
 40
4.294737386589589
 40
4.294737386589589
 10
0.9758453369140056
 20
2.001190185546999
 30
0.0
 10
1.022431185845393
 20
1.645895456575316
 30
0.0
 10
1.115578521403761
 20
0.935491801800518
 30
0.0
 10
1.247689027118042
 20
-0.1306644294856732
 30
0.0
 10
1.37496651442272
 20
-1.19644908461841
 30
0.0
 10
1.436951896030869
 20
-1.908904747305555
 30
0.0
 10
1.467918395996008
 20
-2.264831542969002
 30
0.0
 11
0.9758453369140056
 21
2.001190185546999
 31
0.0
 11
1.11434173584
 21
0.9351501464839984
 31
0.0
 11
1.246940612793011
 21
-0.1310729980470029
 31
0.0
 11
1.369323730469005
 21
-1.197631835938
 31
0.0
 11
1.467918395996008
 21
-2.264831542969002
 31
0.0
  0
SPLINE
  5
38DA
330
38CE
100
AcDbEntity
  8
AM_0
100
AcDbSpline
210
0.0
220
0.0
230
1.0
 70
     8
 71
     3
 72
    11
 73
     7
 74
     5
 42
0.0000000001
 43
0.0000000001
 44
0.0000000001
 40
0.0
 40
0.0
 40
0.0
 40
0.0
 40
0.061875637056211
 40
0.2348187659223379
 40
0.4945448553571411
 40
0.8015864311341751
 40
0.8015864311341751
 40
0.8015864311341751
 40
0.8015864311341751
 10
1.597915649414005
 20
-2.2705078125
 30
0.0
 10
1.601833623130893
 20
-2.290800791905508
 30
0.0
 10
1.61670237918556
 20
-2.367812885963788
 30
0.0
 10
1.605295741281897
 20
-2.533818508034545
 30
0.0
 10
1.599281639561281
 20
-2.779635171450149
 30
0.0
 10
1.586845704776449
 20
-2.968292239101218
 30
0.0
 10
1.580108642578011
 20
-3.070495605469002
 30
0.0
 11
1.597915649414005
 21
-2.2705078125
 31
0.0
 11
1.608261108399005
 21
-2.331512451172002
 31
0.0
 11
1.608329772949005
 21
-2.504455566406999
 31
0.0
 11
1.598022460938011
 21
-2.763977050781999
 31
0.0
 11
1.580108642578011
 21
-3.070495605469002
 31
0.0
  0
SPLINE
  5
38DB
330
38CE
100
AcDbEntity
  8
AM_0
100
AcDbSpline
210
0.0
220
0.0
230
1.0
 70
     8
 71
     3
 72
    11
 73
     7
 74
     5
 42
0.0000000001
 43
0.0000000001
 44
0.0000000001
 40
0.0
 40
0.0
 40
0.0
 40
0.0
 40
0.9325772586485157
 40
1.86515589930974
 40
2.797767572489657
 40
3.730335646747737
 40
3.730335646747737
 40
3.730335646747737
 40
3.730335646747737
 10
1.328842163086008
 20
-6.792357444764
 30
0.0
 10
1.350145551104065
 20
-6.482229182655489
 30
0.0
 10
1.392752358710275
 20
-5.861972198850592
 30
0.0
 10
1.456258991314916
 20
-4.931547800192195
 30
0.0
 10
1.518910280316581
 20
-4.001068175150948
 30
0.0
 10
1.559709506387355
 20
-3.380681628146194
 30
0.0
 10
1.580108642578011
 20
-3.070495605469002
 30
0.0
 11
1.328842163086008
 21
-6.792357444764
 31
0.0
 11
1.392684936524005
 21
-5.861968040467001
 31
0.0
 11
1.456115722656008
 21
-4.931549072266001
 31
0.0
 11
1.518669128418011
 21
-4.001037597656999
 31
0.0
 11
1.580108642578011
 21
-3.070495605469002
 31
0.0
  0
SPLINE
  5
38DC
330
38CE
100
AcDbEntity
  8
AM_0
100
AcDbSpline
210
0.0
220
0.0
230
1.0
 70
     8
 71
     3
 72
    11
 73
     7
 74
     5
 42
0.0000000001
 43
0.0000000001
 44
0.0000000001
 40
0.0
 40
0.0
 40
0.0
 40
0.0
 40
0.5044895454336828
 40
1.008914653343506
 40
1.51324549488436
 40
2.017407863563171
 40
2.017407863563171
 40
2.017407863563171
 40
2.017407863563171
 10
0.9758453369140056
 20
-2.001190185547002
 30
0.0
 10
0.9977597899354918
 20
-1.83446096424197
 30
0.0
 10
1.041585896885594
 20
-1.501023817649382
 30
0.0
 10
1.106124431636278
 20
-1.000754178067871
 30
0.0
 10
1.16966658805595
 20
-0.5004660834797623
 30
0.0
 10
1.210605457131773
 20
-0.1668034479298337
 30
0.0
 10
1.231071472168011
 20
0.0
 30
0.0
 11
0.9758453369140056
 21
-2.001190185547002
 31
0.0
 11
1.041389465332002
 21
-1.5009765625
 31
0.0
 11
1.105964660645
 21
-1.000701904297002
 31
0.0
 11
1.169319152832002
 21
-0.500366210938001
 31
0.0
 11
1.231071472168011
 21
0.0
 31
0.0
  0
SPLINE
  5
38DD
330
38CE
100
AcDbEntity
  8
AM_0
100
AcDbSpline
210
0.0
220
0.0
230
1.0
 70
     8
 71
     3
 72
    11
 73
     7
 74
     5
 42
0.0000000001
 43
0.0000000001
 44
0.0000000001
 40
0.0
 40
0.0
 40
0.0
 40
0.0
 40
0.7064099615444329
 40
1.310026493402033
 40
1.822186439022797
 40
2.280849378219372
 40
2.280849378219372
 40
2.280849378219372
 40
2.280849378219372
 10
4.644325256348011
 20
8.424163818358998
 30
0.0
 10
4.404439930675673
 20
8.446857443301123
 30
0.0
 10
3.959576255024673
 20
8.488942424436601
 30
0.0
 10
3.473190935835794
 20
8.901367599215433
 30
0.0
 10
3.225885232653532
 20
9.381860007193322
 30
0.0
 10
3.21594604873569
 20
9.708647257966029
 30
0.0
 10
3.211250305176008
 20
9.863037109375
 30
0.0
 11
4.644325256348011
 21
8.424163818358998
 31
0.0
 11
3.952346801758011
 21
8.566223144530997
 31
0.0
 11
3.484649658203011
 21
8.947814941405997
 31
0.0
 11
3.257156372069999
 21
9.406677246093
 31
0.0
 11
3.211250305176008
 21
9.863037109375
 31
0.0
  0
SPLINE
  5
38DE
330
38CE
100
AcDbEntity
  8
AM_0
100
AcDbSpline
210
0.0
220
0.0
230
1.0
 70
     8
 71
     3
 72
    11
 73
     7
 74
     5
 42
0.0000000001
 43
0.0000000001
 44
0.0000000001
 40
0.0
 40
0.0
 40
0.0
 40
0.0
 40
0.0461135001877444
 40
0.0922629812128565
 40
0.1383995871335558
 40
0.1845605084893763
 40
0.1845605084893763
 40
0.1845605084893763
 40
0.1845605084893763
 10
8.765327453613011
 20
12.590393066406
 30
0.0
 10
8.77955029563258
 20
12.58453879210104
 30
0.0
 10
8.808007077284424
 20
12.57282567559474
 30
0.0
 10
8.848694099394151
 20
12.55094859562582
 30
0.0
 10
8.887860451633677
 20
12.5264246034716
 30
0.0
 10
8.912147029852782
 20
12.50750777901253
 30
0.0
 10
8.924293518066008
 20
12.498046875
 30
0.0
 11
8.765327453613011
 21
12.590393066406
 31
0.0
 11
8.807662963867002
 21
12.57211303710899
 31
0.0
 11
8.848442077637002
 21
12.55050659179699
 31
0.0
 11
8.887397766113011
 21
12.525787353515
 31
0.0
 11
8.924293518066008
 21
12.498046875
 31
0.0
  0
SPLINE
  5
38DF
330
38CE
100
AcDbEntity
  8
AM_0
100
AcDbSpline
210
0.0
220
0.0
230
1.0
 70
     8
 71
     3
 72
    11
 73
     7
 74
     5
 42
0.0000000001
 43
0.0000000001
 44
0.0000000001
 40
0.0
 40
0.0
 40
0.0
 40
0.0
 40
0.0640868927175346
 40
0.1281542216753891
 40
0.1922097748864546
 40
0.256253013947997
 40
0.256253013947997
 40
0.256253013947997
 40
0.256253013947997
 10
8.765327453613011
 20
12.590393066406
 30
0.0
 10
8.745173876643278
 20
12.59754149881593
 30
0.0
 10
8.704872874971769
 20
12.61183618143897
 30
0.0
 10
8.642035455177417
 20
12.62509083330348
 30
0.0
 10
8.578280257908545
 20
12.63266723053806
 30
0.0
 10
8.535542326528334
 20
12.63207232601194
 30
0.0
 10
8.514175415039005
 20
12.63177490234299
 30
0.0
 11
8.765327453613011
 21
12.590393066406
 31
0.0
 11
8.704467773438011
 21
12.61047363281199
 31
0.0
 11
8.641876220703011
 21
12.62414550781199
 31
0.0
 11
8.578216552734005
 21
12.631256103515
 31
0.0
 11
8.514175415039005
 21
12.63177490234299
 31
0.0
  0
SPLINE
  5
38E0
330
38CE
100
AcDbEntity
  8
AM_0
100
AcDbSpline
210
0.0
220
0.0
230
1.0
 70
     8
 71
     3
 72
    11
 73
     7
 74
     5
 42
0.0000000001
 43
0.0000000001
 44
0.0000000001
 40
0.0
 40
0.0
 40
0.0
 40
0.0
 40
0.0187092308649619
 40
0.0374364232466059
 40
0.0561485768305501
 40
0.0748719146595386
 40
0.0748719146595386
 40
0.0748719146595386
 40
0.0748719146595386
 10
9.22437286377
 20
12.51123046875
 30
0.0
 10
9.220788863755309
 20
12.51633451397961
 30
0.0
 10
9.213617422960428
 20
12.52654750450097
 30
0.0
 10
9.20241637851082
 20
12.54154498503693
 30
0.0
 10
9.190859097105882
 20
12.55627585897576
 30
0.0
 10
9.182862845617252
 20
12.56585646112951
 30
0.0
 10
9.178863525391008
 20
12.57064819335899
 30
0.0
 11
9.22437286377
 21
12.51123046875
 31
0.0
 11
9.21354675293
 21
12.52648925781199
 31
0.0
 11
9.202354431152002
 21
12.54150390625
 31
0.0
 11
9.190788269043011
 21
12.556213378906
 31
0.0
 11
9.178863525391008
 21
12.57064819335899
 31
0.0
  0
SPLINE
  5
38E1
330
38CE
100
AcDbEntity
  8
AM_0
100
AcDbSpline
210
0.0
220
0.0
230
1.0
 70
     8
 71
     3
 72
    11
 73
     7
 74
     5
 42
0.0000000001
 43
0.0000000001
 44
0.0000000001
 40
0.0
 40
0.0
 40
0.0
 40
0.0
 40
0.0923917409702931
 40
0.1847985243942856
 40
0.2771946249270053
 40
0.3695664504149054
 40
0.3695664504149054
 40
0.3695664504149054
 40
0.3695664504149054
 10
9.178863525391008
 20
12.57064819335899
 30
0.0
 10
9.158120284652149
 20
12.59346899033275
 30
0.0
 10
9.116630425932752
 20
12.63911429977232
 30
0.0
 10
9.044441875176278
 20
12.69725723466148
 30
0.0
 10
8.966596281522189
 20
12.74756109743248
 30
0.0
 10
8.910254764780717
 20
12.77264597609056
 30
0.0
 10
8.88208770752
 20
12.78518676757799
 30
0.0
 11
9.178863525391008
 21
12.57064819335899
 31
0.0
 11
9.114974975586008
 21
12.63739013671799
 31
0.0
 11
9.043495178223011
 21
12.69595336914
 31
0.0
 11
8.965476989746008
 21
12.74545288085899
 31
0.0
 11
8.88208770752
 21
12.78518676757799
 31
0.0
  0
SPLINE
  5
38E2
330
38CE
100
AcDbEntity
  8
AM_0
100
AcDbSpline
210
0.0
220
0.0
230
1.0
 70
     8
 71
     3
 72
    11
 73
     7
 74
     5
 42
0.0000000001
 43
0.0000000001
 44
0.0000000001
 40
0.0
 40
0.0
 40
0.0
 40
0.0
 40
0.0854746157507247
 40
0.1709702607194697
 40
0.2564765391883815
 40
0.3419870599321837
 40
0.3419870599321837
 40
0.3419870599321837
 40
0.3419870599321837
 10
8.88208770752
 20
12.78518676757799
 30
0.0
 10
8.855323170696689
 20
12.79505119318454
 30
0.0
 10
8.801787512202912
 20
12.81478247133053
 30
0.0
 10
8.717962642334983
 20
12.83271189033664
 30
0.0
 10
8.632832418113586
 20
12.84271794157918
 30
0.0
 10
8.575777171366924
 20
12.84155459040583
 30
0.0
 10
8.547248840332002
 20
12.84097290038999
 30
0.0
 11
8.88208770752
 21
12.78518676757799
 31
0.0
 11
8.801208496094005
 21
12.81283569335899
 31
0.0
 11
8.717750549316008
 21
12.831390380859
 31
0.0
 11
8.632759094238011
 21
12.84075927734299
 31
0.0
 11
8.547248840332002
 21
12.84097290038999
 31
0.0
  0
SPLINE
  5
38E3
330
38CE
100
AcDbEntity
  8
AM_0
100
AcDbSpline
210
0.0
220
0.0
230
1.0
 70
     8
 71
     3
 72
    11
 73
     7
 74
     5
 42
0.0000000001
 43
0.0000000001
 44
0.0000000001
 40
0.0
 40
0.0
 40
0.0
 40
0.0
 40
0.0435890405476427
 40
0.0871780810942767
 40
0.1307974701315631
 40
0.1744170213035845
 40
0.1744170213035845
 40
0.1744170213035845
 40
0.1744170213035845
 10
8.514175415039005
 20
12.63177490234299
 30
0.0
 10
8.514485434861942
 20
12.64630127468082
 30
0.0
 10
8.515105474507805
 20
12.67535401935614
 30
0.0
 10
8.516040110822215
 20
12.71894315750506
 30
0.0
 10
8.516957511024624
 20
12.76254283463829
 30
0.0
 10
8.517579790073375
 20
12.79161582270192
 30
0.0
 10
8.517890930176008
 20
12.80615234375
 30
0.0
 11
8.514175415039005
 21
12.63177490234299
 31
0.0
 11
8.515106201172002
 21
12.675354003906
 31
0.0
 11
8.516036987305
 21
12.71893310546799
 31
0.0
 11
8.516960144043011
 21
12.76254272460899
 31
0.0
 11
8.517890930176008
 21
12.80615234375
 31
0.0
  0
SPLINE
  5
38E4
330
38CE
100
AcDbEntity
  8
AM_0
100
AcDbSpline
210
0.0
220
0.0
230
1.0
 70
     8
 71
     3
 72
    11
 73
     7
 74
     5
 42
0.0000000001
 43
0.0000000001
 44
0.0000000001
 40
0.0
 40
0.0
 40
0.0
 40
0.0
 40
0.1812093690294516
 40
0.3623987263747268
 40
0.5435938441791402
 40
0.7247832015244154
 40
0.7247832015244154
 40
0.7247832015244154
 40
0.7247832015244154
 10
8.547248840332002
 20
12.84097290038999
 30
0.0
 10
8.592848479962642
 20
12.88058615766333
 30
0.0
 10
8.684042723471122
 20
12.95980829755764
 30
0.0
 10
8.820855544447958
 20
13.07861464679814
 30
0.0
 10
8.957663883067244
 20
13.19741598297411
 30
0.0
 10
9.048866552998591
 20
13.27662117702697
 30
0.0
 10
9.094467163086008
 20
13.316223144531
 30
0.0
 11
8.547248840332002
 21
12.84097290038999
 31
0.0
 11
8.684051513672002
 21
12.95980834960899
 31
0.0
 11
8.820854187012002
 21
13.07861328125
 31
0.0
 11
8.957664489746008
 21
13.19741821288999
 31
0.0
 11
9.094467163086008
 21
13.316223144531
 31
0.0
  0
SPLINE
  5
38E5
330
38CE
100
AcDbEntity
  8
AM_0
100
AcDbSpline
210
0.0
220
0.0
230
1.0
 70
     8
 71
     3
 72
    11
 73
     7
 74
     5
 42
0.0000000001
 43
0.0000000001
 44
0.0000000001
 40
0.0
 40
0.0
 40
0.0
 40
0.0
 40
0.2876807661068431
 40
0.5764620685637969
 40
0.8646007847794328
 40
1.150990251659403
 40
1.150990251659403
 40
1.150990251659403
 40
1.150990251659403
 10
9.094467163086008
 20
13.316223144531
 30
0.0
 10
9.191219836868832
 20
13.30959354575769
 30
0.0
 10
9.385095316355037
 20
13.29630898636803
 30
0.0
 10
9.642947481431562
 20
13.15117315106024
 30
0.0
 10
9.843980528149062
 20
12.93387687201256
 30
0.0
 10
9.898671573391364
 20
12.74791182476664
 30
0.0
 10
9.925933837891008
 20
12.65521240234299
 30
0.0
 11
9.094467163086008
 21
13.316223144531
 31
0.0
 11
9.379257202149005
 21
13.27554321288999
 31
0.0
 11
9.633689880371008
 21
13.13894653320299
 31
0.0
 11
9.824493408203011
 21
12.92303466796799
 31
0.0
 11
9.925933837891008
 21
12.65521240234299
 31
0.0
  0
SPLINE
  5
38E6
330
38CE
100
AcDbEntity
  8
AM_0
100
AcDbSpline
210
0.0
220
0.0
230
1.0
 70
     8
 71
     3
 72
    11
 73
     7
 74
     5
 42
0.0000000001
 43
0.0000000001
 44
0.0000000001
 40
0.0
 40
0.0
 40
0.0
 40
0.0
 40
0.2191204688263133
 40
0.4382679182071995
 40
0.6574153675887987
 40
0.8765412292851125
 40
0.8765412292851125
 40
0.8765412292851125
 40
0.8765412292851125
 10
0.364990234375
 20
13.131164550781
 30
0.0
 10
0.4166192777447631
 20
13.07949922083415
 30
0.0
 10
0.5198837216275979
 20
12.97616219932914
 30
0.0
 10
0.6747668132356436
 20
12.82113674712266
 30
0.0
 10
0.8296495391741938
 20
12.66610838819145
 30
0.0
 10
0.9329185259872737
 20
12.56277336505771
 30
0.0
 10
0.9845504760740055
 20
12.51110839843699
 30
0.0
 11
0.364990234375
 21
13.131164550781
 31
0.0
 11
0.5198745727540058
 21
12.97616577148399
 31
0.0
 11
0.6747665405270027
 21
12.82113647460899
 31
0.0
 11
0.8296585083010086
 21
12.66610717773399
 31
0.0
 11
0.9845504760740055
 21
12.51110839843699
 31
0.0
  0
SPLINE
  5
38E7
330
38CE
100
AcDbEntity
  8
AM_0
100
AcDbSpline
210
0.0
220
0.0
230
1.0
 70
     8
 71
     3
 72
    11
 73
     7
 74
     5
 42
0.0000000001
 43
0.0000000001
 44
0.0000000001
 40
0.0
 40
0.0
 40
0.0
 40
0.0
 40
2.200365979983972
 40
4.370332901947007
 40
6.536348570602724
 40
8.730821472927912
 40
8.730821472927912
 40
8.730821472927912
 40
8.730821472927912
 10
0.3658294677740059
 20
13.13119506835899
 30
0.0
 10
1.098897217247652
 20
13.15575038174131
 30
0.0
 10
2.554905051409977
 20
13.2045217656695
 30
0.0
 10
4.733618356130636
 20
13.23013075325272
 30
0.0
 10
6.910392480616304
 20
13.25086598455583
 30
0.0
 10
8.363281674528607
 20
13.29434284559675
 30
0.0
 10
9.094467163086008
 20
13.316223144531
 30
0.0
 11
0.3658294677740059
 21
13.13119506835899
 31
0.0
 11
2.565216064453011
 21
13.196838378906
 31
0.0
 11
4.734939575194999
 21
13.229339599609
 31
0.0
 11
6.900764465332002
 21
13.25808715820299
 31
0.0
 11
9.094467163086008
 21
13.316223144531
 31
0.0
  0
SPLINE
  5
38E8
330
38CE
100
AcDbEntity
  8
AM_0
100
AcDbSpline
210
0.0
220
0.0
230
1.0
 70
     8
 71
     3
 72
    11
 73
     7
 74
     5
 42
0.0000000001
 43
0.0000000001
 44
0.0000000001
 40
0.0
 40
0.0
 40
0.0
 40
0.0
 40
0.0484213695463708
 40
0.0968967941138917
 40
0.1454514411513082
 40
0.1941375679751214
 40
0.1941375679751214
 40
0.1941375679751214
 40
0.1941375679751214
 10
0.9845504760740055
 20
12.51110839843699
 30
0.0
 10
0.9684141362218586
 20
12.51020711658089
 30
0.0
 10
0.9361234427728033
 20
12.50840354672593
 30
0.0
 10
0.8885264268852171
 20
12.49846845187671
 30
0.0
 10
0.8420668876353918
 20
12.48374269326486
 30
0.0
 10
0.8131167646507652
 20
12.46905447739617
 30
0.0
 10
0.7986221313480116
 20
12.46170043945299
 30
0.0
 11
0.9845504760740055
 21
12.51110839843699
 31
0.0
 11
0.9362869262700002
 21
12.50720214843699
 31
0.0
 11
0.88875579834
 21
12.49768066406199
 31
0.0
 11
0.8426208496090055
 21
12.48254394531199
 31
0.0
 11
0.7986221313480116
 21
12.46170043945299
 31
0.0
  0
SPLINE
  5
38E9
330
38CE
100
AcDbEntity
  8
AM_0
100
AcDbSpline
210
0.0
220
0.0
230
1.0
 70
     8
 71
     3
 72
    11
 73
     7
 74
     5
 42
0.0000000001
 43
0.0000000001
 44
0.0000000001
 40
0.0
 40
0.0
 40
0.0
 40
0.0
 40
0.0521812264670158
 40
0.1044000487089436
 40
0.1565984927198889
 40
0.2088399159304503
 40
0.2088399159304503
 40
0.2088399159304503
 40
0.2088399159304503
 10
0.9126205444340058
 20
7.911468505858998
 30
0.0
 10
0.9152231515873722
 20
7.894263885842963
 30
0.0
 10
0.9204302410327194
 20
7.859842250145526
 30
0.0
 10
0.9324374967344283
 20
7.808995109370361
 30
0.0
 10
0.9472571314136047
 20
7.75887262549487
 30
0.0
 10
0.9598749952578526
 20
7.726411701647009
 30
0.0
 10
0.9661865234380115
 20
7.710174560546999
 30
0.0
 11
0.9126205444340058
 21
7.911468505858998
 31
0.0
 11
0.9211273193360085
 21
7.859985351561999
 31
0.0
 11
0.9329071044920027
 21
7.809112548827997
 31
0.0
 11
0.9479370117190057
 21
7.759124755858998
 31
0.0
 11
0.9661865234380115
 21
7.710174560546999
 31
0.0
  0
SPLINE
  5
38EA
330
38CE
100
AcDbEntity
  8
AM_0
100
AcDbSpline
210
0.0
220
0.0
230
1.0
 70
     8
 71
     3
 72
    11
 73
     7
 74
     5
 42
0.0000000001
 43
0.0000000001
 44
0.0000000001
 40
0.0
 40
0.0
 40
0.0
 40
0.0
 40
0.0621748195783099
 40
0.1245453508531194
 40
0.1870652635478111
 40
0.2496716418136851
 40
0.2496716418136851
 40
0.2496716418136851
 40
0.2496716418136851
 10
0.7986221313480116
 20
12.46170043945299
 30
0.0
 10
0.7809345480163144
 20
12.45079654135277
 30
0.0
 10
0.7455037050041295
 20
12.42895442224779
 30
0.0
 10
0.7002897347464129
 20
12.38546123089421
 30
0.0
 10
0.6619012274058491
 20
12.33563437406352
 30
0.0
 10
0.6441658631522992
 20
12.29775924475934
 30
0.0
 10
0.6352920532230116
 20
12.27880859375
 30
0.0
 11
0.7986221313480116
 21
12.46170043945299
 31
0.0
 11
0.7468872070310085
 21
12.42721557617199
 31
0.0
 11
0.7014770507810085
 21
12.38446044921799
 31
0.0
 11
0.6638870239260087
 21
12.33450317382799
 31
0.0
 11
0.6352920532230116
 21
12.27880859375
 31
0.0
  0
SPLINE
  5
38EB
330
38CE
100
AcDbEntity
  8
AM_0
100
AcDbSpline
210
0.0
220
0.0
230
1.0
 70
     8
 71
     3
 72
    11
 73
     7
 74
     5
 42
0.0000000001
 43
0.0000000001
 44
0.0000000001
 40
0.0
 40
0.0
 40
0.0
 40
0.0
 40
0.0264773374977734
 40
0.0528259140543834
 40
0.0791498073872116
 40
0.1056070175182999
 40
0.1056070175182999
 40
0.1056070175182999
 40
0.1056070175182999
 10
0.6352920532230116
 20
12.27880859375
 30
0.0
 10
0.6321117375609293
 20
12.27057131017545
 30
0.0
 10
0.625766572309888
 20
12.25413680144938
 30
0.0
 10
0.6185142327852415
 20
12.22874064106512
 30
0.0
 10
0.6127935256964027
 20
12.20296365959814
 30
0.0
 10
0.6105316717177351
 20
12.18550779179515
 30
0.0
 10
0.6093978881840059
 20
12.1767578125
 30
0.0
 11
0.6352920532230116
 21
12.27880859375
 31
0.0
 11
0.6261291503910087
 21
12.253967285156
 31
0.0
 11
0.6187667846680114
 21
12.22866821289
 31
0.0
 11
0.6131896972660087
 21
12.202941894531
 31
0.0
 11
0.6093978881840059
 21
12.1767578125
 31
0.0
  0
SPLINE
  5
38EC
330
38CE
100
AcDbEntity
  8
AM_0
100
AcDbSpline
210
0.0
220
0.0
230
1.0
 70
     8
 71
     3
 72
    11
 73
     7
 74
     5
 42
0.0000000001
 43
0.0000000001
 44
0.0000000001
 40
0.0
 40
0.0
 40
0.0
 40
0.0
 40
0.0171868771201263
 40
0.0343256152911685
 40
0.051476602800306
 40
0.0686403209590631
 40
0.0686403209590631
 40
0.0686403209590631
 40
0.0686403209590631
 10
0.6093978881840059
 20
12.1767578125
 30
0.0
 10
0.6088436152243039
 20
12.17105481188051
 30
0.0
 10
0.6077366217752875
 20
12.15966478425061
 30
0.0
 10
0.6069869403294291
 20
12.14251571455188
 30
0.0
 10
0.6068784424821498
 20
12.12535810959936
 30
0.0
 10
0.6074237688579248
 20
12.11393100436068
 30
0.0
 10
0.6076965332030114
 20
12.108215332031
 30
0.0
 11
0.6093978881840059
 21
12.1767578125
 31
0.0
 11
0.6078872680660084
 21
12.15963745117199
 31
0.0
 11
0.607093811035
 21
12.14251708984299
 31
0.0
 11
0.6070327758790058
 21
12.12536621093699
 31
0.0
 11
0.6076965332030114
 21
12.108215332031
 31
0.0
  0
SPLINE
  5
38ED
330
38CE
100
AcDbEntity
  8
AM_0
100
AcDbSpline
210
0.0
220
0.0
230
1.0
 70
     8
 71
     3
 72
    11
 73
     7
 74
     5
 42
0.0000000001
 43
0.0000000001
 44
0.0000000001
 40
0.0
 40
0.0
 40
0.0
 40
0.0
 40
0.1346237742196904
 40
0.2689697287948113
 40
0.4032290416876594
 40
0.5375359504222484
 40
0.5375359504222484
 40
0.5375359504222484
 40
0.5375359504222484
 10
0.9757766723630112
 20
6.971618652343
 30
0.0
 10
0.943509011496712
 20
7.002983352625497
 30
0.0
 10
0.8790402797117284
 20
7.065648026659568
 30
0.0
 10
0.8050441527176731
 20
7.178900493688972
 30
0.0
 10
0.7490087891147479
 20
7.301943784174296
 30
0.0
 10
0.7308616677439411
 20
7.389867994440098
 30
0.0
 10
0.721786499024006
 20
7.433837890625
 30
0.0
 11
0.9757766723630112
 21
6.971618652343
 31
0.0
 11
0.8827590942380112
 21
7.068939208983998
 31
0.0
 11
0.8080139160160086
 21
7.180572509764999
 31
0.0
 11
0.7538146972660087
 21
7.303405761718
 31
0.0
 11
0.721786499024006
 21
7.433837890625
 31
0.0
  0
SPLINE
  5
38EE
330
38CE
100
AcDbEntity
  8
AM_0
100
AcDbSpline
210
0.0
220
0.0
230
1.0
 70
     8
 71
     3
 72
    11
 73
     7
 74
     5
 42
0.0000000001
 43
0.0000000001
 44
0.0000000001
 40
0.0
 40
0.0
 40
0.0
 40
0.0
 40
0.1285921067871226
 40
0.2571870442119982
 40
0.3857508117708631
 40
0.5143429185583634
 40
0.5143429185583634
 40
0.5143429185583634
 40
0.5143429185583634
 10
0.721786499024006
 20
7.433837890625
 30
0.0
 10
0.737688269277637
 20
7.473643157251241
 30
0.0
 10
0.7694921598231118
 20
7.553254566718395
 30
0.0
 10
0.8172020752026938
 20
7.672659370612739
 30
0.0
 10
0.8649204254984855
 20
7.792060804044009
 30
0.0
 10
0.8967193366819833
 20
7.871663014465604
 30
0.0
 10
0.9126205444340058
 20
7.911468505858998
 30
0.0
 11
0.721786499024006
 21
7.433837890625
 31
0.0
 11
0.7694931030270027
 21
7.553253173827997
 31
0.0
 11
0.8172073364260086
 21
7.672668457030997
 31
0.0
 11
0.8649139404300001
 21
7.792053222655997
 31
0.0
 11
0.9126205444340058
 21
7.911468505858998
 31
0.0
  0
SPLINE
  5
38EF
330
38CE
100
AcDbEntity
  8
AM_0
100
AcDbSpline
210
0.0
220
0.0
230
1.0
 70
     8
 71
     3
 72
    11
 73
     7
 74
     5
 42
0.0000000001
 43
0.0000000001
 44
0.0000000001
 40
0.0
 40
0.0
 40
0.0
 40
0.0
 40
0.2149556953402858
 40
0.4298898022882108
 40
0.6448239092361352
 40
0.8597796045764209
 40
0.8597796045764209
 40
0.8597796045764209
 40
0.8597796045764209
 10
0.6076965332030114
 20
12.108215332031
 30
0.0
 10
0.5570564271289389
 20
12.15890629990486
 30
0.0
 10
0.4557813008589673
 20
12.26028314466628
 30
0.0
 10
0.3038482666023585
 20
12.41232299804735
 30
0.0
 10
0.1519152323436175
 20
12.56436285142628
 30
0.0
 10
0.0506401060739303
 20
12.66573969618798
 30
0.0
 10
0.0
 20
12.71643066406199
 30
0.0
 11
0.6076965332030114
 21
12.108215332031
 31
0.0
 11
0.4557723999020027
 21
12.26028442382799
 31
0.0
 11
0.303848266602003
 21
12.41232299804699
 31
0.0
 11
0.1519241333010086
 21
12.564361572265
 31
0.0
 11
0.0
 21
12.71643066406199
 31
0.0
  0
SPLINE
  5
38F0
330
38CE
100
AcDbEntity
  8
AM_0
100
AcDbSpline
210
0.0
220
0.0
230
1.0
 70
     8
 71
     3
 72
    11
 73
     7
 74
     5
 42
0.0000000001
 43
0.0000000001
 44
0.0000000001
 40
0.0
 40
0.0
 40
0.0
 40
0.0
 40
0.114471732505214
 40
0.229496370950739
 40
0.3449241878080142
 40
0.4605205282053938
 40
0.4605205282053938
 40
0.4605205282053938
 40
0.4605205282053938
 10
0.0
 20
12.71643066406199
 30
0.0
 10
0.0002061972043716
 20
12.75486843262448
 30
0.0
 10
0.0006195875590717
 20
12.83192962668068
 30
0.0
 10
0.042670813868414
 20
12.94118912477317
 30
0.0
 10
0.1130713561615028
 20
13.03577651906686
 30
0.0
 10
0.1800895208833606
 20
13.07510767458735
 30
0.0
 10
0.213623046875
 20
13.094787597656
 30
0.0
 11
0.0
 21
12.71643066406199
 31
0.0
 11
0.0074768066410087
 21
12.83065795898399
 31
0.0
 11
0.0473022460940058
 21
12.93856811523399
 31
0.0
 11
0.1180343627930114
 21
13.02978515625
 31
0.0
 11
0.213623046875
 21
13.094787597656
 31
0.0
  0
SPLINE
  5
38F1
330
38CE
100
AcDbEntity
  8
AM_0
100
AcDbSpline
210
0.0
220
0.0
230
1.0
 70
     8
 71
     3
 72
    11
 73
     7
 74
     5
 42
0.0000000001
 43
0.0000000001
 44
0.0000000001
 40
0.0
 40
0.0
 40
0.0
 40
0.0
 40
0.0391573893371165
 40
0.0783126700101929
 40
0.1174466190643128
 40
0.1565959886287072
 40
0.1565959886287072
 40
0.1565959886287072
 40
0.1565959886287072
 10
0.213623046875
 20
13.094787597656
 30
0.0
 10
0.2256431141023765
 20
13.09990406277373
 30
0.0
 10
0.2496826012646528
 20
13.1101367174825
 30
0.0
 10
0.2874061784950741
 20
13.12091193387801
 30
0.0
 10
0.3259141047456148
 20
13.12837270927205
 30
0.0
 10
0.3519631474226497
 20
13.13023381474242
 30
0.0
 10
0.364990234375
 20
13.131164550781
 30
0.0
 11
0.213623046875
 21
13.094787597656
 31
0.0
 11
0.2499618530270027
 21
13.109375
 31
0.0
 11
0.2875442504880112
 21
13.120361328125
 31
0.0
 11
0.3260040283199999
 21
13.12759399414
 31
0.0
 11
0.364990234375
 21
13.131164550781
 31
0.0
  0
SPLINE
  5
38F2
330
38CE
100
AcDbEntity
  8
AM_0
100
AcDbSpline
210
0.0
220
0.0
230
1.0
 70
     8
 71
     3
 72
    11
 73
     7
 74
     5
 42
0.0000000001
 43
0.0000000001
 44
0.0000000001
 40
0.0
 40
0.0
 40
0.0
 40
0.0
 40
0.6186302319604307
 40
1.237231029235158
 40
1.855861261195589
 40
2.474460044113705
 40
2.474460044113705
 40
2.474460044113705
 40
2.474460044113705
 10
0.0814819335940058
 20
11.59017944335899
 30
0.0
 10
0.1359244100035891
 20
11.39128597249065
 30
0.0
 10
0.2448067724269116
 20
10.99350849418865
 30
0.0
 10
0.4081475040071455
 20
10.39684189547606
 30
0.0
 10
0.5714685259042662
 20
9.8001807701452
 30
0.0
 10
0.6803535090141485
 20
9.402404705377257
 30
0.0
 10
0.7347946166990056
 20
9.203521728514999
 30
0.0
 11
0.0814819335940058
 21
11.59017944335899
 31
0.0
 11
0.2448120117190058
 21
10.99349975585899
 31
0.0
 11
0.4081420898440058
 21
10.39685058593699
 31
0.0
 11
0.5714721679690058
 21
9.800170898436999
 31
0.0
 11
0.7347946166990056
 21
9.203521728514999
 31
0.0
  0
SPLINE
  5
38F3
330
38CE
100
AcDbEntity
  8
AM_0
100
AcDbSpline
210
0.0
220
0.0
230
1.0
 70
     8
 71
     3
 72
    11
 73
     7
 74
     5
 42
0.0000000001
 43
0.0000000001
 44
0.0000000001
 40
0.0
 40
0.0
 40
0.0
 40
0.0
 40
1.051209947395973
 40
2.102503407050193
 40
3.153881543731076
 40
4.205373361053211
 40
4.205373361053211
 40
4.205373361053211
 40
4.205373361053211
 10
0.721786499024006
 20
7.433837890625
 30
0.0
 10
0.6684017858051221
 20
7.780150691727721
 30
0.0
 10
0.5616281182754892
 20
8.472803806385984
 30
0.0
 10
0.4015400962959763
 20
9.511837290502722
 30
0.0
 10
0.2414731627561451
 20
10.55096908863827
 30
0.0
 10
0.1348142652994546
 20
11.24376350768582
 30
0.0
 10
0.0814819335940058
 20
11.59017944335899
 30
0.0
 11
0.721786499024006
 21
7.433837890625
 31
0.0
 11
0.5616455078130116
 21
8.472778320311999
 31
0.0
 11
0.4015502929690058
 21
9.511810302733998
 31
0.0
 11
0.2414932250980115
 21
10.55093383788999
 31
0.0
 11
0.0814819335940058
 21
11.59017944335899
 31
0.0
  0
SPLINE
  5
38F4
330
38CE
100
AcDbEntity
  8
AM_0
100
AcDbSpline
210
0.0
220
0.0
230
1.0
 70
     8
 71
     3
 72
    11
 73
     7
 74
     5
 42
0.0000000001
 43
0.0000000001
 44
0.0000000001
 40
0.0
 40
0.0
 40
0.0
 40
0.0
 40
0.0391573893370424
 40
0.0783126700101188
 40
0.1174466190643497
 40
0.1565959886287075
 40
0.1565959886287075
 40
0.1565959886287075
 40
0.1565959886287075
 10
0.213623046875
 20
-13.0947866439818
 30
0.0
 10
0.2256431141023794
 20
-13.09990310909946
 30
0.0
 10
0.2496826012646842
 20
-13.11013576380811
 30
0.0
 10
0.2874061784951467
 20
-13.1209109802034
 30
0.0
 10
0.3259141047455204
 20
-13.12837175559855
 30
0.0
 10
0.3519631474226347
 20
-13.13023286106846
 30
0.0
 10
0.364990234375
 20
-13.1311635971068
 30
0.0
 11
0.213623046875
 21
-13.0947866439818
 31
0.0
 11
0.2499618530270027
 21
-13.1093740463256
 31
0.0
 11
0.2875442504880112
 21
-13.1203603744506
 31
0.0
 11
0.3260040283199999
 21
-13.1275930404662
 31
0.0
 11
0.364990234375
 21
-13.1311635971068
 31
0.0
  0
SPLINE
  5
38F5
330
38CE
100
AcDbEntity
  8
AM_0
100
AcDbSpline
210
0.0
220
0.0
230
1.0
 70
     8
 71
     3
 72
    11
 73
     7
 74
     5
 42
0.0000000001
 43
0.0000000001
 44
0.0000000001
 40
0.0
 40
0.0
 40
0.0
 40
0.0
 40
1.051209947396962
 40
2.102503407050195
 40
3.153881543732064
 40
4.205373361053212
 40
4.205373361053212
 40
4.205373361053212
 40
4.205373361053212
 10
0.721786499024006
 20
-7.433836936951001
 30
0.0
 10
0.668401785805158
 20
-7.780149738054063
 30
0.0
 10
0.561628118275697
 20
-8.472802852712352
 30
0.0
 10
0.4015400962957473
 20
-9.511836336829354
 30
0.0
 10
0.2414731627563525
 20
-10.55096813496463
 30
0.0
 10
0.1348142652994903
 20
-11.24376255401217
 30
0.0
 10
0.0814819335940058
 20
-11.590178489685
 30
0.0
 11
0.721786499024006
 21
-7.433836936951001
 31
0.0
 11
0.5616455078130116
 21
-8.472777366639
 31
0.0
 11
0.4015502929690058
 21
-9.511809349060001
 31
0.0
 11
0.2414932250980115
 21
-10.550932884217
 31
0.0
 11
0.0814819335940058
 21
-11.590178489685
 31
0.0
  0
SPLINE
  5
38F6
330
38CE
100
AcDbEntity
  8
AM_0
100
AcDbSpline
210
0.0
220
0.0
230
1.0
 70
     8
 71
     3
 72
    11
 73
     7
 74
     5
 42
0.0000000001
 43
0.0000000001
 44
0.0000000001
 40
0.0
 40
0.0
 40
0.0
 40
0.0
 40
0.2881825019548202
 40
0.5746989674103627
 40
0.8595758863183435
 40
1.143901212810755
 40
1.143901212810755
 40
1.143901212810755
 40
1.143901212810755
 10
1.539070129395
 20
-6.772215843201001
 30
0.0
 10
1.442118517095888
 20
-6.778716032991013
 30
0.0
 10
1.24877578775209
 20
-6.791678833768128
 30
0.0
 10
0.9926279110356805
 20
-6.936865941155968
 30
0.0
 10
0.7962183592828859
 20
-7.155503078012374
 30
0.0
 10
0.7465810852406087
 20
-7.341118941747729
 30
0.0
 10
0.721786499024006
 20
-7.433836936951001
 30
0.0
 11
1.539070129395
 21
-6.772215843201001
 31
0.0
 11
1.253768920899005
 21
-6.812865257264
 31
0.0
 11
1.001976013184005
 21
-6.949584007264
 31
0.0
 11
0.8163833618160083
 21
-7.165709495545002
 31
0.0
 11
0.721786499024006
 21
-7.433836936951001
 31
0.0
  0
SPLINE
  5
38F7
330
38CE
100
AcDbEntity
  8
AM_0
100
AcDbSpline
210
0.0
220
0.0
230
1.0
 70
     8
 71
     3
 72
    11
 73
     7
 74
     5
 42
0.0000000001
 43
0.0000000001
 44
0.0000000001
 40
0.0
 40
0.0
 40
0.0
 40
0.0
 40
2.224824739652697
 40
4.443875289477995
 40
6.664041339939295
 40
8.888903414285648
 40
8.888903414285648
 40
8.888903414285648
 40
8.888903414285648
 10
1.539070129395
 20
-6.772215843201001
 30
0.0
 10
2.280364662984244
 20
-6.794478760142343
 30
0.0
 10
3.761029814413925
 20
-6.838946814054211
 30
0.0
 10
5.982310398184595
 20
-6.861896605388362
 30
0.0
 10
8.203573495701117
 20
-6.88969897854204
 30
0.0
 10
9.684462793368943
 20
-6.939309450264049
 30
0.0
 10
10.425689697266
 20
-6.964140892029002
 30
0.0
 11
1.539070129395
 21
-6.772215843201001
 31
0.0
 11
3.763099670409999
 21
-6.831694602967001
 31
0.0
 11
5.98193359375
 21
-6.862700462342001
 31
0.0
 11
8.20182800293
 21
-6.897429466248
 31
0.0
 11
10.425689697266
 21
-6.964140892029002
 31
0.0
  0
SPLINE
  5
38F8
330
38CE
100
AcDbEntity
  8
AM_0
100
AcDbSpline
210
0.0
220
0.0
230
1.0
 70
     8
 71
     3
 72
    11
 73
     7
 74
     5
 42
0.0000000001
 43
0.0000000001
 44
0.0000000001
 40
0.0
 40
0.0
 40
0.0
 40
0.0
 40
0.1142315205157595
 40
0.2282960119563351
 40
0.3425116675353674
 40
0.4571728985448239
 40
0.4571728985448239
 40
0.4571728985448239
 40
0.4571728985448239
 10
10.783203125
 20
-7.378569602967001
 30
0.0
 10
10.78396655413091
 20
-7.340213519584354
 30
0.0
 10
10.78549229610834
 20
-7.263557436998858
 30
0.0
 10
10.7460315791097
 20
-7.154138571445533
 30
0.0
 10
10.67741029019413
 20
-7.059377948075291
 30
0.0
 10
10.61111053276126
 20
-7.020183658874398
 30
0.0
 10
10.577896118164
 20
-7.000548362732001
 30
0.0
 11
10.783203125
 21
-7.378569602967001
 31
0.0
 11
10.778526306152
 21
-7.264433860779002
 31
0.0
 11
10.7412109375
 21
-7.156645774842001
 31
0.0
 11
10.67239379882801
 21
-7.065489768982001
 31
0.0
 11
10.577896118164
 21
-7.000548362732001
 31
0.0
  0
SPLINE
  5
38F9
330
38CE
100
AcDbEntity
  8
AM_0
100
AcDbSpline
210
0.0
220
0.0
230
1.0
 70
     8
 71
     3
 72
    11
 73
     7
 74
     5
 42
0.0000000001
 43
0.0000000001
 44
0.0000000001
 40
0.0
 40
0.0
 40
0.0
 40
0.0
 40
1.054468899276429
 40
2.109036291837269
 40
3.16367081039331
 40
4.218372474569412
 40
4.218372474569412
 40
4.218372474569412
 40
4.218372474569412
 10
9.925933837891008
 20
-12.6552114486693
 30
0.0
 10
9.988286092871996
 20
-12.30929648963148
 30
0.0
 10
10.11299642688282
 20
-11.61743426116673
 30
0.0
 10
10.29989006148648
 20
-10.57957053646371
 30
0.0
 10
10.48667519478644
 20
-9.541608444389488
 30
0.0
 10
10.6110813701975
 20
-8.849589893020594
 30
0.0
 10
10.67328643798801
 20
-8.503569602967001
 30
0.0
 11
9.925933837891008
 21
-12.6552114486693
 31
0.0
 11
10.11296081543
 21
-11.6174612045287
 31
0.0
 11
10.299865722656
 21
-10.579588890076
 31
0.0
 11
10.486640930176
 21
-9.541625022889
 31
0.0
 11
10.67328643798801
 21
-8.503569602967001
 31
0.0
  0
SPLINE
  5
38FA
330
38CE
100
AcDbEntity
  8
AM_0
100
AcDbSpline
210
0.0
220
0.0
230
1.0
 70
     8
 71
     3
 72
    11
 73
     7
 74
     5
 42
0.0000000001
 43
0.0000000001
 44
0.0000000001
 40
0.0
 40
0.0
 40
0.0
 40
0.0
 40
0.2876807661067863
 40
0.5764620685639754
 40
0.8646007847791615
 40
1.150990251659131
 40
1.150990251659131
 40
1.150990251659131
 40
1.150990251659131
 10
9.094467163086008
 20
-13.3162221908568
 30
0.0
 10
9.191219836868866
 20
-13.3095925920837
 30
0.0
 10
9.385095316355243
 20
-13.29630803269447
 30
0.0
 10
9.642947481431198
 20
-13.15117219738582
 30
0.0
 10
9.843980528149238
 20
-12.93387591833886
 30
0.0
 10
9.898671573391409
 20
-12.74791087109299
 30
0.0
 10
9.925933837891008
 20
-12.6552114486693
 30
0.0
 11
9.094467163086008
 21
-13.3162221908568
 31
0.0
 11
9.379257202149005
 21
-13.2755422592162
 31
0.0
 11
9.633689880371008
 21
-13.1389455795287
 31
0.0
 11
9.824493408203011
 21
-12.9230337142943
 31
0.0
 11
9.925933837891008
 21
-12.6552114486693
 31
0.0
  0
SPLINE
  5
38FB
330
38CE
100
AcDbEntity
  8
AM_0
100
AcDbSpline
210
0.0
220
0.0
230
1.0
 70
     8
 71
     3
 72
    11
 73
     7
 74
     5
 42
0.0000000001
 43
0.0000000001
 44
0.0000000001
 40
0.0
 40
0.0
 40
0.0
 40
0.0
 40
2.200365979983966
 40
4.370332901947003
 40
6.536348570602717
 40
8.730821472927907
 40
8.730821472927907
 40
8.730821472927907
 40
8.730821472927907
 10
0.3658294677740059
 20
-13.131194114685
 30
0.0
 10
1.098897217247653
 20
-13.15574942806719
 30
0.0
 10
2.554905051409982
 20
-13.20452081199515
 30
0.0
 10
4.733618356130631
 20
-13.23012979957892
 30
0.0
 10
6.91039248061631
 20
-13.25086503088138
 30
0.0
 10
8.363281674528607
 20
-13.29434189192246
 30
0.0
 10
9.094467163086008
 20
-13.3162221908568
 30
0.0
 11
0.3658294677740059
 21
-13.131194114685
 31
0.0
 11
2.565216064453011
 21
-13.1968374252318
 31
0.0
 11
4.734939575194999
 21
-13.229338645935
 31
0.0
 11
6.900764465332002
 21
-13.2580862045287
 31
0.0
 11
9.094467163086008
 21
-13.3162221908568
 31
0.0
  0
SPLINE
  5
38FC
330
38CE
100
AcDbEntity
  8
AM_0
100
AcDbSpline
210
0.0
220
0.0
230
1.0
 70
     8
 71
     3
 72
    11
 73
     7
 74
     5
 42
0.0000000001
 43
0.0000000001
 44
0.0000000001
 40
0.0
 40
0.0
 40
0.0
 40
0.0
 40
0.2161021799085359
 40
0.432211784524641
 40
0.648274646166478
 40
0.8643539400014418
 40
0.8643539400014418
 40
0.8643539400014418
 40
0.8643539400014418
 10
6.25415802002
 20
-8.541563987732001
 30
0.0
 10
6.190806979376533
 20
-8.507065754506315
 30
0.0
 10
6.064102721512988
 20
-8.438068102785585
 30
0.0
 10
5.859852378896231
 20
-8.365396780078715
 30
0.0
 10
5.649081156743958
 20
-8.314662513285107
 30
0.0
 10
5.505277206667688
 20
-8.303312305478145
 30
0.0
 10
5.433372497559005
 20
-8.297636985779002
 30
0.0
 11
6.25415802002
 21
-8.541563987732001
 31
0.0
 11
6.061737060547002
 21
-8.443205833435001
 31
0.0
 11
5.858749389649005
 21
-8.369048118592001
 31
0.0
 11
5.648262023926008
 21
-8.320281028748
 31
0.0
 11
5.433372497559005
 21
-8.297636985779002
 31
0.0
  0
SPLINE
  5
38FD
330
38CE
100
AcDbEntity
  8
AM_0
100
AcDbSpline
210
0.0
220
0.0
230
1.0
 70
     8
 71
     3
 72
    11
 73
     7
 74
     5
 42
0.0000000001
 43
0.0000000001
 44
0.0000000001
 40
0.0
 40
0.0
 40
0.0
 40
0.0
 40
0.1144717325051112
 40
0.2294963709506362
 40
0.3449241878075941
 40
0.4605205282050857
 40
0.4605205282050857
 40
0.4605205282050857
 40
0.4605205282050857
 10
0.0
 20
-12.7164297103881
 30
0.0
 10
0.0002061972043822
 20
-12.75486747895054
 30
0.0
 10
0.0006195875591038
 20
-12.8319286730067
 30
0.0
 10
0.0426708138682909
 20
-12.94118817109914
 30
0.0
 10
0.1130713561617029
 20
-13.03577556539246
 30
0.0
 10
0.1800895208833859
 20
-13.07510672091307
 30
0.0
 10
0.213623046875
 20
-13.0947866439818
 30
0.0
 11
0.0
 21
-12.7164297103881
 31
0.0
 11
0.0074768066410087
 21
-12.83065700531
 31
0.0
 11
0.0473022460940058
 21
-12.93856716156
 31
0.0
 11
0.1180343627930114
 21
-13.0297842025756
 31
0.0
 11
0.213623046875
 21
-13.0947866439818
 31
0.0
  0
SPLINE
  5
38FE
330
38CE
100
AcDbEntity
  8
AM_0
100
AcDbSpline
210
0.0
220
0.0
230
1.0
 70
     8
 71
     3
 72
    11
 73
     7
 74
     5
 42
0.0000000001
 43
0.0000000001
 44
0.0000000001
 40
0.0
 40
0.0
 40
0.0
 40
0.0
 40
1.129125746613403
 40
2.268748797895088
 40
3.40445843013218
 40
4.541969534018146
 40
4.541969534018146
 40
4.541969534018146
 40
4.541969534018146
 10
5.280693054199005
 20
-11.7943105697631
 30
0.0
 10
5.666553046131849
 20
-11.73294667585916
 30
0.0
 10
6.441860309719719
 20
-11.60964839757059
 30
0.0
 10
7.147258105312721
 20
-10.58383335729456
 30
0.0
 10
7.131510973514356
 20
-9.333893459600343
 30
0.0
 10
6.546763470533616
 20
-8.805813308541683
 30
0.0
 10
6.25415802002
 20
-8.541563987732001
 30
0.0
 11
5.280693054199005
 21
-11.7943105697631
 31
0.0
 11
6.362670898438011
 21
-11.4714345932006
 31
0.0
 11
7.027168273926008
 21
-10.545592308045
 31
0.0
 11
6.988182067871008
 21
-9.410552024842001
 31
0.0
 11
6.25415802002
 21
-8.541563987732001
 31
0.0
  0
SPLINE
  5
38FF
330
38CE
100
AcDbEntity
  8
AM_0
100
AcDbSpline
210
0.0
220
0.0
230
1.0
 70
     8
 71
     3
 72
    11
 73
     7
 74
     5
 42
0.0000000001
 43
0.0000000001
 44
0.0000000001
 40
0.0
 40
0.0
 40
0.0
 40
0.0
 40
1.341272168937374
 40
2.677353196967353
 40
4.018647096193132
 40
5.347254925632766
 40
5.347254925632766
 40
5.347254925632766
 40
5.347254925632766
 10
5.433372497559005
 20
-8.297636985779002
 30
0.0
 10
4.970367204715611
 20
-8.387459194436297
 30
0.0
 10
4.046148593671766
 20
-8.56675597183667
 30
0.0
 10
3.427360723333471
 20
-9.965491568275208
 30
0.0
 10
3.935466845049345
 20
-11.39909387269878
 30
0.0
 10
4.833706984046743
 20
-11.66298963869753
 30
0.0
 10
5.280693054199005
 20
-11.7943105697631
 30
0.0
 11
5.433372497559005
 21
-8.297636985779002
 31
0.0
 11
4.172843933106008
 21
-8.755980491639
 31
0.0
 11
3.615394592284999
 21
-9.970213890076001
 31
0.0
 11
4.078308105469005
 21
-11.22909450531
 31
0.0
 11
5.280693054199005
 21
-11.7943105697631
 31
0.0
  0
SPLINE
  5
3900
330
38CE
100
AcDbEntity
  8
AM_0
100
AcDbSpline
210
0.0
220
0.0
230
1.0
 70
     8
 71
     3
 72
    11
 73
     7
 74
     5
 42
0.0000000001
 43
0.0000000001
 44
0.0000000001
 40
0.0
 40
0.0
 40
0.0
 40
0.0
 40
0.0391503092163703
 40
0.0782970381175054
 40
0.1174441357699575
 40
0.1565859077426988
 40
0.1565859077426988
 40
0.1565859077426988
 40
0.1565859077426988
 10
10.577896118164
 20
-7.000548362732001
 30
0.0
 10
10.56587976267815
 20
-6.995427673555216
 30
0.0
 10
10.54184815060811
 20
-6.985186763491215
 30
0.0
 10
10.50410868224605
 20
-6.974473094133673
 30
0.0
 10
10.46561444249461
 20
-6.966952226313892
 30
0.0
 10
10.43956193012135
 20
-6.965098306471039
 30
0.0
 10
10.426536560059
 20
-6.964171409607001
 30
0.0
 11
10.577896118164
 21
-7.000548362732001
 31
0.0
 11
10.541564941406
 21
-6.985960960389
 31
0.0
 11
10.503982543945
 21
-6.975005149842001
 31
0.0
 11
10.465515136719
 21
-6.967741966248
 31
0.0
 11
10.426536560059
 21
-6.964171409607001
 31
0.0
  0
SPLINE
  5
3901
330
38CE
100
AcDbEntity
  8
AM_0
100
AcDbSpline
210
0.0
220
0.0
230
1.0
 70
     8
 71
     3
 72
    11
 73
     7
 74
     5
 42
0.0000000001
 43
0.0000000001
 44
0.0000000001
 40
0.0
 40
0.0
 40
0.0
 40
0.0
 40
0.7721557469814421
 40
1.548546938662334
 40
2.328352874561281
 40
3.10693564738564
 40
3.10693564738564
 40
3.10693564738564
 40
3.10693564738564
 10
5.096260070801008
 20
-11.4356985092162
 30
0.0
 10
4.838520981688176
 20
-11.37539738651832
 30
0.0
 10
4.321629047671547
 20
-11.25446437615514
 30
0.0
 10
3.826073516776496
 20
-10.58723776613806
 30
0.0
 10
3.724901241617059
 20
-9.760578919668322
 30
0.0
 10
4.015808571443297
 20
-9.312714322842854
 30
0.0
 10
4.161148071289005
 20
-9.088957786560001
 30
0.0
 11
5.096260070801008
 21
-11.4356985092162
 31
0.0
 11
4.369613647461008
 21
-11.1745290756225
 31
0.0
 11
3.892456054688011
 21
-10.562071800232
 31
0.0
 11
3.814598083496008
 21
-9.786162376404002
 31
0.0
 11
4.161148071289005
 21
-9.088957786560001
 31
0.0
  0
SPLINE
  5
3902
330
38CE
100
AcDbEntity
  8
AM_0
100
AcDbSpline
210
0.0
220
0.0
230
1.0
 70
     8
 71
     3
 72
    11
 73
     7
 74
     5
 42
0.0000000001
 43
0.0000000001
 44
0.0000000001
 40
0.0
 40
0.0
 40
0.0
 40
0.0
 40
0.023615628341547
 40
0.047222040252453
 40
0.0708360713533758
 40
0.0944440810203569
 40
0.0944440810203569
 40
0.0944440810203569
 40
0.0944440810203569
 10
16.997848510742
 20
12.99505615234299
 30
0.0
 10
17.00570919972729
 20
12.99547571562653
 30
0.0
 10
17.0214275099203
 20
12.99631467845136
 30
0.0
 10
17.04500832586562
 20
12.9975283768868
 30
0.0
 10
17.06858665871059
 20
12.99874092347689
 30
0.0
 10
17.08430494495857
 20
12.99958034350467
 30
0.0
 10
17.09216308593801
 20
13.0
 30
0.0
 11
16.997848510742
 21
12.99505615234299
 31
0.0
 11
17.02143096923801
 21
12.99630737304699
 31
0.0
 11
17.04500579834
 21
12.99752807617199
 31
0.0
 11
17.06858825683601
 21
12.99874877929699
 31
0.0
 11
17.09216308593801
 21
13.0
 31
0.0
  0
SPLINE
  5
3903
330
38CE
100
AcDbEntity
  8
AM_0
100
AcDbSpline
210
0.0
220
0.0
230
1.0
 70
     8
 71
     3
 72
    11
 73
     7
 74
     5
 42
0.0000000001
 43
0.0000000001
 44
0.0000000001
 40
0.0
 40
0.0
 40
0.0
 40
0.0
 40
0.0236156283415047
 40
0.0472220402524107
 40
0.0708360713533334
 40
0.0944440810203197
 40
0.0944440810203197
 40
0.0944440810203197
 40
0.0944440810203197
 10
16.997848510742
 20
-12.9950551986693
 30
0.0
 10
17.00570919972729
 20
-12.9954747619525
 30
0.0
 10
17.02142750992033
 20
-12.99631372477666
 30
0.0
 10
17.04500832586561
 20
-12.99752742321238
 30
0.0
 10
17.06858665871059
 20
-12.99873996980235
 30
0.0
 10
17.08430494495857
 20
-12.99957938983023
 30
0.0
 10
17.09216308593801
 20
-12.9999990463256
 30
0.0
 11
16.997848510742
 21
-12.9950551986693
 31
0.0
 11
17.02143096923801
 21
-12.9963064193725
 31
0.0
 11
17.04500579834
 21
-12.9975271224975
 31
0.0
 11
17.06858825683601
 21
-12.9987478256225
 31
0.0
 11
17.09216308593801
 21
-12.9999990463256
 31
0.0
  0
ELLIPSE
  5
3904
330
38CE
100
AcDbEntity
  8
AM_0
100
AcDbEllipse
 10
10.740043640137
 20
-3.470428466797002
 30
0.0
 11
-0.0348968484979935
 21
-0.799224868284
 31
0.0
210
0.0
220
0.0
230
0.9999999999999998
 40
0.0784589872819
 41
3.141593767838264
 42
4.712378206618002
  0
ELLIPSE
  5
3905
330
38CE
100
AcDbEntity
  8
AM_0
100
AcDbEllipse
 10
20.189140319824
 20
-6.457732200623
 30
0.0
 11
-0.4307403791350027
 21
-0.674133286291001
 31
0.0
210
0.0
220
0.0
230
1.0
 40
0.0679478525781
 41
3.170233300408746
 42
4.752303433211009
  0
ELLIPSE
  5
3906
330
38CE
100
AcDbEntity
  8
AM_0
100
AcDbEllipse
 10
5.424781799316008
 20
-6.512816429139
 30
0.0
 11
1.499397302936003
 21
-0.0425720226599999
 31
0.0
210
0.0
220
0.0
230
1.0
 40
0.1902212323446
 41
3.165607426296632
 42
6.145702349734166
  0
ELLIPSE
  5
3907
330
38CE
100
AcDbEntity
  8
AM_0
100
AcDbEllipse
 10
4.222434997559005
 20
-0.0281982421880009
 30
0.0
 11
0.5415038583529963
 21
-12.325347832873
 31
0.0
210
0.0
220
0.0
230
1.0
 40
0.0786266426448
 41
3.510445006475935
 42
3.777498662700774
  0
ELLIPSE
  5
3908
330
38CE
100
AcDbEntity
  8
AM_0
100
AcDbEllipse
 10
7.234649658203011
 20
-0.028564453125
 30
0.0
 11
0.548439603476993
 21
-12.483214614097
 31
0.0
210
0.0
220
0.0
230
1.0
 40
0.0786260861322
 41
3.5262797778377
 42
3.776871565526783
  0
ELLIPSE
  5
3909
330
38CE
100
AcDbEntity
  8
AM_0
100
AcDbEllipse
 10
90.17085266113239
 20
-0.0387268066410016
 30
0.0
 11
214.0502698070615
 21
-0.058165552628001
 31
0.0
210
0.0
220
0.0
230
1.0
 40
0.058613344462
 41
1.973147832567408
 42
1.988371395653252
  0
ELLIPSE
  5
390A
330
38CE
100
AcDbEntity
  8
AM_0
100
AcDbEllipse
 10
170.5184478759759
 20
-0.0481567382819996
 30
0.0
 11
267.6041161697579
 21
-0.0724477790160023
 31
0.0
210
0.0
220
0.0
230
1.0
 40
0.0586130316716
 41
2.21691613219904
 42
2.256152391616698
  0
ELLIPSE
  5
390B
330
38CE
100
AcDbEntity
  8
AM_0
100
AcDbEllipse
 10
11.17825317382801
 20
-0.0877380371100003
 30
0.0
 11
1.684417469284994
 21
-12.6892695748503
 31
0.0
210
0.0
220
0.0
230
1.0
 40
0.0777174018319
 41
3.191251745673265
 42
3.245139526885657
  0
ELLIPSE
  5
390C
330
38CE
100
AcDbEntity
  8
AM_0
100
AcDbEllipse
 10
11.384201049805
 20
-0.088745117188001
 30
0.0
 11
1.83238256308401
 21
-12.689543963557
 31
0.0
210
0.0
220
0.0
230
1.0
 40
0.2741917356053
 41
3.116581351626232
 42
3.171666056124181
  0
ELLIPSE
  5
390D
330
38CE
100
AcDbEntity
  8
AM_0
100
AcDbEllipse
 10
31.819240570068
 20
0.0
 30
0.0
 11
0.5711214606940019
 21
-12.9999079419992
 31
0.0
210
0.0
220
0.0
230
1.0
 40
0.0786261116168
 41
3.13840985285942
 42
3.212851153457167
  0
ELLIPSE
  5
390E
330
38CE
100
AcDbEntity
  8
AM_0
100
AcDbEllipse
 10
31.819240570068
 20
0.0
 30
0.0
 11
-0.5711210474719977
 21
-12.9999079601532
 31
0.0
210
0.0
220
0.0
230
0.9999999999999998
 40
0.078626120778
 41
6.212064691366631
 42
6.286210436024337
  0
ELLIPSE
  5
390F
330
38CE
100
AcDbEntity
  8
AM_0
100
AcDbEllipse
 10
17.56522369384801
 20
0.0
 30
0.0
 11
-165.3389983919839
 21
-0.0450030600310001
 31
0.0
210
0.0
220
0.0
230
1.0
 40
0.0786257872965
 41
1.567913763996031
 42
1.647896423044128
  0
ELLIPSE
  5
3910
330
38CE
100
AcDbEntity
  8
AM_0
100
AcDbEllipse
 10
31.819240570068
 20
0.0
 30
0.0
 11
-0.5711210474719977
 21
-12.9999079601532
 31
0.0
210
0.0
220
0.0
230
0.9999999999999998
 40
0.078626120778
 41
0.003025129030438
 42
0.2558730272192311
  0
ELLIPSE
  5
3911
330
38CE
100
AcDbEntity
  8
AM_0
100
AcDbEllipse
 10
11.47375488281301
 20
0.0
 30
0.0
 11
20.48650185679099
 21
-12.9928592229152
 31
0.0
210
0.0
220
0.0
230
1.0
 40
0.0210265384607
 41
0.2200427546624228
 42
0.3272037884117667
  0
ELLIPSE
  5
3912
330
38CE
100
AcDbEntity
  8
AM_0
100
AcDbEllipse
 10
8.939994812012002
 20
0.0
 30
0.0
 11
22.524655631382
 21
-11.734831646308
 31
0.0
210
0.0
220
0.0
230
0.9999999999999998
 40
0.2483552430247
 41
6.226441756346377
 42
7.381388915206278
  0
ELLIPSE
  5
3913
330
38CE
100
AcDbEntity
  8
AM_0
100
AcDbEllipse
 10
17.56522369384801
 20
0.0
 30
0.0
 11
165.3389984143219
 21
-0.0449209231860017
 31
0.0
210
0.0
220
0.0
230
1.0
 40
0.0786257815285
 41
1.493696899688037
 42
1.573678868108832
  0
ELLIPSE
  5
3914
330
38CE
100
AcDbEntity
  8
AM_0
100
AcDbEllipse
 10
6.746223449707002
 20
-22.6889944076537
 30
0.0
 11
-20.60072934744299
 21
-9.618043882372296
 31
0.0
210
0.0
220
0.0
230
1.0
 40
0.8543091754538998
 41
3.643194793586635
 42
3.645893576499986
  0
ELLIPSE
  5
3915
330
38CE
100
AcDbEntity
  8
AM_0
100
AcDbEllipse
 10
37.707633972168
 20
-16.350432395935
 30
0.0
 11
11.49542836077699
 21
-7.1842955467069
 31
0.0
210
0.0
220
0.0
230
1.0
 40
0.002354876647
 41
3.615401697594818
 42
4.090624013500315
  0
ELLIPSE
  5
3916
330
38CE
100
AcDbEntity
  8
AM_0
100
AcDbEllipse
 10
31.205059051514
 20
-13.4963979721068
 30
0.0
 11
-0.0402908489770013
 21
-0.9228821061012
 31
0.0
210
0.0
220
0.0
230
1.0
 40
0.067946262071
 41
3.141593940236092
 42
4.108523264292212
  0
ELLIPSE
  5
3917
330
38CE
100
AcDbEntity
  8
AM_0
100
AcDbEllipse
 10
5.437164306641008
 20
-6.076690673828
 30
0.0
 11
-0.3429032009390056
 21
-7.853789698200099
 31
0.0
210
0.0
220
0.0
230
1.0
 40
0.1902201933705
 41
1.477539343567267
 42
1.513178538553655
  0
ELLIPSE
  5
3918
330
38CE
100
AcDbEntity
  8
AM_0
100
AcDbEllipse
 10
5.437171936034999
 20
-6.076690673828
 30
0.0
 11
-0.3429035958459963
 21
-7.8538202276098
 31
0.0
210
0.0
220
0.0
230
1.0
 40
0.1902213959358
 41
4.792315996840225
 42
4.817358634609448
  0
ELLIPSE
  5
3919
330
38CE
100
AcDbEntity
  8
AM_0
100
AcDbEllipse
 10
5.437133789063011
 20
-6.076690673828
 30
0.0
 11
-0.3429029524080103
 21
-7.853698069095401
 31
0.0
210
0.0
220
0.0
230
1.0
 40
0.190219497164
 41
4.77001393728512
 42
4.792315043252052
  0
ELLIPSE
  5
391A
330
38CE
100
AcDbEntity
  8
AM_0
100
AcDbEllipse
 10
216.254005432124
 20
0.0536193847649997
 30
0.0
 11
-298.08876468923
 21
-0.0807804182140011
 31
0.0
210
0.0
220
0.0
230
1.0
 40
0.0586130533541
 41
0.8063254244366417
 42
0.8386676253391335
  0
LWPOLYLINE
  5
391B
330
38CE
100
AcDbEntity
  8
AM_11
100
AcDbPolyline
 90
        4
 70
     1
 43
0.0
 10
0.0
 20
13.5
 10
9.0
 20
13.5
 10
9.0
 20
-13.4999990463256
 10
0.0
 20
-13.4999990463256
1001
GENIUS_GENREC_14
1002
{
1000
PYDIR
1011
0.0
1021
-13.4999990463256
1031
0.0
1002
}
1002
{
1000
PXDIR
1011
9.0
1021
13.5
1031
0.0
1002
}
1002
{
1000
PORI
1011
0.0
1021
13.5
1031
0.0
1002
}
1002
{
1000
PINS
1011
0.0
1021
13.5
1031
0.0
1002
}
1002
{
1000
PINS2
1011
9.0
1021
-13.4999990463256
1031
0.0
1002
}
1002
{
1000
C
1070
     1
1002
}
1001
GENIUS_GENODEF_13
1002
{
1000
HIER
1070
     0
1002
}
1002
{
1000
MANEDIT
1070
     0
1002
}
1002
{
1000
NOSEL
1070
     0
1002
}
1002
{
1000
BEHIND
1070
     0
1002
}
1002
{
1000
REACTOR
1002
}
1001
GENIUS_GENOBJ-N-REC_13
1002
{
1000
OWNER
1000
GEN
1002
}
  0
ARC
  5
391C
330
38CE
100
AcDbEntity
  8
AM_0
100
AcDbCircle
 10
1.034568786621008
 20
12.075439453125
 30
0.0
 40
0.2286105901003
100
AcDbArc
 50
92.50003615581112
 51
123.052401219004
  0
LINE
  5
391D
330
38CE
100
AcDbEntity
  8
AM_0
100
AcDbLine
 10
0.9478988647460084
 20
9.069355010985997
 30
0.0
 11
0.8163909912110085
 21
12.081409454345
 31
0.0
  0
LINE
  5
391E
330
38CE
100
AcDbEntity
  8
AM_0
100
AcDbLine
 10
0.9081649780270026
 20
7.944494247435997
 30
0.0
 11
0.9758377075200002
 21
7.947454452513998
 31
0.0
  0
LINE
  5
391F
330
38CE
100
AcDbEntity
  8
AM_0
100
AcDbLine
 10
0.7556457519530114
 20
9.060985565184999
 30
0.0
 11
0.9478988647460084
 21
9.06937789917
 31
0.0
  0
LINE
  5
3920
330
38CE
100
AcDbEntity
  8
AM_0
100
AcDbLine
 10
0.0814743041990056
 20
11.59018707275399
 30
0.0
 11
-0.0000076293939912
 21
12.71642303466799
 31
0.0
  0
LINE
  5
3921
330
38CE
100
AcDbEntity
  8
AM_0
100
AcDbLine
 10
0.7986068725590059
 20
12.461719512939
 30
0.0
 11
0.9099807739260086
 21
12.26691055297799
 31
0.0
  0
LINE
  5
3922
330
38CE
100
AcDbEntity
  8
AM_0
100
AcDbLine
 10
0.0814819335940058
 20
-11.590178489685
 30
0.0
 11
0.0
 21
-12.7164163589477
 31
0.0
  0
LINE
  5
3923
330
38CE
100
AcDbEntity
  8
AM_0
100
AcDbLine
 10
0.3658294677740059
 20
-13.1311945915221
 30
0.0
 11
0.2136154174810088
 21
-13.0947847366332
 31
0.0
  0
LINE
  5
3924
330
38CE
100
AcDbEntity
  8
AM_0
100
AcDbLine
 10
0.7556381225590059
 20
9.060968399046998
 30
0.0
 11
0.9081726074220028
 21
7.944477081298
 31
0.0
  0
LINE
  5
3925
330
38CE
100
AcDbEntity
  8
AM_0
100
AcDbLine
 10
0.9081802368160083
 20
7.944477081298
 30
0.0
 11
0.9126205444340058
 21
7.911479949950997
 31
0.0
  0
ARC
  5
3926
330
38CE
100
AcDbEntity
  8
AM_0
100
AcDbCircle
 10
1.019096374512002
 20
12.09027099609299
 30
0.0
 40
0.2029392719269
100
AcDbArc
 50
168.569300942345
 51
182.4998542451832
  0
ARC
  5
3927
330
38CE
100
AcDbEntity
  8
AM_0
100
AcDbCircle
 10
1.048851013184005
 20
12.08425903320299
 30
0.0
 40
0.2334033995867
100
AcDbArc
 50
155.6751742045477
 51
168.569464866888
  0
ARC
  5
3928
330
38CE
100
AcDbEntity
  8
AM_0
100
AcDbCircle
 10
1.020492553711008
 20
12.097076416015
 30
0.0
 40
0.2026137411594
100
AcDbArc
 50
123.0524968416547
 51
155.6752425064394
  0
LINE
  5
3929
330
38CE
100
AcDbEntity
  8
AM_0
100
AcDbLine
 10
0.6076965332030114
 20
12.108222961425
 30
0.0
 11
0.6095428466800002
 21
12.07238006591799
 31
0.0
  0
LINE
  5
392A
330
38CE
100
AcDbEntity
  8
AM_0
100
AcDbLine
 10
0.7347869873050002
 20
9.203535079955997
 30
0.0
 11
0.7556381225590059
 21
9.060977935790997
 31
0.0
  0
LINE
  5
392B
330
38CE
100
AcDbEntity
  8
AM_0
100
AcDbLine
 10
0.609535217285
 20
12.07239913940399
 30
0.0
 11
0.7347869873050002
 21
9.203517913817996
 31
0.0
  0
LINE
  5
392C
330
38CE
100
AcDbEntity
  8
AM_0
100
AcDbLine
 10
0.6352920532230116
 20
12.278800964355
 30
0.0
 11
0.8361740112310087
 21
12.18038177490199
 31
0.0
  0
LINE
  5
392D
330
38CE
100
AcDbEntity
  8
AM_0
100
AcDbLine
 10
0.6093902587890057
 20
12.17676162719699
 30
0.0
 11
0.8201828002930113
 21
12.13049316406199
 31
0.0
  0
LINE
  5
392E
330
38CE
100
AcDbEntity
  8
AM_0
100
AcDbLine
 10
0.6095428466800002
 20
12.07237625122
 30
0.0
 11
0.8163909912110085
 21
12.081409454345
 31
0.0
  0
LINE
  5
392F
330
38CE
100
AcDbEntity
  8
AM_0
100
AcDbLine
 10
8.514205932617002
 20
12.63082504272399
 30
0.0
 11
1.024597167969005
 21
12.303829193115
 31
0.0
  0
LINE
  5
3930
330
38CE
100
AcDbEntity
  8
AM_0
100
AcDbLine
 10
1.02897644043
 20
12.51260375976499
 30
0.0
 11
1.024597167969005
 21
12.303848266601
 31
0.0
  0
LINE
  5
3931
330
38CE
100
AcDbEntity
  8
AM_0
100
AcDbLine
 10
17.09216308593801
 20
13.0
 30
0.0
 11
17.09216308593801
 21
1.8447265625
 31
0.0
  0
LINE
  5
3932
330
38CE
100
AcDbEntity
  8
AM_0
100
AcDbLine
 10
34.499996185303
 20
13.0
 30
0.0
 11
34.499996185303
 21
-12.9999990463256
 31
0.0
  0
LINE
  5
3933
330
38CE
100
AcDbEntity
  8
AM_0
100
AcDbLine
 10
34.999996185303
 20
12.5
 30
0.0
 11
34.999996185303
 21
-12.4999990463256
 31
0.0
  0
LINE
  5
3934
330
38CE
100
AcDbEntity
  8
AM_0
100
AcDbLine
 10
37.999996185303
 20
12.5
 30
0.0
 11
37.999996185303
 21
-12.4999990463256
 31
0.0
  0
LINE
  5
3935
330
38CE
100
AcDbEntity
  8
AM_0
100
AcDbLine
 10
20.858421325684
 20
-5.793500900269
 30
0.0
 11
27.396987915039
 21
-9.923319816590002
 31
0.0
  0
LINE
  5
3936
330
38CE
100
AcDbEntity
  8
AM_0
100
AcDbLine
 10
31.245353698731
 20
-12.573516845703
 30
0.0
 11
20.617744445801
 21
-5.782958030701001
 31
0.0
  0
LINE
  5
3937
330
38CE
100
AcDbEntity
  8
AM_0
100
AcDbLine
 10
20.12641143798801
 20
-6.454983711243
 30
0.0
 11
30.303783416748
 21
-12.9578647613524
 31
0.0
  0
ARC
  5
3938
330
38CE
100
AcDbEntity
  8
AM_0
100
AcDbCircle
 10
9.902549743652002
 20
-22.6521291732787
 30
0.0
 40
19.984605789184
100
AcDbArc
 50
57.57653443891685
 51
85.77764786146842
  0
ARC
  5
3939
330
38CE
100
AcDbEntity
  8
AM_0
100
AcDbCircle
 10
9.83984375
 20
-22.6494131088256
 30
0.0
 40
19.185220718383
100
AcDbArc
 50
57.57653443891685
 51
87.49999617390022
  0
LINE
  5
393A
330
38CE
100
AcDbEntity
  8
AM_0
100
AcDbLine
 10
20.81212615966801
 20
-5.764353752137001
 30
0.0
 11
21.78816986084
 21
-0.3607387542730009
 31
0.0
  0
LINE
  5
393B
330
38CE
100
AcDbEntity
  8
AM_0
100
AcDbLine
 10
0.9758453369140056
 20
-6.972167015076001
 30
0.0
 11
0.9758453369140056
 21
-2.001190185547002
 31
0.0
  0
LINE
  5
393C
330
38CE
100
AcDbEntity
  8
AM_0
100
AcDbLine
 10
9.931427001953011
 20
-12.6247310638427
 30
0.0
 11
16.99784088134801
 21
-12.9950618743896
 31
0.0
  0
ARC
  5
393D
330
38CE
100
AcDbEntity
  8
AM_0
100
AcDbCircle
 10
5.515670776367002
 20
-9.829741477967001
 30
0.0
 40
1.4999996423721
100
AcDbArc
 50
87.50000300409027
 51
267.5000148432373
  0
ARC
  5
393E
330
38CE
100
AcDbEntity
  8
AM_0
100
AcDbCircle
 10
5.515670776367002
 20
-9.829741477967001
 30
0.0
 40
1.4999996423721
100
AcDbArc
 50
267.5000048253215
 51
87.50001666446946
  0
ARC
  5
393F
330
38CE
100
AcDbEntity
  8
AM_0
100
AcDbCircle
 10
5.462600708008011
 20
-9.827422142029002
 30
0.0
 40
1.4999996423721
100
AcDbArc
 50
87.50000300409027
 51
267.5000148432373
  0
ARC
  5
3940
330
38CE
100
AcDbEntity
  8
AM_0
100
AcDbCircle
 10
5.252944946289005
 20
-10.04144191742
 30
0.0
 40
1.749988794326799
100
AcDbArc
 50
270.1591204126167
 51
359.7594047722169
  0
LINE
  5
3941
330
38CE
100
AcDbEntity
  8
AM_0
100
AcDbLine
 10
3.925941467284999
 20
-6.463854789734002
 30
0.0
 11
6.908882141113011
 21
-6.594103813172001
 31
0.0
  0
ARC
  5
3942
330
38CE
100
AcDbEntity
  8
AM_0
100
AcDbCircle
 10
5.205276489258011
 20
-9.950102806092001
 30
0.0
 40
1.2461539506912
100
AcDbArc
 50
179.9999913485784
 51
236.4915024265123
  0
CIRCLE
  5
3943
330
38CE
100
AcDbEntity
  8
AM_0
100
AcDbCircle
 10
5.517471313477003
 20
-9.829833030701001
 30
0.0
 40
1.096614956855799
  0
ARC
  5
3944
330
38CE
100
AcDbEntity
  8
AM_0
100
AcDbCircle
 10
5.983436584473011
 20
-9.096251487732001
 30
0.0
 40
0.2243522107601
100
AcDbArc
 50
192.444626979563
 51
267.5000936177834
  0
ARC
  5
3945
330
38CE
100
AcDbEntity
  8
AM_0
100
AcDbCircle
 10
5.545272827149005
 20
-9.192931175232001
 30
0.0
 40
0.2243520021439
100
AcDbArc
 50
12.44438097906835
 51
87.50009179655135
  0
ARC
  5
3946
330
38CE
100
AcDbEntity
  8
AM_0
100
AcDbCircle
 10
5.117210388184005
 20
-9.058409690857001
 30
0.0
 40
0.2249533385038
100
AcDbArc
 50
252.4451887247288
 51
267.5000936177834
  0
ARC
  5
3947
330
38CE
100
AcDbEntity
  8
AM_0
100
AcDbCircle
 10
4.981506347656008
 20
-9.487364768982001
 30
0.0
 40
0.2249526828527
100
AcDbArc
 50
72.4448658846068
 51
87.50009179655135
  0
ARC
  5
3948
330
38CE
100
AcDbEntity
  8
AM_0
100
AcDbCircle
 10
4.651237487793011
 20
-9.792021751404002
 30
0.0
 40
0.2246546000242
100
AcDbArc
 50
312.3119504791466
 51
42.68794806724652
  0
ARC
  5
3949
330
38CE
100
AcDbEntity
  8
AM_0
100
AcDbCircle
 10
4.95369720459
 20
-10.124266624451
 30
0.0
 40
0.2246545404196
100
AcDbArc
 50
132.3123072428458
 51
267.4998509186943
  0
ARC
  5
394A
330
38CE
100
AcDbEntity
  8
AM_0
100
AcDbCircle
 10
5.051498413086008
 20
-10.56341457367
 30
0.0
 40
0.2243522107601
100
AcDbArc
 50
12.44462686587717
 51
87.50009179655135
  0
ARC
  5
394B
330
38CE
100
AcDbEntity
  8
AM_0
100
AcDbCircle
 10
5.489662170409999
 20
-10.46673488617
 30
0.0
 40
0.2243520021439
100
AcDbArc
 50
192.4443810927542
 51
267.5000936177834
  0
ARC
  5
394C
330
38CE
100
AcDbEntity
  8
AM_0
100
AcDbCircle
 10
5.91773223877
 20
-10.601225852967
 30
0.0
 40
0.2249536365271
100
AcDbArc
 50
72.44494101668265
 51
87.50009179655135
  0
ARC
  5
394D
330
38CE
100
AcDbEntity
  8
AM_0
100
AcDbCircle
 10
6.053428649902002
 20
-10.17230129242
 30
0.0
 40
0.2249523848295
100
AcDbArc
 50
252.4451067624575
 51
267.5000936177834
  0
ARC
  5
394E
330
38CE
100
AcDbEntity
  8
AM_0
100
AcDbCircle
 10
6.383697509766008
 20
-9.867644309998
 30
0.0
 40
0.2246552705765
100
AcDbArc
 50
132.3121296579233
 51
222.6879496611065
  0
ARC
  5
394F
330
38CE
100
AcDbEntity
  8
AM_0
100
AcDbCircle
 10
6.081237792969005
 20
-9.535399436951001
 30
0.0
 40
0.2246538549662
100
AcDbArc
 50
312.3121144036838
 51
87.50009862674094
  0
ARC
  5
3950
330
38CE
100
AcDbEntity
  8
AM_0
100
AcDbCircle
 10
4.95369720459
 20
-10.124266624451
 30
0.0
 40
0.2250001728535
100
AcDbArc
 50
267.4998409007846
 51
282.5548619070591
  0
ARC
  5
3951
330
38CE
100
AcDbEntity
  8
AM_0
100
AcDbCircle
 10
4.890991210938011
 20
-10.12152004242
 30
0.0
 40
0.2249862700701
100
AcDbArc
 50
275.6169401632661
 51
282.5551077938678
  0
ARC
  5
3952
330
38CE
100
AcDbEntity
  8
AM_0
100
AcDbCircle
 10
4.981506347656008
 20
-9.487364768982001
 30
0.0
 40
0.22500012815
100
AcDbArc
 50
87.50009179655135
 51
222.6879496611065
  0
ARC
  5
3953
330
38CE
100
AcDbEntity
  8
AM_0
100
AcDbCircle
 10
4.918800354004005
 20
-9.484648704529002
 30
0.0
 40
0.2249526828527
100
AcDbArc
 50
72.4448658846068
 51
79.73059452130906
  0
ARC
  5
3954
330
38CE
100
AcDbEntity
  8
AM_0
100
AcDbCircle
 10
5.051498413086008
 20
-10.56341457367
 30
0.0
 40
0.22500012815
100
AcDbArc
 50
87.50009179655135
 51
102.5551059726362
  0
ARC
  5
3955
330
38CE
100
AcDbEntity
  8
AM_0
100
AcDbCircle
 10
4.988792419434005
 20
-10.560667991639
 30
0.0
 40
0.2250001728535
100
AcDbArc
 50
87.49983907955313
 51
102.5548600858211
  0
ARC
  5
3956
330
38CE
100
AcDbEntity
  8
AM_0
100
AcDbCircle
 10
5.117210388184005
 20
-9.058409690857001
 30
0.0
 40
0.22500012815
100
AcDbArc
 50
267.5000936177834
 51
342.5554560956163
  0
ARC
  5
3957
330
38CE
100
AcDbEntity
  8
AM_0
100
AcDbCircle
 10
5.054504394531008
 20
-9.055693626404002
 30
0.0
 40
0.2249526828527
100
AcDbArc
 50
252.4448677058382
 51
267.5000867875938
  0
ARC
  5
3958
330
38CE
100
AcDbEntity
  8
AM_0
100
AcDbCircle
 10
5.489662170409999
 20
-10.46673488617
 30
0.0
 40
0.22500012815
100
AcDbArc
 50
267.5000936177834
 51
342.5554560956163
  0
ARC
  5
3959
330
38CE
100
AcDbEntity
  8
AM_0
100
AcDbCircle
 10
5.426956176758011
 20
-10.463988304139
 30
0.0
 40
0.2249867767096
100
AcDbArc
 50
275.2692698741345
 51
342.5554560956163
  0
ARC
  5
395A
330
38CE
100
AcDbEntity
  8
AM_0
100
AcDbCircle
 10
5.545272827149005
 20
-9.192931175232001
 30
0.0
 40
0.22500012815
100
AcDbArc
 50
87.50009179655135
 51
162.5554559819362
  0
ARC
  5
395B
330
38CE
100
AcDbEntity
  8
AM_0
100
AcDbCircle
 10
5.482566833496008
 20
-9.190215110779002
 30
0.0
 40
0.2243520021439
100
AcDbArc
 50
12.44438097906835
 51
79.19040852023089
  0
ARC
  5
395C
330
38CE
100
AcDbEntity
  8
AM_0
100
AcDbCircle
 10
5.91773223877
 20
-10.601225852967
 30
0.0
 40
0.22500012815
100
AcDbArc
 50
87.50009179655135
 51
162.5554559819362
  0
ARC
  5
395D
330
38CE
100
AcDbEntity
  8
AM_0
100
AcDbCircle
 10
5.855018615723011
 20
-10.598509788514
 30
0.0
 40
0.2250001728535
100
AcDbArc
 50
87.49983907955313
 51
162.5553740196647
  0
ARC
  5
395E
330
38CE
100
AcDbEntity
  8
AM_0
100
AcDbCircle
 10
5.983436584473011
 20
-9.096251487732001
 30
0.0
 40
0.22500012815
100
AcDbArc
 50
267.5000936177834
 51
282.5551077938678
  0
ARC
  5
395F
330
38CE
100
AcDbEntity
  8
AM_0
100
AcDbCircle
 10
5.920730590819999
 20
-9.093504905701001
 30
0.0
 40
0.2243522107601
100
AcDbArc
 50
192.444626979563
 51
267.5000936177834
  0
ARC
  5
3960
330
38CE
100
AcDbEntity
  8
AM_0
100
AcDbCircle
 10
6.053428649902002
 20
-10.17230129242
 30
0.0
 40
0.22500012815
100
AcDbArc
 50
267.5000936177834
 51
42.68778414270332
  0
ARC
  5
3961
330
38CE
100
AcDbEntity
  8
AM_0
100
AcDbCircle
 10
5.99072265625
 20
-10.169554710389
 30
0.0
 40
0.2249856591225
100
AcDbArc
 50
275.8298986313974
 51
42.68794806724652
  0
ARC
  5
3962
330
38CE
100
AcDbEntity
  8
AM_0
100
AcDbCircle
 10
6.081237792969005
 20
-9.535399436951001
 30
0.0
 40
0.22500012815
100
AcDbArc
 50
87.50009179655135
 51
102.5551059726362
  0
ARC
  5
3963
330
38CE
100
AcDbEntity
  8
AM_0
100
AcDbCircle
 10
6.018531799316008
 20
-9.532652854920002
 30
0.0
 40
0.2246545404196
100
AcDbArc
 50
312.31230564898
 51
79.52011541184629
  0
ARC
  5
3964
330
38CE
100
AcDbEntity
  8
AM_0
100
AcDbCircle
 10
6.320991516113011
 20
-9.864928245545002
 30
0.0
 40
0.2246546000242
100
AcDbArc
 50
132.3119520730063
 51
222.6879496611065
  0
ARC
  5
3965
330
38CE
100
AcDbEntity
  8
AM_0
100
AcDbCircle
 10
5.205276489258011
 20
-9.950102806092001
 30
0.0
 40
1.246157288551299
100
AcDbArc
 50
174.5514538250114
 51
180.0000050089577
  0
ARC
  5
3966
330
38CE
100
AcDbEntity
  8
AM_0
100
AcDbCircle
 10
5.252944946289005
 20
-10.04144191742
 30
0.0
 40
1.749842166900599
100
AcDbArc
 50
77.68547195927081
 51
84.94844923584709
  0
ARC
  5
3967
330
38CE
100
AcDbEntity
  8
AM_0
100
AcDbCircle
 10
5.183380126953011
 20
-10.03851222992
 30
0.0
 40
1.3999013900757
100
AcDbArc
 50
267.4999570139994
 51
268.6097739616705
  0
ARC
  5
3968
330
38CE
100
AcDbEntity
  8
AM_0
100
AcDbCircle
 10
5.183387756348011
 20
-10.038390159607
 30
0.0
 40
1.399998068809499
100
AcDbArc
 50
268.6097466409112
 51
294.8498512810524
  0
ARC
  5
3969
330
38CE
100
AcDbEntity
  8
AM_0
100
AcDbCircle
 10
5.121414184569999
 20
-10.035704612732
 30
0.0
 40
1.399997591972399
100
AcDbArc
 50
269.0544944087169
 51
293.2283233909558
  0
LINE
  5
396A
330
38CE
100
AcDbEntity
  8
AM_0
100
AcDbLine
 10
5.581092834473011
 20
-8.331184387207001
 30
0.0
 11
5.528022766113011
 21
-8.328865051270001
 31
0.0
  0
LINE
  5
396B
330
38CE
100
AcDbEntity
  8
AM_0
100
AcDbLine
 10
5.397171020508011
 20
-11.3260107040404
 30
0.0
 11
5.450241088867002
 21
-11.3283300399779
 31
0.0
  0
LINE
  5
396C
330
38CE
100
AcDbEntity
  8
AM_0
100
AcDbLine
 10
5.002593994141008
 20
-10.343847274781
 30
0.0
 11
4.939888000488011
 21
-10.341100692749
 31
0.0
  0
LINE
  5
396D
330
38CE
100
AcDbEntity
  8
AM_0
100
AcDbLine
 10
5.049346923828011
 20
-9.272877693177001
 30
0.0
 11
4.986640930176008
 21
-9.270161628724
 31
0.0
  0
LINE
  5
396E
330
38CE
100
AcDbEntity
  8
AM_0
100
AcDbLine
 10
5.061302185059005
 20
-10.338632583619
 30
0.0
 11
4.998603820801008
 21
-10.335916519165
 31
0.0
  0
LINE
  5
396F
330
38CE
100
AcDbEntity
  8
AM_0
100
AcDbLine
 10
5.04468536377
 20
-9.280495643616001
 30
0.0
 11
5.107383728027002
 21
-9.283210754395001
 31
0.0
  0
LINE
  5
3970
330
38CE
100
AcDbEntity
  8
AM_0
100
AcDbLine
 10
5.703689575194999
 20
-10.534009933472
 30
0.0
 11
5.640983581543011
 21
-10.531263351441
 31
0.0
  0
LINE
  5
3971
330
38CE
100
AcDbEntity
  8
AM_0
100
AcDbLine
 10
5.764350891113011
 20
-9.144586563111001
 30
0.0
 11
5.701644897461008
 21
-9.141839981079002
 31
0.0
  0
LINE
  5
3972
330
38CE
100
AcDbEntity
  8
AM_0
100
AcDbLine
 10
5.927536010742002
 20
-10.376479148865
 30
0.0
 11
5.86483001709
 21
-10.373732566834
 31
0.0
  0
LINE
  5
3973
330
38CE
100
AcDbEntity
  8
AM_0
100
AcDbLine
 10
5.910911560059005
 20
-9.318310737610001
 30
0.0
 11
5.973617553711008
 21
-9.321057319641001
 31
0.0
  0
LINE
  5
3974
330
38CE
100
AcDbEntity
  8
AM_0
100
AcDbLine
 10
6.218566894531008
 20
-10.019944190979
 30
0.0
 11
6.155853271484005
 21
-10.017228126526
 31
0.0
  0
LINE
  5
3975
330
38CE
100
AcDbEntity
  8
AM_0
100
AcDbLine
 10
6.232460021973011
 20
-9.701523780823
 30
0.0
 11
6.169754028319999
 21
-9.698776245118001
 31
0.0
  0
ARC
  5
3976
330
38CE
100
AcDbEntity
  8
AM_0
100
AcDbCircle
 10
9.813873291016008
 20
-7.982695579529002
 30
0.0
 40
1.999254822731
100
AcDbArc
 50
287.7977765856588
 51
87.4999893437158
  0
ARC
  5
3977
330
38CE
100
AcDbEntity
  8
AM_0
100
AcDbCircle
 10
9.653793334961008
 20
-7.975707054139
 30
0.0
 40
1.9988452196121
100
AcDbArc
 50
293.0970676456756
 51
84.29433567941384
  0
LINE
  5
3978
330
38CE
100
AcDbEntity
  8
AM_0
100
AcDbLine
 10
10.673278808594
 20
-8.503568649292001
 30
0.0
 11
10.783195495606
 21
-7.378554344178001
 31
0.0
  0
ARC
  5
3979
330
38CE
100
AcDbEntity
  8
AM_0
100
AcDbCircle
 10
9.813873291016008
 20
-7.982695579529002
 30
0.0
 40
1.9999995231628
100
AcDbArc
 50
87.4999893437158
 51
146.9958342601612
  0
LINE
  5
397A
330
38CE
100
AcDbEntity
  8
AM_0
100
AcDbLine
 10
10.425689697266
 20
-6.964139938355002
 30
0.0
 11
10.57788848876999
 21
-7.000545501709002
 31
0.0
  0
LINE
  5
397B
330
38CE
100
AcDbEntity
  8
AM_0
100
AcDbLine
 10
20.617744445801
 20
-5.782954216004
 30
0.0
 11
20.858421325684
 21
-5.793482780457001
 31
0.0
  0
LINE
  5
397C
330
38CE
100
AcDbEntity
  8
AM_0
100
AcDbLine
 10
1.16162109375
 20
12.14196777343699
 30
0.0
 11
1.16162109375
 21
2.112915039061999
 31
0.0
  0
LINE
  5
397D
330
38CE
100
AcDbEntity
  8
AM_0
100
AcDbLine
 10
0.9758453369140056
 20
11.932525634765
 30
0.0
 11
0.9758453369140056
 21
2.001190185546999
 31
0.0
  0
LINE
  5
397E
330
38CE
100
AcDbEntity
  8
AM_0
100
AcDbLine
 10
11.82958984375
 20
2.424148559569999
 30
0.0
 11
1.161613464356008
 21
2.112930297850997
 31
0.0
  0
LINE
  5
397F
330
38CE
100
AcDbEntity
  8
AM_0
100
AcDbLine
 10
1.467910766602003
 20
-2.264841079712002
 30
0.0
 11
10.908180236816
 21
-2.677011489869002
 31
0.0
  0
LINE
  5
3980
330
38CE
100
AcDbEntity
  8
AM_0
100
AcDbLine
 10
1.580101013184005
 20
-3.07048034668
 30
0.0
 11
10.67733001709
 21
-3.467666625977003
 31
0.0
  0
LINE
  5
3981
330
38CE
100
AcDbEntity
  8
AM_0
100
AcDbLine
 10
0.9758377075200002
 20
2.001190185546999
 30
0.0
 11
1.161613464356008
 21
2.112913131713998
 31
0.0
  0
LINE
  5
3982
330
38CE
100
AcDbEntity
  8
AM_0
100
AcDbLine
 10
10.908180236816
 20
-2.677000045777003
 30
0.0
 11
11.82958984375
 21
2.424137115477996
 31
0.0
  0
ARC
  5
3983
330
38CE
100
AcDbEntity
  8
AM_0
100
AcDbCircle
 10
9.902549743652002
 20
-22.6521291732787
 30
0.0
 40
19.99993324279699
100
AcDbArc
 50
85.77764786146842
 51
87.49999617390022
  0
LINE
  5
3984
330
38CE
100
AcDbEntity
  8
AM_0
100
AcDbLine
 10
10.908180236816
 20
-2.676984786988001
 30
0.0
 11
10.95507812499999
 21
-2.679029464722002
 31
0.0
  0
ARC
  5
3985
330
38CE
100
AcDbEntity
  8
AM_0
100
AcDbCircle
 10
4.930931091309005
 20
9.938110351561999
 30
0.0
 40
1.4953752756119
100
AcDbArc
 50
182.4999808310516
 51
265.8279130448025
  0
LINE
  5
3986
330
38CE
100
AcDbEntity
  8
AM_0
100
AcDbLine
 10
0.9661865234380115
 20
7.710159301756998
 30
0.0
 11
0.9756088256840058
 21
7.688167572020997
 31
0.0
  0
LINE
  5
3987
330
38CE
100
AcDbEntity
  8
AM_0
100
AcDbLine
 10
0.9661865234380115
 20
7.710187911986999
 30
0.0
 11
0.9758453369140056
 21
7.713819503783998
 31
0.0
  0
ARC
  5
3988
330
38CE
100
AcDbEntity
  8
AM_0
100
AcDbCircle
 10
4.930931091309005
 20
9.938110351561999
 30
0.0
 40
1.2461539506912
100
AcDbArc
 50
179.9999913485784
 51
272.5000411647691
  0
ARC
  5
3989
330
38CE
100
AcDbEntity
  8
AM_0
100
AcDbCircle
 10
4.930931091309005
 20
9.938110351561999
 30
0.0
 40
1.2500007152557
100
AcDbArc
 50
92.49998834448836
 51
180.0000050089577
  0
ARC
  5
398A
330
38CE
100
AcDbEntity
  8
AM_0
100
AcDbCircle
 10
5.205276489258011
 20
9.950103759764999
 30
0.0
 40
1.249955773353599
100
AcDbArc
 50
98.67805154311302
 51
180.0000050089577
  0
LINE
  5
398B
330
38CE
100
AcDbEntity
  8
AM_0
100
AcDbLine
 10
0.9758453369140056
 20
11.93253326416
 30
0.0
 11
1.161628723145
 21
12.14197921752899
 31
0.0
  0
LINE
  5
398C
330
38CE
100
AcDbEntity
  8
AM_0
100
AcDbLine
 10
3.436973571777002
 20
9.872884750365997
 30
0.0
 11
3.211250305176008
 21
9.863027572630997
 31
0.0
  0
LINE
  5
398D
330
38CE
100
AcDbEntity
  8
AM_0
100
AcDbLine
 10
3.436973571777002
 20
9.872909545897996
 30
0.0
 11
3.367980957031008
 21
11.45303726196299
 31
0.0
  0
LINE
  5
398E
330
38CE
100
AcDbEntity
  8
AM_0
100
AcDbLine
 10
0.9758377075200002
 20
8.864780426024999
 30
0.0
 11
0.947891235352003
 21
9.069362640380997
 31
0.0
  0
ARC
  5
398F
330
38CE
100
AcDbEntity
  8
AM_0
100
AcDbCircle
 10
5.205276489258011
 20
9.950103759764999
 30
0.0
 40
1.2498322725296
100
AcDbArc
 50
260.4679699049616
 51
266.1403395578154
  0
ARC
  5
3990
330
38CE
100
AcDbEntity
  8
AM_0
100
AcDbCircle
 10
5.205276489258011
 20
9.950103759764999
 30
0.0
 40
1.2461539506912
100
AcDbArc
 50
179.9999913485784
 51
216.6881748903836
  0
ARC
  5
3991
330
38CE
100
AcDbEntity
  8
AM_0
100
AcDbCircle
 10
4.930931091309005
 20
9.938110351561999
 30
0.0
 40
1.2499997615814
100
AcDbArc
 50
272.5000379770424
 51
92.49998834448836
  0
CIRCLE
  5
3992
330
38CE
100
AcDbEntity
  8
AM_0
100
AcDbCircle
 10
5.086357116699005
 20
9.811004638671999
 30
0.0
 40
0.6480000019073
  0
ARC
  5
3993
330
38CE
100
AcDbEntity
  8
AM_0
100
AcDbCircle
 10
5.121627807617002
 20
9.812561035155997
 30
0.0
 40
1.099999904632599
100
AcDbArc
 50
92.49998151429839
 51
272.5000411647691
  0
ARC
  5
3994
330
38CE
100
AcDbEntity
  8
AM_0
100
AcDbCircle
 10
5.121627807617002
 20
9.812561035155997
 30
0.0
 40
1.0969461202621
100
AcDbArc
 50
20.92150634288949
 51
92.49998151429839
  0
ARC
  5
3995
330
38CE
100
AcDbEntity
  8
AM_0
100
AcDbCircle
 10
5.397789001465
 20
9.824615478514999
 30
0.0
 40
1.0995025634766
100
AcDbArc
 50
70.02722480522954
 51
89.58162609705574
  0
ARC
  5
3996
330
38CE
100
AcDbEntity
  8
AM_0
100
AcDbCircle
 10
5.397789001465
 20
9.824615478514999
 30
0.0
 40
1.0999913215637
100
AcDbArc
 50
89.58162609705574
 51
92.50003615581112
  0
ARC
  5
3997
330
38CE
100
AcDbEntity
  8
AM_0
100
AcDbCircle
 10
5.417388916016008
 20
9.825469970702997
 30
0.0
 40
1.166986703872699
100
AcDbArc
 50
92.49998834448836
 51
112.6507197923698
  0
ARC
  5
3998
330
38CE
100
AcDbEntity
  8
AM_0
100
AcDbCircle
 10
5.417289733887002
 20
9.825134277343
 30
0.0
 40
1.166221141815199
100
AcDbArc
 50
252.2945215818274
 51
253.2288846300932
  0
ARC
  5
3999
330
38CE
100
AcDbEntity
  8
AM_0
100
AcDbCircle
 10
5.417388916016008
 20
9.825469970702997
 30
0.0
 40
1.1668065786362
100
AcDbArc
 50
79.56913567951906
 51
92.49998834448836
  0
ARC
  5
399A
330
38CE
100
AcDbEntity
  8
AM_0
100
AcDbCircle
 10
5.462600708008011
 20
9.827423095702997
 30
0.0
 40
1.498348712921099
100
AcDbArc
 50
129.1326082973956
 51
179.8285399400328
  0
LINE
  5
399B
330
38CE
100
AcDbEntity
  8
AM_0
100
AcDbLine
 10
5.169609069824005
 20
8.713590621947997
 30
0.0
 11
5.18473815918
 21
8.714262008666999
 31
0.0
  0
LINE
  5
399C
330
38CE
100
AcDbEntity
  8
AM_0
100
AcDbLine
 10
5.349800109863011
 20
10.923553466797
 30
0.0
 11
5.073646545409999
 21
10.91149902343699
 31
0.0
  0
LINE
  5
399D
330
38CE
100
AcDbEntity
  8
AM_0
100
AcDbLine
 10
34.999996185303
 20
-11.9999990463256
 30
0.0
 11
37.999996185303
 21
-11.9999990463256
 31
0.0
  0
LINE
  5
399E
330
38CE
100
AcDbEntity
  8
AM_0
100
AcDbLine
 10
31.251651763916
 20
-12.9999990463256
 30
0.0
 11
34.499996185303
 21
-12.9999990463256
 31
0.0
  0
LINE
  5
399F
330
38CE
100
AcDbEntity
  8
AM_0
100
AcDbLine
 10
31.245349884033
 20
-12.573516845703
 30
0.0
 11
31.526187896729
 21
-12.585783958435
 31
0.0
  0
LINE
  5
39A0
330
38CE
100
AcDbEntity
  8
AM_0
100
AcDbLine
 10
34.500003814697
 20
-13.0000143051147
 30
0.0
 11
35.000003814697
 21
-12.5000143051147
 31
0.0
  0
LINE
  5
39A1
330
38CE
100
AcDbEntity
  8
AM_0
100
AcDbLine
 10
31.263088226318
 20
-12.0332279205321
 30
0.0
 11
27.39700317382801
 21
-9.923310279847001
 31
0.0
  0
LINE
  5
39A2
330
38CE
100
AcDbEntity
  8
AM_0
100
AcDbLine
 10
37.999996185303
 20
12.0
 30
0.0
 11
34.999996185303
 21
12.0
 31
0.0
  0
LINE
  5
39A3
330
38CE
100
AcDbEntity
  8
AM_0
100
AcDbLine
 10
16.997848510742
 20
12.995067596435
 30
0.0
 11
9.639450073242002
 21
12.60941696167
 31
0.0
  0
LINE
  5
39A4
330
38CE
100
AcDbEntity
  8
AM_0
100
AcDbLine
 10
8.521675109863011
 20
12.839744567871
 30
0.0
 11
1.02897644043
 21
12.512596130371
 31
0.0
  0
LINE
  5
39A5
330
38CE
100
AcDbEntity
  8
AM_0
100
AcDbLine
 10
0.9845504760740055
 20
12.51110839843699
 30
0.0
 11
1.02897644043
 21
12.51260375976499
 31
0.0
  0
LINE
  5
39A6
330
38CE
100
AcDbEntity
  8
AM_0
100
AcDbLine
 10
8.521682739258011
 20
12.83977127075199
 30
0.0
 11
8.547248840332002
 21
12.84096145629799
 31
0.0
  0
LINE
  5
39A7
330
38CE
100
AcDbEntity
  8
AM_0
100
AcDbLine
 10
9.178855895996008
 20
12.57066345214799
 30
0.0
 11
9.081176757813011
 21
12.504901885986
 31
0.0
  0
LINE
  5
39A8
330
38CE
100
AcDbEntity
  8
AM_0
100
AcDbLine
 10
8.88208770752
 20
12.785182952881
 30
0.0
 11
8.765327453613011
 21
12.5904006958
 31
0.0
  0
LINE
  5
39A9
330
38CE
100
AcDbEntity
  8
AM_0
100
AcDbLine
 10
8.521675109863011
 20
12.83979797363199
 30
0.0
 11
8.517883300781008
 21
12.806167602539
 31
0.0
  0
LINE
  5
39AA
330
38CE
100
AcDbEntity
  8
AM_0
100
AcDbLine
 10
8.517890930176008
 20
12.80614089965799
 30
0.0
 11
8.521675109863011
 21
12.83974075317299
 31
0.0
  0
LINE
  5
39AB
330
38CE
100
AcDbEntity
  8
AM_0
100
AcDbLine
 10
9.925926208496008
 20
12.65522003173799
 30
0.0
 11
9.888198852539005
 21
12.62247467040999
 31
0.0
  0
LINE
  5
39AC
330
38CE
100
AcDbEntity
  8
AM_0
100
AcDbLine
 10
9.925926208496008
 20
12.65521240234299
 30
0.0
 11
9.931427001953011
 21
12.62472915649399
 31
0.0
  0
LINE
  5
39AD
330
38CE
100
AcDbEntity
  8
AM_0
100
AcDbLine
 10
34.499996185303
 20
13.0
 30
0.0
 11
31.251651763916
 21
13.0
 31
0.0
  0
LINE
  5
39AE
330
38CE
100
AcDbEntity
  8
AM_0
100
AcDbLine
 10
35.000003814697
 20
12.49999237060499
 30
0.0
 11
34.499992370606
 21
13.00000381469699
 31
0.0
  0
ARC
  5
39AF
330
38CE
100
AcDbEntity
  8
AM_0
100
AcDbCircle
 10
157.999999999999
 20
10.16150093078599
 30
0.0
 40
2.0
100
AcDbArc
 50
0.0000050089575559
 51
75.00000550216224
  0
LINE
  5
39B0
330
38CE
100
AcDbEntity
  8
AM_0
100
AcDbLine
 10
158.5176467895499
 20
12.09335327148399
 30
0.0
 11
156.9999847412099
 21
12.50000762939399
 31
0.0
  0
LINE
  5
39B1
330
38CE
100
AcDbEntity
  8
AM_0
100
AcDbLine
 10
156.999996185302
 20
12.5
 30
0.0
 11
156.999996185302
 21
-12.4999990463256
 31
0.0
  0
LINE
  5
39B2
330
38CE
100
AcDbEntity
  8
AM_0
100
AcDbLine
 10
158.517631530761
 20
12.09335327148399
 30
0.0
 11
158.517631530761
 21
-12.09335231781
 31
0.0
  0
LINE
  5
39B3
330
38CE
100
AcDbEntity
  8
AM_0
100
AcDbLine
 10
159.999992370605
 20
10.16150093078599
 30
0.0
 11
159.999992370605
 21
-10.161498069764
 31
0.0
  0
ARC
  5
39B4
330
38CE
100
AcDbEntity
  8
AM_0
100
AcDbCircle
 10
157.999999999999
 20
-10.161498069764
 30
0.0
 40
2.000000238418599
100
AcDbArc
 50
284.9999944978377
 51
0.0000050089575559
  0
LINE
  5
39B5
330
38CE
100
AcDbEntity
  8
AM_0
100
AcDbLine
 10
156.999999999999
 20
-12.4999914169311
 30
0.0
 11
158.5176391601549
 21
-12.0933456420897
 31
0.0
  0
ENDBLK
  5
39B7
330
38CE
100
AcDbEntity
  8
0
100
AcDbBlockEnd
  0
BLOCK
  5
3A33
330
3A29
100
AcDbEntity
  8
0
100
AcDbBlockBegin
  2
*D11
 70
     1
 10
0.0
 20
0.0
 30
0.0
  3
*D11
  1

  0
LINE
  5
3ACD
330
3A29
100
AcDbEntity
  8
AM_5
 62
     3
100
AcDbLine
 10
-8.999999999999955
 20
13.49999332427828
 30
0.0
 11
-8.999999999999953
 21
28.49999432427829
 31
0.0
  0
LINE
  5
3ACE
330
3A29
100
AcDbEntity
  8
AM_5
 62
     3
100
AcDbLine
 10
0.0000000000000452
 20
13.49999332427828
 30
0.0
 11
0.0000000000000461
 21
28.49999432427829
 31
0.0
  0
LINE
  5
3ACF
330
3A29
100
AcDbEntity
  8
AM_5
 62
     3
100
AcDbLine
 10
-6.499999999999955
 20
27.49999432427829
 30
0.0
 11
-2.499999999999953
 21
27.49999432427829
 31
0.0
  0
INSERT
  5
3AD0
330
3A29
100
AcDbEntity
  8
AM_5
 62
     3
100
AcDbBlockReference
  2
_OPEN30
 10
-8.999999999999955
 20
27.49999432427829
 30
0.0
 41
2.5
 42
2.5
 43
2.5
 50
180.0
  0
INSERT
  5
3AD1
330
3A29
100
AcDbEntity
  8
AM_5
 62
     3
100
AcDbBlockReference
  2
_OPEN30
 10
0.000000000000046
 20
27.49999432427829
 30
0.0
 41
2.5
 42
2.5
 43
2.5
  0
MTEXT
  5
3AD2
330
3A29
100
AcDbEntity
  8
AM_5
 62
     2
100
AcDbMText
 10
-4.499999999999954
 20
30.89999432427829
 30
0.0
 40
3.799999999999999
 41
0.0
 71
     5
 72
     1
  1
9
1001
ACAD
1000
MTEXTBEGIN
1070
    73
1070
     1
1070
    44
1040
1.0
1070
    74
1070
     0
1000
MTEXTEND
  0
POINT
  5
3AD3
330
3A29
100
AcDbEntity
  8
DEFPOINTS
 62
     0
100
AcDbPoint
 10
-8.999999999999955
 20
13.49999332427828
 30
0.0
  0
POINT
  5
3AD4
330
3A29
100
AcDbEntity
  8
DEFPOINTS
 62
     0
100
AcDbPoint
 10
0.0000000000000452
 20
13.49999332427828
 30
0.0
  0
POINT
  5
3AD5
330
3A29
100
AcDbEntity
  8
DEFPOINTS
 62
     0
100
AcDbPoint
 10
0.000000000000046
 20
27.49999432427829
 30
0.0
  0
ENDBLK
  5
3A34
330
3A29
100
AcDbEntity
  8
0
100
AcDbBlockEnd
  0
ENDSEC
  0
SECTION
  2
ENTITIES
  0
TEXT
  5
1142
330
1F
100
AcDbEntity
  8
AM_6
100
AcDbText
 10
-106.6666819254551
 20
-60.99999999999991
 30
0.0
 40
5.0
  1
WEM2027EL-C
 72
     4
 11
-80.00001525878849
 21
-58.49999999999991
 31
0.0
100
AcDbText
  0
DIMENSION
  5
155D
330
1F
100
AcDbEntity
  8
AM_5
100
AcDbDimension
  2
*D5
 10
-35.00002670288099
 20
-29.99999999999998
 30
0.0
 11
-17.50001335144049
 21
-26.59999999999998
 31
0.0
 70
    32
  1
<>
  3
AM_JIS$0
100
AcDbAlignedDimension
 13
-0.0000000000000008
 23
-6.0
 33
0.0
 14
-35.00002670288099
 24
-12.00003623962733
 34
0.0
 50
0.0000000000001132
100
AcDbRotatedDimension
1001
ACAD
1000
DSTYLE
1002
{
1070
   171
1070
     0
1070
   271
1070
     0
1002
}
1001
GENIUS_GENDTOL_13
1000

1000
h7
1000

1040
0.0
  0
DIMENSION
  5
15E8
330
1F
100
AcDbEntity
  8
AM_5
100
AcDbDimension
  2
*D6
 10
-159.9999999999989
 20
-30.00000000000023
 30
0.0
 11
-97.50001335143998
 21
-26.60000000000023
 31
0.0
 70
    32
  1
<>
  3
AM_JIS$0
100
AcDbAlignedDimension
 13
-35.00002670288099
 23
-12.00003623962733
 33
0.0
 14
-159.9999999999989
 24
-10.16150682767889
 34
0.0
 50
0.0000000000001132
100
AcDbRotatedDimension
1001
ACAD
1000
DSTYLE
1002
{
1070
   171
1070
     0
1070
   271
1070
     0
1002
}
1001
GENIUS_GENDTOL_13
1000

1000
h7
1000

1040
0.0
  0
DIMENSION
  5
1673
330
1F
100
AcDbEntity
  8
AM_5
100
AcDbDimension
  2
*D7
 10
0.0000000000000181
 20
-39.99999999999991
 30
0.0
 11
-80.00001525878849
 21
-36.59999999999991
 31
0.0
 70
    32
  1
<>
  3
AM_JIS$0
100
AcDbAlignedDimension
 13
-160.0000305175769
 23
-10.16150474548731
 33
0.0
 14
0.0000000000000196
 24
-15.99999999999991
 34
0.0
 50
0.0000000000001132
100
AcDbRotatedDimension
1001
ACAD
1000
DSTYLE
1002
{
1070
   171
1070
     0
1070
   271
1070
     0
1002
}
1001
GENIUS_GENDTOL_13
1000

1000
h7
1000

1040
0.0
  0
DIMENSION
  5
2B71
330
1F
100
AcDbEntity
  8
AM_5
100
AcDbDimension
  2
*D8
 10
15.26467995507801
 20
13.49999332427828
 30
0.0
 11
11.86467995507801
 21
-0.0000061988845209
 31
0.0
 70
    32
  1
%%c<>
  3
AM_JIS$0
100
AcDbAlignedDimension
 13
0.0000000000000426
 23
-13.50000572204732
 33
0.0
 14
0.0000000000000452
 24
13.49999332427828
 34
0.0
 50
90.00000000000003
100
AcDbRotatedDimension
1001
ACAD
1000
DSTYLE
1002
{
1070
   171
1070
     0
1070
   271
1070
     0
1002
}
1001
GENIUS_GENDTOL_13
1000

1000
h7
1000

1040
0.0
  0
DIMENSION
  5
300D
330
1F
100
AcDbEntity
  8
AM_5
100
AcDbDimension
  2
*D9
 10
-177.1063311761623
 20
12.49999427795268
 30
0.0
 11
-177.1063311761623
 21
0.0000171661371164
 31
0.0
 70
   160
  1
%%c<>
  3
AM_JIS$0
100
AcDbAlignedDimension
 13
-157.0000305175769
 23
-12.50000572204731
 33
0.0
 14
-157.0000305175769
 24
12.49999427795268
 34
0.0
 50
270.0
100
AcDbRotatedDimension
1001
ACAD
1000
DSTYLE
1002
{
1070
   171
1070
     0
1070
   271
1070
     0
1002
}
1001
GENIUS_GENDTOL_13
1000

1000
h7
1000

1040
0.0
  0
INSERT
  5
39B8
330
1F
100
AcDbEntity
  8
AM_11
100
AcDbBlockReference
  2
A$C54201F01
 10
0.0000000000000435
 20
-0.0000057220473162
 30
0.0
 50
180.0
  0
DIMENSION
  5
3A28
330
1F
100
AcDbEntity
  8
AM_5
100
AcDbDimension
  2
*D11
 10
0.000000000000046
 20
27.49999432427829
 30
0.0
 11
-4.499999999999954
 21
30.89999432427829
 31
0.0
 70
    32
  1
<>
  3
AM_JIS$0
100
AcDbAlignedDimension
 13
-8.999999999999955
 23
13.49999332427828
 33
0.0
 14
0.0000000000000452
 24
13.49999332427828
 34
0.0
 50
180.0
100
AcDbRotatedDimension
1001
ACAD
1000
DSTYLE
1002
{
1070
   271
1070
     0
1002
}
1001
GENIUS_GENDTOL_13
1000

1000
h7
1000

1040
0.0
  0
VIEWPORT
  5
110
330
101
100
AcDbEntity
 67
     1
  8
0
100
AcDbViewport
 10
420.5
 20
297.0
 30
0.0
 40
948.9782706766916
 41
628.452
 68
     1
 69
     1
1001
ACAD
1000
MVIEW
1002
{
1070
    16
1010
0.0
1020
0.0
1030
0.0
1010
0.0
1020
0.0
1030
1.0
1040
0.0
1040
628.452
1040
420.5
1040
297.0
1040
50.0
1040
0.0
1040
0.0
1070
     0
1070
   100
1070
     1
1070
     1
1070
     0
1070
     0
1070
     0
1070
     0
1040
0.0
1040
0.0
1040
0.0
1040
10.0
1040
10.0
1040
10.0
1040
10.0
1070
     0
1002
{
1002
}
1002
}
  0
ENDSEC
  0
SECTION
  2
OBJECTS
  0
DICTIONARY
  5
C
330
0
100
AcDbDictionary
  3
ACAD_GROUP
350
D
  3
ACAD_LAYOUT
350
1A
  3
ACAD_MLINESTYLE
350
17
  3
ACAD_PLOTSETTINGS
350
19
  3
ACAD_PLOTSTYLENAME
350
E
  3
ACDBVARIABLEDICTIONARY
350
34
  3
ACMDICTIONARY
350
43
  3
AMG
350
2B
  3
AMGSNAPSETTINGS
350
6E
  3
ASE_INDEX_DICTIONARY
350
31E1
  3
DWGPROPS
350
3B2E
  3
ACDBHEADERROUNDTRIPXREC
350
3B3A
  0
DICTIONARY
  5
74
330
1F
100
AcDbDictionary
280
     1
  3
ACAD_INDEX
360
3B30
  3
ACAD_LAYOUTSELFREF
360
3B5D
  0
DICTIONARY
  5
3B62
330
101
100
AcDbDictionary
280
     1
  3
ACAD_LAYOUTSELFREF
360
3B63
  0
DICTIONARY
  5
D
102
{ACAD_REACTORS
330
C
102
}
330
C
100
AcDbDictionary
  0
DICTIONARY
  5
1A
102
{ACAD_REACTORS
330
C
102
}
330
C
100
AcDbDictionary
  0
DICTIONARY
  5
17
102
{ACAD_REACTORS
330
C
102
}
330
C
100
AcDbDictionary
  3
STANDARD
350
18
  0
DICTIONARY
  5
19
102
{ACAD_REACTORS
330
C
102
}
330
C
100
AcDbDictionary
  0
ACDBDICTIONARYWDFLT
  5
E
102
{ACAD_REACTORS
330
C
102
}
330
C
100
AcDbDictionary
281
     1
  3
Normal
350
F
100
AcDbDictionaryWithDefault
340
F
  0
DICTIONARY
  5
34
102
{ACAD_REACTORS
330
C
102
}
330
C
100
AcDbDictionary
  3
INDEXCTL
350
35
  3
SORTENTS
350
B5E
  0
DICTIONARY
  5
43
102
{ACAD_REACTORS
330
C
102
}
330
C
100
AcDbDictionary
  3
ACMSTDDICTIONARY
350
260
  0
DICTIONARY
  5
2B
102
{ACAD_REACTORS
330
C
102
}
330
C
100
AcDbDictionary
  3
ACMGSETTINGS
350
2C
  0
DICTIONARY
  5
6E
102
{ACAD_REACTORS
330
C
102
}
330
C
100
AcDbDictionary
  0
DICTIONARY
  5
31E1
102
{ACAD_REACTORS
330
C
102
}
330
C
100
AcDbDictionary
  3
ASEBLOCKHIERARCHYINDEXRECORD
350
31E3
1001
DCO15
1040
1471951347.937
  0
XRECORD
  5
3B2E
102
{ACAD_REACTORS
330
C
102
}
330
C
100
AcDbXrecord
  1
DWGPROPS COOKIE
  2

  3

  4

  6

  7

  8

  9

300
AmdtFileType=82
301
=
302
=
303
=
304
=
305
=
306
=
307
=
308
=
309
=
 40
0.1608496064814815
 41
2452839.420061482
 42
2452872.441248715
  1

 90
        1
  0
DICTIONARY
  5
3B3A
102
{ACAD_REACTORS
330
C
102
}
330
C
100
AcDbDictionary
  3
TSTACKALIGN
350
3B3B
  3
TSTACKSIZE
350
3B3C
  3
HYPERLINKBASE
350
3B3D
  3
STYLESHEET
350
3B3E
  3
LAYOUTDICT
350
3B3F
  3
PLOTSETDICT
350
3B40
  3
PLOTSTYLNAMDICT
350
3B41
  3
LWETCUNION
350
3B42
  3
INSUNITS
350
3B43
  3
CEPSNTYPE
350
3B44
  3
FINGERPRINTGUID
350
3B45
  3
VERSIONGUID
350
3B46
  3
PSVPSCALE
350
3B47
  3
DIMSTYLEDATA
350
3B48
  3
PUCSORTHOREF
350
3B49
  3
PUCSORTHOVIEW
350
3B4A
  3
PUCSBASE
350
3B4B
  3
PUCSORGTOP
350
3B4C
  3
PUCSORGBOTTOM
350
3B4D
  3
PUCSORGLEFT
350
3B4E
  3
PUCSORGRIGHT
350
3B4F
  3
PUCSORGFRONT
350
3B50
  3
PUCSORGBACK
350
3B51
  3
UCSORTHOREF
350
3B52
  3
UCSORTHOVIEW
350
3B53
  3
UCSBASE
350
3B54
  3
UCSORGTOP
350
3B55
  3
UCSORGBOTTOM
350
3B56
  3
UCSORGLEFT
350
3B57
  3
UCSORGRIGHT
350
3B58
  3
UCSORGFRONT
350
3B59
  3
UCSORGBACK
350
3B5A
  0
DICTIONARY
  5
3B30
102
{ACAD_REACTORS
330
74
102
}
330
74
100
AcDbDictionary
  3
*A1
350
3B31
  0
XRECORD
  5
3B5D
102
{ACAD_REACTORS
330
74
102
}
330
74
100
AcDbXrecord
340
1F
  0
XRECORD
  5
3B63
102
{ACAD_REACTORS
330
3B62
102
}
330
3B62
100
AcDbXrecord
340
101
  0
MLINESTYLE
  5
18
102
{ACAD_REACTORS
330
17
102
}
330
17
100
AcDbMlineStyle
  2
STANDARD
 70
     0
  3

 62
   256
 51
90.0
 52
90.0
 71
     2
 49
0.5
 62
   256
  6
BYLAYER
 49
-0.5
 62
   256
  6
BYLAYER
  0
ACDBPLACEHOLDER
  5
F
102
{ACAD_REACTORS
330
E
102
}
330
E
100
AcDbPlaceHolder
280
     0
  0
DICTIONARYVAR
  5
35
102
{ACAD_REACTORS
330
34
102
}
330
34
100
DictionaryVariables
280
     0
  1
1
  0
DICTIONARYVAR
  5
B5E
102
{ACAD_REACTORS
330
34
102
}
330
34
100
DictionaryVariables
280
     0
  1
96
  0
DICTIONARY
  5
260
102
{ACAD_REACTORS
330
43
102
}
330
43
100
AcDbDictionary
  0
DICTIONARY
  5
2C
102
{ACAD_REACTORS
330
2B
102
}
330
2B
100
AcDbDictionary
  3
DWGSETTINGS
350
2D
  0
XRECORD
  5
31E3
102
{ACAD_REACTORS
330
31E1
102
}
330
31E1
100
AcDbXrecord
330
39B8
330
0
330
0
330
0
330
0
330
0
330
0
330
0
330
0
330
0
330
0
330
0
330
0
  0
XRECORD
  5
3B3B
102
{ACAD_REACTORS
330
3B3A
102
}
330
3B3A
100
AcDbXrecord
 90
        1
  0
XRECORD
  5
3B3C
102
{ACAD_REACTORS
330
3B3A
102
}
330
3B3A
100
AcDbXrecord
 90
       70
  0
XRECORD
  5
3B3D
102
{ACAD_REACTORS
330
3B3A
102
}
330
3B3A
100
AcDbXrecord
  1

  0
XRECORD
  5
3B3E
102
{ACAD_REACTORS
330
3B3A
102
}
330
3B3A
100
AcDbXrecord
  1
ASAMI.ctb
  0
XRECORD
  5
3B3F
102
{ACAD_REACTORS
330
3B3A
102
}
330
3B3A
100
AcDbXrecord
340
1A
  0
XRECORD
  5
3B40
102
{ACAD_REACTORS
330
3B3A
102
}
330
3B3A
100
AcDbXrecord
340
19
  0
XRECORD
  5
3B41
102
{ACAD_REACTORS
330
3B3A
102
}
330
3B3A
100
AcDbXrecord
340
E
  0
XRECORD
  5
3B42
102
{ACAD_REACTORS
330
3B3A
102
}
330
3B3A
100
AcDbXrecord
 90
    10781
  0
XRECORD
  5
3B43
102
{ACAD_REACTORS
330
3B3A
102
}
330
3B3A
100
AcDbXrecord
 90
        4
  0
XRECORD
  5
3B44
102
{ACAD_REACTORS
330
3B3A
102
}
330
3B3A
100
AcDbXrecord
 90
        0
  0
XRECORD
  5
3B45
102
{ACAD_REACTORS
330
3B3A
102
}
330
3B3A
100
AcDbXrecord
  1
{AFB28963-8C59-40AE-9337-C84526B81ACE}
  0
XRECORD
  5
3B46
102
{ACAD_REACTORS
330
3B3A
102
}
330
3B3A
100
AcDbXrecord
  1
{9CA5C5E5-8987-4CE6-9BB4-AAD2301C14FB}
  0
XRECORD
  5
3B47
102
{ACAD_REACTORS
330
3B3A
102
}
330
3B3A
100
AcDbXrecord
 40
0.0
  0
XRECORD
  5
3B48
102
{ACAD_REACTORS
330
3B3A
102
}
330
3B3A
100
AcDbXrecord
1000
DSTYLE
1002
{
1070
    79
 70
     2
1070
   341
340
59
1070
   342
340
59
1070
   371
 70
    -1
1070
   372
 70
    -1
1002
}
  0
XRECORD
  5
3B49
102
{ACAD_REACTORS
330
3B3A
102
}
330
3B3A
100
AcDbXrecord
340
0
  0
XRECORD
  5
3B4A
102
{ACAD_REACTORS
330
3B3A
102
}
330
3B3A
100
AcDbXrecord
 70
     0
  0
XRECORD
  5
3B4B
102
{ACAD_REACTORS
330
3B3A
102
}
330
3B3A
100
AcDbXrecord
340
0
  0
XRECORD
  5
3B4C
102
{ACAD_REACTORS
330
3B3A
102
}
330
3B3A
100
AcDbXrecord
 10
0.0
 20
0.0
 30
0.0
  0
XRECORD
  5
3B4D
102
{ACAD_REACTORS
330
3B3A
102
}
330
3B3A
100
AcDbXrecord
 10
0.0
 20
0.0
 30
0.0
  0
XRECORD
  5
3B4E
102
{ACAD_REACTORS
330
3B3A
102
}
330
3B3A
100
AcDbXrecord
 10
0.0
 20
0.0
 30
0.0
  0
XRECORD
  5
3B4F
102
{ACAD_REACTORS
330
3B3A
102
}
330
3B3A
100
AcDbXrecord
 10
0.0
 20
0.0
 30
0.0
  0
XRECORD
  5
3B50
102
{ACAD_REACTORS
330
3B3A
102
}
330
3B3A
100
AcDbXrecord
 10
0.0
 20
0.0
 30
0.0
  0
XRECORD
  5
3B51
102
{ACAD_REACTORS
330
3B3A
102
}
330
3B3A
100
AcDbXrecord
 10
0.0
 20
0.0
 30
0.0
  0
XRECORD
  5
3B52
102
{ACAD_REACTORS
330
3B3A
102
}
330
3B3A
100
AcDbXrecord
340
0
  0
XRECORD
  5
3B53
102
{ACAD_REACTORS
330
3B3A
102
}
330
3B3A
100
AcDbXrecord
 70
     0
  0
XRECORD
  5
3B54
102
{ACAD_REACTORS
330
3B3A
102
}
330
3B3A
100
AcDbXrecord
340
0
  0
XRECORD
  5
3B55
102
{ACAD_REACTORS
330
3B3A
102
}
330
3B3A
100
AcDbXrecord
 10
0.0
 20
0.0
 30
0.0
  0
XRECORD
  5
3B56
102
{ACAD_REACTORS
330
3B3A
102
}
330
3B3A
100
AcDbXrecord
 10
0.0
 20
0.0
 30
0.0
  0
XRECORD
  5
3B57
102
{ACAD_REACTORS
330
3B3A
102
}
330
3B3A
100
AcDbXrecord
 10
0.0
 20
0.0
 30
0.0
  0
XRECORD
  5
3B58
102
{ACAD_REACTORS
330
3B3A
102
}
330
3B3A
100
AcDbXrecord
 10
0.0
 20
0.0
 30
0.0
  0
XRECORD
  5
3B59
102
{ACAD_REACTORS
330
3B3A
102
}
330
3B3A
100
AcDbXrecord
 10
0.0
 20
0.0
 30
0.0
  0
XRECORD
  5
3B5A
102
{ACAD_REACTORS
330
3B3A
102
}
330
3B3A
100
AcDbXrecord
 10
0.0
 20
0.0
 30
0.0
  0
LAYER_INDEX
  5
3B31
102
{ACAD_REACTORS
330
3B30
102
}
330
3B30
100
AcDbIndex
 40
2453152.40018544
100
AcDbLayerIndex
  8
0
360
3B32
 90
        0
  8
AM_0
360
3B33
 90
        0
  8
AM_7
360
3B34
 90
        0
  8
AM_11
360
3B35
 90
        1
  8
AM_5
360
3B36
 90
        6
  8
Defpoints
360
3B37
 90
        0
  8
AM_6
360
3B38
 90
        1
  0
XRECORD
  5
2D
102
{ACAD_REACTORS
330
2C
102
}
330
2C
100
AcDbXrecord
  1
VERSION
140
15.0
  1
PRODUCT
  2
AutoCAD Mechanical 2000
  0
IDBUFFER
  5
3B32
330
0
100
AcDbIdBuffer
  0
IDBUFFER
  5
3B33
330
0
100
AcDbIdBuffer
  0
IDBUFFER
  5
3B34
330
0
100
AcDbIdBuffer
  0
IDBUFFER
  5
3B35
330
0
100
AcDbIdBuffer
330
39B8
  0
IDBUFFER
  5
3B36
330
0
100
AcDbIdBuffer
330
155D
330
15E8
330
1673
330
2B71
330
300D
330
3A28
  0
IDBUFFER
  5
3B37
330
0
100
AcDbIdBuffer
  0
IDBUFFER
  5
3B38
330
0
100
AcDbIdBuffer
330
1142
  0
ENDSEC
  0
EOF
