  0
SECTION
  2
HEADER
  9
$ACADVER
  1
AC1014
  9
$ACADMAINTVER
 70
     9
  9
$DWGCODEPAGE
  3
ANSI_932
  9
$INSBASE
 10
0.0
 20
0.0
 30
0.0
  9
$EXTMIN
 10
-143.1947676987066
 20
-61.00000386102296
 30
-0.00000001
  9
$EXTMAX
 10
20.82219033105499
 20
35.30000958306803
 30
0.00000001
  9
$LIMMIN
 10
-156.9393690676877
 20
-89.22963216864474
  9
$LIMMAX
 10
49.29023745149436
 20
37.13222751595651
  9
$ORTHOMODE
 70
     0
  9
$REGENMODE
 70
     1
  9
$FILLMODE
 70
     1
  9
$QTEXTMODE
 70
     0
  9
$MIRRTEXT
 70
     0
  9
$DRAGMODE
 70
     2
  9
$LTSCALE
 40
1.0
  9
$OSMODE
 70
    55
  9
$ATTMODE
 70
     1
  9
$TEXTSIZE
 40
2.5
  9
$TRACEWID
 40
1.0
  9
$TEXTSTYLE
  7
STANDARD
  9
$CLAYER
  8
AM_0
  9
$CELTYPE
  6
BYLAYER
  9
$CECOLOR
 62
   256
  9
$CELTSCALE
 40
1.0
  9
$DELOBJ
 70
     1
  9
$DISPSILH
 70
     0
  9
$DIMSCALE
 40
1.0
  9
$DIMASZ
 40
2.5
  9
$DIMEXO
 40
1.0
  9
$DIMDLI
 40
12.0
  9
$DIMRND
 40
0.0
  9
$DIMDLE
 40
0.0
  9
$DIMEXE
 40
1.0
  9
$DIMTP
 40
0.1
  9
$DIMTM
 40
0.1
  9
$DIMTXT
 40
3.2
  9
$DIMCEN
 40
0.0
  9
$DIMTSZ
 40
0.0
  9
$DIMTOL
 70
     0
  9
$DIMLIM
 70
     0
  9
$DIMTIH
 70
     0
  9
$DIMTOH
 70
     0
  9
$DIMSE1
 70
     0
  9
$DIMSE2
 70
     0
  9
$DIMTAD
 70
     3
  9
$DIMZIN
 70
     8
  9
$DIMBLK
  1
OPEN30
  9
$DIMASO
 70
     1
  9
$DIMSHO
 70
     1
  9
$DIMPOST
  1

  9
$DIMAPOST
  1
"
  9
$DIMALT
 70
     0
  9
$DIMALTD
 70
     2
  9
$DIMALTF
 40
0.0393701
  9
$DIMLFAC
 40
1.0
  9
$DIMTOFL
 70
     1
  9
$DIMTVP
 40
0.0
  9
$DIMTIX
 70
     0
  9
$DIMSOXD
 70
     0
  9
$DIMSAH
 70
     0
  9
$DIMBLK1
  1

  9
$DIMBLK2
  1

  9
$DIMSTYLE
  2
AM_JIS
  9
$DIMCLRD
 70
   256
  9
$DIMCLRE
 70
   256
  9
$DIMCLRT
 70
     2
  9
$DIMTFAC
 40
0.71
  9
$DIMGAP
 40
1.5
  9
$DIMJUST
 70
     0
  9
$DIMSD1
 70
     0
  9
$DIMSD2
 70
     0
  9
$DIMTOLJ
 70
     0
  9
$DIMTZIN
 70
     0
  9
$DIMALTZ
 70
     0
  9
$DIMALTTZ
 70
     0
  9
$DIMFIT
 70
     3
  9
$DIMUPT
 70
     0
  9
$DIMUNIT
 70
     2
  9
$DIMDEC
 70
     3
  9
$DIMTDEC
 70
     3
  9
$DIMALTU
 70
     2
  9
$DIMALTTD
 70
     2
  9
$DIMTXSTY
  7
ASAMI
  9
$DIMAUNIT
 70
     0
  9
$LUNITS
 70
     2
  9
$LUPREC
 70
     0
  9
$SKETCHINC
 40
1.0
  9
$FILLETRAD
 40
2.5
  9
$AUNITS
 70
     0
  9
$AUPREC
 70
     0
  9
$MENU
  1
.
  9
$ELEVATION
 40
0.0
  9
$PELEVATION
 40
0.0
  9
$THICKNESS
 40
0.0
  9
$LIMCHECK
 70
     0
  9
$BLIPMODE
 70
     0
  9
$CHAMFERA
 40
2.5
  9
$CHAMFERB
 40
2.5
  9
$CHAMFERC
 40
20.0
  9
$CHAMFERD
 40
0.0
  9
$SKPOLY
 70
     0
  9
$TDCREATE
 40
2452839.420061482
  9
$TDUPDATE
 40
2453152.403809120
  9
$TDINDWG
 40
0.0500849769
  9
$TDUSRTIMER
 40
0.0500849769
  9
$USRTIMER
 70
     1
  9
$ANGBASE
 50
0.0
  9
$ANGDIR
 70
     0
  9
$PDMODE
 70
     0
  9
$PDSIZE
 40
0.0
  9
$PLINEWID
 40
0.0
  9
$COORDS
 70
     1
  9
$SPLFRAME
 70
     0
  9
$SPLINETYPE
 70
     6
  9
$SPLINESEGS
 70
     8
  9
$ATTDIA
 70
     1
  9
$ATTREQ
 70
     1
  9
$HANDLING
 70
 12289
  9
$HANDSEED
  5
26DC
  9
$SURFTAB1
 70
     6
  9
$SURFTAB2
 70
     6
  9
$SURFTYPE
 70
     6
  9
$SURFU
 70
     6
  9
$SURFV
 70
     6
  9
$UCSNAME
  2

  9
$UCSORG
 10
0.0
 20
0.0
 30
0.0
  9
$UCSXDIR
 10
1.0
 20
0.0
 30
0.0
  9
$UCSYDIR
 10
0.0
 20
1.0
 30
0.0
  9
$PUCSNAME
  2

  9
$PUCSORG
 10
0.0
 20
0.0
 30
0.0
  9
$PUCSXDIR
 10
1.0
 20
0.0
 30
0.0
  9
$PUCSYDIR
 10
0.0
 20
1.0
 30
0.0
  9
$USERI1
 70
     0
  9
$USERI2
 70
     0
  9
$USERI3
 70
     0
  9
$USERI4
 70
     0
  9
$USERI5
 70
     0
  9
$USERR1
 40
0.0
  9
$USERR2
 40
0.0
  9
$USERR3
 40
0.0
  9
$USERR4
 40
0.0
  9
$USERR5
 40
0.0
  9
$WORLDVIEW
 70
     1
  9
$SHADEDGE
 70
     3
  9
$SHADEDIF
 70
    70
  9
$TILEMODE
 70
     1
  9
$MAXACTVP
 70
    64
  9
$PINSBASE
 10
0.0
 20
0.0
 30
0.0
  9
$PLIMCHECK
 70
     0
  9
$PEXTMIN
 10
1.000000000000000E+20
 20
1.000000000000000E+20
 30
1.000000000000000E+20
  9
$PEXTMAX
 10
-1.000000000000000E+20
 20
-1.000000000000000E+20
 30
-1.000000000000000E+20
  9
$PLIMMIN
 10
0.0
 20
0.0
  9
$PLIMMAX
 10
841.0
 20
594.0
  9
$UNITMODE
 70
     0
  9
$VISRETAIN
 70
     1
  9
$PLINEGEN
 70
     0
  9
$PSLTSCALE
 70
     0
  9
$TREEDEPTH
 70
  3020
  9
$PICKSTYLE
 70
     0
  9
$CMLSTYLE
  2
STANDARD
  9
$CMLJUST
 70
     0
  9
$CMLSCALE
 40
20.0
  9
$PROXYGRAPHICS
 70
     1
  9
$MEASUREMENT
 70
     1
  0
ENDSEC
  0
SECTION
  2
CLASSES
  0
CLASS
  1
ACDBDICTIONARYWDFLT
  2
AcDbDictionaryWithDefault
  3
AutoCAD 2000
 90
        0
280
     0
281
     0
  0
CLASS
  1
ACDBPLACEHOLDER
  2
AcDbPlaceHolder
  3
AutoCAD 2000
 90
        0
280
     0
281
     0
  0
CLASS
  1
LAYOUT
  2
AcDbLayout
  3
AutoCAD 2000
 90
        0
280
     0
281
     0
  0
CLASS
  1
AMGSETTINGSOBJ
  2
AmgSettingsObj
  3
"AcadM|Product Description: AutoCAD Mechanical 2000|Company: Autodesk"
 90
        0
280
     0
281
     0
  0
CLASS
  1
ACME_DOCUMENT
  2
AcMeDbDoc
  3
AcMeServices
 90
        0
280
     0
281
     0
  0
CLASS
  1
ACMESCOPE
  2
AcMeScope
  3
AcMeServices
 90
        0
280
     0
281
     0
  0
CLASS
  1
ACMECOMMANDHISTORY
  2
AcMeCommandHistory
  3
AcMeServices
 90
        0
280
     0
281
     0
  0
CLASS
  1
DICTIONARYVAR
  2
AcDbDictionaryVar
  3
AutoCAD 2000
 90
        0
280
     0
281
     0
  0
CLASS
  1
ACIMSYSVARMAN
  2
AcImSysVarManager
  3
AcMeServices
 90
        0
280
     0
281
     0
  0
CLASS
  1
ACIMREALSYSVAR
  2
AcImRealSysVar
  3
AcMeServices
 90
        0
280
     0
281
     0
  0
CLASS
  1
ACIMINTSYSVAR
  2
AcImIntSysVar
  3
AcMeServices
 90
        0
280
     0
281
     0
  0
CLASS
  1
ACMEDRAWINGMAN
  2
AcMeDrawingMan
  3
AcMeServices
 90
        0
280
     0
281
     0
  0
CLASS
  1
ACMEVIEW
  2
AcMeView
  3
AcMeServices
 90
        0
280
     0
281
     0
  0
CLASS
  1
ACDBENTITYCACHE
  2
AcMeEntityCache
  3
AcMeServices
 90
        0
280
     0
281
     0
  0
CLASS
  1
GSMANAGER
  2
AcMeGSManager
  3
AcMeServices
 90
        0
280
     0
281
     0
  0
CLASS
  1
AmdtInternalReactor
  2
AmdtInternalReactor
  3
AcMeServices
 90
        0
280
     0
281
     0
  0
CLASS
  1
ACMESTATEMGR
  2
AcMeStateMgr
  3
AcMeServices
 90
        0
280
     0
281
     0
  0
CLASS
  1
ACME_DATABASE
  2
AcMeDbDatabase
  3
AcMeServices
 90
        0
280
     0
281
     0
  0
CLASS
  1
ACRFINSADJUSTERMGR
  2
AcRfInsAdjusterMgr
  3
AcMeServices
 90
        0
280
     0
281
     0
  0
CLASS
  1
ACMDATADICTIONARY
  2
AcmDataDictionary
  3
"AcmSymBB|Product Description: AutoCAD Mechanical 2000|Company: Autodesk"
 90
        0
280
     0
281
     0
  0
CLASS
  1
ACMDATAENTRYBLOCK
  2
AcmDataEntryBlock
  3
"AcmSymBB|Product Description: AutoCAD Mechanical 2000|Company: Autodesk"
 90
        0
280
     0
281
     0
  0
CLASS
  1
AMGOBJPROPCFG
  2
AmgObjPropCfg
  3
"AmgLay|Product Description: AutoCAD Mechanical 2000|Company: Autodesk"
 90
        1
280
     0
281
     0
  0
CLASS
  1
ACAMGFILTERDAT
  2
AcAmgFilterDat
  3
"AcadM|Product Description: AutoCAD Mechanical 2000|Company: Autodesk"
 90
        0
280
     0
281
     0
  0
CLASS
  1
LAYER_INDEX
  2
AcDbLayerIndex
  3
AutoCAD 2000
 90
        0
280
     0
281
     0
  0
CLASS
  1
IDBUFFER
  2
AcDbIdBuffer
  3
AutoCAD 2000
 90
        0
280
     0
281
     0
  0
CLASS
  1
ACIMSTRSYSVAR
  2
AcImStrSysVar
  3
AcMeServices
 90
        0
280
     0
281
     0
  0
CLASS
  1
ACMSTANDARDJIS
  2
AcmStandardJIS
  3
"AcmSymBB|Product Description: AutoCAD Mechanical 2000|Company: Autodesk"
 90
        0
280
     0
281
     0
  0
CLASS
  1
ACMSURFSTANDARDJIS
  2
AcmSurfTextStdJIS
  3
"AcmSymBB|Product Description: AutoCAD Mechanical 2000|Company: Autodesk"
 90
        0
280
     0
281
     0
  0
CLASS
  1
ACMFCFSTANDARDJIS
  2
AcmFCFStdJIS
  3
"AcmSymBB|Product Description: AutoCAD Mechanical 2000|Company: Autodesk"
 90
        0
280
     0
281
     0
  0
CLASS
  1
ACMWELDSTANDARDJIS
  2
AcmWeldingStdJIS
  3
"AcmSymBB|Product Description: AutoCAD Mechanical 2000|Company: Autodesk"
 90
        0
280
     0
281
     0
  0
CLASS
  1
ACMIDSTANDARDJIS
  2
AcmIdStdJIS
  3
"AcmSymBB|Product Description: AutoCAD Mechanical 2000|Company: Autodesk"
 90
        0
280
     0
281
     0
  0
CLASS
  1
ACMDATUMSTANDARDJIS
  2
AcmDatumStdJIS
  3
"AcmSymBB|Product Description: AutoCAD Mechanical 2000|Company: Autodesk"
 90
        0
280
     0
281
     0
  0
CLASS
  1
ACMBOMSTANDARDJIS
  2
AcmBOMStdJIS
  3
"AcmSymBB|Product Description: AutoCAD Mechanical 2000|Company: Autodesk"
 90
        0
280
     0
281
     0
  0
CLASS
  1
ACMSTANDARDANSI
  2
AcmStandardANSI
  3
"AcmSymBB|Product Description: AutoCAD Mechanical 2000|Company: Autodesk"
 90
        0
280
     0
281
     0
  0
CLASS
  1
ACMSURFSTANDARDANSI
  2
AcmSurfTextStdANSI
  3
"AcmSymBB|Product Description: AutoCAD Mechanical 2000|Company: Autodesk"
 90
        0
280
     0
281
     0
  0
CLASS
  1
ACMFCFSTANDARDANSI
  2
AcmFCFStdANSI
  3
"AcmSymBB|Product Description: AutoCAD Mechanical 2000|Company: Autodesk"
 90
        0
280
     0
281
     0
  0
CLASS
  1
ACMWELDSTANDARDANSI
  2
AcmWeldingStdANSI
  3
"AcmSymBB|Product Description: AutoCAD Mechanical 2000|Company: Autodesk"
 90
        0
280
     0
281
     0
  0
CLASS
  1
ACMIDSTANDARDANSI
  2
AcmIdStdANSI
  3
"AcmSymBB|Product Description: AutoCAD Mechanical 2000|Company: Autodesk"
 90
        0
280
     0
281
     0
  0
CLASS
  1
ACMDATUMSTANDARDANSI
  2
AcmDatumStdANSI
  3
"AcmSymBB|Product Description: AutoCAD Mechanical 2000|Company: Autodesk"
 90
        0
280
     0
281
     0
  0
CLASS
  1
ACMBOMSTANDARDANSI
  2
AcmBOMStdANSI
  3
"AcmSymBB|Product Description: AutoCAD Mechanical 2000|Company: Autodesk"
 90
        0
280
     0
281
     0
  0
CLASS
  1
ACMSTANDARDBSI
  2
AcmStandardBSI
  3
"AcmSymBB|Product Description: AutoCAD Mechanical 2000|Company: Autodesk"
 90
        0
280
     0
281
     0
  0
CLASS
  1
ACMSURFSTANDARDBSI
  2
AcmSurfTextStdBSI
  3
"AcmSymBB|Product Description: AutoCAD Mechanical 2000|Company: Autodesk"
 90
        0
280
     0
281
     0
  0
CLASS
  1
ACMFCFSTANDARDBSI
  2
AcmFCFStdBSI
  3
"AcmSymBB|Product Description: AutoCAD Mechanical 2000|Company: Autodesk"
 90
        0
280
     0
281
     0
  0
CLASS
  1
ACMWELDSTANDARDBSI
  2
AcmWeldingStdBSI
  3
"AcmSymBB|Product Description: AutoCAD Mechanical 2000|Company: Autodesk"
 90
        0
280
     0
281
     0
  0
CLASS
  1
ACMIDSTANDARDBSI
  2
AcmIdStdBSI
  3
"AcmSymBB|Product Description: AutoCAD Mechanical 2000|Company: Autodesk"
 90
        0
280
     0
281
     0
  0
CLASS
  1
ACMDATUMSTANDARDBSI
  2
AcmDatumStdBSI
  3
"AcmSymBB|Product Description: AutoCAD Mechanical 2000|Company: Autodesk"
 90
        0
280
     0
281
     0
  0
CLASS
  1
ACMBOMSTANDARDBSI
  2
AcmBOMStdBSI
  3
"AcmSymBB|Product Description: AutoCAD Mechanical 2000|Company: Autodesk"
 90
        0
280
     0
281
     0
  0
CLASS
  1
LONG_TRANSACTION
  2
AcDbLongTransaction
  3
AutoCAD 2000
 90
        0
280
     0
281
     0
  0
CLASS
  1
LWPOLYLINE
  2
AcDbPolyline
  3
AutoCAD 2000
 90
        0
280
     0
281
     1
  0
CLASS
  1
HATCH
  2
AcDbHatch
  3
AutoCAD 2000
 90
        0
280
     0
281
     1
  0
CLASS
  1
XRECORD
  2
AcDbXrecord
  3
AutoCAD 2000
 90
        0
280
     0
281
     0
  0
ENDSEC
  0
SECTION
  2
TABLES
  0
TABLE
  2
VPORT
  5
8
330
0
100
AcDbSymbolTable
 70
     3
  0
VPORT
  5
26B1
330
8
100
AcDbSymbolTableRecord
100
AcDbViewportTableRecord
  2
*ACTIVE
 70
     0
 10
0.0
 20
0.0
 11
1.0
 21
1.0
 12
-37.6921131246685
 22
0.9972039576523741
 13
0.0
 23
0.0
 14
2.5
 24
2.5
 15
10.0
 25
10.0
 16
0.0
 26
0.0
 36
1.0
 17
0.0
 27
0.0
 37
0.0
 40
228.0778097707957
 41
1.56570841889117
 42
50.0
 43
0.0
 44
0.0
 50
0.0
 51
0.0
 71
     0
 72
   100
 73
     1
 74
     3
 75
     0
 76
     0
 77
     0
 78
     0
  0
ENDTAB
  0
TABLE
  2
LTYPE
  5
5
330
0
100
AcDbSymbolTable
 70
    10
  0
LTYPE
  5
14
330
5
100
AcDbSymbolTableRecord
100
AcDbLinetypeTableRecord
  2
BYBLOCK
 70
     0
  3

 72
    65
 73
     0
 40
0.0
  0
LTYPE
  5
15
330
5
100
AcDbSymbolTableRecord
100
AcDbLinetypeTableRecord
  2
BYLAYER
 70
     0
  3

 72
    65
 73
     0
 40
0.0
  0
LTYPE
  5
16
330
5
100
AcDbSymbolTableRecord
100
AcDbLinetypeTableRecord
  2
CONTINUOUS
 70
     0
  3
Solid line
 72
    65
 73
     0
 40
0.0
  0
LTYPE
  5
4B
330
5
100
AcDbSymbolTableRecord
100
AcDbLinetypeTableRecord
  2
AM_ISO02W050
 70
     0
  3
__ __ __ __ __ __ __ __ __ __ __ __ __ __ __
 72
    65
 73
     2
 40
7.5
 49
6.0
 74
     0
 49
-1.5
 74
     0
  0
LTYPE
  5
4C
330
5
100
AcDbSymbolTableRecord
100
AcDbLinetypeTableRecord
  2
AM_ISO08W050
 70
     0
  3
____ . ____ . ____ . ____ . ____ . ____ . ____
 72
    65
 73
     4
 40
18.0
 49
12.0
 74
     0
 49
-1.5
 74
     0
 49
3.0
 74
     0
 49
-1.5
 74
     0
  0
LTYPE
  5
4D
330
5
100
AcDbSymbolTableRecord
100
AcDbLinetypeTableRecord
  2
AM_ISO09W050
 70
     0
  3
_____ . . _____ . . _____ . . ____ .. ____
 72
    65
 73
     6
 40
22.5
 49
12.0
 74
     0
 49
-1.5
 74
     0
 49
3.0
 74
     0
 49
-1.5
 74
     0
 49
3.0
 74
     0
 49
-1.5
 74
     0
  0
LTYPE
  5
4E
330
5
100
AcDbSymbolTableRecord
100
AcDbLinetypeTableRecord
  2
AMCONSTR
 70
     0
  3
_______________________
 72
    65
 73
     2
 40
9999.0
 49
9999.0
 74
     0
 49
0.0
 74
     0
  0
LTYPE
  5
4F
330
5
100
AcDbSymbolTableRecord
100
AcDbLinetypeTableRecord
  2
AM_ISO02W050X2
 70
     0
  3
 _ _ _ _ _ _ _ _ _ _ _ _
 72
    65
 73
     2
 40
3.75
 49
3.0
 74
     0
 49
-0.75
 74
     0
  0
LTYPE
  5
50
330
5
100
AcDbSymbolTableRecord
100
AcDbLinetypeTableRecord
  2
AM_ISO08W050X2
 70
     0
  3
__ . __ . __ . __ . __ . __
 72
    65
 73
     4
 40
9.0
 49
6.0
 74
     0
 49
-0.75
 74
     0
 49
1.5
 74
     0
 49
-0.75
 74
     0
  0
LTYPE
  5
53
330
5
100
AcDbSymbolTableRecord
100
AcDbLinetypeTableRecord
  2
AMZIGZAG
 70
     0
  3
/\/-/\/-/\/-/\/-/\/-/\/
 72
    65
 73
     2
 40
11.00009999999999
 49
0.0001
 74
     4
 75
   135
340
52
 46
0.04
 50
0.0
 44
0.0
 45
0.0
 49
-11.0
 74
     0
  0
LTYPE
  5
166
330
5
100
AcDbSymbolTableRecord
100
AcDbLinetypeTableRecord
  2
ACJISTGL
 70
     0
  3
_ _ _ _ _
 72
    65
 73
     2
 40
3.0
 49
2.0
 74
     0
 49
-1.0
 74
     0
  0
LTYPE
  5
26A
330
5
100
AcDbSymbolTableRecord
100
AcDbLinetypeTableRecord
  2
ACJISTGB
 70
     0
  3
__ . . __ . .
 72
    65
 73
     6
 40
9.0
 49
4.0
 74
     0
 49
-1.0
 74
     0
 49
1.0
 74
     0
 49
-1.0
 74
     0
 49
1.0
 74
     0
 49
-1.0
 74
     0
  0
ENDTAB
  0
TABLE
  2
LAYER
  5
2
330
0
100
AcDbSymbolTable
 70
     7
  0
LAYER
  5
10
330
2
100
AcDbSymbolTableRecord
100
AcDbLayerTableRecord
  2
0
 70
     0
 62
     7
  6
CONTINUOUS
  0
LAYER
  5
3F9
330
2
100
AcDbSymbolTableRecord
100
AcDbLayerTableRecord
  2
AM_0
 70
     0
 62
     7
  6
CONTINUOUS
  0
LAYER
  5
CD5
330
2
100
AcDbSymbolTableRecord
100
AcDbLayerTableRecord
  2
AM_7
 70
     0
 62
     4
  6
AM_ISO08W050
  0
LAYER
  5
CDE
330
2
100
AcDbSymbolTableRecord
100
AcDbLayerTableRecord
  2
AM_11
 70
     0
 62
     3
  6
AM_ISO09W050
  0
LAYER
  5
CFB
330
2
100
AcDbSymbolTableRecord
100
AcDbLayerTableRecord
  2
AM_5
 70
     0
 62
     3
  6
CONTINUOUS
  0
LAYER
  5
CFD
330
2
100
AcDbSymbolTableRecord
100
AcDbLayerTableRecord
  2
DEFPOINTS
 70
     0
 62
     7
  6
CONTINUOUS
  0
LAYER
  5
113C
330
2
100
AcDbSymbolTableRecord
100
AcDbLayerTableRecord
  2
AM_6
 70
     0
 62
     2
  6
CONTINUOUS
  0
ENDTAB
  0
TABLE
  2
STYLE
  5
3
330
0
100
AcDbSymbolTable
 70
     5
  0
STYLE
  5
11
330
3
100
AcDbSymbolTableRecord
100
AcDbTextStyleTableRecord
  2
STANDARD
 70
     0
 40
0.0
 41
1.0
 50
0.0
 71
     0
 42
2.5
  3
simplex.shx
  4
EXTFONT.SHX
  0
STYLE
  5
52
330
3
100
AcDbSymbolTableRecord
100
AcDbTextStyleTableRecord
  2

 70
     1
 40
0.0
 41
1.0
 50
0.0
 71
     0
 42
2.5
  3
ltypeshp.shx
  4

  0
STYLE
  5
6B
330
3
100
AcDbSymbolTableRecord
100
AcDbTextStyleTableRecord
  2
ASAMI
 70
     0
 40
0.0
 41
1.0
 50
0.0
 71
     0
 42
2.5
  3
simplex.shx
  4
EXTFONT.SHX
  0
STYLE
  5
262
330
3
100
AcDbSymbolTableRecord
100
AcDbTextStyleTableRecord
  2
ACJISTS
 70
     0
 40
1.0
 41
1.0
 50
0.0
 71
     0
 42
2.5
  3
simplex.shx
  4
bigfont.shx
  0
STYLE
  5
269
330
3
100
AcDbSymbolTableRecord
100
AcDbTextStyleTableRecord
  2
ACJISGDT
 70
     0
 40
0.0
 41
1.0
 50
0.0
 71
     0
 42
2.5
  3
amgdtans.shx
  4

  0
ENDTAB
  0
TABLE
  2
VIEW
  5
6
330
0
100
AcDbSymbolTable
 70
     0
  0
ENDTAB
  0
TABLE
  2
UCS
  5
7
330
0
100
AcDbSymbolTable
 70
     0
  0
ENDTAB
  0
TABLE
  2
APPID
  5
9
330
0
100
AcDbSymbolTable
 70
    13
  0
APPID
  5
12
330
9
100
AcDbSymbolTableRecord
100
AcDbRegAppTableRecord
  2
ACAD
 70
     0
  0
APPID
  5
30
330
9
100
AcDbSymbolTableRecord
100
AcDbRegAppTableRecord
  2
MCAD_NO_VIS
 70
     0
  0
APPID
  5
31
330
9
100
AcDbSymbolTableRecord
100
AcDbRegAppTableRecord
  2
ACAD_TEMP_GRAPHIC
 70
     0
  0
APPID
  5
2C2
330
9
100
AcDbSymbolTableRecord
100
AcDbRegAppTableRecord
  2
GENIUS_GENDTOL_13
 70
     0
  0
APPID
  5
339
330
9
100
AcDbSymbolTableRecord
100
AcDbRegAppTableRecord
  2
GENIUS_GENODEF_13
 70
     0
  0
APPID
  5
33A
330
9
100
AcDbSymbolTableRecord
100
AcDbRegAppTableRecord
  2
GENIUS_GENOBJ-N-RSBK_13
 70
     0
  0
APPID
  5
33B
330
9
100
AcDbSymbolTableRecord
100
AcDbRegAppTableRecord
  2
GENIUS_GENOBJ-N-LIB_13
 70
     0
  0
APPID
  5
33C
330
9
100
AcDbSymbolTableRecord
100
AcDbRegAppTableRecord
  2
GENIUS_GENSCALE_13
 70
     0
  0
APPID
  5
378
330
9
100
AcDbSymbolTableRecord
100
AcDbRegAppTableRecord
  2
GENIUS_GENDIMSH_14
 70
     0
  0
APPID
  5
13A0
330
9
100
AcDbSymbolTableRecord
100
AcDbRegAppTableRecord
  2
GENIUS_GENOBJ-N-CEN_13
 70
     0
  0
APPID
  5
13D7
330
9
100
AcDbSymbolTableRecord
100
AcDbRegAppTableRecord
  2
GENIUS_GENREC_14
 70
     0
  0
APPID
  5
13D8
330
9
100
AcDbSymbolTableRecord
100
AcDbRegAppTableRecord
  2
GENIUS_GENOBJ-N-REC_13
 70
     0
  0
APPID
  5
2061
330
9
100
AcDbSymbolTableRecord
100
AcDbRegAppTableRecord
  2
DCO15
 70
     0
  0
ENDTAB
  0
TABLE
  2
DIMSTYLE
  5
A
330
0
100
AcDbSymbolTable
 70
     9
  0
DIMSTYLE
105
58
330
A
100
AcDbSymbolTableRecord
100
AcDbDimStyleTableRecord
  2
AM_JIS
 70
     0
  3

  4
"
  5
OPEN30
  6

  7

 40
1.0
 41
2.5
 42
1.0
 43
12.0
 44
1.0
 45
0.0
 46
0.0
 47
0.1
 48
0.1
140
3.2
141
0.0
142
0.0
143
0.0393701
144
1.0
145
0.0
146
0.71
147
1.5
 71
     0
 72
     0
 73
     0
 74
     0
 75
     0
 76
     0
 77
     3
 78
     8
170
     0
171
     2
172
     1
173
     0
174
     0
175
     0
176
   256
177
   256
178
     2
270
     2
271
     3
272
     3
273
     2
274
     2
340
6B
275
     0
280
     0
281
     0
282
     0
283
     0
284
     0
285
     0
286
     0
287
     3
288
     0
  0
DIMSTYLE
105
5F
330
A
100
AcDbSymbolTableRecord
100
AcDbDimStyleTableRecord
  2
AM_JIS$3
 70
     0
  3

  4
"
  5
OPEN30
  6

  7

 40
1.0
 41
2.5
 42
1.0
 43
10.0
 44
1.0
 45
0.0
 46
0.0
 47
0.1
 48
0.1
140
3.2
141
0.0
142
0.0
143
0.0393701
144
1.0
145
0.0
146
0.71
147
1.5
 71
     0
 72
     0
 73
     0
 74
     1
 75
     0
 76
     0
 77
     3
 78
     8
170
     0
171
     2
172
     0
173
     0
174
     0
175
     0
176
   256
177
   256
178
     2
270
     2
271
     2
272
     3
273
     2
274
     2
340
6B
275
     0
280
     0
281
     0
282
     0
283
     0
284
     0
285
     0
286
     0
287
     0
288
     1
  0
DIMSTYLE
105
60
330
A
100
AcDbSymbolTableRecord
100
AcDbDimStyleTableRecord
  2
AM_JIS$4
 70
     0
  3

  4
"
  5
OPEN30
  6

  7

 40
1.0
 41
2.5
 42
1.0
 43
10.0
 44
1.0
 45
0.0
 46
0.0
 47
0.1
 48
0.1
140
3.2
141
0.0
142
0.0
143
0.0393701
144
1.0
145
0.0
146
0.71
147
1.5
 71
     0
 72
     0
 73
     0
 74
     1
 75
     0
 76
     0
 77
     3
 78
     8
170
     0
171
     2
172
     0
173
     0
174
     0
175
     0
176
   256
177
   256
178
     2
270
     2
271
     2
272
     3
273
     2
274
     2
340
6B
275
     0
280
     0
281
     0
282
     0
283
     0
284
     0
285
     0
286
     0
287
     0
288
     1
  0
DIMSTYLE
105
61
330
A
100
AcDbSymbolTableRecord
100
AcDbDimStyleTableRecord
  2
AM_JIS$6
 70
     0
  3

  4
"
  5
OPEN30
  6

  7

 40
1.0
 41
2.5
 42
1.0
 43
10.0
 44
1.0
 45
0.0
 46
0.0
 47
0.1
 48
0.1
140
3.2
141
0.0
142
0.0
143
0.0393701
144
1.0
145
0.0
146
0.71
147
1.5
 71
     0
 72
     0
 73
     0
 74
     0
 75
     0
 76
     0
 77
     0
 78
     8
170
     0
171
     2
172
     1
173
     0
174
     0
175
     0
176
   256
177
   256
178
     2
270
     2
271
     2
272
     2
273
     2
274
     2
340
6B
275
     0
280
     0
281
     0
282
     0
283
     0
284
     0
285
     0
286
     0
287
     3
288
     0
  0
DIMSTYLE
105
62
330
A
100
AcDbSymbolTableRecord
100
AcDbDimStyleTableRecord
  2
AM_JIS$7
 70
     0
  3

  4
"
  5
OPEN30
  6

  7

 40
1.0
 41
2.5
 42
1.0
 43
10.0
 44
1.0
 45
0.0
 46
0.0
 47
0.1
 48
0.1
140
3.2
141
0.0
142
0.0
143
0.0393701
144
1.0
145
0.0
146
0.71
147
1.5
 71
     0
 72
     0
 73
     0
 74
     0
 75
     0
 76
     0
 77
     3
 78
     8
170
     0
171
     2
172
     1
173
     0
174
     0
175
     0
176
   256
177
   256
178
     2
270
     2
271
     2
272
     3
273
     2
274
     2
340
6B
275
     0
280
     0
281
     0
282
     0
283
     0
284
     0
285
     0
286
     0
287
     3
288
     0
  0
DIMSTYLE
105
63
330
A
100
AcDbSymbolTableRecord
100
AcDbDimStyleTableRecord
  2
AM_JIS$SF
 70
     0
  3

  4
"
  5
OPEN30
  6

  7

 40
1.0
 41
2.5
 42
1.0
 43
10.0
 44
1.0
 45
0.0
 46
0.0
 47
0.1
 48
0.1
140
3.2
141
0.0
142
0.0
143
0.0393701
144
1.0
145
0.0
146
0.71
147
1.5
 71
     0
 72
     0
 73
     0
 74
     0
 75
     1
 76
     1
 77
     3
 78
     8
170
     0
171
     2
172
     1
173
     0
174
     0
175
     0
176
   256
177
   256
178
     2
270
     2
271
     2
272
     2
273
     2
274
     2
340
6B
275
     0
280
     0
281
     0
282
     0
283
     0
284
     0
285
     0
286
     0
287
     3
288
     0
  0
DIMSTYLE
105
68
330
A
100
AcDbSymbolTableRecord
100
AcDbDimStyleTableRecord
  2
AM_JIS$SH
 70
     0
  3

  4
"
  5

  6
GENAXEH
  7
OPEN30
 40
1.0
 41
2.5
 42
1.0
 43
10.0
 44
1.0
 45
0.0
 46
0.0
 47
0.1
 48
0.1
140
3.2
141
0.0
142
0.0
143
0.0393701
144
2.0
145
0.0
146
0.71
147
1.5
 71
     0
 72
     0
 73
     0
 74
     0
 75
     1
 76
     1
 77
     3
 78
     8
170
     0
171
     2
172
     1
173
     1
174
     0
175
     0
176
   256
177
   256
178
     2
270
     2
271
     2
272
     2
273
     2
274
     2
340
6B
275
     0
280
     0
281
     0
282
     0
283
     0
284
     0
285
     0
286
     0
287
     3
288
     0
  0
DIMSTYLE
105
B34
330
A
100
AcDbSymbolTableRecord
100
AcDbDimStyleTableRecord
  2
AM_JIS$2
 70
     0
  3

  4
"
  5
OPEN30
  6

  7

 40
1.0
 41
2.5
 42
1.0
 43
12.0
 44
1.0
 45
0.0
 46
0.0
 47
0.1
 48
0.1
140
3.2
141
0.0
142
0.0
143
0.0393701
144
1.0
145
0.0
146
0.71
147
1.5
 71
     0
 72
     0
 73
     0
 74
     0
 75
     0
 76
     0
 77
     3
 78
     8
170
     0
171
     2
172
     1
173
     0
174
     0
175
     0
176
   256
177
   256
178
     2
270
     2
271
     3
272
     3
273
     2
274
     2
340
6B
275
     0
280
     0
281
     0
282
     0
283
     0
284
     0
285
     0
286
     0
287
     3
288
     0
  0
DIMSTYLE
105
BA5
102
{ACAD_REACTORS
330
155D
330
15E8
330
1673
330
1895
330
1E16
330
25B0
102
}
330
A
100
AcDbSymbolTableRecord
100
AcDbDimStyleTableRecord
  2
AM_JIS$0
 70
     0
  3

  4
"
  5
OPEN30
  6

  7

 40
1.0
 41
2.5
 42
0.0
 43
10.0
 44
1.0
 45
0.0
 46
0.0
 47
0.1
 48
0.1000000001
140
3.799999999999999
141
0.0
142
0.0
143
0.0393701
144
1.0
145
0.0
146
0.71
147
1.5
 71
     0
 72
     0
 73
     0
 74
     0
 75
     0
 76
     0
 77
     3
 78
     1
170
     0
171
     2
172
     1
173
     0
174
     0
175
     0
176
     3
177
     3
178
     2
270
     2
271
     2
272
     2
273
     2
274
     2
340
11
275
     1
280
     0
281
     0
282
     0
283
     0
284
     8
285
     0
286
     0
287
     0
288
     0
  0
ENDTAB
  0
TABLE
  2
BLOCK_RECORD
  5
1
330
0
100
AcDbSymbolTable
 70
    11
  0
BLOCK_RECORD
  5
1F
102
{ACAD_XDICTIONARY
360
74
102
}
330
1
100
AcDbSymbolTableRecord
100
AcDbBlockTableRecord
  2
*MODEL_SPACE
  0
BLOCK_RECORD
  5
101
102
{ACAD_XDICTIONARY
360
26DA
102
}
330
1
100
AcDbSymbolTableRecord
100
AcDbBlockTableRecord
  2
*PAPER_SPACE
  0
BLOCK_RECORD
  5
59
330
1
100
AcDbSymbolTableRecord
100
AcDbBlockTableRecord
  2
_OPEN30
  0
BLOCK_RECORD
  5
64
330
1
100
AcDbSymbolTableRecord
100
AcDbBlockTableRecord
  2
GENAXEH
  0
BLOCK_RECORD
  5
155E
330
1
100
AcDbSymbolTableRecord
100
AcDbBlockTableRecord
  2
*D5
  0
BLOCK_RECORD
  5
15E9
330
1
100
AcDbSymbolTableRecord
100
AcDbBlockTableRecord
  2
*D6
  0
BLOCK_RECORD
  5
1674
330
1
100
AcDbSymbolTableRecord
100
AcDbBlockTableRecord
  2
*D7
  0
BLOCK_RECORD
  5
1896
330
1
100
AcDbSymbolTableRecord
100
AcDbBlockTableRecord
  2
*D8
  0
BLOCK_RECORD
  5
1E17
330
1
100
AcDbSymbolTableRecord
100
AcDbBlockTableRecord
  2
*D9
  0
BLOCK_RECORD
  5
25B1
330
1
100
AcDbSymbolTableRecord
100
AcDbBlockTableRecord
  2
*D10
  0
ENDTAB
  0
ENDSEC
  0
SECTION
  2
BLOCKS
  0
BLOCK
  5
20
330
1F
100
AcDbEntity
  8
0
100
AcDbBlockBegin
  2
*MODEL_SPACE
 70
     0
 10
0.0
 20
0.0
 30
0.0
  3
*MODEL_SPACE
  1

  0
ENDBLK
  5
21
330
1F
100
AcDbEntity
  8
0
100
AcDbBlockEnd
  0
BLOCK
  5
103
330
101
100
AcDbEntity
 67
     1
  8
0
100
AcDbBlockBegin
  2
*PAPER_SPACE
 70
     0
 10
0.0
 20
0.0
 30
0.0
  3
*PAPER_SPACE
  1

  0
ENDBLK
  5
104
330
101
100
AcDbEntity
 67
     1
  8
0
100
AcDbBlockEnd
  0
BLOCK
  5
5D
330
59
100
AcDbEntity
  8
0
100
AcDbBlockBegin
  2
_OPEN30
 70
     0
 10
0.0
 20
0.0
 30
0.0
  3
_OPEN30
  1

  0
LINE
  5
5A
330
59
100
AcDbEntity
  8
0
 62
     0
100
AcDbLine
 10
-1.0
 20
0.26794919
 30
0.0
 11
0.0
 21
0.0
 31
0.0
  0
LINE
  5
5B
330
59
100
AcDbEntity
  8
0
 62
     0
100
AcDbLine
 10
0.0
 20
0.0
 30
0.0
 11
-1.0
 21
-0.26794919
 31
0.0
  0
LINE
  5
5C
330
59
100
AcDbEntity
  8
0
 62
     0
100
AcDbLine
 10
0.0
 20
0.0
 30
0.0
 11
-1.0
 21
0.0
 31
0.0
  0
ENDBLK
  5
5E
330
59
100
AcDbEntity
  8
0
100
AcDbBlockEnd
  0
BLOCK
  5
66
330
64
100
AcDbEntity
  8
0
100
AcDbBlockBegin
  2
GENAXEH
 70
     0
 10
0.0
 20
0.0
 30
0.0
  3
GENAXEH
  1

  0
LINE
  5
65
330
64
100
AcDbEntity
  8
0
100
AcDbLine
 10
-1.0
 20
0.0
 30
0.0
 11
1.0
 21
0.0
 31
0.0
  0
ENDBLK
  5
67
330
64
100
AcDbEntity
  8
0
100
AcDbBlockEnd
  0
BLOCK
  5
1568
330
155E
100
AcDbEntity
  8
0
100
AcDbBlockBegin
  2
*D5
 70
     1
 10
0.0
 20
0.0
 30
0.0
  3
*D5
  1

  0
LINE
  5
25A0
330
155E
100
AcDbEntity
  8
AM_5
 62
     3
100
AcDbLine
 10
0.0000000000000206
 20
-12.49999999999998
 30
0.0
 11
0.0000000000000194
 21
-31.00000386102297
 31
0.0
  0
LINE
  5
25A1
330
155E
100
AcDbEntity
  8
AM_5
 62
     3
100
AcDbLine
 10
-34.99999713897698
 20
-11.99999999999998
 30
0.0
 11
-34.99999713897698
 21
-31.00000386102296
 31
0.0
  0
LINE
  5
25A2
330
155E
100
AcDbEntity
  8
AM_5
 62
     3
100
AcDbLine
 10
-2.49999999999998
 20
-30.00000386102297
 30
0.0
 11
-32.49999713897698
 21
-30.00000386102297
 31
0.0
  0
INSERT
  5
25A3
330
155E
100
AcDbEntity
  8
AM_5
 62
     3
100
AcDbBlockReference
  2
_OPEN30
 10
0.0000000000000195
 20
-30.00000386102297
 30
0.0
 41
2.5
 42
2.5
 43
2.5
  0
INSERT
  5
25A4
330
155E
100
AcDbEntity
  8
AM_5
 62
     3
100
AcDbBlockReference
  2
_OPEN30
 10
-34.99999713897698
 20
-30.00000386102297
 30
0.0
 41
2.5
 42
2.5
 43
2.5
 50
180.0
  0
MTEXT
  5
25A5
330
155E
100
AcDbEntity
  8
AM_5
 62
     2
100
AcDbMText
 10
-17.49999856948847
 20
-26.60000386102297
 30
0.0
 40
3.799999999999999
 41
0.0
 71
     5
 72
     1
  1
35
1001
ACAD
1000
MTEXTBEGIN
1070
    73
1070
     1
1070
    44
1040
1.0
1070
    74
1070
     0
1000
MTEXTEND
  0
POINT
  5
25A6
330
155E
100
AcDbEntity
  8
DEFPOINTS
 62
     0
100
AcDbPoint
 10
0.0000000000000206
 20
-12.49999999999998
 30
0.0
  0
POINT
  5
25A7
330
155E
100
AcDbEntity
  8
DEFPOINTS
 62
     0
100
AcDbPoint
 10
-34.99999713897698
 20
-11.99999999999998
 30
0.0
  0
POINT
  5
25A8
330
155E
100
AcDbEntity
  8
DEFPOINTS
 62
     0
100
AcDbPoint
 10
-34.99999713897698
 20
-30.00000386102297
 30
0.0
  0
ENDBLK
  5
1569
330
155E
100
AcDbEntity
  8
0
100
AcDbBlockEnd
  0
BLOCK
  5
15F3
330
15E9
100
AcDbEntity
  8
0
100
AcDbBlockBegin
  2
*D6
 70
     1
 10
0.0
 20
0.0
 30
0.0
  3
*D6
  1

  0
LINE
  5
2650
330
15E9
100
AcDbEntity
  8
AM_5
 62
     3
100
AcDbLine
 10
-35.00000762939397
 20
-15.49999904632597
 30
0.0
 11
-35.00000762939397
 21
-31.00000386102314
 31
0.0
  0
LINE
  5
2651
330
15E9
100
AcDbEntity
  8
AM_5
 62
     3
100
AcDbLine
 10
-120.0000076293929
 20
-13.66149806976396
 30
0.0
 11
-120.0000076293929
 21
-31.00000386102314
 31
0.0
  0
LINE
  5
2652
330
15E9
100
AcDbEntity
  8
AM_5
 62
     3
100
AcDbLine
 10
-37.50000762939397
 20
-30.00000386102314
 30
0.0
 11
-117.5000076293929
 21
-30.00000386102314
 31
0.0
  0
INSERT
  5
2653
330
15E9
100
AcDbEntity
  8
AM_5
 62
     3
100
AcDbBlockReference
  2
_OPEN30
 10
-35.00000762939397
 20
-30.00000386102314
 30
0.0
 41
2.5
 42
2.5
 43
2.5
  0
INSERT
  5
2654
330
15E9
100
AcDbEntity
  8
AM_5
 62
     3
100
AcDbBlockReference
  2
_OPEN30
 10
-120.0000076293929
 20
-30.00000386102314
 30
0.0
 41
2.5
 42
2.5
 43
2.5
 50
180.0
  0
MTEXT
  5
2655
330
15E9
100
AcDbEntity
  8
AM_5
 62
     2
100
AcDbMText
 10
-77.50000762939348
 20
-26.60000386102314
 30
0.0
 40
3.799999999999999
 41
0.0
 71
     5
 72
     1
  1
85
1001
ACAD
1000
MTEXTBEGIN
1070
    73
1070
     1
1070
    44
1040
1.0
1070
    74
1070
     0
1000
MTEXTEND
  0
POINT
  5
2656
330
15E9
100
AcDbEntity
  8
DEFPOINTS
 62
     0
100
AcDbPoint
 10
-35.00000762939397
 20
-15.49999904632597
 30
0.0
  0
POINT
  5
2657
330
15E9
100
AcDbEntity
  8
DEFPOINTS
 62
     0
100
AcDbPoint
 10
-120.0000076293929
 20
-13.66149806976396
 30
0.0
  0
POINT
  5
2658
330
15E9
100
AcDbEntity
  8
DEFPOINTS
 62
     0
100
AcDbPoint
 10
-120.0000076293929
 20
-30.00000386102314
 30
0.0
  0
ENDBLK
  5
15F4
330
15E9
100
AcDbEntity
  8
0
100
AcDbBlockEnd
  0
BLOCK
  5
167E
330
1674
100
AcDbEntity
  8
0
100
AcDbBlockBegin
  2
*D7
 70
     1
 10
0.0
 20
0.0
 30
0.0
  3
*D7
  1

  0
LINE
  5
2647
330
1674
100
AcDbEntity
  8
AM_5
 62
     3
100
AcDbLine
 10
-120.0000076293929
 20
-13.66149806976396
 30
0.0
 11
-120.0000076293929
 21
-41.00000386102296
 31
0.0
  0
LINE
  5
2648
330
1674
100
AcDbEntity
  8
AM_5
 62
     3
100
AcDbLine
 10
-0.0000000000000019
 20
-12.49999999999998
 30
0.0
 11
-0.0000000000000036
 21
-41.00000386102296
 31
0.0
  0
LINE
  5
2649
330
1674
100
AcDbEntity
  8
AM_5
 62
     3
100
AcDbLine
 10
-117.5000076293929
 20
-40.00000386102295
 30
0.0
 11
-2.500000000000003
 21
-40.00000386102295
 31
0.0
  0
INSERT
  5
264A
330
1674
100
AcDbEntity
  8
AM_5
 62
     3
100
AcDbBlockReference
  2
_OPEN30
 10
-120.0000076293929
 20
-40.00000386102295
 30
0.0
 41
2.5
 42
2.5
 43
2.5
 50
180.0
  0
INSERT
  5
264B
330
1674
100
AcDbEntity
  8
AM_5
 62
     3
100
AcDbBlockReference
  2
_OPEN30
 10
-0.0000000000000035
 20
-40.00000386102295
 30
0.0
 41
2.5
 42
2.5
 43
2.5
  0
MTEXT
  5
264C
330
1674
100
AcDbEntity
  8
AM_5
 62
     2
100
AcDbMText
 10
-60.00000381469648
 20
-36.60000386102296
 30
0.0
 40
3.799999999999999
 41
0.0
 71
     5
 72
     1
  1
120
1001
ACAD
1000
MTEXTBEGIN
1070
    73
1070
     1
1070
    44
1040
1.0
1070
    74
1070
     0
1000
MTEXTEND
  0
POINT
  5
264D
330
1674
100
AcDbEntity
  8
DEFPOINTS
 62
     0
100
AcDbPoint
 10
-120.0000076293929
 20
-13.66149806976396
 30
0.0
  0
POINT
  5
264E
330
1674
100
AcDbEntity
  8
DEFPOINTS
 62
     0
100
AcDbPoint
 10
-0.0000000000000019
 20
-12.49999999999998
 30
0.0
  0
POINT
  5
264F
330
1674
100
AcDbEntity
  8
DEFPOINTS
 62
     0
100
AcDbPoint
 10
-0.0000000000000035
 20
-40.00000386102295
 30
0.0
  0
ENDBLK
  5
167F
330
1674
100
AcDbEntity
  8
0
100
AcDbBlockEnd
  0
BLOCK
  5
18A0
330
1896
100
AcDbEntity
  8
0
100
AcDbBlockBegin
  2
*D8
 70
     1
 10
0.0
 20
0.0
 30
0.0
  3
*D8
  1

  0
LINE
  5
2573
330
1896
100
AcDbEntity
  8
AM_5
 62
     3
100
AcDbLine
 10
0.0000000000000206
 20
-15.99999904632598
 30
0.0
 11
20.82219033105498
 21
-15.99999904632598
 31
0.0
  0
LINE
  5
2574
330
1896
100
AcDbEntity
  8
AM_5
 62
     3
100
AcDbLine
 10
0.0000000000000233
 20
16.00000286102202
 30
0.0
 11
20.82219033105499
 21
16.00000286102202
 31
0.0
  0
LINE
  5
2575
330
1896
100
AcDbEntity
  8
AM_5
 62
     3
100
AcDbLine
 10
19.82219033105498
 20
-13.49999904632598
 30
0.0
 11
19.82219033105499
 21
13.50000286102202
 31
0.0
  0
INSERT
  5
2576
330
1896
100
AcDbEntity
  8
AM_5
 62
     3
100
AcDbBlockReference
  2
_OPEN30
 10
19.82219033105498
 20
-15.99999904632598
 30
0.0
 41
2.5
 42
2.5
 43
2.5
 50
270.0
  0
INSERT
  5
2577
330
1896
100
AcDbEntity
  8
AM_5
 62
     3
100
AcDbBlockReference
  2
_OPEN30
 10
19.82219033105499
 20
16.00000286102202
 30
0.0
 41
2.5
 42
2.5
 43
2.5
 50
90.0
  0
MTEXT
  5
2578
330
1896
100
AcDbEntity
  8
AM_5
 62
     2
100
AcDbMText
 10
16.42219033105498
 20
0.0000019073480209
 30
0.0
 40
3.799999999999999
 41
0.0
 71
     5
 72
     1
  1
%%c32
 11
0.0000000000000001
 21
1.0
 31
0.0
1001
ACAD
1000
MTEXTBEGIN
1070
    73
1070
     1
1070
    44
1040
1.0
1070
    74
1070
     0
1000
MTEXTEND
  0
POINT
  5
2579
330
1896
100
AcDbEntity
  8
DEFPOINTS
 62
     0
100
AcDbPoint
 10
0.0000000000000206
 20
-15.99999904632598
 30
0.0
  0
POINT
  5
257A
330
1896
100
AcDbEntity
  8
DEFPOINTS
 62
     0
100
AcDbPoint
 10
0.0000000000000233
 20
16.00000286102202
 30
0.0
  0
POINT
  5
257B
330
1896
100
AcDbEntity
  8
DEFPOINTS
 62
     0
100
AcDbPoint
 10
19.82219033105499
 20
16.00000286102202
 30
0.0
  0
ENDBLK
  5
18A1
330
1896
100
AcDbEntity
  8
0
100
AcDbBlockEnd
  0
BLOCK
  5
1E21
330
1E17
100
AcDbEntity
  8
0
100
AcDbBlockBegin
  2
*D9
 70
     1
 10
0.0
 20
0.0
 30
0.0
  3
*D9
  1

  0
LINE
  5
2561
330
1E17
100
AcDbEntity
  8
AM_5
 62
     3
100
AcDbLine
 10
-117.0000076293929
 20
16.00000286102203
 30
0.0
 11
-138.8947676987066
 21
16.00000286102204
 31
0.0
  0
LINE
  5
2562
330
1E17
100
AcDbEntity
  8
AM_5
 62
     3
100
AcDbLine
 10
-116.9999923706039
 20
-15.99999904632596
 30
0.0
 11
-138.8947676987066
 21
-15.99999904632596
 31
0.0
  0
LINE
  5
2563
330
1E17
100
AcDbEntity
  8
AM_5
 62
     3
100
AcDbLine
 10
-137.8947676987066
 20
13.50000286102204
 30
0.0
 11
-137.8947676987066
 21
-13.49999904632596
 31
0.0
  0
INSERT
  5
2564
330
1E17
100
AcDbEntity
  8
AM_5
 62
     3
100
AcDbBlockReference
  2
_OPEN30
 10
-137.8947676987066
 20
16.00000286102204
 30
0.0
 41
2.5
 42
2.5
 43
2.5
 50
90.0
  0
INSERT
  5
2565
330
1E17
100
AcDbEntity
  8
AM_5
 62
     3
100
AcDbBlockReference
  2
_OPEN30
 10
-137.8947676987066
 20
-15.99999904632596
 30
0.0
 41
2.5
 42
2.5
 43
2.5
 50
270.0
  0
MTEXT
  5
2566
330
1E17
100
AcDbEntity
  8
AM_5
 62
     2
100
AcDbMText
 10
-141.2947676987066
 20
0.0000362396245164
 30
0.0
 40
3.799999999999999
 41
0.0
 71
     5
 72
     1
  1
%%c32
 11
0.0000000000000001
 21
1.0
 31
0.0
1001
ACAD
1000
MTEXTBEGIN
1070
    73
1070
     1
1070
    44
1040
1.0
1070
    74
1070
     0
1000
MTEXTEND
  0
POINT
  5
2567
330
1E17
100
AcDbEntity
  8
DEFPOINTS
 62
     0
100
AcDbPoint
 10
-117.0000076293929
 20
16.00000286102203
 30
0.0
  0
POINT
  5
2568
330
1E17
100
AcDbEntity
  8
DEFPOINTS
 62
     0
100
AcDbPoint
 10
-116.9999923706039
 20
-15.99999904632596
 30
0.0
  0
POINT
  5
2569
330
1E17
100
AcDbEntity
  8
DEFPOINTS
 62
     0
100
AcDbPoint
 10
-137.8947676987066
 20
-15.99999904632596
 30
0.0
  0
ENDBLK
  5
1E22
330
1E17
100
AcDbEntity
  8
0
100
AcDbBlockEnd
  0
BLOCK
  5
25BB
330
25B1
100
AcDbEntity
  8
0
100
AcDbBlockBegin
  2
*D10
 70
     1
 10
0.0
 20
0.0
 30
0.0
  3
*D10
  1

  0
LINE
  5
263E
330
25B1
100
AcDbEntity
  8
AM_5
 62
     3
100
AcDbLine
 10
-8.999999999999976
 20
16.00000286102202
 30
0.0
 11
-8.999999999999975
 21
31.00000958306803
 31
0.0
  0
LINE
  5
263F
330
25B1
100
AcDbEntity
  8
AM_5
 62
     3
100
AcDbLine
 10
0.0000000000000233
 20
16.00000286102202
 30
0.0
 11
0.0000000000000242
 21
31.00000958306803
 31
0.0
  0
LINE
  5
2640
330
25B1
100
AcDbEntity
  8
AM_5
 62
     3
100
AcDbLine
 10
-6.499999999999976
 20
30.00000958306803
 30
0.0
 11
-2.499999999999976
 21
30.00000958306803
 31
0.0
  0
INSERT
  5
2641
330
25B1
100
AcDbEntity
  8
AM_5
 62
     3
100
AcDbBlockReference
  2
_OPEN30
 10
-8.999999999999976
 20
30.00000958306803
 30
0.0
 41
2.5
 42
2.5
 43
2.5
 50
180.0
  0
INSERT
  5
2642
330
25B1
100
AcDbEntity
  8
AM_5
 62
     3
100
AcDbBlockReference
  2
_OPEN30
 10
0.0000000000000241
 20
30.00000958306803
 30
0.0
 41
2.5
 42
2.5
 43
2.5
  0
MTEXT
  5
2643
330
25B1
100
AcDbEntity
  8
AM_5
 62
     2
100
AcDbMText
 10
-4.499999999999976
 20
33.40000958306803
 30
0.0
 40
3.799999999999999
 41
0.0
 71
     5
 72
     1
  1
9
1001
ACAD
1000
MTEXTBEGIN
1070
    73
1070
     1
1070
    44
1040
1.0
1070
    74
1070
     0
1000
MTEXTEND
  0
POINT
  5
2644
330
25B1
100
AcDbEntity
  8
DEFPOINTS
 62
     0
100
AcDbPoint
 10
-8.999999999999976
 20
16.00000286102202
 30
0.0
  0
POINT
  5
2645
330
25B1
100
AcDbEntity
  8
DEFPOINTS
 62
     0
100
AcDbPoint
 10
0.0000000000000233
 20
16.00000286102202
 30
0.0
  0
POINT
  5
2646
330
25B1
100
AcDbEntity
  8
DEFPOINTS
 62
     0
100
AcDbPoint
 10
0.0000000000000241
 20
30.00000958306803
 30
0.0
  0
ENDBLK
  5
25BC
330
25B1
100
AcDbEntity
  8
0
100
AcDbBlockEnd
  0
ENDSEC
  0
SECTION
  2
ENTITIES
  0
TEXT
  5
1142
330
1F
100
AcDbEntity
  8
AM_6
100
AcDbText
 10
-84.59733712089155
 20
-61.00000386102296
 30
0.0
 40
5.0
  1
WEM2032E-C
 72
     4
 11
-59.95447997803442
 21
-58.50000386102296
 31
0.0
100
AcDbText
  0
DIMENSION
  5
155D
330
1F
100
AcDbEntity
  8
AM_5
100
AcDbDimension
  2
*D5
 10
-34.99999713897698
 20
-30.00000386102297
 30
0.0
 11
-17.49999856948847
 21
-26.60000386102297
 31
0.0
 70
    32
  1
<>
  3
AM_JIS$0
100
AcDbAlignedDimension
 13
0.0000000000000206
 23
-12.49999999999998
 33
0.0
 14
-34.99999713897698
 24
-11.99999999999998
 34
0.0
 50
0.0000000000001132
100
AcDbRotatedDimension
1001
ACAD
1000
DSTYLE
1002
{
1070
   171
1070
     0
1070
   271
1070
     0
1002
}
1001
GENIUS_GENDTOL_13
1000

1000
h7
1000

1040
0.0
  0
DIMENSION
  5
15E8
330
1F
100
AcDbEntity
  8
AM_5
100
AcDbDimension
  2
*D6
 10
-120.0000076293929
 20
-30.00000386102314
 30
0.0
 11
-77.50000762939348
 21
-26.60000386102314
 31
0.0
 70
    32
  1
<>
  3
AM_JIS$0
100
AcDbAlignedDimension
 13
-35.00000762939397
 23
-15.49999904632597
 33
0.0
 14
-120.0000076293929
 24
-13.66149806976396
 34
0.0
 50
0.0000000000001132
100
AcDbRotatedDimension
1001
ACAD
1000
DSTYLE
1002
{
1070
   171
1070
     0
1070
   271
1070
     0
1002
}
1001
GENIUS_GENDTOL_13
1000

1000
h7
1000

1040
0.0
  0
DIMENSION
  5
1673
330
1F
100
AcDbEntity
  8
AM_5
100
AcDbDimension
  2
*D7
 10
-0.0000000000000035
 20
-40.00000386102295
 30
0.0
 11
-60.00000381469648
 21
-36.60000386102296
 31
0.0
 70
    32
  1
<>
  3
AM_JIS$0
100
AcDbAlignedDimension
 13
-120.0000076293929
 23
-13.66149806976396
 33
0.0
 14
-0.0000000000000019
 24
-12.49999999999998
 34
0.0
 50
0.0000000000001132
100
AcDbRotatedDimension
1001
ACAD
1000
DSTYLE
1002
{
1070
   171
1070
     0
1070
   271
1070
     0
1002
}
1001
GENIUS_GENDTOL_13
1000

1000
h7
1000

1040
0.0
  0
DIMENSION
  5
1895
330
1F
100
AcDbEntity
  8
AM_5
100
AcDbDimension
  2
*D8
 10
19.82219033105499
 20
16.00000286102202
 30
0.0
 11
16.42219033105498
 21
0.0000019073480209
 31
0.0
 70
    32
  1
%%c<>
  3
AM_JIS$0
100
AcDbAlignedDimension
 13
0.0000000000000206
 23
-15.99999904632598
 33
0.0
 14
0.0000000000000233
 24
16.00000286102202
 34
0.0
 50
90.00000000000003
100
AcDbRotatedDimension
1001
ACAD
1000
DSTYLE
1002
{
1070
   171
1070
     0
1070
   271
1070
     0
1002
}
1001
GENIUS_GENDTOL_13
1000

1000
h7
1000

1040
0.0
  0
DIMENSION
  5
1E16
330
1F
100
AcDbEntity
  8
AM_5
100
AcDbDimension
  2
*D9
 10
-137.8947676987066
 20
-15.99999904632596
 30
0.0
 11
-137.8947676987066
 21
0.000036239624516
 31
0.0
 70
   160
  1
%%c<>
  3
AM_JIS$0
100
AcDbAlignedDimension
 13
-117.0000076293929
 23
16.00000286102203
 33
0.0
 14
-116.9999923706039
 24
-15.99999904632596
 34
0.0
 50
270.0
100
AcDbRotatedDimension
1001
ACAD
1000
DSTYLE
1002
{
1070
   171
1070
     0
1070
   271
1070
     0
1002
}
1001
GENIUS_GENDTOL_13
1000

1000
h7
1000

1040
0.0
  0
LINE
  5
2412
330
1F
100
AcDbEntity
  8
AM_7
  6
AM_ISO08W050X2
100
AcDbLine
 10
5.822189331055021
 20
0.0000009536740183
 30
0.0
 11
-123.8947666987066
 21
0.0000009536740342
 31
0.0
  0
LINE
  5
2413
330
1F
100
AcDbEntity
  8
AM_0
100
AcDbLine
 10
-35.86600685119597
 20
16.00000286102202
 30
0.0
 11
-117.0000076293929
 21
16.00000286102203
 31
0.0
  0
LINE
  5
2414
330
1F
100
AcDbEntity
  8
AM_0
100
AcDbLine
 10
-117.0000076293929
 20
-15.99999904632596
 30
0.0
 11
-35.86600685119597
 21
-15.99999904632597
 31
0.0
  0
ELLIPSE
  5
2415
330
1F
100
AcDbEntity
  8
AM_0
100
AcDbEllipse
 10
-23.55480194091797
 20
0.0000009536740219
 30
0.0
 11
197.134861454535
 21
-13.46406923931302
 31
0.0
210
0.0
220
0.0
230
1.0
 40
0.0388980007611
 41
4.699105459609007
 42
4.743578186462191
  0
ELLIPSE
  5
2416
330
1F
100
AcDbEntity
  8
AM_0
100
AcDbEllipse
 10
-9.650405883788977
 20
0.0000009536740202
 30
0.0
 11
-18.348312073084
 21
-14.94104024543199
 31
0.0
210
0.0
220
0.0
230
1.0
 40
0.2247693167963
 41
5.806400749371708
 42
6.552765408360625
  0
ELLIPSE
  5
2417
330
1F
100
AcDbEntity
  8
AM_0
100
AcDbEllipse
 10
-9.650405883788977
 20
0.0000009536740202
 30
0.0
 11
-18.348312073084
 21
-14.94104024543199
 31
0.0
210
0.0
220
0.0
230
1.0
 40
0.2247693167963
 41
0.2695801011810391
 42
0.369031527643725
  0
SPLINE
  5
2418
330
1F
100
AcDbEntity
  8
AM_0
100
AcDbSpline
210
0.0
220
0.0
230
1.0
 70
     8
 71
     3
 72
    11
 73
     7
 74
     5
 42
0.0000000001
 43
0.0000000001
 44
0.0000000001
 40
0.0
 40
0.0
 40
0.0
 40
0.0
 40
0.2275022991964724
 40
0.4888045761036504
 40
0.7605115471956846
 40
1.037107616531685
 40
1.037107616531685
 40
1.037107616531685
 40
1.037107616531685
 10
-27.73451232910097
 20
15.50000286102202
 30
0.0
 10
-27.65867854862885
 20
15.49977014246368
 30
0.0
 10
-27.4957443758801
 20
15.49927013039056
 30
0.0
 10
-27.24224465296817
 20
15.4978076892326
 30
0.0
 10
-26.97237714524925
 20
15.49688265023833
 30
0.0
 10
-26.78960933759761
 20
15.49700928935636
 30
0.0
 10
-26.69741058349597
 20
15.49707317352202
 30
0.0
 11
-27.73451232910097
 21
15.50000286102202
 31
0.0
 11
-27.50701141357397
 21
15.49920940399102
 31
0.0
 11
-27.24571228027297
 21
15.49792766571002
 31
0.0
 11
-26.97400665283197
 21
15.49707317352202
 31
0.0
 11
-26.69741058349597
 21
15.49707317352202
 31
0.0
  0
SPLINE
  5
2419
330
1F
100
AcDbEntity
  8
AM_0
100
AcDbSpline
210
0.0
220
0.0
230
1.0
 70
     8
 71
     3
 72
    11
 73
     7
 74
     5
 42
0.0000000001
 43
0.0000000001
 44
0.0000000001
 40
0.0
 40
0.0
 40
0.0
 40
0.0
 40
0.0183919559179336
 40
0.0605208535425569
 40
0.1227300443892119
 40
0.2009239233282117
 40
0.2009239233282117
 40
0.2009239233282117
 40
0.2009239233282117
 10
-27.93521118163997
 20
15.49469280242902
 30
0.0
 10
-27.92915273789926
 20
15.49566903906031
 30
0.0
 10
-27.90921672957237
 20
15.4988814583619
 30
0.0
 10
-27.86816485398503
 20
15.49871621700521
 30
0.0
 10
-27.80739908849627
 20
15.5001978135641
 30
0.0
 10
-27.76058450656576
 20
15.50007259710738
 30
0.0
 10
-27.73451232910097
 20
15.50000286102202
 30
0.0
 11
-27.93521118163997
 21
15.49469280242902
 31
0.0
 11
-27.91700744628897
 21
15.49731731414702
 31
0.0
 11
-27.87490844726497
 21
15.49890422821002
 31
0.0
 11
-27.81270599365197
 21
15.49981975555402
 31
0.0
 11
-27.73451232910097
 21
15.50000286102202
 31
0.0
  0
ELLIPSE
  5
241A
330
1F
100
AcDbEntity
  8
AM_0
100
AcDbEllipse
 10
-23.55480194091797
 20
0.0000009536740219
 30
0.0
 11
-197.1351992580449
 21
-0.0591430658629733
 31
0.0
210
0.0
220
0.0
230
1.0
 40
0.0786256246685
 41
4.708935969619449
 42
4.728308733711117
  0
ELLIPSE
  5
241B
330
1F
100
AcDbEntity
  8
AM_0
100
AcDbEllipse
 10
-23.55480194091797
 20
0.0000009536740219
 30
0.0
 11
-197.1351077053049
 21
-0.0591430670829752
 31
0.0
210
0.0
220
0.0
230
1.0
 40
0.0786256611835
 41
4.683842299365583
 42
4.708935977406704
  0
SPLINE
  5
241C
330
1F
100
AcDbEntity
  8
AM_0
100
AcDbSpline
210
0.0
220
0.0
230
1.0
 70
     8
 71
     3
 72
    11
 73
     7
 74
     5
 42
0.0000000001
 43
0.0000000001
 44
0.0000000001
 40
0.0
 40
0.0
 40
0.0
 40
0.0
 40
1.197257914682179
 40
2.394473811092286
 40
3.591722434377931
 40
4.78907088443551
 40
4.78907088443551
 40
4.78907088443551
 40
4.78907088443551
 10
-1.201408386229977
 20
4.582705497741021
 30
0.0
 10
-1.191860713987647
 20
4.981677479794273
 30
0.0
 10
-1.172765704582575
 20
5.779607441810595
 30
0.0
 10
-1.140200072277234
 20
6.976407100209662
 30
0.0
 10
-1.104688065194237
 20
8.17315328265429
 30
0.0
 10
-1.078302557006718
 20
8.970916590236669
 30
0.0
 10
-1.065109252928968
 20
9.369814872741022
 30
0.0
 11
-1.201408386229977
 21
4.582705497741021
 31
0.0
 11
-1.172111511229977
 21
5.779604911804022
 31
0.0
 11
-1.139709472655972
 21
6.976382255554022
 31
0.0
 11
-1.104011535643968
 21
8.173098564147023
 31
0.0
 11
-1.065109252928968
 21
9.369814872741022
 31
0.0
  0
SPLINE
  5
241D
330
1F
100
AcDbEntity
  8
AM_0
100
AcDbSpline
210
0.0
220
0.0
230
1.0
 70
     8
 71
     3
 72
    11
 73
     7
 74
     5
 42
0.0000000001
 43
0.0000000001
 44
0.0000000001
 40
0.0
 40
0.0
 40
0.0
 40
0.0
 40
0.5938229784608449
 40
1.187662512200401
 40
1.781649061844682
 40
2.375797392338724
 40
2.375797392338724
 40
2.375797392338724
 40
2.375797392338724
 10
-1.130706787108971
 20
-10.52209377288897
 30
0.0
 10
-1.118763995227147
 20
-10.71967441595326
 30
0.0
 10
-1.094878078508636
 20
-11.11484121046182
 30
0.0
 10
-1.056212052982421
 20
-11.70746589102062
 30
0.0
 10
-1.015696024379346
 20
-12.30007585207346
 30
0.0
 10
-0.9867040678251973
 20
-12.69505880412748
 30
0.0
 10
-0.9722061157219828
 20
-12.89257717132598
 30
0.0
 11
-1.130706787108971
 21
-10.52209377288897
 31
0.0
 11
-1.094406127928971
 21
-11.11480617523197
 31
0.0
 11
-1.05590820312498
 21
-11.70739650726397
 31
0.0
 11
-1.015205383299979
 21
-12.29998683929498
 31
0.0
 11
-0.9722061157219828
 21
-12.89257717132598
 31
0.0
  0
SPLINE
  5
241E
330
1F
100
AcDbEntity
  8
AM_0
100
AcDbSpline
210
0.0
220
0.0
230
1.0
 70
     8
 71
     3
 72
    11
 73
     7
 74
     5
 42
0.0000000001
 43
0.0000000001
 44
0.0000000001
 40
0.0
 40
0.0
 40
0.0
 40
0.0
 40
0.0442204472089153
 40
0.0891899418123668
 40
0.1350222091393973
 40
0.1817938027157993
 40
0.1817938027157993
 40
0.1817938027157993
 40
0.1817938027157993
 10
-3.374305725096983
 20
-13.08557033538897
 30
0.0
 10
-3.37699876459775
 20
-13.0710752944487
 30
0.0
 10
-3.382430460827261
 20
-13.0418396819746
 30
0.0
 10
-3.393240092543061
 20
-12.99812957609454
 30
0.0
 10
-3.405728517500066
 20
-12.95399073238149
 30
0.0
 10
-3.415615091386679
 20
-12.92474392625109
 30
0.0
 10
-3.420608520506982
 20
-12.90997219085697
 30
0.0
 11
-3.374305725096983
 21
-13.08557033538897
 31
0.0
 11
-3.38280487060498
 21
-13.04217433929498
 31
0.0
 11
-3.393409729002977
 21
-12.99847316741997
 31
0.0
 11
-3.40600585937498
 21
-12.95440578460697
 31
0.0
 11
-3.420608520506982
 21
-12.90997219085697
 31
0.0
  0
ELLIPSE
  5
241F
330
1F
100
AcDbEntity
  8
AM_0
100
AcDbEllipse
 10
-4.627906799315974
 20
-13.06878566741997
 30
0.0
 11
1.25399785420599
 21
-0.0020140960199983
 31
0.0
210
0.0
220
0.0
230
1.0
 40
0.4999147757790001
 41
0.0471786629623549
 42
3.188771468817505
  0
ELLIPSE
  5
2420
330
1F
100
AcDbEntity
  8
AM_0
100
AcDbEllipse
 10
-4.627906799315974
 20
-13.06878566741997
 30
0.0
 11
1.25399785420599
 21
-0.0020140960199983
 31
0.0
210
0.0
220
0.0
230
1.0
 40
0.4999147757790001
 41
6.25939939334528
 42
6.330363970141941
  0
ELLIPSE
  5
2421
330
1F
100
AcDbEntity
  8
AM_0
100
AcDbEllipse
 10
-4.627906799315974
 20
-13.06878566741997
 30
0.0
 11
1.25399785420599
 21
-0.0020140960199983
 31
0.0
210
0.0
220
0.0
230
1.0
 40
0.4999147757790001
 41
3.18877111965016
 42
3.291271464725908
  0
SPLINE
  5
2422
330
1F
100
AcDbEntity
  8
AM_0
100
AcDbSpline
210
0.0
220
0.0
230
1.0
 70
     8
 71
     3
 72
    11
 73
     7
 74
     5
 42
0.0000000001
 43
0.0000000001
 44
0.0000000001
 40
0.0
 40
0.0
 40
0.0
 40
0.0
 40
0.480025666952822
 40
0.8410278860176733
 40
1.170982691100181
 40
1.513320935495942
 40
1.513320935495942
 40
1.513320935495942
 40
1.513320935495942
 10
-4.957710266112973
 20
13.62927532196002
 30
0.0
 10
-5.114941395937958
 20
13.58693431456148
 30
0.0
 10
-5.39041784196282
 20
13.51275084814332
 30
0.0
 10
-5.676544535451674
 20
13.22559314291941
 30
0.0
 10
-5.817161794550415
 20
12.90554950035463
 30
0.0
 10
-5.850652501096025
 20
12.68330257803311
 30
0.0
 10
-5.867706298827974
 20
12.57013225555402
 30
0.0
 11
-4.957710266112973
 21
13.62927532196002
 31
0.0
 11
-5.406608581542974
 21
13.45923137664702
 31
0.0
 11
-5.66371154785097
 21
13.20581340789702
 31
0.0
 11
-5.801506042479976
 21
12.90600872039702
 31
0.0
 11
-5.867706298827974
 21
12.57013225555402
 31
0.0
  0
SPLINE
  5
2423
330
1F
100
AcDbEntity
  8
AM_0
100
AcDbSpline
210
0.0
220
0.0
230
1.0
 70
     8
 71
     3
 72
    11
 73
     7
 74
     5
 42
0.0000000001
 43
0.0000000001
 44
0.0000000001
 40
0.0
 40
0.0
 40
0.0
 40
0.0
 40
1.242574926754497
 40
2.483447834847192
 40
3.723830560033302
 40
4.965409156562358
 40
4.965409156562358
 40
4.965409156562358
 40
4.965409156562358
 10
-17.93151092529297
 20
-13.86297512054497
 30
0.0
 10
-17.52236113718308
 20
-13.79825699841993
 30
0.0
 10
-16.70462199443081
 20
-13.66890940190387
 30
0.0
 10
-15.47097166515047
 20
-13.52870699176929
 30
0.0
 10
-14.23403954742338
 20
-13.42514027656913
 30
0.0
 10
-13.40728313282147
 20
-13.39224704402307
 30
0.0
 10
-12.99370574951097
 20
-13.37579250335697
 30
0.0
 11
-17.93151092529297
 21
-13.86297512054497
 31
0.0
 11
-16.70281219482397
 21
-13.67779445648197
 31
0.0
 11
-15.47020721435498
 21
-13.53478908538897
 31
0.0
 11
-14.23390960693297
 21
-13.43420314788897
 31
0.0
 11
-12.99370574951097
 21
-13.37579250335697
 31
0.0
  0
SPLINE
  5
2424
330
1F
100
AcDbEntity
  8
AM_0
100
AcDbSpline
210
0.0
220
0.0
230
1.0
 70
     8
 71
     3
 72
    11
 73
     7
 74
     5
 42
0.0000000001
 43
0.0000000001
 44
0.0000000001
 40
0.0
 40
0.0
 40
0.0
 40
0.0
 40
2.275021686146052
 40
4.400594603170214
 40
6.272004100799809
 40
7.781044185936227
 40
7.781044185936227
 40
7.781044185936227
 40
7.781044185936227
 10
-17.93151092529297
 20
-13.86297512054497
 30
0.0
 10
-18.68161522227784
 20
-13.97618671845215
 30
0.0
 10
-20.13254860951873
 20
-14.19517291528728
 30
0.0
 10
-22.17268094638089
 20
-14.65747076330864
 30
0.0
 10
-23.9527027826888
 20
-15.10554039040372
 30
0.0
 10
-25.05813698130351
 20
-15.32500375384137
 30
0.0
 10
-25.55160522460898
 20
-15.42297267913897
 30
0.0
 11
-17.93151092529297
 21
-13.86297512054497
 31
0.0
 11
-20.17660522460897
 21
-14.23077297210697
 31
0.0
 11
-22.25310516357398
 21
-14.68487453460697
 31
0.0
 11
-24.07370758056597
 21
-15.11798000335697
 31
0.0
 11
-25.55160522460898
 21
-15.42297267913897
 31
0.0
  0
ELLIPSE
  5
2425
330
1F
100
AcDbEntity
  8
AM_0
100
AcDbEllipse
 10
-264.497398376463
 20
-0.0650014877319428
 30
0.0
 11
-361.4813985237399
 21
-0.1084594722689599
 31
0.0
210
0.0
220
0.0
230
0.9999999999999998
 40
0.058612977155
 41
3.930944486671797
 42
3.96140742563136
  0
ELLIPSE
  5
2426
330
1F
100
AcDbEntity
  8
AM_0
100
AcDbEllipse
 10
-5.226806640624977
 20
8.525208473205021
 30
0.0
 11
-0.3426131302969973
 21
-7.853821926483995
 31
0.0
210
0.0
220
0.0
230
1.0
 40
0.1902234203467
 41
4.617340128109067
 42
4.654758426471734
  0
ELLIPSE
  5
2427
330
1F
100
AcDbEntity
  8
AM_0
100
AcDbEllipse
 10
-5.226905822752974
 20
8.525208473205021
 30
0.0
 11
-0.3426131302979992
 21
-7.853821926483994
 31
0.0
210
0.0
220
0.0
230
1.0
 40
0.1902234203467
 41
1.628410986985081
 42
1.650724687184361
  0
ELLIPSE
  5
2428
330
1F
100
AcDbEntity
  8
AM_0
100
AcDbEllipse
 10
-5.214508056639977
 20
8.961428642272023
 30
0.0
 11
1.499397266228001
 21
-0.0426027063870011
 31
0.0
210
0.0
220
0.0
230
1.0
 40
0.1901805954288
 41
0.0240342834173008
 42
3.004328662625372
  0
ELLIPSE
  5
2429
330
1F
100
AcDbEntity
  8
AM_0
100
AcDbEllipse
 10
-5.226806640624977
 20
8.525208473205021
 30
0.0
 11
-0.3426132789689983
 21
-7.853760826792999
 31
0.0
210
0.0
220
0.0
230
1.0
 40
0.1902122958026
 41
1.650719581806983
 42
1.67453309076497
  0
ELLIPSE
  5
242A
330
1F
100
AcDbEntity
  8
AM_0
100
AcDbEllipse
 10
-10.94371032714797
 20
0.0000009536740203
 30
0.0
 11
16.998177817747
 21
-15.489501275329
 31
0.0
210
0.0
220
0.0
230
1.0
 40
0.0340139384322
 41
3.129476498414664
 42
3.406290517308954
  0
SPLINE
  5
242B
330
1F
100
AcDbEntity
  8
AM_0
100
AcDbSpline
210
0.0
220
0.0
230
1.0
 70
     8
 71
     3
 72
    11
 73
     7
 74
     5
 42
0.0000000001
 43
0.0000000001
 44
0.0000000001
 40
0.0
 40
0.0
 40
0.0
 40
0.0
 40
0.3066432141844912
 40
0.5664391188205227
 40
0.7395765156274479
 40
0.8002852374184486
 40
0.8002852374184486
 40
0.8002852374184486
 40
0.8002852374184486
 10
-1.277412414549977
 20
7.216616630554022
 30
0.0
 10
-1.281776588796018
 20
7.114486157747498
 30
0.0
 10
-1.289838202097592
 20
6.925828159314029
 30
0.0
 10
-1.296826746937024
 20
6.679482515087291
 30
0.0
 10
-1.304535101188872
 20
6.514925942676599
 30
0.0
 10
-1.301100659740221
 20
6.437033561205075
 30
0.0
 10
-1.300209045409977
 20
6.416811943054022
 30
0.0
 11
-1.277412414549977
 21
7.216616630554022
 31
0.0
 11
-1.289710998534977
 21
6.910220146179022
 31
0.0
 11
-1.298606872557974
 21
6.650576591491021
 31
0.0
 11
-1.302406311034977
 21
6.477480888366021
 31
0.0
 11
-1.300209045409977
 21
6.416811943054022
 31
0.0
  0
ELLIPSE
  5
242C
330
1F
100
AcDbEntity
  8
AM_0
100
AcDbEllipse
 10
-11.36450958251897
 20
26.87530755996612
 30
0.0
 11
12.599623967339
 21
-15.7669072901211
 31
0.0
210
0.0
220
0.0
230
1.0
 40
0.9789424214055999
 41
4.877694934978761
 42
5.575892166975462
  0
SPLINE
  5
242D
330
1F
100
AcDbEntity
  8
AM_0
100
AcDbSpline
210
0.0
220
0.0
230
1.0
 70
     8
 71
     3
 72
    11
 73
     7
 74
     5
 42
0.0000000001
 43
0.0000000001
 44
0.0000000001
 40
0.0
 40
0.0
 40
0.0
 40
0.0
 40
2.406888101174094
 40
4.829927089369344
 40
7.223492787482348
 40
9.536244534184024
 40
9.536244534184024
 40
9.536244534184024
 40
9.536244534184024
 10
-17.93151092529297
 20
0.9273099899290247
 30
0.0
 10
-18.69310494215063
 20
1.187346333885888
 30
0.0
 10
-20.22140348304585
 20
1.709163937822339
 30
0.0
 10
-22.27771055150433
 20
2.991217494024255
 30
0.0
 10
-24.11775918781265
 20
4.517603374966876
 30
0.0
 10
-25.07915940086498
 20
5.762875306652251
 30
0.0
 10
-25.55160522460897
 20
6.374819755554026
 30
0.0
 11
-17.93151092529297
 21
0.9273099899290247
 31
0.0
 11
-20.17820739745997
 21
1.790713310241024
 31
0.0
 11
-22.25370788574197
 21
3.041079521179025
 31
0.0
 11
-24.07310485839797
 21
4.596377372741024
 31
0.0
 11
-25.55160522460897
 21
6.374819755554026
 31
0.0
  0
SPLINE
  5
242E
330
1F
100
AcDbEntity
  8
AM_0
100
AcDbSpline
210
0.0
220
0.0
230
1.0
 70
     8
 71
     3
 72
    11
 73
     7
 74
     5
 42
0.0000000001
 43
0.0000000001
 44
0.0000000001
 40
0.0
 40
0.0
 40
0.0
 40
0.0
 40
1.387208595529625
 40
2.774824006164138
 40
4.163111193994984
 40
5.552399877326534
 40
5.552399877326534
 40
5.552399877326534
 40
5.552399877326534
 10
-1.253105163573969
 20
6.414797782897022
 30
0.0
 10
-1.240758861713403
 20
5.952551193692633
 30
0.0
 10
-1.216062637295209
 20
5.027922456078642
 30
0.0
 10
-1.154038992462698
 20
3.641546679924433
 30
0.0
 10
-1.075514009949781
 20
2.255314125084704
 30
0.0
 10
-1.0066503570628
 20
1.332003068571265
 30
0.0
 10
-0.972206115721981
 20
0.8701810836790226
 30
0.0
 11
-1.253105163573969
 21
6.414797782897022
 31
0.0
 11
-1.211906433104977
 21
5.02820110321002
 31
0.0
 11
-1.151306152342975
 21
3.641909599304022
 31
0.0
 11
-1.071411132811981
 21
2.255923271179022
 31
0.0
 11
-0.972206115721981
 21
0.8701810836790226
 31
0.0
  0
ELLIPSE
  5
242F
330
1F
100
AcDbEntity
  8
AM_0
100
AcDbEllipse
 10
-11.36450958251898
 20
-21.44927883148197
 30
0.0
 11
19.829651598135
 21
-2.673033102449005
 31
0.0
210
0.0
220
0.0
230
1.0
 40
0.7266728500507
 41
2.146895288247844
 42
2.389372623856161
  0
ELLIPSE
  5
2430
330
1F
100
AcDbEntity
  8
AM_0
100
AcDbEllipse
 10
-9.650405883788977
 20
0.0000009536740202
 30
0.0
 11
18.13317980339899
 21
-14.505125861453
 31
0.0
210
0.0
220
0.0
230
1.0
 40
0.301362291856
 41
3.082419498357236
 42
3.92826963032107
  0
ELLIPSE
  5
2431
330
1F
100
AcDbEntity
  8
AM_0
100
AcDbEllipse
 10
-10.94371032714797
 20
0.0000009536740203
 30
0.0
 11
-15.521034522534
 21
-13.15033061942099
 31
0.0
210
0.0
220
0.0
230
1.0
 40
0.5286222263477
 41
5.819867697153015
 42
6.094718973873206
  0
ELLIPSE
  5
2432
330
1F
100
AcDbEntity
  8
AM_0
100
AcDbEllipse
 10
-4.627906799315972
 20
0.6860971450800209
 30
0.0
 11
-1.253997771302003
 21
-0.0021362303969992
 31
0.0
210
0.0
220
0.0
230
1.0
 40
0.4968971351831001
 41
3.116072776480568
 42
6.237452627886242
  0
ELLIPSE
  5
2433
330
1F
100
AcDbEntity
  8
AM_0
100
AcDbEllipse
 10
-4.627906799315972
 20
0.6860971450800209
 30
0.0
 11
-1.253997771302003
 21
-0.0021362303969992
 31
0.0
210
0.0
220
0.0
230
1.0
 40
0.4968971351831001
 41
6.237453223456508
 42
6.432750793439474
  0
SPLINE
  5
2434
330
1F
100
AcDbEntity
  8
AM_0
100
AcDbSpline
210
0.0
220
0.0
230
1.0
 70
     8
 71
     3
 72
    11
 73
     7
 74
     5
 42
0.0000000001
 43
0.0000000001
 44
0.0000000001
 40
0.0
 40
0.0
 40
0.0
 40
0.0
 40
1.454710977934433
 40
2.857942699311927
 40
4.21252662262368
 40
5.66586668175798
 40
5.66586668175798
 40
5.66586668175798
 40
5.66586668175798
 10
-3.378311157225972
 20
0.6251840591430252
 30
0.0
 10
-3.445990105588785
 20
0.174540129480424
 30
0.0
 10
-3.578952982273232
 20
-0.7108003596641606
 30
0.0
 10
-4.656502027254376
 20
-2.345969623245888
 30
0.0
 10
-5.820183663763204
 20
-0.7670783893365523
 30
0.0
 10
-5.851498303129675
 20
0.1279394419268604
 30
0.0
 10
-5.867706298827975
 20
0.5911874771110223
 30
0.0
 11
-3.378311157225972
 21
0.6251840591430252
 31
0.0
 11
-3.736305236815972
 21
-0.784789085388978
 31
0.0
 11
-4.683609008788977
 21
-1.820006370544978
 31
0.0
 11
-5.619606018065972
 21
-0.8408193588259804
 31
0.0
 11
-5.867706298827975
 21
0.5911874771110223
 31
0.0
  0
SPLINE
  5
2435
330
1F
100
AcDbEntity
  8
AM_0
100
AcDbSpline
210
0.0
220
0.0
230
1.0
 70
     8
 71
     3
 72
    11
 73
     7
 74
     5
 42
0.0000000001
 43
0.0000000001
 44
0.0000000001
 40
0.0
 40
0.0
 40
0.0
 40
0.0
 40
0.1716412614695107
 40
0.3519834597287413
 40
0.5404417410922129
 40
0.7336796363276188
 40
0.7336796363276188
 40
0.7336796363276188
 40
0.7336796363276188
 10
-27.93521118163997
 20
-8.098021507263974
 30
0.0
 10
-27.92407309747432
 20
-8.041041458180309
 30
0.0
 10
-27.90123231102347
 20
-7.924192894843781
 30
0.0
 10
-27.78166058849732
 20
-7.781702240630124
 30
0.0
 10
-27.63089901216893
 20
-7.669116481315268
 30
0.0
 10
-27.51385826861247
 20
-7.618067351758182
 30
0.0
 10
-27.45460510253897
 20
-7.592223167419976
 30
0.0
 11
-27.93521118163997
 21
-8.098021507263974
 31
0.0
 11
-27.88871002197197
 21
-7.932799339294976
 31
0.0
 11
-27.77931213378897
 21
-7.789427757263974
 31
0.0
 11
-27.62860870361297
 21
-7.676268577575977
 31
0.0
 11
-27.45460510253897
 21
-7.592223167419976
 31
0.0
  0
SPLINE
  5
2436
330
1F
100
AcDbEntity
  8
AM_0
100
AcDbSpline
210
0.0
220
0.0
230
1.0
 70
     8
 71
     3
 72
    11
 73
     7
 74
     5
 42
0.0000000001
 43
0.0000000001
 44
0.0000000001
 40
0.0
 40
0.0
 40
0.0
 40
0.0
 40
0.1902378939732914
 40
0.3828425112106644
 40
0.5765396260448864
 40
0.7698799362510033
 40
0.7698799362510033
 40
0.7698799362510033
 40
0.7698799362510033
 10
-27.45460510253897
 20
-7.592223167419976
 30
0.0
 10
-27.39453284498381
 20
-7.571639595719633
 30
0.0
 10
-27.27364097924574
 20
-7.530216374957161
 30
0.0
 10
-27.08378460962185
 20
-7.496767992104443
 30
0.0
 10
-26.89088166676
 20
-7.480417804005781
 30
0.0
 10
-26.76186129719934
 20
-7.485823887234531
 30
0.0
 10
-26.69741058349597
 20
-7.488524436950977
 30
0.0
 11
-27.45460510253897
 21
-7.592223167419976
 31
0.0
 11
-27.27310943603498
 21
-7.535216331481971
 31
0.0
 11
-27.08380889892497
 21
-7.499693870544976
 31
0.0
 11
-26.89070892333897
 21
-7.484496116638974
 31
0.0
 11
-26.69741058349597
 21
-7.488524436950977
 31
0.0
  0
ELLIPSE
  5
2437
330
1F
100
AcDbEntity
  8
AM_0
100
AcDbEllipse
 10
-264.497016906733
 20
16.43873691558805
 30
0.0
 11
361.4799979282699
 21
-24.68855389548304
 31
0.0
210
0.0
220
0.0
230
1.0
 40
0.028997065484
 41
5.464264915066128
 42
5.496020979689202
  0
ELLIPSE
  5
2438
330
1F
100
AcDbEntity
  8
AM_0
100
AcDbEllipse
 10
-11.59800720214797
 20
-0.1394033432009796
 30
0.0
 11
-2.836754417622998
 21
-15.15039134405
 31
0.0
210
0.0
220
0.0
230
1.0
 40
0.2470724981384
 41
1.040128496833184
 42
1.123872649842009
  0
ELLIPSE
  5
2439
330
1F
100
AcDbEntity
  8
AM_0
100
AcDbEllipse
 10
-11.47190856933497
 20
-0.0020132064819738
 30
0.0
 11
-0.039359375828001
 21
-15.160951068727
 31
0.0
210
0.0
220
0.0
230
0.9999999999999998
 40
0.1537961277217999
 41
1.06753731647398
 42
1.113689424738618
  0
ELLIPSE
  5
243A
330
1F
100
AcDbEntity
  8
AM_0
100
AcDbEllipse
 10
-218.7618179321229
 20
15.05244541168204
 30
0.0
 11
330.9958085504399
 21
-22.60652845361104
 31
0.0
210
0.0
220
0.0
230
1.0
 40
0.0289970948148
 41
5.399963651565151
 42
5.431667839609098
  0
SPLINE
  5
243B
330
1F
100
AcDbEntity
  8
AM_0
100
AcDbSpline
210
0.0
220
0.0
230
1.0
 70
     8
 71
     3
 72
    11
 73
     7
 74
     5
 42
0.0000000001
 43
0.0000000001
 44
0.0000000001
 40
0.0
 40
0.0
 40
0.0
 40
0.0
 40
1.064300674082739
 40
2.137137354968751
 40
3.2096768685028
 40
4.273213861936463
 40
4.273213861936463
 40
4.273213861936463
 40
4.273213861936463
 10
-5.122306823729976
 20
13.89477825164702
 30
0.0
 10
-4.763433825649239
 20
13.79060025003414
 30
0.0
 10
-4.042809561693969
 20
13.58140870836313
 30
0.0
 10
-3.642541060442464
 20
12.42842119224411
 30
0.0
 10
-4.142567886217252
 20
11.31569871075649
 30
0.0
 10
-4.878161120118177
 20
11.17001224149654
 30
0.0
 10
-5.244407653807973
 20
11.09747600555402
 30
0.0
 11
-5.122306823729976
 21
13.89477825164702
 31
0.0
 11
-4.158309936522973
 21
13.44372844696002
 31
0.0
 11
-3.793006896971972
 21
12.43500041961602
 31
0.0
 11
-4.245506286620971
 21
11.46258831024102
 31
0.0
 11
-5.244407653807973
 21
11.09747600555402
 31
0.0
  0
SPLINE
  5
243C
330
1F
100
AcDbEntity
  8
AM_0
100
AcDbSpline
210
0.0
220
0.0
230
1.0
 70
     8
 71
     3
 72
    11
 73
     7
 74
     5
 42
0.0000000001
 43
0.0000000001
 44
0.0000000001
 40
0.0
 40
0.0
 40
0.0
 40
0.0
 40
1.330661725842651
 40
2.672238163913368
 40
4.009640621867369
 40
5.351086896278559
 40
5.351086896278559
 40
5.351086896278559
 40
5.351086896278559
 10
-5.280708312987973
 20
14.25201702117902
 30
0.0
 10
-5.7381700385212
 20
14.16026735815836
 30
0.0
 10
-6.656845805441171
 20
13.976015458304
 30
0.0
 10
-7.289869469734317
 20
12.59104394375986
 30
0.0
 10
-6.792267844033252
 20
11.14354362011463
 30
0.0
 10
-5.886752558678217
 20
10.88489399012654
 30
0.0
 10
-5.433311462401973
 20
10.75537395477202
 30
0.0
 11
-5.280708312987973
 21
14.25201702117902
 31
0.0
 11
-6.529907226561972
 21
13.79358196258502
 31
0.0
 11
-7.101310729979976
 21
12.57977581024102
 31
0.0
 11
-6.64971160888597
 21
11.32092571258502
 31
0.0
 11
-5.433311462401973
 21
10.75537395477202
 31
0.0
  0
SPLINE
  5
243D
330
1F
100
AcDbEntity
  8
AM_0
100
AcDbSpline
210
0.0
220
0.0
230
1.0
 70
     8
 71
     3
 72
    11
 73
     7
 74
     5
 42
0.0000000001
 43
0.0000000001
 44
0.0000000001
 40
0.0
 40
0.0
 40
0.0
 40
0.0
 40
1.341561578611971
 40
2.677995512237082
 40
4.020196480606527
 40
5.34744536784649
 40
5.34744536784649
 40
5.34744536784649
 40
5.34744536784649
 10
-5.433311462401973
 20
10.75537395477202
 30
0.0
 10
-4.970158328141913
 20
10.84518943961326
 30
0.0
 10
-4.045622298785538
 20
11.02447712134837
 30
0.0
 10
-3.427315043229349
 20
12.42412556877396
 30
0.0
 10
-3.935919985539583
 20
13.85768547788618
 30
0.0
 10
-4.834122536571241
 20
14.12106491902835
 30
0.0
 10
-5.280708312987973
 20
14.25201702117902
 30
0.0
 11
-5.433311462401973
 21
10.75537395477202
 31
0.0
 11
-4.172508239745971
 21
11.21380901336602
 31
0.0
 11
-3.615409851073975
 21
12.42859172821002
 31
0.0
 11
-4.079208374022973
 21
13.68811321258502
 31
0.0
 11
-5.280708312987973
 21
14.25201702117902
 31
0.0
  0
SPLINE
  5
243E
330
1F
100
AcDbEntity
  8
AM_0
100
AcDbSpline
210
0.0
220
0.0
230
1.0
 70
     8
 71
     3
 72
    11
 73
     7
 74
     5
 42
0.0000000001
 43
0.0000000001
 44
0.0000000001
 40
0.0
 40
0.0
 40
0.0
 40
0.0
 40
2.223020972061396
 40
4.445475940854702
 40
6.667456766976254
 40
8.88877980913849
 40
8.88877980913849
 40
8.88877980913849
 40
8.88877980913849
 10
-10.42570495605397
 20
9.421877861022025
 30
0.0
 10
-9.684910965158845
 20
9.404107051382471
 30
0.0
 10
-8.203511596892752
 20
9.368569956728395
 30
0.0
 10
-5.981575618839288
 20
9.31910349027502
 30
0.0
 10
-3.760142830197552
 20
9.272546413321077
 30
0.0
 10
-2.27931393255948
 20
9.244128931882244
 30
0.0
 10
-1.539009094237974
 20
9.229922294616022
 30
0.0
 11
-10.42570495605397
 21
9.421877861022025
 31
0.0
 11
-8.203308105467973
 21
9.369204521179025
 31
0.0
 11
-5.981407165526973
 21
9.319582939147023
 31
0.0
 11
-3.759910583495971
 21
9.273196220397023
 31
0.0
 11
-1.539009094237974
 21
9.229922294616022
 31
0.0
  0
SPLINE
  5
243F
330
1F
100
AcDbEntity
  8
AM_0
100
AcDbSpline
210
0.0
220
0.0
230
1.0
 70
     8
 71
     3
 72
    11
 73
     7
 74
     5
 42
0.0000000001
 43
0.0000000001
 44
0.0000000001
 40
0.0
 40
0.0
 40
0.0
 40
0.0
 40
0.2881911175676437
 40
0.5748305743421987
 40
0.8598514015613027
 40
1.143880518665494
 40
1.143880518665494
 40
1.143880518665494
 40
1.143880518665494
 10
-1.539009094237974
 20
9.229922294616022
 30
0.0
 10
-1.442059975431487
 20
9.236450804639316
 30
0.0
 10
-1.248683725268529
 20
9.249472674285964
 30
0.0
 10
-0.9924309080537819
 20
9.394669141370606
 30
0.0
 10
-0.79611916406989
 20
9.613405006012087
 30
0.0
 10
-0.7465505176237368
 20
9.798979087246594
 30
0.0
 10
-0.7218093872069803
 20
9.891604423522023
 30
0.0
 11
-1.539009094237974
 21
9.229922294616022
 31
0.0
 11
-1.25370788574198
 21
9.270632743835021
 31
0.0
 11
-1.001808166502974
 21
9.407412528991022
 31
0.0
 11
-0.8162078857419801
 21
9.623721122741022
 31
0.0
 11
-0.7218093872069803
 21
9.891604423522023
 31
0.0
  0
SPLINE
  5
2440
330
1F
100
AcDbEntity
  8
AM_0
100
AcDbSpline
210
0.0
220
0.0
230
1.0
 70
     8
 71
     3
 72
    11
 73
     7
 74
     5
 42
0.0000000001
 43
0.0000000001
 44
0.0000000001
 40
0.0
 40
0.0
 40
0.0
 40
0.0
 40
1.051158925013525
 40
2.102422223032403
 40
3.153912879374739
 40
4.205358309204415
 40
4.205358309204415
 40
4.205358309204415
 40
4.205358309204415
 10
-0.7218093872069803
 20
9.891604423522023
 30
0.0
 10
-0.6684013902941322
 20
10.23789642600682
 30
0.0
 10
-0.5615800934138598
 20
10.93051481544119
 30
0.0
 10
-0.4014657557819554
 20
11.96955481864836
 30
0.0
 10
-0.2415460105920786
 20
13.0087214145346
 30
0.0
 10
-0.1347849979488795
 20
13.70152241050809
 30
0.0
 10
-0.0814056396479739
 20
14.04791545867902
 30
0.0
 11
-0.7218093872069803
 21
9.891604423522023
 31
0.0
 11
-0.5616073608389685
 21
10.93048381805402
 31
0.0
 11
-0.4015121459959716
 21
11.96948528289702
 31
0.0
 11
-0.2415084838859711
 21
13.00873088836602
 31
0.0
 11
-0.0814056396479739
 21
14.04791545867902
 31
0.0
  0
SPLINE
  5
2441
330
1F
100
AcDbEntity
  8
AM_0
100
AcDbSpline
210
0.0
220
0.0
230
1.0
 70
     8
 71
     3
 72
    11
 73
     7
 74
     5
 42
0.0000000001
 43
0.0000000001
 44
0.0000000001
 40
0.0
 40
0.0
 40
0.0
 40
0.0
 40
0.1144972283744633
 40
0.2296857534828826
 40
0.3452533125969215
 40
0.4606232881892087
 40
0.4606232881892087
 40
0.4606232881892087
 40
0.4606232881892087
 10
-0.0000076293939681
 20
15.17407512664702
 30
0.0
 10
-0.0001963496200825
 20
15.21251613869361
 30
0.0
 10
-0.000574929503176
 20
15.28963025701697
 30
0.0
 10
-0.0424848349610571
 20
15.39910122377583
 30
0.0
 10
-0.1132255162322792
 20
15.4934697464457
 30
0.0
 10
-0.1801661216205157
 20
15.53282987087724
 30
0.0
 10
-0.2136077880849764
 20
15.55249309539702
 30
0.0
 11
-0.0000076293939681
 21
15.17407512664702
 31
0.0
 11
-0.0074081420889679
 21
15.28833293914702
 31
0.0
 11
-0.0472106933589681
 21
15.39642620086602
 31
0.0
 11
-0.1182098388669795
 21
15.48761272430402
 31
0.0
 11
-0.2136077880849764
 21
15.55249309539702
 31
0.0
  0
SPLINE
  5
2442
330
1F
100
AcDbEntity
  8
AM_0
100
AcDbSpline
210
0.0
220
0.0
230
1.0
 70
     8
 71
     3
 72
    11
 73
     7
 74
     5
 42
0.0000000001
 43
0.0000000001
 44
0.0000000001
 40
0.0
 40
0.0
 40
0.0
 40
0.0
 40
2.177989050220615
 40
4.359148885342584
 40
6.543274512710455
 40
8.730571520752661
 40
8.730571520752661
 40
8.730571520752661
 40
8.730571520752661
 10
-9.094406127928975
 20
15.77392864227202
 30
0.0
 10
-8.36853578306866
 20
15.7603940300374
 30
0.0
 10
-6.915738348489925
 20
15.73330510145434
 30
0.0
 10
-4.735109511198115
 20
15.68833237831752
 30
0.0
 10
-2.551432632924457
 20
15.64075449337722
 30
0.0
 10
-1.094700874061884
 20
15.60621390641601
 30
0.0
 10
-0.3658065795889679
 20
15.58893108367902
 30
0.0
 11
-9.094406127928975
 21
15.77392864227202
 31
0.0
 11
-6.916809082030971
 21
15.73260784149102
 31
0.0
 11
-4.736106872557973
 21
15.68793010711602
 31
0.0
 11
-2.552505493163968
 21
15.64007854461602
 31
0.0
 11
-0.3658065795889679
 21
15.58893108367902
 31
0.0
  0
SPLINE
  5
2443
330
1F
100
AcDbEntity
  8
AM_0
100
AcDbSpline
210
0.0
220
0.0
230
1.0
 70
     8
 71
     3
 72
    11
 73
     7
 74
     5
 42
0.0000000001
 43
0.0000000001
 44
0.0000000001
 40
0.0
 40
0.0
 40
0.0
 40
0.0
 40
0.287798372804254
 40
0.5766401744449529
 40
0.8649339509047713
 40
1.151046465777597
 40
1.151046465777597
 40
1.151046465777597
 40
1.151046465777597
 10
-9.094406127928975
 20
15.77392864227202
 30
0.0
 10
-9.191193398024966
 20
15.76728543251906
 30
0.0
 10
-9.385118845790312
 20
15.75397492769063
 30
0.0
 10
-9.643136364151223
 20
15.60887620273582
 30
0.0
 10
-9.843992717571829
 20
15.39142874117595
 30
0.0
 10
-9.898674088361113
 20
15.20551952202429
 30
0.0
 10
-9.925910949706972
 20
15.11291790008502
 30
0.0
 11
-9.094406127928975
 21
15.77392864227202
 31
0.0
 11
-9.379310607909976
 21
15.73321819305402
 31
0.0
 11
-9.633811950682973
 21
15.59662151336602
 31
0.0
 11
-9.824607849120971
 21
15.38049602508502
 31
0.0
 11
-9.925910949706972
 21
15.11291790008502
 31
0.0
  0
SPLINE
  5
2444
330
1F
100
AcDbEntity
  8
AM_0
100
AcDbSpline
210
0.0
220
0.0
230
1.0
 70
     8
 71
     3
 72
    11
 73
     7
 74
     5
 42
0.0000000001
 43
0.0000000001
 44
0.0000000001
 40
0.0
 40
0.0
 40
0.0
 40
0.0
 40
1.054433453061846
 40
2.109030880084657
 40
3.163609382281738
 40
4.218332982762439
 40
4.218332982762439
 40
4.218332982762439
 40
4.218332982762439
 10
-9.925910949706972
 20
15.11291790008502
 30
0.0
 10
-9.988252741733369
 20
14.76701306078339
 30
0.0
 10
-10.11294602049998
 20
14.0751495908418
 30
0.0
 10
-10.29981613995543
 20
13.03730244108059
 30
0.0
 10
-10.48667375173518
 20
11.99935475912176
 30
0.0
 10
-10.61102849516472
 20
11.30733850221355
 30
0.0
 10
-10.67321014404297
 20
10.96130657196002
 30
0.0
 11
-9.925910949706972
 21
15.11291790008502
 31
0.0
 11
-10.11290740966797
 21
14.07519817352202
 31
0.0
 11
-10.29981231689397
 21
13.03729534149102
 31
0.0
 11
-10.48661041259697
 21
11.99939250946002
 31
0.0
 11
-10.67321014404297
 21
10.96130657196002
 31
0.0
  0
SPLINE
  5
2445
330
1F
100
AcDbEntity
  8
AM_0
100
AcDbSpline
210
0.0
220
0.0
230
1.0
 70
     8
 71
     3
 72
    11
 73
     7
 74
     5
 42
0.0000000001
 43
0.0000000001
 44
0.0000000001
 40
0.0
 40
0.0
 40
0.0
 40
0.0
 40
0.1141714764307846
 40
0.2284293908196981
 40
0.3427910335376813
 40
0.4571850831848607
 40
0.4571850831848607
 40
0.4571850831848607
 40
0.4571850831848607
 10
-10.78321075439397
 20
9.836306571960022
 30
0.0
 10
-10.78393510190745
 20
9.797982302573297
 30
0.0
 10
-10.78538434532988
 20
9.721304748920683
 30
0.0
 10
-10.74627372152911
 20
9.611634092138915
 30
0.0
 10
-10.67725063254417
 20
9.51710392053499
 30
0.0
 10
-10.61102758933702
 20
9.477913723688597
 30
0.0
 10
-10.57791137695297
 20
9.458315849304025
 30
0.0
 11
-10.78321075439397
 21
9.836306571960022
 31
0.0
 11
-10.77851104736297
 21
9.722231864929025
 31
0.0
 11
-10.74131011962797
 21
9.614199638366024
 31
0.0
 11
-10.67221069335897
 21
9.523074150085022
 31
0.0
 11
-10.57791137695297
 21
9.458315849304025
 31
0.0
  0
SPLINE
  5
2446
330
1F
100
AcDbEntity
  8
AM_0
100
AcDbSpline
210
0.0
220
0.0
230
1.0
 70
     8
 71
     3
 72
    11
 73
     7
 74
     5
 42
0.0000000001
 43
0.0000000001
 44
0.0000000001
 40
0.0
 40
0.0
 40
0.0
 40
0.0
 40
0.3964222524040223
 40
0.793248083693026
 40
1.190595591573521
 40
1.588541748096264
 40
1.588541748096264
 40
1.588541748096264
 40
1.588541748096264
 10
-0.7218093872069819
 20
-2.907469749450981
 30
0.0
 10
-0.6683909760488904
 20
-3.028331870740019
 30
0.0
 10
-0.5614997709560549
 20
-3.270179157369861
 30
0.0
 10
-0.4013852373629492
 20
-3.63331188516833
 30
0.0
 10
-0.2414069716695567
 20
-3.997059614079405
 30
0.0
 10
-0.1347661745546107
 20
-4.239762374749393
 30
0.0
 10
-0.0814056396479762
 20
-4.361205101013978
 30
0.0
 11
-0.7218093872069819
 21
-2.907469749450981
 31
0.0
 11
-0.5616073608389703
 21
-3.270079612731975
 31
0.0
 11
-0.4015121459959734
 21
-3.633177757263978
 31
0.0
 11
-0.2415084838859732
 21
-3.996886253356975
 31
0.0
 11
-0.0814056396479762
 21
-4.361205101013978
 31
0.0
  0
SPLINE
  5
2447
330
1F
100
AcDbEntity
  8
AM_0
100
AcDbSpline
210
0.0
220
0.0
230
1.0
 70
     8
 71
     3
 72
    11
 73
     7
 74
     5
 42
0.0000000001
 43
0.0000000001
 44
0.0000000001
 40
0.0
 40
0.0
 40
0.0
 40
0.0
 40
0.0939599089402554
 40
0.1736919221123013
 40
0.239442327473829
 40
0.2929065599263837
 40
0.2929065599263837
 40
0.2929065599263837
 40
0.2929065599263837
 10
-0.9655075073239704
 20
-2.758971214294979
 30
0.0
 10
-0.9354125852307802
 20
-2.76794151286286
 30
0.0
 10
-0.8797798699254693
 20
-2.784523780957298
 30
0.0
 10
-0.8082201001299701
 20
-2.819773191566527
 30
0.0
 10
-0.7522595206736887
 20
-2.85798032633892
 30
0.0
 10
-0.7312372518401098
 20
-2.892147006042245
 30
0.0
 10
-0.7218093872069819
 20
-2.907469749450981
 30
0.0
 11
-0.9655075073239704
 21
-2.758971214294979
 31
0.0
 11
-0.8763122558589703
 21
-2.788512229919979
 31
0.0
 11
-0.8048095703119816
 21
-2.823790550231975
 31
0.0
 11
-0.7526092529289702
 21
-2.863768577575981
 31
0.0
 11
-0.7218093872069819
 21
-2.907469749450981
 31
0.0
  0
SPLINE
  5
2448
330
1F
100
AcDbEntity
  8
AM_0
100
AcDbSpline
210
0.0
220
0.0
230
1.0
 70
     8
 71
     3
 72
    11
 73
     7
 74
     5
 42
0.0000000001
 43
0.0000000001
 44
0.0000000001
 40
0.0
 40
0.0
 40
0.0
 40
0.0
 40
0.026026638110376
 40
0.0532506142170455
 40
0.0818002652529893
 40
0.1120696426358485
 40
0.1120696426358485
 40
0.1120696426358485
 40
0.1120696426358485
 10
-0.9126052856439706
 20
-5.113219261169979
 30
0.0
 10
-0.9152422693176626
 20
-5.104942696315395
 30
0.0
 10
-0.9206375493268946
 20
-5.088008808801967
 30
0.0
 10
-0.932756872996563
 20
-5.063491286127915
 30
0.0
 10
-0.9477492937358004
 20
-5.038979875569904
 30
0.0
 10
-0.9599372567903843
 20
-5.023599903921085
 30
0.0
 10
-0.9662094116209736
 20
-5.015685081481975
 30
0.0
 11
-0.9126052856439706
 21
-5.113219261169979
 31
0.0
 11
-0.9211120605459733
 21
-5.088622093200981
 31
0.0
 11
-0.9329071044919821
 21
-5.064085960388978
 31
0.0
 11
-0.9479064941399791
 21
-5.039793968200981
 31
0.0
 11
-0.9662094116209736
 21
-5.015685081481975
 31
0.0
  0
SPLINE
  5
2449
330
1F
100
AcDbEntity
  8
AM_0
100
AcDbSpline
210
0.0
220
0.0
230
1.0
 70
     8
 71
     3
 72
    11
 73
     7
 74
     5
 42
0.0000000001
 43
0.0000000001
 44
0.0000000001
 40
0.0
 40
0.0
 40
0.0
 40
0.0
 40
0.0720971324429655
 40
0.1482135277909191
 40
0.2357531687261982
 40
0.336311436605513
 40
0.336311436605513
 40
0.336311436605513
 40
0.336311436605513
 10
-0.0000076293939712
 20
-10.40960597991998
 30
0.0
 10
-0.0002473274336081
 20
-10.43408280530967
 30
0.0
 10
-0.0007400861724838
 20
-10.48440098742322
 30
0.0
 10
-0.0464375060132829
 20
-10.55291577077686
 30
0.0
 10
-0.1199477945761042
 20
-10.60437684168119
 30
0.0
 10
-0.1809797431052682
 20
-10.62055925636174
 30
0.0
 10
-0.2136077880849795
 20
-10.62921047210697
 30
0.0
 11
-0.0000076293939712
 21
-10.40960597991998
 31
0.0
 11
-0.0074081420889711
 21
-10.48132228851397
 31
0.0
 11
-0.0472106933589713
 21
-10.54620265960697
 31
0.0
 11
-0.1182098388669827
 21
-10.59741115570097
 31
0.0
 11
-0.2136077880849795
 21
-10.62921047210697
 31
0.0
  0
SPLINE
  5
244A
330
1F
100
AcDbEntity
  8
AM_0
100
AcDbSpline
210
0.0
220
0.0
230
1.0
 70
     8
 71
     3
 72
    11
 73
     7
 74
     5
 42
0.0000000001
 43
0.0000000001
 44
0.0000000001
 40
0.0
 40
0.0
 40
0.0
 40
0.0
 40
2.208388498669818
 40
4.417335047967275
 40
6.626756653295847
 40
8.836950593864463
 40
8.836950593864463
 40
8.836950593864463
 40
8.836950593864463
 10
-9.094406127928978
 20
-9.259093284606972
 30
0.0
 10
-8.368724531558726
 20
-9.38269774133872
 30
0.0
 10
-6.917177962084207
 20
-9.629937889136531
 30
0.0
 10
-4.736295559697079
 20
-9.980908847469262
 30
0.0
 10
-2.552748045369112
 20
-10.31885514471647
 30
0.0
 10
-1.094871990278799
 20
-10.53087329925926
 30
0.0
 10
-0.3658065795889711
 20
-10.63690090179497
 30
0.0
 11
-9.094406127928978
 21
-9.259093284606972
 31
0.0
 11
-6.916809082030973
 21
-9.626585960388977
 31
0.0
 11
-4.736106872557976
 21
-9.978697776794978
 31
0.0
 11
-2.552505493163971
 21
-10.31548976898197
 31
0.0
 11
-0.3658065795889711
 21
-10.63690090179497
 31
0.0
  0
SPLINE
  5
244B
330
1F
100
AcDbEntity
  8
AM_0
100
AcDbSpline
210
0.0
220
0.0
230
1.0
 70
     8
 71
     3
 72
    11
 73
     7
 74
     5
 42
0.0000000001
 43
0.0000000001
 44
0.0000000001
 40
0.0
 40
0.0
 40
0.0
 40
0.0
 40
0.2880540798851228
 40
0.5521710797279351
 40
0.763769297789297
 40
0.9075198682106051
 40
0.9075198682106051
 40
0.9075198682106051
 40
0.9075198682106051
 10
-9.094406127928978
 20
-9.259093284606972
 30
0.0
 10
-9.190034975651807
 20
-9.24750451971699
 30
0.0
 10
-9.373345984894625
 20
-9.225290007690063
 30
0.0
 10
-9.616829773705671
 20
-9.155354413758654
 30
0.0
 10
-9.815322861588878
 20
-9.079409511148657
 30
0.0
 10
-9.89405937453427
 20
-8.989062220952094
 30
0.0
 10
-9.925910949706976
 20
-8.952513694763975
 30
0.0
 11
-9.094406127928978
 21
-9.259093284606972
 31
0.0
 11
-9.37931060790998
 21
-9.216612815856972
 31
0.0
 11
-9.633811950682977
 21
-9.145995140075978
 31
0.0
 11
-9.824607849120974
 21
-9.054503440856972
 31
0.0
 11
-9.925910949706976
 21
-8.952513694763975
 31
0.0
  0
ELLIPSE
  5
244C
330
1F
100
AcDbEntity
  8
AM_0
100
AcDbEllipse
 10
-1.019111633299979
 20
-7.034605979919979
 30
0.0
 11
0.2026672331570012
 21
-0.0183716058740018
 31
0.0
210
0.0
220
0.0
230
1.0
 40
0.4954075096946
 41
6.120309582675107
 42
6.378960614987323
  0
ELLIPSE
  5
244D
330
1F
100
AcDbEntity
  8
AM_0
100
AcDbEllipse
 10
-1.048805236815973
 20
-7.029601097106975
 30
0.0
 11
0.2330474869049936
 21
-0.0211181545290061
 31
0.0
210
0.0
220
0.0
230
1.0
 40
0.4952534550444
 41
5.906204696340329
 42
6.129810788869304
  0
SPLINE
  5
244E
330
1F
100
AcDbEntity
  8
AM_0
100
AcDbSpline
210
0.0
220
0.0
230
1.0
 70
     8
 71
     3
 72
    11
 73
     7
 74
     5
 42
0.0000000001
 43
0.0000000001
 44
0.0000000001
 40
0.0
 40
0.0
 40
0.0
 40
0.0
 40
0.0155310863208996
 40
0.0307030269687299
 40
0.0455533352459047
 40
0.060450298063741
 40
0.060450298063741
 40
0.060450298063741
 40
0.060450298063741
 10
-0.6353073120109736
 20
-7.324828147888978
 30
0.0
 10
-0.6321269528560549
 20
-7.320734352765374
 30
0.0
 10
-0.6258397781609842
 20
-7.312641428710517
 30
0.0
 10
-0.618483218681134
 20
-7.29929578982054
 30
0.0
 10
-0.6128370865403596
 20
-7.285372846552952
 30
0.0
 10
-0.6105505692623501
 20
-7.275711379591714
 30
0.0
 10
-0.6094055175779767
 20
-7.270873069763978
 30
0.0
 11
-0.6353073120109736
 21
-7.324828147888978
 31
0.0
 11
-0.6261062622069824
 21
-7.312315940856975
 31
0.0
 11
-0.6187057495109736
 21
-7.299071311950981
 31
0.0
 11
-0.6132049560539708
 21
-7.285277366638978
 31
0.0
 11
-0.6094055175779767
 21
-7.270873069763978
 31
0.0
  0
ELLIPSE
  5
244F
330
1F
100
AcDbEntity
  8
AM_0
100
AcDbEllipse
 10
-1.020507812499979
 20
-7.037901878356975
 30
0.0
 11
0.2019729666490093
 21
-0.0183105646720066
 31
0.0
210
0.0
220
0.0
230
1.0
 40
0.4955977925552001
 41
5.333407270700896
 42
5.90624656133211
  0
SPLINE
  5
2450
330
1F
100
AcDbEntity
  8
AM_0
100
AcDbSpline
210
0.0
220
0.0
230
1.0
 70
     8
 71
     3
 72
    11
 73
     7
 74
     5
 42
0.0000000001
 43
0.0000000001
 44
0.0000000001
 40
0.0
 40
0.0
 40
0.0
 40
0.0
 40
0.0527763552817095
 40
0.1010355999423515
 40
0.1446073766975624
 40
0.1835607192062907
 40
0.1835607192062907
 40
0.1835607192062907
 40
0.1835607192062907
 10
-0.7986068725579765
 20
-7.400206565856975
 30
0.0
 10
-0.7812396323598192
 20
-7.397185978021211
 30
0.0
 10
-0.7479916082513438
 20
-7.39140333345366
 30
0.0
 10
-0.7025294422617942
 20
-7.374952584430491
 30
0.0
 10
-0.6637428062703935
 20
-7.353936145011013
 30
0.0
 10
-0.6444254514006952
 20
-7.334161932373008
 30
0.0
 10
-0.6353073120109736
 20
-7.324828147888978
 30
0.0
 11
-0.7986068725579765
 21
-7.400206565856975
 31
0.0
 11
-0.7469100952139707
 21
-7.389586448669979
 31
0.0
 11
-0.7015075683589709
 21
-7.373229026794979
 31
0.0
 11
-0.6638107299799794
 21
-7.351378440856975
 31
0.0
 11
-0.6353073120109736
 21
-7.324828147888978
 31
0.0
  0
ELLIPSE
  5
2451
330
1F
100
AcDbEntity
  8
AM_0
100
AcDbEllipse
 10
-1.03450775146397
 20
-7.026183128356975
 30
0.0
 11
0.2276687680119949
 21
-0.0206298734540056
 31
0.0
210
0.0
220
0.0
230
1.0
 40
0.4956957703865001
 41
4.804080373018015
 42
5.333433208789577
  0
SPLINE
  5
2452
330
1F
100
AcDbEntity
  8
AM_0
100
AcDbSpline
210
0.0
220
0.0
230
1.0
 70
     8
 71
     3
 72
    11
 73
     7
 74
     5
 42
0.0000000001
 43
0.0000000001
 44
0.0000000001
 40
0.0
 40
0.0
 40
0.0
 40
0.0
 40
0.0487255162718559
 40
0.0958895051888871
 40
0.1416967311410793
 40
0.1864965592160639
 40
0.1864965592160639
 40
0.1864965592160639
 40
0.1864965592160639
 10
-0.9845123291009736
 20
-7.397276878356975
 30
0.0
 10
-0.9683999201729386
 20
-7.399375078358242
 30
0.0
 10
-0.9366914635423276
 20
-7.403504236452459
 30
0.0
 10
-0.8894713332719931
 20
-7.405717970073398
 30
0.0
 10
-0.8434924821732986
 20
-7.405183126767544
 30
0.0
 10
-0.8134574293582588
 20
-7.401853077982038
 30
0.0
 10
-0.7986068725579765
 20
-7.400206565856975
 30
0.0
 11
-0.9845123291009736
 21
-7.397276878356975
 31
0.0
 11
-0.9361114501949794
 21
-7.402892112731975
 31
0.0
 11
-0.8890075683589708
 21
-7.405272483825981
 31
0.0
 11
-0.8432083129879766
 21
-7.404417991638978
 31
0.0
 11
-0.7986068725579765
 21
-7.400206565856975
 31
0.0
  0
SPLINE
  5
2453
330
1F
100
AcDbEntity
  8
AM_0
100
AcDbSpline
210
0.0
220
0.0
230
1.0
 70
     8
 71
     3
 72
    11
 73
     7
 74
     5
 42
0.0000000001
 43
0.0000000001
 44
0.0000000001
 40
0.0
 40
0.0
 40
0.0
 40
0.0
 40
0.0160603828986082
 40
0.0324770689787462
 40
0.0492554675352358
 40
0.0664237413282439
 40
0.0664237413282439
 40
0.0664237413282439
 40
0.0664237413282439
 10
-9.338409423827975
 20
-6.703185081481974
 30
0.0
 10
-9.336103476773285
 20
-6.708018726358018
 30
0.0
 10
-9.331440424713484
 20
-6.717793251601229
 30
0.0
 10
-9.323220219344584
 20
-6.732018190321898
 30
0.0
 10
-9.314387621727373
 20
-6.746301787778923
 30
0.0
 10
-9.30782899830794
 20
-6.755526558915381
 30
0.0
 10
-9.304512023924978
 20
-6.760191917419978
 30
0.0
 11
-9.338409423827975
 21
-6.703185081481974
 31
0.0
 11
-9.331306457518977
 21
-6.717589378356974
 31
0.0
 11
-9.323211669920972
 21
-6.731871604919978
 31
0.0
 11
-9.314308166502975
 21
-6.74609279632598
 31
0.0
 11
-9.304512023924978
 21
-6.760191917419978
 31
0.0
  0
SPLINE
  5
2454
330
1F
100
AcDbEntity
  8
AM_0
100
AcDbSpline
210
0.0
220
0.0
230
1.0
 70
     8
 71
     3
 72
    11
 73
     7
 74
     5
 42
0.0000000001
 43
0.0000000001
 44
0.0000000001
 40
0.0
 40
0.0
 40
0.0
 40
0.0
 40
0.040117043204937
 40
0.0818785906151708
 40
0.1257491801333914
 40
0.1720241341516191
 40
0.1720241341516191
 40
0.1720241341516191
 40
0.1720241341516191
 10
-9.304512023924978
 20
-6.760191917419978
 30
0.0
 10
-9.296291790463847
 20
-6.770756131849935
 30
0.0
 10
-9.279514354328121
 20
-6.792317615931965
 30
0.0
 10
-9.249614696050613
 20
-6.821818937112956
 30
0.0
 10
-9.21626315177065
 20
-6.850555005625037
 30
0.0
 10
-9.191514495959332
 20
-6.867635051994218
 30
0.0
 10
-9.178810119627975
 20
-6.876402854919978
 30
0.0
 11
-9.304512023924978
 21
-6.760191917419978
 31
0.0
 11
-9.279205322264978
 21
-6.791319847106974
 31
0.0
 11
-9.249809265135972
 21
-6.820982933044978
 31
0.0
 11
-9.216407775877975
 21
-6.849425315856974
 31
0.0
 11
-9.178810119627975
 21
-6.876402854919978
 31
0.0
  0
SPLINE
  5
2455
330
1F
100
AcDbEntity
  8
AM_0
100
AcDbSpline
210
0.0
220
0.0
230
1.0
 70
     8
 71
     3
 72
    11
 73
     7
 74
     5
 42
0.0000000001
 43
0.0000000001
 44
0.0000000001
 40
0.0
 40
0.0
 40
0.0
 40
0.0
 40
0.0754000613375224
 40
0.1540771421672034
 40
0.2366789587495763
 40
0.3236275961165124
 40
0.3236275961165124
 40
0.3236275961165124
 40
0.3236275961165124
 10
-9.178810119627975
 20
-6.876402854919978
 30
0.0
 10
-9.157371118465185
 20
-6.889555247262501
 30
0.0
 10
-9.113561339381647
 20
-6.916431658088298
 30
0.0
 10
-9.041868179088131
 20
-6.949704055775359
 30
0.0
 10
-8.964428195586796
 20
-6.979102349849041
 30
0.0
 10
-8.90994923922244
 20
-6.994246832905676
 30
0.0
 10
-8.882011413573977
 20
-7.002013206481974
 30
0.0
 11
-9.178810119627975
 21
-6.876402854919978
 31
0.0
 11
-9.113807678221974
 21
-6.914610862731974
 31
0.0
 11
-9.042709350584978
 21
-6.948302268981974
 31
0.0
 11
-8.965408325194978
 21
-6.977416038513977
 31
0.0
 11
-8.882011413573977
 21
-7.002013206481974
 31
0.0
  0
SPLINE
  5
2456
330
1F
100
AcDbEntity
  8
AM_0
100
AcDbSpline
210
0.0
220
0.0
230
1.0
 70
     8
 71
     3
 72
    11
 73
     7
 74
     5
 42
0.0000000001
 43
0.0000000001
 44
0.0000000001
 40
0.0
 40
0.0
 40
0.0
 40
0.0
 40
0.0529269179232515
 40
0.1059130821673208
 40
0.1588382200750481
 40
0.2117651379983068
 40
0.2117651379983068
 40
0.2117651379983068
 40
0.2117651379983068
 10
-8.514106750487975
 20
-6.793395042419978
 30
0.0
 10
-8.514448276314364
 20
-6.811034052346899
 30
0.0
 10
-8.515131710270697
 20
-6.846331817284758
 30
0.0
 10
-8.516005758815381
 20
-6.899270705544019
 30
0.0
 10
-8.51688205494613
 20
-6.952209555564633
 30
0.0
 10
-8.517564807130959
 20
-6.987486987079618
 30
0.0
 10
-8.517906188963976
 20
-7.00512599945098
 30
0.0
 11
-8.514106750487975
 21
-6.793395042419978
 31
0.0
 11
-8.515106201170972
 21
-6.846312522888977
 31
0.0
 11
-8.516006469725972
 21
-6.899291038513977
 31
0.0
 11
-8.516906738280972
 21
-6.952208518981974
 31
0.0
 11
-8.517906188963976
 21
-7.00512599945098
 31
0.0
  0
SPLINE
  5
2457
330
1F
100
AcDbEntity
  8
AM_0
100
AcDbSpline
210
0.0
220
0.0
230
1.0
 70
     8
 71
     3
 72
    11
 73
     7
 74
     5
 42
0.0000000001
 43
0.0000000001
 44
0.0000000001
 40
0.0
 40
0.0
 40
0.0
 40
0.0
 40
0.0839281392895405
 40
0.1681647431353622
 40
0.2528772208831132
 40
0.3382472806960051
 40
0.3382472806960051
 40
0.3382472806960051
 40
0.3382472806960051
 10
-8.882011413573977
 20
-7.002013206481974
 30
0.0
 10
-8.854744450166837
 20
-7.00830903893356
 30
0.0
 10
-8.800110307955913
 20
-7.02092384316974
 30
0.0
 10
-8.716747912417302
 20
-7.033830866191632
 30
0.0
 10
-8.632349140376877
 20
-7.042412479248344
 30
0.0
 10
-8.575663229716111
 20
-7.044082621569365
 30
0.0
 10
-8.547210693358977
 20
-7.04492092132598
 30
0.0
 11
-8.882011413573977
 21
-7.002013206481974
 31
0.0
 11
-8.800010681151974
 21
-7.019896507263977
 31
0.0
 11
-8.716812133788977
 21
-7.033080101013977
 31
0.0
 11
-8.632507324217975
 21
-7.041380882263977
 31
0.0
 11
-8.547210693358977
 21
-7.04492092132598
 31
0.0
  0
SPLINE
  5
2458
330
1F
100
AcDbEntity
  8
AM_0
100
AcDbSpline
210
0.0
220
0.0
230
1.0
 70
     8
 71
     3
 72
    11
 73
     7
 74
     5
 42
0.0000000001
 43
0.0000000001
 44
0.0000000001
 40
0.0
 40
0.0
 40
0.0
 40
0.0
 40
0.0632274402036378
 40
0.1266017763671198
 40
0.1902847086411335
 40
0.2544511919427129
 40
0.2544511919427129
 40
0.2544511919427129
 40
0.2544511919427129
 10
-8.765312194823977
 20
-6.755675315856974
 30
0.0
 10
-8.744823565717679
 20
-6.760635870758421
 30
0.0
 10
-8.703798706387136
 20
-6.770568505390902
 30
0.0
 10
-8.641285091311667
 20
-6.781517387981533
 30
0.0
 10
-8.578010309403348
 20
-6.789527493069704
 30
0.0
 10
-8.535461579280969
 20
-6.792102612770904
 30
0.0
 10
-8.514106750487975
 20
-6.793395042419978
 30
0.0
 11
-8.765312194823977
 21
-6.755675315856974
 31
0.0
 11
-8.703704833983977
 21
-6.769896507263977
 31
0.0
 11
-8.641311645506974
 21
-6.78100490570098
 31
0.0
 11
-8.578109741209978
 21
-6.78881740570098
 31
0.0
 11
-8.514106750487975
 21
-6.793395042419978
 31
0.0
  0
LINE
  5
2459
330
1F
100
AcDbEntity
  8
AM_0
100
AcDbLine
 10
-17.93151092529297
 20
15.50000286102202
 30
0.0
 11
-22.87810516357397
 21
15.50000286102202
 31
0.0
  0
LWPOLYLINE
  5
245A
330
1F
100
AcDbEntity
  8
AM_11
100
AcDbPolyline
 90
        4
 70
     1
 43
0.0
 10
0.0000000000000194
 20
-15.99999904632598
 10
-8.99999999999998
 20
-15.99999904632598
 10
-8.999999999999976
 20
16.00000286102202
 10
0.0000000000000233
 20
16.00000286102202
1001
GENIUS_GENREC_14
1002
{
1000
PYDIR
1011
0.0000000000000233
1021
16.00000286102202
1031
0.0
1002
}
1002
{
1000
PXDIR
1011
-8.99999999999998
1021
-15.99999904632598
1031
0.0
1002
}
1002
{
1000
PORI
1011
0.0000000000000194
1021
-15.99999904632598
1031
0.0
1002
}
1002
{
1000
PINS
1011
0.0000000000000194
1021
-15.99999904632598
1031
0.0
1002
}
1002
{
1000
PINS2
1011
-8.999999999999976
1021
16.00000286102202
1031
0.0
1002
}
1002
{
1000
C
1070
     1
1002
}
1001
GENIUS_GENODEF_13
1002
{
1000
HIER
1070
     0
1002
}
1002
{
1000
MANEDIT
1070
     0
1002
}
1002
{
1000
NOSEL
1070
     0
1002
}
1002
{
1000
BEHIND
1070
     0
1002
}
1002
{
1000
REACTOR
1002
}
1001
GENIUS_GENOBJ-N-REC_13
1002
{
1000
OWNER
1000
GEN
1002
}
  0
LINE
  5
245B
330
1F
100
AcDbEntity
  8
AM_0
100
AcDbLine
 10
-17.93151092529297
 20
-8.084410667419977
 30
0.0
 11
-17.93151092529297
 21
0.9273099899290247
 31
0.0
  0
LINE
  5
245C
330
1F
100
AcDbEntity
  8
AM_0
100
AcDbLine
 10
-0.9722061157219821
 20
-6.968382835388978
 30
0.0
 11
-0.972206115721981
 21
0.8701810836790226
 31
0.0
  0
LINE
  5
245D
330
1F
100
AcDbEntity
  8
AM_0
100
AcDbLine
 10
-1.163208007811982
 20
-7.059813499450981
 30
0.0
 11
-1.163208007811981
 21
0.7448148727410218
 31
0.0
  0
ARC
  5
245E
330
1F
100
AcDbEntity
  8
AM_0
100
AcDbCircle
 10
-10.05410766601497
 20
10.66217327117902
 30
0.0
 40
1.500026345253
100
AcDbArc
 50
267.5011573060633
 51
297.4215249653567
  0
ARC
  5
245F
330
1F
100
AcDbEntity
  8
AM_0
100
AcDbCircle
 10
-9.897911071776972
 20
10.65527629852202
 30
0.0
 40
1.498914361000099
100
AcDbArc
 50
117.4215267865885
 51
264.7557695993626
  0
LINE
  5
2460
330
1F
100
AcDbEntity
  8
AM_0
100
AcDbLine
 10
-9.931709289549976
 20
15.08070659637402
 30
0.0
 11
-17.93150711059497
 21
15.50001621246302
 31
0.0
  0
LINE
  5
2461
330
1F
100
AcDbEntity
  8
AM_0
100
AcDbLine
 10
-11.81680679321197
 20
6.875954627990021
 30
0.0
 11
-1.253112792967974
 21
6.41477298736502
 31
0.0
  0
LINE
  5
2462
330
1F
100
AcDbEntity
  8
AM_0
100
AcDbLine
 10
-12.99370574951097
 20
0.3604516983030263
 30
0.0
 11
-5.867702484129978
 21
0.5911645889280254
 31
0.0
  0
LINE
  5
2463
330
1F
100
AcDbEntity
  8
AM_0
100
AcDbLine
 10
-1.277412414549977
 20
7.216610908508021
 30
0.0
 11
-1.18811035156198
 21
9.306561470031022
 31
0.0
  0
ARC
  5
2464
330
1F
100
AcDbEntity
  8
AM_0
100
AcDbCircle
 10
-5.205207824706972
 20
12.40777873992902
 30
0.0
 40
1.2499930858612
100
AcDbArc
 50
267.4965127774277
 51
87.5010803527499
  0
LINE
  5
2465
330
1F
100
AcDbEntity
  8
AM_0
100
AcDbLine
 10
-3.715610504149977
 20
8.912446022033021
 30
0.0
 11
-6.698608398436973
 21
9.042634010314023
 31
0.0
  0
LINE
  5
2466
330
1F
100
AcDbEntity
  8
AM_0
100
AcDbLine
 10
-0.0813980102529737
 20
14.04792690277002
 30
0.0
 11
0.0000000000000232
 21
15.17407703399602
 31
0.0
  0
LINE
  5
2467
330
1F
100
AcDbEntity
  8
AM_0
100
AcDbLine
 10
-0.3658065795889679
 20
15.58893680572502
 30
0.0
 11
-0.2136077880849764
 21
15.55249881744302
 31
0.0
  0
LINE
  5
2468
330
1F
100
AcDbEntity
  8
AM_0
100
AcDbLine
 10
-0.2136154174799766
 20
15.55248546600302
 30
0.0
 11
-0.364913940428968
 21
15.58892345428402
 31
0.0
  0
ARC
  5
2469
330
1F
100
AcDbEntity
  8
AM_0
100
AcDbCircle
 10
-4.627906799315971
 20
12.38263225555402
 30
0.0
 40
1.253898024558999
100
AcDbArc
 50
171.4000960094325
 51
250.5520838618077
  0
ARC
  5
246A
330
1F
100
AcDbEntity
  8
AM_0
100
AcDbCircle
 10
-5.205207824706972
 20
12.40777873992902
 30
0.0
 40
1.2499886751175
100
AcDbArc
 50
87.50109082540378
 51
267.4965127774277
  0
ARC
  5
246B
330
1F
100
AcDbEntity
  8
AM_0
100
AcDbCircle
 10
-5.121406555174976
 20
12.49341106414702
 30
0.0
 40
1.4000450372696
100
AcDbArc
 50
88.5552212407668
 51
266.2567036694745
  0
ARC
  5
246C
330
1F
100
AcDbEntity
  8
AM_0
100
AcDbCircle
 10
-5.252906799315971
 20
12.49920940399102
 30
0.0
 40
1.749966859817499
100
AcDbArc
 50
88.30376782647325
 51
266.5306830476537
  0
LINE
  5
246D
330
1F
100
AcDbEntity
  8
AM_0
100
AcDbLine
 10
-9.24341964721597
 20
9.394618034362025
 30
0.0
 11
-9.363826751708975
 21
9.331748008728023
 31
0.0
  0
LINE
  5
246E
330
1F
100
AcDbEntity
  8
AM_0
100
AcDbLine
 10
-3.374305725096981
 20
0.6724405288690193
 30
0.0
 11
-1.163208007811981
 21
0.7448263168330211
 31
0.0
  0
LINE
  5
246F
330
1F
100
AcDbEntity
  8
AM_0
100
AcDbLine
 10
-1.163208007811981
 20
0.7448167800900205
 30
0.0
 11
-0.972206115721981
 21
0.870182991027023
 31
0.0
  0
LINE
  5
2470
330
1F
100
AcDbEntity
  8
AM_0
100
AcDbLine
 10
-3.374305725096981
 20
0.6724519729610222
 30
0.0
 11
-3.378311157225972
 21
0.6251993179320238
 31
0.0
  0
ARC
  5
2471
330
1F
100
AcDbEntity
  8
AM_0
100
AcDbCircle
 10
-10.05410766601497
 20
10.66217327117902
 30
0.0
 40
1.498825669288599
100
AcDbArc
 50
117.4232889753947
 51
267.5011573060633
  0
LINE
  5
2472
330
1F
100
AcDbEntity
  8
AM_0
100
AcDbLine
 10
-10.58822250366197
 20
11.98578929901102
 30
0.0
 11
-10.47870254516597
 21
12.04304599761902
 31
0.0
  0
LINE
  5
2473
330
1F
100
AcDbEntity
  8
AM_0
100
AcDbLine
 10
-10.74439620971597
 20
11.99260234832702
 30
0.0
 11
-10.46119689941397
 21
12.14049243926902
 31
0.0
  0
LINE
  5
2474
330
1F
100
AcDbEntity
  8
AM_0
100
AcDbLine
 10
-10.67321014404297
 20
10.96131420135402
 30
0.0
 11
-10.78321075439397
 21
9.836306571960022
 31
0.0
  0
LINE
  5
2475
330
1F
100
AcDbEntity
  8
AM_0
100
AcDbLine
 10
-10.42571258544897
 20
9.421866416931024
 30
0.0
 11
-10.57791900634697
 21
9.458304405212025
 31
0.0
  0
LINE
  5
2476
330
1F
100
AcDbEntity
  8
AM_0
100
AcDbLine
 10
-10.57790756225497
 20
9.458325386047025
 30
0.0
 11
-10.42651367187497
 21
9.421891212463023
 31
0.0
  0
LINE
  5
2477
330
1F
100
AcDbEntity
  8
AM_0
100
AcDbLine
 10
-17.93151092529297
 20
15.49512004852202
 30
0.0
 11
-17.93151092529297
 21
15.50000286102202
 31
0.0
  0
LINE
  5
2478
330
1F
100
AcDbEntity
  8
AM_0
100
AcDbLine
 10
-17.93151092529297
 20
0.9273118972770252
 30
0.0
 11
-12.99370956420897
 21
0.3604784011840207
 31
0.0
  0
LINE
  5
2479
330
1F
100
AcDbEntity
  8
AM_0
100
AcDbLine
 10
-12.99370574951097
 20
-13.37578487396297
 30
0.0
 11
-5.867706298827977
 21
-13.16130733489997
 31
0.0
  0
LINE
  5
247A
330
1F
100
AcDbEntity
  8
AM_0
100
AcDbLine
 10
-9.925918579100974
 20
-8.952525138855978
 30
0.0
 11
-10.20011520385697
 21
-8.395712852478975
 31
0.0
  0
LINE
  5
247B
330
1F
100
AcDbEntity
  8
AM_0
100
AcDbLine
 10
-0.0813980102529766
 20
-9.686705589294978
 30
0.0
 11
-0.7348098754879765
 21
-5.778178215026975
 31
0.0
  0
LINE
  5
247C
330
1F
100
AcDbEntity
  8
AM_0
100
AcDbLine
 10
-1.02890014648397
 20
-7.393137931823978
 30
0.0
 11
-8.521606445311974
 21
-7.045481681823977
 31
0.0
  0
LINE
  5
247D
330
1F
100
AcDbEntity
  8
AM_0
100
AcDbLine
 10
-8.514209747313977
 20
-6.792895317077976
 30
0.0
 11
-1.024620056151982
 21
-7.140368461608978
 31
0.0
  0
LINE
  5
247E
330
1F
100
AcDbEntity
  8
AM_0
100
AcDbLine
 10
-0.0814056396479762
 20
-4.361212730407976
 30
0.0
 11
-0.0000076293939705
 21
-4.764582633972977
 31
0.0
  0
LINE
  5
247F
330
1F
100
AcDbEntity
  8
AM_0
100
AcDbLine
 10
-0.0813903808589705
 20
-4.361197471618978
 30
0.0
 11
-0.7221984863279765
 21
-5.853713035583978
 31
0.0
  0
LINE
  5
2480
330
1F
100
AcDbEntity
  8
AM_0
100
AcDbLine
 10
-1.163200378417976
 20
-7.059824943542976
 30
0.0
 11
-0.9721984863279766
 21
-6.968398094177977
 31
0.0
  0
LINE
  5
2481
330
1F
100
AcDbEntity
  8
AM_0
100
AcDbLine
 10
-0.0000152587889707
 20
-4.764601707458978
 30
0.0
 11
-0.0005187988279764
 21
-4.789134025573978
 31
0.0
  0
LINE
  5
2482
330
1F
100
AcDbEntity
  8
AM_0
100
AcDbLine
 10
-0.5276031494139711
 20
-7.017809867858978
 30
0.0
 11
-0.0005111694329762
 21
-4.789134025573978
 31
0.0
  0
LINE
  5
2483
330
1F
100
AcDbEntity
  8
AM_0
100
AcDbLine
 10
-0.9662017822259734
 20
-5.015681266784979
 30
0.0
 11
-0.9711074829099793
 21
-5.009875297546975
 31
0.0
  0
LINE
  5
2484
330
1F
100
AcDbEntity
  8
AM_0
100
AcDbLine
 10
-0.9081115722649791
 20
-5.129397392272976
 30
0.0
 11
-0.9126052856439706
 21
-5.113223075866975
 31
0.0
  0
LINE
  5
2485
330
1F
100
AcDbEntity
  8
AM_0
100
AcDbLine
 10
-0.9662017822259734
 20
-5.015666007995981
 30
0.0
 11
-0.9721984863279764
 21
-5.011458396911975
 31
0.0
  0
LINE
  5
2486
330
1F
100
AcDbEntity
  8
AM_0
100
AcDbLine
 10
-0.9721984863279764
 20
-5.447836875915981
 30
0.0
 11
-0.9479141235349793
 21
-5.538008689880981
 31
0.0
  0
LINE
  5
2487
330
1F
100
AcDbEntity
  8
AM_0
100
AcDbLine
 10
-0.7556228637689707
 20
-5.694674491882977
 30
0.0
 11
-0.9081268310539705
 21
-5.129370689392977
 31
0.0
  0
LINE
  5
2488
330
1F
100
AcDbEntity
  8
AM_0
100
AcDbLine
 10
-0.9081344604489707
 20
-5.129389762878978
 30
0.0
 11
-0.9722213745109733
 21
-5.077212333679979
 31
0.0
  0
LINE
  5
2489
330
1F
100
AcDbEntity
  8
AM_0
100
AcDbLine
 10
-0.9479064941399791
 20
-5.538039207458978
 30
0.0
 11
-0.8163070678709738
 21
-7.044016838073978
 31
0.0
  0
LINE
  5
248A
330
1F
100
AcDbEntity
  8
AM_0
100
AcDbLine
 10
-0.7348022460929763
 20
-5.778208732605981
 30
0.0
 11
-0.7556076049799792
 21
-5.694701194763978
 31
0.0
  0
LINE
  5
248B
330
1F
100
AcDbEntity
  8
AM_0
100
AcDbLine
 10
-0.7556076049799792
 20
-5.694712638855981
 30
0.0
 11
-0.9479064941399791
 21
-5.538031578063978
 31
0.0
  0
LINE
  5
248C
330
1F
100
AcDbEntity
  8
AM_0
100
AcDbLine
 10
-0.6095046997069824
 20
-7.212607383728978
 30
0.0
 11
-0.7348098754879765
 21
-5.778189659118978
 31
0.0
  0
LINE
  5
248D
330
1F
100
AcDbEntity
  8
AM_0
100
AcDbLine
 10
-0.6093978881829765
 20
-7.270846366882977
 30
0.0
 11
-0.6077117919919824
 21
-7.232005119323978
 31
0.0
  0
LINE
  5
248E
330
1F
100
AcDbEntity
  8
AM_0
100
AcDbLine
 10
-0.6077117919919824
 20
-7.232012748718978
 30
0.0
 11
-0.6095123291009737
 21
-7.212561607360981
 31
0.0
  0
LINE
  5
248F
330
1F
100
AcDbEntity
  8
AM_0
100
AcDbLine
 10
-1.028907775877976
 20
-7.393115043640981
 30
0.0
 11
-0.9845123291009736
 21
-7.397265434265981
 31
0.0
  0
LINE
  5
2490
330
1F
100
AcDbEntity
  8
AM_0
100
AcDbLine
 10
-8.517898559569978
 20
-7.005110740661974
 30
0.0
 11
-8.521598815917975
 21
-7.045466423034978
 31
0.0
  0
LINE
  5
2491
330
1F
100
AcDbEntity
  8
AM_0
100
AcDbLine
 10
-9.304508209227975
 20
-6.760203361511974
 30
0.0
 11
-9.239406585692975
 21
-6.707530021667976
 31
0.0
  0
LINE
  5
2492
330
1F
100
AcDbEntity
  8
AM_0
100
AcDbLine
 10
-9.178802490233977
 20
-6.876410484313977
 30
0.0
 11
-9.031898498534978
 21
-6.716681480407975
 31
0.0
  0
LINE
  5
2493
330
1F
100
AcDbEntity
  8
AM_0
100
AcDbLine
 10
-8.882011413573977
 20
-7.001997947692975
 30
0.0
 11
-8.765312194823977
 21
-6.755660057067975
 31
0.0
  0
LINE
  5
2494
330
1F
100
AcDbEntity
  8
AM_0
100
AcDbLine
 10
-8.547210693358977
 20
-7.044936180114978
 30
0.0
 11
-8.521606445311974
 21
-7.045607566833977
 31
0.0
  0
LINE
  5
2495
330
1F
100
AcDbEntity
  8
AM_0
100
AcDbLine
 10
-1.163215637206983
 20
-13.01831722259598
 30
0.0
 11
-0.9721984863279773
 21
-12.89257717132598
 31
0.0
  0
LINE
  5
2496
330
1F
100
AcDbEntity
  8
AM_0
100
AcDbLine
 10
-0.9722061157219826
 20
-10.59637355804498
 30
0.0
 11
-0.9722061157219828
 21
-12.89257717132598
 31
0.0
  0
LINE
  5
2497
330
1F
100
AcDbEntity
  8
AM_0
100
AcDbLine
 10
-0.0814056396479768
 20
-9.686701774597976
 30
0.0
 11
-0.0000076293939712
 21
-10.40960979461697
 31
0.0
  0
LINE
  5
2498
330
1F
100
AcDbEntity
  8
AM_0
100
AcDbLine
 10
-0.2136077880849795
 20
-10.62920665740997
 30
0.0
 11
-0.3649063110349799
 21
-10.63701915740997
 31
0.0
  0
LINE
  5
2499
330
1F
100
AcDbEntity
  8
AM_0
100
AcDbLine
 10
-3.374305725096983
 20
-13.08554744720497
 30
0.0
 11
-1.163208007811982
 21
-13.01828670501797
 31
0.0
  0
LINE
  5
249A
330
1F
100
AcDbEntity
  8
AM_0
100
AcDbLine
 10
-5.850212097167977
 20
-12.99769115448098
 30
0.0
 11
-5.86770248412998
 21
-13.16131114959797
 31
0.0
  0
LINE
  5
249B
330
1F
100
AcDbEntity
  8
AM_0
100
AcDbLine
 10
-35.86600494384697
 20
-15.99999904632597
 30
0.0
 11
-35.86600494384697
 21
16.00000286102202
 31
0.0
  0
LINE
  5
249C
330
1F
100
AcDbEntity
  8
AM_0
100
AcDbLine
 10
-35.00000762939397
 20
-15.49999904632597
 30
0.0
 11
-35.00000762939397
 21
15.50000286102202
 31
0.0
  0
LINE
  5
249D
330
1F
100
AcDbEntity
  8
AM_0
100
AcDbLine
 10
-35.00000381469697
 20
15.49999713897702
 30
0.0
 11
-35.86602210998497
 21
16.00000858306802
 31
0.0
  0
LINE
  5
249E
330
1F
100
AcDbEntity
  8
AM_0
100
AcDbLine
 10
-27.73451232910097
 20
15.50000286102202
 30
0.0
 11
-35.00000762939397
 21
15.50000286102202
 31
0.0
  0
LINE
  5
249F
330
1F
100
AcDbEntity
  8
AM_0
100
AcDbLine
 10
-27.49230957031197
 20
14.80360317230202
 30
0.0
 11
-24.51490402221597
 21
12.11402416229202
 31
0.0
  0
LINE
  5
24A0
330
1F
100
AcDbEntity
  8
AM_0
100
AcDbLine
 10
-35.00000762939397
 20
-15.49999904632597
 30
0.0
 11
-26.44351196288998
 21
-15.49999904632597
 31
0.0
  0
LINE
  5
24A1
330
1F
100
AcDbEntity
  8
AM_0
100
AcDbLine
 10
-27.49232101440397
 20
-11.38018321990997
 30
0.0
 11
-24.51491546630797
 21
-9.650874137878973
 31
0.0
  0
LINE
  5
24A2
330
1F
100
AcDbEntity
  8
AM_0
100
AcDbLine
 10
-35.86599540710397
 20
-16.00000286102297
 30
0.0
 11
-35.00000381469697
 21
-15.50000667572097
 31
0.0
  0
LINE
  5
24A3
330
1F
100
AcDbEntity
  8
AM_0
100
AcDbLine
 10
-120.0000076293929
 20
-13.66149806976396
 30
0.0
 11
-120.0000076293929
 21
13.66150188446003
 31
0.0
  0
LINE
  5
24A4
330
1F
100
AcDbEntity
  8
AM_0
100
AcDbLine
 10
-117.0000076293929
 20
-15.99999904632596
 30
0.0
 11
-117.0000076293929
 21
16.00000286102203
 31
0.0
  0
ARC
  5
24A5
330
1F
100
AcDbEntity
  8
AM_0
100
AcDbCircle
 10
-118.0000076293929
 20
13.66150188446003
 30
0.0
 40
2.000036954879799
100
AcDbArc
 50
104.9985874788711
 51
180.0
  0
LINE
  5
24A6
330
1F
100
AcDbEntity
  8
AM_0
100
AcDbLine
 10
-117.0000076293929
 20
16.00000667572003
 30
0.0
 11
-118.5176124572739
 21
15.59338855743403
 31
0.0
  0
ARC
  5
24A7
330
1F
100
AcDbEntity
  8
AM_0
100
AcDbCircle
 10
-118.0000076293929
 20
-13.66149806976396
 30
0.0
 40
2.0
100
AcDbArc
 50
180.0
 51
255.0014125211288
  0
LINE
  5
24A8
330
1F
100
AcDbEntity
  8
AM_0
100
AcDbLine
 10
-118.5176010131819
 20
-15.59336376190196
 30
0.0
 11
-117.0000114440899
 21
-15.99997615814296
 31
0.0
  0
DIMENSION
  5
25B0
330
1F
100
AcDbEntity
  8
AM_5
100
AcDbDimension
  2
*D10
 10
0.0000000000000241
 20
30.00000958306803
 30
0.0
 11
-4.499999999999976
 21
33.40000958306803
 31
0.0
 70
    32
  1
<>
  3
AM_JIS$0
100
AcDbAlignedDimension
 13
-8.999999999999976
 23
16.00000286102202
 33
0.0
 14
0.0000000000000233
 24
16.00000286102202
 34
0.0
 50
180.0
100
AcDbRotatedDimension
1001
ACAD
1000
DSTYLE
1002
{
1070
   271
1070
     0
1002
}
1001
GENIUS_GENDTOL_13
1000

1000
h7
1000

1040
0.0
  0
VIEWPORT
  5
110
330
101
100
AcDbEntity
 67
     1
  8
0
100
AcDbViewport
 10
420.5
 20
297.0
 30
0.0
 40
948.9782706766916
 41
628.452
 68
     1
 69
     1
1001
ACAD
1000
MVIEW
1002
{
1070
    16
1010
0.0
1020
0.0
1030
0.0
1010
0.0
1020
0.0
1030
1.0
1040
0.0
1040
628.452
1040
420.5
1040
297.0
1040
50.0
1040
0.0
1040
0.0
1070
     0
1070
   100
1070
     1
1070
     1
1070
     0
1070
     0
1070
     0
1070
     0
1040
0.0
1040
0.0
1040
0.0
1040
10.0
1040
10.0
1040
10.0
1040
10.0
1070
     0
1002
{
1002
}
1002
}
  0
ENDSEC
  0
SECTION
  2
OBJECTS
  0
DICTIONARY
  5
C
330
0
100
AcDbDictionary
  3
ACAD_GROUP
350
D
  3
ACAD_LAYOUT
350
1A
  3
ACAD_MLINESTYLE
350
17
  3
ACAD_PLOTSETTINGS
350
19
  3
ACAD_PLOTSTYLENAME
350
E
  3
ACDBVARIABLEDICTIONARY
350
34
  3
ACMDICTIONARY
350
43
  3
AMG
350
2B
  3
AMGSNAPSETTINGS
350
6E
  3
ASE_INDEX_DICTIONARY
350
2060
  3
DWGPROPS
350
26A6
  3
ACDBHEADERROUNDTRIPXREC
350
26B2
  0
DICTIONARY
  5
74
330
1F
100
AcDbDictionary
280
     1
  3
ACAD_INDEX
360
26A8
  3
ACAD_LAYOUTSELFREF
360
26D5
  0
DICTIONARY
  5
26DA
330
101
100
AcDbDictionary
280
     1
  3
ACAD_LAYOUTSELFREF
360
26DB
  0
DICTIONARY
  5
D
102
{ACAD_REACTORS
330
C
102
}
330
C
100
AcDbDictionary
  0
DICTIONARY
  5
1A
102
{ACAD_REACTORS
330
C
102
}
330
C
100
AcDbDictionary
  0
DICTIONARY
  5
17
102
{ACAD_REACTORS
330
C
102
}
330
C
100
AcDbDictionary
  3
STANDARD
350
18
  0
DICTIONARY
  5
19
102
{ACAD_REACTORS
330
C
102
}
330
C
100
AcDbDictionary
  0
ACDBDICTIONARYWDFLT
  5
E
102
{ACAD_REACTORS
330
C
102
}
330
C
100
AcDbDictionary
281
     1
  3
Normal
350
F
100
AcDbDictionaryWithDefault
340
F
  0
DICTIONARY
  5
34
102
{ACAD_REACTORS
330
C
102
}
330
C
100
AcDbDictionary
  3
INDEXCTL
350
35
  3
SORTENTS
350
B5E
  0
DICTIONARY
  5
43
102
{ACAD_REACTORS
330
C
102
}
330
C
100
AcDbDictionary
  3
ACMSTDDICTIONARY
350
260
  0
DICTIONARY
  5
2B
102
{ACAD_REACTORS
330
C
102
}
330
C
100
AcDbDictionary
  3
ACMGSETTINGS
350
2C
  0
DICTIONARY
  5
6E
102
{ACAD_REACTORS
330
C
102
}
330
C
100
AcDbDictionary
  0
DICTIONARY
  5
2060
102
{ACAD_REACTORS
330
C
102
}
330
C
100
AcDbDictionary
  3
ASEBLOCKHIERARCHYINDEXRECORD
350
2062
1001
DCO15
1040
1471943897.093
  0
XRECORD
  5
26A6
102
{ACAD_REACTORS
330
C
102
}
330
C
100
AcDbXrecord
  1
DWGPROPS COOKIE
  2

  3

  4

  6

  7

  8

  9

300
AmdtFileType=82
301
=
302
=
303
=
304
=
305
=
306
=
307
=
308
=
309
=
 40
0.0499880439814815
 41
2452839.420061482
 42
2452872.431417812
  1

 90
        1
  0
DICTIONARY
  5
26B2
102
{ACAD_REACTORS
330
C
102
}
330
C
100
AcDbDictionary
  3
TSTACKALIGN
350
26B3
  3
TSTACKSIZE
350
26B4
  3
HYPERLINKBASE
350
26B5
  3
STYLESHEET
350
26B6
  3
LAYOUTDICT
350
26B7
  3
PLOTSETDICT
350
26B8
  3
PLOTSTYLNAMDICT
350
26B9
  3
LWETCUNION
350
26BA
  3
INSUNITS
350
26BB
  3
CEPSNTYPE
350
26BC
  3
FINGERPRINTGUID
350
26BD
  3
VERSIONGUID
350
26BE
  3
PSVPSCALE
350
26BF
  3
DIMSTYLEDATA
350
26C0
  3
PUCSORTHOREF
350
26C1
  3
PUCSORTHOVIEW
350
26C2
  3
PUCSBASE
350
26C3
  3
PUCSORGTOP
350
26C4
  3
PUCSORGBOTTOM
350
26C5
  3
PUCSORGLEFT
350
26C6
  3
PUCSORGRIGHT
350
26C7
  3
PUCSORGFRONT
350
26C8
  3
PUCSORGBACK
350
26C9
  3
UCSORTHOREF
350
26CA
  3
UCSORTHOVIEW
350
26CB
  3
UCSBASE
350
26CC
  3
UCSORGTOP
350
26CD
  3
UCSORGBOTTOM
350
26CE
  3
UCSORGLEFT
350
26CF
  3
UCSORGRIGHT
350
26D0
  3
UCSORGFRONT
350
26D1
  3
UCSORGBACK
350
26D2
  0
DICTIONARY
  5
26A8
102
{ACAD_REACTORS
330
74
102
}
330
74
100
AcDbDictionary
  3
*A1
350
26A9
  0
XRECORD
  5
26D5
102
{ACAD_REACTORS
330
74
102
}
330
74
100
AcDbXrecord
340
1F
  0
XRECORD
  5
26DB
102
{ACAD_REACTORS
330
26DA
102
}
330
26DA
100
AcDbXrecord
340
101
  0
MLINESTYLE
  5
18
102
{ACAD_REACTORS
330
17
102
}
330
17
100
AcDbMlineStyle
  2
STANDARD
 70
     0
  3

 62
   256
 51
90.0
 52
90.0
 71
     2
 49
0.5
 62
   256
  6
BYLAYER
 49
-0.5
 62
   256
  6
BYLAYER
  0
ACDBPLACEHOLDER
  5
F
102
{ACAD_REACTORS
330
E
102
}
330
E
100
AcDbPlaceHolder
280
     0
  0
DICTIONARYVAR
  5
35
102
{ACAD_REACTORS
330
34
102
}
330
34
100
DictionaryVariables
280
     0
  1
1
  0
DICTIONARYVAR
  5
B5E
102
{ACAD_REACTORS
330
34
102
}
330
34
100
DictionaryVariables
280
     0
  1
96
  0
DICTIONARY
  5
260
102
{ACAD_REACTORS
330
43
102
}
330
43
100
AcDbDictionary
  0
DICTIONARY
  5
2C
102
{ACAD_REACTORS
330
2B
102
}
330
2B
100
AcDbDictionary
  3
DWGSETTINGS
350
2D
  0
XRECORD
  5
2062
102
{ACAD_REACTORS
330
2060
102
}
330
2060
100
AcDbXrecord
330
0
330
0
330
0
330
0
330
0
330
0
330
0
330
0
330
2576
330
2577
330
2564
330
2565
  0
XRECORD
  5
26B3
102
{ACAD_REACTORS
330
26B2
102
}
330
26B2
100
AcDbXrecord
 90
        1
  0
XRECORD
  5
26B4
102
{ACAD_REACTORS
330
26B2
102
}
330
26B2
100
AcDbXrecord
 90
       70
  0
XRECORD
  5
26B5
102
{ACAD_REACTORS
330
26B2
102
}
330
26B2
100
AcDbXrecord
  1

  0
XRECORD
  5
26B6
102
{ACAD_REACTORS
330
26B2
102
}
330
26B2
100
AcDbXrecord
  1
ASAMI.ctb
  0
XRECORD
  5
26B7
102
{ACAD_REACTORS
330
26B2
102
}
330
26B2
100
AcDbXrecord
340
1A
  0
XRECORD
  5
26B8
102
{ACAD_REACTORS
330
26B2
102
}
330
26B2
100
AcDbXrecord
340
19
  0
XRECORD
  5
26B9
102
{ACAD_REACTORS
330
26B2
102
}
330
26B2
100
AcDbXrecord
340
E
  0
XRECORD
  5
26BA
102
{ACAD_REACTORS
330
26B2
102
}
330
26B2
100
AcDbXrecord
 90
    10781
  0
XRECORD
  5
26BB
102
{ACAD_REACTORS
330
26B2
102
}
330
26B2
100
AcDbXrecord
 90
        4
  0
XRECORD
  5
26BC
102
{ACAD_REACTORS
330
26B2
102
}
330
26B2
100
AcDbXrecord
 90
        0
  0
XRECORD
  5
26BD
102
{ACAD_REACTORS
330
26B2
102
}
330
26B2
100
AcDbXrecord
  1
{AFB28963-8C59-40AE-9337-C84526B81ACE}
  0
XRECORD
  5
26BE
102
{ACAD_REACTORS
330
26B2
102
}
330
26B2
100
AcDbXrecord
  1
{211CCD32-CD34-4E62-A105-3754DA4010FE}
  0
XRECORD
  5
26BF
102
{ACAD_REACTORS
330
26B2
102
}
330
26B2
100
AcDbXrecord
 40
0.0
  0
XRECORD
  5
26C0
102
{ACAD_REACTORS
330
26B2
102
}
330
26B2
100
AcDbXrecord
1000
DSTYLE
1002
{
1070
    79
 70
     2
1070
   341
340
59
1070
   342
340
59
1070
   371
 70
    -1
1070
   372
 70
    -1
1002
}
  0
XRECORD
  5
26C1
102
{ACAD_REACTORS
330
26B2
102
}
330
26B2
100
AcDbXrecord
340
0
  0
XRECORD
  5
26C2
102
{ACAD_REACTORS
330
26B2
102
}
330
26B2
100
AcDbXrecord
 70
     0
  0
XRECORD
  5
26C3
102
{ACAD_REACTORS
330
26B2
102
}
330
26B2
100
AcDbXrecord
340
0
  0
XRECORD
  5
26C4
102
{ACAD_REACTORS
330
26B2
102
}
330
26B2
100
AcDbXrecord
 10
0.0
 20
0.0
 30
0.0
  0
XRECORD
  5
26C5
102
{ACAD_REACTORS
330
26B2
102
}
330
26B2
100
AcDbXrecord
 10
0.0
 20
0.0
 30
0.0
  0
XRECORD
  5
26C6
102
{ACAD_REACTORS
330
26B2
102
}
330
26B2
100
AcDbXrecord
 10
0.0
 20
0.0
 30
0.0
  0
XRECORD
  5
26C7
102
{ACAD_REACTORS
330
26B2
102
}
330
26B2
100
AcDbXrecord
 10
0.0
 20
0.0
 30
0.0
  0
XRECORD
  5
26C8
102
{ACAD_REACTORS
330
26B2
102
}
330
26B2
100
AcDbXrecord
 10
0.0
 20
0.0
 30
0.0
  0
XRECORD
  5
26C9
102
{ACAD_REACTORS
330
26B2
102
}
330
26B2
100
AcDbXrecord
 10
0.0
 20
0.0
 30
0.0
  0
XRECORD
  5
26CA
102
{ACAD_REACTORS
330
26B2
102
}
330
26B2
100
AcDbXrecord
340
0
  0
XRECORD
  5
26CB
102
{ACAD_REACTORS
330
26B2
102
}
330
26B2
100
AcDbXrecord
 70
     0
  0
XRECORD
  5
26CC
102
{ACAD_REACTORS
330
26B2
102
}
330
26B2
100
AcDbXrecord
340
0
  0
XRECORD
  5
26CD
102
{ACAD_REACTORS
330
26B2
102
}
330
26B2
100
AcDbXrecord
 10
0.0
 20
0.0
 30
0.0
  0
XRECORD
  5
26CE
102
{ACAD_REACTORS
330
26B2
102
}
330
26B2
100
AcDbXrecord
 10
0.0
 20
0.0
 30
0.0
  0
XRECORD
  5
26CF
102
{ACAD_REACTORS
330
26B2
102
}
330
26B2
100
AcDbXrecord
 10
0.0
 20
0.0
 30
0.0
  0
XRECORD
  5
26D0
102
{ACAD_REACTORS
330
26B2
102
}
330
26B2
100
AcDbXrecord
 10
0.0
 20
0.0
 30
0.0
  0
XRECORD
  5
26D1
102
{ACAD_REACTORS
330
26B2
102
}
330
26B2
100
AcDbXrecord
 10
0.0
 20
0.0
 30
0.0
  0
XRECORD
  5
26D2
102
{ACAD_REACTORS
330
26B2
102
}
330
26B2
100
AcDbXrecord
 10
0.0
 20
0.0
 30
0.0
  0
LAYER_INDEX
  5
26A9
102
{ACAD_REACTORS
330
26A8
102
}
330
26A8
100
AcDbIndex
 40
2453152.40380912
100
AcDbLayerIndex
  8
0
360
26AA
 90
        0
  8
AM_0
360
26AB
 90
      149
  8
AM_7
360
26AC
 90
        1
  8
AM_11
360
26AD
 90
        1
  8
AM_5
360
26AE
 90
        6
  8
Defpoints
360
26AF
 90
        0
  8
AM_6
360
26B0
 90
        1
  0
XRECORD
  5
2D
102
{ACAD_REACTORS
330
2C
102
}
330
2C
100
AcDbXrecord
  1
VERSION
140
15.0
  1
PRODUCT
  2
AutoCAD Mechanical 2000
  0
IDBUFFER
  5
26AA
330
0
100
AcDbIdBuffer
  0
IDBUFFER
  5
26AB
330
0
100
AcDbIdBuffer
330
2484
330
2485
330
2486
330
2487
330
2488
330
2489
330
248A
330
248B
330
248C
330
248D
330
248E
330
248F
330
2490
330
2491
330
2492
330
2493
330
2494
330
2495
330
2496
330
2497
330
2498
330
2499
330
249A
330
249B
330
249C
330
249D
330
249E
330
249F
330
24A0
330
24A1
330
24A2
330
24A3
330
24A4
330
24A5
330
24A6
330
24A7
330
24A8
330
2413
330
2414
330
2415
330
2416
330
2417
330
2418
330
2419
330
241A
330
241B
330
241C
330
241D
330
241E
330
241F
330
2420
330
2421
330
2422
330
2423
330
2424
330
2425
330
2426
330
2427
330
2428
330
2429
330
242A
330
242B
330
242C
330
242D
330
242E
330
242F
330
2430
330
2431
330
2432
330
2433
330
2434
330
2435
330
2436
330
2437
330
2438
330
2439
330
243A
330
243B
330
243C
330
243D
330
243E
330
243F
330
2440
330
2441
330
2442
330
2443
330
2444
330
2445
330
2446
330
2447
330
2448
330
2449
330
244A
330
244B
330
244C
330
244D
330
244E
330
244F
330
2450
330
2451
330
2452
330
2453
330
2454
330
2455
330
2456
330
2457
330
2458
330
2459
330
245B
330
245C
330
245D
330
245E
330
245F
330
2460
330
2461
330
2462
330
2463
330
2464
330
2465
330
2466
330
2467
330
2468
330
2469
330
246A
330
246B
330
246C
330
246D
330
246E
330
246F
330
2470
330
2471
330
2472
330
2473
330
2474
330
2475
330
2476
330
2477
330
2478
330
2479
330
247A
330
247B
330
247C
330
247D
330
247E
330
247F
330
2480
330
2481
330
2482
330
2483
  0
IDBUFFER
  5
26AC
330
0
100
AcDbIdBuffer
330
2412
  0
IDBUFFER
  5
26AD
330
0
100
AcDbIdBuffer
330
245A
  0
IDBUFFER
  5
26AE
330
0
100
AcDbIdBuffer
330
155D
330
15E8
330
1673
330
1895
330
1E16
330
25B0
  0
IDBUFFER
  5
26AF
330
0
100
AcDbIdBuffer
  0
IDBUFFER
  5
26B0
330
0
100
AcDbIdBuffer
330
1142
  0
ENDSEC
  0
EOF
