  0
SECTION
  2
HEADER
  9
$ACADVER
  1
AC1014
  9
$ACADMAINTVER
 70
     9
  9
$DWGCODEPAGE
  3
ANSI_932
  9
$INSBASE
 10
0.0
 20
0.0
 30
0.0
  9
$EXTMIN
 10
-148.1687457493613
 20
-66.50000481469792
 30
-0.00000001
  9
$EXTMAX
 10
15.82220558984295
 20
39.30000100000007
 30
0.00000001
  9
$LIMMIN
 10
-160.5342755907899
 20
-91.84074738878427
  9
$LIMMAX
 10
85.66365631800932
 20
55.52853242161325
  9
$ORTHOMODE
 70
     0
  9
$REGENMODE
 70
     1
  9
$FILLMODE
 70
     1
  9
$QTEXTMODE
 70
     0
  9
$MIRRTEXT
 70
     0
  9
$DRAGMODE
 70
     2
  9
$LTSCALE
 40
1.0
  9
$OSMODE
 70
    55
  9
$ATTMODE
 70
     1
  9
$TEXTSIZE
 40
2.5
  9
$TRACEWID
 40
1.0
  9
$TEXTSTYLE
  7
STANDARD
  9
$CLAYER
  8
AM_11
  9
$CELTYPE
  6
BYLAYER
  9
$CECOLOR
 62
   256
  9
$CELTSCALE
 40
1.0
  9
$DELOBJ
 70
     1
  9
$DISPSILH
 70
     0
  9
$DIMSCALE
 40
1.0
  9
$DIMASZ
 40
2.5
  9
$DIMEXO
 40
1.0
  9
$DIMDLI
 40
12.0
  9
$DIMRND
 40
0.0
  9
$DIMDLE
 40
0.0
  9
$DIMEXE
 40
1.0
  9
$DIMTP
 40
0.1
  9
$DIMTM
 40
0.1
  9
$DIMTXT
 40
3.2
  9
$DIMCEN
 40
0.0
  9
$DIMTSZ
 40
0.0
  9
$DIMTOL
 70
     0
  9
$DIMLIM
 70
     0
  9
$DIMTIH
 70
     0
  9
$DIMTOH
 70
     0
  9
$DIMSE1
 70
     0
  9
$DIMSE2
 70
     0
  9
$DIMTAD
 70
     3
  9
$DIMZIN
 70
     8
  9
$DIMBLK
  1
OPEN30
  9
$DIMASO
 70
     1
  9
$DIMSHO
 70
     1
  9
$DIMPOST
  1

  9
$DIMAPOST
  1
"
  9
$DIMALT
 70
     0
  9
$DIMALTD
 70
     2
  9
$DIMALTF
 40
0.0393701
  9
$DIMLFAC
 40
1.0
  9
$DIMTOFL
 70
     1
  9
$DIMTVP
 40
0.0
  9
$DIMTIX
 70
     0
  9
$DIMSOXD
 70
     0
  9
$DIMSAH
 70
     0
  9
$DIMBLK1
  1

  9
$DIMBLK2
  1

  9
$DIMSTYLE
  2
AM_JIS
  9
$DIMCLRD
 70
   256
  9
$DIMCLRE
 70
   256
  9
$DIMCLRT
 70
     2
  9
$DIMTFAC
 40
0.71
  9
$DIMGAP
 40
1.5
  9
$DIMJUST
 70
     0
  9
$DIMSD1
 70
     0
  9
$DIMSD2
 70
     0
  9
$DIMTOLJ
 70
     0
  9
$DIMTZIN
 70
     0
  9
$DIMALTZ
 70
     0
  9
$DIMALTTZ
 70
     0
  9
$DIMFIT
 70
     3
  9
$DIMUPT
 70
     0
  9
$DIMUNIT
 70
     2
  9
$DIMDEC
 70
     3
  9
$DIMTDEC
 70
     3
  9
$DIMALTU
 70
     2
  9
$DIMALTTD
 70
     2
  9
$DIMTXSTY
  7
ASAMI
  9
$DIMAUNIT
 70
     0
  9
$LUNITS
 70
     2
  9
$LUPREC
 70
     0
  9
$SKETCHINC
 40
1.0
  9
$FILLETRAD
 40
2.5
  9
$AUNITS
 70
     0
  9
$AUPREC
 70
     0
  9
$MENU
  1
.
  9
$ELEVATION
 40
0.0
  9
$PELEVATION
 40
0.0
  9
$THICKNESS
 40
0.0
  9
$LIMCHECK
 70
     0
  9
$BLIPMODE
 70
     0
  9
$CHAMFERA
 40
2.5
  9
$CHAMFERB
 40
2.5
  9
$CHAMFERC
 40
20.0
  9
$CHAMFERD
 40
0.0
  9
$SKPOLY
 70
     0
  9
$TDCREATE
 40
2452839.420061482
  9
$TDUPDATE
 40
2453152.407168402
  9
$TDINDWG
 40
0.0697560417
  9
$TDUSRTIMER
 40
0.0697560417
  9
$USRTIMER
 70
     1
  9
$ANGBASE
 50
0.0
  9
$ANGDIR
 70
     0
  9
$PDMODE
 70
     0
  9
$PDSIZE
 40
0.0
  9
$PLINEWID
 40
0.0
  9
$COORDS
 70
     1
  9
$SPLFRAME
 70
     0
  9
$SPLINETYPE
 70
     6
  9
$SPLINESEGS
 70
     8
  9
$ATTDIA
 70
     1
  9
$ATTREQ
 70
     1
  9
$HANDLING
 70
 12289
  9
$HANDSEED
  5
3524
  9
$SURFTAB1
 70
     6
  9
$SURFTAB2
 70
     6
  9
$SURFTYPE
 70
     6
  9
$SURFU
 70
     6
  9
$SURFV
 70
     6
  9
$UCSNAME
  2

  9
$UCSORG
 10
0.0
 20
0.0
 30
0.0
  9
$UCSXDIR
 10
1.0
 20
0.0
 30
0.0
  9
$UCSYDIR
 10
0.0
 20
1.0
 30
0.0
  9
$PUCSNAME
  2

  9
$PUCSORG
 10
0.0
 20
0.0
 30
0.0
  9
$PUCSXDIR
 10
1.0
 20
0.0
 30
0.0
  9
$PUCSYDIR
 10
0.0
 20
1.0
 30
0.0
  9
$USERI1
 70
     0
  9
$USERI2
 70
     0
  9
$USERI3
 70
     0
  9
$USERI4
 70
     0
  9
$USERI5
 70
     0
  9
$USERR1
 40
0.0
  9
$USERR2
 40
0.0
  9
$USERR3
 40
0.0
  9
$USERR4
 40
0.0
  9
$USERR5
 40
0.0
  9
$WORLDVIEW
 70
     1
  9
$SHADEDGE
 70
     3
  9
$SHADEDIF
 70
    70
  9
$TILEMODE
 70
     1
  9
$MAXACTVP
 70
    64
  9
$PINSBASE
 10
0.0
 20
0.0
 30
0.0
  9
$PLIMCHECK
 70
     0
  9
$PEXTMIN
 10
1.000000000000000E+20
 20
1.000000000000000E+20
 30
1.000000000000000E+20
  9
$PEXTMAX
 10
-1.000000000000000E+20
 20
-1.000000000000000E+20
 30
-1.000000000000000E+20
  9
$PLIMMIN
 10
0.0
 20
0.0
  9
$PLIMMAX
 10
841.0
 20
594.0
  9
$UNITMODE
 70
     0
  9
$VISRETAIN
 70
     1
  9
$PLINEGEN
 70
     0
  9
$PSLTSCALE
 70
     0
  9
$TREEDEPTH
 70
  3020
  9
$PICKSTYLE
 70
     0
  9
$CMLSTYLE
  2
STANDARD
  9
$CMLJUST
 70
     0
  9
$CMLSCALE
 40
20.0
  9
$PROXYGRAPHICS
 70
     1
  9
$MEASUREMENT
 70
     1
  0
ENDSEC
  0
SECTION
  2
CLASSES
  0
CLASS
  1
ACDBDICTIONARYWDFLT
  2
AcDbDictionaryWithDefault
  3
AutoCAD 2000
 90
        0
280
     0
281
     0
  0
CLASS
  1
ACDBPLACEHOLDER
  2
AcDbPlaceHolder
  3
AutoCAD 2000
 90
        0
280
     0
281
     0
  0
CLASS
  1
LAYOUT
  2
AcDbLayout
  3
AutoCAD 2000
 90
        0
280
     0
281
     0
  0
CLASS
  1
AMGSETTINGSOBJ
  2
AmgSettingsObj
  3
"AcadM|Product Description: AutoCAD Mechanical 2000|Company: Autodesk"
 90
        0
280
     0
281
     0
  0
CLASS
  1
ACME_DOCUMENT
  2
AcMeDbDoc
  3
AcMeServices
 90
        0
280
     0
281
     0
  0
CLASS
  1
ACMESCOPE
  2
AcMeScope
  3
AcMeServices
 90
        0
280
     0
281
     0
  0
CLASS
  1
ACMECOMMANDHISTORY
  2
AcMeCommandHistory
  3
AcMeServices
 90
        0
280
     0
281
     0
  0
CLASS
  1
DICTIONARYVAR
  2
AcDbDictionaryVar
  3
AutoCAD 2000
 90
        0
280
     0
281
     0
  0
CLASS
  1
ACIMSYSVARMAN
  2
AcImSysVarManager
  3
AcMeServices
 90
        0
280
     0
281
     0
  0
CLASS
  1
ACIMREALSYSVAR
  2
AcImRealSysVar
  3
AcMeServices
 90
        0
280
     0
281
     0
  0
CLASS
  1
ACIMINTSYSVAR
  2
AcImIntSysVar
  3
AcMeServices
 90
        0
280
     0
281
     0
  0
CLASS
  1
ACMEDRAWINGMAN
  2
AcMeDrawingMan
  3
AcMeServices
 90
        0
280
     0
281
     0
  0
CLASS
  1
ACMEVIEW
  2
AcMeView
  3
AcMeServices
 90
        0
280
     0
281
     0
  0
CLASS
  1
ACDBENTITYCACHE
  2
AcMeEntityCache
  3
AcMeServices
 90
        0
280
     0
281
     0
  0
CLASS
  1
GSMANAGER
  2
AcMeGSManager
  3
AcMeServices
 90
        0
280
     0
281
     0
  0
CLASS
  1
AmdtInternalReactor
  2
AmdtInternalReactor
  3
AcMeServices
 90
        0
280
     0
281
     0
  0
CLASS
  1
ACMESTATEMGR
  2
AcMeStateMgr
  3
AcMeServices
 90
        0
280
     0
281
     0
  0
CLASS
  1
ACME_DATABASE
  2
AcMeDbDatabase
  3
AcMeServices
 90
        0
280
     0
281
     0
  0
CLASS
  1
ACRFINSADJUSTERMGR
  2
AcRfInsAdjusterMgr
  3
AcMeServices
 90
        0
280
     0
281
     0
  0
CLASS
  1
ACMDATADICTIONARY
  2
AcmDataDictionary
  3
"AcmSymBB|Product Description: AutoCAD Mechanical 2000|Company: Autodesk"
 90
        0
280
     0
281
     0
  0
CLASS
  1
ACMDATAENTRYBLOCK
  2
AcmDataEntryBlock
  3
"AcmSymBB|Product Description: AutoCAD Mechanical 2000|Company: Autodesk"
 90
        0
280
     0
281
     0
  0
CLASS
  1
AMGOBJPROPCFG
  2
AmgObjPropCfg
  3
"AmgLay|Product Description: AutoCAD Mechanical 2000|Company: Autodesk"
 90
        1
280
     0
281
     0
  0
CLASS
  1
ACAMGFILTERDAT
  2
AcAmgFilterDat
  3
"AcadM|Product Description: AutoCAD Mechanical 2000|Company: Autodesk"
 90
        0
280
     0
281
     0
  0
CLASS
  1
LAYER_INDEX
  2
AcDbLayerIndex
  3
AutoCAD 2000
 90
        0
280
     0
281
     0
  0
CLASS
  1
IDBUFFER
  2
AcDbIdBuffer
  3
AutoCAD 2000
 90
        0
280
     0
281
     0
  0
CLASS
  1
ACIMSTRSYSVAR
  2
AcImStrSysVar
  3
AcMeServices
 90
        0
280
     0
281
     0
  0
CLASS
  1
ACMSTANDARDJIS
  2
AcmStandardJIS
  3
"AcmSymBB|Product Description: AutoCAD Mechanical 2000|Company: Autodesk"
 90
        0
280
     0
281
     0
  0
CLASS
  1
ACMSURFSTANDARDJIS
  2
AcmSurfTextStdJIS
  3
"AcmSymBB|Product Description: AutoCAD Mechanical 2000|Company: Autodesk"
 90
        0
280
     0
281
     0
  0
CLASS
  1
ACMFCFSTANDARDJIS
  2
AcmFCFStdJIS
  3
"AcmSymBB|Product Description: AutoCAD Mechanical 2000|Company: Autodesk"
 90
        0
280
     0
281
     0
  0
CLASS
  1
ACMWELDSTANDARDJIS
  2
AcmWeldingStdJIS
  3
"AcmSymBB|Product Description: AutoCAD Mechanical 2000|Company: Autodesk"
 90
        0
280
     0
281
     0
  0
CLASS
  1
ACMIDSTANDARDJIS
  2
AcmIdStdJIS
  3
"AcmSymBB|Product Description: AutoCAD Mechanical 2000|Company: Autodesk"
 90
        0
280
     0
281
     0
  0
CLASS
  1
ACMDATUMSTANDARDJIS
  2
AcmDatumStdJIS
  3
"AcmSymBB|Product Description: AutoCAD Mechanical 2000|Company: Autodesk"
 90
        0
280
     0
281
     0
  0
CLASS
  1
ACMBOMSTANDARDJIS
  2
AcmBOMStdJIS
  3
"AcmSymBB|Product Description: AutoCAD Mechanical 2000|Company: Autodesk"
 90
        0
280
     0
281
     0
  0
CLASS
  1
ACMSTANDARDANSI
  2
AcmStandardANSI
  3
"AcmSymBB|Product Description: AutoCAD Mechanical 2000|Company: Autodesk"
 90
        0
280
     0
281
     0
  0
CLASS
  1
ACMSURFSTANDARDANSI
  2
AcmSurfTextStdANSI
  3
"AcmSymBB|Product Description: AutoCAD Mechanical 2000|Company: Autodesk"
 90
        0
280
     0
281
     0
  0
CLASS
  1
ACMFCFSTANDARDANSI
  2
AcmFCFStdANSI
  3
"AcmSymBB|Product Description: AutoCAD Mechanical 2000|Company: Autodesk"
 90
        0
280
     0
281
     0
  0
CLASS
  1
ACMWELDSTANDARDANSI
  2
AcmWeldingStdANSI
  3
"AcmSymBB|Product Description: AutoCAD Mechanical 2000|Company: Autodesk"
 90
        0
280
     0
281
     0
  0
CLASS
  1
ACMIDSTANDARDANSI
  2
AcmIdStdANSI
  3
"AcmSymBB|Product Description: AutoCAD Mechanical 2000|Company: Autodesk"
 90
        0
280
     0
281
     0
  0
CLASS
  1
ACMDATUMSTANDARDANSI
  2
AcmDatumStdANSI
  3
"AcmSymBB|Product Description: AutoCAD Mechanical 2000|Company: Autodesk"
 90
        0
280
     0
281
     0
  0
CLASS
  1
ACMBOMSTANDARDANSI
  2
AcmBOMStdANSI
  3
"AcmSymBB|Product Description: AutoCAD Mechanical 2000|Company: Autodesk"
 90
        0
280
     0
281
     0
  0
CLASS
  1
ACMSTANDARDBSI
  2
AcmStandardBSI
  3
"AcmSymBB|Product Description: AutoCAD Mechanical 2000|Company: Autodesk"
 90
        0
280
     0
281
     0
  0
CLASS
  1
ACMSURFSTANDARDBSI
  2
AcmSurfTextStdBSI
  3
"AcmSymBB|Product Description: AutoCAD Mechanical 2000|Company: Autodesk"
 90
        0
280
     0
281
     0
  0
CLASS
  1
ACMFCFSTANDARDBSI
  2
AcmFCFStdBSI
  3
"AcmSymBB|Product Description: AutoCAD Mechanical 2000|Company: Autodesk"
 90
        0
280
     0
281
     0
  0
CLASS
  1
ACMWELDSTANDARDBSI
  2
AcmWeldingStdBSI
  3
"AcmSymBB|Product Description: AutoCAD Mechanical 2000|Company: Autodesk"
 90
        0
280
     0
281
     0
  0
CLASS
  1
ACMIDSTANDARDBSI
  2
AcmIdStdBSI
  3
"AcmSymBB|Product Description: AutoCAD Mechanical 2000|Company: Autodesk"
 90
        0
280
     0
281
     0
  0
CLASS
  1
ACMDATUMSTANDARDBSI
  2
AcmDatumStdBSI
  3
"AcmSymBB|Product Description: AutoCAD Mechanical 2000|Company: Autodesk"
 90
        0
280
     0
281
     0
  0
CLASS
  1
ACMBOMSTANDARDBSI
  2
AcmBOMStdBSI
  3
"AcmSymBB|Product Description: AutoCAD Mechanical 2000|Company: Autodesk"
 90
        0
280
     0
281
     0
  0
CLASS
  1
LONG_TRANSACTION
  2
AcDbLongTransaction
  3
AutoCAD 2000
 90
        0
280
     0
281
     0
  0
CLASS
  1
LWPOLYLINE
  2
AcDbPolyline
  3
AutoCAD 2000
 90
        0
280
     0
281
     1
  0
CLASS
  1
HATCH
  2
AcDbHatch
  3
AutoCAD 2000
 90
        0
280
     0
281
     1
  0
CLASS
  1
XRECORD
  2
AcDbXrecord
  3
AutoCAD 2000
 90
        0
280
     0
281
     0
  0
ENDSEC
  0
SECTION
  2
TABLES
  0
TABLE
  2
VPORT
  5
8
330
0
100
AcDbSymbolTable
 70
     3
  0
VPORT
  5
34F9
330
8
100
AcDbSymbolTableRecord
100
AcDbViewportTableRecord
  2
*ACTIVE
 70
     0
 10
0.0
 20
0.0
 11
1.0
 21
1.0
 12
-67.92738589787934
 22
-10.50307300338023
 13
0.0
 23
0.0
 14
2.5
 24
2.5
 15
10.0
 25
10.0
 16
0.0
 26
0.0
 36
1.0
 17
0.0
 27
0.0
 37
0.0
 40
139.5288773914395
 41
1.56570841889117
 42
50.0
 43
0.0
 44
0.0
 50
0.0
 51
0.0
 71
     0
 72
   100
 73
     1
 74
     3
 75
     0
 76
     0
 77
     0
 78
     0
  0
ENDTAB
  0
TABLE
  2
LTYPE
  5
5
330
0
100
AcDbSymbolTable
 70
    10
  0
LTYPE
  5
14
330
5
100
AcDbSymbolTableRecord
100
AcDbLinetypeTableRecord
  2
BYBLOCK
 70
     0
  3

 72
    65
 73
     0
 40
0.0
  0
LTYPE
  5
15
330
5
100
AcDbSymbolTableRecord
100
AcDbLinetypeTableRecord
  2
BYLAYER
 70
     0
  3

 72
    65
 73
     0
 40
0.0
  0
LTYPE
  5
16
330
5
100
AcDbSymbolTableRecord
100
AcDbLinetypeTableRecord
  2
CONTINUOUS
 70
     0
  3
Solid line
 72
    65
 73
     0
 40
0.0
  0
LTYPE
  5
4B
330
5
100
AcDbSymbolTableRecord
100
AcDbLinetypeTableRecord
  2
AM_ISO02W050
 70
     0
  3
__ __ __ __ __ __ __ __ __ __ __ __ __ __ __
 72
    65
 73
     2
 40
7.5
 49
6.0
 74
     0
 49
-1.5
 74
     0
  0
LTYPE
  5
4C
330
5
100
AcDbSymbolTableRecord
100
AcDbLinetypeTableRecord
  2
AM_ISO08W050
 70
     0
  3
____ . ____ . ____ . ____ . ____ . ____ . ____
 72
    65
 73
     4
 40
18.0
 49
12.0
 74
     0
 49
-1.5
 74
     0
 49
3.0
 74
     0
 49
-1.5
 74
     0
  0
LTYPE
  5
4D
330
5
100
AcDbSymbolTableRecord
100
AcDbLinetypeTableRecord
  2
AM_ISO09W050
 70
     0
  3
_____ . . _____ . . _____ . . ____ .. ____
 72
    65
 73
     6
 40
22.5
 49
12.0
 74
     0
 49
-1.5
 74
     0
 49
3.0
 74
     0
 49
-1.5
 74
     0
 49
3.0
 74
     0
 49
-1.5
 74
     0
  0
LTYPE
  5
4E
330
5
100
AcDbSymbolTableRecord
100
AcDbLinetypeTableRecord
  2
AMCONSTR
 70
     0
  3
_______________________
 72
    65
 73
     2
 40
9999.0
 49
9999.0
 74
     0
 49
0.0
 74
     0
  0
LTYPE
  5
4F
330
5
100
AcDbSymbolTableRecord
100
AcDbLinetypeTableRecord
  2
AM_ISO02W050X2
 70
     0
  3
 _ _ _ _ _ _ _ _ _ _ _ _
 72
    65
 73
     2
 40
3.75
 49
3.0
 74
     0
 49
-0.75
 74
     0
  0
LTYPE
  5
50
330
5
100
AcDbSymbolTableRecord
100
AcDbLinetypeTableRecord
  2
AM_ISO08W050X2
 70
     0
  3
__ . __ . __ . __ . __ . __
 72
    65
 73
     4
 40
9.0
 49
6.0
 74
     0
 49
-0.75
 74
     0
 49
1.5
 74
     0
 49
-0.75
 74
     0
  0
LTYPE
  5
53
330
5
100
AcDbSymbolTableRecord
100
AcDbLinetypeTableRecord
  2
AMZIGZAG
 70
     0
  3
/\/-/\/-/\/-/\/-/\/-/\/
 72
    65
 73
     2
 40
11.00009999999999
 49
0.0001
 74
     4
 75
   135
340
52
 46
0.04
 50
0.0
 44
0.0
 45
0.0
 49
-11.0
 74
     0
  0
LTYPE
  5
166
330
5
100
AcDbSymbolTableRecord
100
AcDbLinetypeTableRecord
  2
ACJISTGL
 70
     0
  3
_ _ _ _ _
 72
    65
 73
     2
 40
3.0
 49
2.0
 74
     0
 49
-1.0
 74
     0
  0
LTYPE
  5
26A
330
5
100
AcDbSymbolTableRecord
100
AcDbLinetypeTableRecord
  2
ACJISTGB
 70
     0
  3
__ . . __ . .
 72
    65
 73
     6
 40
9.0
 49
4.0
 74
     0
 49
-1.0
 74
     0
 49
1.0
 74
     0
 49
-1.0
 74
     0
 49
1.0
 74
     0
 49
-1.0
 74
     0
  0
ENDTAB
  0
TABLE
  2
LAYER
  5
2
330
0
100
AcDbSymbolTable
 70
     7
  0
LAYER
  5
10
330
2
100
AcDbSymbolTableRecord
100
AcDbLayerTableRecord
  2
0
 70
     0
 62
     7
  6
CONTINUOUS
  0
LAYER
  5
3F9
330
2
100
AcDbSymbolTableRecord
100
AcDbLayerTableRecord
  2
AM_0
 70
     0
 62
     7
  6
CONTINUOUS
  0
LAYER
  5
CD5
330
2
100
AcDbSymbolTableRecord
100
AcDbLayerTableRecord
  2
AM_7
 70
     0
 62
     4
  6
AM_ISO08W050
  0
LAYER
  5
CDE
330
2
100
AcDbSymbolTableRecord
100
AcDbLayerTableRecord
  2
AM_11
 70
     0
 62
     3
  6
AM_ISO09W050
  0
LAYER
  5
CFB
330
2
100
AcDbSymbolTableRecord
100
AcDbLayerTableRecord
  2
AM_5
 70
     0
 62
     3
  6
CONTINUOUS
  0
LAYER
  5
CFD
330
2
100
AcDbSymbolTableRecord
100
AcDbLayerTableRecord
  2
DEFPOINTS
 70
     0
 62
     7
  6
CONTINUOUS
  0
LAYER
  5
113C
330
2
100
AcDbSymbolTableRecord
100
AcDbLayerTableRecord
  2
AM_6
 70
     0
 62
     2
  6
CONTINUOUS
  0
ENDTAB
  0
TABLE
  2
STYLE
  5
3
330
0
100
AcDbSymbolTable
 70
     5
  0
STYLE
  5
11
330
3
100
AcDbSymbolTableRecord
100
AcDbTextStyleTableRecord
  2
STANDARD
 70
     0
 40
0.0
 41
1.0
 50
0.0
 71
     0
 42
2.5
  3
simplex.shx
  4
EXTFONT.SHX
  0
STYLE
  5
52
330
3
100
AcDbSymbolTableRecord
100
AcDbTextStyleTableRecord
  2

 70
     1
 40
0.0
 41
1.0
 50
0.0
 71
     0
 42
2.5
  3
ltypeshp.shx
  4

  0
STYLE
  5
6B
330
3
100
AcDbSymbolTableRecord
100
AcDbTextStyleTableRecord
  2
ASAMI
 70
     0
 40
0.0
 41
1.0
 50
0.0
 71
     0
 42
2.5
  3
simplex.shx
  4
EXTFONT.SHX
  0
STYLE
  5
262
330
3
100
AcDbSymbolTableRecord
100
AcDbTextStyleTableRecord
  2
ACJISTS
 70
     0
 40
1.0
 41
1.0
 50
0.0
 71
     0
 42
2.5
  3
simplex.shx
  4
bigfont.shx
  0
STYLE
  5
269
330
3
100
AcDbSymbolTableRecord
100
AcDbTextStyleTableRecord
  2
ACJISGDT
 70
     0
 40
0.0
 41
1.0
 50
0.0
 71
     0
 42
2.5
  3
amgdtans.shx
  4

  0
ENDTAB
  0
TABLE
  2
VIEW
  5
6
330
0
100
AcDbSymbolTable
 70
     0
  0
ENDTAB
  0
TABLE
  2
UCS
  5
7
330
0
100
AcDbSymbolTable
 70
     0
  0
ENDTAB
  0
TABLE
  2
APPID
  5
9
330
0
100
AcDbSymbolTable
 70
    12
  0
APPID
  5
12
330
9
100
AcDbSymbolTableRecord
100
AcDbRegAppTableRecord
  2
ACAD
 70
     0
  0
APPID
  5
30
330
9
100
AcDbSymbolTableRecord
100
AcDbRegAppTableRecord
  2
MCAD_NO_VIS
 70
     0
  0
APPID
  5
31
330
9
100
AcDbSymbolTableRecord
100
AcDbRegAppTableRecord
  2
ACAD_TEMP_GRAPHIC
 70
     0
  0
APPID
  5
2C2
330
9
100
AcDbSymbolTableRecord
100
AcDbRegAppTableRecord
  2
GENIUS_GENDTOL_13
 70
     0
  0
APPID
  5
339
330
9
100
AcDbSymbolTableRecord
100
AcDbRegAppTableRecord
  2
GENIUS_GENODEF_13
 70
     0
  0
APPID
  5
33A
330
9
100
AcDbSymbolTableRecord
100
AcDbRegAppTableRecord
  2
GENIUS_GENOBJ-N-RSBK_13
 70
     0
  0
APPID
  5
33B
330
9
100
AcDbSymbolTableRecord
100
AcDbRegAppTableRecord
  2
GENIUS_GENOBJ-N-LIB_13
 70
     0
  0
APPID
  5
33C
330
9
100
AcDbSymbolTableRecord
100
AcDbRegAppTableRecord
  2
GENIUS_GENSCALE_13
 70
     0
  0
APPID
  5
378
330
9
100
AcDbSymbolTableRecord
100
AcDbRegAppTableRecord
  2
GENIUS_GENDIMSH_14
 70
     0
  0
APPID
  5
13A0
330
9
100
AcDbSymbolTableRecord
100
AcDbRegAppTableRecord
  2
GENIUS_GENOBJ-N-CEN_13
 70
     0
  0
APPID
  5
13D7
330
9
100
AcDbSymbolTableRecord
100
AcDbRegAppTableRecord
  2
GENIUS_GENREC_14
 70
     0
  0
APPID
  5
13D8
330
9
100
AcDbSymbolTableRecord
100
AcDbRegAppTableRecord
  2
GENIUS_GENOBJ-N-REC_13
 70
     0
  0
ENDTAB
  0
TABLE
  2
DIMSTYLE
  5
A
330
0
100
AcDbSymbolTable
 70
     9
  0
DIMSTYLE
105
58
330
A
100
AcDbSymbolTableRecord
100
AcDbDimStyleTableRecord
  2
AM_JIS
 70
     0
  3

  4
"
  5
OPEN30
  6

  7

 40
1.0
 41
2.5
 42
1.0
 43
12.0
 44
1.0
 45
0.0
 46
0.0
 47
0.1
 48
0.1
140
3.2
141
0.0
142
0.0
143
0.0393701
144
1.0
145
0.0
146
0.71
147
1.5
 71
     0
 72
     0
 73
     0
 74
     0
 75
     0
 76
     0
 77
     3
 78
     8
170
     0
171
     2
172
     1
173
     0
174
     0
175
     0
176
   256
177
   256
178
     2
270
     2
271
     3
272
     3
273
     2
274
     2
340
6B
275
     0
280
     0
281
     0
282
     0
283
     0
284
     0
285
     0
286
     0
287
     3
288
     0
  0
DIMSTYLE
105
5F
330
A
100
AcDbSymbolTableRecord
100
AcDbDimStyleTableRecord
  2
AM_JIS$3
 70
     0
  3

  4
"
  5
OPEN30
  6

  7

 40
1.0
 41
2.5
 42
1.0
 43
10.0
 44
1.0
 45
0.0
 46
0.0
 47
0.1
 48
0.1
140
3.2
141
0.0
142
0.0
143
0.0393701
144
1.0
145
0.0
146
0.71
147
1.5
 71
     0
 72
     0
 73
     0
 74
     1
 75
     0
 76
     0
 77
     3
 78
     8
170
     0
171
     2
172
     0
173
     0
174
     0
175
     0
176
   256
177
   256
178
     2
270
     2
271
     2
272
     3
273
     2
274
     2
340
6B
275
     0
280
     0
281
     0
282
     0
283
     0
284
     0
285
     0
286
     0
287
     0
288
     1
  0
DIMSTYLE
105
60
330
A
100
AcDbSymbolTableRecord
100
AcDbDimStyleTableRecord
  2
AM_JIS$4
 70
     0
  3

  4
"
  5
OPEN30
  6

  7

 40
1.0
 41
2.5
 42
1.0
 43
10.0
 44
1.0
 45
0.0
 46
0.0
 47
0.1
 48
0.1
140
3.2
141
0.0
142
0.0
143
0.0393701
144
1.0
145
0.0
146
0.71
147
1.5
 71
     0
 72
     0
 73
     0
 74
     1
 75
     0
 76
     0
 77
     3
 78
     8
170
     0
171
     2
172
     0
173
     0
174
     0
175
     0
176
   256
177
   256
178
     2
270
     2
271
     2
272
     3
273
     2
274
     2
340
6B
275
     0
280
     0
281
     0
282
     0
283
     0
284
     0
285
     0
286
     0
287
     0
288
     1
  0
DIMSTYLE
105
61
330
A
100
AcDbSymbolTableRecord
100
AcDbDimStyleTableRecord
  2
AM_JIS$6
 70
     0
  3

  4
"
  5
OPEN30
  6

  7

 40
1.0
 41
2.5
 42
1.0
 43
10.0
 44
1.0
 45
0.0
 46
0.0
 47
0.1
 48
0.1
140
3.2
141
0.0
142
0.0
143
0.0393701
144
1.0
145
0.0
146
0.71
147
1.5
 71
     0
 72
     0
 73
     0
 74
     0
 75
     0
 76
     0
 77
     0
 78
     8
170
     0
171
     2
172
     1
173
     0
174
     0
175
     0
176
   256
177
   256
178
     2
270
     2
271
     2
272
     2
273
     2
274
     2
340
6B
275
     0
280
     0
281
     0
282
     0
283
     0
284
     0
285
     0
286
     0
287
     3
288
     0
  0
DIMSTYLE
105
62
330
A
100
AcDbSymbolTableRecord
100
AcDbDimStyleTableRecord
  2
AM_JIS$7
 70
     0
  3

  4
"
  5
OPEN30
  6

  7

 40
1.0
 41
2.5
 42
1.0
 43
10.0
 44
1.0
 45
0.0
 46
0.0
 47
0.1
 48
0.1
140
3.2
141
0.0
142
0.0
143
0.0393701
144
1.0
145
0.0
146
0.71
147
1.5
 71
     0
 72
     0
 73
     0
 74
     0
 75
     0
 76
     0
 77
     3
 78
     8
170
     0
171
     2
172
     1
173
     0
174
     0
175
     0
176
   256
177
   256
178
     2
270
     2
271
     2
272
     3
273
     2
274
     2
340
6B
275
     0
280
     0
281
     0
282
     0
283
     0
284
     0
285
     0
286
     0
287
     3
288
     0
  0
DIMSTYLE
105
63
330
A
100
AcDbSymbolTableRecord
100
AcDbDimStyleTableRecord
  2
AM_JIS$SF
 70
     0
  3

  4
"
  5
OPEN30
  6

  7

 40
1.0
 41
2.5
 42
1.0
 43
10.0
 44
1.0
 45
0.0
 46
0.0
 47
0.1
 48
0.1
140
3.2
141
0.0
142
0.0
143
0.0393701
144
1.0
145
0.0
146
0.71
147
1.5
 71
     0
 72
     0
 73
     0
 74
     0
 75
     1
 76
     1
 77
     3
 78
     8
170
     0
171
     2
172
     1
173
     0
174
     0
175
     0
176
   256
177
   256
178
     2
270
     2
271
     2
272
     2
273
     2
274
     2
340
6B
275
     0
280
     0
281
     0
282
     0
283
     0
284
     0
285
     0
286
     0
287
     3
288
     0
  0
DIMSTYLE
105
68
330
A
100
AcDbSymbolTableRecord
100
AcDbDimStyleTableRecord
  2
AM_JIS$SH
 70
     0
  3

  4
"
  5

  6
GENAXEH
  7
OPEN30
 40
1.0
 41
2.5
 42
1.0
 43
10.0
 44
1.0
 45
0.0
 46
0.0
 47
0.1
 48
0.1
140
3.2
141
0.0
142
0.0
143
0.0393701
144
2.0
145
0.0
146
0.71
147
1.5
 71
     0
 72
     0
 73
     0
 74
     0
 75
     1
 76
     1
 77
     3
 78
     8
170
     0
171
     2
172
     1
173
     1
174
     0
175
     0
176
   256
177
   256
178
     2
270
     2
271
     2
272
     2
273
     2
274
     2
340
6B
275
     0
280
     0
281
     0
282
     0
283
     0
284
     0
285
     0
286
     0
287
     3
288
     0
  0
DIMSTYLE
105
B34
330
A
100
AcDbSymbolTableRecord
100
AcDbDimStyleTableRecord
  2
AM_JIS$2
 70
     0
  3

  4
"
  5
OPEN30
  6

  7

 40
1.0
 41
2.5
 42
1.0
 43
12.0
 44
1.0
 45
0.0
 46
0.0
 47
0.1
 48
0.1
140
3.2
141
0.0
142
0.0
143
0.0393701
144
1.0
145
0.0
146
0.71
147
1.5
 71
     0
 72
     0
 73
     0
 74
     0
 75
     0
 76
     0
 77
     3
 78
     8
170
     0
171
     2
172
     1
173
     0
174
     0
175
     0
176
   256
177
   256
178
     2
270
     2
271
     3
272
     3
273
     2
274
     2
340
6B
275
     0
280
     0
281
     0
282
     0
283
     0
284
     0
285
     0
286
     0
287
     3
288
     0
  0
DIMSTYLE
105
BA5
102
{ACAD_REACTORS
330
155D
330
15E8
330
1673
330
1E16
330
1895
330
2A01
102
}
330
A
100
AcDbSymbolTableRecord
100
AcDbDimStyleTableRecord
  2
AM_JIS$0
 70
     0
  3

  4
"
  5
OPEN30
  6

  7

 40
1.0
 41
2.5
 42
0.0
 43
10.0
 44
1.0
 45
0.0
 46
0.0
 47
0.1
 48
0.1000000001
140
3.799999999999999
141
0.0
142
0.0
143
0.0393701
144
1.0
145
0.0
146
0.71
147
1.5
 71
     0
 72
     0
 73
     0
 74
     0
 75
     0
 76
     0
 77
     3
 78
     1
170
     0
171
     2
172
     1
173
     0
174
     0
175
     0
176
     3
177
     3
178
     2
270
     2
271
     2
272
     2
273
     2
274
     2
340
11
275
     1
280
     0
281
     0
282
     0
283
     0
284
     8
285
     0
286
     0
287
     0
288
     0
  0
ENDTAB
  0
TABLE
  2
BLOCK_RECORD
  5
1
330
0
100
AcDbSymbolTable
 70
    13
  0
BLOCK_RECORD
  5
1F
102
{ACAD_XDICTIONARY
360
74
102
}
330
1
100
AcDbSymbolTableRecord
100
AcDbBlockTableRecord
  2
*MODEL_SPACE
  0
BLOCK_RECORD
  5
101
102
{ACAD_XDICTIONARY
360
3522
102
}
330
1
100
AcDbSymbolTableRecord
100
AcDbBlockTableRecord
  2
*PAPER_SPACE
  0
BLOCK_RECORD
  5
59
330
1
100
AcDbSymbolTableRecord
100
AcDbBlockTableRecord
  2
_OPEN30
  0
BLOCK_RECORD
  5
64
330
1
100
AcDbSymbolTableRecord
100
AcDbBlockTableRecord
  2
GENAXEH
  0
BLOCK_RECORD
  5
155E
330
1
100
AcDbSymbolTableRecord
100
AcDbBlockTableRecord
  2
*D5
  0
BLOCK_RECORD
  5
15E9
330
1
100
AcDbSymbolTableRecord
100
AcDbBlockTableRecord
  2
*D6
  0
BLOCK_RECORD
  5
1674
330
1
100
AcDbSymbolTableRecord
100
AcDbBlockTableRecord
  2
*D7
  0
BLOCK_RECORD
  5
1896
330
1
100
AcDbSymbolTableRecord
100
AcDbBlockTableRecord
  2
*D8
  0
BLOCK_RECORD
  5
1E17
330
1
100
AcDbSymbolTableRecord
100
AcDbBlockTableRecord
  2
*D9
  0
BLOCK_RECORD
  5
2833
330
1
100
AcDbSymbolTableRecord
100
AcDbBlockTableRecord
  2
A$C64E1636B
  0
BLOCK_RECORD
  5
2A02
330
1
100
AcDbSymbolTableRecord
100
AcDbBlockTableRecord
  2
*D11
  0
BLOCK_RECORD
  5
3124
330
1
100
AcDbSymbolTableRecord
100
AcDbBlockTableRecord
  2
A$C198162D9
  0
ENDTAB
  0
ENDSEC
  0
SECTION
  2
BLOCKS
  0
BLOCK
  5
20
330
1F
100
AcDbEntity
  8
0
100
AcDbBlockBegin
  2
*MODEL_SPACE
 70
     0
 10
0.0
 20
0.0
 30
0.0
  3
*MODEL_SPACE
  1

  0
ENDBLK
  5
21
330
1F
100
AcDbEntity
  8
0
100
AcDbBlockEnd
  0
BLOCK
  5
103
330
101
100
AcDbEntity
 67
     1
  8
0
100
AcDbBlockBegin
  2
*PAPER_SPACE
 70
     0
 10
0.0
 20
0.0
 30
0.0
  3
*PAPER_SPACE
  1

  0
ENDBLK
  5
104
330
101
100
AcDbEntity
 67
     1
  8
0
100
AcDbBlockEnd
  0
BLOCK
  5
5D
330
59
100
AcDbEntity
  8
0
100
AcDbBlockBegin
  2
_OPEN30
 70
     0
 10
0.0
 20
0.0
 30
0.0
  3
_OPEN30
  1

  0
LINE
  5
5A
330
59
100
AcDbEntity
  8
0
 62
     0
100
AcDbLine
 10
-1.0
 20
0.26794919
 30
0.0
 11
0.0
 21
0.0
 31
0.0
  0
LINE
  5
5B
330
59
100
AcDbEntity
  8
0
 62
     0
100
AcDbLine
 10
0.0
 20
0.0
 30
0.0
 11
-1.0
 21
-0.26794919
 31
0.0
  0
LINE
  5
5C
330
59
100
AcDbEntity
  8
0
 62
     0
100
AcDbLine
 10
0.0
 20
0.0
 30
0.0
 11
-1.0
 21
0.0
 31
0.0
  0
ENDBLK
  5
5E
330
59
100
AcDbEntity
  8
0
100
AcDbBlockEnd
  0
BLOCK
  5
66
330
64
100
AcDbEntity
  8
0
100
AcDbBlockBegin
  2
GENAXEH
 70
     0
 10
0.0
 20
0.0
 30
0.0
  3
GENAXEH
  1

  0
LINE
  5
65
330
64
100
AcDbEntity
  8
0
100
AcDbLine
 10
-1.0
 20
0.0
 30
0.0
 11
1.0
 21
0.0
 31
0.0
  0
ENDBLK
  5
67
330
64
100
AcDbEntity
  8
0
100
AcDbBlockEnd
  0
BLOCK
  5
1568
330
155E
100
AcDbEntity
  8
0
100
AcDbBlockBegin
  2
*D5
 70
     1
 10
0.0
 20
0.0
 30
0.0
  3
*D5
  1

  0
LINE
  5
29DE
330
155E
100
AcDbEntity
  8
AM_5
 62
     3
100
AcDbLine
 10
-0.0000000000000008
 20
-6.0
 30
0.0
 11
-0.0000000000000026
 21
-35.000004814698
 31
0.0
  0
LINE
  5
29DF
330
155E
100
AcDbEntity
  8
AM_5
 62
     3
100
AcDbLine
 10
-40.0
 20
-19.00000381469792
 30
0.0
 11
-40.0
 21
-35.000004814698
 31
0.0
  0
LINE
  5
29E0
330
155E
100
AcDbEntity
  8
AM_5
 62
     3
100
AcDbLine
 10
-2.500000000000002
 20
-34.00000481469801
 30
0.0
 11
-37.5
 21
-34.00000481469801
 31
0.0
  0
INSERT
  5
29E1
330
155E
100
AcDbEntity
  8
AM_5
 62
     3
100
AcDbBlockReference
  2
_OPEN30
 10
-0.0000000000000025
 20
-34.00000481469801
 30
0.0
 41
2.5
 42
2.5
 43
2.5
  0
INSERT
  5
29E2
330
155E
100
AcDbEntity
  8
AM_5
 62
     3
100
AcDbBlockReference
  2
_OPEN30
 10
-40.0
 20
-34.00000481469801
 30
0.0
 41
2.5
 42
2.5
 43
2.5
 50
180.0
  0
MTEXT
  5
29E3
330
155E
100
AcDbEntity
  8
AM_5
 62
     2
100
AcDbMText
 10
-20.0
 20
-30.60000481469801
 30
0.0
 40
3.799999999999999
 41
0.0
 71
     5
 72
     1
  1
40
1001
ACAD
1000
MTEXTBEGIN
1070
    73
1070
     1
1070
    44
1040
1.0
1070
    74
1070
     0
1000
MTEXTEND
  0
POINT
  5
29E4
330
155E
100
AcDbEntity
  8
DEFPOINTS
 62
     0
100
AcDbPoint
 10
-0.0000000000000008
 20
-6.0
 30
0.0
  0
POINT
  5
29E5
330
155E
100
AcDbEntity
  8
DEFPOINTS
 62
     0
100
AcDbPoint
 10
-40.0
 20
-19.00000381469792
 30
0.0
  0
POINT
  5
29E6
330
155E
100
AcDbEntity
  8
DEFPOINTS
 62
     0
100
AcDbPoint
 10
-40.0
 20
-34.00000481469801
 30
0.0
  0
ENDBLK
  5
1569
330
155E
100
AcDbEntity
  8
0
100
AcDbBlockEnd
  0
BLOCK
  5
15F3
330
15E9
100
AcDbEntity
  8
0
100
AcDbBlockBegin
  2
*D6
 70
     1
 10
0.0
 20
0.0
 30
0.0
  3
*D6
  1

  0
LINE
  5
29F1
330
15E9
100
AcDbEntity
  8
AM_5
 62
     3
100
AcDbLine
 10
-40.0
 20
-19.00000381469792
 30
0.0
 11
-40.0
 21
-35.00000481469818
 31
0.0
  0
LINE
  5
29F2
330
15E9
100
AcDbEntity
  8
AM_5
 62
     3
100
AcDbLine
 10
-124.999999999999
 20
-13.66150283813491
 30
0.0
 11
-124.999999999999
 21
-35.00000481469818
 31
0.0
  0
LINE
  5
29F3
330
15E9
100
AcDbEntity
  8
AM_5
 62
     3
100
AcDbLine
 10
-42.5
 20
-34.00000481469818
 30
0.0
 11
-122.499999999999
 21
-34.00000481469818
 31
0.0
  0
INSERT
  5
29F4
330
15E9
100
AcDbEntity
  8
AM_5
 62
     3
100
AcDbBlockReference
  2
_OPEN30
 10
-40.0
 20
-34.00000481469818
 30
0.0
 41
2.5
 42
2.5
 43
2.5
  0
INSERT
  5
29F5
330
15E9
100
AcDbEntity
  8
AM_5
 62
     3
100
AcDbBlockReference
  2
_OPEN30
 10
-124.999999999999
 20
-34.00000481469818
 30
0.0
 41
2.5
 42
2.5
 43
2.5
 50
180.0
  0
MTEXT
  5
29F6
330
15E9
100
AcDbEntity
  8
AM_5
 62
     2
100
AcDbMText
 10
-82.4999999999995
 20
-30.60000481469818
 30
0.0
 40
3.799999999999999
 41
0.0
 71
     5
 72
     1
  1
85
1001
ACAD
1000
MTEXTBEGIN
1070
    73
1070
     1
1070
    44
1040
1.0
1070
    74
1070
     0
1000
MTEXTEND
  0
POINT
  5
29F7
330
15E9
100
AcDbEntity
  8
DEFPOINTS
 62
     0
100
AcDbPoint
 10
-40.0
 20
-19.00000381469792
 30
0.0
  0
POINT
  5
29F8
330
15E9
100
AcDbEntity
  8
DEFPOINTS
 62
     0
100
AcDbPoint
 10
-124.999999999999
 20
-13.66150283813491
 30
0.0
  0
POINT
  5
29F9
330
15E9
100
AcDbEntity
  8
DEFPOINTS
 62
     0
100
AcDbPoint
 10
-124.999999999999
 20
-34.00000481469818
 30
0.0
  0
ENDBLK
  5
15F4
330
15E9
100
AcDbEntity
  8
0
100
AcDbBlockEnd
  0
BLOCK
  5
167E
330
1674
100
AcDbEntity
  8
0
100
AcDbBlockBegin
  2
*D7
 70
     1
 10
0.0
 20
0.0
 30
0.0
  3
*D7
  1

  0
LINE
  5
29E8
330
1674
100
AcDbEntity
  8
AM_5
 62
     3
100
AcDbLine
 10
-124.999999999999
 20
-13.66150283813491
 30
0.0
 11
-124.999999999999
 21
-45.00000481469792
 31
0.0
  0
LINE
  5
29E9
330
1674
100
AcDbEntity
  8
AM_5
 62
     3
100
AcDbLine
 10
0.0000000000000196
 20
-15.99999999999991
 30
0.0
 11
0.0000000000000178
 21
-45.00000481469792
 31
0.0
  0
LINE
  5
29EA
330
1674
100
AcDbEntity
  8
AM_5
 62
     3
100
AcDbLine
 10
-122.499999999999
 20
-44.00000481469793
 30
0.0
 11
-2.499999999999982
 21
-44.00000481469793
 31
0.0
  0
INSERT
  5
29EB
330
1674
100
AcDbEntity
  8
AM_5
 62
     3
100
AcDbBlockReference
  2
_OPEN30
 10
-124.999999999999
 20
-44.00000481469793
 30
0.0
 41
2.5
 42
2.5
 43
2.5
 50
180.0
  0
INSERT
  5
29EC
330
1674
100
AcDbEntity
  8
AM_5
 62
     3
100
AcDbBlockReference
  2
_OPEN30
 10
0.0000000000000179
 20
-44.00000481469793
 30
0.0
 41
2.5
 42
2.5
 43
2.5
  0
MTEXT
  5
29ED
330
1674
100
AcDbEntity
  8
AM_5
 62
     2
100
AcDbMText
 10
-62.4999999999995
 20
-40.60000481469793
 30
0.0
 40
3.799999999999999
 41
0.0
 71
     5
 72
     1
  1
125
1001
ACAD
1000
MTEXTBEGIN
1070
    73
1070
     1
1070
    44
1040
1.0
1070
    74
1070
     0
1000
MTEXTEND
  0
POINT
  5
29EE
330
1674
100
AcDbEntity
  8
DEFPOINTS
 62
     0
100
AcDbPoint
 10
-124.999999999999
 20
-13.66150283813491
 30
0.0
  0
POINT
  5
29EF
330
1674
100
AcDbEntity
  8
DEFPOINTS
 62
     0
100
AcDbPoint
 10
0.0000000000000196
 20
-15.99999999999991
 30
0.0
  0
POINT
  5
29F0
330
1674
100
AcDbEntity
  8
DEFPOINTS
 62
     0
100
AcDbPoint
 10
0.0000000000000179
 20
-44.00000481469793
 30
0.0
  0
ENDBLK
  5
167F
330
1674
100
AcDbEntity
  8
0
100
AcDbBlockEnd
  0
BLOCK
  5
18A0
330
1896
100
AcDbEntity
  8
0
100
AcDbBlockBegin
  2
*D8
 70
     1
 10
0.0
 20
0.0
 30
0.0
  3
*D8
  1

  0
LINE
  5
29A7
330
1896
100
AcDbEntity
  8
AM_5
 62
     3
100
AcDbLine
 10
0.0000000000000186
 20
-20.00000381469793
 30
0.0
 11
15.82220558984294
 21
-20.00000381469793
 31
0.0
  0
LINE
  5
29A8
330
1896
100
AcDbEntity
  8
AM_5
 62
     3
100
AcDbLine
 10
0.0000000000000249
 20
20.00000000000007
 30
0.0
 11
15.82220558984295
 21
20.00000000000006
 31
0.0
  0
LINE
  5
29A9
330
1896
100
AcDbEntity
  8
AM_5
 62
     3
100
AcDbLine
 10
14.82220558984294
 20
-17.50000381469793
 30
0.0
 11
14.82220558984295
 21
17.50000000000006
 31
0.0
  0
INSERT
  5
29AA
330
1896
100
AcDbEntity
  8
AM_5
 62
     3
100
AcDbBlockReference
  2
_OPEN30
 10
14.82220558984294
 20
-20.00000381469793
 30
0.0
 41
2.5
 42
2.5
 43
2.5
 50
270.0
  0
INSERT
  5
29AB
330
1896
100
AcDbEntity
  8
AM_5
 62
     3
100
AcDbBlockReference
  2
_OPEN30
 10
14.82220558984295
 20
20.00000000000006
 30
0.0
 41
2.5
 42
2.5
 43
2.5
 50
90.0
  0
MTEXT
  5
29AC
330
1896
100
AcDbEntity
  8
AM_5
 62
     2
100
AcDbMText
 10
11.42220558984295
 20
-0.0000019073489317
 30
0.0
 40
3.799999999999999
 41
0.0
 71
     5
 72
     1
  1
%%c40
 11
0.0000000000000001
 21
1.0
 31
0.0
1001
ACAD
1000
MTEXTBEGIN
1070
    73
1070
     1
1070
    44
1040
1.0
1070
    74
1070
     0
1000
MTEXTEND
  0
POINT
  5
29AD
330
1896
100
AcDbEntity
  8
DEFPOINTS
 62
     0
100
AcDbPoint
 10
0.0000000000000186
 20
-20.00000381469793
 30
0.0
  0
POINT
  5
29AE
330
1896
100
AcDbEntity
  8
DEFPOINTS
 62
     0
100
AcDbPoint
 10
0.0000000000000249
 20
20.00000000000007
 30
0.0
  0
POINT
  5
29AF
330
1896
100
AcDbEntity
  8
DEFPOINTS
 62
     0
100
AcDbPoint
 10
14.82220558984295
 20
20.00000000000006
 30
0.0
  0
ENDBLK
  5
18A1
330
1896
100
AcDbEntity
  8
0
100
AcDbBlockEnd
  0
BLOCK
  5
1E21
330
1E17
100
AcDbEntity
  8
0
100
AcDbBlockBegin
  2
*D9
 70
     1
 10
0.0
 20
0.0
 30
0.0
  3
*D9
  1

  0
LINE
  5
2995
330
1E17
100
AcDbEntity
  8
AM_5
 62
     3
100
AcDbLine
 10
-117.0069867683911
 20
16.00000000000008
 30
0.0
 11
-143.8687457493613
 21
16.00000000000008
 31
0.0
  0
LINE
  5
2996
330
1E17
100
AcDbEntity
  8
AM_5
 62
     3
100
AcDbLine
 10
-117.0069943977861
 20
-15.99999999999991
 30
0.0
 11
-143.8687457493613
 21
-15.99999999999991
 31
0.0
  0
LINE
  5
2997
330
1E17
100
AcDbEntity
  8
AM_5
 62
     3
100
AcDbLine
 10
-142.8687457493613
 20
13.50000000000008
 30
0.0
 11
-142.8687457493613
 21
-13.49999999999991
 31
0.0
  0
INSERT
  5
2998
330
1E17
100
AcDbEntity
  8
AM_5
 62
     3
100
AcDbBlockReference
  2
_OPEN30
 10
-142.8687457493613
 20
16.00000000000008
 30
0.0
 41
2.5
 42
2.5
 43
2.5
 50
90.0
  0
INSERT
  5
2999
330
1E17
100
AcDbEntity
  8
AM_5
 62
     3
100
AcDbBlockReference
  2
_OPEN30
 10
-142.8687457493613
 20
-15.99999999999991
 30
0.0
 41
2.5
 42
2.5
 43
2.5
 50
270.0
  0
MTEXT
  5
299A
330
1E17
100
AcDbEntity
  8
AM_5
 62
     2
100
AcDbMText
 10
-146.2687457493613
 20
0.000000000000066
 30
0.0
 40
3.799999999999999
 41
0.0
 71
     5
 72
     1
  1
%%c32
 11
0.0000000000000001
 21
1.0
 31
0.0
1001
ACAD
1000
MTEXTBEGIN
1070
    73
1070
     1
1070
    44
1040
1.0
1070
    74
1070
     0
1000
MTEXTEND
  0
POINT
  5
299B
330
1E17
100
AcDbEntity
  8
DEFPOINTS
 62
     0
100
AcDbPoint
 10
-117.0069867683911
 20
16.00000000000008
 30
0.0
  0
POINT
  5
299C
330
1E17
100
AcDbEntity
  8
DEFPOINTS
 62
     0
100
AcDbPoint
 10
-117.0069943977861
 20
-15.99999999999991
 30
0.0
  0
POINT
  5
299D
330
1E17
100
AcDbEntity
  8
DEFPOINTS
 62
     0
100
AcDbPoint
 10
-142.8687457493613
 20
-15.99999999999991
 30
0.0
  0
ENDBLK
  5
1E22
330
1E17
100
AcDbEntity
  8
0
100
AcDbBlockEnd
  0
BLOCK
  5
2936
330
2833
100
AcDbEntity
  8
0
100
AcDbBlockBegin
  2
A$C64E1636B
 70
     0
 10
0.0
 20
0.0
 30
0.0
  3
A$C64E1636B
  1

  0
LINE
  5
2834
330
2833
100
AcDbEntity
  8
AM_7
  6
AM_ISO08W050X2
100
AcDbLine
 10
-0.8222045898429968
 20
0.0
 30
0.0
 11
128.8687447493613
 21
0.0
 31
0.0
  0
LINE
  5
2835
330
2833
100
AcDbEntity
  8
AM_0
100
AcDbLine
 10
42.999996185303
 20
-16.0
 30
0.0
 11
121.9999999999989
 21
-16.0
 31
0.0
  0
LINE
  5
2836
330
2833
100
AcDbEntity
  8
AM_0
100
AcDbLine
 10
121.9999999999989
 20
16.00000381469799
 30
0.0
 11
42.999996185303
 21
16.00000381469799
 31
0.0
  0
SPLINE
  5
2837
330
2833
100
AcDbEntity
  8
AM_0
100
AcDbSpline
210
0.0
220
0.0
230
1.0
 70
     8
 71
     3
 72
    11
 73
     7
 74
     5
 42
0.0000000001
 43
0.0000000001
 44
0.0000000001
 40
0.0
 40
0.0
 40
0.0
 40
0.0
 40
0.6842799046879723
 40
1.368090439532122
 40
2.05152368433177
 40
2.734491738070806
 40
2.734491738070806
 40
2.734491738070806
 40
2.734491738070806
 10
9.925903320313004
 20
-8.054168701171001
 30
0.0
 10
9.988279400770709
 20
-7.834770024869074
 30
0.0
 10
10.11298877590366
 20
-7.396123164953559
 30
0.0
 10
10.2998473815981
 20
-6.738306556156966
 30
0.0
 10
10.48667338842242
 20
-6.080935278052379
 30
0.0
 10
10.61110129488179
 20
-5.642793775901272
 30
0.0
 10
10.673294067383
 20
-5.423797607421001
 30
0.0
 11
9.925903320313004
 21
-8.054168701171001
 31
0.0
 11
10.113006591797
 21
-7.395965576171001
 31
0.0
 11
10.299896240235
 21
-6.738189697264999
 31
0.0
 11
10.486694335938
 21
-6.080780029296001
 31
0.0
 11
10.673294067383
 21
-5.423797607421001
 31
0.0
  0
SPLINE
  5
2838
330
2833
100
AcDbEntity
  8
AM_0
100
AcDbSpline
210
0.0
220
0.0
230
1.0
 70
     8
 71
     3
 72
    11
 73
     7
 74
     5
 42
0.0000000001
 43
0.0000000001
 44
0.0000000001
 40
0.0
 40
0.0
 40
0.0
 40
0.0
 40
0.0733319050930275
 40
0.1533110251799634
 40
0.2455527172007939
 40
0.3500841494971939
 40
0.3500841494971939
 40
0.3500841494971939
 40
0.3500841494971939
 10
10.783203125
 20
-4.707855224608998
 30
0.0
 10
10.78375870564761
 20
-4.683018466993428
 30
0.0
 10
10.78492022788744
 20
-4.631093608811183
 30
0.0
 10
10.7422119480636
 20
-4.557232019088546
 30
0.0
 10
10.67140893726157
 20
-4.495986894950906
 30
0.0
 10
10.61033847160268
 20
-4.470964644280153
 30
0.0
 10
10.577896118164
 20
-4.457672119139999
 30
0.0
 11
10.783203125
 21
-4.707855224608998
 31
0.0
 11
10.778503417969
 21
-4.634674072264999
 31
0.0
 11
10.741302490235
 21
-4.563873291014999
 31
0.0
 11
10.67219543457101
 21
-4.502777099608998
 31
0.0
 11
10.577896118164
 21
-4.457672119139999
 31
0.0
  0
SPLINE
  5
2839
330
2833
100
AcDbEntity
  8
AM_0
100
AcDbSpline
210
0.0
220
0.0
230
1.0
 70
     8
 71
     3
 72
    11
 73
     7
 74
     5
 42
0.0000000001
 43
0.0000000001
 44
0.0000000001
 40
0.0
 40
0.0
 40
0.0
 40
0.0
 40
2.221905035442234
 40
4.44390022316389
 40
6.666080407335707
 40
8.888583233665478
 40
8.888583233665478
 40
8.888583233665478
 40
8.888583233665478
 10
1.539093017579006
 20
-4.602752685546001
 30
0.0
 10
2.279362656545743
 20
-4.57938155386519
 30
0.0
 10
3.759931970414272
 20
-4.532638342235861
 30
0.0
 10
5.981418070095908
 20
-4.482568214652861
 30
0.0
 10
8.203362121658795
 20
-4.44570826584375
 30
0.0
 10
9.684888162973582
 20
-4.434560088834159
 30
0.0
 10
10.425704956055
 20
-4.428985595702997
 30
0.0
 11
1.539093017579006
 21
-4.602752685546001
 31
0.0
 11
3.759994506836008
 21
-4.535980224608998
 31
0.0
 11
5.981399536133004
 21
-4.484771728514999
 31
0.0
 11
8.203292846680007
 21
-4.449066162108998
 31
0.0
 11
10.425704956055
 21
-4.428985595702997
 31
0.0
  0
SPLINE
  5
283A
330
2833
100
AcDbEntity
  8
AM_0
100
AcDbSpline
210
0.0
220
0.0
230
1.0
 70
     8
 71
     3
 72
    11
 73
     7
 74
     5
 42
0.0000000001
 43
0.0000000001
 44
0.0000000001
 40
0.0
 40
0.0
 40
0.0
 40
0.0
 40
0.2854262928430019
 40
0.5400194695663059
 40
0.7374385764228158
 40
0.8681311264456541
 40
0.8681311264456541
 40
0.8681311264456541
 40
0.8681311264456541
 10
1.539093017579006
 20
-4.602752685546001
 30
0.0
 10
1.443541490755878
 20
-4.601199776806858
 30
0.0
 10
1.262760370988268
 20
-4.598261711973222
 30
0.0
 10
1.022020402305455
 20
-4.635818362739232
 30
0.0
 10
0.825474513458899
 20
-4.685223387921199
 30
0.0
 10
0.7513334329795045
 20
-4.768191413532128
 30
0.0
 10
0.7218017578130116
 20
-4.801239013671001
 30
0.0
 11
1.539093017579006
 21
-4.602752685546001
 31
0.0
 11
1.253692626954006
 21
-4.606597900389999
 31
0.0
 11
1.00180053711
 21
-4.643585205077997
 31
0.0
 11
0.816192626954006
 21
-4.710845947264999
 31
0.0
 11
0.7218017578130116
 21
-4.801239013671001
 31
0.0
  0
SPLINE
  5
283B
330
2833
100
AcDbEntity
  8
AM_0
100
AcDbSpline
210
0.0
220
0.0
230
1.0
 70
     8
 71
     3
 72
    11
 73
     7
 74
     5
 42
0.0000000001
 43
0.0000000001
 44
0.0000000001
 40
0.0
 40
0.0
 40
0.0
 40
0.0
 40
0.3964222524045311
 40
0.7933597818553836
 40
1.190707289736389
 40
1.588501790096016
 40
1.588501790096016
 40
1.588501790096016
 40
1.588501790096016
 10
0.7218017578130116
 20
-4.801239013671001
 30
0.0
 10
0.6683780374987661
 20
-4.922098794798174
 30
0.0
 10
0.5614611557209956
 20
-5.163975452852924
 30
0.0
 10
0.4014114416806297
 20
-5.527177440941263
 30
0.0
 10
0.2414054405400524
 20
-5.890898405495885
 30
0.0
 10
0.1348199142717491
 20
-6.133570238985144
 30
0.0
 10
0.0814971923830115
 20
-6.254974365233998
 30
0.0
 11
0.7218017578130116
 21
-4.801239013671001
 31
0.0
 11
0.5615997314460089
 21
-5.163848876952997
 31
0.0
 11
0.4015045166020031
 21
-5.527069091796001
 31
0.0
 11
0.2415008544930117
 21
-5.890777587889999
 31
0.0
 11
0.0814971923830115
 21
-6.254974365233998
 31
0.0
  0
SPLINE
  5
283C
330
2833
100
AcDbEntity
  8
AM_0
100
AcDbSpline
210
0.0
220
0.0
230
1.0
 70
     8
 71
     3
 72
    11
 73
     7
 74
     5
 42
0.0000000001
 43
0.0000000001
 44
0.0000000001
 40
0.0
 40
0.0
 40
0.0
 40
0.0
 40
0.7562684929836502
 40
2.037899791125591
 40
3.291471955942521
 40
4.154478220349572
 40
4.154478220349572
 40
4.154478220349572
 40
4.154478220349572
 10
3.615493774414005
 20
-5.890777587889999
 30
0.0
 10
3.754361623916087
 20
-6.110599398550853
 30
0.0
 10
4.128565711644058
 20
-6.702948314559822
 30
0.0
 10
5.246635372310278
 20
-6.96197637631292
 30
0.0
 10
6.512834207645012
 20
-7.084484846909688
 30
0.0
 10
6.930718187993756
 20
-6.461762038275818
 30
0.0
 10
7.101104736329006
 20
-6.207855224608998
 30
0.0
 11
3.615493774414005
 21
-5.890777587889999
 31
0.0
 11
4.075897216797002
 21
-6.490753173828
 31
0.0
 11
5.277496337891008
 21
-6.936553955078
 31
0.0
 11
6.528305053711008
 21
-6.853363037108998
 31
0.0
 11
7.101104736329006
 21
-6.207855224608998
 31
0.0
  0
ELLIPSE
  5
283D
330
2833
100
AcDbEntity
  8
AM_0
100
AcDbEllipse
 10
5.252899169922002
 20
-7.207244873046001
 30
0.0
 11
-1.742813155538001
 21
0.1585081558740029
 31
0.0
210
0.0
220
0.0
230
1.0
 40
0.5014307786899001
 41
3.822399904500387
 42
5.497793181696835
  0
SPLINE
  5
283E
330
2833
100
AcDbEntity
  8
AM_0
100
AcDbSpline
210
0.0
220
0.0
230
1.0
 70
     8
 71
     3
 72
    11
 73
     7
 74
     5
 42
0.0000000001
 43
0.0000000001
 44
0.0000000001
 40
0.0
 40
0.0
 40
0.0
 40
0.0
 40
0.8559207724976841
 40
2.10518821652684
 40
3.383917491536204
 40
4.132633327822244
 40
4.132633327822244
 40
4.132633327822244
 40
4.132633327822244
 10
7.101104736329006
 20
-6.207855224608998
 30
0.0
 10
6.978356889801194
 20
-5.929768768983413
 30
0.0
 10
6.676451236360478
 20
-5.245798536726574
 30
0.0
 10
5.410735887128858
 20
-5.169873284308042
 30
0.0
 10
4.268684634034025
 20
-5.192718751460474
 30
0.0
 10
3.791655873783949
 20
-5.702514833906115
 30
0.0
 10
3.615493774414005
 20
-5.890777587889999
 30
0.0
 11
7.101104736329006
 21
-6.207855224608998
 31
0.0
 11
6.652603149414005
 21
-5.478851318358998
 31
0.0
 11
5.437500000000007
 21
-5.188690185546001
 31
0.0
 11
4.17529296875
 21
-5.393585205077997
 31
0.0
 11
3.615493774414005
 21
-5.890777587889999
 31
0.0
  0
SPLINE
  5
283F
330
2833
100
AcDbEntity
  8
AM_0
100
AcDbSpline
210
0.0
220
0.0
230
1.0
 70
     8
 71
     3
 72
    11
 73
     7
 74
     5
 42
0.0000000001
 43
0.0000000001
 44
0.0000000001
 40
0.0
 40
0.0
 40
0.0
 40
0.0
 40
0.0354988701476987
 40
0.0731437129550031
 40
0.1134368821887383
 40
0.1564497927937744
 40
0.1564497927937744
 40
0.1564497927937744
 40
0.1564497927937744
 10
9.304504394532003
 20
-9.953765869139999
 30
0.0
 10
9.296240416284184
 20
-9.962250381849669
 30
0.0
 10
9.279212886948469
 20
-9.979732311827078
 30
0.0
 10
9.249466199186006
 20
-10.00321546276831
 30
0.0
 10
9.215969808234103
 20
-10.02573703913698
 30
0.0
 10
9.191518720947811
 20
-10.03893264461803
 30
0.0
 10
9.178894042969005
 20
-10.04574584960899
 30
0.0
 11
9.304504394532003
 21
-9.953765869139999
 31
0.0
 11
9.279205322266008
 21
-9.978668212889999
 31
0.0
 11
9.249893188477003
 21
-10.00228881835899
 31
0.0
 11
9.216400146485007
 21
-10.024688720703
 31
0.0
 11
9.178894042969005
 21
-10.04574584960899
 31
0.0
  0
SPLINE
  5
2840
330
2833
100
AcDbEntity
  8
AM_0
100
AcDbSpline
210
0.0
220
0.0
230
1.0
 70
     8
 71
     3
 72
    11
 73
     7
 74
     5
 42
0.0000000001
 43
0.0000000001
 44
0.0000000001
 40
0.0
 40
0.0
 40
0.0
 40
0.0
 40
0.2814106962294958
 40
0.5416082633941654
 40
0.7678416469856116
 40
0.9607562674352138
 40
0.9607562674352138
 40
0.9607562674352138
 40
0.9607562674352138
 10
9.094497680664005
 20
-8.408660888671001
 30
0.0
 10
9.188776745933251
 20
-8.414454015338437
 30
0.0
 10
9.370227989610425
 20
-8.425603574740449
 30
0.0
 10
9.619938916665624
 20
-8.361362385150009
 30
0.0
 10
9.826778928462882
 20
-8.247176101834211
 30
0.0
 10
9.892873681220867
 20
-8.121104716107893
 30
0.0
 10
9.923294067383004
 20
-8.063079833983998
 30
0.0
 11
9.094497680664005
 21
-8.408660888671001
 31
0.0
 11
9.375900268555007
 21
-8.410797119139999
 31
0.0
 11
9.628097534180007
 21
-8.346771240233998
 31
0.0
 11
9.819000244141008
 21
-8.225372314453
 31
0.0
 11
9.923294067383004
 21
-8.063079833983998
 31
0.0
  0
SPLINE
  5
2841
330
2833
100
AcDbEntity
  8
AM_0
100
AcDbSpline
210
0.0
220
0.0
230
1.0
 70
     8
 71
     3
 72
    11
 73
     7
 74
     5
 42
0.0000000001
 43
0.0000000001
 44
0.0000000001
 40
0.0
 40
0.0
 40
0.0
 40
0.0
 40
0.0235208182761493
 40
0.0477492576686458
 40
0.0729383158024133
 40
0.0994128425015546
 40
0.0994128425015546
 40
0.0994128425015546
 40
0.0994128425015546
 10
9.354995727539005
 20
-9.868988037108998
 30
0.0
 10
9.352376465280508
 20
-9.876388346510436
 30
0.0
 10
9.347059140559306
 20
-9.891411602771691
 30
0.0
 10
9.335571636187809
 20
-9.912922999524845
 30
0.0
 10
9.321577760404506
 20
-9.934062114871036
 30
0.0
 10
9.310289142483716
 20
-9.947089900675456
 30
0.0
 10
9.304504394532003
 20
-9.953765869139999
 30
0.0
 11
9.354995727539005
 21
-9.868988037108998
 31
0.0
 11
9.346603393555007
 21
-9.890960693358998
 31
0.0
 11
9.335403442383004
 21
-9.912445068358998
 31
0.0
 11
9.321395874024005
 21
-9.933380126953
 31
0.0
 11
9.304504394532003
 21
-9.953765869139999
 31
0.0
  0
SPLINE
  5
2842
330
2833
100
AcDbEntity
  8
AM_0
100
AcDbSpline
210
0.0
220
0.0
230
1.0
 70
     8
 71
     3
 72
    11
 73
     7
 74
     5
 42
0.0000000001
 43
0.0000000001
 44
0.0000000001
 40
0.0
 40
0.0
 40
0.0
 40
0.0
 40
0.0479379088974188
 40
0.0937006428705333
 40
0.1374479077829005
 40
0.1793215058764973
 40
0.1793215058764973
 40
0.1793215058764973
 40
0.1793215058764973
 10
8.765304565430007
 20
-10.18618774414
 30
0.0
 10
8.781136189917877
 20
-10.18398056693826
 30
0.0
 10
8.812081081472758
 20
-10.17966636284616
 30
0.0
 10
8.856907171878606
 20
-10.17008396934893
 30
0.0
 10
8.899383130705636
 20
-10.15926081595474
 30
0.0
 10
8.926323492464401
 20
-10.14979933527939
 30
0.0
 10
8.939498901368004
 20
-10.14517211914
 30
0.0
 11
8.765304565430007
 21
-10.18618774414
 31
0.0
 11
8.812698364258004
 21
-10.178985595703
 31
0.0
 11
8.857498168946008
 21
-10.169647216796
 31
0.0
 11
8.899795532227003
 21
-10.158477783203
 31
0.0
 11
8.939498901368004
 21
-10.14517211914
 31
0.0
  0
SPLINE
  5
2843
330
2833
100
AcDbEntity
  8
AM_0
100
AcDbSpline
210
0.0
220
0.0
230
1.0
 70
     8
 71
     3
 72
    11
 73
     7
 74
     5
 42
0.0000000001
 43
0.0000000001
 44
0.0000000001
 40
0.0
 40
0.0
 40
0.0
 40
0.0
 40
0.0712856282097682
 40
0.1466267131326926
 40
0.22635931763573
 40
0.3111371991019923
 40
0.3111371991019923
 40
0.3111371991019923
 40
0.3111371991019923
 10
9.178894042969005
 20
-10.04574584960899
 30
0.0
 10
9.157408589068982
 20
-10.05593988282587
 30
0.0
 10
9.113215368575023
 20
-10.07690789028676
 30
0.0
 10
9.041523766043102
 20
-10.1008835308192
 30
0.0
 10
8.96411384061658
 20
-10.12118704532788
 30
0.0
 10
8.909988154603281
 20
-10.13016796660091
 30
0.0
 10
8.882095336914005
 20
-10.134796142578
 30
0.0
 11
9.178894042969005
 21
-10.04574584960899
 31
0.0
 11
9.113906860352003
 21
-10.07504272460899
 31
0.0
 11
9.042694091797002
 21
-10.099639892578
 31
0.0
 11
8.965499877930007
 21
-10.119598388671
 31
0.0
 11
8.882095336914005
 21
-10.134796142578
 31
0.0
  0
ELLIPSE
  5
2844
330
2833
100
AcDbEntity
  8
AM_0
100
AcDbEllipse
 10
1.020492553711008
 20
-9.410675048828
 30
0.0
 11
-0.201965331140002
 21
0.0183715787159997
 31
0.0
210
0.0
220
0.0
230
0.9999999999999998
 40
0.5013624183417999
 41
0.7735537882008117
 42
1.038804257753761
  0
SPLINE
  5
2845
330
2833
100
AcDbEntity
  8
AM_0
100
AcDbSpline
210
0.0
220
0.0
230
1.0
 70
     8
 71
     3
 72
    11
 73
     7
 74
     5
 42
0.0000000001
 43
0.0000000001
 44
0.0000000001
 40
0.0
 40
0.0
 40
0.0
 40
0.0
 40
0.0272674219002157
 40
0.0524914140636138
 40
0.0758199418594341
 40
0.0973131798672941
 40
0.0973131798672941
 40
0.0973131798672941
 40
0.0973131798672941
 10
0.7095031738290061
 20
-9.367950439453
 30
0.0
 10
0.701893622743707
 20
-9.362972528181966
 30
0.0
 10
0.6872447828820436
 20
-9.353389751979063
 30
0.0
 10
0.6673188445983051
 20
-9.337808178839495
 30
0.0
 10
0.6499085701830618
 20
-9.322184239043139
 30
0.0
 10
0.6400345431988545
 20
-9.310956507813342
 30
0.0
 10
0.6352996826180118
 20
-9.305572509764999
 30
0.0
 11
0.7095031738290061
 21
-9.367950439453
 31
0.0
 11
0.6869049072270031
 21
-9.352691650389999
 31
0.0
 11
0.6670074462890057
 21
-9.337188720703
 31
0.0
 11
0.6497955322270031
 21
-9.321441650389999
 31
0.0
 11
0.6352996826180118
 21
-9.305572509764999
 31
0.0
  0
SPLINE
  5
2846
330
2833
100
AcDbEntity
  8
AM_0
100
AcDbSpline
210
0.0
220
0.0
230
1.0
 70
     8
 71
     3
 72
    11
 73
     7
 74
     5
 42
0.0000000001
 43
0.0000000001
 44
0.0000000001
 40
0.0
 40
0.0
 40
0.0
 40
0.0
 40
0.026379352871287
 40
0.0518904100013511
 40
0.0763547746840768
 40
0.0999435202365873
 40
0.0999435202365873
 40
0.0999435202365873
 40
0.0999435202365873
 10
0.7985992431640057
 20
-9.412994384764999
 30
0.0
 10
0.7905021098203495
 20
-9.40956234672377
 30
0.0
 10
0.7745743662138997
 20
-9.402811238689828
 30
0.0
 10
0.7516551970091087
 20
-9.391727493003678
 30
0.0
 10
0.7299283936999326
 20
-9.380333797767864
 30
0.0
 10
0.7162283669314406
 20
-9.372027775043529
 30
0.0
 10
0.7095031738290061
 20
-9.367950439453
 30
0.0
 11
0.7985992431640057
 21
-9.412994384764999
 31
0.0
 11
0.7743988037110086
 21
-9.402496337889999
 31
0.0
 11
0.7514038085940058
 21
-9.391448974608998
 31
0.0
 11
0.7297973632820032
 21
-9.379974365233998
 31
0.0
 11
0.7095031738290061
 21
-9.367950439453
 31
0.0
  0
SPLINE
  5
2847
330
2833
100
AcDbEntity
  8
AM_0
100
AcDbSpline
210
0.0
220
0.0
230
1.0
 70
     8
 71
     3
 72
    11
 73
     7
 74
     5
 42
0.0000000001
 43
0.0000000001
 44
0.0000000001
 40
0.0
 40
0.0
 40
0.0
 40
0.0
 40
0.0618894546924476
 40
0.1243530629128444
 40
0.1875607433295878
 40
0.2515800343613526
 40
0.2515800343613526
 40
0.2515800343613526
 40
0.2515800343613526
 10
8.765304565430007
 20
-10.18618774414
 30
0.0
 10
8.744790350308976
 20
-10.1884192891959
 30
0.0
 10
8.703571608017096
 20
-10.19290308153354
 30
0.0
 10
8.641054091862214
 20
-10.19532314565639
 30
0.0
 10
8.577791723113669
 20
-10.19459454360401
 30
0.0
 10
8.535491144545462
 20
-10.19143812871434
 30
0.0
 10
8.514205932618004
 20
-10.189849853515
 30
0.0
 11
8.765304565430007
 21
-10.18618774414
 31
0.0
 11
8.703704833985007
 21
-10.192169189453
 31
0.0
 11
8.641296386719005
 21
-10.194793701171
 31
0.0
 11
8.578094482422002
 21
-10.19393920898399
 31
0.0
 11
8.514205932618004
 21
-10.189849853515
 31
0.0
  0
SPLINE
  5
2848
330
2833
100
AcDbEntity
  8
AM_0
100
AcDbSpline
210
0.0
220
0.0
230
1.0
 70
     8
 71
     3
 72
    11
 73
     7
 74
     5
 42
0.0000000001
 43
0.0000000001
 44
0.0000000001
 40
0.0
 40
0.0
 40
0.0
 40
0.0
 40
0.0826567688041057
 40
0.1660400757374151
 40
0.250243736876767
 40
0.3357061330275477
 40
0.3357061330275477
 40
0.3357061330275477
 40
0.3357061330275477
 10
8.882095336914005
 20
-10.134796142578
 30
0.0
 10
8.854761500000305
 20
-10.13830841113227
 30
0.0
 10
8.79985356666334
 20
-10.14536382044961
 30
0.0
 10
8.716548197764282
 20
-10.15056481605211
 30
0.0
 10
8.63215992024064
 20
-10.15170129397146
 30
0.0
 10
8.575656660416704
 20
-10.14902342729355
 30
0.0
 10
8.547195434571008
 20
-10.147674560546
 30
0.0
 11
8.882095336914005
 21
-10.134796142578
 31
0.0
 11
8.800003051758004
 21
-10.14443969726499
 31
0.0
 11
8.716796875000007
 21
-10.149871826171
 31
0.0
 11
8.632598876954006
 21
-10.150848388671
 31
0.0
 11
8.547195434571008
 21
-10.147674560546
 31
0.0
  0
SPLINE
  5
2849
330
2833
100
AcDbEntity
  8
AM_0
100
AcDbSpline
210
0.0
220
0.0
230
1.0
 70
     8
 71
     3
 72
    11
 73
     7
 74
     5
 42
0.0000000001
 43
0.0000000001
 44
0.0000000001
 40
0.0
 40
0.0
 40
0.0
 40
0.0
 40
0.0153839547204281
 40
0.0295516397078208
 40
0.0427051141601785
 40
0.0550244012456946
 40
0.0550244012456946
 40
0.0550244012456946
 40
0.0550244012456946
 10
0.6352996826180118
 20
-9.305572509764999
 30
0.0
 10
0.6321368452492779
 20
-9.301528631232176
 30
0.0
 10
0.6260612273685819
 20
-9.293760586955141
 30
0.0
 10
0.6188142175570152
 20
-9.281482001549077
 30
0.0
 10
0.6129658143769998
 20
-9.269582868964267
 30
0.0
 10
0.6105660875920587
 20
-9.261423088005534
 30
0.0
 10
0.6094055175790061
 20
-9.257476806639999
 30
0.0
 11
0.6352996826180118
 21
-9.305572509764999
 31
0.0
 11
0.6260986328130116
 21
-9.293243408203
 31
0.0
 11
0.6188049316410087
 21
-9.281097412108998
 31
0.0
 11
0.6132049560550002
 21
-9.269195556639999
 31
0.0
 11
0.6094055175790061
 21
-9.257476806639999
 31
0.0
  0
SPLINE
  5
284A
330
2833
100
AcDbEntity
  8
AM_0
100
AcDbSpline
210
0.0
220
0.0
230
1.0
 70
     8
 71
     3
 72
    11
 73
     7
 74
     5
 42
0.0000000001
 43
0.0000000001
 44
0.0000000001
 40
0.0
 40
0.0
 40
0.0
 40
0.0
 40
0.042080279478821
 40
0.0992024545920874
 40
0.1730243451875404
 40
0.260332533476866
 40
0.260332533476866
 40
0.260332533476866
 40
0.260332533476866
 10
0.0005035400390057
 20
-6.682952880858998
 30
0.0
 10
0.0064756990158752
 20
-6.695859291515487
 30
0.0
 10
0.0205548077351463
 20
-6.726285601249045
 30
0.0
 10
0.0691942180904188
 20
-6.760790748246216
 30
0.0
 10
0.1340154995765461
 20
-6.79323260371833
 30
0.0
 10
0.1856269249101796
 20
-6.808757200599199
 30
0.0
 10
0.2135925292970029
 20
-6.817169189453
 30
0.0
 11
0.0005035400390057
 21
-6.682952880858998
 31
0.0
 11
0.0209045410160087
 21
-6.719757080078
 31
0.0
 11
0.0648956298830115
 21
-6.756195068358998
 31
0.0
 11
0.1307983398440058
 21
-6.789459228514999
 31
0.0
 11
0.2135925292970029
 21
-6.817169189453
 31
0.0
  0
ELLIPSE
  5
284B
330
2833
100
AcDbEntity
  8
AM_0
100
AcDbEllipse
 10
1.034606933594005
 20
-9.400787353514999
 30
0.0
 11
-0.2276611340609946
 21
0.0206909122479999
 31
0.0
210
0.0
220
0.0
230
1.0
 40
0.5013415966535
 41
1.038909974083082
 42
1.57078421650039
  0
SPLINE
  5
284C
330
2833
100
AcDbEntity
  8
AM_0
100
AcDbSpline
210
0.0
220
0.0
230
1.0
 70
     8
 71
     3
 72
    11
 73
     7
 74
     5
 42
0.0000000001
 43
0.0000000001
 44
0.0000000001
 40
0.0
 40
0.0
 40
0.0
 40
0.0
 40
0.0492237301420587
 40
0.0978967535519123
 40
0.145878548928512
 40
0.1934908440745836
 40
0.1934908440745836
 40
0.1934908440745836
 40
0.1934908440745836
 10
0.9844970703130115
 20
-9.465362548828
 30
0.0
 10
0.9683607783274592
 20
-9.462367079631409
 30
0.0
 10
0.9362687244503485
 20
-9.456409654038822
 30
0.0
 10
0.8891241863997978
 20
-9.444378589585738
 30
0.0
 10
0.8431288701116914
 20
-9.430229810064343
 30
0.0
 10
0.8134041537905606
 20
-9.4187247029522
 30
0.0
 10
0.7985992431640057
 20
-9.412994384764999
 30
0.0
 11
0.9844970703130115
 21
-9.465362548828
 31
0.0
 11
0.9362030029300001
 21
-9.455841064453
 31
0.0
 11
0.8890075683600002
 21
-9.443939208983998
 31
0.0
 11
0.8432006835940057
 21
-9.429656982421001
 31
0.0
 11
0.7985992431640057
 21
-9.412994384764999
 31
0.0
  0
SPLINE
  5
284D
330
2833
100
AcDbEntity
  8
AM_0
100
AcDbSpline
210
0.0
220
0.0
230
1.0
 70
     8
 71
     3
 72
    11
 73
     7
 74
     5
 42
0.0000000001
 43
0.0000000001
 44
0.0000000001
 40
0.0
 40
0.0
 40
0.0
 40
0.0
 40
0.0093209221928403
 40
0.0187633513389884
 40
0.0280935612254266
 40
0.0374752350676478
 40
0.0374752350676478
 40
0.0374752350676478
 40
0.0374752350676478
 10
8.514205932618004
 20
-10.189849853515
 30
0.0
 10
8.514510054222116
 20
-10.18675780931914
 30
0.0
 10
8.515122261940369
 20
-10.1805334132345
 30
0.0
 10
8.515965502000874
 20
-10.17120654337966
 30
0.0
 10
8.517033452124056
 20
-10.16188208000394
 30
0.0
 10
8.517609662165071
 20
-10.15567130260558
 30
0.0
 10
8.517898559571008
 20
-10.152557373046
 30
0.0
 11
8.514205932618004
 21
-10.189849853515
 31
0.0
 11
8.515106201172002
 21
-10.180572509765
 31
0.0
 11
8.516006469727003
 21
-10.171173095703
 31
0.0
 11
8.516998291016008
 21
-10.161895751953
 31
0.0
 11
8.517898559571008
 21
-10.152557373046
 31
0.0
  0
SPLINE
  5
284E
330
2833
100
AcDbEntity
  8
AM_0
100
AcDbSpline
210
0.0
220
0.0
230
1.0
 70
     8
 71
     3
 72
    11
 73
     7
 74
     5
 42
0.0000000001
 43
0.0000000001
 44
0.0000000001
 40
0.0
 40
0.0
 40
0.0
 40
0.0
 40
2.218216718635946
 40
4.435545238239503
 40
6.651928898953879
 40
8.867684403732992
 40
8.867684403732992
 40
8.867684403732992
 40
8.867684403732992
 10
0.3657989501960088
 20
-6.845794677733998
 30
0.0
 10
1.0948529468396
 20
-6.969099889846832
 30
0.0
 10
2.552669018670715
 20
-7.215660941272645
 30
0.0
 10
4.736205604585952
 20
-7.601273395948688
 30
0.0
 10
6.917077147200783
 20
-7.997115186708502
 30
0.0
 10
8.368759417268451
 20
-8.271491950259678
 30
0.0
 10
9.094497680664005
 20
-8.408660888671001
 30
0.0
 11
0.3657989501960088
 21
-6.845794677733998
 31
0.0
 11
2.552505493164005
 21
-7.218353271483998
 31
0.0
 11
4.736206054688011
 21
-7.603057861328
 31
0.0
 11
6.916793823243004
 21
-7.999786376953
 31
0.0
 11
9.094497680664005
 21
-8.408660888671001
 31
0.0
  0
ELLIPSE
  5
284F
330
2833
100
AcDbEntity
  8
AM_0
100
AcDbEllipse
 10
124.74363708496
 20
-0.0067596435539983
 30
0.0
 11
-744.9263043407658
 21
17.80157918501999
 31
0.0
210
0.0
220
0.0
230
0.9999999999999998
 40
0.0106480256465
 41
4.844931457588626
 42
4.853361104133718
  0
ELLIPSE
  5
2850
330
2833
100
AcDbEntity
  8
AM_0
100
AcDbEllipse
 10
-3.876205444335994
 20
0.000030517578999
 30
0.0
 11
-30.61332495970999
 21
19.462436126939
 31
0.0
210
0.0
220
0.0
230
1.0
 40
0.0399027064638
 41
2.538194923260199
 42
3.051870452316629
  0
ELLIPSE
  5
2851
330
2833
100
AcDbEntity
  8
AM_0
100
AcDbEllipse
 10
4.766998291016008
 20
-16.434295654296
 30
0.0
 11
-0.8793792525139991
 21
0.9200440024410026
 31
0.0
210
0.0
220
0.0
230
1.0
 40
0.9654358329074
 41
2.511650723418219
 42
5.300286077696322
  0
ELLIPSE
  5
2852
330
2833
100
AcDbEntity
  8
AM_0
100
AcDbEllipse
 10
190.360458374014
 20
-0.0513610839839984
 30
0.0
 11
-342.4309545706199
 21
0.1002263217969954
 31
0.0
210
0.0
220
0.0
230
1.0
 40
0.0653894943827
 41
5.270760142261426
 42
5.297895958540271
  0
ELLIPSE
  5
2853
330
2833
100
AcDbEntity
  8
AM_0
100
AcDbEllipse
 10
11.991897583008
 20
-0.1101989746089984
 30
0.0
 11
-2.540679923002997
 21
19.135163717322
 31
0.0
210
0.0
220
0.0
230
1.0
 40
0.0777182373155
 41
6.280824272283111
 42
6.318142943555923
  0
ELLIPSE
  5
2854
330
2833
100
AcDbEntity
  8
AM_0
100
AcDbEllipse
 10
12.083389282227
 20
-0.0156097412099996
 30
0.0
 11
-2.747649100811997
 21
19.02873408800599
 31
0.0
210
0.0
220
0.0
230
1.0
 40
0.2748712178218
 41
6.255562889931327
 42
6.260283132793935
  0
ELLIPSE
  5
2855
330
2833
100
AcDbEntity
  8
AM_0
100
AcDbEllipse
 10
4.766998291016008
 20
16.43432998657299
 30
0.0
 11
0.8793639994249959
 21
0.920043904859
 31
0.0
210
0.0
220
0.0
230
1.0
 40
0.9654108168003999
 41
0.7893310059187446
 42
3.930923866211456
  0
ELLIPSE
  5
2856
330
2833
100
AcDbEntity
  8
AM_0
100
AcDbEllipse
 10
4.766998291016008
 20
16.43432998657299
 30
0.0
 11
0.8793639994249959
 21
0.920043904859
 31
0.0
210
0.0
220
0.0
230
1.0
 40
0.9654108168003999
 41
3.930923691305924
 42
7.072516432348483
  0
ELLIPSE
  5
2857
330
2833
100
AcDbEntity
  8
AM_0
100
AcDbEllipse
 10
124.706405639648
 20
0.0057067871100003
 30
0.0
 11
744.786713965276
 21
2.010925251397999
 31
0.0
210
0.0
220
0.0
230
1.0
 40
0.0260460014562
 41
4.571750747165523
 42
4.580131597980363
  0
SPLINE
  5
2858
330
2833
100
AcDbEntity
  8
AM_0
100
AcDbSpline
210
0.0
220
0.0
230
1.0
 70
     8
 71
     3
 72
    11
 73
     7
 74
     5
 42
0.0000000001
 43
0.0000000001
 44
0.0000000001
 40
0.0
 40
0.0
 40
0.0
 40
0.0
 40
2.509219634933824
 40
4.94876189406889
 40
7.244075579093157
 40
9.34157605966801
 40
9.34157605966801
 40
9.34157605966801
 40
9.34157605966801
 10
11.079895019532
 20
18.28808975219799
 30
0.0
 10
11.91644162715973
 20
18.30613065106379
 30
0.0
 10
13.56630516114644
 20
18.34171147930172
 30
0.0
 10
15.97829493001326
 20
18.22846298870127
 30
0.0
 10
18.2504007083786
 20
17.96733254834031
 30
0.0
 10
19.65196997260131
 20
17.53367004170355
 30
0.0
 10
20.32119750976601
 20
17.326602935792
 30
0.0
 11
11.079895019532
 21
18.28808975219799
 31
0.0
 11
13.588989257813
 21
18.313175201417
 31
0.0
 11
16.025802612305
 21
18.197818756104
 31
0.0
 11
18.300003051758
 21
17.88721084594799
 31
0.0
 11
20.32119750976601
 21
17.326602935792
 31
0.0
  0
ELLIPSE
  5
2859
330
2833
100
AcDbEntity
  8
AM_0
100
AcDbEllipse
 10
-3.876213073729999
 20
0.0000152587900004
 30
0.0
 11
30.021338118796
 21
11.554429182558
 31
0.0
210
0.0
220
0.0
230
1.0
 40
0.5232074182910001
 41
6.199993512488405
 42
6.713517171056055
  0
ELLIPSE
  5
285A
330
2833
100
AcDbEntity
  8
AM_0
100
AcDbEllipse
 10
11.991889953614
 20
0.1123046875
 30
0.0
 11
2.587303364570999
 21
19.13525544571999
 31
0.0
210
0.0
220
0.0
230
1.0
 40
0.0733791510119
 41
2.112334424170239
 42
2.148917061092775
  0
SPLINE
  5
285B
330
2833
100
AcDbEntity
  8
AM_0
100
AcDbSpline
210
0.0
220
0.0
230
1.0
 70
     8
 71
     3
 72
    11
 73
     7
 74
     5
 42
0.0000000001
 43
0.0000000001
 44
0.0000000001
 40
0.0
 40
0.0
 40
0.0
 40
0.0
 40
2.521415510056963
 40
5.01916167587813
 40
7.422170075365428
 40
9.648230142759237
 40
9.648230142759237
 40
9.648230142759237
 40
9.648230142759237
 10
11.079895019532
 20
-13.90487670898399
 30
0.0
 10
11.91949202260664
 20
-13.9653515909409
 30
0.0
 10
13.59080445969051
 20
-14.08573365754621
 30
0.0
 10
16.00546605629592
 20
-14.65949971736037
 30
0.0
 10
18.26534285130743
 20
-15.40836732179269
 30
0.0
 10
19.65360157240635
 20
-16.08552623390618
 30
0.0
 10
20.32119750976601
 20
-16.411163330078
 30
0.0
 11
11.079895019532
 21
-13.90487670898399
 31
0.0
 11
13.588989257813
 21
-14.153839111328
 31
0.0
 11
16.025802612305
 21
-14.702178955078
 31
0.0
 11
18.300003051758
 21
-15.478363037109
 31
0.0
 11
20.32119750976601
 21
-16.411163330078
 31
0.0
  0
ELLIPSE
  5
285C
330
2833
100
AcDbEntity
  8
AM_0
100
AcDbEllipse
 10
9.599395751954006
 20
-8.147674560546001
 30
0.0
 11
-1.99894714722
 21
0.0647581140810019
 31
0.0
210
0.0
220
0.0
230
1.0
 40
0.5875896552585001
 41
4.212694049708572
 42
4.414519998414413
  0
ELLIPSE
  5
285D
330
2833
100
AcDbEntity
  8
AM_0
100
AcDbEllipse
 10
9.664398193360007
 20
-6.138641357421001
 30
0.0
 11
-1.99894714722
 21
0.0647581140810019
 31
0.0
210
0.0
220
0.0
230
1.0
 40
0.5875896552585001
 41
3.14159250480772
 42
4.174921999881042
  0
ELLIPSE
  5
285E
330
2833
100
AcDbEntity
  8
AM_0
100
AcDbEllipse
 10
9.664398193360007
 20
-6.138641357421001
 30
0.0
 11
-1.99894714722
 21
0.0647581140810019
 31
0.0
210
0.0
220
0.0
230
1.0
 40
0.5875896552585001
 41
1.83216370008887
 42
3.141592802371865
  0
ELLIPSE
  5
285F
330
2833
100
AcDbEntity
  8
AM_0
100
AcDbEllipse
 10
124.604537963867
 20
-0.0065765380849996
 30
0.0
 11
-744.4042735086433
 21
15.778299922346
 31
0.0
210
0.0
220
0.0
230
1.0
 40
0.0153794585201
 41
1.430555117150843
 42
1.439011667629888
  0
ELLIPSE
  5
2860
330
2833
100
AcDbEntity
  8
AM_0
100
AcDbEllipse
 10
9.906997680664005
 20
-16.637176513671
 30
0.0
 11
-19.98950143223
 21
0.6477681754030016
 31
0.0
210
0.0
220
0.0
230
1.0
 40
0.5875855696446
 41
4.164249182375865
 42
4.687720739924545
  0
ELLIPSE
  5
2861
330
2833
100
AcDbEntity
  8
AM_0
100
AcDbEllipse
 10
4.766998291016008
 20
3.000671386718998
 30
0.0
 11
-1.248764098540007
 21
0.0598754574279994
 31
0.0
210
0.0
220
0.0
230
1.0
 40
0.8871801443767001
 41
3.103882473530165
 42
6.245483285316127
  0
ELLIPSE
  5
2862
330
2833
100
AcDbEntity
  8
AM_0
100
AcDbEllipse
 10
4.766998291016008
 20
3.000671386718998
 30
0.0
 11
-1.248764098540007
 21
0.0598754574279994
 31
0.0
210
0.0
220
0.0
230
1.0
 40
0.8871801443767001
 41
6.24557932606238
 42
9.387067780709752
  0
ELLIPSE
  5
2863
330
2833
100
AcDbEntity
  8
AM_0
100
AcDbEllipse
 10
-3.876205444335994
 20
0.0000152587900004
 30
0.0
 11
-29.96211315946
 21
14.255663405466
 31
0.0
210
0.0
220
0.0
230
1.0
 40
0.4440685000566
 41
3.465327042367169
 42
3.978905553336013
  0
SPLINE
  5
2864
330
2833
100
AcDbEntity
  8
AM_0
100
AcDbSpline
210
0.0
220
0.0
230
1.0
 70
     8
 71
     3
 72
    11
 73
     7
 74
     5
 42
0.0000000001
 43
0.0000000001
 44
0.0000000001
 40
0.0
 40
0.0
 40
0.0
 40
0.0
 40
2.519062283214818
 40
5.044641838237103
 40
7.56516522465956
 40
10.0782301060829
 40
10.0782301060829
 40
10.0782301060829
 40
10.0782301060829
 10
11.079895019532
 20
4.383178710937997
 30
0.0
 10
11.92098537897337
 20
4.339976742983107
 30
0.0
 10
13.60534215143115
 20
4.253461035732994
 30
0.0
 10
16.0460161390649
 20
3.556762394946114
 30
0.0
 10
18.35412160456209
 20
2.497676482201355
 30
0.0
 10
19.66615357456928
 20
1.442328101597678
 30
0.0
 10
20.32119750976601
 20
0.9154357910160015
 30
0.0
 11
11.079895019532
 21
4.383178710937997
 31
0.0
 11
13.588989257813
 21
4.159301757812997
 31
0.0
 11
16.025802612305
 21
3.49560546875
 31
0.0
 11
18.300003051758
 21
2.408843994141001
 31
0.0
 11
20.32119750976601
 21
0.9154357910160015
 31
0.0
  0
ELLIPSE
  5
2865
330
2833
100
AcDbEntity
  8
AM_0
100
AcDbEllipse
 10
12.096603393555
 20
0.146484375
 30
0.0
 11
3.577926384484996
 21
19.11938759822199
 31
0.0
210
0.0
220
0.0
230
1.0
 40
0.24706868727
 41
1.051905872053689
 42
1.110312078940462
  0
ELLIPSE
  5
2866
330
2833
100
AcDbEntity
  8
AM_0
100
AcDbEllipse
 10
11.991897583008
 20
0.002090454102003
 30
0.0
 11
0.0496833431170032
 21
19.13591229405399
 31
0.0
210
0.0
220
0.0
230
1.0
 40
0.1537942489023
 41
1.055750074297279
 42
1.092242627676181
  0
ELLIPSE
  5
2867
330
2833
100
AcDbEntity
  8
AM_0
100
AcDbEllipse
 10
190.359588623044
 20
-12.97332572936999
 30
0.0
 11
-342.4291645019
 21
23.387409902742
 31
0.0
210
0.0
220
0.0
230
1.0
 40
0.0323493569405
 41
5.272863457016796
 42
5.300264164813713
  0
SPLINE
  5
2868
330
2833
100
AcDbEntity
  8
AM_0
100
AcDbSpline
210
0.0
220
0.0
230
1.0
 70
     8
 71
     3
 72
    11
 73
     7
 74
     5
 42
0.0000000001
 43
0.0000000001
 44
0.0000000001
 40
0.0
 40
0.0
 40
0.0
 40
0.0
 40
0.0260592242503844
 40
0.0532436595009839
 40
0.0817933105369337
 40
0.1120580752804277
 40
0.1120580752804277
 40
0.1120580752804277
 40
0.1120580752804277
 10
0.91259765625
 20
7.265014648437997
 30
0.0
 10
0.9152827870768176
 20
7.256744343685067
 30
0.0
 10
0.9207689899693139
 20
7.239846630767621
 30
0.0
 10
0.9327277186332377
 20
7.215258996599832
 30
0.0
 10
0.9477594286634436
 20
7.190781893160041
 30
0.0
 10
0.9599359691757284
 20
7.175397157294037
 30
0.0
 10
0.966201782227003
 20
7.16748046875
 30
0.0
 11
0.91259765625
 21
7.265014648437997
 31
0.0
 11
0.9212036132820031
 21
7.240417480468998
 31
0.0
 11
0.9329071044930117
 21
7.215881347657003
 31
0.0
 11
0.9479064941410086
 21
7.191589355468998
 31
0.0
 11
0.966201782227003
 21
7.16748046875
 31
0.0
  0
SPLINE
  5
2869
330
2833
100
AcDbEntity
  8
AM_0
100
AcDbSpline
210
0.0
220
0.0
230
1.0
 70
     8
 71
     3
 72
    11
 73
     7
 74
     5
 42
0.0000000001
 43
0.0000000001
 44
0.0000000001
 40
0.0
 40
0.0
 40
0.0
 40
0.0
 40
0.0721688782837515
 40
0.1482775660206998
 40
0.2357458549147092
 40
0.336304122794024
 40
0.336304122794024
 40
0.336304122794024
 40
0.336304122794024
 10
0.0
 20
12.561405181885
 30
0.0
 10
0.0002932152649445
 20
12.58589350526929
 30
0.0
 10
0.0008956528646414
 20
12.63620700706814
 30
0.0
 10
0.0463351304402183
 20
12.70487371909826
 30
0.0
 10
0.1199953370610099
 20
12.75614294143533
 30
0.0
 10
0.1809783003923901
 20
12.77234478476403
 30
0.0
 10
0.2135925292970029
 20
12.78100967407299
 30
0.0
 11
0.0
 21
12.561405181885
 31
0.0
 11
0.0075073242190058
 21
12.633182525635
 31
0.0
 11
0.0471954345710088
 21
12.698123931885
 31
0.0
 11
0.1181945800790061
 21
12.749210357667
 31
0.0
 11
0.2135925292970029
 21
12.78100967407299
 31
0.0
  0
SPLINE
  5
286A
330
2833
100
AcDbEntity
  8
AM_0
100
AcDbSpline
210
0.0
220
0.0
230
1.0
 70
     8
 71
     3
 72
    11
 73
     7
 74
     5
 42
0.0000000001
 43
0.0000000001
 44
0.0000000001
 40
0.0
 40
0.0
 40
0.0
 40
0.0
 40
2.210201488859
 40
4.419721117285554
 40
6.628554689020731
 40
8.837048510017066
 40
8.837048510017066
 40
8.837048510017066
 40
8.837048510017066
 10
0.3657989501960088
 20
12.78870010376
 30
0.0
 10
1.094866548797736
 20
12.68267023768666
 30
0.0
 10
2.552776824268685
 20
12.47064321639042
 30
0.0
 10
4.736327333270448
 20
12.13273197855907
 30
0.0
 10
6.917232512161593
 20
11.78171309671107
 30
0.0
 10
8.368779838874736
 20
11.53449301845744
 30
0.0
 10
9.094497680664005
 20
11.41089248657299
 30
0.0
 11
0.3657989501960088
 21
12.78870010376
 31
0.0
 11
2.552505493164005
 21
12.46728897094799
 31
0.0
 11
4.736206054688011
 21
12.13049697876
 31
0.0
 11
6.916793823243004
 21
11.77838516235399
 31
0.0
 11
9.094497680664005
 21
11.41089248657299
 31
0.0
  0
SPLINE
  5
286B
330
2833
100
AcDbEntity
  8
AM_0
100
AcDbSpline
210
0.0
220
0.0
230
1.0
 70
     8
 71
     3
 72
    11
 73
     7
 74
     5
 42
0.0000000001
 43
0.0000000001
 44
0.0000000001
 40
0.0
 40
0.0
 40
0.0
 40
0.0
 40
0.2879559825907215
 40
0.5520729824335337
 40
0.7637675163649399
 40
0.9073995150059236
 40
0.9073995150059236
 40
0.9073995150059236
 40
0.9073995150059236
 10
9.094497680664005
 20
11.41089248657299
 30
0.0
 10
9.190094548553609
 20
11.39930394792171
 30
0.0
 10
9.373374116119082
 20
11.37708624979402
 30
0.0
 10
9.61683732990361
 20
11.30711775179264
 30
0.0
 10
9.81537863800279
 20
11.23126872487399
 30
0.0
 10
9.894087287463998
 20
11.14090232371311
 30
0.0
 10
9.925903320313004
 20
11.104373931885
 30
0.0
 11
9.094497680664005
 21
11.41089248657299
 31
0.0
 11
9.379302978516008
 21
11.36841201782299
 31
0.0
 11
9.633804321289005
 21
11.297794342042
 31
0.0
 11
9.824707031250007
 21
11.20630264282299
 31
0.0
 11
9.925903320313004
 21
11.104373931885
 31
0.0
  0
ELLIPSE
  5
286C
330
2833
100
AcDbEntity
  8
AM_0
100
AcDbEllipse
 10
1.019104003907003
 20
9.186405181885
 30
0.0
 11
-0.2026672331570012
 21
0.0183716058740018
 31
0.0
210
0.0
220
0.0
230
1.0
 40
0.4954041413436001
 41
6.120308863257655
 42
6.378961224868714
  0
ELLIPSE
  5
286D
330
2833
100
AcDbEntity
  8
AM_0
100
AcDbEllipse
 10
1.048904418946008
 20
9.181400299072997
 30
0.0
 11
-0.2330474869050079
 21
0.021118154529006
 31
0.0
210
0.0
220
0.0
230
1.0
 40
0.4952564161427001
 41
5.906204203718962
 42
6.129811395992045
  0
SPLINE
  5
286E
330
2833
100
AcDbEntity
  8
AM_0
100
AcDbSpline
210
0.0
220
0.0
230
1.0
 70
     8
 71
     3
 72
    11
 73
     7
 74
     5
 42
0.0000000001
 43
0.0000000001
 44
0.0000000001
 40
0.0
 40
0.0
 40
0.0
 40
0.0
 40
0.0155310863206903
 40
0.0305977787563749
 40
0.0455416808692846
 40
0.0603796352253458
 40
0.0603796352253458
 40
0.0603796352253458
 40
0.0603796352253458
 10
0.6352996826180118
 20
9.476627349853998
 30
0.0
 10
0.6321102556107419
 20
9.472538329961921
 30
0.0
 10
0.625826768421694
 20
9.464482555664821
 30
0.0
 10
0.6185958971404377
 20
9.451076161978166
 30
0.0
 10
0.6128300529203561
 20
9.437230704588118
 30
0.0
 10
0.6105443188904891
 20
9.427554298310628
 30
0.0
 10
0.6094055175790061
 20
9.422733306885
 30
0.0
 11
0.6352996826180118
 21
9.476627349853998
 31
0.0
 11
0.6260986328130116
 21
9.464115142822997
 31
0.0
 11
0.6188049316410087
 21
9.450931549072997
 31
0.0
 11
0.6132049560550002
 21
9.437076568603998
 31
0.0
 11
0.6094055175790061
 21
9.422733306885
 31
0.0
  0
ELLIPSE
  5
286F
330
2833
100
AcDbEntity
  8
AM_0
100
AcDbEllipse
 10
1.020492553711008
 20
9.189701080322997
 30
0.0
 11
-0.2019653369790006
 21
0.01831055265
 31
0.0
210
0.0
220
0.0
230
1.0
 40
0.4956197448897
 41
5.333397199281249
 42
5.906247710529973
  0
SPLINE
  5
2870
330
2833
100
AcDbEntity
  8
AM_0
100
AcDbSpline
210
0.0
220
0.0
230
1.0
 70
     8
 71
     3
 72
    11
 73
     7
 74
     5
 42
0.0000000001
 43
0.0000000001
 44
0.0000000001
 40
0.0
 40
0.0
 40
0.0
 40
0.0
 40
0.0526866785441214
 40
0.1009802638145116
 40
0.1445586414327216
 40
0.1835790259290964
 40
0.1835790259290964
 40
0.1835790259290964
 40
0.1835790259290964
 10
0.7985992431640057
 20
9.552127838135
 30
0.0
 10
0.7812584030218732
 20
9.549118147311784
 30
0.0
 10
0.7480226276664121
 20
9.543349718142845
 30
0.0
 10
0.7026382761329824
 20
9.526725066765454
 30
0.0
 10
0.6638192765539606
 20
9.505719010101131
 30
0.0
 10
0.6444499319995587
 20
9.485961141449433
 30
0.0
 10
0.6352996826180118
 20
9.476627349853998
 30
0.0
 11
0.7985992431640057
 21
9.552127838135
 31
0.0
 11
0.7469940185550002
 21
9.541507720947997
 31
0.0
 11
0.7015991210940058
 21
9.52502822876
 31
0.0
 11
0.6638946533210089
 21
9.503177642822997
 31
0.0
 11
0.6352996826180118
 21
9.476627349853998
 31
0.0
  0
ELLIPSE
  5
2871
330
2833
100
AcDbEntity
  8
AM_0
100
AcDbEllipse
 10
1.034606933594005
 20
9.177982330322997
 30
0.0
 11
-0.2276611354890007
 21
0.0206298932600007
 31
0.0
210
0.0
220
0.0
230
1.0
 40
0.4957092512007
 41
4.804117402960444
 42
5.333458551604987
  0
SPLINE
  5
2872
330
2833
100
AcDbEntity
  8
AM_0
100
AcDbSpline
210
0.0
220
0.0
230
1.0
 70
     8
 71
     3
 72
    11
 73
     7
 74
     5
 42
0.0000000001
 43
0.0000000001
 44
0.0000000001
 40
0.0
 40
0.0
 40
0.0
 40
0.0
 40
0.0486194179467528
 40
0.0958779569500767
 40
0.1416939899765479
 40
0.1864825076633689
 40
0.1864825076633689
 40
0.1864825076633689
 40
0.1864825076633689
 10
0.9844970703130115
 20
9.549076080322997
 30
0.0
 10
0.9684200795922141
 20
9.551164972833268
 30
0.0
 10
0.9367161002088423
 20
9.555284288831504
 30
0.0
 10
0.8894995096861658
 20
9.557628126605056
 30
0.0
 10
0.8434948171449999
 20
9.556925211447442
 30
0.0
 10
0.8134508617370142
 20
9.553714826612281
 30
0.0
 10
0.7985992431640057
 20
9.552127838135
 30
0.0
 11
0.9844970703130115
 21
9.549076080322997
 31
0.0
 11
0.9362030029300001
 21
9.554691314697997
 31
0.0
 11
0.8890075683600002
 21
9.557132720947997
 31
0.0
 11
0.8432006835940057
 21
9.556217193603998
 31
0.0
 11
0.7985992431640057
 21
9.552127838135
 31
0.0
  0
SPLINE
  5
2873
330
2833
100
AcDbEntity
  8
AM_0
100
AcDbSpline
210
0.0
220
0.0
230
1.0
 70
     8
 71
     3
 72
    11
 73
     7
 74
     5
 42
0.0000000001
 43
0.0000000001
 44
0.0000000001
 40
0.0
 40
0.0
 40
0.0
 40
0.0
 40
0.0239257861161174
 40
0.0484980276006606
 40
0.0738745636557119
 40
0.100215688837322
 40
0.100215688837322
 40
0.100215688837322
 40
0.100215688837322
 10
9.350906372071008
 20
8.823612213135
 30
0.0
 10
9.34823161207217
 20
8.831130537274161
 30
0.0
 10
9.342809822225047
 20
8.846370324583222
 30
0.0
 10
9.33215203405173
 20
8.868613770208513
 30
0.0
 10
9.319458613144039
 20
8.890683963401924
 30
0.0
 10
9.309550731562431
 20
8.904800968362065
 30
0.0
 10
9.304504394532003
 20
8.911991119385
 30
0.0
 11
9.350906372071008
 21
8.823612213135
 31
0.0
 11
9.342498779297002
 21
8.846012115478998
 31
0.0
 11
9.332000732422002
 21
8.868228912353998
 31
0.0
 11
9.319305419922002
 21
8.890201568603998
 31
0.0
 11
9.304504394532003
 21
8.911991119385
 31
0.0
  0
SPLINE
  5
2874
330
2833
100
AcDbEntity
  8
AM_0
100
AcDbSpline
210
0.0
220
0.0
230
1.0
 70
     8
 71
     3
 72
    11
 73
     7
 74
     5
 42
0.0000000001
 43
0.0000000001
 44
0.0000000001
 40
0.0
 40
0.0
 40
0.0
 40
0.0
 40
0.0401122308552008
 40
0.0818147470211418
 40
0.1257550815892657
 40
0.1719556813125908
 40
0.1719556813125908
 40
0.1719556813125908
 40
0.1719556813125908
 10
9.304504394532003
 20
8.911991119385
 30
0.0
 10
9.29628163139802
 20
8.922549994910465
 30
0.0
 10
9.279510106322534
 20
8.944086362036546
 30
0.0
 10
9.249697567818628
 20
8.973680671821563
 30
0.0
 10
9.216267298048329
 20
9.002293111935538
 30
0.0
 10
9.191558318831491
 20
9.01942256937583
 30
0.0
 10
9.178894042969005
 20
9.028202056885
 30
0.0
 11
9.304504394532003
 21
8.911991119385
 31
0.0
 11
9.279205322266008
 21
8.943119049072997
 31
0.0
 11
9.249893188477003
 21
8.97278213501
 31
0.0
 11
9.216400146485007
 21
9.001224517822997
 31
0.0
 11
9.178894042969005
 21
9.028202056885
 31
0.0
  0
SPLINE
  5
2875
330
2833
100
AcDbEntity
  8
AM_0
100
AcDbSpline
210
0.0
220
0.0
230
1.0
 70
     8
 71
     3
 72
    11
 73
     7
 74
     5
 42
0.0000000001
 43
0.0000000001
 44
0.0000000001
 40
0.0
 40
0.0
 40
0.0
 40
0.0
 40
0.0492759481979691
 40
0.0965833918395482
 40
0.1421345141070256
 40
0.1859337458145262
 40
0.1859337458145262
 40
0.1859337458145262
 40
0.1859337458145262
 10
8.765304565430007
 20
8.907474517822997
 30
0.0
 10
8.78115337667851
 20
8.903146558606531
 30
0.0
 10
8.812217861543526
 20
8.894663536033529
 30
0.0
 10
8.857070177112486
 20
8.879325207306354
 30
0.0
 10
8.899478457754032
 20
8.862606477701294
 30
0.0
 10
8.926334273976181
 20
8.849709605504108
 30
0.0
 10
8.939498901368004
 20
8.84338760376
 30
0.0
 11
8.765304565430007
 21
8.907474517822997
 31
0.0
 11
8.812698364258004
 21
8.893985748292003
 31
0.0
 11
8.857498168946008
 21
8.878787994385
 31
0.0
 11
8.899795532227003
 21
8.861881256103998
 31
0.0
 11
8.939498901368004
 21
8.84338760376
 31
0.0
  0
SPLINE
  5
2876
330
2833
100
AcDbEntity
  8
AM_0
100
AcDbSpline
210
0.0
220
0.0
230
1.0
 70
     8
 71
     3
 72
    11
 73
     7
 74
     5
 42
0.0000000001
 43
0.0000000001
 44
0.0000000001
 40
0.0
 40
0.0
 40
0.0
 40
0.0
 40
0.0754488488551301
 40
0.1541772345910649
 40
0.2367006608594174
 40
0.323639370738889
 40
0.323639370738889
 40
0.323639370738889
 40
0.323639370738889
 10
9.178894042969005
 20
9.028202056885
 30
0.0
 10
9.157473388896177
 20
9.041421620295965
 30
0.0
 10
9.113700988678095
 20
9.068435362190392
 30
0.0
 10
9.041850126694201
 20
9.101390709418307
 30
0.0
 10
8.964522595438385
 20
9.131032917212104
 30
0.0
 10
8.910044228760675
 20
9.146088488615266
 30
0.0
 10
8.882095336914005
 20
9.153812408447997
 30
0.0
 11
9.178894042969005
 21
9.028202056885
 31
0.0
 11
9.113906860352003
 21
9.06653213501
 31
0.0
 11
9.042694091797002
 21
9.100101470947997
 31
0.0
 11
8.965499877930007
 21
9.129276275635
 31
0.0
 11
8.882095336914005
 21
9.153812408447997
 31
0.0
  0
SPLINE
  5
2877
330
2833
100
AcDbEntity
  8
AM_0
100
AcDbSpline
210
0.0
220
0.0
230
1.0
 70
     8
 71
     3
 72
    11
 73
     7
 74
     5
 42
0.0000000001
 43
0.0000000001
 44
0.0000000001
 40
0.0
 40
0.0
 40
0.0
 40
0.0
 40
0.0529251379087119
 40
0.1059113021527812
 40
0.1588380765553101
 40
0.2117632144640462
 40
0.2117632144640462
 40
0.2117632144640462
 40
0.2117632144640462
 10
8.514205932618004
 20
8.945194244385
 30
0.0
 10
8.514508863307906
 20
8.962833353850188
 30
0.0
 10
8.515115073987697
 20
8.998131911890716
 30
0.0
 10
8.515973033950265
 20
9.051071038140836
 30
0.0
 10
8.517029422035649
 20
9.104006618892224
 30
0.0
 10
8.517608850045249
 20
9.139285855716989
 30
0.0
 10
8.517898559571008
 20
9.156925201417003
 30
0.0
 11
8.514205932618004
 21
8.945194244385
 31
0.0
 11
8.515106201172002
 21
8.998111724853998
 31
0.0
 11
8.516006469727003
 21
9.051090240478998
 31
0.0
 11
8.516998291016008
 21
9.104007720947997
 31
0.0
 11
8.517898559571008
 21
9.156925201417003
 31
0.0
  0
SPLINE
  5
2878
330
2833
100
AcDbEntity
  8
AM_0
100
AcDbSpline
210
0.0
220
0.0
230
1.0
 70
     8
 71
     3
 72
    11
 73
     7
 74
     5
 42
0.0000000001
 43
0.0000000001
 44
0.0000000001
 40
0.0
 40
0.0
 40
0.0
 40
0.0
 40
0.0632475775886793
 40
0.1266156586376069
 40
0.1902985909116277
 40
0.2543509254044463
 40
0.2543509254044463
 40
0.2543509254044463
 40
0.2543509254044463
 10
8.765304565430007
 20
8.907474517822997
 30
0.0
 10
8.744823346042194
 20
8.912499962086684
 30
0.0
 10
8.703821885095276
 20
8.922560425422231
 30
0.0
 10
8.641258147810235
 20
8.933265410729685
 30
0.0
 10
8.578035156203522
 20
8.941333482500169
 30
0.0
 10
8.535523320982338
 20
8.943904845018096
 30
0.0
 10
8.514205932618004
 20
8.945194244385
 30
0.0
 11
8.765304565430007
 21
8.907474517822997
 31
0.0
 11
8.703704833985007
 21
8.921817779542003
 31
0.0
 11
8.641296386719005
 21
8.932804107667003
 31
0.0
 11
8.578094482422002
 21
8.940616607667003
 31
0.0
 11
8.514205932618004
 21
8.945194244385
 31
0.0
  0
SPLINE
  5
2879
330
2833
100
AcDbEntity
  8
AM_0
100
AcDbSpline
210
0.0
220
0.0
230
1.0
 70
     8
 71
     3
 72
    11
 73
     7
 74
     5
 42
0.0000000001
 43
0.0000000001
 44
0.0000000001
 40
0.0
 40
0.0
 40
0.0
 40
0.0
 40
0.0840436593109028
 40
0.1682687817220828
 40
0.2528749626092659
 40
0.3383517421896498
 40
0.3383517421896498
 40
0.3383517421896498
 40
0.3383517421896498
 10
8.882095336914005
 20
9.153812408447997
 30
0.0
 10
8.854802057633149
 20
9.160172137166043
 30
0.0
 10
8.800156568711715
 20
9.172905326228042
 30
0.0
 10
8.716755295572296
 20
9.18557193291522
 30
0.0
 10
8.632372362324321
 20
9.194233755361896
 30
0.0
 10
8.575684466049668
 20
9.195888510599496
 30
0.0
 10
8.547195434571008
 20
9.196720123292003
 30
0.0
 11
8.882095336914005
 21
9.153812408447997
 31
0.0
 11
8.800003051758004
 21
9.171817779542003
 31
0.0
 11
8.716796875000007
 21
9.184879302978998
 31
0.0
 11
8.632598876954006
 21
9.193180084228998
 31
0.0
 11
8.547195434571008
 21
9.196720123292003
 31
0.0
  0
SPLINE
  5
287A
330
2833
100
AcDbEntity
  8
AM_0
100
AcDbSpline
210
0.0
220
0.0
230
1.0
 70
     8
 71
     3
 72
    11
 73
     7
 74
     5
 42
0.0000000001
 43
0.0000000001
 44
0.0000000001
 40
0.0
 40
0.0
 40
0.0
 40
0.0
 40
0.3964222524045375
 40
0.7933597818553836
 40
1.190707289736389
 40
1.588501790096016
 40
1.588501790096016
 40
1.588501790096016
 40
1.588501790096016
 10
0.7218017578130116
 20
4.80126953125
 30
0.0
 10
0.6683780374987667
 20
4.922129312377175
 30
0.0
 10
0.5614611557209989
 20
5.164005970431924
 30
0.0
 10
0.4014114416806277
 20
5.527207958520266
 30
0.0
 10
0.2414054405400527
 20
5.890928923074884
 30
0.0
 10
0.1348199142717492
 20
6.133600756564141
 30
0.0
 10
0.0814971923830115
 20
6.255004882812997
 30
0.0
 11
0.7218017578130116
 21
4.80126953125
 31
0.0
 11
0.5615997314460089
 21
5.163879394532003
 31
0.0
 11
0.4015045166020031
 21
5.527099609375
 31
0.0
 11
0.2415008544930117
 21
5.890808105468998
 31
0.0
 11
0.0814971923830115
 21
6.255004882812997
 31
0.0
  0
SPLINE
  5
287B
330
2833
100
AcDbEntity
  8
AM_0
100
AcDbSpline
210
0.0
220
0.0
230
1.0
 70
     8
 71
     3
 72
    11
 73
     7
 74
     5
 42
0.0000000001
 43
0.0000000001
 44
0.0000000001
 40
0.0
 40
0.0
 40
0.0
 40
0.0
 40
0.095319743936253
 40
0.1762277085564264
 40
0.2428801182850844
 40
0.2968302444122327
 40
0.2968302444122327
 40
0.2968302444122327
 40
0.2968302444122327
 10
0.9694061279300001
 20
4.651794433593998
 30
0.0
 10
0.9388417364848086
 20
4.66077337706062
 30
0.0
 10
0.8823341081029072
 20
4.677373701054761
 30
0.0
 10
0.8095725846042594
 20
4.712808045369134
 30
0.0
 10
0.7528594438094642
 20
4.751433046953415
 30
0.0
 10
0.7314009587515205
 20
4.78586624502686
 30
0.0
 10
0.7218017578130116
 20
4.80126953125
 30
0.0
 11
0.9694061279300001
 21
4.651794433593998
 31
0.0
 11
0.878799438477003
 21
4.681396484375
 31
0.0
 11
0.8061065673830114
 21
4.716918945312997
 31
0.0
 11
0.7530975341800002
 21
4.75732421875
 31
0.0
 11
0.7218017578130116
 21
4.80126953125
 31
0.0
  0
SPLINE
  5
287C
330
2833
100
AcDbEntity
  8
AM_0
100
AcDbSpline
210
0.0
220
0.0
230
1.0
 70
     8
 71
     3
 72
    11
 73
     7
 74
     5
 42
0.0000000001
 43
0.0000000001
 44
0.0000000001
 40
0.0
 40
0.0
 40
0.0
 40
0.0
 40
0.0284332784728436
 40
0.0572253842940425
 40
0.0868732742680995
 40
0.117773829123841
 40
0.117773829123841
 40
0.117773829123841
 40
0.117773829123841
 10
0.91259765625
 20
7.14990234375
 30
0.0
 10
0.9152564618984902
 20
7.140794345935963
 30
0.0
 10
0.9206076272642198
 20
7.122463407575993
 30
0.0
 10
0.9326023664245772
 20
7.096015186535199
 30
0.0
 10
0.9476012327809913
 20
7.070206790317303
 30
0.0
 10
0.959916669207945
 20
7.054193036237045
 30
0.0
 10
0.966201782227003
 20
7.046020507812997
 30
0.0
 11
0.91259765625
 21
7.14990234375
 31
0.0
 11
0.9212036132820031
 21
7.122802734375
 31
0.0
 11
0.9329071044930117
 21
7.096496582032003
 31
0.0
 11
0.9479064941410086
 21
7.070922851562997
 31
0.0
 11
0.966201782227003
 21
7.046020507812997
 31
0.0
  0
SPLINE
  5
287D
330
2833
100
AcDbEntity
  8
AM_0
100
AcDbSpline
210
0.0
220
0.0
230
1.0
 70
     8
 71
     3
 72
    11
 73
     7
 74
     5
 42
0.0000000001
 43
0.0000000001
 44
0.0000000001
 40
0.0
 40
0.0
 40
0.0
 40
0.0
 40
0.1144432779707226
 40
0.2295923089365377
 40
0.3452080328327629
 40
0.4605780084256115
 40
0.4605780084256115
 40
0.4605780084256115
 40
0.4605780084256115
 10
0.0
 20
19.21979141235399
 30
0.0
 10
0.00024560195938
 20
19.25820788284208
 30
0.0
 10
0.0007383204652919
 20
19.33527773191447
 30
0.0
 10
0.0424504406522611
 20
19.44478768329531
 30
0.0
 10
0.1131986876351827
 20
19.53918078947887
 30
0.0
 10
0.1801516594182086
 20
19.57854714466609
 30
0.0
 10
0.2135925292970029
 20
19.59820938110399
 30
0.0
 11
0.0
 21
19.21979141235399
 31
0.0
 11
0.0075073242190058
 21
19.33398818969799
 31
0.0
 11
0.0471954345710088
 21
19.442081451417
 31
0.0
 11
0.1181945800790061
 21
19.53332901001
 31
0.0
 11
0.2135925292970029
 21
19.59820938110399
 31
0.0
  0
SPLINE
  5
287E
330
2833
100
AcDbEntity
  8
AM_0
100
AcDbSpline
210
0.0
220
0.0
230
1.0
 70
     8
 71
     3
 72
    11
 73
     7
 74
     5
 42
0.0000000001
 43
0.0000000001
 44
0.0000000001
 40
0.0
 40
0.0
 40
0.0
 40
0.0
 40
2.187304635349052
 40
4.371529421041667
 40
6.552573589833476
 40
8.730670591110488
 40
8.730670591110488
 40
8.730670591110488
 40
8.730670591110488
 10
0.3657989501960088
 20
19.634586334229
 30
0.0
 10
1.094695825532574
 20
19.6518672738244
 30
0.0
 10
2.551463247840282
 20
19.68640482046682
 30
0.0
 10
4.735136607772281
 20
19.73401057022021
 30
0.0
 10
6.915798317528316
 20
19.77886527936545
 30
0.0
 10
8.368591965567039
 20
19.80601714069566
 30
0.0
 10
9.094497680664005
 20
19.81958389282299
 30
0.0
 11
0.3657989501960088
 21
19.634586334229
 31
0.0
 11
2.552505493164005
 21
19.685733795167
 31
0.0
 11
4.736206054688011
 21
19.733585357667
 31
0.0
 11
6.916793823243004
 21
19.778202056885
 31
0.0
 11
9.094497680664005
 21
19.81958389282299
 31
0.0
  0
SPLINE
  5
287F
330
2833
100
AcDbEntity
  8
AM_0
100
AcDbSpline
210
0.0
220
0.0
230
1.0
 70
     8
 71
     3
 72
    11
 73
     7
 74
     5
 42
0.0000000001
 43
0.0000000001
 44
0.0000000001
 40
0.0
 40
0.0
 40
0.0
 40
0.0
 40
1.051158925012378
 40
2.102542869692462
 40
3.153912877445866
 40
4.20534320945328
 40
4.20534320945328
 40
4.20534320945328
 40
4.20534320945328
 10
0.7218017578130116
 20
13.937198638917
 30
0.0
 10
0.6683905616248996
 20
14.28349014855971
 30
0.0
 10
0.5615567356116371
 20
14.97614729783497
 30
0.0
 10
0.4014904075775773
 20
16.01519469617154
 30
0.0
 10
0.2414992035920738
 20
17.05434519451674
 30
0.0
 10
0.1348322161252952
 20
17.74711488959211
 30
0.0
 10
0.0814971923830115
 20
18.09350967407299
 30
0.0
 11
0.7218017578130116
 21
13.937198638917
 31
0.0
 11
0.5615997314460089
 21
14.97607803344799
 31
0.0
 11
0.4015045166020031
 21
16.015201568604
 31
0.0
 11
0.2415008544930117
 21
17.05432510376
 31
0.0
 11
0.0814971923830115
 21
18.09350967407299
 31
0.0
  0
SPLINE
  5
2880
330
2833
100
AcDbEntity
  8
AM_0
100
AcDbSpline
210
0.0
220
0.0
230
1.0
 70
     8
 71
     3
 72
    11
 73
     7
 74
     5
 42
0.0000000001
 43
0.0000000001
 44
0.0000000001
 40
0.0
 40
0.0
 40
0.0
 40
0.0
 40
0.1919525024945443
 40
0.3836324851103898
 40
0.5749810704858537
 40
0.7657005089497313
 40
0.7657005089497313
 40
0.7657005089497313
 40
0.7657005089497313
 10
1.167404174805
 20
13.350284576417
 30
0.0
 10
1.110999771974266
 20
13.38123021432644
 30
0.0
 10
0.9982710450865461
 20
13.44307755583147
 30
0.0
 10
0.8647181101882924
 20
13.58399057053726
 30
0.0
 10
0.7646620796164252
 20
13.75002150019214
 30
0.0
 10
0.7360728392257555
 20
13.87487479082274
 30
0.0
 10
0.7218017578130116
 20
13.937198638917
 30
0.0
 11
1.167404174805
 21
13.350284576417
 31
0.0
 11
1.004104614258011
 21
13.45117568969799
 31
0.0
 11
0.8701934814460088
 21
13.588321685792
 31
0.0
 11
0.7740936279300002
 21
13.753787994385
 31
0.0
 11
0.7218017578130116
 21
13.937198638917
 31
0.0
  0
SPLINE
  5
2881
330
2833
100
AcDbEntity
  8
AM_0
100
AcDbSpline
210
0.0
220
0.0
230
1.0
 70
     8
 71
     3
 72
    11
 73
     7
 74
     5
 42
0.0000000001
 43
0.0000000001
 44
0.0000000001
 40
0.0
 40
0.0
 40
0.0
 40
0.0
 40
0.2877001883214205
 40
0.576541989961644
 40
0.8648607243072628
 40
1.150935438147262
 40
1.150935438147262
 40
1.150935438147262
 40
1.150935438147262
 10
9.094497680664005
 20
19.81958389282299
 30
0.0
 10
9.191254132335972
 20
19.81293863428881
 30
0.0
 10
9.385150971660459
 20
19.79962174839638
 30
0.0
 10
9.643095906455027
 20
19.65449526472414
 30
0.0
 10
9.844136865992556
 20
19.4371991822785
 30
0.0
 10
9.898718915295194
 20
19.25124702746661
 30
0.0
 10
9.925903320313004
 20
19.158634185792
 30
0.0
 11
9.094497680664005
 21
19.81958389282299
 31
0.0
 11
9.379302978516008
 21
19.77887344360399
 31
0.0
 11
9.633804321289005
 21
19.642276763917
 31
0.0
 11
9.824707031250007
 21
19.426212310792
 31
0.0
 11
9.925903320313004
 21
19.158634185792
 31
0.0
  0
SPLINE
  5
2882
330
2833
100
AcDbEntity
  8
AM_0
100
AcDbSpline
210
0.0
220
0.0
230
1.0
 70
     8
 71
     3
 72
    11
 73
     7
 74
     5
 42
0.0000000001
 43
0.0000000001
 44
0.0000000001
 40
0.0
 40
0.0
 40
0.0
 40
0.0
 40
0.0619991995720604
 40
0.1244633389532133
 40
0.1870764872198216
 40
0.249601434235581
 40
0.249601434235581
 40
0.249601434235581
 40
0.249601434235581
 10
0.7985992431640057
 20
18.96509170532299
 30
0.0
 10
0.7809446836493544
 20
18.95423893893029
 30
0.0
 10
0.7455031708538897
 20
18.93245201988234
 30
0.0
 10
0.7004610150280369
 20
18.88877426768667
 30
0.0
 10
0.6619209537986089
 20
18.83903289192703
 30
0.0
 10
0.6441692690303153
 20
18.80115564975194
 30
0.0
 10
0.6352996826180118
 20
18.78223037719799
 30
0.0
 11
0.7985992431640057
 21
18.96509170532299
 31
0.0
 11
0.7469940185550002
 21
18.930728912354
 31
0.0
 11
0.7015991210940058
 21
18.88782119751
 31
0.0
 11
0.6638946533210089
 21
18.837833404542
 31
0.0
 11
0.6352996826180118
 21
18.78223037719799
 31
0.0
  0
SPLINE
  5
2883
330
2833
100
AcDbEntity
  8
AM_0
100
AcDbSpline
210
0.0
220
0.0
230
1.0
 70
     8
 71
     3
 72
    11
 73
     7
 74
     5
 42
0.0000000001
 43
0.0000000001
 44
0.0000000001
 40
0.0
 40
0.0
 40
0.0
 40
0.0
 40
0.0264905630400029
 40
0.0527907138524252
 40
0.0792089309457605
 40
0.105667235587946
 40
0.105667235587946
 40
0.105667235587946
 40
0.105667235587946
 10
0.6352996826180118
 20
18.78223037719799
 30
0.0
 10
0.6320970305638661
 20
18.77399612843789
 30
0.0
 10
0.625714746884052
 20
18.7575868180949
 30
0.0
 10
0.6185631781802075
 20
18.73214009974052
 30
0.0
 10
0.6128090607115285
 20
18.70635666400563
 30
0.0
 10
0.610540605221782
 20
18.68886901453036
 30
0.0
 10
0.6094055175790061
 20
18.680118560792
 30
0.0
 11
0.6352996826180118
 21
18.78223037719799
 31
0.0
 11
0.6260986328130116
 21
18.757389068604
 31
0.0
 11
0.6188049316410087
 21
18.732120513917
 31
0.0
 11
0.6132049560550002
 21
18.70630264282299
 31
0.0
 11
0.6094055175790061
 21
18.680118560792
 31
0.0
  0
SPLINE
  5
2884
330
2833
100
AcDbEntity
  8
AM_0
100
AcDbSpline
210
0.0
220
0.0
230
1.0
 70
     8
 71
     3
 72
    11
 73
     7
 74
     5
 42
0.0000000001
 43
0.0000000001
 44
0.0000000001
 40
0.0
 40
0.0
 40
0.0
 40
0.0
 40
0.0484517877219959
 40
0.0965981033541864
 40
0.1448603289115772
 40
0.1940789124915214
 40
0.1940789124915214
 40
0.1940789124915214
 40
0.1940789124915214
 10
0.9844970703130115
 20
19.014530181885
 30
0.0
 10
0.9683511607638477
 20
19.01363186973767
 30
0.0
 10
0.9361611361495565
 20
19.01184090899644
 30
0.0
 10
0.888744695085472
 20
19.00193485413996
 30
0.0
 10
0.8424396004949583
 20
18.98688676998712
 30
0.0
 10
0.813307963162776
 20
18.97240408877552
 30
0.0
 10
0.7985992431640057
 20
18.96509170532299
 30
0.0
 11
0.9844970703130115
 21
19.014530181885
 31
0.0
 11
0.9362030029300001
 21
19.010623931885
 31
0.0
 11
0.8890075683600002
 21
19.00110244751
 31
0.0
 11
0.8432006835940057
 21
18.98590469360399
 31
0.0
 11
0.7985992431640057
 21
18.96509170532299
 31
0.0
  0
SPLINE
  5
2885
330
2833
100
AcDbEntity
  8
AM_0
100
AcDbSpline
210
0.0
220
0.0
230
1.0
 70
     8
 71
     3
 72
    11
 73
     7
 74
     5
 42
0.0000000001
 43
0.0000000001
 44
0.0000000001
 40
0.0
 40
0.0
 40
0.0
 40
0.0
 40
0.0614479165302659
 40
0.1225090072114824
 40
0.1833486599205837
 40
0.2444535109522024
 40
0.2444535109522024
 40
0.2444535109522024
 40
0.2444535109522024
 10
0.966201782227003
 20
14.21350479126
 30
0.0
 10
0.974395270444176
 20
14.19472024459025
 30
0.0
 10
0.9907306673748507
 20
14.15726940340029
 30
0.0
 10
1.020633354642066
 20
14.10386978854024
 30
0.0
 10
1.054260347685898
 20
14.05287684142748
 30
0.0
 10
1.079805325163387
 20
14.02123182606475
 30
0.0
 10
1.092605590821008
 20
14.00537490844799
 30
0.0
 11
0.966201782227003
 21
14.21350479126
 31
0.0
 11
0.99169921875
 21
14.157596588135
 31
0.0
 11
1.021301269532003
 21
14.104190826417
 31
0.0
 11
1.054992675782003
 21
14.053531646729
 31
0.0
 11
1.092605590821008
 21
14.00537490844799
 31
0.0
  0
SPLINE
  5
2886
330
2833
100
AcDbEntity
  8
AM_0
100
AcDbSpline
210
0.0
220
0.0
230
1.0
 70
     8
 71
     3
 72
    11
 73
     7
 74
     5
 42
0.0000000001
 43
0.0000000001
 44
0.0000000001
 40
0.0
 40
0.0
 40
0.0
 40
0.0
 40
0.0522877892224329
 40
0.1044597133436705
 40
0.1565324700002725
 40
0.20884707865058
 40
0.20884707865058
 40
0.20884707865058
 40
0.20884707865058
 10
0.91259765625
 20
14.41479873657299
 30
0.0
 10
0.915247410079856
 20
14.39756641132772
 30
0.0
 10
0.9205410461202051
 20
14.36313994614083
 30
0.0
 10
0.9324010441985707
 20
14.31228327693234
 30
0.0
 10
0.9472523423426721
 20
14.26220148579902
 30
0.0
 10
0.9598755534842689
 20
14.22976207540926
 30
0.0
 10
0.966201782227003
 20
14.21350479126
 30
0.0
 11
0.91259765625
 21
14.41479873657299
 31
0.0
 11
0.9212036132820031
 21
14.363224029542
 31
0.0
 11
0.9329071044930117
 21
14.312381744385
 31
0.0
 11
0.9479064941410086
 21
14.26251602172899
 31
0.0
 11
0.966201782227003
 21
14.21350479126
 31
0.0
  0
SPLINE
  5
2887
330
2833
100
AcDbEntity
  8
AM_0
100
AcDbSpline
210
0.0
220
0.0
230
1.0
 70
     8
 71
     3
 72
    11
 73
     7
 74
     5
 42
0.0000000001
 43
0.0000000001
 44
0.0000000001
 40
0.0
 40
0.0
 40
0.0
 40
0.0
 40
0.0290530589422811
 40
0.0580736912535484
 40
0.0869133031301982
 40
0.1160439739817952
 40
0.1160439739817952
 40
0.1160439739817952
 40
0.1160439739817952
 10
1.129699707032003
 20
14.344181060792
 30
0.0
 10
1.126513950647323
 20
14.35332819136132
 30
0.0
 10
1.120145993556798
 20
14.37161224322634
 30
0.0
 10
1.112198321490865
 20
14.39948727416427
 30
0.0
 10
1.105525324530594
 20
14.42771979150422
 30
0.0
 10
1.102116035352784
 20
14.44674318796577
 30
0.0
 10
1.100402832032003
 20
14.45630264282299
 30
0.0
 11
1.129699707032003
 21
14.344181060792
 31
0.0
 11
1.120407104493011
 21
14.37170791626
 31
0.0
 11
1.112396240235
 21
14.399600982667
 31
0.0
 11
1.10580444336
 21
14.427677154542
 31
0.0
 11
1.100402832032003
 21
14.45630264282299
 31
0.0
  0
SPLINE
  5
2888
330
2833
100
AcDbEntity
  8
AM_0
100
AcDbSpline
210
0.0
220
0.0
230
1.0
 70
     8
 71
     3
 72
    11
 73
     7
 74
     5
 42
0.0000000001
 43
0.0000000001
 44
0.0000000001
 40
0.0
 40
0.0
 40
0.0
 40
0.0
 40
0.0435273774443837
 40
0.0871157770069102
 40
0.1307671829673397
 40
0.1743555825308678
 40
0.1743555825308678
 40
0.1743555825308678
 40
0.1743555825308678
 10
8.514205932618004
 20
19.135196685792
 30
0.0
 10
8.514508809859053
 20
19.14970264756867
 30
0.0
 10
8.515114988952323
 20
19.1787349073923
 30
0.0
 10
8.515974622968169
 20
19.2223155515738
 30
0.0
 10
8.517028457052989
 20
19.26591232905584
 30
0.0
 10
8.517608665077757
 20
19.29498650370392
 30
0.0
 10
8.517898559571008
 20
19.309513092042
 30
0.0
 11
8.514205932618004
 21
19.135196685792
 31
0.0
 11
8.515106201172002
 21
19.17871475219799
 31
0.0
 11
8.516006469727003
 21
19.22229385376
 31
0.0
 11
8.516998291016008
 21
19.265933990479
 31
0.0
 11
8.517898559571008
 21
19.309513092042
 31
0.0
  0
SPLINE
  5
2889
330
2833
100
AcDbEntity
  8
AM_0
100
AcDbSpline
210
0.0
220
0.0
230
1.0
 70
     8
 71
     3
 72
    11
 73
     7
 74
     5
 42
0.0000000001
 43
0.0000000001
 44
0.0000000001
 40
0.0
 40
0.0
 40
0.0
 40
0.0
 40
0.0648280297749048
 40
0.1287034495497483
 40
0.1922872098937175
 40
0.2561786750912572
 40
0.2561786750912572
 40
0.2561786750912572
 40
0.2561786750912572
 10
8.765304565430007
 20
19.093814849854
 30
0.0
 10
8.744903618466025
 20
19.10100085274831
 30
0.0
 10
8.704401504527616
 20
19.11526726442524
 30
0.0
 10
8.641552861651428
 20
19.12860045890824
 30
0.0
 10
8.578047047489965
 20
19.1359367127892
 30
0.0
 10
8.535520521657829
 20
19.13544375809572
 30
0.0
 10
8.514205932618004
 20
19.135196685792
 30
0.0
 11
8.765304565430007
 21
19.093814849854
 31
0.0
 11
8.703704833985007
 21
19.11401748657299
 31
0.0
 11
8.641296386719005
 21
19.127628326417
 31
0.0
 11
8.578094482422002
 21
19.134586334229
 31
0.0
 11
8.514205932618004
 21
19.135196685792
 31
0.0
  0
SPLINE
  5
288A
330
2833
100
AcDbEntity
  8
AM_0
100
AcDbSpline
210
0.0
220
0.0
230
1.0
 70
     8
 71
     3
 72
    11
 73
     7
 74
     5
 42
0.0000000001
 43
0.0000000001
 44
0.0000000001
 40
0.0
 40
0.0
 40
0.0
 40
0.0
 40
0.0866233593147804
 40
0.1718732524461253
 40
0.2565875263056494
 40
0.3419915139357586
 40
0.3419915139357586
 40
0.3419915139357586
 40
0.3419915139357586
 10
8.882095336914005
 20
19.28857803344799
 30
0.0
 10
8.854917958689451
 20
19.29841712307687
 30
0.0
 10
8.800994116144412
 20
19.31793929756883
 30
0.0
 10
8.71719971389991
 20
19.33610300868249
 30
0.0
 10
8.632442331858182
 20
19.34606248097566
 30
0.0
 10
8.575687767377644
 20
19.34497243440222
 30
0.0
 10
8.547195434571008
 20
19.344425201417
 30
0.0
 11
8.882095336914005
 21
19.28857803344799
 31
0.0
 11
8.800003051758004
 21
19.31622695922899
 31
0.0
 11
8.716796875000007
 21
19.334781646729
 31
0.0
 11
8.632598876954006
 21
19.344120025635
 31
0.0
 11
8.547195434571008
 21
19.344425201417
 31
0.0
  0
SPLINE
  5
288B
330
2833
100
AcDbEntity
  8
AM_0
100
AcDbSpline
210
0.0
220
0.0
230
1.0
 70
     8
 71
     3
 72
    11
 73
     7
 74
     5
 42
0.0000000001
 43
0.0000000001
 44
0.0000000001
 40
0.0
 40
0.0
 40
0.0
 40
0.0
 40
0.0517624637023177
 40
0.1028119779542065
 40
0.1536132511674461
 40
0.2044812572718298
 40
0.2044812572718298
 40
0.2044812572718298
 40
0.2044812572718298
 10
8.765304565430007
 20
19.093814849854
 30
0.0
 10
8.781239666469577
 20
19.08716663426646
 30
0.0
 10
8.812890386694176
 20
19.07396177218045
 30
0.0
 10
8.857754717810619
 20
19.04911376035047
 30
0.0
 10
8.900393838960596
 20
19.02114654495908
 30
0.0
 10
8.926458177929474
 20
18.99944708961229
 30
0.0
 10
8.939498901368004
 20
18.98859024047899
 30
0.0
 11
8.765304565430007
 21
19.093814849854
 31
0.0
 11
8.812698364258004
 21
19.07300186157299
 31
0.0
 11
8.857498168946008
 21
19.048526763917
 31
0.0
 11
8.899795532227003
 21
19.020389556885
 31
0.0
 11
8.939498901368004
 21
18.98859024047899
 31
0.0
  0
SPLINE
  5
288C
330
2833
100
AcDbEntity
  8
AM_0
100
AcDbSpline
210
0.0
220
0.0
230
1.0
 70
     8
 71
     3
 72
    11
 73
     7
 74
     5
 42
0.0000000001
 43
0.0000000001
 44
0.0000000001
 40
0.0
 40
0.0
 40
0.0
 40
0.0
 40
0.0937909307634092
 40
0.1857784555180467
 40
0.2771845180944648
 40
0.36959638567178
 40
0.36959638567178
 40
0.36959638567178
 40
0.36959638567178
 10
9.178894042969005
 20
19.07397842407299
 30
0.0
 10
9.15779201919133
 20
19.09710352873625
 30
0.0
 10
9.115993719997446
 20
19.14290909003161
 30
0.0
 10
9.043788971807042
 20
19.20101707589762
 30
0.0
 10
8.966304085785871
 20
19.25102884252251
 30
0.0
 10
8.910267126538148
 20
19.27601606190132
 30
0.0
 10
8.882095336914005
 20
19.28857803344799
 30
0.0
 11
9.178894042969005
 21
19.07397842407299
 31
0.0
 11
9.113906860352003
 21
19.14160537719799
 31
0.0
 11
9.042694091797002
 21
19.19983291626
 31
0.0
 11
8.965499877930007
 21
19.24878311157299
 31
0.0
 11
8.882095336914005
 21
19.28857803344799
 31
0.0
  0
SPLINE
  5
288D
330
2833
100
AcDbEntity
  8
AM_0
100
AcDbSpline
210
0.0
220
0.0
230
1.0
 70
     8
 71
     3
 72
    11
 73
     7
 74
     5
 42
0.0000000001
 43
0.0000000001
 44
0.0000000001
 40
0.0
 40
0.0
 40
0.0
 40
0.0
 40
0.0229554877948184
 40
0.045895046023127
 40
0.0688522377280911
 40
0.0918456937523176
 40
0.0918456937523176
 40
0.0918456937523176
 40
0.0918456937523176
 10
9.233901977539005
 20
19.00049209594799
 30
0.0
 10
9.229642920287989
 20
19.0068500645967
 30
0.0
 10
9.221127761285588
 20
19.01956158989095
 30
0.0
 10
9.207563083697342
 20
19.03808002707233
 30
0.0
 10
9.193616682311901
 20
19.05632887416247
 30
0.0
 10
9.183804170766187
 20
19.0680921462389
 30
0.0
 10
9.178894042969005
 20
19.07397842407299
 30
0.0
 11
9.233901977539005
 21
19.00049209594799
 31
0.0
 11
9.220993041993004
 21
19.019474029542
 31
0.0
 11
9.207504272461008
 21
19.038028717042
 31
0.0
 11
9.193496704102003
 21
19.05621719360399
 31
0.0
 11
9.178894042969005
 21
19.07397842407299
 31
0.0
  0
SPLINE
  5
288E
330
2833
100
AcDbEntity
  8
AM_0
100
AcDbSpline
210
0.0
220
0.0
230
1.0
 70
     8
 71
     3
 72
    11
 73
     7
 74
     5
 42
0.0000000001
 43
0.0000000001
 44
0.0000000001
 40
0.0
 40
0.0
 40
0.0
 40
0.0
 40
0.0721688782837515
 40
0.1482775660206998
 40
0.235745854914124
 40
0.3363041227934411
 40
0.3363041227934411
 40
0.3363041227934411
 40
0.3363041227934411
 10
0.0
 20
-12.56137084960899
 30
0.0
 10
0.0002932152649558
 20
-12.58585917299327
 30
0.0
 10
0.0008956528646761
 20
-12.6361726747921
 30
0.0
 10
0.0463351304399487
 20
-12.7048393868223
 30
0.0
 10
0.1199953370613827
 20
-12.75610860915814
 30
0.0
 10
0.1809783003924536
 20
-12.77231045248695
 30
0.0
 10
0.2135925292970029
 20
-12.780975341796
 30
0.0
 11
0.0
 21
-12.56137084960899
 31
0.0
 11
0.0075073242190058
 21
-12.63314819335899
 31
0.0
 11
0.0471954345710088
 21
-12.69808959960899
 31
0.0
 11
0.1181945800790061
 21
-12.74917602539
 31
0.0
 11
0.2135925292970029
 21
-12.780975341796
 31
0.0
  0
SPLINE
  5
288F
330
2833
100
AcDbEntity
  8
AM_0
100
AcDbSpline
210
0.0
220
0.0
230
1.0
 70
     8
 71
     3
 72
    11
 73
     7
 74
     5
 42
0.0000000001
 43
0.0000000001
 44
0.0000000001
 40
0.0
 40
0.0
 40
0.0
 40
0.0
 40
0.642426453317021
 40
1.284412545055531
 40
1.926080575538603
 40
2.567273482741882
 40
2.567273482741882
 40
2.567273482741882
 40
2.567273482741882
 10
0.6734008789070032
 20
-9.340362548828
 30
0.0
 10
0.6240342255796421
 20
-9.548736718126168
 30
0.0
 10
0.5253347580940149
 20
-9.965342223285869
 30
0.0
 10
0.3773158483000027
 20
-10.59007327661708
 30
0.0
 10
0.2294677043481896
 20
-11.21442222473151
 30
0.0
 10
0.1308085164913826
 20
-11.63050574811158
 30
0.0
 10
0.0814971923830115
 20
-11.83847045898399
 30
0.0
 11
0.6734008789070032
 21
-9.340362548828
 31
0.0
 11
0.5252990722660087
 21
-9.965484619139999
 31
0.0
 11
0.3773040771490059
 21
-10.59017944335899
 31
0.0
 11
0.2294006347660087
 21
-11.214569091796
 31
0.0
 11
0.0814971923830115
 21
-11.83847045898399
 31
0.0
  0
SPLINE
  5
2890
330
2833
100
AcDbEntity
  8
AM_0
100
AcDbSpline
210
0.0
220
0.0
230
1.0
 70
     8
 71
     3
 72
    11
 73
     7
 74
     5
 42
0.0000000001
 43
0.0000000001
 44
0.0000000001
 40
0.0
 40
0.0
 40
0.0
 40
0.0
 40
1.064210840088942
 40
2.137023910822858
 40
3.209563424356484
 40
4.273221691500384
 40
4.273221691500384
 40
4.273221691500384
 40
4.273221691500384
 10
5.122299194336008
 20
-17.940399169921
 30
0.0
 10
4.763477129541985
 20
-17.83620851014644
 30
0.0
 10
4.042932568906268
 20
-17.62698499650132
 30
0.0
 10
3.642494684830076
 20
-16.47410643392413
 30
0.0
 10
4.142597195453266
 20
-15.36134916072482
 30
0.0
 10
4.878223077784217
 20
-15.21564574872154
 30
0.0
 10
5.244506835938004
 20
-15.143096923828
 30
0.0
 11
5.122299194336008
 21
-17.940399169921
 31
0.0
 11
4.158401489258011
 21
-17.48934936523399
 31
0.0
 11
3.792999267579006
 21
-16.480682373046
 31
0.0
 11
4.245498657227003
 21
-15.508270263671
 31
0.0
 11
5.244506835938004
 21
-15.143096923828
 31
0.0
  0
SPLINE
  5
2891
330
2833
100
AcDbEntity
  8
AM_0
100
AcDbSpline
210
0.0
220
0.0
230
1.0
 70
     8
 71
     3
 72
    11
 73
     7
 74
     5
 42
0.0000000001
 43
0.0000000001
 44
0.0000000001
 40
0.0
 40
0.0
 40
0.0
 40
0.0
 40
1.331385275204229
 40
2.673101556144476
 40
4.010731570954826
 40
5.351129783136294
 40
5.351129783136294
 40
5.351129783136294
 40
5.351129783136294
 10
5.280700683594005
 20
-18.297668457031
 30
0.0
 10
5.73846426512778
 20
-18.20583326092207
 30
0.0
 10
6.657543486547364
 20
-18.02145026510597
 30
0.0
 10
7.289637250577873
 20
-16.63562483680175
 30
0.0
 10
6.791890226756365
 20
-15.18846210270091
 30
0.0
 10
5.886538944226725
 20
-14.93023958855091
 30
0.0
 10
5.433395385743004
 20
-14.800994873046
 30
0.0
 11
5.280700683594005
 21
-18.297668457031
 31
0.0
 11
6.530502319336008
 21
-17.838775634765
 31
0.0
 11
7.101196289063004
 21
-16.624481201171
 31
0.0
 11
6.649093627930007
 21
-15.365570068359
 31
0.0
 11
5.433395385743004
 21
-14.800994873046
 31
0.0
  0
SPLINE
  5
2892
330
2833
100
AcDbEntity
  8
AM_0
100
AcDbSpline
210
0.0
220
0.0
230
1.0
 70
     8
 71
     3
 72
    11
 73
     7
 74
     5
 42
0.0000000001
 43
0.0000000001
 44
0.0000000001
 40
0.0
 40
0.0
 40
0.0
 40
0.0
 40
1.34090068346097
 40
2.677350031442883
 40
4.019233547196089
 40
5.347538948824604
 40
5.347538948824604
 40
5.347538948824604
 40
5.347538948824604
 10
5.433395385743004
 20
-14.800994873046
 30
0.0
 10
4.970500769075667
 20
-14.89068013117578
 30
0.0
 10
4.046248188869484
 20
-15.0697529227967
 30
0.0
 10
3.427125056069265
 20
-16.46870069090256
 30
0.0
 10
3.935465691719731
 20
-17.90261116544765
 30
0.0
 10
4.833811739005333
 20
-18.16642987257984
 30
0.0
 10
5.280700683594005
 20
-18.297668457031
 30
0.0
 11
5.433395385743004
 21
-14.800994873046
 31
0.0
 11
4.173095703125
 21
-15.25888061523399
 31
0.0
 11
3.615295410157003
 21
-16.473358154296
 31
0.0
 11
4.078506469727003
 21
-17.73275756835899
 31
0.0
 11
5.280700683594005
 21
-18.297668457031
 31
0.0
  0
SPLINE
  5
2893
330
2833
100
AcDbEntity
  8
AM_0
100
AcDbSpline
210
0.0
220
0.0
230
1.0
 70
     8
 71
     3
 72
    11
 73
     7
 74
     5
 42
0.0000000001
 43
0.0000000001
 44
0.0000000001
 40
0.0
 40
0.0
 40
0.0
 40
0.0
 40
2.18730320896718
 40
4.371529332658225
 40
6.552572877378267
 40
8.730670458674854
 40
8.730670458674854
 40
8.730670458674854
 40
8.730670458674854
 10
0.3657989501960088
 20
-19.634582519531
 30
0.0
 10
1.094696126704107
 20
-19.65182965356214
 30
0.0
 10
2.551465071463939
 20
-19.6862996584578
 30
0.0
 10
4.735135110704701
 20
-19.73404593334439
 30
0.0
 10
6.915799229985816
 20
-19.77880593118532
 30
0.0
 10
8.368592135791049
 20
-19.8059948206784
 30
0.0
 10
9.094497680664005
 20
-19.819580078125
 30
0.0
 11
0.3657989501960088
 21
-19.634582519531
 31
0.0
 11
2.552505493164005
 21
-19.685668945312
 31
0.0
 11
4.736206054688011
 21
-19.733581542968
 31
0.0
 11
6.916793823243004
 21
-19.77816772460899
 31
0.0
 11
9.094497680664005
 21
-19.819580078125
 31
0.0
  0
SPLINE
  5
2894
330
2833
100
AcDbEntity
  8
AM_0
100
AcDbSpline
210
0.0
220
0.0
230
1.0
 70
     8
 71
     3
 72
    11
 73
     7
 74
     5
 42
0.0000000001
 43
0.0000000001
 44
0.0000000001
 40
0.0
 40
0.0
 40
0.0
 40
0.0
 40
0.2877001883214205
 40
0.5765419899621194
 40
0.8648835947186736
 40
1.150986853180652
 40
1.150986853180652
 40
1.150986853180652
 40
1.150986853180652
 10
9.094497680664005
 20
-19.819580078125
 30
0.0
 10
9.191253769428783
 20
-19.81293448249219
 30
0.0
 10
9.385149881499014
 20
-19.79961692106486
 30
0.0
 10
9.643107105240282
 20
-19.65449167865087
 30
0.0
 10
9.844137096778013
 20
-19.43716054927987
 30
0.0
 10
9.898718805704096
 20
-19.25119152859325
 30
0.0
 10
9.925903320313004
 20
-19.15856933593699
 30
0.0
 11
9.094497680664005
 21
-19.819580078125
 31
0.0
 11
9.379302978516008
 21
-19.778869628906
 31
0.0
 11
9.633804321289005
 21
-19.642272949218
 31
0.0
 11
9.824707031250007
 21
-19.42617797851499
 31
0.0
 11
9.925903320313004
 21
-19.15856933593699
 31
0.0
  0
SPLINE
  5
2895
330
2833
100
AcDbEntity
  8
AM_0
100
AcDbSpline
210
0.0
220
0.0
230
1.0
 70
     8
 71
     3
 72
    11
 73
     7
 74
     5
 42
0.0000000001
 43
0.0000000001
 44
0.0000000001
 40
0.0
 40
0.0
 40
0.0
 40
0.0
 40
1.054422367290191
 40
2.10901709012609
 40
3.163715732602917
 40
4.218439333083441
 40
4.218439333083441
 40
4.218439333083441
 40
4.218439333083441
 10
9.925903320313004
 20
-19.15856933593699
 30
0.0
 10
9.988291465620454
 20
-18.81267660666476
 30
0.0
 10
10.11307795418179
 20
-18.12083460860448
 30
0.0
 10
10.29990186604645
 20
-17.08294311016799
 30
0.0
 10
10.48674663186697
 20
-16.04495334564097
 30
0.0
 10
10.61111109839757
 20
-15.35289814799029
 30
0.0
 10
10.673294067383
 20
-15.006866455078
 30
0.0
 11
9.925903320313004
 21
-19.15856933593699
 31
0.0
 11
10.113006591797
 21
-18.120880126953
 31
0.0
 11
10.299896240235
 21
-17.082977294921
 31
0.0
 11
10.486694335938
 21
-16.044952392578
 31
0.0
 11
10.673294067383
 21
-15.006866455078
 31
0.0
  0
SPLINE
  5
2896
330
2833
100
AcDbEntity
  8
AM_0
100
AcDbSpline
210
0.0
220
0.0
230
1.0
 70
     8
 71
     3
 72
    11
 73
     7
 74
     5
 42
0.0000000001
 43
0.0000000001
 44
0.0000000001
 40
0.0
 40
0.0
 40
0.0
 40
0.0
 40
0.1531623653938367
 40
0.3063978571434825
 40
0.459355935468654
 40
0.6117187707499989
 40
0.6117187707499989
 40
0.6117187707499989
 40
0.6117187707499989
 10
1.033996582032003
 20
-13.428497314453
 30
0.0
 10
0.9942543898990342
 20
-13.46082983422049
 30
0.0
 10
0.9147510309869744
 20
-13.52551031070266
 30
0.0
 10
0.8227147710567026
 20
-13.64950235066126
 30
0.0
 10
0.7538503677530074
 20
-13.78744890527437
 30
0.0
 10
0.7324707341294069
 20
-13.88732407723971
 30
0.0
 10
0.7218017578130116
 20
-13.93716430663999
 30
0.0
 11
1.033996582032003
 21
-13.428497314453
 31
0.0
 11
0.9192962646490059
 21
-13.529998779296
 31
0.0
 11
0.8265075683600002
 21
-13.65194702148399
 31
0.0
 11
0.7599029541020031
 21
-13.789642333984
 31
0.0
 11
0.7218017578130116
 21
-13.93716430663999
 31
0.0
  0
SPLINE
  5
2897
330
2833
100
AcDbEntity
  8
AM_0
100
AcDbSpline
210
0.0
220
0.0
230
1.0
 70
     8
 71
     3
 72
    11
 73
     7
 74
     5
 42
0.0000000001
 43
0.0000000001
 44
0.0000000001
 40
0.0
 40
0.0
 40
0.0
 40
0.0
 40
1.051158925012385
 40
2.102542869693456
 40
3.153912877446856
 40
4.205343209453287
 40
4.205343209453287
 40
4.205343209453287
 40
4.205343209453287
 10
0.7218017578130116
 20
-13.93716430663999
 30
0.0
 10
0.6683905616248836
 20
-14.28345581628271
 30
0.0
 10
0.5615567356115394
 20
-14.97611296555829
 30
0.0
 10
0.4014904075776706
 20
-16.01516036389523
 30
0.0
 10
0.2414992035921501
 20
-17.05431086224042
 30
0.0
 10
0.1348322161253041
 20
-17.74708055731545
 30
0.0
 10
0.0814971923830115
 20
-18.093475341796
 30
0.0
 11
0.7218017578130116
 21
-13.93716430663999
 31
0.0
 11
0.5615997314460089
 21
-14.976043701171
 31
0.0
 11
0.4015045166020031
 21
-16.015167236328
 31
0.0
 11
0.2415008544930117
 21
-17.054290771484
 31
0.0
 11
0.0814971923830115
 21
-18.093475341796
 31
0.0
  0
SPLINE
  5
2898
330
2833
100
AcDbEntity
  8
AM_0
100
AcDbSpline
210
0.0
220
0.0
230
1.0
 70
     8
 71
     3
 72
    11
 73
     7
 74
     5
 42
0.0000000001
 43
0.0000000001
 44
0.0000000001
 40
0.0
 40
0.0
 40
0.0
 40
0.0
 40
0.1144737298340833
 40
0.2296227607989546
 40
0.3451903199129847
 40
0.4605774603714786
 40
0.4605774603714786
 40
0.4605774603714786
 40
0.4605774603714786
 10
0.0
 20
-19.219757080078
 30
0.0
 10
0.0002456110703035
 20
-19.25818298978877
 30
0.0
 10
0.0007382821148098
 20
-19.33526149056609
 30
0.0
 10
0.0424315641047857
 20
-19.44477931269841
 30
0.0
 10
0.1132292061851289
 20
-19.53911622562101
 30
0.0
 10
0.1801555155658468
 20
-19.57849902952843
 30
0.0
 10
0.2135925292970029
 20
-19.598175048828
 30
0.0
 11
0.0
 21
-19.219757080078
 31
0.0
 11
0.0075073242190058
 21
-19.333984375
 31
0.0
 11
0.0471954345710088
 21
-19.442077636718
 31
0.0
 11
0.1181945800790061
 21
-19.533264160156
 31
0.0
 11
0.2135925292970029
 21
-19.598175048828
 31
0.0
  0
SPLINE
  5
2899
330
2833
100
AcDbEntity
  8
AM_0
100
AcDbSpline
210
0.0
220
0.0
230
1.0
 70
    24
 71
     3
 72
     8
 73
     4
 74
     2
 42
0.0000000001
 43
0.0000000001
 44
0.0000000001
 40
0.0
 40
0.0
 40
0.0
 40
0.0
 40
1.023974418053615
 40
1.023974418053615
 40
1.023974418053615
 40
1.023974418053615
 10
9.455093383789005
 20
-9.590667724608998
 30
0.0
 10
9.559794108073006
 20
-9.26579793294233
 30
0.0
 10
9.664494832357007
 20
-8.940928141275664
 30
0.0
 10
9.769195556641008
 20
-8.616058349608998
 30
0.0
 11
9.455093383789005
 21
-9.590667724608998
 31
0.0
 11
9.769195556641008
 21
-8.616058349608998
 31
0.0
  0
LINE
  5
289A
330
2833
100
AcDbEntity
  8
AM_0
100
AcDbLine
 10
39.499992370606
 20
19.50000381469799
 30
0.0
 11
20.32119750976601
 21
19.50000381469799
 31
0.0
  0
LINE
  5
289B
330
2833
100
AcDbEntity
  8
AM_0
100
AcDbLine
 10
20.32119750976601
 20
-19.499969482421
 30
0.0
 11
39.499992370606
 21
-19.499969482421
 31
0.0
  0
LINE
  5
289C
330
2833
100
AcDbEntity
  8
AM_0
100
AcDbLine
 10
26.543399810791
 20
-9.282838821410997
 30
0.0
 11
20.649318695069
 21
-6.950147628783998
 31
0.0
  0
LWPOLYLINE
  5
289D
330
2833
100
AcDbEntity
  8
AM_11
100
AcDbPolyline
 90
        4
 70
     1
 43
0.0
 10
0.0
 20
20.000003814698
 10
9.0
 20
20.000003814698
 10
9.0
 20
-20.0
 10
0.0
 20
-20.0
1001
GENIUS_GENREC_14
1002
{
1000
PYDIR
1011
0.0
1021
-20.0
1031
0.0
1002
}
1002
{
1000
PXDIR
1011
9.0
1021
20.000003814698
1031
0.0
1002
}
1002
{
1000
PORI
1011
0.0
1021
20.000003814698
1031
0.0
1002
}
1002
{
1000
PINS
1011
0.0
1021
20.000003814698
1031
0.0
1002
}
1002
{
1000
PINS2
1011
9.0
1021
-19.99999999999999
1031
0.0
1002
}
1002
{
1000
C
1070
     1
1002
}
1001
GENIUS_GENODEF_13
1002
{
1000
HIER
1070
     0
1002
}
1002
{
1000
MANEDIT
1070
     0
1002
}
1002
{
1000
NOSEL
1070
     0
1002
}
1002
{
1000
BEHIND
1070
     0
1002
}
1002
{
1000
REACTOR
1002
}
1001
GENIUS_GENOBJ-N-REC_13
1002
{
1000
OWNER
1000
GEN
1002
}
  0
LINE
  5
289E
330
2833
100
AcDbEntity
  8
AM_0
100
AcDbLine
 10
1.225929260254005
 20
-0.0003166198729971
 30
0.0
 11
0.9758224487310087
 21
-4.264289855957002
 31
0.0
  0
LINE
  5
289F
330
2833
100
AcDbEntity
  8
AM_0
100
AcDbLine
 10
1.393981933594005
 20
-4.471485137938998
 30
0.0
 11
0.9757843017580114
 21
4.264266967773998
 31
0.0
  0
LINE
  5
28A0
330
2833
100
AcDbEntity
  8
AM_0
100
AcDbLine
 10
0.0005035400390057
 20
-6.682977676391001
 30
0.0
 11
0.6091003417970029
 21
-9.256401062011001
 31
0.0
  0
LINE
  5
28A1
330
2833
100
AcDbEntity
  8
AM_0
100
AcDbLine
 10
0.0814666748050002
 20
-11.83846855163499
 30
0.0
 11
0.5528640747070029
 21
-9.018342971801001
 31
0.0
  0
LINE
  5
28A2
330
2833
100
AcDbEntity
  8
AM_0
100
AcDbLine
 10
0.081489562989006
 20
-11.838497161865
 30
0.0
 11
-0.0000076293939912
 21
-12.56139755249
 31
0.0
  0
LINE
  5
28A3
330
2833
100
AcDbEntity
  8
AM_0
100
AcDbLine
 10
0.0814971923830115
 20
-18.093488693237
 30
0.0
 11
0.0
 21
-19.219757080078
 31
0.0
  0
LINE
  5
28A4
330
2833
100
AcDbEntity
  8
AM_0
100
AcDbLine
 10
0.0815277099610086
 20
-6.254917144774999
 30
0.0
 11
0.0000228881840059
 21
-6.658325195311999
 31
0.0
  0
LINE
  5
28A5
330
2833
100
AcDbEntity
  8
AM_0
100
AcDbLine
 10
-0.0000457763669885
 20
-6.658336639403998
 30
0.0
 11
0.0004577636720029
 21
-6.682928085326999
 31
0.0
  0
ARC
  5
28A6
330
2833
100
AcDbEntity
  8
AM_0
100
AcDbCircle
 10
9.599395751954006
 20
-14.564361572265
 30
0.0
 40
1.988853812217699
100
AcDbArc
 50
295.886072940412
 51
7.921036121037417
  0
ARC
  5
28A7
330
2833
100
AcDbEntity
  8
AM_0
100
AcDbCircle
 10
9.664398193360007
 20
-14.823944091796
 30
0.0
 40
1.988612651825
100
AcDbArc
 50
291.737743887629
 51
14.06334071803553
  0
LINE
  5
28A8
330
2833
100
AcDbEntity
  8
AM_0
100
AcDbLine
 10
9.946002960205007
 20
-19.046970367431
 30
0.0
 11
20.321201324463
 21
-19.499973297119
 31
0.0
  0
LINE
  5
28A9
330
2833
100
AcDbEntity
  8
AM_0
100
AcDbLine
 10
9.950897216797002
 20
-19.01978111266999
 30
0.0
 11
20.321201324463
 21
-19.487464904785
 31
0.0
  0
LINE
  5
28AA
330
2833
100
AcDbEntity
  8
AM_0
100
AcDbLine
 10
9.769184112549005
 20
-8.616012573241999
 30
0.0
 11
20.321174621582
 21
-9.137924194334999
 31
0.0
  0
LINE
  5
28AB
330
2833
100
AcDbEntity
  8
AM_0
100
AcDbLine
 10
0.9757995605470028
 20
-9.507843017578
 30
0.0
 11
0.9757995605470028
 21
-13.417999267578
 31
0.0
  0
LINE
  5
28AC
330
2833
100
AcDbEntity
  8
AM_0
100
AcDbLine
 10
1.161697387696008
 20
-9.527374267578
 30
0.0
 11
1.161697387696008
 21
-13.453643798828
 31
0.0
  0
ARC
  5
28AD
330
2833
100
AcDbEntity
  8
AM_0
100
AcDbCircle
 10
5.205307006836008
 20
-16.45346069335899
 30
0.0
 40
1.2499886751175
100
AcDbArc
 50
267.5010908254038
 51
87.50108900417151
  0
ARC
  5
28AE
330
2833
100
AcDbEntity
  8
AM_0
100
AcDbCircle
 10
5.121398925782003
 20
-16.539093017578
 30
0.0
 40
1.399925231933599
100
AcDbArc
 50
268.5878490544329
 51
86.34708073257
  0
ARC
  5
28AF
330
2833
100
AcDbEntity
  8
AM_0
100
AcDbCircle
 10
5.252899169922002
 20
-16.544769287109
 30
0.0
 40
1.750039100647
100
AcDbArc
 50
268.71649566745
 51
85.58220882855811
  0
LINE
  5
28B0
330
2833
100
AcDbEntity
  8
AM_0
100
AcDbLine
 10
1.161697387696008
 20
-13.453645706176
 30
0.0
 11
11.079891204834
 21
-13.904878616333
 31
0.0
  0
ARC
  5
28B1
330
2833
100
AcDbEntity
  8
AM_0
100
AcDbCircle
 10
5.205307006836008
 20
-16.45346069335899
 30
0.0
 40
1.2499886751175
100
AcDbArc
 50
87.50108900417151
 51
267.5010803527499
  0
LINE
  5
28B2
330
2833
100
AcDbEntity
  8
AM_0
100
AcDbLine
 10
0.3658142089850003
 20
-19.63454627990699
 30
0.0
 11
0.2136077880860085
 21
-19.59814071655199
 31
0.0
  0
LINE
  5
28B3
330
2833
100
AcDbEntity
  8
AM_0
100
AcDbLine
 10
0.2135848999030117
 20
-19.598188400268
 30
0.0
 11
0.3649978637700002
 21
-19.634473800659
 31
0.0
  0
LINE
  5
28B4
330
2833
100
AcDbEntity
  8
AM_0
100
AcDbLine
 10
1.161674499512002
 20
-13.453588485717
 30
0.0
 11
0.975776672364006
 21
-13.41794395446699
 31
0.0
  0
LINE
  5
28B5
330
2833
100
AcDbEntity
  8
AM_0
100
AcDbLine
 10
0.3657836914070032
 20
-12.78866195678699
 30
0.0
 11
0.9806823730470028
 21
-12.73415756225499
 31
0.0
  0
LINE
  5
28B6
330
2833
100
AcDbEntity
  8
AM_0
100
AcDbLine
 10
0.3658218383790057
 20
-12.788631439208
 30
0.0
 11
0.2136077880860085
 21
-12.780941009521
 31
0.0
  0
LINE
  5
28B7
330
2833
100
AcDbEntity
  8
AM_0
100
AcDbLine
 10
0.2136001586920031
 20
-12.780967712402
 30
0.0
 11
0.3650131225590059
 21
-12.788780212402
 31
0.0
  0
ARC
  5
28B8
330
2833
100
AcDbEntity
  8
AM_0
100
AcDbCircle
 10
9.664398193360007
 20
-14.823944091796
 30
0.0
 40
2.000046014785799
100
AcDbArc
 50
14.06334071803553
 51
27.3403968890078
  0
LINE
  5
28B9
330
2833
100
AcDbEntity
  8
AM_0
100
AcDbLine
 10
10.673278808594
 20
-15.00687408447199
 30
0.0
 11
10.782287597657
 21
-13.89139938354399
 31
0.0
  0
LINE
  5
28BA
330
2833
100
AcDbEntity
  8
AM_0
100
AcDbLine
 10
8.514205932618004
 20
-10.18943786621
 30
0.0
 11
1.024589538575
 21
-9.514938354491999
 31
0.0
  0
LINE
  5
28BB
330
2833
100
AcDbEntity
  8
AM_0
100
AcDbLine
 10
8.521690368653004
 20
-10.14581108093199
 30
0.0
 11
1.028999328614006
 21
-9.471128463744999
 31
0.0
  0
LINE
  5
28BC
330
2833
100
AcDbEntity
  8
AM_0
100
AcDbLine
 10
0.7094802856450002
 20
-9.367944717406999
 30
0.0
 11
0.8703765869140056
 21
-9.468832015991001
 31
0.0
  0
LINE
  5
28BD
330
2833
100
AcDbEntity
  8
AM_0
100
AcDbLine
 10
0.6094055175790061
 20
-9.257541656493998
 30
0.0
 11
0.6090927124030117
 21
-9.256423950194999
 31
0.0
  0
LINE
  5
28BE
330
2833
100
AcDbEntity
  8
AM_0
100
AcDbLine
 10
0.9844665527350002
 20
-9.465328216551998
 30
0.0
 11
1.02897644043
 21
-9.471065521239999
 31
0.0
  0
LINE
  5
28BF
330
2833
100
AcDbEntity
  8
AM_0
100
AcDbLine
 10
3.237594604493011
 20
-4.557765960692996
 30
0.0
 11
1.393997192383011
 21
-4.471462249754999
 31
0.0
  0
LINE
  5
28C0
330
2833
100
AcDbEntity
  8
AM_0
100
AcDbLine
 10
0.3657836914070032
 20
-6.845785140991001
 30
0.0
 11
0.2135925292970029
 21
-6.817161560058
 31
0.0
  0
LINE
  5
28C1
330
2833
100
AcDbEntity
  8
AM_0
100
AcDbLine
 10
0.2135543823250003
 20
-6.817173004149999
 30
0.0
 11
0.3649673461920031
 21
-6.845800399779999
 31
0.0
  0
LINE
  5
28C2
330
2833
100
AcDbEntity
  8
AM_0
100
AcDbLine
 10
0.9757995605470028
 20
-4.668243408202997
 30
0.0
 11
0.9757995605470028
 21
-4.264251708983998
 31
0.0
  0
LINE
  5
28C3
330
2833
100
AcDbEntity
  8
AM_0
100
AcDbLine
 10
1.394004821778011
 20
-4.471481323242002
 30
0.0
 11
1.378616333008011
 21
-4.604351043701001
 31
0.0
  0
LINE
  5
28C4
330
2833
100
AcDbEntity
  8
AM_0
100
AcDbLine
 10
9.355018615723004
 20
-9.868976593016999
 30
0.0
 11
9.923309326172002
 21
-8.063095092773
 31
0.0
  0
LINE
  5
28C5
330
2833
100
AcDbEntity
  8
AM_0
100
AcDbLine
 10
9.906925201416008
 20
-8.115127563476001
 30
0.0
 11
9.769214630127002
 21
-8.616043090819999
 31
0.0
  0
LINE
  5
28C6
330
2833
100
AcDbEntity
  8
AM_0
100
AcDbLine
 10
8.882102966309005
 20
-10.134763717651
 30
0.0
 11
8.765316009522003
 21
-10.18615341186499
 31
0.0
  0
LINE
  5
28C7
330
2833
100
AcDbEntity
  8
AM_0
100
AcDbLine
 10
8.517887115479005
 20
-10.15256690978999
 30
0.0
 11
8.521678924561008
 21
-10.145805358886
 31
0.0
  0
LINE
  5
28C8
330
2833
100
AcDbEntity
  8
AM_0
100
AcDbLine
 10
8.521701812745007
 20
-10.145614624023
 30
0.0
 11
8.547195434571008
 21
-10.14762878417899
 31
0.0
  0
LINE
  5
28C9
330
2833
100
AcDbEntity
  8
AM_0
100
AcDbLine
 10
9.523212432862003
 20
-9.334409713744999
 30
0.0
 11
9.455116271973004
 21
-9.590682983398
 31
0.0
  0
LINE
  5
28CA
330
2833
100
AcDbEntity
  8
AM_0
100
AcDbLine
 10
8.938587188721008
 20
-10.144836425781
 30
0.0
 11
9.402294158936008
 21
-10.18585395812899
 31
0.0
  0
LINE
  5
28CB
330
2833
100
AcDbEntity
  8
AM_0
100
AcDbLine
 10
10.673252105713
 20
-5.423824310302002
 30
0.0
 11
10.783164978028
 21
-4.707874298094999
 31
0.0
  0
LINE
  5
28CC
330
2833
100
AcDbEntity
  8
AM_0
100
AcDbLine
 10
10.425693511963
 20
-4.428993225097002
 30
0.0
 11
10.577892303467
 21
-4.457679748534999
 31
0.0
  0
LINE
  5
28CD
330
2833
100
AcDbEntity
  8
AM_0
100
AcDbLine
 10
10.577899932862
 20
-4.457656860351001
 30
0.0
 11
10.426498413086
 21
-4.429031372069999
 31
0.0
  0
LINE
  5
28CE
330
2833
100
AcDbEntity
  8
AM_0
100
AcDbLine
 10
9.923236846924005
 20
-8.063142776488998
 30
0.0
 11
9.925853729248004
 21
-8.054208755493
 31
0.0
  0
LINE
  5
28CF
330
2833
100
AcDbEntity
  8
AM_0
100
AcDbLine
 10
10.779083251954
 20
-4.911125183104999
 30
0.0
 11
10.752182006836
 21
-4.909843444823998
 31
0.0
  0
LINE
  5
28D0
330
2833
100
AcDbEntity
  8
AM_0
100
AcDbLine
 10
20.32119750976601
 20
-9.137969970703
 30
0.0
 11
20.32119750976601
 21
-16.411163330078
 31
0.0
  0
LINE
  5
28D1
330
2833
100
AcDbEntity
  8
AM_0
100
AcDbLine
 10
20.321228027344
 20
-16.41116142272899
 30
0.0
 11
20.885223388672
 21
-16.71498870849599
 31
0.0
  0
LINE
  5
28D2
330
2833
100
AcDbEntity
  8
AM_0
100
AcDbLine
 10
20.32119750976601
 20
-19.48745727539
 30
0.0
 11
20.32119750976601
 21
-19.499969482421
 31
0.0
  0
LINE
  5
28D3
330
2833
100
AcDbEntity
  8
AM_0
100
AcDbLine
 10
0.081489562989006
 20
11.838497161866
 30
0.0
 11
0.7347946167000004
 21
7.930015563965
 31
0.0
  0
LINE
  5
28D4
330
2833
100
AcDbEntity
  8
AM_0
100
AcDbLine
 10
0.5528564453130116
 20
9.018405914307003
 30
0.0
 11
0.0004577636720029
 21
6.683006286622003
 31
0.0
  0
LINE
  5
28D5
330
2833
100
AcDbEntity
  8
AM_0
100
AcDbLine
 10
0.0814361572270031
 20
6.255039215087997
 30
0.0
 11
0.7347488403320029
 21
7.776962280273998
 31
0.0
  0
LINE
  5
28D6
330
2833
100
AcDbEntity
  8
AM_0
100
AcDbLine
 10
0.0814743042000004
 20
18.09349441528399
 30
0.0
 11
0.7347869873050002
 21
15.706871032715
 31
0.0
  0
LINE
  5
28D7
330
2833
100
AcDbEntity
  8
AM_0
100
AcDbLine
 10
0.0814666748050002
 20
11.83856964111399
 30
0.0
 11
-0.0000305175779971
 21
12.56147003173899
 31
0.0
  0
LINE
  5
28D8
330
2833
100
AcDbEntity
  8
AM_0
100
AcDbLine
 10
-0.0000381469719883
 20
6.658348083497003
 30
0.0
 11
0.0004577636720029
 21
6.682941436767997
 31
0.0
  0
LINE
  5
28D9
330
2833
100
AcDbEntity
  8
AM_0
100
AcDbLine
 10
0.0814819335940058
 20
6.255065917968998
 30
0.0
 11
-0.0000076293939912
 21
6.658416748047002
 31
0.0
  0
LINE
  5
28DA
330
2833
100
AcDbEntity
  8
AM_0
100
AcDbLine
 10
0.0814819335940058
 20
18.093482971192
 30
0.0
 11
-0.0000076293939912
 21
19.219749450684
 31
0.0
  0
LINE
  5
28DB
330
2833
100
AcDbEntity
  8
AM_0
100
AcDbLine
 10
9.769191741944005
 20
10.395477294922
 30
0.0
 11
20.321201324463
 21
10.34945678711
 31
0.0
  0
LINE
  5
28DC
330
2833
100
AcDbEntity
  8
AM_0
100
AcDbLine
 10
1.161697387696008
 20
4.475498199462997
 30
0.0
 11
11.079891204834
 21
4.383152008057003
 31
0.0
  0
LINE
  5
28DD
330
2833
100
AcDbEntity
  8
AM_0
100
AcDbLine
 10
8.514205932618004
 20
8.944736480712997
 30
0.0
 11
1.024597167969005
 21
9.292209625245
 31
0.0
  0
LINE
  5
28DE
330
2833
100
AcDbEntity
  8
AM_0
100
AcDbLine
 10
8.521705627442003
 20
9.19739151001
 30
0.0
 11
1.029014587403011
 21
9.544986724853998
 31
0.0
  0
LINE
  5
28DF
330
2833
100
AcDbEntity
  8
AM_0
100
AcDbLine
 10
0.9479141235360089
 20
7.689819335937997
 30
0.0
 11
0.8164138793950002
 21
9.195808410645
 31
0.0
  0
LINE
  5
28E0
330
2833
100
AcDbEntity
  8
AM_0
100
AcDbLine
 10
0.6094894409180114
 20
9.364479064942003
 30
0.0
 11
0.7347946167000004
 21
7.929996490478998
 31
0.0
  0
LINE
  5
28E1
330
2833
100
AcDbEntity
  8
AM_0
100
AcDbLine
 10
0.7068099975590059
 20
8.097576141357997
 30
0.0
 11
0.734809875489006
 21
7.776893615722997
 31
0.0
  0
LINE
  5
28E2
330
2833
100
AcDbEntity
  8
AM_0
100
AcDbLine
 10
1.161697387696008
 20
9.211185455322997
 30
0.0
 11
1.161697387696008
 21
4.475524902343998
 31
0.0
  0
LINE
  5
28E3
330
2833
100
AcDbEntity
  8
AM_0
100
AcDbLine
 10
0.9757995605470028
 20
9.120426177978998
 30
0.0
 11
0.9757995605470028
 21
4.264282226562997
 31
0.0
  0
LINE
  5
28E4
330
2833
100
AcDbEntity
  8
AM_0
100
AcDbLine
 10
1.161636352539005
 20
4.4755859375
 30
0.0
 11
0.9757308959960084
 21
4.264335632325
 31
0.0
  0
LINE
  5
28E5
330
2833
100
AcDbEntity
  8
AM_0
100
AcDbLine
 10
0.9661941528320028
 20
7.16748046875
 30
0.0
 11
0.9740905761720028
 21
7.158210754395
 31
0.0
  0
LINE
  5
28E6
330
2833
100
AcDbEntity
  8
AM_0
100
AcDbLine
 10
0.9082183837890056
 20
7.28122329712
 30
0.0
 11
0.9126129150390056
 21
7.26502609253
 31
0.0
  0
LINE
  5
28E7
330
2833
100
AcDbEntity
  8
AM_0
100
AcDbLine
 10
0.9661941528320028
 20
7.167545318603998
 30
0.0
 11
0.9757995605470028
 21
7.160884857177997
 31
0.0
  0
LINE
  5
28E8
330
2833
100
AcDbEntity
  8
AM_0
100
AcDbLine
 10
0.9757919311530116
 20
7.586326599122003
 30
0.0
 11
0.947891235352003
 21
7.689868927002002
 31
0.0
  0
LINE
  5
28E9
330
2833
100
AcDbEntity
  8
AM_0
100
AcDbLine
 10
0.7555694580080115
 20
7.846549987792997
 30
0.0
 11
0.9081802368170031
 21
7.281211853027997
 31
0.0
  0
LINE
  5
28EA
330
2833
100
AcDbEntity
  8
AM_0
100
AcDbLine
 10
0.9081726074220028
 20
7.281215667725
 30
0.0
 11
0.9757690429690057
 21
7.226097106933998
 31
0.0
  0
LINE
  5
28EB
330
2833
100
AcDbEntity
  8
AM_0
100
AcDbLine
 10
0.7348327636720029
 20
7.930030822753998
 30
0.0
 11
0.755615234375
 21
7.846584320068998
 31
0.0
  0
LINE
  5
28EC
330
2833
100
AcDbEntity
  8
AM_0
100
AcDbLine
 10
0.7555770874030117
 20
7.846523284912997
 30
0.0
 11
0.9478759765630115
 21
7.689849853516001
 31
0.0
  0
LINE
  5
28ED
330
2833
100
AcDbEntity
  8
AM_0
100
AcDbLine
 10
0.734809875489006
 20
7.776908874512002
 30
0.0
 11
0.7556076049810088
 21
7.7177734375
 31
0.0
  0
LINE
  5
28EE
330
2833
100
AcDbEntity
  8
AM_0
100
AcDbLine
 10
0.755668640137003
 20
7.717796325683998
 30
0.0
 11
0.7838668823250004
 21
7.742031097412997
 31
0.0
  0
LINE
  5
28EF
330
2833
100
AcDbEntity
  8
AM_0
100
AcDbLine
 10
0.7555999755860086
 20
7.717735290527997
 30
0.0
 11
0.908203125
 21
7.166572570801001
 31
0.0
  0
LINE
  5
28F0
330
2833
100
AcDbEntity
  8
AM_0
100
AcDbLine
 10
0.9081802368170031
 20
7.166652679443998
 30
0.0
 11
0.9443817138680117
 21
7.197849273682003
 31
0.0
  0
LINE
  5
28F1
330
2833
100
AcDbEntity
  8
AM_0
100
AcDbLine
 10
0.9081878662110085
 20
7.16658782959
 30
0.0
 11
0.9125823974610085
 21
7.149879455567003
 31
0.0
  0
LINE
  5
28F2
330
2833
100
AcDbEntity
  8
AM_0
100
AcDbLine
 10
0.966201782227003
 20
7.046039581298998
 30
0.0
 11
0.9757995605470028
 21
7.056411743165
 31
0.0
  0
LINE
  5
28F3
330
2833
100
AcDbEntity
  8
AM_0
100
AcDbLine
 10
0.9661788940430113
 20
7.046020507812997
 30
0.0
 11
0.9740905761720028
 21
7.036605834961001
 31
0.0
  0
LINE
  5
28F4
330
2833
100
AcDbEntity
  8
AM_0
100
AcDbLine
 10
1.161651611329006
 20
9.211254119873999
 30
0.0
 11
0.9757614135750003
 21
9.120498657227003
 31
0.0
  0
LINE
  5
28F5
330
2833
100
AcDbEntity
  8
AM_0
100
AcDbLine
 10
0.609428405762003
 20
9.422718048096001
 30
0.0
 11
0.607719421387003
 21
9.383754730225
 31
0.0
  0
LINE
  5
28F6
330
2833
100
AcDbEntity
  8
AM_0
100
AcDbLine
 10
0.6076965332040061
 20
9.383800506592002
 30
0.0
 11
0.6094970703130116
 21
9.364536285401001
 31
0.0
  0
LINE
  5
28F7
330
2833
100
AcDbEntity
  8
AM_0
100
AcDbLine
 10
0.9844894409180113
 20
9.549156188965
 30
0.0
 11
1.029006958008011
 21
9.54500579834
 31
0.0
  0
LINE
  5
28F8
330
2833
100
AcDbEntity
  8
AM_0
100
AcDbLine
 10
8.882122039795007
 20
9.153831481933998
 30
0.0
 11
8.765335083008004
 21
8.907501220703998
 31
0.0
  0
LINE
  5
28F9
330
2833
100
AcDbEntity
  8
AM_0
100
AcDbLine
 10
8.517902374268004
 20
9.15699005127
 30
0.0
 11
8.521701812745007
 21
9.197402954102003
 31
0.0
  0
LINE
  5
28FA
330
2833
100
AcDbEntity
  8
AM_0
100
AcDbLine
 10
8.521713256836008
 20
9.197422027587997
 30
0.0
 11
8.547199249268004
 21
9.19675064087
 31
0.0
  0
LINE
  5
28FB
330
2833
100
AcDbEntity
  8
AM_0
100
AcDbLine
 10
9.925884246827003
 20
11.104434967042
 30
0.0
 11
10.275783538819
 21
10.393859863282
 31
0.0
  0
LINE
  5
28FC
330
2833
100
AcDbEntity
  8
AM_0
100
AcDbLine
 10
9.304542541504005
 20
8.911987304687997
 30
0.0
 11
9.203830718995007
 21
8.830505371093998
 31
0.0
  0
LINE
  5
28FD
330
2833
100
AcDbEntity
  8
AM_0
100
AcDbLine
 10
9.178836822510007
 20
9.028282165527997
 30
0.0
 11
9.005653381348004
 21
8.840110778808998
 31
0.0
  0
LINE
  5
28FE
330
2833
100
AcDbEntity
  8
AM_0
100
AcDbLine
 10
8.938594818116008
 20
8.843147277832997
 30
0.0
 11
9.402294158936008
 21
8.820930480957997
 31
0.0
  0
LINE
  5
28FF
330
2833
100
AcDbEntity
  8
AM_0
100
AcDbLine
 10
20.32119750976601
 20
10.349491119385
 30
0.0
 11
20.32119750976601
 21
0.9154357910160015
 31
0.0
  0
LINE
  5
2900
330
2833
100
AcDbEntity
  8
AM_0
100
AcDbLine
 10
20.32117843628
 20
0.9154357910160015
 30
0.0
 11
20.885177612305
 21
0.339939117432003
 31
0.0
  0
LINE
  5
2901
330
2833
100
AcDbEntity
  8
AM_0
100
AcDbLine
 10
20.321201324463
 20
19.499977111817
 30
0.0
 11
9.480106353760007
 21
19.02664947509799
 31
0.0
  0
LINE
  5
2902
330
2833
100
AcDbEntity
  8
AM_0
100
AcDbLine
 10
1.161689758301008
 20
17.929183959961
 30
0.0
 11
11.079887390137
 21
18.288070678711
 31
0.0
  0
LINE
  5
2903
330
2833
100
AcDbEntity
  8
AM_0
100
AcDbLine
 10
8.521690368653004
 20
19.34310531616299
 30
0.0
 11
1.028999328614006
 21
19.01601791381899
 31
0.0
  0
LINE
  5
2904
330
2833
100
AcDbEntity
  8
AM_0
100
AcDbLine
 10
8.514202117920007
 20
19.13427734375
 30
0.0
 11
1.024604797364006
 21
18.80725097656299
 31
0.0
  0
ARC
  5
2905
330
2833
100
AcDbEntity
  8
AM_0
100
AcDbCircle
 10
5.205307006836008
 20
16.453495025635
 30
0.0
 40
1.2498424053192
100
AcDbArc
 50
101.5805472611001
 51
261.4050818769997
  0
LINE
  5
2906
330
2833
100
AcDbEntity
  8
AM_0
100
AcDbLine
 10
1.235717773438011
 20
12.66513824462899
 30
0.0
 11
0.9758148193360085
 21
17.68239593505899
 31
0.0
  0
LINE
  5
2907
330
2833
100
AcDbEntity
  8
AM_0
100
AcDbLine
 10
0.6095046997070029
 20
18.57586669921899
 30
0.0
 11
0.7348175048830115
 21
15.706958770752
 31
0.0
  0
LINE
  5
2908
330
2833
100
AcDbEntity
  8
AM_0
100
AcDbLine
 10
0.9479064941410086
 20
15.572849273682
 30
0.0
 11
0.81640625
 21
18.584812164307
 31
0.0
  0
LINE
  5
2909
330
2833
100
AcDbEntity
  8
AM_0
100
AcDbLine
 10
1.034461975098011
 20
13.429378509522
 30
0.0
 11
0.9757690429690057
 21
13.418087005616
 31
0.0
  0
LINE
  5
290A
330
2833
100
AcDbEntity
  8
AM_0
100
AcDbLine
 10
1.225868225098011
 20
12.885238647461
 30
0.0
 11
0.9757614135750003
 21
13.41808319091799
 31
0.0
  0
LINE
  5
290B
330
2833
100
AcDbEntity
  8
AM_0
100
AcDbLine
 10
0.2135848999030117
 20
12.78105163574299
 30
0.0
 11
0.364990234375
 21
12.78886413574299
 31
0.0
  0
LINE
  5
290C
330
2833
100
AcDbEntity
  8
AM_0
100
AcDbLine
 10
0.9757995605470028
 20
12.771427154542
 30
0.0
 11
0.9757995605470028
 21
13.418033599854
 31
0.0
  0
LINE
  5
290D
330
2833
100
AcDbEntity
  8
AM_0
100
AcDbLine
 10
1.092605590821008
 20
14.00538635254
 30
0.0
 11
1.142311096192003
 21
13.952217102051
 31
0.0
  0
LINE
  5
290E
330
2833
100
AcDbEntity
  8
AM_0
100
AcDbLine
 10
0.7347869873050002
 20
15.70693588256899
 30
0.0
 11
0.7555847167970029
 21
15.564403533936
 31
0.0
  0
LINE
  5
290F
330
2833
100
AcDbEntity
  8
AM_0
100
AcDbLine
 10
1.092605590821008
 20
14.00535964965899
 30
0.0
 11
1.144500732422002
 21
14.046005249024
 31
0.0
  0
LINE
  5
2910
330
2833
100
AcDbEntity
  8
AM_0
100
AcDbLine
 10
0.9081802368170031
 20
14.447925567627
 30
0.0
 11
0.9125747680670031
 21
14.414829254151
 31
0.0
  0
LINE
  5
2911
330
2833
100
AcDbEntity
  8
AM_0
100
AcDbLine
 10
0.9661941528320028
 20
14.213565826417
 30
0.0
 11
1.135192871094005
 21
14.27698516845799
 31
0.0
  0
LINE
  5
2912
330
2833
100
AcDbEntity
  8
AM_0
100
AcDbLine
 10
0.7555999755860086
 20
15.564380645752
 30
0.0
 11
0.9479064941410086
 21
15.572803497315
 31
0.0
  0
LINE
  5
2913
330
2833
100
AcDbEntity
  8
AM_0
100
AcDbLine
 10
0.7556304931640057
 20
15.564380645752
 30
0.0
 11
0.908233642579006
 21
14.44786834716799
 31
0.0
  0
LINE
  5
2914
330
2833
100
AcDbEntity
  8
AM_0
100
AcDbLine
 10
0.908203125
 20
14.447830200196
 30
0.0
 11
1.100402832032003
 21
14.45625305175799
 31
0.0
  0
LINE
  5
2915
330
2833
100
AcDbEntity
  8
AM_0
100
AcDbLine
 10
1.100387573243011
 20
14.456298828125
 30
0.0
 11
0.947891235352003
 21
15.572822570801
 31
0.0
  0
ARC
  5
2916
330
2833
100
AcDbEntity
  8
AM_0
100
AcDbCircle
 10
1.034606933594005
 20
18.578800201417
 30
0.0
 40
0.2286188155413
100
AcDbArc
 50
92.50696879781854
 51
123.0501472565804
  0
ARC
  5
2917
330
2833
100
AcDbEntity
  8
AM_0
100
AcDbCircle
 10
1.020492553711008
 20
18.60040664672899
 30
0.0
 40
0.2026727944613
100
AcDbArc
 50
123.0392735954195
 51
155.6521564670435
  0
ARC
  5
2918
330
2833
100
AcDbEntity
  8
AM_0
100
AcDbCircle
 10
1.048904418946008
 20
18.587589263917
 30
0.0
 40
0.2334432005882
100
AcDbArc
 50
155.6636994867444
 51
168.555230752659
  0
ARC
  5
2919
330
2833
100
AcDbEntity
  8
AM_0
100
AcDbCircle
 10
1.019104003907003
 20
18.593631744385
 30
0.0
 40
0.2029416114092
100
AcDbArc
 50
168.5461056199242
 51
182.4858796781371
  0
LINE
  5
291A
330
2833
100
AcDbEntity
  8
AM_0
100
AcDbLine
 10
1.161682128907003
 20
18.663028717042
 30
0.0
 11
0.9757919311530116
 21
18.454784393311
 31
0.0
  0
LINE
  5
291B
330
2833
100
AcDbEntity
  8
AM_0
100
AcDbLine
 10
1.16170501709
 20
17.929225921631
 30
0.0
 11
0.9758148193360085
 21
17.682407379151
 31
0.0
  0
LINE
  5
291C
330
2833
100
AcDbEntity
  8
AM_0
100
AcDbLine
 10
1.161697387696008
 20
18.663028717042
 30
0.0
 11
1.161697387696008
 21
17.92920303344799
 31
0.0
  0
LINE
  5
291D
330
2833
100
AcDbEntity
  8
AM_0
100
AcDbLine
 10
0.213569641114006
 20
19.59830093383799
 30
0.0
 11
0.364990234375
 21
19.63462066650399
 31
0.0
  0
LINE
  5
291E
330
2833
100
AcDbEntity
  8
AM_0
100
AcDbLine
 10
0.609375
 20
18.680168151856
 30
0.0
 11
0.607666015625
 21
18.611648559571
 31
0.0
  0
LINE
  5
291F
330
2833
100
AcDbEntity
  8
AM_0
100
AcDbLine
 10
0.607666015625
 20
18.611522674561
 30
0.0
 11
0.6094665527350003
 21
18.575801849366
 31
0.0
  0
LINE
  5
2920
330
2833
100
AcDbEntity
  8
AM_0
100
AcDbLine
 10
0.9844894409180113
 20
19.01456069946299
 30
0.0
 11
1.029006958008011
 21
19.01602554321299
 31
0.0
  0
LINE
  5
2921
330
2833
100
AcDbEntity
  8
AM_0
100
AcDbLine
 10
0.9757995605470028
 20
18.454776763917
 30
0.0
 11
0.9757995605470028
 21
17.68237686157299
 31
0.0
  0
LINE
  5
2922
330
2833
100
AcDbEntity
  8
AM_0
100
AcDbLine
 10
8.882064819336008
 20
19.28857040405299
 30
0.0
 11
8.765281677246008
 21
19.093818664551
 31
0.0
  0
LINE
  5
2923
330
2833
100
AcDbEntity
  8
AM_0
100
AcDbLine
 10
8.521694183350007
 20
19.34302139282299
 30
0.0
 11
8.547187805176008
 21
19.34436416626
 31
0.0
  0
LINE
  5
2924
330
2833
100
AcDbEntity
  8
AM_0
100
AcDbLine
 10
8.517944335938004
 20
19.30948257446299
 30
0.0
 11
8.521747589112003
 21
19.34308242797899
 31
0.0
  0
LINE
  5
2925
330
2833
100
AcDbEntity
  8
AM_0
100
AcDbLine
 10
9.925888061524005
 20
19.158618927002
 30
0.0
 11
9.945991516114006
 21
19.046951293946
 31
0.0
  0
LINE
  5
2926
330
2833
100
AcDbEntity
  8
AM_0
100
AcDbLine
 10
9.178886413575007
 20
19.073993682862
 30
0.0
 11
9.058589935303004
 21
18.993003845215
 31
0.0
  0
LINE
  5
2927
330
2833
100
AcDbEntity
  8
AM_0
100
AcDbLine
 10
20.32119750976601
 20
17.326625823975
 30
0.0
 11
20.885219573975
 21
17.05488586425799
 31
0.0
  0
LINE
  5
2928
330
2833
100
AcDbEntity
  8
AM_0
100
AcDbLine
 10
20.32119750976601
 20
19.50000381469799
 30
0.0
 11
20.32119750976601
 21
17.326602935792
 31
0.0
  0
LINE
  5
2929
330
2833
100
AcDbEntity
  8
AM_0
100
AcDbLine
 10
43.0
 20
16.00000381469799
 30
0.0
 11
43.0
 21
-15.999969482421
 31
0.0
  0
LINE
  5
292A
330
2833
100
AcDbEntity
  8
AM_0
100
AcDbLine
 10
39.50000000000001
 20
19.50000381469799
 30
0.0
 11
39.50000000000001
 21
-19.499969482421
 31
0.0
  0
LINE
  5
292B
330
2833
100
AcDbEntity
  8
AM_0
100
AcDbLine
 10
40.0
 20
19.00000381469799
 30
0.0
 11
40.0
 21
-18.999969482421
 31
0.0
  0
LINE
  5
292C
330
2833
100
AcDbEntity
  8
AM_0
100
AcDbLine
 10
39.99999237060601
 20
-15.499969482421
 30
0.0
 11
42.99999237060601
 21
-15.499969482421
 31
0.0
  0
LINE
  5
292D
330
2833
100
AcDbEntity
  8
AM_0
100
AcDbLine
 10
39.50000762939501
 20
-19.49996185302699
 30
0.0
 11
39.99999809265201
 21
-18.99997138976999
 31
0.0
  0
LINE
  5
292E
330
2833
100
AcDbEntity
  8
AM_0
100
AcDbLine
 10
42.99999237060601
 20
15.50000381469799
 30
0.0
 11
39.99999237060601
 21
15.50000381469799
 31
0.0
  0
LINE
  5
292F
330
2833
100
AcDbEntity
  8
AM_0
100
AcDbLine
 10
39.999961853028
 20
18.99996185302799
 30
0.0
 11
39.499950408936
 21
19.49997329712
 31
0.0
  0
LINE
  5
2930
330
2833
100
AcDbEntity
  8
AM_0
100
AcDbLine
 10
124.999999999999
 20
13.661502838135
 30
0.0
 11
124.999999999999
 21
-13.661499023437
 31
0.0
  0
LINE
  5
2931
330
2833
100
AcDbEntity
  8
AM_0
100
AcDbLine
 10
121.9999999999989
 20
16.00000381469799
 30
0.0
 11
121.9999999999989
 21
-16.0
 31
0.0
  0
ARC
  5
2932
330
2833
100
AcDbEntity
  8
AM_0
100
AcDbCircle
 10
122.9999999999989
 20
-13.661499023437
 30
0.0
 40
2.000036954879799
100
AcDbArc
 50
284.9985874788711
 51
0.0
  0
LINE
  5
2933
330
2833
100
AcDbEntity
  8
AM_0
100
AcDbLine
 10
121.999973297119
 20
-15.999990463256
 30
0.0
 11
123.517570495605
 21
-15.59340476989699
 31
0.0
  0
ARC
  5
2934
330
2833
100
AcDbEntity
  8
AM_0
100
AcDbCircle
 10
122.9999999999989
 20
13.661502838135
 30
0.0
 40
2.0
100
AcDbArc
 50
0.0
 51
75.00141252112884
  0
LINE
  5
2935
330
2833
100
AcDbEntity
  8
AM_0
100
AcDbLine
 10
123.517593383789
 20
15.59342956543
 30
0.0
 11
121.9999961853019
 21
16.00001525879
 31
0.0
  0
ENDBLK
  5
2937
330
2833
100
AcDbEntity
  8
0
100
AcDbBlockEnd
  0
BLOCK
  5
2A0C
330
2A02
100
AcDbEntity
  8
0
100
AcDbBlockBegin
  2
*D11
 70
     1
 10
0.0
 20
0.0
 30
0.0
  3
*D11
  1

  0
LINE
  5
2A8F
330
2A02
100
AcDbEntity
  8
AM_5
 62
     3
100
AcDbLine
 10
-9.000000000000001
 20
20.00000000000007
 30
0.0
 11
-9.0
 21
35.00000100000006
 31
0.0
  0
LINE
  5
2A90
330
2A02
100
AcDbEntity
  8
AM_5
 62
     3
100
AcDbLine
 10
0.0
 20
20.00000000000007
 30
0.0
 11
0.0000000000000009
 21
35.00000100000006
 31
0.0
  0
LINE
  5
2A91
330
2A02
100
AcDbEntity
  8
AM_5
 62
     3
100
AcDbLine
 10
-6.500000000000001
 20
34.00000100000006
 30
0.0
 11
-2.499999999999999
 21
34.00000100000006
 31
0.0
  0
INSERT
  5
2A92
330
2A02
100
AcDbEntity
  8
AM_5
 62
     3
100
AcDbBlockReference
  2
_OPEN30
 10
-9.000000000000001
 20
34.00000100000006
 30
0.0
 41
2.5
 42
2.5
 43
2.5
 50
180.0
  0
INSERT
  5
2A93
330
2A02
100
AcDbEntity
  8
AM_5
 62
     3
100
AcDbBlockReference
  2
_OPEN30
 10
0.0000000000000009
 20
34.00000100000006
 30
0.0
 41
2.5
 42
2.5
 43
2.5
  0
MTEXT
  5
2A94
330
2A02
100
AcDbEntity
  8
AM_5
 62
     2
100
AcDbMText
 10
-4.5
 20
37.40000100000006
 30
0.0
 40
3.799999999999999
 41
0.0
 71
     5
 72
     1
  1
9
1001
ACAD
1000
MTEXTBEGIN
1070
    73
1070
     1
1070
    44
1040
1.0
1070
    74
1070
     0
1000
MTEXTEND
  0
POINT
  5
2A95
330
2A02
100
AcDbEntity
  8
DEFPOINTS
 62
     0
100
AcDbPoint
 10
-9.000000000000001
 20
20.00000000000007
 30
0.0
  0
POINT
  5
2A96
330
2A02
100
AcDbEntity
  8
DEFPOINTS
 62
     0
100
AcDbPoint
 10
0.0
 20
20.00000000000007
 30
0.0
  0
POINT
  5
2A97
330
2A02
100
AcDbEntity
  8
DEFPOINTS
 62
     0
100
AcDbPoint
 10
0.0000000000000009
 20
34.00000100000006
 30
0.0
  0
ENDBLK
  5
2A0D
330
2A02
100
AcDbEntity
  8
0
100
AcDbBlockEnd
  0
BLOCK
  5
32E6
330
3124
100
AcDbEntity
  8
0
100
AcDbBlockBegin
  2
A$C198162D9
 70
     0
 10
0.0
 20
0.0
 30
0.0
  3
A$C198162D9
  1

  0
SPLINE
  5
3125
330
3124
100
AcDbEntity
  8
AM_0
 48
0.5
100
AcDbSpline
210
0.0
220
0.0
230
1.0
 70
     8
 71
     3
 72
    11
 73
     7
 74
     5
 42
0.0000000001
 43
0.0000000001
 44
0.0000000001
 40
0.0
 40
0.0
 40
0.0
 40
0.0
 40
0.0564853578917424
 40
0.1129983179623058
 40
0.169495990950552
 40
0.226032487521545
 40
0.226032487521545
 40
0.226032487521545
 40
0.226032487521545
 10
-0.71866607666
 20
-19.13517379760699
 30
0.0
 10
-0.7066596401907585
 20
-19.14967745648232
 30
0.0
 10
-0.6826409001777132
 20
-19.17869186160219
 30
0.0
 10
-0.646664534055767
 20
-19.22225564682834
 30
0.0
 10
-0.6107602297542205
 20
-19.26590090778804
 30
0.0
 10
-0.5867732866978802
 20
-19.29495711187844
 30
0.0
 10
-0.5747756957999997
 20
-19.309490203857
 30
0.0
 11
-0.71866607666
 21
-19.13517379760699
 31
0.0
 11
-0.6826553344800033
 21
-19.17869186401399
 31
0.0
 11
-0.646675109870003
 21
-19.22227096557599
 31
0.0
 11
-0.61075592041
 21
-19.265880584717
 31
0.0
 11
-0.5747756957999997
 21
-19.309490203857
 31
0.0
  0
SPLINE
  5
3126
330
3124
100
AcDbEntity
  8
AM_0
 48
0.5
100
AcDbSpline
210
0.0
220
0.0
230
1.0
 70
     8
 71
     3
 72
    11
 73
     7
 74
     5
 42
0.0000000001
 43
0.0000000001
 44
0.0000000001
 40
0.0
 40
0.0
 40
0.0
 40
0.0
 40
0.0428639347318622
 40
0.0858688224580896
 40
0.1286548152666953
 40
0.1715656989553934
 40
0.1715656989553934
 40
0.1715656989553934
 40
0.1715656989553934
 10
-0.1329727172900021
 20
-13.901653289795
 30
0.0
 10
-0.1238296162579967
 20
-13.89067373759212
 30
0.0
 10
-0.1055133481845001
 20
-13.8686785282238
 30
0.0
 10
-0.0782180261896991
 20
-13.83560150439736
 30
0.0
 10
-0.0508623632391475
 20
-13.80255413493332
 30
0.0
 10
-0.0326134174715496
 20
-13.78057752867273
 30
0.0
 10
-0.0234756469800033
 20
-13.76957321167
 30
0.0
 11
-0.1329727172900021
 21
-13.901653289795
 31
0.0
 11
-0.1055679321300005
 21
-13.86869430542
 31
0.0
 11
-0.0781631469800033
 21
-13.83555221557599
 31
0.0
 11
-0.0508804321300005
 21
-13.80259323120099
 31
0.0
 11
-0.0234756469800033
 21
-13.76957321167
 31
0.0
  0
SPLINE
  5
3127
330
3124
100
AcDbEntity
  8
AM_0
 48
0.5
100
AcDbSpline
210
0.0
220
0.0
230
1.0
 70
     8
 71
     3
 72
    11
 73
     7
 74
     5
 42
0.0000000001
 43
0.0000000001
 44
0.0000000001
 40
0.0
 40
0.0
 40
0.0
 40
0.0
 40
0.0270633799024514
 40
0.0468467044478359
 40
0.0599919541783992
 40
0.0690960694681748
 40
0.0690960694681748
 40
0.0690960694681748
 40
0.0690960694681748
 10
0.0416183471700009
 20
-13.790752410889
 30
0.0
 10
0.0394096728017313
 20
-13.78193268291967
 30
0.0
 10
0.0355864579732515
 20
-13.76666573581333
 30
0.0
 10
0.0281284675438553
 20
-13.74863886882991
 30
0.0
 10
0.02021338812104
 20
-13.73550537382037
 30
0.0
 10
0.01255571164116
 20
-13.73447312987998
 30
0.0
 10
0.0094223022399973
 20
-13.734050750732
 30
0.0
 11
0.0416183471700009
 21
-13.790752410889
 31
0.0
 11
0.0343246459899973
 21
-13.76469039917
 31
0.0
 11
0.0265426635699981
 21
-13.74650192260699
 31
0.0
 11
0.0182418823199981
 21
-13.73630905151399
 31
0.0
 11
0.0094223022399973
 21
-13.734050750732
 31
0.0
  0
SPLINE
  5
3128
330
3124
100
AcDbEntity
  8
AM_0
 48
0.5
100
AcDbSpline
210
0.0
220
0.0
230
1.0
 70
     8
 71
     3
 72
    11
 73
     7
 74
     5
 42
0.0000000001
 43
0.0000000001
 44
0.0000000001
 40
0.0
 40
0.0
 40
0.0
 40
0.0
 40
0.0507345810424255
 40
0.1936745419015158
 40
0.4127387328958249
 40
0.6804374061508831
 40
0.6804374061508831
 40
0.6804374061508831
 40
0.6804374061508831
 10
2.350639343259999
 20
-13.275066375732
 30
0.0
 10
2.357625166853305
 20
-13.29049772849698
 30
0.0
 10
2.384292898338206
 20
-13.34940548167582
 30
0.0
 10
2.411048357075635
 20
-13.48540301694842
 30
0.0
 10
2.458751977902041
 20
-13.68935176177164
 30
0.0
 10
2.48705270027569
 20
-13.8492426358579
 30
0.0
 10
2.502616882319998
 20
-13.937175750732
 30
0.0
 11
2.350639343259999
 21
-13.275066375732
 31
0.0
 11
2.370628356929998
 21
-13.32169723510699
 31
0.0
 11
2.406730651849997
 21
-13.46000289917
 31
0.0
 11
2.453330993649998
 21
-13.67405319213899
 31
0.0
 11
2.502616882319998
 21
-13.937175750732
 31
0.0
  0
SPLINE
  5
3129
330
3124
100
AcDbEntity
  8
AM_0
 48
0.5
100
AcDbSpline
210
0.0
220
0.0
230
1.0
 70
     8
 71
     3
 72
    11
 73
     7
 74
     5
 42
0.0000000001
 43
0.0000000001
 44
0.0000000001
 40
0.0
 40
0.0
 40
0.0
 40
0.0
 40
0.0677228791248119
 40
0.1262089557314135
 40
0.1755888584749635
 40
0.2161456979431841
 40
0.2161456979431841
 40
0.2161456979431841
 40
0.2161456979431841
 10
0.065727233879997
 20
-14.00535202026399
 30
0.0
 10
0.0643159166428758
 20
-13.98282001429159
 30
0.0
 10
0.0616857733736486
 20
-13.94082916893681
 30
0.0
 10
0.0562184703971349
 20
-13.88255462886303
 30
0.0
 10
0.0501507245438052
 20
-13.83341811481428
 30
0.0
 10
0.0442701730680766
 20
-13.80401272670391
 30
0.0
 10
0.0416183471700009
 20
-13.790752410889
 30
0.0
 11
0.065727233879997
 21
-14.00535202026399
 31
0.0
 11
0.0611190795900001
 21
-13.937786102295
 31
0.0
 11
0.0556259155199968
 21
-13.87955856323199
 31
0.0
 11
0.049125671379997
 21
-13.83060836792
 31
0.0
 11
0.0416183471700009
 21
-13.790752410889
 31
0.0
  0
SPLINE
  5
312A
330
3124
100
AcDbEntity
  8
AM_0
 48
0.5
100
AcDbSpline
210
0.0
220
0.0
230
1.0
 70
     8
 71
     3
 72
    11
 73
     7
 74
     5
 42
0.0000000001
 43
0.0000000001
 44
0.0000000001
 40
0.0
 40
0.0
 40
0.0
 40
0.0
 40
0.0349811857612167
 40
0.0716576270901697
 40
0.110090939630714
 40
0.1503408949304855
 40
0.1503408949304855
 40
0.1503408949304855
 40
0.1503408949304855
 10
-0.1308670044000024
 20
-14.13425827026399
 30
0.0
 10
-0.1301150323568533
 20
-14.14589446768868
 30
0.0
 10
-0.1285746462585079
 20
-14.16973077505393
 30
0.0
 10
-0.1265861882671468
 20
-14.2063742748873
 30
0.0
 10
-0.1247451327241021
 20
-14.24478415337727
 30
0.0
 10
-0.1238285517156224
 20
-14.27099615956665
 30
0.0
 10
-0.1233596801800019
 20
-14.28440475463899
 30
0.0
 11
-0.1308670044000024
 21
-14.13425827026399
 31
0.0
 11
-0.1286697387700002
 21
-14.169170379639
 31
0.0
 11
-0.126655578620003
 21
-14.205791473389
 31
0.0
 11
-0.1248550415100027
 21
-14.24418258667
 31
0.0
 11
-0.1233596801800019
 21
-14.28440475463899
 31
0.0
  0
SPLINE
  5
312B
330
3124
100
AcDbEntity
  8
AM_0
 48
0.5
100
AcDbSpline
210
0.0
220
0.0
230
1.0
 70
     8
 71
     3
 72
    11
 73
     7
 74
     5
 42
0.0000000001
 43
0.0000000001
 44
0.0000000001
 40
0.0
 40
0.0
 40
0.0
 40
0.0
 40
0.055908203125
 40
0.1093198587709816
 40
0.1599984850854055
 40
0.2082053250369481
 40
0.2082053250369481
 40
0.2082053250369481
 40
0.2082053250369481
 10
0.070121765129997
 20
-14.21348190307599
 30
0.0
 10
0.0701860823172394
 20
-14.19484541909969
 30
0.0
 10
0.0703118446460727
 20
-14.15840465222831
 30
0.0
 10
0.0694161854948258
 20
-14.1050776206718
 30
0.0
 10
0.0681603312741221
 20
-14.05432425675031
 30
0.0
 10
0.0665246374946474
 20
-14.02140178402848
 30
0.0
 10
0.065727233879997
 20
-14.00535202026399
 30
0.0
 11
0.070121765129997
 21
-14.21348190307599
 31
0.0
 11
0.070121765129997
 21
-14.15757369995099
 31
0.0
 11
0.0693283080999976
 21
-14.10416793823199
 31
0.0
 11
0.0679244995099992
 21
-14.053508758545
 31
0.0
 11
0.065727233879997
 21
-14.00535202026399
 31
0.0
  0
SPLINE
  5
312C
330
3124
100
AcDbEntity
  8
AM_0
 48
0.5
100
AcDbSpline
210
0.0
220
0.0
230
1.0
 70
     8
 71
     3
 72
    11
 73
     7
 74
     5
 42
0.0000000001
 43
0.0000000001
 44
0.0000000001
 40
0.0
 40
0.0
 40
0.0
 40
0.0
 40
0.0415846991945684
 40
0.0841403868127613
 40
0.1275442047454281
 40
0.1719194498124353
 40
0.1719194498124353
 40
0.1719194498124353
 40
0.1719194498124353
 10
-0.1233596801800019
 20
-14.28440475463899
 30
0.0
 10
-0.1229187687756976
 20
-14.29825933422644
 30
0.0
 10
-0.1220266508374449
 20
-14.32629199306956
 30
0.0
 10
-0.1209287466213893
 20
-14.36879276214731
 30
0.0
 10
-0.120074456223317
 20
-14.41222993453601
 30
0.0
 10
-0.1198038524606436
 20
-14.44148854888245
 30
0.0
 10
-0.1196670532300033
 20
-14.45627975463899
 30
0.0
 11
-0.1233596801800019
 21
-14.28440475463899
 31
0.0
 11
-0.1220779419000024
 21
-14.325969696045
 31
0.0
 11
-0.1209793090799991
 21
-14.36851119995099
 31
0.0
 11
-0.1201553344800033
 21
-14.411907196045
 31
0.0
 11
-0.1196670532300033
 21
-14.45627975463899
 31
0.0
  0
SPLINE
  5
312D
330
3124
100
AcDbEntity
  8
AM_0
 48
0.5
100
AcDbSpline
210
0.0
220
0.0
230
1.0
 70
     8
 71
     3
 72
    11
 73
     7
 74
     5
 42
0.0000000001
 43
0.0000000001
 44
0.0000000001
 40
0.0
 40
0.0
 40
0.0
 40
0.0
 40
0.0515938085819795
 40
0.1024479623349952
 40
0.1523186247092934
 40
0.2013314608402123
 40
0.2013314608402123
 40
0.2013314608402123
 40
0.2013314608402123
 10
0.0665206909200009
 20
-14.41477584838899
 30
0.0
 10
0.0670071157969943
 20
-14.39758476746219
 30
0.0
 10
0.0679729921074792
 20
-14.36344905894034
 30
0.0
 10
0.0690838941040175
 20
-14.31268783886043
 30
0.0
 10
0.0697797800415063
 20
-14.26277958698788
 30
0.0
 10
0.0700084312928695
 20
-14.22981915246863
 30
0.0
 10
0.070121765129997
 20
-14.21348190307599
 30
0.0
 11
0.0665206909200009
 21
-14.41477584838899
 31
0.0
 11
0.0679244995099992
 21
-14.363201141357
 31
0.0
 11
0.0690231323199981
 21
-14.31235885620099
 31
0.0
 11
0.0697250366199995
 21
-14.262493133545
 31
0.0
 11
0.070121765129997
 21
-14.21348190307599
 31
0.0
  0
ELLIPSE
  5
312E
330
3124
100
AcDbEntity
  8
AM_0
 48
0.5
100
AcDbEllipse
 10
-0.1285629272500017
 20
-18.57877731323199
 30
0.0
 11
0.0007782039700004
 21
0.2286071793950022
 31
0.0
210
0.0
220
0.0
230
1.0
 40
0.0782939548186
 41
3.141591536992645
 42
3.759058265245071
  0
SPLINE
  5
312F
330
3124
100
AcDbEntity
  8
AM_0
 48
0.5
100
AcDbSpline
210
0.0
220
0.0
230
1.0
 70
     8
 71
     3
 72
    11
 73
     7
 74
     5
 42
0.0000000001
 43
0.0000000001
 44
0.0000000001
 40
0.0
 40
0.0
 40
0.0
 40
0.0
 40
0.0095344357508849
 40
0.0220831362268448
 40
0.0391158821183363
 40
0.0611799855780953
 40
0.0611799855780953
 40
0.0611799855780953
 40
0.0611799855780953
 10
0.0484237670900001
 20
-19.01447677612299
 30
0.0
 10
0.0514828239377423
 20
-19.0134081419804
 30
0.0
 10
0.0585680433318825
 20
-19.0109330302943
 30
0.0
 10
0.0665602700424516
 20
-18.99989402398539
 30
0.0
 10
0.0740703066249233
 20
-18.98454361067393
 30
0.0
 10
0.0780814729626218
 20
-18.9720944411632
 30
0.0
 10
0.0803451538100006
 20
-18.96506881713899
 30
0.0
 11
0.0484237670900001
 21
-19.01447677612299
 31
0.0
 11
0.0571212768499976
 21
-19.01057052612299
 31
0.0
 11
0.0653305053699995
 21
-19.00107955932599
 31
0.0
 11
0.0730209350600006
 21
-18.98588180542
 31
0.0
 11
0.0803451538100006
 21
-18.96506881713899
 31
0.0
  0
SPLINE
  5
3130
330
3124
100
AcDbEntity
  8
AM_0
 48
0.5
100
AcDbSpline
210
0.0
220
0.0
230
1.0
 70
     8
 71
     3
 72
    11
 73
     7
 74
     5
 42
0.0000000001
 43
0.0000000001
 44
0.0000000001
 40
0.0
 40
0.0
 40
0.0
 40
0.0
 40
0.1154716965514312
 40
0.2242972817275462
 40
0.3157002557577354
 40
0.3806149392880085
 40
0.3806149392880085
 40
0.3806149392880085
 40
0.3806149392880085
 10
3.40813446045
 20
-19.21976852417
 30
0.0
 10
3.414022464774518
 20
-19.25781258330809
 30
0.0
 10
3.425459582304018
 20
-19.33171103033363
 30
0.0
 10
3.437535796196049
 20
-19.43622883400552
 30
0.0
 10
3.445179903312225
 20
-19.52442222128506
 30
0.0
 10
3.443801917278899
 20
-19.57654235027152
 30
0.0
 10
3.443229675289998
 20
-19.59818649292
 30
0.0
 11
3.40813446045
 21
-19.21976852417
 31
0.0
 11
3.425041198729999
 21
-19.33399581909199
 31
0.0
 11
3.437644958489997
 21
-19.44208908081
 31
0.0
 11
3.44393157959
 21
-19.53327560424799
 31
0.0
 11
3.443229675289998
 21
-19.59818649292
 31
0.0
  0
SPLINE
  5
3131
330
3124
100
AcDbEntity
  8
AM_0
 48
0.5
100
AcDbSpline
210
0.0
220
0.0
230
1.0
 70
     8
 71
     3
 72
    11
 73
     7
 74
     5
 42
0.0000000001
 43
0.0000000001
 44
0.0000000001
 40
0.0
 40
0.0
 40
0.0
 40
0.0
 40
1.054549909818558
 40
2.109251372225381
 40
3.163832869970411
 40
4.218386135300895
 40
4.218386135300895
 40
4.218386135300895
 40
4.218386135300895
 10
2.502616882319998
 20
-13.937175750732
 30
0.0
 10
2.563026296870564
 20
-14.2834627012388
 30
0.0
 10
2.683853807593159
 20
-14.97608636820766
 30
0.0
 10
2.864453954630397
 20
-16.0151186308477
 30
0.0
 10
3.044339994192369
 20
-17.05427589026283
 30
0.0
 10
3.163863986771422
 20
-17.74708624528267
 30
0.0
 10
3.223625183099997
 20
-18.09348678588899
 30
0.0
 11
2.502616882319998
 21
-13.937175750732
 31
0.0
 11
2.683738708489997
 21
-14.976055145264
 31
0.0
 11
2.86434173584
 21
-16.01517868042
 31
0.0
 11
3.044242858879997
 21
-17.05430221557599
 31
0.0
 11
3.223625183099997
 21
-18.09348678588899
 31
0.0
  0
ELLIPSE
  5
3132
330
3124
100
AcDbEntity
  8
AM_0
 48
0.5
100
AcDbEllipse
 10
-0.1275558471700009
 20
-18.600383758545
 30
0.0
 11
0.0006866425400034
 21
0.2027893064520008
 31
0.0
210
0.0
220
0.0
230
1.0
 40
0.0784801890479
 41
3.757776849812894
 42
4.304123885818843
  0
SPLINE
  5
3133
330
3124
100
AcDbEntity
  8
AM_0
 48
0.5
100
AcDbSpline
210
0.0
220
0.0
230
1.0
 70
     8
 71
     3
 72
    11
 73
     7
 74
     5
 42
0.0000000001
 43
0.0000000001
 44
0.0000000001
 40
0.0
 40
0.0
 40
0.0
 40
0.0
 40
0.0352227588539506
 40
0.0785043025985008
 40
0.1286305557110439
 40
0.1842536871881976
 40
0.1842536871881976
 40
0.1842536871881976
 40
0.1842536871881976
 10
0.0803451538100006
 20
-18.96506881713899
 30
0.0
 10
0.08308530497881
 20
-18.9536428199519
 30
0.0
 10
0.0891925397191041
 20
-18.92817661656949
 30
0.0
 10
0.094140099086159
 20
-18.88551121086527
 30
0.0
 10
0.097966031694989
 20
-18.83597713140627
 30
0.0
 10
0.0985379714760151
 20
-18.80072122819266
 30
0.0
 10
0.098838806149999
 20
-18.78217697143499
 30
0.0
 11
0.0803451538100006
 21
-18.96506881713899
 31
0.0
 11
0.0879440307599993
 21
-18.930675506592
 31
0.0
 11
0.0936203002899987
 21
-18.88776779174799
 31
0.0
 11
0.0973434448199981
 21
-18.83777999877899
 31
0.0
 11
0.098838806149999
 21
-18.78217697143499
 31
0.0
  0
ELLIPSE
  5
3134
330
3124
100
AcDbEntity
  8
AM_0
 48
0.5
100
AcDbEllipse
 10
-0.1297683715799991
 20
-18.587566375732
 30
0.0
 11
0.0007934672299967
 21
0.2340087849430006
 31
0.0
210
0.0
220
0.0
230
1.0
 40
0.0782472506956
 41
4.304896230903332
 42
4.504198942529093
  0
SPLINE
  5
3135
330
3124
100
AcDbEntity
  8
AM_0
 48
0.5
100
AcDbSpline
210
0.0
220
0.0
230
1.0
 70
     8
 71
     3
 72
    11
 73
     7
 74
     5
 42
0.0000000001
 43
0.0000000001
 44
0.0000000001
 40
0.0
 40
0.0
 40
0.0
 40
0.0
 40
0.0248117106543963
 40
0.0501174267075874
 40
0.075929489428548
 40
0.102156236412605
 40
0.102156236412605
 40
0.102156236412605
 40
0.102156236412605
 10
0.098838806149999
 20
-18.78217697143499
 30
0.0
 10
0.0987888132608568
 20
-18.77390651940597
 30
0.0
 10
0.0986878321156071
 20
-18.75720094923483
 30
0.0
 10
0.0981414320186615
 20
-18.73189497403918
 30
0.0
 10
0.0969691400996232
 20
-18.70613824507585
 30
0.0
 10
0.0959396728223176
 20
-18.68882252497793
 30
0.0
 10
0.095420837399999
 20
-18.68009567260699
 30
0.0
 11
0.098838806149999
 21
-18.78217697143499
 31
0.0
 11
0.0986251830999976
 21
-18.75736618042
 31
0.0
 11
0.0980453491199995
 21
-18.732067108154
 31
0.0
 11
0.0969161987299998
 21
-18.70627975463899
 31
0.0
 11
0.095420837399999
 21
-18.68009567260699
 31
0.0
  0
ELLIPSE
  5
3136
330
3124
100
AcDbEntity
  8
AM_0
 48
0.5
100
AcDbEllipse
 10
-0.1274642944400028
 20
-18.59357833862299
 30
0.0
 11
0.0006866418799945
 21
0.203491214760998
 31
0.0
210
0.0
220
0.0
230
1.0
 40
0.0786593863772
 41
4.503452518613825
 42
4.755417512511247
  0
SPLINE
  5
3137
330
3124
100
AcDbEntity
  8
AM_0
 48
0.5
100
AcDbSpline
210
0.0
220
0.0
230
1.0
 70
     8
 71
     3
 72
    11
 73
     7
 74
     5
 42
0.0000000001
 43
0.0000000001
 44
0.0000000001
 40
0.0
 40
0.0
 40
0.0
 40
0.0
 40
0.2149505198206105
 40
0.4598745197411109
 40
0.7348105381587445
 40
1.039785736216292
 40
1.039785736216292
 40
1.039785736216292
 40
1.039785736216292
 10
13.81783294676999
 20
-4.987895965576001
 30
0.0
 10
13.7586795349665
 20
-4.947462997118533
 30
0.0
 10
13.63212414507082
 20
-4.860958940433287
 30
0.0
 10
13.43258975871518
 20
-4.718882152352182
 30
0.0
 10
13.21004974728415
 20
-4.557413006374098
 30
0.0
 10
13.05484867098547
 20
-4.442175897140055
 30
0.0
 10
12.97322845458299
 20
-4.381572723388998
 30
0.0
 11
13.81783294676999
 21
-4.987895965576001
 31
0.0
 11
13.64073944091099
 21
-4.866069793701001
 31
0.0
 11
13.44094085692599
 21
-4.724407196045
 31
0.0
 11
13.218437194817
 21
-4.562908172606995
 31
0.0
 11
12.97322845458299
 21
-4.381572723388998
 31
0.0
  0
SPLINE
  5
3138
330
3124
100
AcDbEntity
  8
AM_0
 48
0.5
100
AcDbSpline
210
0.0
220
0.0
230
1.0
 70
     8
 71
     3
 72
    11
 73
     7
 74
     5
 42
0.0000000001
 43
0.0000000001
 44
0.0000000001
 40
0.0
 40
0.0
 40
0.0
 40
0.0
 40
0.1083324506455758
 40
0.204921853353157
 40
0.2901982768894708
 40
0.3645254219143954
 40
0.3645254219143954
 40
0.3645254219143954
 40
0.3645254219143954
 10
12.70732879637999
 20
-4.629375457763998
 30
0.0
 10
12.73124574296888
 20
-4.602304193359254
 30
0.0
 10
12.77648708101982
 20
-4.551096142203991
 30
0.0
 10
12.84532864155084
 20
-4.483095838793468
 30
0.0
 10
12.90916401936536
 20
-4.426135602924232
 30
0.0
 10
12.95287316863373
 20
-4.395731751757557
 30
0.0
 10
12.97322845458299
 20
-4.381572723388998
 30
0.0
 11
12.70732879637999
 21
-4.629375457763998
 31
0.0
 11
12.78002166747299
 21
-4.549053192138998
 31
0.0
 11
12.84862518309799
 21
-4.481060028076001
 31
0.0
 11
12.91301727294199
 21
-4.425151824951001
 31
0.0
 11
12.97322845458299
 21
-4.381572723388998
 31
0.0
  0
SPLINE
  5
3139
330
3124
100
AcDbEntity
  8
AM_0
 48
0.5
100
AcDbSpline
210
0.0
220
0.0
230
1.0
 70
     8
 71
     3
 72
    11
 73
     7
 74
     5
 42
0.0000000001
 43
0.0000000001
 44
0.0000000001
 40
0.0
 40
0.0
 40
0.0
 40
0.0
 40
0.0211608103315469
 40
0.0458948555644505
 40
0.0741933896075517
 40
0.1060925952365624
 40
0.1060925952365624
 40
0.1060925952365624
 40
0.1060925952365624
 10
16.16661834716099
 20
-10.18619918823199
 30
0.0
 10
16.15996301799739
 20
-10.18385815594263
 30
0.0
 10
16.14552853434997
 20
-10.17878078238704
 30
0.0
 10
16.12271492458074
 20
-10.16921114743254
 30
0.0
 10
16.09664709218246
 20
-10.15816631416828
 30
0.0
 10
16.07846146160393
 20
-10.14968034040949
 30
0.0
 10
16.068824768059
 20
-10.14518356323199
 30
0.0
 11
16.16661834716099
 21
-10.18619918823199
 31
0.0
 11
16.14672088622299
 21
-10.178997039795
 31
0.0
 11
16.12381744383999
 21
-10.16965866088899
 31
0.0
 11
16.09781646727799
 21
-10.158489227295
 31
0.0
 11
16.068824768059
 21
-10.14518356323199
 31
0.0
  0
SPLINE
  5
313A
330
3124
100
AcDbEntity
  8
AM_0
 48
0.5
100
AcDbSpline
210
0.0
220
0.0
230
1.0
 70
     8
 71
     3
 72
    11
 73
     7
 74
     5
 42
0.0000000001
 43
0.0000000001
 44
0.0000000001
 40
0.0
 40
0.0
 40
0.0
 40
0.0
 40
0.4039031244448474
 40
0.8232094574744433
 40
1.257881340492654
 40
1.708028863305052
 40
1.708028863305052
 40
1.708028863305052
 40
1.708028863305052
 10
18.719627380364
 20
-6.845806121825997
 30
0.0
 10
18.66795549041412
 20
-6.970132133930748
 30
0.0
 10
18.56264115656045
 20
-7.223525442327122
 30
0.0
 10
18.39543351743603
 20
-7.608053371358595
 30
0.0
 10
18.21797193266083
 20
-8.004900675946778
 30
0.0
 10
18.09399472893375
 20
-8.272521535917753
 30
0.0
 10
18.03092193602799
 20
-8.408672332763998
 30
0.0
 11
18.719627380364
 21
-6.845806121825997
 31
0.0
 11
18.563621520989
 21
-7.218364715575997
 31
0.0
 11
18.39682769774699
 21
-7.60306930542
 31
0.0
 11
18.219215393059
 21
-7.999797821045
 31
0.0
 11
18.03092193602799
 21
-8.408672332763998
 31
0.0
  0
SPLINE
  5
313B
330
3124
100
AcDbEntity
  8
AM_0
 48
0.5
100
AcDbSpline
210
0.0
220
0.0
230
1.0
 70
     8
 71
     3
 72
    11
 73
     7
 74
     5
 42
0.0000000001
 43
0.0000000001
 44
0.0000000001
 40
0.0
 40
0.0
 40
0.0
 40
0.0
 40
0.0206894100394026
 40
0.0352257833534397
 40
0.0437677755839129
 40
0.0488430837130395
 40
0.0488430837130395
 40
0.0488430837130395
 40
0.0488430837130395
 10
16.16661834716099
 20
-10.18619918823199
 30
0.0
 10
16.17326334050646
 20
-10.1883860680813
 30
0.0
 10
16.18457710419171
 20
-10.19210944905955
 30
0.0
 10
16.19816948178004
 20
-10.19464958385475
 30
0.0
 10
16.20903650130062
 20
-10.19569212994037
 30
0.0
 10
16.21136063798393
 20
-10.19144445122405
 30
0.0
 10
16.212226867669
 20
-10.18986129760699
 30
0.0
 11
16.16661834716099
 21
-10.18619918823199
 31
0.0
 11
16.186424255364
 21
-10.192180633545
 31
0.0
 11
16.20072174071499
 21
-10.19480514526399
 31
0.0
 11
16.20922088622299
 21
-10.19395065307599
 31
0.0
 11
16.212226867669
 21
-10.18986129760699
 31
0.0
  0
SPLINE
  5
313C
330
3124
100
AcDbEntity
  8
AM_0
 48
0.5
100
AcDbSpline
210
0.0
220
0.0
230
1.0
 70
     8
 71
     3
 72
    11
 73
     7
 74
     5
 42
0.0000000001
 43
0.0000000001
 44
0.0000000001
 40
0.0
 40
0.0
 40
0.0
 40
0.0
 40
0.0564619815196039
 40
0.1130494738594876
 40
0.1695114553790916
 40
0.2259985465353184
 40
0.2259985465353184
 40
0.2259985465353184
 40
0.2259985465353184
 10
16.212226867669
 20
-10.18986129760699
 30
0.0
 10
16.23079370045235
 20
-10.1867806275006
 30
0.0
 10
16.26796863871886
 20
-10.18061243918538
 30
0.0
 10
16.3236748343276
 20
-10.1711511872863
 30
0.0
 10
16.37942973475659
 20
-10.16193009071317
 30
0.0
 10
16.41655866574517
 20
-10.15568970409585
 30
0.0
 10
16.435127258294
 20
-10.15256881713899
 30
0.0
 11
16.212226867669
 21
-10.18986129760699
 31
0.0
 11
16.26792144774699
 21
-10.18058395385699
 31
0.0
 11
16.32372283934799
 21
-10.17118453979499
 31
0.0
 11
16.37941741942599
 21
-10.161907196045
 31
0.0
 11
16.435127258294
 21
-10.15256881713899
 31
0.0
  0
SPLINE
  5
313D
330
3124
100
AcDbEntity
  8
AM_0
 48
0.5
100
AcDbSpline
210
0.0
220
0.0
230
1.0
 70
     8
 71
     3
 72
    11
 73
     7
 74
     5
 42
0.0000000001
 43
0.0000000001
 44
0.0000000001
 40
0.0
 40
0.0
 40
0.0
 40
0.0
 40
0.0428440821372604
 40
0.0857347766904529
 40
0.1286254712445817
 40
0.1715734087645516
 40
0.1715734087645516
 40
0.1715734087645516
 40
0.1715734087645516
 10
11.97274017333299
 20
-7.06595993042
 30
0.0
 10
11.9677615224788
 20
-7.052574475656319
 30
0.0
 10
11.95779880422435
 20
-7.025789003361972
 30
0.0
 10
11.94292925767124
 20
-6.98557486607808
 30
0.0
 10
11.92801914338011
 20
-6.945338844977541
 30
0.0
 10
11.9181014812178
 20
-6.918499753392217
 30
0.0
 10
11.91313934325499
 20
-6.905071258545
 30
0.0
 11
11.97274017333299
 21
-7.06595993042
 31
0.0
 11
11.95781707762999
 21
-7.025798797606999
 31
0.0
 11
11.94292449950499
 21
-6.985576629638998
 31
0.0
 11
11.92803192137999
 21
-6.94535446167
 31
0.0
 11
11.91313934325499
 21
-6.905071258545
 31
0.0
  0
SPLINE
  5
313E
330
3124
100
AcDbEntity
  8
AM_0
 48
0.5
100
AcDbSpline
210
0.0
220
0.0
230
1.0
 70
     8
 71
     3
 72
    11
 73
     7
 74
     5
 42
0.0000000001
 43
0.0000000001
 44
0.0000000001
 40
0.0
 40
0.0
 40
0.0
 40
0.0
 40
0.0271493952741254
 40
0.0468784843769475
 40
0.0600633496311488
 40
0.0690621032421377
 40
0.0690621032421377
 40
0.0690621032421377
 40
0.0690621032421377
 10
11.964042663567
 20
-6.859294891356999
 30
0.0
 10
11.95527247130631
 20
-6.856801811195701
 30
0.0
 10
11.94012910193384
 20
-6.852497044249263
 30
0.0
 10
11.92074346708433
 20
-6.849905256962323
 30
0.0
 10
11.90548975342556
 20
-6.850360759398828
 30
0.0
 10
11.90074948307568
 20
-6.856412688703014
 30
0.0
 10
11.898826599114
 20
-6.858867645263998
 30
0.0
 11
11.964042663567
 21
-6.859294891356999
 31
0.0
 11
11.93773651122299
 21
-6.85258102417
 31
0.0
 11
11.91814422606699
 21
-6.850261688231999
 31
0.0
 11
11.90514373778599
 21
-6.852458953856999
 31
0.0
 11
11.898826599114
 21
-6.858867645263998
 31
0.0
  0
SPLINE
  5
313F
330
3124
100
AcDbEntity
  8
AM_0
 48
0.5
100
AcDbSpline
210
0.0
220
0.0
230
1.0
 70
     8
 71
     3
 72
    11
 73
     7
 74
     5
 42
0.0000000001
 43
0.0000000001
 44
0.0000000001
 40
0.0
 40
0.0
 40
0.0
 40
0.0
 40
0.0506474125076578
 40
0.1936378333736066
 40
0.4126337707697583
 40
0.6804331750548056
 40
0.6804331750548056
 40
0.6804331750548056
 40
0.6804331750548056
 10
12.67192840575499
 20
-4.601909637451001
 30
0.0
 10
12.68875604484357
 20
-4.603570857084848
 30
0.0
 10
12.75309235370065
 20
-4.609922118772844
 30
0.0
 10
12.88427356306905
 20
-4.654536167835546
 30
0.0
 10
13.08471086040618
 20
-4.715419306176134
 30
0.0
 10
13.23736387715603
 20
-4.770789695365107
 30
0.0
 10
13.32134246825499
 20
-4.801250457763998
 30
0.0
 11
12.67192840575499
 21
-4.601909637451001
 31
0.0
 11
12.72222137450499
 21
-4.607891082763998
 31
0.0
 11
12.86013031005099
 21
-4.645671844481995
 31
0.0
 11
13.06871795653599
 21
-4.712383270263998
 31
0.0
 11
13.32134246825499
 21
-4.801250457763998
 31
0.0
  0
SPLINE
  5
3140
330
3124
100
AcDbEntity
  8
AM_0
 48
0.5
100
AcDbSpline
210
0.0
220
0.0
230
1.0
 70
     8
 71
     3
 72
    11
 73
     7
 74
     5
 42
0.0000000001
 43
0.0000000001
 44
0.0000000001
 40
0.0
 40
0.0
 40
0.0
 40
0.0
 40
0.0676956653970984
 40
0.1262554865581867
 40
0.1756470813391296
 40
0.2161374217187053
 40
0.2161374217187053
 40
0.2161374217187053
 40
0.2161374217187053
 10
12.16191864012999
 20
-6.945781707763998
 30
0.0
 10
12.14171607594243
 20
-6.935723972595436
 30
0.0
 10
12.10403737736903
 20
-6.916965840299502
 30
0.0
 10
12.05073150949009
 20
-6.892747290268025
 30
0.0
 10
12.00519050812284
 20
-6.873314444371767
 30
0.0
 10
11.97682214620661
 20
-6.863649010905698
 30
0.0
 10
11.964042663567
 20
-6.859294891356999
 30
0.0
 11
12.16191864012999
 21
-6.945781707763998
 31
0.0
 11
12.10112762450499
 21
-6.915996551513998
 31
0.0
 11
12.04784393309799
 21
-6.891704559325997
 31
0.0
 11
12.00222015380099
 21
-6.872783660888998
 31
0.0
 11
11.964042663567
 21
-6.859294891356999
 31
0.0
  0
SPLINE
  5
3141
330
3124
100
AcDbEntity
  8
AM_0
 48
0.5
100
AcDbSpline
210
0.0
220
0.0
230
1.0
 70
     8
 71
     3
 72
    11
 73
     7
 74
     5
 42
0.0000000001
 43
0.0000000001
 44
0.0000000001
 40
0.0
 40
0.0
 40
0.0
 40
0.0
 40
0.0349931642973296
 40
0.0715969733895435
 40
0.1101149567946622
 40
0.1503859626016059
 40
0.1503859626016059
 40
0.1503859626016059
 40
0.1503859626016059
 10
12.175224304192
 20
-7.180461883545
 30
0.0
 10
12.18566393829861
 20
-7.185664912857042
 30
0.0
 10
12.20702371585335
 20
-7.196310453455602
 30
0.0
 10
12.23982404767929
 20
-7.212785565642276
 30
0.0
 10
12.27397523921241
 20
-7.230485131387885
 30
0.0
 10
12.29718222067317
 20
-7.242780785504186
 30
0.0
 10
12.30904388426999
 20
-7.24906539917
 30
0.0
 11
12.175224304192
 21
-7.180461883545
 31
0.0
 11
12.20653533934799
 21
-7.196086883545
 31
0.0
 11
12.23921966551999
 21
-7.212566375731999
 31
0.0
 11
12.27342987059799
 21
-7.230266571045
 31
0.0
 11
12.30904388426999
 21
-7.24906539917
 31
0.0
  0
SPLINE
  5
3142
330
3124
100
AcDbEntity
  8
AM_0
 48
0.5
100
AcDbSpline
210
0.0
220
0.0
230
1.0
 70
     8
 71
     3
 72
    11
 73
     7
 74
     5
 42
0.0000000001
 43
0.0000000001
 44
0.0000000001
 40
0.0
 40
0.0
 40
0.0
 40
0.0
 40
0.0559687390820949
 40
0.1093320470542698
 40
0.1600995402725136
 40
0.2082553115738991
 40
0.2082553115738991
 40
0.2082553115738991
 40
0.2082553115738991
 10
12.34444427489499
 20
-7.046001434325997
 30
0.0
 10
12.32829528531947
 20
-7.036659251267455
 30
0.0
 10
12.29674906653545
 20
-7.0184097781777
 30
0.0
 10
12.25013003491193
 20
-6.992432187692672
 30
0.0
 10
12.20548989146664
 20
-6.968259134681177
 30
0.0
 10
12.17618448844053
 20
-6.953141137502064
 30
0.0
 10
12.16191864012999
 20
-6.945781707763998
 30
0.0
 11
12.34444427489499
 21
-7.046001434325997
 31
0.0
 11
12.29592132567599
 21
-7.01810836792
 31
0.0
 11
12.24932098387999
 21
-6.992107391356999
 31
0.0
 11
12.20464324950499
 21
-6.967998504638998
 31
0.0
 11
12.16191864012999
 21
-6.945781707763998
 31
0.0
  0
SPLINE
  5
3143
330
3124
100
AcDbEntity
  8
AM_0
 48
0.5
100
AcDbSpline
210
0.0
220
0.0
230
1.0
 70
     8
 71
     3
 72
    11
 73
     7
 74
     5
 42
0.0000000001
 43
0.0000000001
 44
0.0000000001
 40
0.0
 40
0.0
 40
0.0
 40
0.0
 40
0.0415057574588523
 40
0.0839771927468922
 40
0.1275528855251587
 40
0.1719024345312468
 40
0.1719024345312468
 40
0.1719024345312468
 40
0.1719024345312468
 10
12.30904388426999
 20
-7.24906539917
 30
0.0
 10
12.32125092913322
 20
-7.255577233445442
 30
0.0
 10
12.34594902939956
 20
-7.268752407097595
 30
0.0
 10
12.38327294721664
 20
-7.289117226686719
 30
0.0
 10
12.42128665880692
 20
-7.310194022254933
 30
0.0
 10
12.44684702151584
 20
-7.324534626036642
 30
0.0
 10
12.45973968505099
 20
-7.331768035888998
 30
0.0
 11
12.30904388426999
 21
-7.24906539917
 31
0.0
 11
12.345634460442
 21
-7.268657684325997
 31
0.0
 11
12.38292694091099
 21
-7.288982391356999
 31
0.0
 11
12.421043395989
 21
-7.31010055542
 31
0.0
 11
12.45973968505099
 21
-7.331768035888998
 31
0.0
  0
SPLINE
  5
3144
330
3124
100
AcDbEntity
  8
AM_0
 48
0.5
100
AcDbSpline
210
0.0
220
0.0
230
1.0
 70
     8
 71
     3
 72
    11
 73
     7
 74
     5
 42
0.0000000001
 43
0.0000000001
 44
0.0000000001
 40
0.0
 40
0.0
 40
0.0
 40
0.0
 40
0.05175918901192
 40
0.1025058748952034
 40
0.1523781059245507
 40
0.201356489536759
 40
0.201356489536759
 40
0.201356489536759
 40
0.201356489536759
 10
12.51692962645799
 20
-7.149883270263998
 30
0.0
 10
12.50224169739631
 20
-7.140831498853372
 30
0.0
 10
12.47315316166754
 20
-7.12290502501345
 30
0.0
 10
12.42971327436652
 20
-7.096581555651242
 30
0.0
 10
12.38690098513633
 20
-7.071013282990634
 30
0.0
 10
12.35851094020205
 20
-7.054288305868237
 30
0.0
 10
12.34444427489499
 20
-7.046001434325997
 30
0.0
 11
12.51692962645799
 21
-7.149883270263998
 31
0.0
 11
12.47283172606699
 21
-7.122783660888998
 31
0.0
 11
12.42943572997299
 21
-7.096477508545
 31
0.0
 11
12.386619567864
 21
-7.070903778075997
 31
0.0
 11
12.34444427489499
 21
-7.046001434325997
 31
0.0
  0
ELLIPSE
  5
3145
330
3124
100
AcDbEntity
  8
AM_0
 48
0.5
100
AcDbEllipse
 10
16.02542877196499
 20
-9.400798797606999
 30
0.0
 11
-0.1975860676979977
 21
0.1149902263300007
 31
0.0
210
0.0
220
0.0
230
1.0
 40
0.0781877217101
 41
3.141591535475532
 42
3.759406754619577
  0
SPLINE
  5
3146
330
3124
100
AcDbEntity
  8
AM_0
 48
0.5
100
AcDbSpline
210
0.0
220
0.0
230
1.0
 70
     8
 71
     3
 72
    11
 73
     7
 74
     5
 42
0.0000000001
 43
0.0000000001
 44
0.0000000001
 40
0.0
 40
0.0
 40
0.0
 40
0.0
 40
0.0095745952910224
 40
0.0221643538988674
 40
0.0392035574458628
 40
0.0612291318797382
 40
0.0612291318797382
 40
0.0612291318797382
 40
0.0612291318797382
 10
16.491218566887
 20
-9.46537399292
 30
0.0
 10
16.49183928975801
 20
-9.462178915987546
 30
0.0
 10
16.49327620912305
 20
-9.454782591264407
 30
0.0
 10
16.48771282504245
 20
-9.442304443535888
 30
0.0
 10
16.47822720241635
 20
-9.428084008609722
 30
0.0
 10
16.46940070511513
 20
-9.418442130291573
 30
0.0
 10
16.464424133294
 20
-9.413005828856999
 30
0.0
 11
16.491218566887
 21
-9.46537399292
 31
0.0
 11
16.49222564696499
 21
-9.455852508545
 31
0.0
 11
16.48812103270799
 21
-9.443950653075997
 31
0.0
 11
16.478828430169
 21
-9.429668426513998
 31
0.0
 11
16.464424133294
 21
-9.413005828856999
 31
0.0
  0
SPLINE
  5
3147
330
3124
100
AcDbEntity
  8
AM_0
 48
0.5
100
AcDbSpline
210
0.0
220
0.0
230
1.0
 70
     8
 71
     3
 72
    11
 73
     7
 74
     5
 42
0.0000000001
 43
0.0000000001
 44
0.0000000001
 40
0.0
 40
0.0
 40
0.0
 40
0.0
 40
0.1153804854917181
 40
0.2242254323504108
 40
0.3156842172047312
 40
0.3805544837671402
 40
0.3805544837671402
 40
0.3805544837671402
 40
0.3805544837671402
 10
18.34893035887999
 20
-6.658367156981999
 30
0.0
 10
18.38480223743213
 20
-6.672257907968205
 30
0.0
 10
18.454514090726
 20
-6.699252591100973
 30
0.0
 10
18.55098125025515
 20
-6.741230889696611
 30
0.0
 10
18.63127512275205
 20
-6.778539914669341
 30
0.0
 10
18.67569675409982
 20
-6.805848619700981
 30
0.0
 10
18.69412994383999
 20
-6.817180633545
 30
0.0
 11
18.34893035887999
 21
-6.658367156981999
 31
0.0
 11
18.45623016356699
 21
-6.700786590575997
 31
0.0
 11
18.556129455559
 21
-6.743999481200997
 31
0.0
 11
18.638328552239
 21
-6.784099578856999
 31
0.0
 11
18.69412994383999
 21
-6.817180633545
 31
0.0
  0
SPLINE
  5
3148
330
3124
100
AcDbEntity
  8
AM_0
 48
0.5
100
AcDbSpline
210
0.0
220
0.0
230
1.0
 70
     8
 71
     3
 72
    11
 73
     7
 74
     5
 42
0.0000000001
 43
0.0000000001
 44
0.0000000001
 40
0.0
 40
0.0
 40
0.0
 40
0.0
 40
1.054595141428546
 40
2.109199744887246
 40
3.163800745287308
 40
4.218384080475091
 40
4.218384080475091
 40
4.218384080475091
 40
4.218384080475091
 10
13.32134246825499
 20
-4.801250457763998
 30
0.0
 10
13.65145760782587
 20
-4.922074920153936
 30
0.0
 10
14.31169084882404
 20
-5.163724928994094
 30
0.0
 10
15.30174100926156
 20
-5.527018935789782
 30
0.0
 10
16.29165264896105
 20
-5.890678701576971
 30
0.0
 10
16.95143183464931
 20
-6.133550784791344
 30
0.0
 10
17.281318664544
 20
-6.254985809325997
 30
0.0
 11
13.32134246825499
 21
-4.801250457763998
 31
0.0
 11
14.31163787841099
 21
-5.163860321045
 31
0.0
 11
15.30171966551999
 21
-5.527080535888998
 31
0.0
 11
16.29161834716099
 21
-5.890789031981999
 31
0.0
 11
17.281318664544
 21
-6.254985809325997
 31
0.0
  0
ELLIPSE
  5
3149
330
3124
100
AcDbEntity
  8
AM_0
 48
0.5
100
AcDbEllipse
 10
16.04462432860599
 20
-9.41068649292
 30
0.0
 11
-0.1752777140639949
 21
0.1019897483530024
 31
0.0
210
0.0
220
0.0
230
1.0
 40
0.0783612612703
 41
3.758614109175688
 42
4.304825372924828
  0
SPLINE
  5
314A
330
3124
100
AcDbEntity
  8
AM_0
 48
0.5
100
AcDbSpline
210
0.0
220
0.0
230
1.0
 70
     8
 71
     3
 72
    11
 73
     7
 74
     5
 42
0.0000000001
 43
0.0000000001
 44
0.0000000001
 40
0.0
 40
0.0
 40
0.0
 40
0.0
 40
0.0352103029733063
 40
0.078549561947392
 40
0.1287264001947541
 40
0.1842843950384234
 40
0.1842843950384234
 40
0.1842843950384234
 40
0.1842843950384234
 10
16.464424133294
 20
-9.413005828856999
 30
0.0
 10
16.45588620265929
 20
-9.404941184597864
 30
0.0
 10
16.43683920065531
 20
-9.386950022343544
 30
0.0
 10
16.40246728539607
 20
-9.361146654818041
 30
0.0
 10
16.36138841425801
 20
-9.333169363163442
 30
0.0
 10
16.33112532649028
 20
-9.315085864435618
 30
0.0
 10
16.31522369383999
 20
-9.305583953856999
 30
0.0
 11
16.464424133294
 21
-9.413005828856999
 31
0.0
 11
16.43842315673099
 21
-9.389263153075997
 31
0.0
 11
16.404121398919
 21
-9.362773895263998
 31
0.0
 11
16.362617492669
 21
-9.334575653075997
 31
0.0
 11
16.31522369383999
 21
-9.305583953856999
 31
0.0
  0
ELLIPSE
  5
314B
330
3124
100
AcDbEntity
  8
AM_0
 48
0.5
100
AcDbEllipse
 10
16.03252410887999
 20
-9.406169891356999
 30
0.0
 11
-0.2022552674820019
 21
0.1176757627989992
 31
0.0
210
0.0
220
0.0
230
1.0
 40
0.0781669348587
 41
4.305407041102931
 42
4.504489756580679
  0
SPLINE
  5
314C
330
3124
100
AcDbEntity
  8
AM_0
 48
0.5
100
AcDbSpline
210
0.0
220
0.0
230
1.0
 70
     8
 71
     3
 72
    11
 73
     7
 74
     5
 42
0.0000000001
 43
0.0000000001
 44
0.0000000001
 40
0.0
 40
0.0
 40
0.0
 40
0.0
 40
0.0247838858613302
 40
0.0500906737748402
 40
0.0759019472139916
 40
0.1020649332072802
 40
0.1020649332072802
 40
0.1020649332072802
 40
0.1020649332072802
 10
16.31522369383999
 20
-9.305583953856999
 30
0.0
 10
16.30807379158433
 20
-9.301444899556704
 30
0.0
 10
16.29362313508058
 20
-9.293079463246497
 30
0.0
 10
16.27141715104196
 20
-9.280948467898626
 30
0.0
 10
16.24854725221077
 20
-9.26908904556533
 30
0.0
 10
16.23303564399383
 20
-9.261372588234324
 30
0.0
 10
16.22522735594999
 20
-9.257488250731999
 30
0.0
 11
16.31522369383999
 21
-9.305583953856999
 31
0.0
 11
16.29372406005099
 21
-9.293254852295
 31
0.0
 11
16.27152252196499
 21
-9.281108856200997
 31
0.0
 11
16.24861907958299
 21
-9.269207000731999
 31
0.0
 11
16.22522735594999
 21
-9.257488250731999
 31
0.0
  0
ELLIPSE
  5
314D
330
3124
100
AcDbEntity
  8
AM_0
 48
0.5
100
AcDbEllipse
 10
16.03882598876199
 20
-9.407207489013998
 30
0.0
 11
-0.175888069115004
 21
0.102355957356
 31
0.0
210
0.0
220
0.0
230
1.0
 40
0.0787188372182
 41
4.503598670259878
 42
4.755541736634941
  0
ELLIPSE
  5
314E
330
3124
100
AcDbEntity
  8
AM_0
 48
0.5
100
AcDbEllipse
 10
-7.874282836920002
 20
11.945804595947
 30
0.0
 11
-14.20987466583001
 21
21.91746693048799
 31
0.0
210
0.0
220
0.0
230
1.0
 40
0.8218619756858
 41
2.071594890202389
 42
2.07323450513844
  0
ELLIPSE
  5
314F
330
3124
100
AcDbEntity
  8
AM_0
 48
0.5
100
AcDbEllipse
 10
-7.430877685550001
 20
12.973392486572
 30
0.0
 11
-13.38277587255
 21
23.362411108164
 31
0.0
210
0.0
220
0.0
230
1.0
 40
0.8316521584632999
 41
2.129145226517593
 42
2.156131050094715
  0
SPLINE
  5
3150
330
3124
100
AcDbEntity
  8
AM_0
 48
0.5
100
AcDbSpline
210
0.0
220
0.0
230
1.0
 70
     8
 71
     3
 72
    11
 73
     7
 74
     5
 42
0.0000000001
 43
0.0000000001
 44
0.0000000001
 40
0.0
 40
0.0
 40
0.0
 40
0.0
 40
0.2741333961783917
 40
0.9833102033716574
 40
2.102879443705516
 40
3.611653673255809
 40
3.611653673255809
 40
3.611653673255809
 40
3.611653673255809
 10
-18.58669281006
 20
-4.383159637451001
 30
0.0
 10
-18.64226066308284
 20
-4.310087073951661
 30
0.0
 10
-18.84158127712895
 20
-4.047977464990829
 30
0.0
 10
-19.0339470729985
 20
-3.359234244966401
 30
0.0
 10
-19.31945369721976
 20
-2.289645936073766
 30
0.0
 10
-19.42048275808163
 20
-1.416567898227088
 30
0.0
 10
-19.47847747803
 20
-0.9153861999510013
 30
0.0
 11
-18.58669281006
 21
-4.383159637451001
 31
0.0
 11
-18.74489593506
 21
-4.159282684326001
 31
0.0
 11
-18.99477386475
 21
-3.495586395263998
 31
0.0
 11
-19.26369476319
 21
-2.408794403076001
 31
0.0
 11
-19.47847747803
 21
-0.9153861999510013
 31
0.0
  0
ELLIPSE
  5
3151
330
3124
100
AcDbEntity
  8
AM_0
 48
0.5
100
AcDbEllipse
 10
-11.62136840821
 20
-13.40148353576599
 30
0.0
 11
20.52526155731
 21
21.99278338858299
 31
0.0
210
0.0
220
0.0
230
1.0
 40
0.8472844184176999
 41
5.496385893851674
 42
5.497787793230675
  0
ELLIPSE
  5
3152
330
3124
100
AcDbEntity
  8
AM_0
 48
0.5
100
AcDbEllipse
 10
-7.519790649420002
 20
-12.92212867736799
 30
0.0
 11
13.54120496544999
 21
23.271058299931
 31
0.0
210
0.0
220
0.0
230
1.0
 40
0.8316542782202001
 41
5.270734147079984
 42
5.297814845546009
  0
SPLINE
  5
3153
330
3124
100
AcDbEntity
  8
AM_0
 48
0.5
100
AcDbSpline
210
0.0
220
0.0
230
1.0
 70
     8
 71
     3
 72
    11
 73
     7
 74
     5
 42
0.0000000001
 43
0.0000000001
 44
0.0000000001
 40
0.0
 40
0.0
 40
0.0
 40
0.0
 40
0.2741458522189146
 40
0.9833675033251051
 40
2.102932714130711
 40
3.611718269635803
 40
3.611718269635803
 40
3.611718269635803
 40
3.611718269635803
 10
13.08931732176999
 20
-13.90488815307599
 30
0.0
 10
13.05381886665914
 20
-13.98955156067494
 30
0.0
 10
12.92648508833742
 20
-14.29324115903914
 30
0.0
 10
12.42631876765498
 20
-14.80433862848176
 30
0.0
 10
11.64252995136088
 20
-15.58615923922877
 30
0.0
 10
10.93702550237754
 20
-16.11029720443106
 30
0.0
 10
10.53203582762999
 20
-16.41117477417
 30
0.0
 11
13.08931732176999
 21
-13.90488815307599
 31
0.0
 11
12.97454071044199
 21
-14.15385055542
 31
0.0
 11
12.52474212645799
 21
-14.70219039917
 31
0.0
 11
11.717918395989
 21
-15.47837448120099
 31
0.0
 11
10.53203582762999
 21
-16.41117477417
 31
0.0
  0
ELLIPSE
  5
3154
330
3124
100
AcDbEntity
  8
AM_0
 48
0.5
100
AcDbEllipse
 10
13.74641418456299
 20
13.649478912354
 30
0.0
 11
24.148841899821
 21
20.78599626072499
 31
0.0
210
0.0
220
0.0
230
1.0
 40
0.8438640253286997
 41
2.465610746766806
 42
2.466978564403992
  0
ELLIPSE
  5
3155
330
3124
100
AcDbEntity
  8
AM_0
 48
0.5
100
AcDbEllipse
 10
7.519821166989999
 20
12.922122955322
 30
0.0
 11
13.541206572842
 21
23.271041917287
 31
0.0
210
0.0
220
0.0
230
0.9999999999999998
 40
0.8316539822136
 41
2.129146881139011
 42
2.156132735740026
  0
SPLINE
  5
3156
330
3124
100
AcDbEntity
  8
AM_0
 48
0.5
100
AcDbSpline
210
0.0
220
0.0
230
1.0
 70
     8
 71
     3
 72
    11
 73
     7
 74
     5
 42
0.0000000001
 43
0.0000000001
 44
0.0000000001
 40
0.0
 40
0.0
 40
0.0
 40
0.0
 40
0.2741586304079368
 40
0.9833802815179305
 40
2.102923499783164
 40
3.611733041762133
 40
3.611733041762133
 40
3.611733041762133
 40
3.611733041762133
 10
-13.0892868042
 20
13.904899597168
 30
0.0
 10
-13.05377718060062
 20
13.98956260642612
 30
0.0
 10
-12.92640762232775
 20
14.29324056744643
 30
0.0
 10
-12.42627100349849
 20
14.80434644953206
 30
0.0
 10
-11.64249283135619
 20
15.58618911108021
 30
0.0
 10
-10.93697708419473
 20
16.11031247522513
 30
0.0
 10
-10.53197479248
 20
16.411186218262
 30
0.0
 11
-13.0892868042
 21
13.904899597168
 31
0.0
 11
-12.9744796753
 21
14.153861999512
 31
0.0
 11
-12.52468109131
 21
14.702201843262
 31
0.0
 11
-11.71788787842
 21
15.478385925293
 31
0.0
 11
-10.53197479248
 21
16.411186218262
 31
0.0
  0
ELLIPSE
  5
3157
330
3124
100
AcDbEntity
  8
AM_0
 48
0.5
100
AcDbEllipse
 10
-14.88317871094
 20
-0.0394096374510014
 30
0.0
 11
26.84203303032799
 21
0.0617065439970048
 31
0.0
210
0.0
220
0.0
230
1.0
 40
0.8307691903207999
 41
5.263356707373715
 42
5.26494298041642
  0
ELLIPSE
  5
3158
330
3124
100
AcDbEntity
  8
AM_0
 48
0.5
100
AcDbEllipse
 10
-14.95079040528
 20
0.0512886047360013
 30
0.0
 11
-26.92395728744999
 21
0.0913684861019988
 31
0.0
210
0.0
220
0.0
230
1.0
 40
0.8316517531999
 41
2.129146569209156
 42
2.15613240253643
  0
SPLINE
  5
3159
330
3124
100
AcDbEntity
  8
AM_0
 48
0.5
100
AcDbSpline
210
0.0
220
0.0
230
1.0
 70
     8
 71
     3
 72
    11
 73
     7
 74
     5
 42
0.0000000001
 43
0.0000000001
 44
0.0000000001
 40
0.0
 40
0.0
 40
0.0
 40
0.0
 40
0.2742694719016187
 40
0.9834267751747828
 40
2.102969321278114
 40
3.611800636211544
 40
3.611800636211544
 40
3.611800636211544
 40
3.611800636211544
 10
-5.497261047370002
 20
-18.28806686401399
 30
0.0
 10
-5.588371359390222
 20
-18.29967202079764
 30
0.0
 10
-5.915058539388709
 20
-18.34128373147039
 30
0.0
 10
-6.607769645950267
 20
-18.1635994583826
 30
0.0
 10
-7.676740554928224
 20
-17.87580461920731
 30
0.0
 10
-8.483417864614406
 20
-17.52688126480905
 30
0.0
 10
-8.946495056160003
 20
-17.326580047607
 30
0.0
 11
-5.497261047370002
 21
-18.28806686401399
 31
0.0
 11
-5.770378112800003
 21
-18.31318283080999
 31
0.0
 11
-6.470085144050003
 21
-18.19779586792
 31
0.0
 11
-7.54567718506
 21
-17.88718795776399
 31
0.0
 11
-8.946495056160003
 21
-17.326580047607
 31
0.0
  0
ELLIPSE
  5
315A
330
3124
100
AcDbEntity
  8
AM_0
 48
0.5
100
AcDbEllipse
 10
7.63121032715
 20
-12.51008033752399
 30
0.0
 11
-13.78058619505
 21
22.70514133963999
 31
0.0
210
0.0
220
0.0
230
1.0
 40
0.8275103672995999
 41
5.243396604975372
 42
5.245062351263732
  0
ELLIPSE
  5
315B
330
3124
100
AcDbEntity
  8
AM_0
 48
0.5
100
AcDbEllipse
 10
7.43091583252
 20
-12.97336769104
 30
0.0
 11
-13.38281509807
 21
23.362518327647
 31
0.0
210
0.0
220
0.0
230
1.0
 40
0.8316527912584
 41
5.270731503191264
 42
5.297812276267572
  0
SPLINE
  5
315C
330
3124
100
AcDbEntity
  8
AM_0
 48
0.5
100
AcDbSpline
210
0.0
220
0.0
230
1.0
 70
     8
 71
     3
 72
    11
 73
     7
 74
     5
 42
0.0000000001
 43
0.0000000001
 44
0.0000000001
 40
0.0
 40
0.0
 40
0.0
 40
0.0
 40
0.2741333961783917
 40
0.9833155799384552
 40
2.102851531004512
 40
3.611627932807461
 40
3.611627932807461
 40
3.611627932807461
 40
3.611627932807461
 10
18.58672332762999
 20
4.383167266846001
 30
0.0
 10
18.64229082217877
 20
4.310094571319226
 30
0.0
 10
18.84161124022958
 20
4.0479830556073
 30
0.0
 10
19.03400004481057
 20
3.359258162315076
 30
0.0
 10
19.31947593112657
 20
2.289669736067329
 30
0.0
 10
19.42051945936707
 20
1.416605040977147
 30
0.0
 10
19.478523254387
 20
0.9154243469239986
 30
0.0
 11
18.58672332762999
 21
4.383167266846001
 31
0.0
 11
18.74492645262999
 21
4.159290313721001
 31
0.0
 11
18.99481964110599
 21
3.495594024658004
 31
0.0
 11
19.26372528075499
 21
2.408832550048998
 31
0.0
 11
19.478523254387
 21
0.9154243469239986
 31
0.0
  0
ELLIPSE
  5
315D
330
3124
100
AcDbEntity
  8
AM_0
 48
0.5
100
AcDbEllipse
 10
15.29113006591099
 20
-0.5099906921389988
 30
0.0
 11
-27.32581998023098
 21
0.9018551870209989
 31
0.0
210
0.0
220
0.0
230
1.0
 40
0.8357756864605001
 41
5.299239021632855
 42
5.300753831212452
  0
ELLIPSE
  5
315E
330
3124
100
AcDbEntity
  8
AM_0
 48
0.5
100
AcDbEllipse
 10
14.950820922844
 20
-0.0513725280760014
 30
0.0
 11
-26.923957287454
 21
0.0913684861020059
 31
0.0
210
0.0
220
0.0
230
1.0
 40
0.8316517531999
 41
5.270732894405171
 42
5.297813616229356
  0
SPLINE
  5
315F
330
3124
100
AcDbEntity
  8
AM_0
 48
0.5
100
AcDbSpline
210
0.0
220
0.0
230
1.0
 70
     8
 71
     3
 72
    11
 73
     7
 74
     5
 42
0.0000000001
 43
0.0000000001
 44
0.0000000001
 40
0.0
 40
0.0
 40
0.0
 40
0.0
 40
0.2742514841391026
 40
0.9833737114429885
 40
2.102945577112706
 40
3.611748559185638
 40
3.611748559185638
 40
3.611748559185638
 40
3.611748559185638
 10
5.49733734131
 20
18.288078308106
 30
0.0
 10
5.588442610465724
 20
18.29967104277121
 30
0.0
 10
5.915115506850984
 20
18.34123869572046
 30
0.0
 10
6.607821909087085
 20
18.16363197751443
 30
0.0
 10
7.67678483840223
 20
17.87581656144124
 30
0.0
 10
8.483459037378718
 20
17.52689045324816
 30
0.0
 10
8.946525573729999
 20
17.32659149169899
 30
0.0
 11
5.49733734131
 21
18.288078308106
 31
0.0
 11
5.77043914795
 21
18.313163757324
 31
0.0
 11
6.470115661619999
 21
18.197807312012
 31
0.0
 11
7.545738220209997
 21
17.887199401856
 31
0.0
 11
8.946525573729999
 21
17.32659149169899
 31
0.0
  0
ELLIPSE
  5
3160
330
3124
100
AcDbEntity
  8
AM_0
 48
0.5
100
AcDbEllipse
 10
0.6485290527299981
 20
0.4066200256350001
 30
0.0
 11
-8.638693750320003
 21
16.577014155857
 31
0.0
210
0.0
220
0.0
230
1.0
 40
0.9768589480781999
 41
4.710918515135194
 42
4.712946969255994
  0
ELLIPSE
  5
3161
330
3124
100
AcDbEntity
  8
AM_0
 48
0.5
100
AcDbEllipse
 10
-0.0041732788100006
 20
1.304706573486001
 30
0.0
 11
-18.39688060397
 21
0.8006569979419994
 31
0.0
210
0.0
220
0.0
230
1.0
 40
0.9622960281091
 41
4.711230549988144
 42
4.713227961110587
  0
ELLIPSE
  5
3162
330
3124
100
AcDbEntity
  8
AM_0
 48
0.5
100
AcDbEllipse
 10
-1.060371398930001
 20
0.7481117248539988
 30
0.0
 11
-17.13444457707999
 21
10.922107075486
 31
0.0
210
0.0
220
0.0
230
1.0
 40
0.9704388251337999
 41
3.140878794103448
 42
3.142845226416123
  0
ELLIPSE
  5
3163
330
3124
100
AcDbEntity
  8
AM_0
 48
0.5
100
AcDbEllipse
 10
0.7194213867200006
 20
-0.5305137634279973
 30
0.0
 11
-16.795494597
 21
10.701340975658
 31
0.0
210
0.0
220
0.0
230
1.0
 40
0.9802400050492
 41
6.282267004860702
 42
6.284290150720533
  0
ELLIPSE
  5
3164
330
3124
100
AcDbEntity
  8
AM_0
 48
0.5
100
AcDbEllipse
 10
4.076530456539998
 20
2.052921295166001
 30
0.0
 11
20.923813525605
 21
10.887804213006
 31
0.0
210
0.0
220
0.0
230
1.0
 40
0.900708628575
 41
3.14082352923555
 42
3.142640966996341
  0
SPLINE
  5
3165
330
3124
100
AcDbEntity
  8
AM_0
 48
0.5
100
AcDbSpline
210
0.0
220
0.0
230
1.0
 70
     8
 71
     3
 72
    11
 73
     7
 74
     5
 42
0.0000000001
 43
0.0000000001
 44
0.0000000001
 40
0.0
 40
0.0
 40
0.0
 40
0.0
 40
0.2148841321403341
 40
0.4598084495654947
 40
0.7347528330854068
 40
1.0398060616486
 40
1.0398060616486
 40
1.0398060616486
 40
1.0398060616486
 10
11.22853851317599
 20
9.472587585448998
 30
0.0
 10
11.16396368356073
 20
9.441589528566082
 30
0.0
 10
11.02578664838086
 20
9.375259975364967
 30
0.0
 10
10.80296848556881
 20
9.273562825889495
 30
0.0
 10
10.55188240031129
 20
9.161455734960542
 30
0.0
 10
10.37444471623398
 20
9.084682983766168
 30
0.0
 10
10.28112030028999
 20
9.044303894043004
 30
0.0
 11
11.22853851317599
 21
9.472587585448998
 31
0.0
 11
11.03453826903999
 21
9.380180358887002
 31
0.0
 11
10.8119430542
 21
9.278007507323998
 31
0.0
 11
10.56084442137999
 21
9.166007995606001
 31
0.0
 11
10.28112030028999
 21
9.044303894043004
 31
0.0
  0
SPLINE
  5
3166
330
3124
100
AcDbEntity
  8
AM_0
 48
0.5
100
AcDbSpline
210
0.0
220
0.0
230
1.0
 70
     8
 71
     3
 72
    11
 73
     7
 74
     5
 42
0.0000000001
 43
0.0000000001
 44
0.0000000001
 40
0.0
 40
0.0
 40
0.0
 40
0.0
 40
0.1083243176804913
 40
0.2049833882039706
 40
0.2902114170018515
 40
0.3645271588105332
 40
0.3645271588105332
 40
0.3645271588105332
 40
0.3645271588105332
 10
10.36281585692999
 20
8.690116882323998
 30
0.0
 10
10.35140586149356
 20
8.724385405042845
 30
0.0
 10
10.32981459210888
 20
8.78923213610072
 30
0.0
 10
10.30507082588219
 20
8.882784043758086
 30
0.0
 10
10.28781217623141
 20
8.966581002448396
 30
0.0
 10
10.28324684079092
 20
9.019605158102288
 30
0.0
 10
10.28112030028999
 20
9.044303894043004
 30
0.0
 11
10.36281585692999
 21
8.690116882323998
 31
0.0
 11
10.32973480223999
 21
8.793266296387002
 31
0.0
 11
10.30501556395999
 21
8.886711120606001
 31
0.0
 11
10.28884124756
 21
8.970390319823998
 31
0.0
 11
10.28112030028999
 21
9.044303894043004
 31
0.0
  0
SPLINE
  5
3167
330
3124
100
AcDbEntity
  8
AM_0
 48
0.5
100
AcDbSpline
210
0.0
220
0.0
230
1.0
 70
     8
 71
     3
 72
    11
 73
     7
 74
     5
 42
0.0000000001
 43
0.0000000001
 44
0.0000000001
 40
0.0
 40
0.0
 40
0.0
 40
0.0
 40
0.021084201382473
 40
0.0458076778528476
 40
0.0741037146920055
 40
0.1060108605875333
 40
0.1060108605875333
 40
0.1060108605875333
 40
0.1060108605875333
 10
16.90482330321499
 20
8.907463073731001
 30
0.0
 10
16.89945233610921
 20
8.90292900057172
 30
0.0
 10
16.88778333682027
 20
8.893078242704543
 30
0.0
 10
16.86820424045842
 20
8.878008835159905
 30
0.0
 10
16.84554152307437
 20
8.861042129921006
 30
0.0
 10
16.82912666708838
 20
8.849495676324073
 30
0.0
 10
16.82042694091099
 20
8.843376159668004
 30
0.0
 11
16.90482330321499
 21
8.907463073731001
 31
0.0
 11
16.88861846923099
 21
8.893974304198998
 31
0.0
 11
16.869117736809
 21
8.878776550293004
 31
0.0
 11
16.84642791747299
 21
8.861869812012002
 31
0.0
 11
16.82042694091099
 21
8.843376159668004
 31
0.0
  0
SPLINE
  5
3168
330
3124
100
AcDbEntity
  8
AM_0
 48
0.5
100
AcDbSpline
210
0.0
220
0.0
230
1.0
 70
     8
 71
     3
 72
    11
 73
     7
 74
     5
 42
0.0000000001
 43
0.0000000001
 44
0.0000000001
 40
0.0
 40
0.0
 40
0.0
 40
0.0
 40
0.4038978683237076
 40
0.8231638597394447
 40
1.257854276012438
 40
1.707965831410767
 40
1.707965831410767
 40
1.707965831410767
 40
1.707965831410767
 10
15.28852081298099
 20
12.788688659668
 30
0.0
 10
15.37034289382681
 20
12.68176977286162
 30
0.0
 10
15.53710034704262
 20
12.46386378611338
 30
0.0
 10
15.78640953786451
 20
12.12673359806964
 30
0.0
 10
16.04156444542415
 20
11.77479643599449
 30
0.0
 10
16.21128898360971
 20
11.53358751034287
 30
0.0
 10
16.29763031005099
 20
11.410881042481
 30
0.0
 11
15.28852081298099
 21
12.788688659668
 31
0.0
 11
15.53311920165299
 21
12.467277526856
 31
0.0
 11
15.78282928466099
 21
12.130485534668
 31
0.0
 11
16.03772735594999
 21
11.778373718262
 31
0.0
 11
16.29763031005099
 21
11.410881042481
 31
0.0
  0
SPLINE
  5
3169
330
3124
100
AcDbEntity
  8
AM_0
 48
0.5
100
AcDbSpline
210
0.0
220
0.0
230
1.0
 70
     8
 71
     3
 72
    11
 73
     7
 74
     5
 42
0.0000000001
 43
0.0000000001
 44
0.0000000001
 40
0.0
 40
0.0
 40
0.0
 40
0.0
 40
0.0208309018182117
 40
0.0352894076330543
 40
0.0438919009797991
 40
0.0488930607522168
 40
0.0488930607522168
 40
0.0488930607522168
 40
0.0488930607522168
 10
16.90482330321499
 20
8.907463073731001
 30
0.0
 10
16.91004452270937
 20
8.912194364501345
 30
0.0
 10
16.91888973472597
 20
8.920209593514583
 30
0.0
 10
16.92790127485437
 20
8.930711945551806
 30
0.0
 10
16.93436033014152
 20
8.939530105789934
 30
0.0
 10
16.93184174792331
 20
8.943663299477851
 30
0.0
 10
16.930915832512
 20
8.945182800293004
 30
0.0
 11
16.90482330321499
 21
8.907463073731001
 31
0.0
 11
16.919929504387
 21
8.921806335448998
 31
0.0
 11
16.92932891844999
 21
8.932792663573998
 31
0.0
 11
16.932929992669
 21
8.940605163573998
 31
0.0
 11
16.930915832512
 21
8.945182800293004
 31
0.0
  0
SPLINE
  5
316A
330
3124
100
AcDbEntity
  8
AM_0
 48
0.5
100
AcDbSpline
210
0.0
220
0.0
230
1.0
 70
     8
 71
     3
 72
    11
 73
     7
 74
     5
 42
0.0000000001
 43
0.0000000001
 44
0.0000000001
 40
0.0
 40
0.0
 40
0.0
 40
0.0
 40
0.0564704838897686
 40
0.1130248199044055
 40
0.1695273308126156
 40
0.2260244948415198
 40
0.2260244948415198
 40
0.2260244948415198
 40
0.2260244948415198
 10
16.930915832512
 20
8.945182800293004
 30
0.0
 10
16.93748396916098
 20
8.962823196416197
 30
0.0
 10
16.95062999538075
 20
8.998130182606685
 30
0.0
 10
16.97040764162651
 20
9.051065290453758
 30
0.0
 10
16.99023125129911
 20
9.103992687773764
 30
0.0
 10
17.00342222182962
 20
9.139273957282865
 30
0.0
 10
17.010017395012
 20
9.156913757323998
 30
0.0
 11
16.930915832512
 21
8.945182800293004
 31
0.0
 11
16.95063018798099
 21
8.998100280762002
 31
0.0
 11
16.97042083739499
 21
9.051078796387002
 31
0.0
 11
16.99022674559799
 21
9.103996276856001
 31
0.0
 11
17.010017395012
 21
9.156913757323998
 31
0.0
  0
SPLINE
  5
316B
330
3124
100
AcDbEntity
  8
AM_0
 48
0.5
100
AcDbSpline
210
0.0
220
0.0
230
1.0
 70
     8
 71
     3
 72
    11
 73
     7
 74
     5
 42
0.0000000001
 43
0.0000000001
 44
0.0000000001
 40
0.0
 40
0.0
 40
0.0
 40
0.0
 40
0.0429061520372935
 40
0.08581230407442
 40
0.1287184561117275
 40
0.1715343572004366
 40
0.1715343572004366
 40
0.1715343572004366
 40
0.1715343572004366
 10
12.10573577880099
 20
6.835681915283004
 30
0.0
 10
12.09163664228648
 20
6.838082540962338
 30
0.0
 10
12.06343836925751
 20
6.842883792320997
 30
0.0
 10
12.02114123728923
 20
6.850087297758959
 30
0.0
 10
11.97887265243281
 20
6.857279243420254
 30
0.0
 10
11.95070625158582
 20
6.862088441588518
 30
0.0
 10
11.93663787841099
 20
6.864490509033004
 30
0.0
 11
12.10573577880099
 21
6.835681915283004
 31
0.0
 11
12.06343841551999
 21
6.842884063721001
 31
0.0
 11
12.021141052239
 21
6.850086212158004
 31
0.0
 11
11.97884368895799
 21
6.857288360596001
 31
0.0
 11
11.93663787841099
 21
6.864490509033004
 31
0.0
  0
SPLINE
  5
316C
330
3124
100
AcDbEntity
  8
AM_0
 48
0.5
100
AcDbSpline
210
0.0
220
0.0
230
1.0
 70
     8
 71
     3
 72
    11
 73
     7
 74
     5
 42
0.0000000001
 43
0.0000000001
 44
0.0000000001
 40
0.0
 40
0.0
 40
0.0
 40
0.0
 40
0.0272357032134246
 40
0.0469684032114315
 40
0.0601058572843953
 40
0.0691855419875127
 40
0.0691855419875127
 40
0.0691855419875127
 40
0.0691855419875127
 10
11.92241668700499
 20
6.931507110596001
 30
0.0
 10
11.91585983585004
 20
6.9251215213361
 30
0.0
 10
11.90455244178608
 20
6.914109471133053
 30
0.0
 10
11.89270302145132
 20
6.898592056044491
 30
0.0
 10
11.88521778538613
 20
6.88520649898354
 30
0.0
 10
11.88820597415807
 20
6.878082920456534
 30
0.0
 10
11.88942718505099
 20
6.875171661377002
 30
0.0
 11
11.92241668700499
 21
6.931507110596001
 31
0.0
 11
11.90343475341099
 21
6.911975860596001
 31
0.0
 11
11.89162445067599
 21
6.896167755127002
 31
0.0
 11
11.88692474364499
 21
6.883899688721001
 31
0.0
 11
11.88942718505099
 21
6.875171661377002
 31
0.0
  0
SPLINE
  5
316D
330
3124
100
AcDbEntity
  8
AM_0
 48
0.5
100
AcDbSpline
210
0.0
220
0.0
230
1.0
 70
     8
 71
     3
 72
    11
 73
     7
 74
     5
 42
0.0000000001
 43
0.0000000001
 44
0.0000000001
 40
0.0
 40
0.0
 40
0.0
 40
0.0
 40
0.0507080210345884
 40
0.1935860453468645
 40
0.4127158761331341
 40
0.68042985479685
 40
0.68042985479685
 40
0.68042985479685
 40
0.68042985479685
 10
10.32134246825999
 20
8.673210144043004
 30
0.0
 10
10.3312189267007
 20
8.686960022545104
 30
0.0
 10
10.36892389906127
 20
8.739452400455213
 30
0.0
 10
10.47311445187536
 20
8.830816862066145
 30
0.0
 10
10.62612956780493
 20
8.973857570529075
 30
0.0
 10
10.75038839370878
 20
9.078419413638593
 30
0.0
 10
10.81871795653999
 20
9.135917663573998
 30
0.0
 11
10.32134246825999
 21
8.673210144043004
 31
0.0
 11
10.35173797606999
 21
8.713798522948998
 31
0.0
 11
10.45333099364999
 21
8.814262390137002
 31
0.0
 11
10.61553192137999
 21
8.961601257323998
 31
0.0
 11
10.81871795653999
 21
9.135917663573998
 31
0.0
  0
SPLINE
  5
316E
330
3124
100
AcDbEntity
  8
AM_0
 48
0.5
100
AcDbSpline
210
0.0
220
0.0
230
1.0
 70
     8
 71
     3
 72
    11
 73
     7
 74
     5
 42
0.0000000001
 43
0.0000000001
 44
0.0000000001
 40
0.0
 40
0.0
 40
0.0
 40
0.0
 40
0.0677298303861371
 40
0.126233460384196
 40
0.1756627148802476
 40
0.2160922291516679
 40
0.2160922291516679
 40
0.2160922291516679
 40
0.2160922291516679
 10
12.09624481200499
 20
7.059558868408004
 30
0.0
 10
12.07743559993373
 20
7.047068709038413
 30
0.0
 10
12.04237937857131
 20
7.023789807718495
 30
0.0
 10
11.99463187740232
 20
6.989895715968582
 30
0.0
 10
11.95508684743931
 20
6.960140645797673
 30
0.0
 10
11.93255450359695
 20
6.940392329535694
 30
0.0
 10
11.92241668700499
 20
6.931507110596001
 30
0.0
 11
12.09624481200499
 21
7.059558868408004
 31
0.0
 11
12.04003143309799
 21
7.02177810669
 31
0.0
 11
11.992332458489
 21
6.987903594971001
 31
0.0
 11
11.95311737059799
 21
6.95781326294
 31
0.0
 11
11.92241668700499
 21
6.931507110596001
 31
0.0
  0
SPLINE
  5
316F
330
3124
100
AcDbEntity
  8
AM_0
 48
0.5
100
AcDbSpline
210
0.0
220
0.0
230
1.0
 70
     8
 71
     3
 72
    11
 73
     7
 74
     5
 42
0.0000000001
 43
0.0000000001
 44
0.0000000001
 40
0.0
 40
0.0
 40
0.0
 40
0.0
 40
0.0348211316816385
 40
0.0716157771027307
 40
0.1099899175965206
 40
0.1501410776217671
 40
0.1501410776217671
 40
0.1501410776217671
 40
0.1501410776217671
 10
12.30623626708299
 20
6.953784942627002
 30
0.0
 10
12.31589055148261
 20
6.960228484843725
 30
0.0
 10
12.33574628408689
 20
6.973480761862286
 30
0.0
 10
12.36642878220508
 20
6.993551346716422
 30
0.0
 10
12.39880322819918
 20
7.014277773808691
 30
0.0
 10
12.42099031218149
 20
7.028165747607308
 30
0.0
 10
12.43233489989499
 20
7.035266876221001
 30
0.0
 11
12.30623626708299
 21
6.953784942627002
 31
0.0
 11
12.33522796630099
 21
6.973072052002002
 31
0.0
 11
12.36602020262999
 21
6.993213653565
 31
0.0
 11
12.398338317864
 21
7.013904571533004
 31
0.0
 11
12.43233489989499
 21
7.035266876221001
 31
0.0
  0
SPLINE
  5
3170
330
3124
100
AcDbEntity
  8
AM_0
 48
0.5
100
AcDbSpline
210
0.0
220
0.0
230
1.0
 70
     8
 71
     3
 72
    11
 73
     7
 74
     5
 42
0.0000000001
 43
0.0000000001
 44
0.0000000001
 40
0.0
 40
0.0
 40
0.0
 40
0.0
 40
0.055893442129727
 40
0.1092409008877265
 40
0.1600744293466092
 40
0.2081667727093742
 40
0.2081667727093742
 40
0.2081667727093742
 40
0.2081667727093742
 10
12.27422332762999
 20
7.167469024658004
 30
0.0
 10
12.25805940123007
 20
7.158202782156361
 30
0.0
 10
12.22646782600175
 20
7.140092380646745
 30
0.0
 10
12.18068441436812
 20
7.112684900629004
 30
0.0
 10
12.13741186304613
 20
7.086148770661738
 30
0.0
 10
12.10971130628544
 20
7.068256911079553
 30
0.0
 10
12.09624481200499
 20
7.059558868408004
 30
0.0
 11
12.27422332762999
 21
7.167469024658004
 31
0.0
 11
12.22582244872299
 21
7.139514923096001
 31
0.0
 11
12.18001556395799
 21
7.112171173096001
 31
0.0
 11
12.13674163817599
 21
7.085498809815
 31
0.0
 11
12.09624481200499
 21
7.059558868408004
 31
0.0
  0
SPLINE
  5
3171
330
3124
100
AcDbEntity
  8
AM_0
 48
0.5
100
AcDbSpline
210
0.0
220
0.0
230
1.0
 70
     8
 71
     3
 72
    11
 73
     7
 74
     5
 42
0.0000000001
 43
0.0000000001
 44
0.0000000001
 40
0.0
 40
0.0
 40
0.0
 40
0.0
 40
0.0416973765766803
 40
0.0841803993437622
 40
0.1276046396853827
 40
0.1719711216326289
 40
0.1719711216326289
 40
0.1719711216326289
 40
0.1719711216326289
 10
12.43233489989499
 20
7.035266876221001
 30
0.0
 10
12.4441180184072
 20
7.042639031144025
 30
0.0
 10
12.46790626849168
 20
7.057522244343376
 30
0.0
 10
12.50428092913766
 20
7.079571536351529
 30
0.0
 10
12.54146643575055
 20
7.10199766610801
 30
0.0
 10
12.5666241898895
 20
7.116945926170005
 30
0.0
 10
12.57933807372299
 20
7.124500274658004
 30
0.0
 11
12.43233489989499
 21
7.035266876221001
 31
0.0
 11
12.46773529051999
 21
7.057300567627002
 31
0.0
 11
12.50402069091099
 21
7.07939529419
 31
0.0
 11
12.54122161864499
 21
7.101795196533004
 31
0.0
 11
12.57933807372299
 21
7.124500274658004
 31
0.0
  0
SPLINE
  5
3172
330
3124
100
AcDbEntity
  8
AM_0
 48
0.5
100
AcDbSpline
210
0.0
220
0.0
230
1.0
 70
     8
 71
     3
 72
    11
 73
     7
 74
     5
 42
0.0000000001
 43
0.0000000001
 44
0.0000000001
 40
0.0
 40
0.0
 40
0.0
 40
0.0
 40
0.0517245221588269
 40
0.1025358773351221
 40
0.1524548092756627
 40
0.201405955874685
 40
0.201405955874685
 40
0.201405955874685
 40
0.201405955874685
 10
12.45043182372299
 20
7.265003204346001
 30
0.0
 10
12.43524745657897
 20
7.256835541765678
 30
0.0
 10
12.40514679364566
 20
7.240644412036552
 30
0.0
 10
12.3606920945565
 20
7.21602045498862
 30
0.0
 10
12.31706720448422
 20
7.191807007452846
 30
0.0
 10
12.28841112031535
 20
7.175528572010543
 30
0.0
 10
12.27422332762999
 20
7.167469024658004
 30
0.0
 11
12.45043182372299
 21
7.265003204346001
 31
0.0
 11
12.404930114739
 21
7.240406036377002
 31
0.0
 11
12.36043548583299
 21
7.215869903565
 31
0.0
 11
12.316825866692
 21
7.191577911377002
 31
0.0
 11
12.27422332762999
 21
7.167469024658004
 31
0.0
  0
ELLIPSE
  5
3173
330
3124
100
AcDbEntity
  8
AM_0
 48
0.5
100
AcDbEllipse
 10
16.154029846184
 20
9.177970886231001
 30
0.0
 11
0.1983642568319936
 21
0.1136474604750006
 31
0.0
210
0.0
220
0.0
230
0.9999999999999998
 40
0.0781840668529
 41
0.0
 42
0.6175696025212054
  0
SPLINE
  5
3174
330
3124
100
AcDbEntity
  8
AM_0
 48
0.5
100
AcDbSpline
210
0.0
220
0.0
230
1.0
 70
     8
 71
     3
 72
    11
 73
     7
 74
     5
 42
0.0000000001
 43
0.0000000001
 44
0.0000000001
 40
0.0
 40
0.0
 40
0.0
 40
0.0
 40
0.0095222668444386
 40
0.0220608326521235
 40
0.0391904188464105
 40
0.0611804462946059
 40
0.0611804462946059
 40
0.0611804462946059
 40
0.0611804462946059
 10
16.44281768798099
 20
9.549064636231001
 30
0.0
 10
16.44037750697189
 20
9.551189305596544
 30
0.0
 10
16.43472418662687
 20
9.556111660334137
 30
0.0
 10
16.42115435704484
 20
9.557621164104466
 30
0.0
 10
16.40409281158512
 20
9.556461625622951
 30
0.0
 10
16.39130528623772
 20
9.553680005938057
 30
0.0
 10
16.38411712645799
 20
9.552116394043004
 30
0.0
 11
16.44281768798099
 21
9.549064636231001
 31
0.0
 11
16.435127258294
 21
9.554679870606001
 31
0.0
 11
16.422828674309
 21
9.557121276856001
 31
0.0
 11
16.40572357176999
 21
9.556205749512002
 31
0.0
 11
16.38411712645799
 21
9.552116394043004
 31
0.0
  0
SPLINE
  5
3175
330
3124
100
AcDbEntity
  8
AM_0
 48
0.5
100
AcDbSpline
210
0.0
220
0.0
230
1.0
 70
     8
 71
     3
 72
    11
 73
     7
 74
     5
 42
0.0000000001
 43
0.0000000001
 44
0.0000000001
 40
0.0
 40
0.0
 40
0.0
 40
0.0
 40
0.115436789371372
 40
0.2242388858241554
 40
0.3156518039646361
 40
0.3805684691265541
 40
0.3805684691265541
 40
0.3805684691265541
 40
0.3805684691265541
 10
14.940818786614
 20
12.561393737793
 30
0.0
 10
14.97079580326719
 20
12.58552963906401
 30
0.0
 10
15.02902691703298
 20
12.63241423832258
 30
0.0
 10
15.11353157359817
 20
12.69506348747602
 30
0.0
 10
15.18601672281761
 20
12.74588158612817
 30
0.0
 10
15.2318787242651
 20
12.7706945279909
 30
0.0
 10
15.25092315673099
 20
12.780998229981
 30
0.0
 11
14.940818786614
 21
12.561393737793
 31
0.0
 11
15.031227111809
 21
12.633171081543
 31
0.0
 11
15.11852264403599
 21
12.698112487793
 31
0.0
 11
15.19432830809799
 21
12.749198913574
 31
0.0
 11
15.25092315673099
 21
12.780998229981
 31
0.0
  0
SPLINE
  5
3176
330
3124
100
AcDbEntity
  8
AM_0
 48
0.5
100
AcDbSpline
210
0.0
220
0.0
230
1.0
 70
     8
 71
     3
 72
    11
 73
     7
 74
     5
 42
0.0000000001
 43
0.0000000001
 44
0.0000000001
 40
0.0
 40
0.0
 40
0.0
 40
0.0
 40
1.054586059492243
 40
2.109171555559848
 40
3.163748823149844
 40
4.218427646886101
 40
4.218427646886101
 40
4.218427646886101
 40
4.218427646886101
 10
10.81871795653999
 20
9.135917663573998
 30
0.0
 10
11.08843252513528
 20
9.361364935441468
 30
0.0
 10
11.62786151822778
 20
9.812259358728626
 30
0.0
 10
12.43736520481607
 20
10.48816546965209
 30
0.0
 10
13.24727678699304
 20
11.16363111350009
 30
0.0
 10
13.78757134326456
 20
11.61353204869109
 30
0.0
 10
14.05773162841099
 20
11.838493347168
 30
0.0
 11
10.81871795653999
 21
9.135917663573998
 31
0.0
 11
11.62792205809799
 21
9.812187194823998
 31
0.0
 11
12.43743133544199
 21
10.488090515137
 31
0.0
 11
13.24733734130099
 21
11.16350555419899
 31
0.0
 11
14.05773162841099
 21
11.838493347168
 31
0.0
  0
ELLIPSE
  5
3177
330
3124
100
AcDbEntity
  8
AM_0
 48
0.5
100
AcDbEllipse
 10
16.17232513426999
 20
9.189689636231001
 30
0.0
 11
0.1759796148819959
 21
0.100830083117998
 31
0.0
210
0.0
220
0.0
230
0.9999999999999998
 40
0.078385261499
 41
0.6167500768958075
 42
1.16314212972079
  0
SPLINE
  5
3178
330
3124
100
AcDbEntity
  8
AM_0
 48
0.5
100
AcDbSpline
210
0.0
220
0.0
230
1.0
 70
     8
 71
     3
 72
    11
 73
     7
 74
     5
 42
0.0000000001
 43
0.0000000001
 44
0.0000000001
 40
0.0
 40
0.0
 40
0.0
 40
0.0
 40
0.0351364589993124
 40
0.0784907147857348
 40
0.1286920565941092
 40
0.1842449552300057
 40
0.1842449552300057
 40
0.1842449552300057
 40
0.1842449552300057
 10
16.38411712645799
 20
9.552116394043004
 30
0.0
 10
16.37288671789418
 20
9.548764086099632
 30
0.0
 10
16.34779930668046
 20
9.541275424630866
 30
0.0
 10
16.30828792768838
 20
9.524389150769911
 30
0.0
 10
16.2635016342459
 20
9.502814094772038
 30
0.0
 10
16.23270655724483
 20
9.485638354159622
 30
0.0
 10
16.216529846184
 20
9.476615905762002
 30
0.0
 11
16.38411712645799
 21
9.552116394043004
 31
0.0
 11
16.35062408446499
 21
9.541496276856001
 31
0.0
 11
16.310523986809
 21
9.525016784668004
 31
0.0
 11
16.26532745360599
 21
9.503166198731001
 31
0.0
 11
16.216529846184
 21
9.476615905762002
 31
0.0
  0
ELLIPSE
  5
3179
330
3124
100
AcDbEntity
  8
AM_0
 48
0.5
100
AcDbEllipse
 10
16.16222381591099
 20
9.181388854981001
 30
0.0
 11
0.2030486998639986
 21
0.1163330060480021
 31
0.0
210
0.0
220
0.0
230
0.9999999999999998
 40
0.0781592590081
 41
1.163802812200309
 42
1.362912611523845
  0
SPLINE
  5
317A
330
3124
100
AcDbEntity
  8
AM_0
 48
0.5
100
AcDbSpline
210
0.0
220
0.0
230
1.0
 70
     8
 71
     3
 72
    11
 73
     7
 74
     5
 42
0.0000000001
 43
0.0000000001
 44
0.0000000001
 40
0.0
 40
0.0
 40
0.0
 40
0.0
 40
0.0248754814596219
 40
0.0501864597731047
 40
0.0759306552945048
 40
0.1021065953718263
 40
0.1021065953718263
 40
0.1021065953718263
 40
0.1021065953718263
 10
16.216529846184
 20
9.476615905762002
 30
0.0
 10
16.20934523045794
 20
9.472475849634403
 30
0.0
 10
16.19485021741843
 20
9.464123257117012
 30
0.0
 10
16.17325354611269
 20
9.450919225905209
 30
0.0
 10
16.15157628217047
 20
9.437030790473453
 30
0.0
 10
16.13711844018683
 20
9.42751787373583
 30
0.0
 10
16.12982940673099
 20
9.422721862793004
 30
0.0
 11
16.216529846184
 21
9.476615905762002
 31
0.0
 11
16.19503021239499
 21
9.464103698731001
 31
0.0
 11
16.17342376708299
 21
9.450920104981001
 31
0.0
 11
16.15172576903599
 21
9.437065124512002
 31
0.0
 11
16.12982940673099
 21
9.422721862793004
 31
0.0
  0
ELLIPSE
  5
317B
330
3124
100
AcDbEntity
  8
AM_0
 48
0.5
100
AcDbEllipse
 10
16.166328430169
 20
9.186393737793004
 30
0.0
 11
0.1765747128360005
 21
0.1011352540189989
 31
0.0
210
0.0
220
0.0
230
1.0
 40
0.0785000299873
 41
1.361982270437872
 42
1.613921783506014
  0
SPLINE
  5
317C
330
3124
100
AcDbEntity
  8
AM_0
 48
0.5
100
AcDbSpline
210
0.0
220
0.0
230
1.0
 70
     8
 71
     3
 72
    11
 73
     7
 74
     5
 42
0.0000000001
 43
0.0000000001
 44
0.0000000001
 40
0.0
 40
0.0
 40
0.0
 40
0.0
 40
0.21495051982143
 40
0.4598745197378501
 40
0.734810538156296
 40
1.039761199756124
 40
1.039761199756124
 40
1.039761199756124
 40
1.039761199756124
 10
-13.81777191162
 20
4.987903594971001
 30
0.0
 10
-13.75861846178991
 20
4.947470677932829
 30
0.0
 10
-13.63206299053985
 20
4.860966731257206
 30
0.0
 10
-13.43252930853041
 20
4.718888990757148
 30
0.0
 10
-13.20999273201438
 20
4.557428954799272
 30
0.0
 10
-13.05480698084615
 20
4.442184878613934
 30
0.0
 10
-12.97319793700999
 20
4.381580352783004
 30
0.0
 11
-13.81777191162
 21
4.987903594971001
 31
0.0
 11
-13.64067840576
 21
4.866077423096001
 31
0.0
 11
-13.44087982178
 21
4.72441482544
 31
0.0
 11
-13.21837615967
 21
4.562915802002002
 31
0.0
 11
-12.97319793700999
 21
4.381580352783004
 31
0.0
  0
SPLINE
  5
317D
330
3124
100
AcDbEntity
  8
AM_0
 48
0.5
100
AcDbSpline
210
0.0
220
0.0
230
1.0
 70
     8
 71
     3
 72
    11
 73
     7
 74
     5
 42
0.0000000001
 43
0.0000000001
 44
0.0000000001
 40
0.0
 40
0.0
 40
0.0
 40
0.0
 40
0.1083324506502769
 40
0.204921853353605
 40
0.2901982768868927
 40
0.3645254219115946
 40
0.3645254219115946
 40
0.3645254219115946
 40
0.3645254219115946
 10
-12.70729827881
 20
4.629383087158004
 30
0.0
 10
-12.73121522540176
 20
4.602311822753762
 30
0.0
 10
-12.77645656345627
 20
4.551103771601561
 30
0.0
 10
-12.84529812398298
 20
4.483103468188106
 30
0.0
 10
-12.90913350179405
 20
4.42614323231863
 30
0.0
 10
-12.95284265106103
 20
4.395739381151854
 30
0.0
 10
-12.97319793700999
 20
4.381580352783004
 30
0.0
 11
-12.70729827881
 21
4.629383087158004
 31
0.0
 11
-12.77999114991
 21
4.549060821533004
 31
0.0
 11
-12.84859466553
 21
4.481067657471001
 31
0.0
 11
-12.91298675536999
 21
4.425159454346001
 31
0.0
 11
-12.97319793700999
 21
4.381580352783004
 31
0.0
  0
SPLINE
  5
317E
330
3124
100
AcDbEntity
  8
AM_0
 48
0.5
100
AcDbSpline
210
0.0
220
0.0
230
1.0
 70
     8
 71
     3
 72
    11
 73
     7
 74
     5
 42
0.0000000001
 43
0.0000000001
 44
0.0000000001
 40
0.0
 40
0.0
 40
0.0
 40
0.0
 40
0.0211608103240226
 40
0.0459089856985901
 40
0.0742075197398502
 40
0.1061067253697794
 40
0.1061067253697794
 40
0.1061067253697794
 40
0.1061067253697794
 10
-16.16658782959
 20
10.18621063232399
 30
0.0
 10
-16.1599326983612
 20
10.18386911344359
 30
0.0
 10
-16.14549420003685
 20
10.17878912098831
 30
0.0
 10
-16.12267258228819
 20
10.16922664403665
 30
0.0
 10
-16.09660158946219
 20
10.15817708693831
 30
0.0
 10
-16.07841578002423
 20
10.14969155197884
 30
0.0
 10
-16.0687789917
 20
10.14519500732399
 30
0.0
 11
-16.16658782959
 21
10.18621063232399
 31
0.0
 11
-16.14669036866
 21
10.179008483887
 31
0.0
 11
-16.12377166747999
 21
10.169670104981
 31
0.0
 11
-16.09777069092
 21
10.158500671387
 31
0.0
 11
-16.0687789917
 21
10.14519500732399
 31
0.0
  0
SPLINE
  5
317F
330
3124
100
AcDbEntity
  8
AM_0
 48
0.5
100
AcDbSpline
210
0.0
220
0.0
230
1.0
 70
     8
 71
     3
 72
    11
 73
     7
 74
     5
 42
0.0000000001
 43
0.0000000001
 44
0.0000000001
 40
0.0
 40
0.0
 40
0.0
 40
0.0
 40
0.4039031244467794
 40
0.8232155274290073
 40
1.257890892155397
 40
1.708038414967373
 40
1.708038414967373
 40
1.708038414967373
 40
1.708038414967373
 10
-18.7195968628
 20
6.845813751221001
 30
0.0
 10
-18.66792637616276
 20
6.970140372335105
 30
0.0
 10
-18.56261412593483
 20
7.22353679038485
 30
0.0
 10
-18.39538281859866
 20
7.608057919294704
 30
0.0
 10
-18.21792841204832
 20
8.00491184054405
 30
0.0
 10
-18.09394954870669
 20
8.272533240857139
 30
0.0
 10
-18.03087615967
 20
8.408683776856001
 30
0.0
 11
-18.7195968628
 21
6.845813751221001
 31
0.0
 11
-18.56359100342
 21
7.218372344971001
 31
0.0
 11
-18.39678192139
 21
7.603076934815
 31
0.0
 11
-18.2191696167
 21
7.999809265137002
 31
0.0
 11
-18.03087615967
 21
8.408683776856001
 31
0.0
  0
SPLINE
  5
3180
330
3124
100
AcDbEntity
  8
AM_0
 48
0.5
100
AcDbSpline
210
0.0
220
0.0
230
1.0
 70
     8
 71
     3
 72
    11
 73
     7
 74
     5
 42
0.0000000001
 43
0.0000000001
 44
0.0000000001
 40
0.0
 40
0.0
 40
0.0
 40
0.0
 40
0.0206894100460968
 40
0.0352107755905041
 40
0.0437679502108581
 40
0.0488342358444455
 40
0.0488342358444455
 40
0.0488342358444455
 40
0.0488342358444455
 10
-16.16658782959
 20
10.18621063232399
 30
0.0
 10
-16.17323343643926
 20
10.18839777878451
 30
0.0
 10
-16.18454342405665
 20
10.1921200271731
 30
0.0
 10
-16.19813072546916
 20
10.19465874528423
 30
0.0
 10
-16.20900484713986
 20
10.19571184633286
 30
0.0
 10
-16.21132009724915
 20
10.19145556535522
 30
0.0
 10
-16.21218109131
 20
10.18987274169899
 30
0.0
 11
-16.16658782959
 21
10.18621063232399
 31
0.0
 11
-16.1863937378
 21
10.192192077637
 31
0.0
 11
-16.20067596436
 21
10.194816589356
 31
0.0
 11
-16.20919036866
 21
10.193962097168
 31
0.0
 11
-16.21218109131
 21
10.18987274169899
 31
0.0
  0
SPLINE
  5
3181
330
3124
100
AcDbEntity
  8
AM_0
 48
0.5
100
AcDbSpline
210
0.0
220
0.0
230
1.0
 70
     8
 71
     3
 72
    11
 73
     7
 74
     5
 42
0.0000000001
 43
0.0000000001
 44
0.0000000001
 40
0.0
 40
0.0
 40
0.0
 40
0.0
 40
0.0564619815215804
 40
0.1130645207355441
 40
0.1695265022571245
 40
0.2259985446398795
 40
0.2259985446398795
 40
0.2259985446398795
 40
0.2259985446398795
 10
-16.21218109131
 20
10.18987274169899
 30
0.0
 10
-16.23074787897081
 20
10.18679180373655
 30
0.0
 10
-16.26792767485995
 20
10.18062225805727
 30
0.0
 10
-16.32363948897896
 20
10.17116416522862
 30
0.0
 10
-16.37939434278728
 20
10.16194279952939
 30
0.0
 10
-16.41651799982078
 20
10.15570129267447
 30
0.0
 10
-16.43508148194
 20
10.152580261231
 30
0.0
 11
-16.21218109131
 21
10.18987274169899
 31
0.0
 11
-16.26787567139
 21
10.18059539794899
 31
0.0
 11
-16.32369232178
 21
10.171195983887
 31
0.0
 11
-16.37938690186
 21
10.161918640137
 31
0.0
 11
-16.43508148194
 21
10.152580261231
 31
0.0
  0
SPLINE
  5
3182
330
3124
100
AcDbEntity
  8
AM_0
 48
0.5
100
AcDbSpline
210
0.0
220
0.0
230
1.0
 70
     8
 71
     3
 72
    11
 73
     7
 74
     5
 42
0.0000000001
 43
0.0000000001
 44
0.0000000001
 40
0.0
 40
0.0
 40
0.0
 40
0.0
 40
0.0428334620615873
 40
0.0857241566139792
 40
0.1286254570793058
 40
0.1715733945975411
 40
0.1715733945975411
 40
0.1715733945975411
 40
0.1715733945975411
 10
-11.97267913819
 20
7.065967559815
 30
0.0
 10
-11.9677122577556
 20
7.052581511463358
 30
0.0
 10
-11.95777186032451
 20
7.025791528816414
 30
0.0
 10
-11.94290517453652
 20
6.985576341395328
 30
0.0
 10
-11.92795069838556
 20
6.94535299078405
 30
0.0
 10
-11.91803756661713
 20
6.918508449930084
 30
0.0
 10
-11.91307830811
 20
6.90507888794
 30
0.0
 11
-11.97267913819
 21
7.065967559815
 31
0.0
 11
-11.95778656006
 21
7.025806427002002
 31
0.0
 11
-11.94289398194
 21
6.985584259033004
 31
0.0
 11
-11.92797088622999
 21
6.945362091065
 31
0.0
 11
-11.91307830811
 21
6.90507888794
 31
0.0
  0
SPLINE
  5
3183
330
3124
100
AcDbEntity
  8
AM_0
 48
0.5
100
AcDbSpline
210
0.0
220
0.0
230
1.0
 70
     8
 71
     3
 72
    11
 73
     7
 74
     5
 42
0.0000000001
 43
0.0000000001
 44
0.0000000001
 40
0.0
 40
0.0
 40
0.0
 40
0.0
 40
0.0271493952702433
 40
0.0468784843770447
 40
0.0600633496302511
 40
0.0690407061602418
 40
0.0690407061602418
 40
0.0690407061602418
 40
0.0690407061602418
 10
-11.96398162842
 20
6.859302520752002
 30
0.0
 10
-11.95521089930765
 20
6.856808854027782
 30
0.0
 10
-11.94006660295865
 20
6.852503074270654
 30
0.0
 10
-11.92068593274231
 20
6.849916711316817
 30
0.0
 10
-11.90542915177137
 20
6.850360121569866
 30
0.0
 10
-11.9007083565226
 20
6.856420406309728
 30
0.0
 10
-11.89879608155
 20
6.858875274658004
 30
0.0
 11
-11.96398162842
 21
6.859302520752002
 31
0.0
 11
-11.93767547608
 21
6.852588653565
 31
0.0
 11
-11.91808319092
 21
6.850269317627002
 31
0.0
 11
-11.90508270264
 21
6.852466583252002
 31
0.0
 11
-11.89879608155
 21
6.858875274658004
 31
0.0
  0
SPLINE
  5
3184
330
3124
100
AcDbEntity
  8
AM_0
 48
0.5
100
AcDbSpline
210
0.0
220
0.0
230
1.0
 70
     8
 71
     3
 72
    11
 73
     7
 74
     5
 42
0.0000000001
 43
0.0000000001
 44
0.0000000001
 40
0.0
 40
0.0
 40
0.0
 40
0.0
 40
0.0506474125075404
 40
0.19363783336797
 40
0.4126337707685809
 40
0.6804043869492185
 40
0.6804043869492185
 40
0.6804043869492185
 40
0.6804043869492185
 10
-12.67189788819
 20
4.601917266846001
 30
0.0
 10
-12.68872552877495
 20
4.603578482174873
 30
0.0
 10
-12.75306184335131
 20
4.609929727403687
 30
0.0
 10
-12.88424292508083
 20
4.654544143644868
 30
0.0
 10
-13.08467194592492
 20
4.715421951110076
 30
0.0
 10
-13.23731331236423
 20
4.770796506256201
 30
0.0
 10
-13.32128143311
 20
4.801258087158004
 30
0.0
 11
-12.67189788819
 21
4.601917266846001
 31
0.0
 11
-12.72219085694
 21
4.607898712158004
 31
0.0
 11
-12.86009979247999
 21
4.645679473877002
 31
0.0
 11
-13.06868743897
 21
4.712390899658004
 31
0.0
 11
-13.32128143311
 21
4.801258087158004
 31
0.0
  0
SPLINE
  5
3185
330
3124
100
AcDbEntity
  8
AM_0
 48
0.5
100
AcDbSpline
210
0.0
220
0.0
230
1.0
 70
     8
 71
     3
 72
    11
 73
     7
 74
     5
 42
0.0000000001
 43
0.0000000001
 44
0.0000000001
 40
0.0
 40
0.0
 40
0.0
 40
0.0
 40
0.0676956653926064
 40
0.1262832559271476
 40
0.1756466625353779
 40
0.2161657785705212
 40
0.2161657785705212
 40
0.2161657785705212
 40
0.2161657785705212
 10
-12.16188812256
 20
6.945789337158004
 30
0.0
 10
-12.14168654513638
 20
6.935729363480854
 30
0.0
 10
-12.10400140005179
 20
6.916962929572214
 30
0.0
 10
-12.05068369605626
 20
6.892771546690822
 30
0.0
 10
-12.00514484279076
 20
6.873308660520815
 30
0.0
 10
-11.97677208930968
 20
6.863654585712598
 30
0.0
 10
-11.96398162842
 20
6.859302520752002
 30
0.0
 11
-12.16188812256
 21
6.945789337158004
 31
0.0
 11
-12.10109710694
 21
6.916004180908004
 31
0.0
 11
-12.04778289795
 21
6.891712188721001
 31
0.0
 11
-12.00218963623
 21
6.872791290283004
 31
0.0
 11
-11.96398162842
 21
6.859302520752002
 31
0.0
  0
SPLINE
  5
3186
330
3124
100
AcDbEntity
  8
AM_0
 48
0.5
100
AcDbSpline
210
0.0
220
0.0
230
1.0
 70
     8
 71
     3
 72
    11
 73
     7
 74
     5
 42
0.0000000001
 43
0.0000000001
 44
0.0000000001
 40
0.0
 40
0.0
 40
0.0
 40
0.0
 40
0.0349658605653106
 40
0.071596922034075
 40
0.1101149054409717
 40
0.1503589252806971
 40
0.1503589252806971
 40
0.1503589252806971
 40
0.1503589252806971
 10
-12.17519378661999
 20
7.18046951294
 30
0.0
 10
-12.18562209625447
 20
7.185674840973115
 30
0.0
 10
-12.20697534939269
 20
7.196333393610557
 30
0.0
 10
-12.23978786058345
 20
7.212784212923184
 30
0.0
 10
-12.27393768772197
 20
7.230486888464874
 30
0.0
 10
-12.29713169962343
 20
7.242787792141373
 30
0.0
 10
-12.30898284912
 20
7.249073028565
 30
0.0
 11
-12.17519378661999
 21
7.18046951294
 31
0.0
 11
-12.2064743042
 21
7.19609451294
 31
0.0
 11
-12.23918914795
 21
7.212574005127002
 31
0.0
 11
-12.27339935303
 21
7.23027420044
 31
0.0
 11
-12.30898284912
 21
7.249073028565
 31
0.0
  0
SPLINE
  5
3187
330
3124
100
AcDbEntity
  8
AM_0
 48
0.5
100
AcDbSpline
210
0.0
220
0.0
230
1.0
 70
     8
 71
     3
 72
    11
 73
     7
 74
     5
 42
0.0000000001
 43
0.0000000001
 44
0.0000000001
 40
0.0
 40
0.0
 40
0.0
 40
0.0
 40
0.0559422834704631
 40
0.1093055914461358
 40
0.1600999436051511
 40
0.2082286412606243
 40
0.2082286412606243
 40
0.2082286412606243
 40
0.2082286412606243
 10
-12.34438323975
 20
7.046009063721001
 30
0.0
 10
-12.32824481436908
 20
7.036666235726356
 30
0.0
 10
-12.29671195546813
 20
7.0184112901578
 30
0.0
 10
-12.25009432474846
 20
6.992430494778577
 30
0.0
 10
-12.20544083580774
 20
6.968282560033694
 30
0.0
 10
-12.17614252894442
 20
6.953151164145489
 30
0.0
 10
-12.16188812256
 20
6.945789337158004
 30
0.0
 11
-12.34438323975
 21
7.046009063721001
 31
0.0
 11
-12.29589080811
 21
7.018115997315
 31
0.0
 11
-12.24929046631
 21
6.992115020752002
 31
0.0
 11
-12.20458221436
 21
6.968006134033004
 31
0.0
 11
-12.16188812256
 21
6.945789337158004
 31
0.0
  0
SPLINE
  5
3188
330
3124
100
AcDbEntity
  8
AM_0
 48
0.5
100
AcDbSpline
210
0.0
220
0.0
230
1.0
 70
     8
 71
     3
 72
    11
 73
     7
 74
     5
 42
0.0000000001
 43
0.0000000001
 44
0.0000000001
 40
0.0
 40
0.0
 40
0.0
 40
0.0
 40
0.0415057574659073
 40
0.0840039915302734
 40
0.1275529925365603
 40
0.1719025415491556
 40
0.1719025415491556
 40
0.1719025415491556
 40
0.1719025415491556
 10
-12.30898284912
 20
7.249073028565
 30
0.0
 10
-12.32118893085254
 20
7.255586624567163
 30
0.0
 10
-12.34589296347549
 20
7.268769568255076
 30
0.0
 10
-12.38323186351536
 20
7.289107059054926
 30
0.0
 10
-12.42123023839899
 20
7.310211699538474
 30
0.0
 10
-12.44678493179041
 20
7.324544165074708
 30
0.0
 10
-12.45967864991
 20
7.331775665283004
 30
0.0
 11
-12.30898284912
 21
7.249073028565
 31
0.0
 11
-12.3455734253
 21
7.268665313721001
 31
0.0
 11
-12.38289642334
 21
7.288990020752002
 31
0.0
 11
-12.42098236084
 21
7.310108184815
 31
0.0
 11
-12.45967864991
 21
7.331775665283004
 31
0.0
  0
SPLINE
  5
3189
330
3124
100
AcDbEntity
  8
AM_0
 48
0.5
100
AcDbSpline
210
0.0
220
0.0
230
1.0
 70
     8
 71
     3
 72
    11
 73
     7
 74
     5
 42
0.0000000001
 43
0.0000000001
 44
0.0000000001
 40
0.0
 40
0.0
 40
0.0
 40
0.0
 40
0.0517851919066895
 40
0.1025318777860302
 40
0.1523779114090625
 40
0.2013825761709581
 40
0.2013825761709581
 40
0.2013825761709581
 40
0.2013825761709581
 10
-12.51689910889
 20
7.149890899658004
 30
0.0
 10
-12.50220056474823
 20
7.14083983365138
 30
0.0
 10
-12.47309824271199
 20
7.122919212727611
 30
0.0
 10
-12.4296567727916
 20
7.096598660678925
 30
0.0
 10
-12.38686010044354
 20
7.071004108147031
 30
0.0
 10
-12.35846162198871
 20
7.054293333880276
 30
0.0
 10
-12.34438323975
 20
7.046009063721001
 30
0.0
 11
-12.51689910889
 21
7.149890899658004
 31
0.0
 11
-12.47277069092
 21
7.122791290283004
 31
0.0
 11
-12.42937469483
 21
7.09648513794
 31
0.0
 11
-12.3865890503
 21
7.070911407471001
 31
0.0
 11
-12.34438323975
 21
7.046009063721001
 31
0.0
  0
SPLINE
  5
318A
330
3124
100
AcDbEntity
  8
AM_0
 48
0.5
100
AcDbSpline
210
0.0
220
0.0
230
1.0
 70
     8
 71
     3
 72
    13
 73
     9
 74
     7
 42
0.0000000001
 43
0.0000000001
 44
0.0000000001
 40
0.0
 40
0.0
 40
0.0
 40
0.0
 40
0.1271335530100436
 40
0.8359984912596146
 40
1.947086271048422
 40
2.68610953316426
 40
2.744245295217369
 40
2.747632746386123
 40
2.747632746386123
 40
2.747632746386123
 40
2.747632746386123
 10
-18.04998016358
 20
-4.108989715576001
 30
0.0
 10
-18.03170153151483
 20
-4.070679037417377
 30
0.0
 10
-17.9115058123913
 20
-3.81875758645933
 30
0.0
 10
-17.51435170744135
 20
-3.31221290629589
 30
0.0
 10
-17.02663920192614
 20
-2.541242610100099
 30
0.0
 10
-16.63767918119477
 20
-2.188096461160681
 30
0.0
 10
-16.45917038319416
 20
-1.884645288097079
 30
0.0
 10
-16.43966496629995
 20
-1.89185681125394
 30
0.0
 10
-16.43859100342
 20
-1.892253875731995
 30
0.0
 11
-18.04998016358
 21
-4.108989715576001
 31
0.0
 11
-17.99398040772
 21
-3.994853973388998
 31
0.0
 11
-17.60009002686
 21
-3.405498504638998
 31
0.0
 11
-16.94689178467
 21
-2.506694793701001
 31
0.0
 11
-16.4857711792
 21
-1.929180145263998
 31
0.0
 11
-16.44179534912
 21
-1.89115524292
 31
0.0
 11
-16.43859100342
 21
-1.892253875731995
 31
0.0
  0
ELLIPSE
  5
318B
330
3124
100
AcDbEntity
  8
AM_0
 48
0.5
100
AcDbEllipse
 10
-16.0253982544
 20
9.400810241698998
 30
0.0
 11
-0.1975860677000014
 21
0.1149902263300007
 31
0.0
210
0.0
220
0.0
230
1.0
 40
0.0781541207576
 41
0.0
 42
0.6178648443990215
  0
SPLINE
  5
318C
330
3124
100
AcDbEntity
  8
AM_0
 48
0.5
100
AcDbSpline
210
0.0
220
0.0
230
1.0
 70
     8
 71
     3
 72
    11
 73
     7
 74
     5
 42
0.0000000001
 43
0.0000000001
 44
0.0000000001
 40
0.0
 40
0.0
 40
0.0
 40
0.0
 40
0.0095745952912331
 40
0.0221593873739399
 40
0.039206917344786
 40
0.0612324917753927
 40
0.0612324917753927
 40
0.0612324917753927
 40
0.0612324917753927
 10
-16.49117279053
 20
9.465385437012002
 30
0.0
 10
-16.49179247361387
 20
9.462190768974275
 30
0.0
 10
-16.49322666452081
 20
9.454797047942117
 30
0.0
 10
-16.48768992491427
 20
9.442307744243745
 30
0.0
 10
-16.47817545408995
 20
9.428101816940928
 30
0.0
 10
-16.46935209771495
 20
9.41845512778968
 30
0.0
 10
-16.46437835694
 20
9.413017272948998
 30
0.0
 11
-16.49117279053
 21
9.465385437012002
 31
0.0
 11
-16.49217987061
 21
9.455863952637002
 31
0.0
 11
-16.48809051514
 21
9.443962097168004
 31
0.0
 11
-16.47878265381
 21
9.429679870606001
 31
0.0
 11
-16.46437835694
 21
9.413017272948998
 31
0.0
  0
SPLINE
  5
318D
330
3124
100
AcDbEntity
  8
AM_0
 48
0.5
100
AcDbSpline
210
0.0
220
0.0
230
1.0
 70
     8
 71
     3
 72
    11
 73
     7
 74
     5
 42
0.0000000001
 43
0.0000000001
 44
0.0000000001
 40
0.0
 40
0.0
 40
0.0
 40
0.0
 40
0.1153804854945066
 40
0.2242114278062712
 40
0.3156839268284826
 40
0.3805410682484149
 40
0.3805410682484149
 40
0.3805410682484149
 40
0.3805410682484149
 10
-18.34889984131
 20
6.658374786377002
 30
0.0
 10
-18.38477222053684
 20
6.672264449509688
 30
0.0
 10
-18.45448069273461
 20
6.699255332667966
 30
0.0
 10
-18.5509412524141
 20
6.74124771962871
 30
0.0
 10
-18.63123908100131
 20
6.77853903459006
 30
0.0
 10
-18.6756565172064
 20
6.8058554045849
 30
0.0
 10
-18.69408416747999
 20
6.81718826294
 30
0.0
 11
-18.34889984131
 21
6.658374786377002
 31
0.0
 11
-18.456199646
 21
6.700794219971001
 31
0.0
 11
-18.5560836792
 21
6.744007110596001
 31
0.0
 11
-18.63829803467
 21
6.784107208252002
 31
0.0
 11
-18.69408416747999
 21
6.81718826294
 31
0.0
  0
SPLINE
  5
318E
330
3124
100
AcDbEntity
  8
AM_0
 48
0.5
100
AcDbSpline
210
0.0
220
0.0
230
1.0
 70
     8
 71
     3
 72
    11
 73
     7
 74
     5
 42
0.0000000001
 43
0.0000000001
 44
0.0000000001
 40
0.0
 40
0.0
 40
0.0
 40
0.0
 40
1.054595141423256
 40
2.109228395388417
 40
3.16382939578789
 40
4.218398410999244
 40
4.218398410999244
 40
4.218398410999244
 40
4.218398410999244
 10
-13.32128143311
 20
4.801258087158004
 30
0.0
 10
-13.65139617390088
 20
4.922083636663613
 30
0.0
 10
-14.31163758566458
 20
5.163739102249868
 30
0.0
 10
-15.30170268952709
 20
5.527020102750864
 30
0.0
 10
-16.29161781554156
 20
5.890684240123188
 30
0.0
 10
-16.95139119908919
 20
6.1335582669022
 30
0.0
 10
-17.28127288819
 20
6.254993438721001
 30
0.0
 11
-13.32128143311
 21
4.801258087158004
 31
0.0
 11
-14.31157684326
 21
5.16386795044
 31
0.0
 11
-15.30168914795
 21
5.527088165283004
 31
0.0
 11
-16.29158782959
 21
5.890796661377002
 31
0.0
 11
-17.28127288819
 21
6.254993438721001
 31
0.0
  0
SPLINE
  5
318F
330
3124
100
AcDbEntity
  8
AM_0
 48
0.5
100
AcDbSpline
210
0.0
220
0.0
230
1.0
 70
     8
 71
     3
 72
    14
 73
    10
 74
     8
 42
0.0000000001
 43
0.0000000001
 44
0.0000000001
 40
0.0
 40
0.0
 40
0.0
 40
0.0
 40
0.0215897145115417
 40
0.1340098823559156
 40
1.36994571114849
 40
2.606885990210201
 40
2.740085290526713
 40
2.746950863928088
 40
2.748202084630527
 40
2.748202084630527
 40
2.748202084630527
 40
2.748202084630527
 10
12.58351898192599
 20
-13.57719039917
 30
0.0
 10
12.57664680521462
 20
-13.57939979485604
 30
0.0
 10
12.53399040083615
 20
-13.59311377221345
 30
0.0
 10
12.06862716057837
 20
-13.55069826463711
 30
0.0
 10
11.2324493665123
 20
-13.5231549731477
 30
0.0
 10
10.32867827791986
 20
-13.34787902683609
 30
0.0
 10
9.907635710927038
 20
-13.32325052008769
 30
0.0
 10
9.857212494907496
 20
-13.29318459307349
 30
0.0
 10
9.857995454976061
 20
-13.29049554632264
 30
0.0
 10
9.858116149899998
 20
-13.29008102417
 30
0.0
 11
12.58351898192599
 21
-13.57719039917
 31
0.0
 11
12.56282806395799
 21
-13.58335494995099
 31
0.0
 11
12.45043182372299
 21
-13.585674285889
 31
0.0
 11
11.21834564208299
 21
-13.48820114135699
 31
0.0
 11
9.991722106929998
 21
-13.328777313232
 31
0.0
 11
9.862541198729999
 21
-13.296306610107
 31
0.0
 11
9.8578414917
 21
-13.291301727295
 31
0.0
 11
9.858116149899998
 21
-13.29008102417
 31
0.0
  0
ELLIPSE
  5
3190
330
3124
100
AcDbEntity
  8
AM_0
 48
0.5
100
AcDbEllipse
 10
-16.04459381104
 20
9.410697937012002
 30
0.0
 11
-0.1752777140600017
 21
0.1019897483529988
 31
0.0
210
0.0
220
0.0
230
0.9999999999999998
 40
0.0783234280542
 41
0.617083657994858
 42
1.163288847249783
  0
SPLINE
  5
3191
330
3124
100
AcDbEntity
  8
AM_0
 48
0.5
100
AcDbSpline
210
0.0
220
0.0
230
1.0
 70
     8
 71
     3
 72
    11
 73
     7
 74
     5
 42
0.0000000001
 43
0.0000000001
 44
0.0000000001
 40
0.0
 40
0.0
 40
0.0
 40
0.0
 40
0.0352103029784646
 40
0.0785495619509777
 40
0.1287264001983379
 40
0.1842843950428595
 40
0.1842843950428595
 40
0.1842843950428595
 40
0.1842843950428595
 10
-16.46437835694
 20
9.413017272948998
 30
0.0
 10
-16.45584042630267
 20
9.404952628690185
 30
0.0
 10
-16.43679342429478
 20
9.386961466438398
 30
0.0
 10
-16.40242150903732
 20
9.361158098908935
 30
0.0
 10
-16.36134263789863
 20
9.333180807255438
 30
0.0
 10
-16.33107955013057
 20
9.31509730852766
 30
0.0
 10
-16.31517791748
 20
9.305595397948998
 30
0.0
 11
-16.46437835694
 21
9.413017272948998
 31
0.0
 11
-16.43837738036999
 21
9.389274597168004
 31
0.0
 11
-16.40407562256
 21
9.362785339356001
 31
0.0
 11
-16.36257171631
 21
9.334587097168004
 31
0.0
 11
-16.31517791748
 21
9.305595397948998
 31
0.0
  0
SPLINE
  5
3192
330
3124
100
AcDbEntity
  8
AM_0
 48
0.5
100
AcDbSpline
210
0.0
220
0.0
230
1.0
 70
     8
 71
     3
 72
    14
 73
    10
 74
     8
 42
0.0000000001
 43
0.0000000001
 44
0.0000000001
 40
0.0
 40
0.0
 40
0.0
 40
0.0
 40
0.0282743014406093
 40
0.0704845580989279
 40
0.4882320040338103
 40
1.293084188701128
 40
2.540360352402406
 40
2.730747606448016
 40
2.747445742100526
 40
2.747445742100526
 40
2.747445742100526
 40
2.747445742100526
 10
-5.466468811040002
 20
-17.68626022338899
 30
0.0
 10
-5.473290007199132
 20
-17.67969513906259
 30
0.0
 10
-5.490294459032973
 20
-17.66332914435887
 30
0.0
 10
-5.570574352705692
 20
-17.52024222404243
 30
0.0
 10
-5.759389581837593
 20
-17.14612976057701
 30
0.0
 10
-6.121067866670323
 20
-16.39606957899428
 30
0.0
 10
-6.337915608880653
 20
-15.70993050436153
 30
0.0
 10
-6.592085055114424
 20
-15.25635762137227
 30
0.0
 10
-6.581362356425052
 20
-15.18787593015891
 30
0.0
 10
-6.5804977417
 20
-15.182353973389
 30
0.0
 11
-5.466468811040002
 21
-17.68626022338899
 31
0.0
 11
-5.486061096189999
 21
-17.66587448120099
 31
0.0
 11
-5.508766174320001
 21
-17.63029098510699
 31
0.0
 11
-5.701194763190002
 21
-17.259502410889
 31
0.0
 11
-6.040580749509999
 21
-16.52970504760699
 31
0.0
 11
-6.524589538580002
 21
-15.380168914795
 31
0.0
 11
-6.58278656006
 21
-15.198894500732
 31
0.0
 11
-6.5804977417
 21
-15.182353973389
 31
0.0
  0
ELLIPSE
  5
3193
330
3124
100
AcDbEntity
  8
AM_0
 48
0.5
100
AcDbEllipse
 10
-16.03247833252
 20
9.406181335448998
 30
0.0
 11
-0.2022552674799982
 21
0.1176757627990028
 31
0.0
210
0.0
220
0.0
230
1.0
 40
0.0781669348587
 41
1.163804603015796
 42
1.362893776516335
  0
SPLINE
  5
3194
330
3124
100
AcDbEntity
  8
AM_0
 48
0.5
100
AcDbSpline
210
0.0
220
0.0
230
1.0
 70
     8
 71
     3
 72
    11
 73
     7
 74
     5
 42
0.0000000001
 43
0.0000000001
 44
0.0000000001
 40
0.0
 40
0.0
 40
0.0
 40
0.0
 40
0.024770650263298
 40
0.0500908257026226
 40
0.0758885603340304
 40
0.1020651897498404
 40
0.1020651897498404
 40
0.1020651897498404
 40
0.1020651897498404
 10
-16.31517791748
 20
9.305595397948998
 30
0.0
 10
-16.30803390702746
 20
9.301454886761934
 30
0.0
 10
-16.29358739962487
 20
9.29308200910283
 30
0.0
 10
-16.27137638162695
 20
9.280969579550779
 30
0.0
 10
-16.24851099458011
 20
9.269091874211074
 30
0.0
 10
-16.23299575345552
 20
9.261382488509541
 30
0.0
 10
-16.22518157959
 20
9.257499694823998
 30
0.0
 11
-16.31517791748
 21
9.305595397948998
 31
0.0
 11
-16.29369354248
 21
9.293266296387002
 31
0.0
 11
-16.27147674561
 21
9.281120300293004
 31
0.0
 11
-16.24858856201
 21
9.269218444823998
 31
0.0
 11
-16.22518157959
 21
9.257499694823998
 31
0.0
  0
SPLINE
  5
3195
330
3124
100
AcDbEntity
  8
AM_0
 48
0.5
100
AcDbSpline
210
0.0
220
0.0
230
1.0
 70
     8
 71
     3
 72
    14
 73
    10
 74
     8
 42
0.0000000001
 43
0.0000000001
 44
0.0000000001
 40
0.0
 40
0.0
 40
0.0
 40
0.0
 40
0.0476389071681719
 40
0.6222627228930089
 40
2.089844065569109
 40
2.482713224987164
 40
2.724740064097358
 40
2.74455694900431
 40
2.748119149185069
 40
2.748119149185069
 40
2.748119149185069
 40
2.748119149185069
 10
5.466545104979999
 20
17.686271667481
 30
0.0
 10
5.476790864020958
 20
17.67412197553639
 30
0.0
 10
5.61062168210471
 20
17.51542185327974
 30
0.0
 10
5.864248961392301
 20
16.84889162110982
 30
0.0
 10
6.214991884482865
 20
16.14441951646606
 30
0.0
 10
6.496126223770607
 20
15.47240476250997
 30
0.0
 10
6.551680479506487
 20
15.28926298386569
 30
0.0
 10
6.58761288016279
 20
15.18830124475913
 30
0.0
 10
6.581464994009019
 20
15.18315025772868
 30
0.0
 10
6.580528259269996
 20
15.182365417481
 30
0.0
 11
5.466545104979999
 21
17.686271667481
 31
0.0
 11
5.496940612789998
 21
17.649589538574
 31
0.0
 11
5.75954437256
 21
17.138481140137
 31
0.0
 11
6.3578414917
 21
15.798393249512
 31
0.0
 11
6.504417419429998
 21
15.433891296387
 31
0.0
 11
6.581840515129997
 21
15.204582214356
 31
0.0
 11
6.58312225342
 21
15.184806823731
 31
0.0
 11
6.580528259269996
 21
15.182365417481
 31
0.0
  0
ELLIPSE
  5
3196
330
3124
100
AcDbEntity
  8
AM_0
 48
0.5
100
AcDbEllipse
 10
-16.03879547118999
 20
9.407218933106001
 30
0.0
 11
-0.1758880691200062
 21
0.1023559573550017
 31
0.0
210
0.0
220
0.0
230
0.9999999999999998
 40
0.0787188372182
 41
1.362002572363657
 42
1.613948531481803
  0
SPLINE
  5
3197
330
3124
100
AcDbEntity
  8
AM_0
 48
0.5
100
AcDbSpline
210
0.0
220
0.0
230
1.0
 70
     8
 71
     3
 72
    11
 73
     7
 74
     5
 42
0.0000000001
 43
0.0000000001
 44
0.0000000001
 40
0.0
 40
0.0
 40
0.0
 40
0.0
 40
0.214383527530415
 40
0.4565391850213868
 40
0.7264967979448893
 40
1.024407769993633
 40
1.024407769993633
 40
1.024407769993633
 40
1.024407769993633
 10
-2.590370178230003
 20
14.445182800293
 30
0.0
 10
-2.595940655201758
 20
14.37393784398893
 30
0.0
 10
-2.607803231800627
 20
14.2222185647018
 30
0.0
 10
-2.630952755395207
 20
13.98115218949778
 30
0.0
 10
-2.65897003440068
 20
13.71259897860055
 30
0.0
 10
-2.680610392764025
 20
13.52454904260601
 30
0.0
 10
-2.691963195799999
 20
13.425895690918
 30
0.0
 11
-2.590370178230003
 21
14.445182800293
 31
0.0
 11
-2.60767364502
 21
14.231498718262
 31
0.0
 11
-2.630378723150002
 21
13.99040985107399
 31
0.0
 11
-2.65845489502
 21
13.721916198731
 31
0.0
 11
-2.691963195799999
 21
13.425895690918
 31
0.0
  0
SPLINE
  5
3198
330
3124
100
AcDbEntity
  8
AM_0
 48
0.5
100
AcDbSpline
210
0.0
220
0.0
230
1.0
 70
     8
 71
     3
 72
    11
 73
     7
 74
     5
 42
0.0000000001
 43
0.0000000001
 44
0.0000000001
 40
0.0
 40
0.0
 40
0.0
 40
0.0
 40
0.1084307588059068
 40
0.2049961111723912
 40
0.2902166871507775
 40
0.3645612218383944
 40
0.3645612218383944
 40
0.3645612218383944
 40
0.3645612218383944
 10
-2.344367980960001
 20
13.31951141357399
 30
0.0
 10
-2.379788089322371
 20
13.32675384982255
 30
0.0
 10
-2.446752339610315
 20
13.34044619397578
 30
0.0
 10
-2.540174547397386
 20
13.36570488792521
 30
0.0
 10
-2.621274694559359
 20
13.39286970524331
 30
0.0
 10
-2.669495957544152
 20
13.41539889616688
 30
0.0
 10
-2.691963195799999
 20
13.425895690918
 30
0.0
 11
-2.344367980960001
 21
13.31951141357399
 31
0.0
 11
-2.450355529790002
 21
13.342399597168
 31
0.0
 11
-2.54355621338
 21
13.367668151856
 31
0.0
 11
-2.624061584480003
 21
13.395622253418
 31
0.0
 11
-2.691963195799999
 21
13.425895690918
 31
0.0
  0
SPLINE
  5
3199
330
3124
100
AcDbEntity
  8
AM_0
 48
0.5
100
AcDbSpline
210
0.0
220
0.0
230
1.0
 70
     8
 71
     3
 72
    11
 73
     7
 74
     5
 42
0.0000000001
 43
0.0000000001
 44
0.0000000001
 40
0.0
 40
0.0
 40
0.0
 40
0.0
 40
0.0211222209230718
 40
0.0458306249741021
 40
0.0741602096168714
 40
0.1061027269944411
 40
0.1061027269944411
 40
0.1061027269944411
 40
0.1061027269944411
 10
0.7383346557599993
 20
19.093803405762
 30
0.0
 10
0.7395863176483019
 20
19.08687387004142
 30
0.0
 10
0.7423021516889597
 20
19.07183828481528
 30
0.0
 10
0.7455242268259557
 20
19.04732291654378
 30
0.0
 10
0.7488936846659287
 20
19.01919623496925
 30
0.0
 10
0.7506889040714807
 20
18.99918446900546
 30
0.0
 10
0.7516403198199982
 20
18.988578796387
 30
0.0
 11
0.7383346557599993
 21
19.093803405762
 31
0.0
 11
0.7419357299799998
 21
19.072990417481
 31
0.0
 11
0.745323181149999
 21
19.048515319824
 31
0.0
 11
0.7486190795900001
 21
19.020378112793
 31
0.0
 11
0.7516403198199982
 21
18.988578796387
 31
0.0
  0
SPLINE
  5
319A
330
3124
100
AcDbEntity
  8
AM_0
 48
0.5
100
AcDbSpline
210
0.0
220
0.0
230
1.0
 70
     8
 71
     3
 72
    11
 73
     7
 74
     5
 42
0.0000000001
 43
0.0000000001
 44
0.0000000001
 40
0.0
 40
0.0
 40
0.0
 40
0.0
 40
0.4039470107861012
 40
0.8231907059744727
 40
1.257890018601331
 40
1.707977567493072
 40
1.707977567493072
 40
1.707977567493072
 40
1.707977567493072
 10
-3.431068420409999
 20
19.634574890137
 30
0.0
 10
-3.29754748719209
 20
19.65198361496795
 30
0.0
 10
-3.025449443777623
 20
19.68746029904051
 30
0.0
 10
-2.608821565348258
 20
19.73482560041333
 30
0.0
 10
-2.176455666148326
 20
19.77968531528984
 30
0.0
 10
-1.882710825754852
 20
19.80612346657744
 30
0.0
 10
-1.733283996579999
 20
19.819572448731
 30
0.0
 11
-3.431068420409999
 21
19.634574890137
 31
0.0
 11
-3.03037261963
 21
19.685722351074
 31
0.0
 11
-2.61386871338
 21
19.73357391357399
 31
0.0
 11
-2.181465148930001
 21
19.778190612793
 31
0.0
 11
-1.733283996579999
 21
19.819572448731
 31
0.0
  0
SPLINE
  5
319B
330
3124
100
AcDbEntity
  8
AM_0
 48
0.5
100
AcDbSpline
210
0.0
220
0.0
230
1.0
 70
     8
 71
     3
 72
    11
 73
     7
 74
     5
 42
0.0000000001
 43
0.0000000001
 44
0.0000000001
 40
0.0
 40
0.0
 40
0.0
 40
0.0
 40
0.0207630128012163
 40
0.0352335267384765
 40
0.0437514305416943
 40
0.0487631007792674
 40
0.0487631007792674
 40
0.0487631007792674
 40
0.0487631007792674
 10
0.7383346557599993
 20
19.093803405762
 30
0.0
 10
0.7368978755085091
 20
19.10067818249535
 30
0.0
 10
0.7344597497946324
 20
19.11234424619115
 30
0.0
 10
0.7297125453542659
 20
19.12532277443739
 30
0.0
 10
0.7253323336922762
 20
19.13525280418282
 30
0.0
 10
0.7205236276397323
 20
19.13520350373602
 30
0.0
 10
0.7187423705999976
 20
19.135185241699
 30
0.0
 11
0.7383346557599993
 21
19.093803405762
 31
0.0
 11
0.7335433959899973
 21
19.114006042481
 31
0.0
 11
0.7286300659200009
 21
19.12761688232399
 31
0.0
 11
0.7237167358400001
 21
19.134574890137
 31
0.0
 11
0.7187423705999976
 21
19.135185241699
 31
0.0
  0
SPLINE
  5
319C
330
3124
100
AcDbEntity
  8
AM_0
 48
0.5
100
AcDbSpline
210
0.0
220
0.0
230
1.0
 70
     8
 71
     3
 72
    11
 73
     7
 74
     5
 42
0.0000000001
 43
0.0000000001
 44
0.0000000001
 40
0.0
 40
0.0
 40
0.0
 40
0.0
 40
0.0564853578917451
 40
0.1130177525520287
 40
0.169519595903935
 40
0.2260519905578404
 40
0.2260519905578404
 40
0.2260519905578404
 40
0.2260519905578404
 10
0.7187423705999976
 20
19.135185241699
 30
0.0
 10
0.7067391680557293
 20
19.1496915687504
 30
0.0
 10
0.6827227676005903
 20
19.1787163026341
 30
0.0
 10
0.6466928487519363
 20
19.22224610446766
 30
0.0
 10
0.6108600247126739
 20
19.2659586684691
 30
0.0
 10
0.5868364874070281
 20
19.29498470636825
 30
0.0
 10
0.5748214721700009
 20
19.30950164794899
 30
0.0
 11
0.7187423705999976
 21
19.135185241699
 31
0.0
 11
0.6827316284200009
 21
19.178703308106
 31
0.0
 11
0.6467208862299998
 21
19.222282409668
 31
0.0
 11
0.6108322143499976
 21
19.265922546387
 31
0.0
 11
0.5748214721700009
 21
19.30950164794899
 31
0.0
  0
SPLINE
  5
319D
330
3124
100
AcDbEntity
  8
AM_0
 48
0.5
100
AcDbSpline
210
0.0
220
0.0
230
1.0
 70
     8
 71
     3
 72
    11
 73
     7
 74
     5
 42
0.0000000001
 43
0.0000000001
 44
0.0000000001
 40
0.0
 40
0.0
 40
0.0
 40
0.0
 40
0.0270633798997552
 40
0.0468587287457079
 40
0.0600039784762685
 40
0.0690785331237927
 40
0.0690785331237927
 40
0.0690785331237927
 40
0.0690785331237927
 10
-0.0415725707999997
 20
13.790763854981
 30
0.0
 10
-0.0393686771515198
 20
13.78194212165479
 30
0.0
 10
-0.0355527585544697
 20
13.76666778376607
 30
0.0
 10
-0.0280481571903502
 20
13.7486563437426
 30
0.0
 10
-0.0201441993660107
 20
13.73552609557991
 30
0.0
 10
-0.0124988726708562
 20
13.73448668817749
 30
0.0
 10
-0.0093765258800005
 20
13.73406219482399
 30
0.0
 11
-0.0415725707999997
 21
13.790763854981
 31
0.0
 11
-0.0342788696300005
 21
13.764701843262
 31
0.0
 11
-0.0264663696300005
 21
13.746513366699
 31
0.0
 11
-0.0181655883800005
 21
13.736320495606
 31
0.0
 11
-0.0093765258800005
 21
13.73406219482399
 31
0.0
  0
SPLINE
  5
319E
330
3124
100
AcDbEntity
  8
AM_0
 48
0.5
100
AcDbSpline
210
0.0
220
0.0
230
1.0
 70
     8
 71
     3
 72
    11
 73
     7
 74
     5
 42
0.0000000001
 43
0.0000000001
 44
0.0000000001
 40
0.0
 40
0.0
 40
0.0
 40
0.0
 40
0.0507466124733539
 40
0.1936788685682433
 40
0.4127430595625525
 40
0.6804473530767583
 40
0.6804473530767583
 40
0.6804473530767583
 40
0.6804473530767583
 10
-2.350563049320001
 20
13.27507781982399
 30
0.0
 10
-2.357560979745303
 20
13.2905084493138
 30
0.0
 10
-2.384269191013662
 20
13.3494007913879
 30
0.0
 10
-2.410943380684679
 20
13.48542673556108
 30
0.0
 10
-2.458680792178725
 20
13.68936257016834
 30
0.0
 10
-2.486997813211486
 20
13.84925331835898
 30
0.0
 10
-2.502571105960001
 20
13.93718719482399
 30
0.0
 11
-2.350563049320001
 21
13.27507781982399
 31
0.0
 11
-2.370582580570001
 21
13.321708679199
 31
0.0
 11
-2.406654357909999
 21
13.460014343262
 31
0.0
 11
-2.453254699710001
 21
13.674064636231
 31
0.0
 11
-2.502571105960001
 21
13.93718719482399
 31
0.0
  0
SPLINE
  5
319F
330
3124
100
AcDbEntity
  8
AM_0
 48
0.5
100
AcDbSpline
210
0.0
220
0.0
230
1.0
 70
     8
 71
     3
 72
    11
 73
     7
 74
     5
 42
0.0000000001
 43
0.0000000001
 44
0.0000000001
 40
0.0
 40
0.0
 40
0.0
 40
0.0
 40
0.0428444299363754
 40
0.0858493176626001
 40
0.128654776622958
 40
0.1715656603116589
 40
0.1715656603116589
 40
0.1715656603116589
 40
0.1715656603116589
 10
0.133018493649999
 20
13.901664733887
 30
0.0
 10
0.1238866401460742
 20
13.89068428685066
 30
0.0
 10
0.1055887331959536
 20
13.86868226961994
 30
0.0
 10
0.0782953968127317
 20
13.83560363501804
 30
0.0
 10
0.0509064486773659
 20
13.80257540391556
 30
0.0
 10
0.032657246839592
 20
13.78059058504406
 30
0.0
 10
0.0235214233400001
 20
13.769584655762
 30
0.0
 11
0.133018493649999
 21
13.901664733887
 31
0.0
 11
0.1056442260699981
 21
13.868705749512
 31
0.0
 11
0.0782394409200009
 21
13.835563659668
 31
0.0
 11
0.0509262084899973
 21
13.802604675293
 31
0.0
 11
0.0235214233400001
 21
13.769584655762
 31
0.0
  0
SPLINE
  5
31A0
330
3124
100
AcDbEntity
  8
AM_0
 48
0.5
100
AcDbSpline
210
0.0
220
0.0
230
1.0
 70
     8
 71
     3
 72
    11
 73
     7
 74
     5
 42
0.0000000001
 43
0.0000000001
 44
0.0000000001
 40
0.0
 40
0.0
 40
0.0
 40
0.0
 40
0.0677228791248119
 40
0.126208955731417
 40
0.1755888584749635
 40
0.216145697945036
 40
0.216145697945036
 40
0.216145697945036
 40
0.216145697945036
 10
-0.0656814575200002
 20
14.005363464356
 30
0.0
 10
-0.0642701402830012
 20
13.98283145838357
 30
0.0
 10
-0.0616399970140017
 20
13.94084061302875
 30
0.0
 10
-0.0561726940360332
 20
13.88256607295524
 30
0.0
 10
-0.0501049481869237
 20
13.83342955890507
 30
0.0
 10
-0.0442243967021988
 20
13.80402417079577
 30
0.0
 10
-0.0415725707999997
 20
13.790763854981
 30
0.0
 11
-0.0656814575200002
 21
14.005363464356
 31
0.0
 11
-0.0610733032300033
 21
13.937797546387
 31
0.0
 11
-0.0555801391599999
 21
13.879570007324
 31
0.0
 11
-0.0490798950200002
 21
13.830619812012
 31
0.0
 11
-0.0415725707999997
 21
13.790763854981
 31
0.0
  0
SPLINE
  5
31A1
330
3124
100
AcDbEntity
  8
AM_0
 48
0.5
100
AcDbSpline
210
0.0
220
0.0
230
1.0
 70
     8
 71
     3
 72
    11
 73
     7
 74
     5
 42
0.0000000001
 43
0.0000000001
 44
0.0000000001
 40
0.0
 40
0.0
 40
0.0
 40
0.0
 40
0.0349831159138624
 40
0.071657893967612
 40
0.1100912065081563
 40
0.1503411618079279
 40
0.1503411618079279
 40
0.1503411618079279
 40
0.1503411618079279
 10
0.1309432983400001
 20
14.134269714356
 30
0.0
 10
0.1301753129065027
 20
14.14590556966223
 30
0.0
 10
0.12860220492785
 20
14.16973994987608
 30
0.0
 10
0.1266763916016289
 20
14.20638705499452
 30
0.0
 10
0.1248176787979361
 20
14.24479538710396
 30
0.0
 10
0.1239035772846672
 20
14.2710075324658
 30
0.0
 10
0.1234359741199995
 20
14.284416198731
 30
0.0
 11
0.1309432983400001
 21
14.134269714356
 31
0.0
 11
0.128715515129997
 21
14.169181823731
 31
0.0
 11
0.1267318725600006
 21
14.205802917481
 31
0.0
 11
0.1249313354500003
 21
14.244194030762
 31
0.0
 11
0.1234359741199995
 21
14.284416198731
 31
0.0
  0
SPLINE
  5
31A2
330
3124
100
AcDbEntity
  8
AM_0
 48
0.5
100
AcDbSpline
210
0.0
220
0.0
230
1.0
 70
     8
 71
     3
 72
    11
 73
     7
 74
     5
 42
0.0000000001
 43
0.0000000001
 44
0.0000000001
 40
0.0
 40
0.0
 40
0.0
 40
0.0
 40
0.055908203125
 40
0.1093198587709887
 40
0.159998485085409
 40
0.2082053250369516
 40
0.2082053250369516
 40
0.2082053250369516
 40
0.2082053250369516
 10
-0.0700759887700002
 20
14.213493347168
 30
0.0
 10
-0.0701403059572426
 20
14.1948568631917
 30
0.0
 10
-0.0702660682860759
 20
14.15841609632031
 30
0.0
 10
-0.0693704091348291
 20
14.1050890647638
 30
0.0
 10
-0.0681145549141252
 20
14.05433570084231
 30
0.0
 10
-0.0664788611346506
 20
14.02141322812049
 30
0.0
 10
-0.0656814575200002
 20
14.005363464356
 30
0.0
 11
-0.0700759887700002
 21
14.213493347168
 31
0.0
 11
-0.0700759887700002
 21
14.157585144043
 31
0.0
 11
-0.0692825317400008
 21
14.104179382324
 31
0.0
 11
-0.0678787231500024
 21
14.053520202637
 31
0.0
 11
-0.0656814575200002
 21
14.005363464356
 31
0.0
  0
SPLINE
  5
31A3
330
3124
100
AcDbEntity
  8
AM_0
 48
0.5
100
AcDbSpline
210
0.0
220
0.0
230
1.0
 70
     8
 71
     3
 72
    11
 73
     7
 74
     5
 42
0.0000000001
 43
0.0000000001
 44
0.0000000001
 40
0.0
 40
0.0
 40
0.0
 40
0.0
 40
0.0415856510052016
 40
0.0841413386231398
 40
0.1275445879375494
 40
0.1719198330045566
 40
0.1719198330045566
 40
0.1719198330045566
 40
0.1719198330045566
 10
0.1234359741199995
 20
14.284416198731
 30
0.0
 10
0.1229830482374681
 20
14.29827071016516
 30
0.0
 10
0.1220666314174334
 20
14.32630290660461
 30
0.0
 10
0.1209661885748212
 20
14.36880389029539
 30
0.0
 10
0.1201607949847001
 20
14.41224174790163
 30
0.0
 10
0.1198835198897232
 20
14.44150005332885
 30
0.0
 10
0.1197433471700009
 20
14.456291198731
 30
0.0
 11
0.1234359741199995
 21
14.284416198731
 31
0.0
 11
0.1221237182599992
 21
14.325981140137
 31
0.0
 11
0.1210250854500003
 21
14.368522644043
 31
0.0
 11
0.1202316284200009
 21
14.411918640137
 31
0.0
 11
0.1197433471700009
 21
14.456291198731
 31
0.0
  0
SPLINE
  5
31A4
330
3124
100
AcDbEntity
  8
AM_0
 48
0.5
100
AcDbSpline
210
0.0
220
0.0
230
1.0
 70
     8
 71
     3
 72
    11
 73
     7
 74
     5
 42
0.0000000001
 43
0.0000000001
 44
0.0000000001
 40
0.0
 40
0.0
 40
0.0
 40
0.0
 40
0.0515938085822553
 40
0.1024479623352638
 40
0.1523186247095657
 40
0.2013314608404809
 40
0.2013314608404809
 40
0.2013314608404809
 40
0.2013314608404809
 10
-0.0664749145499997
 20
14.414787292481
 30
0.0
 10
-0.0669613394312272
 20
14.39759621155422
 30
0.0
 10
-0.067927215750117
 20
14.3634605030325
 30
0.0
 10
-0.0690381177433366
 20
14.31269928295241
 30
0.0
 10
-0.0697340036816757
 20
14.26279103107988
 30
0.0
 10
-0.0699626549329278
 20
14.22983059656064
 30
0.0
 10
-0.0700759887700002
 20
14.213493347168
 30
0.0
 11
-0.0664749145499997
 21
14.414787292481
 31
0.0
 11
-0.0678787231500024
 21
14.36321258544899
 31
0.0
 11
-0.0689773559600013
 21
14.312370300293
 31
0.0
 11
-0.0696792602600027
 21
14.262504577637
 31
0.0
 11
-0.0700759887700002
 21
14.213493347168
 31
0.0
  0
SPLINE
  5
31A5
330
3124
100
AcDbEntity
  8
AM_0
 48
0.5
100
AcDbSpline
210
0.0
220
0.0
230
1.0
 70
     8
 71
     3
 72
    14
 73
    10
 74
     8
 42
0.0000000001
 43
0.0000000001
 44
0.0000000001
 40
0.0
 40
0.0
 40
0.0
 40
0.0
 40
0.0436525793949289
 40
0.1095485110516087
 40
1.340820003668062
 40
2.58175051010565
 40
2.718315333015189
 40
2.746102840582156
 40
2.747958399677647
 40
2.747958399677647
 40
2.747958399677647
 40
2.747958399677647
 10
18.050025939934
 20
4.108997344971001
 30
0.0
 10
18.04560351732724
 20
4.095086088087378
 30
0.0
 10
18.03450520839505
 20
4.060175035875092
 30
0.0
 10
17.79573158051197
 20
3.678828012463975
 30
0.0
 10
17.31737926929473
 20
3.023853544462198
 30
0.0
 10
16.7751686998868
 20
2.215664361683109
 30
0.0
 10
16.49501803025281
 20
1.948901534282202
 30
0.0
 10
16.44706958164637
 20
1.885687722005819
 30
0.0
 10
16.43911918955119
 20
1.891902968581626
 30
0.0
 10
16.438621520989
 20
1.892292022704999
 30
0.0
 11
18.050025939934
 21
4.108997344971001
 31
0.0
 11
18.03542327880099
 21
4.067859649658004
 31
0.0
 11
18.00322723387999
 21
4.010364532471001
 31
0.0
 11
17.30731964110599
 21
2.994617462158004
 31
0.0
 11
16.55512237548099
 21
2.007648468018004
 31
0.0
 11
16.46321868895799
 21
1.906635284423998
 31
0.0
 11
16.44011688231699
 21
1.891193389893004
 31
0.0
 11
16.438621520989
 21
1.892292022704999
 31
0.0
  0
ELLIPSE
  5
31A6
330
3124
100
AcDbEntity
  8
AM_0
 48
0.5
100
AcDbEllipse
 10
0.1286392211899994
 20
18.57878875732399
 30
0.0
 11
0.0007782090699919
 21
0.2285766616240039
 31
0.0
210
0.0
220
0.0
230
1.0
 40
0.0783044078894
 41
0.0
 42
0.6174095550539466
  0
SPLINE
  5
31A7
330
3124
100
AcDbEntity
  8
AM_0
 48
0.5
100
AcDbSpline
210
0.0
220
0.0
230
1.0
 70
     8
 71
     3
 72
    11
 73
     7
 74
     5
 42
0.0000000001
 43
0.0000000001
 44
0.0000000001
 40
0.0
 40
0.0
 40
0.0
 40
0.0
 40
0.0095344357508849
 40
0.0221062334583324
 40
0.03913897934531
 40
0.0611929712308686
 40
0.0611929712308686
 40
0.0611929712308686
 40
0.0611929712308686
 10
-0.0483779907300033
 20
19.014518737793
 30
0.0
 10
-0.0514379960462922
 20
19.01345081637131
 30
0.0
 10
-0.0585328251135856
 20
19.01097476840372
 30
0.0
 10
-0.066501812760954
 20
18.99990485444173
 30
0.0
 10
-0.0740318444755416
 20
18.98456274679617
 30
0.0
 10
-0.0780191142802995
 20
18.97210776288116
 30
0.0
 10
-0.080268859870003
 20
18.965080261231
 30
0.0
 11
-0.0483779907300033
 21
19.014518737793
 31
0.0
 11
-0.0570755004900008
 21
19.010612487793
 31
0.0
 11
-0.0652847290100027
 21
19.001091003418
 31
0.0
 11
-0.0729751586899994
 21
18.985893249512
 31
0.0
 11
-0.080268859870003
 21
18.965080261231
 31
0.0
  0
SPLINE
  5
31A8
330
3124
100
AcDbEntity
  8
AM_0
 48
0.5
100
AcDbSpline
210
0.0
220
0.0
230
1.0
 70
     8
 71
     3
 72
    11
 73
     7
 74
     5
 42
0.0000000001
 43
0.0000000001
 44
0.0000000001
 40
0.0
 40
0.0
 40
0.0
 40
0.0
 40
0.1154415079381035
 40
0.2242670931142149
 40
0.3157309578599249
 40
0.3806148026398297
 40
0.3806148026398297
 40
0.3806148026398297
 40
0.3806148026398297
 10
-3.408058166510002
 20
19.219779968262
 30
0.0
 10
-3.413945925231755
 20
19.25781381144995
 30
0.0
 10
-3.425384016755933
 20
19.33170178817574
 30
0.0
 10
-3.43746729604758
 20
19.43622990674443
 30
0.0
 10
-3.445090498059278
 20
19.52443356179791
 30
0.0
 10
-3.443743075410725
 20
19.57656396944032
 30
0.0
 10
-3.443183898930001
 20
19.598197937012
 30
0.0
 11
-3.408058166510002
 21
19.219779968262
 31
0.0
 11
-3.424964904790002
 21
19.333976745606
 31
0.0
 11
-3.437568664549999
 21
19.44207000732399
 31
0.0
 11
-3.443855285650002
 21
19.533317565918
 31
0.0
 11
-3.443183898930001
 21
19.598197937012
 31
0.0
  0
SPLINE
  5
31A9
330
3124
100
AcDbEntity
  8
AM_0
 48
0.5
100
AcDbSpline
210
0.0
220
0.0
230
1.0
 70
     8
 71
     3
 72
    11
 73
     7
 74
     5
 42
0.0000000001
 43
0.0000000001
 44
0.0000000001
 40
0.0
 40
0.0
 40
0.0
 40
0.0
 40
1.054544668769426
 40
2.10924613117625
 40
3.163827628921283
 40
4.218386085802342
 40
4.218386085802342
 40
4.218386085802342
 40
4.218386085802342
 10
-2.502571105960001
 20
13.93718719482399
 30
0.0
 10
-2.562967527086884
 20
14.28347463679516
 30
0.0
 10
-2.683769349305971
 20
14.97610100804686
 30
0.0
 10
-2.864381893529893
 20
16.01512934062415
 30
0.0
 10
-3.044255528312783
 20
17.05429050211247
 30
0.0
 10
-3.163805215929554
 20
17.74709817683629
 30
0.0
 10
-3.22357940674
 20
18.093498229981
 30
0.0
 11
-2.502571105960001
 21
13.93718719482399
 31
0.0
 11
-2.683662414549999
 21
14.976066589356
 31
0.0
 11
-2.864265441900002
 21
16.015190124512
 31
0.0
 11
-3.044166564939999
 21
17.054313659668
 31
0.0
 11
-3.22357940674
 21
18.093498229981
 31
0.0
  0
ELLIPSE
  5
31AA
330
3124
100
AcDbEntity
  8
AM_0
 48
0.5
100
AcDbEllipse
 10
0.1276321411099985
 20
18.600395202637
 30
0.0
 11
0.0006866491600022
 21
0.2028198241829955
 31
0.0
210
0.0
220
0.0
230
1.0
 40
0.0784683804804
 41
0.6166882827184322
 42
1.163187225464742
  0
SPLINE
  5
31AB
330
3124
100
AcDbEntity
  8
AM_0
 48
0.5
100
AcDbSpline
210
0.0
220
0.0
230
1.0
 70
     8
 71
     3
 72
    11
 73
     7
 74
     5
 42
0.0000000001
 43
0.0000000001
 44
0.0000000001
 40
0.0
 40
0.0
 40
0.0
 40
0.0
 40
0.0351929605394529
 40
0.0784785171634905
 40
0.1286025128113241
 40
0.1842256442874763
 40
0.1842256442874763
 40
0.1842256442874763
 40
0.1842256442874763
 10
-0.080268859870003
 20
18.965080261231
 30
0.0
 10
-0.0830062862316727
 20
18.95366413681218
 30
0.0
 10
-0.0891106081874019
 20
18.92820675833622
 30
0.0
 10
-0.0941153089017195
 20
18.88555745532111
 30
0.0
 10
-0.0978743566933917
 20
18.83601701002422
 30
0.0
 10
-0.0984563715896652
 20
18.80076273127268
 30
0.0
 10
-0.0987625122100013
 20
18.782218933106
 30
0.0
 11
-0.080268859870003
 21
18.965080261231
 31
0.0
 11
-0.0878677368200016
 21
18.930717468262
 31
0.0
 11
-0.0935745239300019
 21
18.887809753418
 31
0.0
 11
-0.0972671508800005
 21
18.83782196044899
 31
0.0
 11
-0.0987625122100013
 21
18.782218933106
 31
0.0
  0
ELLIPSE
  5
31AC
330
3124
100
AcDbEntity
  8
AM_0
 48
0.5
100
AcDbEllipse
 10
0.1298446655199967
 20
18.58757781982399
 30
0.0
 11
0.0007934672400012
 21
0.2340087849430006
 31
0.0
210
0.0
220
0.0
230
1.0
 40
0.0782472506956
 41
1.163844874409288
 42
1.362931473208963
  0
SPLINE
  5
31AD
330
3124
100
AcDbEntity
  8
AM_0
 48
0.5
100
AcDbSpline
210
0.0
220
0.0
230
1.0
 70
     8
 71
     3
 72
    11
 73
     7
 74
     5
 42
0.0000000001
 43
0.0000000001
 44
0.0000000001
 40
0.0
 40
0.0
 40
0.0
 40
0.0
 40
0.0248419834207218
 40
0.0501179084294622
 40
0.0759591441163601
 40
0.1021858911004207
 40
0.1021858911004207
 40
0.1021858911004207
 40
0.1021858911004207
 10
-0.0987625122100013
 20
18.782218933106
 30
0.0
 10
-0.0987297958060442
 20
18.77393816681333
 30
0.0
 10
-0.0986637915055863
 20
18.75723198519517
 30
0.0
 10
-0.0980396769112605
 20
18.73191805782678
 30
0.0
 10
-0.0969384044144571
 20
18.70615885043974
 30
0.0
 10
-0.0958987413861978
 20
18.68883378619929
 30
0.0
 10
-0.0953750610400022
 20
18.68010711669899
 30
0.0
 11
-0.0987625122100013
 21
18.782218933106
 31
0.0
 11
-0.0985794067400008
 21
18.757377624512
 31
0.0
 11
-0.0979690551800019
 21
18.73210906982399
 31
0.0
 11
-0.096870422370003
 21
18.706291198731
 31
0.0
 11
-0.0953750610400022
 21
18.68010711669899
 31
0.0
  0
ELLIPSE
  5
31AE
330
3124
100
AcDbEntity
  8
AM_0
 48
0.5
100
AcDbEllipse
 10
0.1275405883800005
 20
18.593620300293
 30
0.0
 11
0.0006866418799945
 21
0.2034912147609944
 31
0.0
210
0.0
220
0.0
230
1.0
 40
0.0786593863772
 41
1.361856377502831
 42
1.613824320474559
  0
SPLINE
  5
31AF
330
3124
100
AcDbEntity
  8
AM_0
 48
0.5
100
AcDbSpline
210
0.0
220
0.0
230
1.0
 70
     8
 71
     3
 72
    11
 73
     7
 74
     5
 42
0.0000000001
 43
0.0000000001
 44
0.0000000001
 40
0.0
 40
0.0
 40
0.0
 40
0.0
 40
0.2148841321439536
 40
0.4598084495691126
 40
0.7347528330890264
 40
1.039778078243693
 40
1.039778078243693
 40
1.039778078243693
 40
1.039778078243693
 10
-11.22847747803
 20
-9.472576141356999
 30
0.0
 10
-11.16390263155611
 20
-9.441578123220352
 30
0.0
 10
-11.02572556030344
 20
-9.375248652928995
 30
0.0
 10
-10.80290770986374
 20
-9.273550785466397
 30
0.0
 10
-10.55182872930783
 20
-9.161450744711769
 30
0.0
 10
-10.37440355887617
 20
-9.084672613314749
 30
0.0
 10
-10.28108978272
 20
-9.044292449950997
 30
0.0
 11
-11.22847747803
 21
-9.472576141356999
 31
0.0
 11
-11.03447723389
 21
-9.380168914795
 31
0.0
 11
-10.81188201905
 21
-9.277996063231999
 31
0.0
 11
-10.56078338622999
 21
-9.165996551513998
 31
0.0
 11
-10.28108978272
 21
-9.044292449950997
 31
0.0
  0
SPLINE
  5
31B0
330
3124
100
AcDbEntity
  8
AM_0
 48
0.5
100
AcDbSpline
210
0.0
220
0.0
230
1.0
 70
     8
 71
     3
 72
    11
 73
     7
 74
     5
 42
0.0000000001
 43
0.0000000001
 44
0.0000000001
 40
0.0
 40
0.0
 40
0.0
 40
0.0
 40
0.1083336413111457
 40
0.2049849118828361
 40
0.290218737480923
 40
0.3645313148998518
 40
0.3645313148998518
 40
0.3645313148998518
 40
0.3645313148998518
 10
-10.36278533936
 20
-8.690105438231999
 30
0.0
 10
-10.35135703461061
 20
-8.724371800799211
 30
0.0
 10
-10.3297328187745
 20
-8.789209345502534
 30
0.0
 10
-10.30506478621182
 20
-8.88278248665161
 30
0.0
 10
-10.28773170883351
 20
-8.966563438441184
 30
0.0
 10
-10.28320036512141
 20
-9.019592764804194
 30
0.0
 10
-10.28108978272
 20
-9.044292449950997
 30
0.0
 11
-10.36278533936
 21
-8.690105438231999
 31
0.0
 11
-10.32967376708999
 21
-8.793254852295
 31
0.0
 11
-10.30498504639
 21
-8.886699676513998
 31
0.0
 11
-10.28878021241
 21
-8.970378875731999
 31
0.0
 11
-10.28108978272
 21
-9.044292449950997
 31
0.0
  0
SPLINE
  5
31B1
330
3124
100
AcDbEntity
  8
AM_0
 48
0.5
100
AcDbSpline
210
0.0
220
0.0
230
1.0
 70
     8
 71
     3
 72
    11
 73
     7
 74
     5
 42
0.0000000001
 43
0.0000000001
 44
0.0000000001
 40
0.0
 40
0.0
 40
0.0
 40
0.0
 40
0.0210842013870799
 40
0.0458076778558896
 40
0.0740914805525593
 40
0.1059986264546089
 40
0.1059986264546089
 40
0.1059986264546089
 40
0.1059986264546089
 10
-16.90477752686
 20
-8.907451629638998
 30
0.0
 10
-16.89940666164551
 20
-8.902917419794402
 30
0.0
 10
-16.88773788372808
 20
-8.893066364965285
 30
0.0
 10
-16.86816004405602
 20
-8.878002095638429
 30
0.0
 10
-16.84550984782932
 20
-8.861025416702545
 30
0.0
 10
-16.82909690410047
 20
-8.849483219662664
 30
0.0
 10
-16.82039642334
 20
-8.843364715575997
 30
0.0
 11
-16.90477752686
 21
-8.907451629638998
 31
0.0
 11
-16.88857269287
 21
-8.893962860106999
 31
0.0
 11
-16.86907196045
 21
-8.878765106200997
 31
0.0
 11
-16.84639739991
 21
-8.86185836792
 31
0.0
 11
-16.82039642334
 21
-8.843364715575997
 31
0.0
  0
SPLINE
  5
31B2
330
3124
100
AcDbEntity
  8
AM_0
 48
0.5
100
AcDbSpline
210
0.0
220
0.0
230
1.0
 70
     8
 71
     3
 72
    11
 73
     7
 74
     5
 42
0.0000000001
 43
0.0000000001
 44
0.0000000001
 40
0.0
 40
0.0
 40
0.0
 40
0.0
 40
0.40389786832855
 40
0.823172947881453
 40
1.257854416730357
 40
1.707974783015434
 40
1.707974783015434
 40
1.707974783015434
 40
1.707974783015434
 10
-15.28847503661999
 20
-12.78867721557599
 30
0.0
 10
-15.37029574724203
 20
-12.68175731921489
 30
0.0
 10
-15.53705224892704
 20
-12.46384686913259
 30
0.0
 10
-15.78638323062335
 20
-12.1267326768386
 30
0.0
 10
-16.04151496669039
 20
-11.77477503104441
 30
0.0
 10
-16.21125094348944
 20
-11.53357431216622
 30
0.0
 10
-16.29759979247999
 20
-11.41086959838899
 30
0.0
 11
-15.28847503661999
 21
-12.78867721557599
 31
0.0
 11
-15.5330734253
 21
-12.46726608276399
 31
0.0
 11
-15.78279876709
 21
-12.13047409057599
 31
0.0
 11
-16.03768157959
 21
-11.77836227417
 31
0.0
 11
-16.29759979247999
 21
-11.41086959838899
 31
0.0
  0
SPLINE
  5
31B3
330
3124
100
AcDbEntity
  8
AM_0
 48
0.5
100
AcDbSpline
210
0.0
220
0.0
230
1.0
 70
     8
 71
     3
 72
    11
 73
     7
 74
     5
 42
0.0000000001
 43
0.0000000001
 44
0.0000000001
 40
0.0
 40
0.0
 40
0.0
 40
0.0
 40
0.0208309018167611
 40
0.0352894076296544
 40
0.0438919009768156
 40
0.0488930607464053
 40
0.0488930607464053
 40
0.0488930607464053
 40
0.0488930607464053
 10
-16.90477752686
 20
-8.907451629638998
 30
0.0
 10
-16.90999874635381
 20
-8.912182920408984
 30
0.0
 10
-16.91884395836921
 20
-8.920198149421402
 30
0.0
 10
-16.92785549849538
 20
-8.930700501461718
 30
0.0
 10
-16.93431455377967
 20
-8.939518661695595
 30
0.0
 10
-16.9317959715684
 20
-8.943651855385647
 30
0.0
 10
-16.93087005616
 20
-8.945171356200997
 30
0.0
 11
-16.90477752686
 21
-8.907451629638998
 31
0.0
 11
-16.91988372803
 21
-8.921794891356999
 31
0.0
 11
-16.92928314209
 21
-8.932781219481999
 31
0.0
 11
-16.93288421631
 21
-8.940593719481999
 31
0.0
 11
-16.93087005616
 21
-8.945171356200997
 31
0.0
  0
SPLINE
  5
31B4
330
3124
100
AcDbEntity
  8
AM_0
 48
0.5
100
AcDbSpline
210
0.0
220
0.0
230
1.0
 70
     8
 71
     3
 72
    11
 73
     7
 74
     5
 42
0.0000000001
 43
0.0000000001
 44
0.0000000001
 40
0.0
 40
0.0
 40
0.0
 40
0.0
 40
0.0564704838866316
 40
0.1130301613773266
 40
0.1695326722844856
 40
0.2260244930521896
 40
0.2260244930521896
 40
0.2260244930521896
 40
0.2260244930521896
 10
-16.93087005616
 20
-8.945171356200997
 30
0.0
 10
-16.93743676162176
 20
-8.962812287152075
 30
0.0
 10
-16.95058054447919
 20
-8.998122012428199
 30
0.0
 10
-16.9703803201795
 20
-9.051050751339369
 30
0.0
 10
-16.99020250194083
 20
-9.103978680991399
 30
0.0
 10
-17.00338232872486
 20
-9.139262215183723
 30
0.0
 10
-17.00997161866
 20
-9.156902313231999
 30
0.0
 11
-16.93087005616
 21
-8.945171356200997
 31
0.0
 11
-16.95058441161999
 21
-8.99808883667
 31
0.0
 11
-16.97039031983
 21
-9.051067352295
 31
0.0
 11
-16.99019622803
 21
-9.103984832763998
 31
0.0
 11
-17.00997161866
 21
-9.156902313231999
 31
0.0
  0
SPLINE
  5
31B5
330
3124
100
AcDbEntity
  8
AM_0
 48
0.5
100
AcDbSpline
210
0.0
220
0.0
230
1.0
 70
     8
 71
     3
 72
    11
 73
     7
 74
     5
 42
0.0000000001
 43
0.0000000001
 44
0.0000000001
 40
0.0
 40
0.0
 40
0.0
 40
0.0
 40
0.0272569812421427
 40
0.0469714311887956
 40
0.0601088852614036
 40
0.0691885699628681
 40
0.0691885699628681
 40
0.0691885699628681
 40
0.0691885699628681
 10
-11.92238616944
 20
-6.931499481200997
 30
0.0
 10
-11.91581347784641
 20
-6.92511844970727
 30
0.0
 10
-11.9044868849207
 20
-6.914122140942979
 30
0.0
 10
-11.8926739293838
 20
-6.898575166914389
 30
0.0
 10
-11.88518664317877
 20
-6.885199328065213
 30
0.0
 10
-11.88817527537065
 20
-6.878075424072401
 30
0.0
 10
-11.88939666748
 20
-6.875164031981999
 30
0.0
 11
-11.92238616944
 21
-6.931499481200997
 31
0.0
 11
-11.90337371825999
 21
-6.911968231200997
 31
0.0
 11
-11.89159393311
 21
-6.896160125731999
 31
0.0
 11
-11.88689422608
 21
-6.883892059325997
 31
0.0
 11
-11.88939666748
 21
-6.875164031981999
 31
0.0
  0
SPLINE
  5
31B6
330
3124
100
AcDbEntity
  8
AM_0
 48
0.5
100
AcDbSpline
210
0.0
220
0.0
230
1.0
 70
     8
 71
     3
 72
    11
 73
     7
 74
     5
 42
0.0000000001
 43
0.0000000001
 44
0.0000000001
 40
0.0
 40
0.0
 40
0.0
 40
0.0
 40
0.0507080210345941
 40
0.1935860453468677
 40
0.4127158761331397
 40
0.6804530173658146
 40
0.6804530173658146
 40
0.6804530173658146
 40
0.6804530173658146
 10
-10.32128143311
 20
-8.673198699950997
 30
0.0
 10
-10.33115788615388
 20
-8.686948584764884
 30
0.0
 10
-10.36886283791121
 20
-8.739440986771251
 30
0.0
 10
-10.47305384987339
 20
-8.830804911391306
 30
0.0
 10
-10.6260714048332
 20
-8.973854611105199
 30
0.0
 10
-10.75034635066988
 20
-9.078409535330619
 30
0.0
 10
-10.81868743897
 20
-9.135906219481999
 30
0.0
 11
-10.32128143311
 21
-8.673198699950997
 31
0.0
 11
-10.35167694092
 21
-8.713787078856999
 31
0.0
 11
-10.4532699585
 21
-8.814250946045
 31
0.0
 11
-10.61547088623
 21
-8.961589813231999
 31
0.0
 11
-10.81868743897
 21
-9.135906219481999
 31
0.0
  0
SPLINE
  5
31B7
330
3124
100
AcDbEntity
  8
AM_0
 48
0.5
100
AcDbSpline
210
0.0
220
0.0
230
1.0
 70
     8
 71
     3
 72
    11
 73
     7
 74
     5
 42
0.0000000001
 43
0.0000000001
 44
0.0000000001
 40
0.0
 40
0.0
 40
0.0
 40
0.0
 40
0.0429061520460078
 40
0.0858123040823212
 40
0.1287184561184665
 40
0.1715343572102993
 40
0.1715343572102993
 40
0.1715343572102993
 40
0.1715343572102993
 10
-12.10567474366
 20
-6.835674285888998
 30
0.0
 10
-12.09157560714242
 20
-6.838074911567623
 30
0.0
 10
-12.06337733411046
 20
-6.842876162924335
 30
0.0
 10
-12.02108020214049
 20
-6.850079668365836
 30
0.0
 10
-11.97881161728332
 20
-6.857271614024947
 30
0.0
 10
-11.9506452164358
 20
-6.862080812193998
 30
0.0
 10
-11.93657684326
 20
-6.864482879638998
 30
0.0
 11
-12.10567474366
 21
-6.835674285888998
 31
0.0
 11
-12.06337738036999
 21
-6.842876434325997
 31
0.0
 11
-12.02108001709
 21
-6.850078582763998
 31
0.0
 11
-11.97878265381
 21
-6.857280731200997
 31
0.0
 11
-11.93657684326
 21
-6.864482879638998
 31
0.0
  0
SPLINE
  5
31B8
330
3124
100
AcDbEntity
  8
AM_0
 48
0.5
100
AcDbSpline
210
0.0
220
0.0
230
1.0
 70
     8
 71
     3
 72
    11
 73
     7
 74
     5
 42
0.0000000001
 43
0.0000000001
 44
0.0000000001
 40
0.0
 40
0.0
 40
0.0
 40
0.0
 40
0.0677298303891806
 40
0.1262334603880642
 40
0.1756385070140409
 40
0.2160680212831866
 40
0.2160680212831866
 40
0.2160680212831866
 40
0.2160680212831866
 10
-12.09618377686
 20
-7.059551239013998
 30
0.0
 10
-12.07737512045921
 20
-7.04706035551995
 30
0.0
 10
-12.04231993474444
 20
-7.023780104592142
 30
0.0
 10
-11.9945723975756
 20
-6.989899305429492
 30
0.0
 10
-11.95505315918189
 20
-6.960123913099003
 30
0.0
 10
-11.9325248859375
 20
-6.940383525987768
 30
0.0
 10
-11.92238616944
 20
-6.931499481200997
 30
0.0
 11
-12.09618377686
 21
-7.059551239013998
 31
0.0
 11
-12.03997039795
 21
-7.021770477295
 31
0.0
 11
-11.99227142333999
 21
-6.987895965575997
 31
0.0
 11
-11.95308685303
 21
-6.957805633545
 31
0.0
 11
-11.92238616944
 21
-6.931499481200997
 31
0.0
  0
SPLINE
  5
31B9
330
3124
100
AcDbEntity
  8
AM_0
 48
0.5
100
AcDbSpline
210
0.0
220
0.0
230
1.0
 70
     8
 71
     3
 72
    11
 73
     7
 74
     5
 42
0.0000000001
 43
0.0000000001
 44
0.0000000001
 40
0.0
 40
0.0
 40
0.0
 40
0.0
 40
0.034846544383178
 40
0.0716411898051046
 40
0.1099896323947845
 40
0.1501407924186576
 40
0.1501407924186576
 40
0.1501407924186576
 40
0.1501407924186576
 10
-12.30617523194
 20
-6.953777313231999
 30
0.0
 10
-12.31584026515766
 20
-6.960220001757805
 30
0.0
 10
-12.33571065665487
 20
-6.973465558231271
 30
0.0
 10
-12.36639333754573
 20
-6.993535484835204
 30
0.0
 10
-12.39874645375314
 20
-7.014279385137452
 30
0.0
 10
-12.42092826178717
 20
-7.028159707259534
 30
0.0
 10
-12.43227386475
 20
-7.035259246825997
 30
0.0
 11
-12.30617523194
 21
-6.953777313231999
 31
0.0
 11
-12.33519744872999
 21
-6.973064422606999
 31
0.0
 11
-12.36598968506
 21
-6.99320602417
 31
0.0
 11
-12.39827728272
 21
-7.013896942138998
 31
0.0
 11
-12.43227386475
 21
-7.035259246825997
 31
0.0
  0
SPLINE
  5
31BA
330
3124
100
AcDbEntity
  8
AM_0
 48
0.5
100
AcDbSpline
210
0.0
220
0.0
230
1.0
 70
     8
 71
     3
 72
    11
 73
     7
 74
     5
 42
0.0000000001
 43
0.0000000001
 44
0.0000000001
 40
0.0
 40
0.0
 40
0.0
 40
0.0
 40
0.0558934421241595
 40
0.1092409008864542
 40
0.1601004110857571
 40
0.2081927544471479
 40
0.2081927544471479
 40
0.2081927544471479
 40
0.2081927544471479
 10
-12.27419281006
 20
-7.167461395263998
 30
0.0
 10
-12.25802859227903
 20
-7.158195625689251
 30
0.0
 10
-12.22643644755846
 20
-7.140086148489703
 30
0.0
 10
-12.18064966392303
 20
-7.112667631833788
 30
0.0
 10
-12.13735547328064
 20
-7.086150109444422
 30
0.0
 10
-12.10964941101951
 20
-7.068250677934684
 30
0.0
 10
-12.09618377686
 20
-7.059551239013998
 30
0.0
 11
-12.27419281006
 21
-7.167461395263998
 31
0.0
 11
-12.22579193116
 21
-7.139507293700997
 31
0.0
 11
-12.17998504639
 21
-7.112163543700997
 31
0.0
 11
-12.13668060303
 21
-7.08549118042
 31
0.0
 11
-12.09618377686
 21
-7.059551239013998
 31
0.0
  0
SPLINE
  5
31BB
330
3124
100
AcDbEntity
  8
AM_0
 48
0.5
100
AcDbSpline
210
0.0
220
0.0
230
1.0
 70
     8
 71
     3
 72
    11
 73
     7
 74
     5
 42
0.0000000001
 43
0.0000000001
 44
0.0000000001
 40
0.0
 40
0.0
 40
0.0
 40
0.0
 40
0.0416973765724335
 40
0.0842064678341576
 40
0.1276307081814286
 40
0.1719709743952918
 40
0.1719709743952918
 40
0.1719709743952918
 40
0.1719709743952918
 10
-12.43227386475
 20
-7.035259246825997
 30
0.0
 10
-12.44405612706528
 20
-7.042632807013566
 30
0.0
 10
-12.46785001469612
 20
-7.05752346704536
 30
0.0
 10
-12.5042454606323
 20
-7.079555347196214
 30
0.0
 10
-12.54142973849899
 20
-7.101983309028378
 30
0.0
 10
-12.56657379307406
 20
-7.116937505960405
 30
0.0
 10
-12.57927703858
 20
-7.124492645263998
 30
0.0
 11
-12.43227386475
 21
-7.035259246825997
 31
0.0
 11
-12.46767425537
 21
-7.057292938231999
 31
0.0
 11
-12.50399017334
 21
-7.079387664795
 31
0.0
 11
-12.54119110108
 21
-7.101787567138998
 31
0.0
 11
-12.57927703858
 21
-7.124492645263998
 31
0.0
  0
SPLINE
  5
31BC
330
3124
100
AcDbEntity
  8
AM_0
 48
0.5
100
AcDbSpline
210
0.0
220
0.0
230
1.0
 70
     8
 71
     3
 72
    11
 73
     7
 74
     5
 42
0.0000000001
 43
0.0000000001
 44
0.0000000001
 40
0.0
 40
0.0
 40
0.0
 40
0.0
 40
0.0516976780942834
 40
0.1025357591205509
 40
0.1524280328521675
 40
0.2013791794489542
 40
0.2013791794489542
 40
0.2013791794489542
 40
0.2013791794489542
 10
-12.45037078858
 20
-7.264995574950997
 30
0.0
 10
-12.43519828714185
 20
-7.2568248230907
 30
0.0
 10
-12.40510556325045
 20
-7.240619177586596
 30
0.0
 10
-12.36064102941343
 20
-7.216031564994871
 30
0.0
 10
-12.31703205958467
 20
-7.191789409100513
 30
0.0
 10
-12.28838162922437
 20
-7.175519094518414
 30
0.0
 10
-12.27419281006
 20
-7.167461395263998
 30
0.0
 11
-12.45037078858
 21
-7.264995574950997
 31
0.0
 11
-12.40489959717
 21
-7.240398406981999
 31
0.0
 11
-12.36037445069
 21
-7.21586227417
 31
0.0
 11
-12.31679534911999
 21
-7.191570281981999
 31
0.0
 11
-12.27419281006
 21
-7.167461395263998
 31
0.0
  0
ELLIPSE
  5
31BD
330
3124
100
AcDbEntity
  8
AM_0
 48
0.5
100
AcDbEllipse
 10
-16.15398406983
 20
-9.177959442138998
 30
0.0
 11
0.1983642568399944
 21
0.1136474604750006
 31
0.0
210
0.0
220
0.0
230
1.0
 40
0.0782173008054
 41
3.141591535898364
 42
3.75887652026268
  0
SPLINE
  5
31BE
330
3124
100
AcDbEntity
  8
AM_0
 48
0.5
100
AcDbSpline
210
0.0
220
0.0
230
1.0
 70
     8
 71
     3
 72
    11
 73
     7
 74
     5
 42
0.0000000001
 43
0.0000000001
 44
0.0000000001
 40
0.0
 40
0.0
 40
0.0
 40
0.0
 40
0.0095222668387919
 40
0.0220608326513832
 40
0.0391751818857837
 40
0.061165209332011
 40
0.061165209332011
 40
0.061165209332011
 40
0.061165209332011
 10
-16.44277191161999
 20
-9.549053192138998
 30
0.0
 10
-16.44033173366323
 20
-9.551177840951716
 30
0.0
 10
-16.43467842038657
 20
-9.556100148076048
 30
0.0
 10
-16.4211137919954
 20
-9.557609568088683
 30
0.0
 10
-16.40405730057947
 20
-9.556448987464703
 30
0.0
 10
-16.39127476408437
 20
-9.553668522024725
 30
0.0
 10
-16.38408660889
 20
-9.552104949950997
 30
0.0
 11
-16.44277191161999
 21
-9.549053192138998
 31
0.0
 11
-16.43508148194
 21
-9.554668426513998
 31
0.0
 11
-16.42278289795
 21
-9.557109832763998
 31
0.0
 11
-16.4056930542
 21
-9.55619430542
 31
0.0
 11
-16.38408660889
 21
-9.552104949950997
 31
0.0
  0
SPLINE
  5
31BF
330
3124
100
AcDbEntity
  8
AM_0
 48
0.5
100
AcDbSpline
210
0.0
220
0.0
230
1.0
 70
     8
 71
     3
 72
    11
 73
     7
 74
     5
 42
0.0000000001
 43
0.0000000001
 44
0.0000000001
 40
0.0
 40
0.0
 40
0.0
 40
0.0
 40
0.1154248393067973
 40
0.2242391787766759
 40
0.315652096915499
 40
0.3805554597745598
 40
0.3805554597745598
 40
0.3805554597745598
 40
0.3805554597745598
 10
-14.94078826905
 20
-12.56138229370099
 30
0.0
 10
-14.97075904902322
 20
-12.58551967493874
 30
0.0
 10
-15.02898415142625
 20
-12.63241206464514
 30
0.0
 10
-15.11349918135279
 20
-12.69504796609636
 30
0.0
 10
-15.18598360682686
 20
-12.74586559640232
 30
0.0
 10
-15.23183827489938
 20
-12.77068262272539
 30
0.0
 10
-15.25087738037
 20
-12.78098678588899
 30
0.0
 11
-14.94078826905
 21
-12.56138229370099
 31
0.0
 11
-15.03118133545
 21
-12.63315963745099
 31
0.0
 11
-15.11849212647
 21
-12.69810104370099
 31
0.0
 11
-15.19429779053
 21
-12.74918746948199
 31
0.0
 11
-15.25087738037
 21
-12.78098678588899
 31
0.0
  0
SPLINE
  5
31C0
330
3124
100
AcDbEntity
  8
AM_0
 48
0.5
100
AcDbSpline
210
0.0
220
0.0
230
1.0
 70
     8
 71
     3
 72
    11
 73
     7
 74
     5
 42
0.0000000001
 43
0.0000000001
 44
0.0000000001
 40
0.0
 40
0.0
 40
0.0
 40
0.0
 40
1.05458605949378
 40
2.109148130179484
 40
3.163725397770257
 40
4.218404221498822
 40
4.218404221498822
 40
4.218404221498822
 40
4.218404221498822
 10
-10.81868743897
 20
-9.135906219481999
 30
0.0
 10
-11.08840342510897
 20
-9.361351793632284
 30
0.0
 10
-11.62782926212183
 20
-9.812237813692664
 30
0.0
 10
-12.43730568823473
 20
-10.48816438995946
 30
0.0
 10
-13.24721687150886
 20
-11.16361832844929
 30
0.0
 10
-13.78751068134854
 20
-11.61352015759907
 30
0.0
 10
-14.05767059326
 20
-11.83848190307599
 30
0.0
 11
-10.81868743897
 21
-9.135906219481999
 31
0.0
 11
-11.62789154053
 21
-9.812175750731999
 31
0.0
 11
-12.4373703003
 21
-10.488079071045
 31
0.0
 11
-13.24727630616
 21
-11.16349411010699
 31
0.0
 11
-14.05767059326
 21
-11.83848190307599
 31
0.0
  0
ELLIPSE
  5
31C1
330
3124
100
AcDbEntity
  8
AM_0
 48
0.5
100
AcDbEllipse
 10
-16.17227935790999
 20
-9.189678192138998
 30
0.0
 11
0.1759796148799921
 21
0.1008300831189999
 31
0.0
210
0.0
220
0.0
230
0.9999999999999998
 40
0.0784226945952
 41
3.758014941016237
 42
4.304363179955329
  0
SPLINE
  5
31C2
330
3124
100
AcDbEntity
  8
AM_0
 48
0.5
100
AcDbSpline
210
0.0
220
0.0
230
1.0
 70
     8
 71
     3
 72
    11
 73
     7
 74
     5
 42
0.0000000001
 43
0.0000000001
 44
0.0000000001
 40
0.0
 40
0.0
 40
0.0
 40
0.0
 40
0.0351510043985731
 40
0.0785052601887035
 40
0.128706601994364
 40
0.1842595006285128
 40
0.1842595006285128
 40
0.1842595006285128
 40
0.1842595006285128
 10
-16.38408660889
 20
-9.552104949950997
 30
0.0
 10
-16.37285096087186
 20
-9.548753112250524
 30
0.0
 10
-16.34775758200135
 20
-9.541267212621534
 30
0.0
 10
-16.30824229206974
 20
-9.524377256850625
 30
0.0
 10
-16.26345581593758
 20
-9.502802784767101
 30
0.0
 10
-16.23266076644221
 20
-9.485626956246203
 30
0.0
 10
-16.21648406983
 20
-9.47660446167
 30
0.0
 11
-16.38408660889
 21
-9.552104949950997
 31
0.0
 11
-16.35057830811
 21
-9.541484832763998
 31
0.0
 11
-16.31047821045
 21
-9.525005340575997
 31
0.0
 11
-16.26528167725
 21
-9.503154754638998
 31
0.0
 11
-16.21648406983
 21
-9.47660446167
 31
0.0
  0
ELLIPSE
  5
31C3
330
3124
100
AcDbEntity
  8
AM_0
 48
0.5
100
AcDbEllipse
 10
-16.16226959229
 20
-9.181377410888998
 30
0.0
 11
0.2030486998699957
 21
0.1163330060490004
 31
0.0
210
0.0
220
0.0
230
1.0
 40
0.078191702238
 41
4.305074021721084
 42
4.504290426101505
  0
SPLINE
  5
31C4
330
3124
100
AcDbEntity
  8
AM_0
 48
0.5
100
AcDbSpline
210
0.0
220
0.0
230
1.0
 70
     8
 71
     3
 72
    11
 73
     7
 74
     5
 42
0.0000000001
 43
0.0000000001
 44
0.0000000001
 40
0.0
 40
0.0
 40
0.0
 40
0.0
 40
0.0248622946231289
 40
0.0501732729434415
 40
0.0759174684589367
 40
0.1021061739628344
 40
0.1021061739628344
 40
0.1021061739628344
 40
0.1021061739628344
 10
-16.21648406983
 20
-9.47660446167
 30
0.0
 10
-16.20930492151826
 20
-9.472463755961161
 30
0.0
 10
-16.19481706457639
 20
-9.464107618249125
 30
0.0
 10
-16.17322242923836
 20
-9.45090875129394
 30
0.0
 10
-16.15154346659648
 20
-9.437015074464497
 30
0.0
 10
-16.1370781800869
 20
-9.427505768333409
 30
0.0
 10
-16.12978363037
 20
-9.422710418700997
 30
0.0
 11
-16.21648406983
 21
-9.47660446167
 31
0.0
 11
-16.19499969483
 21
-9.464092254638998
 31
0.0
 11
-16.17339324950999
 21
-9.450908660888998
 31
0.0
 11
-16.15169525147
 21
-9.43705368042
 31
0.0
 11
-16.12978363037
 21
-9.422710418700997
 31
0.0
  0
ELLIPSE
  5
31C5
330
3124
100
AcDbEntity
  8
AM_0
 48
0.5
100
AcDbEllipse
 10
-16.16628265381
 20
-9.186382293700997
 30
0.0
 11
0.1765747128399937
 21
0.1011352540189989
 31
0.0
210
0.0
220
0.0
230
1.0
 40
0.0785373768022
 41
4.503327538046981
 42
4.755490976385399
  0
SPLINE
  5
31C6
330
3124
100
AcDbEntity
  8
AM_0
 48
0.5
100
AcDbSpline
210
0.0
220
0.0
230
1.0
 70
     8
 71
     3
 72
    11
 73
     7
 74
     5
 42
0.0000000001
 43
0.0000000001
 44
0.0000000001
 40
0.0
 40
0.0
 40
0.0
 40
0.0
 40
0.2143835275304115
 40
0.4565391850213797
 40
0.7264999735450513
 40
1.024410945593799
 40
1.024410945593799
 40
1.024410945593799
 40
1.024410945593799
 10
2.59041595459
 20
-14.44517135620099
 30
0.0
 10
2.595987059082241
 20
-14.37392646555176
 30
0.0
 10
2.607850972013685
 20
-14.22220732607952
 30
0.0
 10
2.630989137693529
 20
-13.98113869822892
 30
0.0
 10
2.659057832673015
 20
-13.71258980243826
 30
0.0
 10
2.680690686921008
 20
-13.52453801704573
 30
0.0
 10
2.692039489739997
 20
-13.42588424682599
 30
0.0
 11
2.59041595459
 21
-14.44517135620099
 31
0.0
 11
2.607719421379997
 21
-14.23148727417
 31
0.0
 11
2.630424499509999
 21
-13.990398406982
 31
0.0
 11
2.658531188959997
 21
-13.721904754639
 31
0.0
 11
2.692039489739997
 21
-13.42588424682599
 31
0.0
  0
SPLINE
  5
31C7
330
3124
100
AcDbEntity
  8
AM_0
 48
0.5
100
AcDbSpline
210
0.0
220
0.0
230
1.0
 70
     8
 71
     3
 72
    11
 73
     7
 74
     5
 42
0.0000000001
 43
0.0000000001
 44
0.0000000001
 40
0.0
 40
0.0
 40
0.0
 40
0.0
 40
0.1084307588059053
 40
0.2049961111723906
 40
0.2902166871507758
 40
0.3645612218383927
 40
0.3645612218383927
 40
0.3645612218383927
 40
0.3645612218383927
 10
2.344444274899998
 20
-13.319499969482
 30
0.0
 10
2.379864383262368
 20
-13.32674240573054
 30
0.0
 10
2.446828633550314
 20
-13.34043474988377
 30
0.0
 10
2.540250841337382
 20
-13.36569344383321
 30
0.0
 10
2.621350988499357
 20
-13.3928582611513
 30
0.0
 10
2.66957225148415
 20
-13.41538745207487
 30
0.0
 10
2.692039489739997
 20
-13.42588424682599
 30
0.0
 11
2.344444274899998
 21
-13.319499969482
 31
0.0
 11
2.450431823729999
 21
-13.34238815307599
 31
0.0
 11
2.543632507319998
 21
-13.36765670776399
 31
0.0
 11
2.62413787842
 21
-13.39561080932599
 31
0.0
 11
2.692039489739997
 21
-13.42588424682599
 31
0.0
  0
SPLINE
  5
31C8
330
3124
100
AcDbEntity
  8
AM_0
 48
0.5
100
AcDbSpline
210
0.0
220
0.0
230
1.0
 70
     8
 71
     3
 72
    11
 73
     7
 74
     5
 42
0.0000000001
 43
0.0000000001
 44
0.0000000001
 40
0.0
 40
0.0
 40
0.0
 40
0.0
 40
0.0211222209230718
 40
0.045865051974143
 40
0.0741643264972508
 40
0.1061039718593703
 40
0.1061039718593703
 40
0.1061039718593703
 40
0.1061039718593703
 10
-0.7382583618200016
 20
-19.09379196167
 30
0.0
 10
-0.7395078826004871
 20
-19.08686212219815
 30
0.0
 10
-0.7422211074904484
 20
-19.07181458298784
 30
0.0
 10
-0.7454839359197161
 20
-19.04730359536238
 30
0.0
 10
-0.7488540359471938
 20
-19.01917607004502
 30
0.0
 10
-0.7506250210565201
 20
-18.99917319745327
 30
0.0
 10
-0.7515640258800005
 20
-18.988567352295
 30
0.0
 11
-0.7382583618200016
 21
-19.09379196167
 31
0.0
 11
-0.7418594360400022
 21
-19.07297897338899
 31
0.0
 11
-0.7452774047900022
 21
-19.04847335815399
 31
0.0
 11
-0.7485733032300033
 21
-19.02036666870099
 31
0.0
 11
-0.7515640258800005
 21
-18.988567352295
 31
0.0
  0
SPLINE
  5
31C9
330
3124
100
AcDbEntity
  8
AM_0
 48
0.5
100
AcDbSpline
210
0.0
220
0.0
230
1.0
 70
     8
 71
     3
 72
    11
 73
     7
 74
     5
 42
0.0000000001
 43
0.0000000001
 44
0.0000000001
 40
0.0
 40
0.0
 40
0.0
 40
0.0
 40
0.4039695596520091
 40
0.8231899080183758
 40
1.257886089439823
 40
1.708006833325515
 40
1.708006833325515
 40
1.708006833325515
 40
1.708006833325515
 10
3.431144714349997
 20
-19.63459396362299
 30
0.0
 10
3.297612023362538
 20
-19.65196905555997
 30
0.0
 10
3.025505472299375
 20
-19.68737518949177
 30
0.0
 10
2.608895762993991
 20
-19.73488630252825
 30
0.0
 10
2.176517259699059
 20
-19.77964966097175
 30
0.0
 10
1.882765874589814
 20
-19.806123732139
 30
0.0
 10
1.73332977295
 20
-19.81959152221699
 30
0.0
 11
3.431144714349997
 21
-19.63459396362299
 31
0.0
 11
3.030418395989997
 21
-19.68568038940399
 31
0.0
 11
2.613945007319998
 21
-19.73359298705999
 31
0.0
 11
2.181541442869999
 21
-19.77817916870099
 31
0.0
 11
1.73332977295
 21
-19.81959152221699
 31
0.0
  0
SPLINE
  5
31CA
330
3124
100
AcDbEntity
  8
AM_0
 48
0.5
100
AcDbSpline
210
0.0
220
0.0
230
1.0
 70
     8
 71
     3
 72
    11
 73
     7
 74
     5
 42
0.0000000001
 43
0.0000000001
 44
0.0000000001
 40
0.0
 40
0.0
 40
0.0
 40
0.0
 40
0.0207630128012163
 40
0.0351944718657532
 40
0.0437623056980226
 40
0.0488006645072946
 40
0.0488006645072946
 40
0.0488006645072946
 40
0.0488006645072946
 10
-0.7382583618200016
 20
-19.09379196167
 30
0.0
 10
-0.7368218645202323
 20
-19.10066923532
 30
0.0
 10
-0.7343869209845333
 20
-19.11232660009195
 30
0.0
 10
-0.7296380068696901
 20
-19.12528852692257
 30
0.0
 10
-0.7253030361665687
 20
-19.13529483379989
 30
0.0
 10
-0.7204595970611165
 20
-19.13520650548792
 30
0.0
 10
-0.71866607666
 20
-19.13517379760699
 30
0.0
 11
-0.7382583618200016
 21
-19.09379196167
 31
0.0
 11
-0.7334671020499997
 21
-19.11399459838899
 31
0.0
 11
-0.7285842895499997
 21
-19.127574920654
 31
0.0
 11
-0.7236709594800033
 21
-19.13459396362299
 31
0.0
 11
-0.71866607666
 21
-19.13517379760699
 31
0.0
  0
LINE
  5
31CB
330
3124
100
AcDbEntity
  8
AM_7
100
AcDbLine
 10
-22.49999237061
 20
0.0000190734860013
 30
0.0
 11
22.50002288817599
 21
0.0000190734860013
 31
0.0
  0
ARC
  5
31CC
330
3124
100
AcDbEntity
  8
AM_0
 48
0.5
100
AcDbCircle
 10
0.0000228881799984
 20
0.0000190734860013
 30
0.0
 40
19.500045776367
100
AcDbArc
 50
340.2015765396955
 51
0.9987620204657229
  0
ARC
  5
31CD
330
3124
100
AcDbEntity
  8
AM_0
 48
0.5
100
AcDbCircle
 10
0.0000228881799984
 20
0.0000190734860013
 30
0.0
 40
19.499998092651
100
AcDbArc
 50
2.69065868153748
 51
29.44042392669228
  0
LINE
  5
31CE
330
3124
100
AcDbEntity
  8
AM_7
 48
0.5
100
AcDbLine
 10
3.907081603999998
 20
-22.158176422119
 30
0.0
 11
0.0
 21
0.0
 31
0.0
  0
LINE
  5
31CF
330
3124
100
AcDbEntity
  8
AM_7
100
AcDbLine
 10
0.0000228881799984
 20
22.500022888184
 30
0.0
 11
0.0000228881799984
 21
-22.49997997283899
 31
0.0
  0
ARC
  5
31D0
330
3124
100
AcDbEntity
  8
AM_0
 48
0.5
100
AcDbCircle
 10
0.0000228881799984
 20
0.0000190734860013
 30
0.0
 40
19.499998092651
100
AcDbArc
 50
182.6906523919215
 51
209.44041891774
  0
LINE
  5
31D1
330
3124
100
AcDbEntity
  8
AM_0
 48
0.5
100
AcDbLine
 10
-11.64665985108
 20
4.47148513794
 30
0.0
 11
-17.95575714112
 21
-4.264282226561995
 31
0.0
  0
LINE
  5
31D2
330
3124
100
AcDbEntity
  8
AM_0
 48
0.5
100
AcDbLine
 10
11.64673614501199
 20
-4.471504211426001
 30
0.0
 11
17.95583343505099
 21
4.264274597168004
 31
0.0
  0
ARC
  5
31D3
330
3124
100
AcDbEntity
  8
AM_0
 48
0.5
100
AcDbCircle
 10
0.0000228881799984
 20
0.0000190734860013
 30
0.0
 40
19.500022888183
100
AcDbArc
 50
242.6906677219522
 51
269.4405503609849
  0
ARC
  5
31D4
330
3124
100
AcDbEntity
  8
AM_0
 48
0.5
100
AcDbCircle
 10
0.0000228881799984
 20
0.0000190734860013
 30
0.0
 40
18.66346359252899
100
AcDbArc
 50
253.8749249029307
 51
269.5735819554503
  0
ARC
  5
31D5
330
3124
100
AcDbEntity
  8
AM_0
 48
0.5
100
AcDbCircle
 10
0.0000228881799984
 20
0.0000190734860013
 30
0.0
 40
18.455282211303
100
AcDbArc
 50
253.3596964130784
 51
269.6162706377638
  0
LINE
  5
31D6
330
3124
100
AcDbEntity
  8
AM_0
 48
0.5
100
AcDbLine
 10
-11.85731506348
 20
-6.691473007201999
 30
0.0
 11
-16.0442276001
 21
-9.120370864867997
 31
0.0
  0
LINE
  5
31D7
330
3124
100
AcDbEntity
  8
AM_0
 48
0.5
100
AcDbLine
 10
-13.54219055176
 20
-7.689859390258998
 30
0.0
 11
-16.15066528321
 21
-9.195831298827997
 31
0.0
  0
LINE
  5
31D8
330
3124
100
AcDbEntity
  8
AM_0
 48
0.5
100
AcDbLine
 10
-16.04287719727
 20
-9.364528656005997
 30
0.0
 11
-13.55838012696
 21
-7.930017471312996
 31
0.0
  0
ARC
  5
31D9
330
3124
100
AcDbEntity
  8
AM_0
 48
0.5
100
AcDbCircle
 10
0.0000228881799984
 20
0.0000190734860013
 30
0.0
 40
18.663457870483
100
AcDbArc
 50
193.8747456483572
 51
209.5735256442819
  0
ARC
  5
31DA
330
3124
100
AcDbEntity
  8
AM_0
 48
0.5
100
AcDbCircle
 10
0.0000228881799984
 20
0.0000190734860013
 30
0.0
 40
18.455215454101
100
AcDbArc
 50
193.3596127811561
 51
209.616268968107
  0
LINE
  5
31DB
330
3124
100
AcDbEntity
  8
AM_0
 48
0.5
100
AcDbLine
 10
-16.23209381104
 20
-9.211139678954999
 30
0.0
 11
-16.04418945313
 21
-9.120374679564999
 31
0.0
  0
LINE
  5
31DC
330
3124
100
AcDbEntity
  8
AM_0
 48
0.5
100
AcDbLine
 10
-16.29755401612
 20
-11.410846710205
 30
0.0
 11
-16.3006515503
 21
-11.406089782715
 31
0.0
  0
LINE
  5
31DD
330
3124
100
AcDbEntity
  8
AM_0
 48
0.5
100
AcDbLine
 10
-17.02921295165999
 20
-9.195365905761999
 30
0.0
 11
-16.30073547364
 21
-11.40613365173299
 31
0.0
  0
LINE
  5
31DE
330
3124
100
AcDbEntity
  8
AM_0
 48
0.5
100
AcDbLine
 10
-17.02919769286999
 20
-9.195255279540997
 30
0.0
 11
-17.02719879151
 21
-9.196659088134996
 31
0.0
  0
LINE
  5
31DF
330
3124
100
AcDbEntity
  8
AM_0
 48
0.5
100
AcDbLine
 10
-17.0253982544
 20
-9.197399139403998
 30
0.0
 11
-17.02719879151
 21
-9.196727752684999
 31
0.0
  0
LINE
  5
31E0
330
3124
100
AcDbEntity
  8
AM_0
 48
0.5
100
AcDbLine
 10
-16.93001556397
 20
-8.944671630858998
 30
0.0
 11
-16.3518447876
 21
-9.292135238646999
 31
0.0
  0
LINE
  5
31E1
330
3124
100
AcDbEntity
  8
AM_0
 48
0.5
100
AcDbLine
 10
-17.00988006592
 20
-9.156915664672997
 30
0.0
 11
-17.02536773682
 21
-9.197317123412997
 31
0.0
  0
LINE
  5
31E2
330
3124
100
AcDbEntity
  8
AM_0
 48
0.5
100
AcDbLine
 10
-17.02547454834
 20
-9.197254180907997
 30
0.0
 11
-16.44699859619
 21
-9.544837951659999
 31
0.0
  0
LINE
  5
31E3
330
3124
100
AcDbEntity
  8
AM_0
 48
0.5
100
AcDbLine
 10
-16.92998504639
 20
-8.944732666014999
 30
0.0
 11
-16.93088531494
 21
-8.945219039916999
 31
0.0
  0
LINE
  5
31E4
330
3124
100
AcDbEntity
  8
AM_0
 48
0.5
100
AcDbLine
 10
-16.92995452881
 20
-8.944698333739999
 30
0.0
 11
-17.00994110108
 21
-9.156896591185997
 31
0.0
  0
LINE
  5
31E5
330
3124
100
AcDbEntity
  8
AM_0
 48
0.5
100
AcDbLine
 10
-16.44277191161999
 20
-9.549005508422997
 30
0.0
 11
-16.4469909668
 21
-9.544849395751999
 31
0.0
  0
LINE
  5
31E6
330
3124
100
AcDbEntity
  8
AM_0
 48
0.5
100
AcDbLine
 10
-16.12982940674
 20
-9.422660827636999
 30
0.0
 11
-16.07312774658
 21
-9.383720397948998
 31
0.0
  0
LINE
  5
31E7
330
3124
100
AcDbEntity
  8
AM_0
 48
0.5
100
AcDbLine
 10
-16.07313537598
 20
-9.383720397948998
 30
0.0
 11
-16.04290771485
 21
-9.364425659179996
 31
0.0
  0
LINE
  5
31E8
330
3124
100
AcDbEntity
  8
AM_0
 48
0.5
100
AcDbLine
 10
-18.11887359618999
 20
-4.475509643555
 30
0.0
 11
-18.58669281006
 21
-4.383159637451001
 31
0.0
  0
LINE
  5
31E9
330
3124
100
AcDbEntity
  8
AM_0
 48
0.5
100
AcDbLine
 10
-18.11891937256
 20
-4.475463867186995
 30
0.0
 11
-17.95581817627
 21
-4.264225006102996
 31
0.0
  0
LINE
  5
31EA
330
3124
100
AcDbEntity
  8
AM_0
 48
0.5
100
AcDbLine
 10
-9.695693969730001
 20
-7.850631713866999
 30
0.0
 11
-5.284912109380002
 21
-17.68238639831499
 31
0.0
  0
LINE
  5
31EB
330
3124
100
AcDbEntity
  8
AM_0
 48
0.5
100
AcDbLine
 10
-14.05767059326
 20
-11.83848953247099
 30
0.0
 11
-14.94075775147
 21
-12.56138038635199
 31
0.0
  0
ARC
  5
31EC
330
3124
100
AcDbEntity
  8
AM_0
 48
0.5
100
AcDbCircle
 10
0.0000228881799984
 20
0.0000190734860013
 30
0.0
 40
19.49999618530199
100
AcDbArc
 50
220.2014502569842
 51
240.9986796003781
  0
LINE
  5
31ED
330
3124
100
AcDbEntity
  8
AM_0
 48
0.5
100
AcDbLine
 10
-15.25085449219
 20
-12.78101158142099
 30
0.0
 11
-15.28836059571
 21
-12.78882408142099
 31
0.0
  0
LINE
  5
31EE
330
3124
100
AcDbEntity
  8
AM_0
 48
0.5
100
AcDbLine
 10
-8.946464538580002
 20
-17.32659530639599
 30
0.0
 11
-9.454162597660001
 21
-17.05486488342299
 31
0.0
  0
LINE
  5
31EF
330
3124
100
AcDbEntity
  8
AM_0
 48
0.5
100
AcDbLine
 10
-5.183502197270001
 20
-17.92920494079599
 30
0.0
 11
-5.497291564939999
 21
-18.28808403015099
 31
0.0
  0
LINE
  5
31F0
330
3124
100
AcDbEntity
  8
AM_0
 48
0.5
100
AcDbLine
 10
-5.183502197270001
 20
-17.92920112609799
 30
0.0
 11
-5.284904479979999
 21
-17.68236923217799
 31
0.0
  0
LINE
  5
31F1
330
3124
100
AcDbEntity
  8
AM_0
 48
0.5
100
AcDbLine
 10
-9.695739746100002
 20
-7.850500106810997
 30
0.0
 11
-10.65534973145
 21
-8.279821395873998
 31
0.0
  0
LINE
  5
31F2
330
3124
100
AcDbEntity
  8
AM_0
 48
0.5
100
AcDbLine
 10
-10.32131958008
 20
-8.673175811766999
 30
0.0
 11
-11.88940429688
 21
-6.875158309935997
 31
0.0
  0
LINE
  5
31F3
330
3124
100
AcDbEntity
  8
AM_0
 48
0.5
100
AcDbLine
 10
-14.05767059326
 20
-11.83847618102999
 30
0.0
 11
-13.55837249756
 21
-7.929962158202997
 31
0.0
  0
LINE
  5
31F4
330
3124
100
AcDbEntity
  8
AM_0
 48
0.5
100
AcDbLine
 10
-12.57927703858
 20
-7.124505996703998
 30
0.0
 11
-13.54218292237
 21
-7.689813613890997
 31
0.0
  0
LINE
  5
31F5
330
3124
100
AcDbEntity
  8
AM_0
 48
0.5
100
AcDbLine
 10
-13.44199371338
 20
-7.846509933471999
 30
0.0
 11
-12.47908782959
 21
-7.281202316283998
 31
0.0
  0
LINE
  5
31F6
330
3124
100
AcDbEntity
  8
AM_0
 48
0.5
100
AcDbLine
 10
-13.44196319579999
 20
-7.846408843993998
 30
0.0
 11
-13.54216003418
 21
-7.689737319945997
 31
0.0
  0
LINE
  5
31F7
330
3124
100
AcDbEntity
  8
AM_0
 48
0.5
100
AcDbLine
 10
-13.55851745606
 20
-7.929828643798998
 30
0.0
 11
-13.44212341309
 21
-7.846330642699999
 31
0.0
  0
LINE
  5
31F8
330
3124
100
AcDbEntity
  8
AM_0
 48
0.5
100
AcDbLine
 10
-11.53359222411999
 20
-7.283185958861999
 30
0.0
 11
-11.50610351563
 21
-7.299657821654999
 31
0.0
  0
LINE
  5
31F9
330
3124
100
AcDbEntity
  8
AM_0
 48
0.5
100
AcDbLine
 10
-10.66622161866
 20
-8.277675628661999
 30
0.0
 11
-10.65523529053
 21
-8.27986907959
 31
0.0
  0
LINE
  5
31FA
330
3124
100
AcDbEntity
  8
AM_0
 48
0.5
100
AcDbLine
 10
-11.8572845459
 20
-6.691566467284999
 30
0.0
 11
-11.50608825684
 21
-7.299716949462997
 31
0.0
  0
LINE
  5
31FB
330
3124
100
AcDbEntity
  8
AM_0
 48
0.5
100
AcDbLine
 10
-11.50611114502
 20
-7.299648284911999
 30
0.0
 11
-10.65530395508
 21
-8.279884338378998
 31
0.0
  0
LINE
  5
31FC
330
3124
100
AcDbEntity
  8
AM_0
 48
0.5
100
AcDbLine
 10
-12.02835845948
 20
-6.790746688842997
 30
0.0
 11
-11.89376831055
 21
-6.871671676635997
 31
0.0
  0
LINE
  5
31FD
330
3124
100
AcDbEntity
  8
AM_0
 48
0.5
100
AcDbLine
 10
-11.88941955567
 20
-6.875141143798998
 30
0.0
 11
-11.89140319824
 21
-6.873380661010997
 31
0.0
  0
LINE
  5
31FE
330
3124
100
AcDbEntity
  8
AM_0
 48
0.5
100
AcDbLine
 10
-11.89141845703
 20
-6.873394012450997
 30
0.0
 11
-11.89373016358
 21
-6.871801376342997
 31
0.0
  0
LINE
  5
31FF
330
3124
100
AcDbEntity
  8
AM_0
 48
0.5
100
AcDbLine
 10
-11.93655395508
 20
-6.864482879638998
 30
0.0
 11
-11.89376068116
 21
-6.871683120726999
 31
0.0
  0
LINE
  5
3200
330
3124
100
AcDbEntity
  8
AM_0
 48
0.5
100
AcDbLine
 10
-11.89369201659999
 20
-6.871755599974999
 30
0.0
 11
-11.93659210205
 21
-6.864431381224999
 31
0.0
  0
LINE
  5
3201
330
3124
100
AcDbEntity
  8
AM_0
 48
0.5
100
AcDbLine
 10
-11.92238616944
 20
-6.931507110595998
 30
0.0
 11
-12.16410064698
 21
-6.869491577147996
 31
0.0
  0
LINE
  5
3202
330
3124
100
AcDbEntity
  8
AM_0
 48
0.5
100
AcDbLine
 10
-12.09622192383
 20
-7.059564590453998
 30
0.0
 11
-12.30619812012
 21
-6.953800201415997
 31
0.0
  0
LINE
  5
3203
330
3124
100
AcDbEntity
  8
AM_0
 48
0.5
100
AcDbLine
 10
-12.27415466309
 20
-7.167406082152997
 30
0.0
 11
-12.43225097657
 21
-7.035203933715997
 31
0.0
  0
LINE
  5
3204
330
3124
100
AcDbEntity
  8
AM_0
 48
0.5
100
AcDbLine
 10
-12.47906494141
 20
-7.281139373778998
 30
0.0
 11
-12.57926177979
 21
-7.124467849730997
 31
0.0
  0
LINE
  5
3205
330
3124
100
AcDbEntity
  8
AM_0
 48
0.5
100
AcDbLine
 10
-12.47905731201
 20
-7.281200408934999
 30
0.0
 11
-12.45037078858
 21
-7.265035629271999
 31
0.0
  0
ARC
  5
3206
330
3124
100
AcDbEntity
  8
AM_0
 48
0.5
100
AcDbCircle
 10
0.0000228881799984
 20
0.0000190734860013
 30
0.0
 40
19.49998474121
100
AcDbArc
 50
280.2016431719313
 51
300.9987768926798
  0
LINE
  5
3207
330
3124
100
AcDbEntity
  8
AM_0
 48
0.5
100
AcDbLine
 10
1.951026916499998
 20
-12.32203674316399
 30
0.0
 11
12.67092895507099
 21
-13.41798400878899
 31
0.0
  0
LINE
  5
3208
330
3124
100
AcDbEntity
  8
AM_0
 48
0.5
100
AcDbLine
 10
1.95101928711
 20
-12.322063446045
 30
0.0
 11
1.842910766599999
 21
-13.36769866943299
 31
0.0
  0
LINE
  5
3209
330
3124
100
AcDbEntity
  8
AM_0
 48
0.5
100
AcDbLine
 10
2.350624084469998
 20
-13.275119781494
 30
0.0
 11
0.0094375610299977
 21
-13.734102249145
 31
0.0
  0
LINE
  5
320A
330
3124
100
AcDbEntity
  8
AM_0
 48
0.5
100
AcDbLine
 10
3.22364807129
 20
-18.09350395202599
 30
0.0
 11
0.0884246826099968
 21
-15.70689392089799
 31
0.0
  0
LINE
  5
320B
330
3124
100
AcDbEntity
  8
AM_0
 48
0.5
100
AcDbLine
 10
0.5686264038100007
 20
-13.614501953125
 30
0.0
 11
1.842926025389999
 21
-13.36767578125
 31
0.0
  0
LINE
  5
320C
330
3124
100
AcDbEntity
  8
AM_0
 48
0.5
100
AcDbLine
 10
-0.551177978520002
 20
-19.34527969360299
 30
0.0
 11
1.72762298584
 21
-19.81986045837399
 31
0.0
  0
LINE
  5
320D
330
3124
100
AcDbEntity
  8
AM_0
 48
0.5
100
AcDbLine
 10
-0.1114578247100013
 20
-15.57279586792
 30
0.0
 11
-0.1114578247100013
 21
-18.58478927612299
 31
0.0
  0
LINE
  5
320E
330
3124
100
AcDbEntity
  8
AM_0
 48
0.5
100
AcDbLine
 10
0.0884323120099993
 20
-18.57578659057599
 30
0.0
 11
0.0884323120099993
 21
-15.70689010620099
 31
0.0
  0
LINE
  5
320F
330
3124
100
AcDbEntity
  8
AM_0
 48
0.5
100
AcDbLine
 10
-0.1335372924799998
 20
-13.61447715759299
 30
0.0
 11
-0.123527526860002
 21
-18.45479965209899
 31
0.0
  0
ARC
  5
3210
330
3124
100
AcDbEntity
  8
AM_0
 48
0.5
100
AcDbCircle
 10
0.0531234741199995
 20
-0.18998336792
 30
0.0
 40
18.83568954467699
100
AcDbArc
 50
267.4406299908703
 51
267.5572486407602
  0
LINE
  5
3211
330
3124
100
AcDbEntity
  8
AM_0
 48
0.5
100
AcDbLine
 10
-0.71866607666
 20
-19.134166717529
 30
0.0
 11
-0.71866607666
 21
-19.13517379760699
 31
0.0
  0
LINE
  5
3212
330
3124
100
AcDbEntity
  8
AM_0
 48
0.5
100
AcDbLine
 10
-0.71875
 20
-19.13414955139099
 30
0.0
 11
-0.574813842780003
 21
-19.30950927734399
 31
0.0
  0
LINE
  5
3213
330
3124
100
AcDbEntity
  8
AM_0
 48
0.5
100
AcDbLine
 10
0.0484008788999972
 20
-19.01447296142599
 30
0.0
 11
0.0425949096700009
 21
-19.01597023010199
 31
0.0
  0
LINE
  5
3214
330
3124
100
AcDbEntity
  8
AM_0
 48
0.5
100
AcDbLine
 10
0.095428466789997
 20
-18.68010711669899
 30
0.0
 11
0.0900268554700006
 21
-18.61159324646
 31
0.0
  0
LINE
  5
3215
330
3124
100
AcDbEntity
  8
AM_0
 48
0.5
100
AcDbLine
 10
0.090049743649999
 20
-18.61159515380799
 30
0.0
 11
0.0884475707999997
 21
-18.575803756714
 31
0.0
  0
LINE
  5
3216
330
3124
100
AcDbEntity
  8
AM_0
 48
0.5
100
AcDbLine
 10
-0.1389770507799994
 20
-18.662994384765
 30
0.0
 11
-0.1236724853499993
 21
-18.45478439330999
 31
0.0
  0
LINE
  5
3217
330
3124
100
AcDbEntity
  8
AM_0
 48
0.5
100
AcDbLine
 10
-0.5511398315500032
 20
-19.345251083374
 30
0.0
 11
-0.5489425659200009
 21
-19.34433555603
 31
0.0
  0
LINE
  5
3218
330
3124
100
AcDbEntity
  8
AM_0
 48
0.5
100
AcDbLine
 10
-0.5474319457999997
 20
-19.34314537048299
 30
0.0
 11
-0.5489196777400025
 21
-19.34441566467299
 31
0.0
  0
LINE
  5
3219
330
3124
100
AcDbEntity
  8
AM_0
 48
0.5
100
AcDbLine
 10
-0.7187271118200016
 20
-19.134120941162
 30
0.0
 11
-0.128616333010001
 21
-18.807123184204
 31
0.0
  0
LINE
  5
321A
330
3124
100
AcDbEntity
  8
AM_0
 48
0.5
100
AcDbLine
 10
-0.5747909545900001
 20
-19.30947494506799
 30
0.0
 11
-0.5476074218800023
 21
-19.34306716918899
 31
0.0
  0
LINE
  5
321B
330
3124
100
AcDbEntity
  8
AM_0
 48
0.5
100
AcDbLine
 10
-0.5475921630900018
 20
-19.34306716918899
 30
0.0
 11
0.0426177978499993
 21
-19.01594734191899
 31
0.0
  0
LINE
  5
321C
330
3124
100
AcDbEntity
  8
AM_0
 48
0.5
100
AcDbLine
 10
0.0068664550800008
 20
-13.73502731323199
 30
0.0
 11
0.0043563842699967
 21
-13.73625183105499
 31
0.0
  0
LINE
  5
321D
330
3124
100
AcDbEntity
  8
AM_0
 48
0.5
100
AcDbLine
 10
0.0093841552699985
 20
-13.73397064209
 30
0.0
 11
0.0067977905199967
 21
-13.734884262085
 31
0.0
  0
LINE
  5
321E
330
3124
100
AcDbEntity
  8
AM_0
 48
0.5
100
AcDbLine
 10
-0.0234832763700013
 20
-13.76957321167
 30
0.0
 11
0.004203796379997
 21
-13.73619651794399
 31
0.0
  0
LINE
  5
321F
330
3124
100
AcDbEntity
  8
AM_0
 48
0.5
100
AcDbLine
 10
0.0043487548799988
 20
-13.73613548278799
 30
0.0
 11
-0.0234603881900029
 21
-13.76953125
 31
0.0
  0
LINE
  5
3220
330
3124
100
AcDbEntity
  8
AM_0
 48
0.5
100
AcDbLine
 10
0.0416107177699985
 20
-13.79073715209899
 30
0.0
 11
-0.1328735351600017
 21
-13.96913146972599
 31
0.0
  0
LINE
  5
3221
330
3124
100
AcDbEntity
  8
AM_0
 48
0.5
100
AcDbLine
 10
0.065719604489999
 20
-14.00535583496099
 30
0.0
 11
-0.1308822631900028
 21
-14.13425827026399
 31
0.0
  0
LINE
  5
3222
330
3124
100
AcDbEntity
  8
AM_0
 48
0.5
100
AcDbLine
 10
0.0701293945299995
 20
-14.21348571777299
 30
0.0
 11
-0.1233673095699999
 21
-14.28440856933599
 31
0.0
  0
LINE
  5
3223
330
3124
100
AcDbEntity
  8
AM_0
 48
0.5
100
AcDbLine
 10
-0.1198043823300026
 20
-14.45627021789499
 30
0.0
 11
-0.1115951538100006
 21
-15.57275581359799
 31
0.0
  0
LINE
  5
3224
330
3124
100
AcDbEntity
  8
AM_0
 48
0.5
100
AcDbLine
 10
0.066207885739999
 20
-14.44790649414
 30
0.0
 11
-0.1196670532300033
 21
-14.456327438354
 31
0.0
  0
LINE
  5
3225
330
3124
100
AcDbEntity
  8
AM_0
 48
0.5
100
AcDbLine
 10
0.0743484496999969
 20
-15.564359664917
 30
0.0
 11
-0.1114654540999993
 21
-15.572782516479
 31
0.0
  0
LINE
  5
3226
330
3124
100
AcDbEntity
  8
AM_0
 48
0.5
100
AcDbLine
 10
0.0884780883800005
 20
-15.706926345825
 30
0.0
 11
0.0743789672799977
 21
-15.564434051514
 31
0.0
  0
LINE
  5
3227
330
3124
100
AcDbEntity
  8
AM_0
 48
0.5
100
AcDbLine
 10
0.0662536621100003
 20
-14.44785308837899
 30
0.0
 11
0.0665588378899997
 21
-14.41477394103999
 31
0.0
  0
LINE
  5
3228
330
3124
100
AcDbEntity
  8
AM_0
 48
0.5
100
AcDbLine
 10
0.0743865966800002
 20
-15.56435775756799
 30
0.0
 11
0.0662841796799967
 21
-14.44787025451599
 31
0.0
  0
LINE
  5
3229
330
3124
100
AcDbEntity
  8
AM_0
 48
0.5
100
AcDbLine
 10
0.5405426025400005
 20
-13.62990760803199
 30
0.0
 11
0.5685348510699982
 21
-13.614408493042
 31
0.0
  0
LINE
  5
322A
330
3124
100
AcDbEntity
  8
AM_0
 48
0.5
100
AcDbLine
 10
-0.133583068850001
 20
-13.614482879639
 30
0.0
 11
0.5686264038100007
 21
-13.614482879639
 31
0.0
  0
LINE
  5
322B
330
3124
100
AcDbEntity
  8
AM_0
 48
0.5
100
AcDbLine
 10
-0.1331710815500031
 20
-13.81226348876899
 30
0.0
 11
0.0042190551699974
 21
-13.73615646362299
 31
0.0
  0
LINE
  5
322C
330
3124
100
AcDbEntity
  8
AM_0
 48
0.5
100
AcDbLine
 10
3.44329071045
 20
-19.59821701049799
 30
0.0
 11
3.431282043449996
 21
-19.63451957702599
 31
0.0
  0
LINE
  5
322D
330
3124
100
AcDbEntity
  8
AM_0
 48
0.5
100
AcDbLine
 10
3.223602294919999
 20
-18.093534469604
 30
0.0
 11
3.408096313469997
 21
-19.21982002258299
 31
0.0
  0
LINE
  5
322E
330
3124
100
AcDbEntity
  8
AM_0
 48
0.5
100
AcDbLine
 10
1.73334503174
 20
-19.81955528259299
 30
0.0
 11
1.727645874019998
 21
-19.81982994079599
 31
0.0
  0
LINE
  5
322F
330
3124
100
AcDbEntity
  8
AM_0
 48
0.5
100
AcDbLine
 10
1.83564758301
 20
-13.37608909606899
 30
0.0
 11
1.842933654779997
 21
-13.367668151855
 31
0.0
  0
ARC
  5
3230
330
3124
100
AcDbEntity
  8
AM_0
 48
0.5
100
AcDbCircle
 10
0.0000228881799984
 20
0.0000190734860013
 30
0.0
 40
19.50001335143999
100
AcDbArc
 50
302.6905942595208
 51
329.4406305778096
  0
ARC
  5
3231
330
3124
100
AcDbEntity
  8
AM_0
 48
0.5
100
AcDbCircle
 10
0.0000228881799984
 20
0.0000190734860013
 30
0.0
 40
18.663509368896
100
AcDbArc
 50
313.8748172895566
 51
329.5734299458458
  0
ARC
  5
3232
330
3124
100
AcDbEntity
  8
AM_0
 48
0.5
100
AcDbCircle
 10
0.0000228881799984
 20
0.0000190734860013
 30
0.0
 40
18.455200195312
100
AcDbArc
 50
313.3596878374476
 51
329.6160708168303
  0
LINE
  5
3233
330
3124
100
AcDbEntity
  8
AM_0
 48
0.5
100
AcDbLine
 10
12.93545532225799
 20
-13.453634262085
 30
0.0
 11
13.08935546874299
 21
-13.90485572814899
 31
0.0
  0
LINE
  5
3234
330
3124
100
AcDbEntity
  8
AM_0
 48
0.5
100
AcDbLine
 10
10.53198242186999
 20
-16.41115951538099
 30
0.0
 11
10.04288482666
 21
-16.71499061584499
 31
0.0
  0
LINE
  5
3235
330
3124
100
AcDbEntity
  8
AM_0
 48
0.5
100
AcDbLine
 10
12.93541717528599
 20
-13.45365142822199
 30
0.0
 11
12.67092895507099
 21
-13.41800880432099
 31
0.0
  0
LINE
  5
3236
330
3124
100
AcDbEntity
  8
AM_0
 48
0.5
100
AcDbLine
 10
12.45970916747299
 20
-7.331752777098998
 30
0.0
 11
13.43061065673099
 21
-7.882837295531999
 31
0.0
  0
LINE
  5
3237
330
3124
100
AcDbEntity
  8
AM_0
 48
0.5
100
AcDbLine
 10
13.51631164550099
 20
-7.717729568480997
 30
0.0
 11
12.545310974114
 21
-7.166578292846999
 31
0.0
  0
LINE
  5
3238
330
3124
100
AcDbEntity
  8
AM_0
 48
0.5
100
AcDbLine
 10
11.72373199462199
 20
-6.922916412352996
 30
0.0
 11
15.92053985594999
 21
-9.334476470946999
 31
0.0
  0
LINE
  5
3239
330
3124
100
AcDbEntity
  8
AM_0
 48
0.5
100
AcDbLine
 10
11.89530181883999
 20
-7.021474838256999
 30
0.0
 11
11.898094177239
 21
-6.864456176757997
 31
0.0
  0
LINE
  5
323A
330
3124
100
AcDbEntity
  8
AM_0
 48
0.5
100
AcDbLine
 10
11.89822387694599
 20
-6.861553192138998
 30
0.0
 11
11.89802551268799
 21
-6.864292144774999
 31
0.0
  0
LINE
  5
323B
330
3124
100
AcDbEntity
  8
AM_0
 48
0.5
100
AcDbLine
 10
12.67182159423099
 20
-4.601905822753998
 30
0.0
 11
11.89872741698499
 21
-6.858852386473998
 31
0.0
  0
LINE
  5
323C
330
3124
100
AcDbEntity
  8
AM_0
 48
0.5
100
AcDbLine
 10
11.898742675774
 20
-6.858892440795997
 30
0.0
 11
11.89813995360599
 21
-6.861570358275997
 31
0.0
  0
LINE
  5
323D
330
3124
100
AcDbEntity
  8
AM_0
 48
0.5
100
AcDbLine
 10
11.91311645507099
 20
-6.905075073241999
 30
0.0
 11
11.898017883294
 21
-6.864519119262997
 31
0.0
  0
LINE
  5
323E
330
3124
100
AcDbEntity
  8
AM_0
 48
0.5
100
AcDbLine
 10
11.89805603026599
 20
-6.864332199096999
 30
0.0
 11
11.913154602044
 21
-6.905082702636999
 31
0.0
  0
LINE
  5
323F
330
3124
100
AcDbEntity
  8
AM_0
 48
0.5
100
AcDbLine
 10
11.964035034172
 20
-6.859228134154999
 30
0.0
 11
12.031234741204
 21
-7.099582672118998
 31
0.0
  0
LINE
  5
3240
330
3124
100
AcDbEntity
  8
AM_0
 48
0.5
100
AcDbLine
 10
12.16196441649699
 20
-6.945791244506999
 30
0.0
 11
12.175270080559
 21
-7.180459976195997
 31
0.0
  0
LINE
  5
3241
330
3124
100
AcDbEntity
  8
AM_0
 48
0.5
100
AcDbLine
 10
12.34451293944599
 20
-7.045999526976999
 30
0.0
 11
12.30910491942599
 21
-7.249082565306999
 31
0.0
  0
LINE
  5
3242
330
3124
100
AcDbEntity
  8
AM_0
 48
0.5
100
AcDbLine
 10
12.545310974114
 20
-7.166608810424996
 30
0.0
 11
12.459701538079
 21
-7.331777572631999
 31
0.0
  0
LINE
  5
3243
330
3124
100
AcDbEntity
  8
AM_0
 48
0.5
100
AcDbLine
 10
12.545333862297
 20
-7.166561126708998
 30
0.0
 11
12.516937255852
 21
-7.149835586547997
 31
0.0
  0
LINE
  5
3244
330
3124
100
AcDbEntity
  8
AM_0
 48
0.5
100
AcDbLine
 10
12.074310302727
 20
-6.346796035765997
 30
0.0
 11
12.07490539550099
 21
-6.314819335936999
 31
0.0
  0
LINE
  5
3245
330
3124
100
AcDbEntity
  8
AM_0
 48
0.5
100
AcDbLine
 10
12.50178527831299
 20
-5.098365783691001
 30
0.0
 11
12.49819946288299
 21
-5.087852478026995
 31
0.0
  0
LINE
  5
3246
330
3124
100
AcDbEntity
  8
AM_0
 48
0.5
100
AcDbLine
 10
11.72373962401599
 20
-6.922901153563998
 30
0.0
 11
12.074844360344
 21
-6.314805984496999
 31
0.0
  0
LINE
  5
3247
330
3124
100
AcDbEntity
  8
AM_0
 48
0.5
100
AcDbLine
 10
12.07475280760999
 20
-6.314777374266999
 30
0.0
 11
12.498146057122
 21
-5.087802886962997
 31
0.0
  0
LINE
  5
3248
330
3124
100
AcDbEntity
  8
AM_0
 48
0.5
100
AcDbLine
 10
11.64672851561799
 20
-4.471446990966995
 30
0.0
 11
12.498222351067
 21
-5.087776184081995
 31
0.0
  0
LINE
  5
3249
330
3124
100
AcDbEntity
  8
AM_0
 48
0.5
100
AcDbLine
 10
13.430564880364
 20
-7.882829666137997
 30
0.0
 11
16.039070129387
 21
-9.388940811156999
 31
0.0
  0
LINE
  5
324A
330
3124
100
AcDbEntity
  8
AM_0
 48
0.5
100
AcDbLine
 10
16.131324768059
 20
-9.211265563965
 30
0.0
 11
13.646827697747
 21
-7.776876449585
 31
0.0
  0
LINE
  5
324B
330
3124
100
AcDbEntity
  8
AM_0
 48
0.5
100
AcDbLine
 10
16.093116760247
 20
-9.451763153075997
 30
0.0
 11
15.92050170897699
 21
-9.334440231322997
 31
0.0
  0
LINE
  5
324C
330
3124
100
AcDbEntity
  8
AM_0
 48
0.5
100
AcDbLine
 10
18.03084564208299
 20
-8.408632278441999
 30
0.0
 11
18.02823638915299
 21
-8.413778305053998
 31
0.0
  0
LINE
  5
324D
330
3124
100
AcDbEntity
  8
AM_0
 48
0.5
100
AcDbLine
 10
16.47802734374299
 20
-10.15000534057599
 30
0.0
 11
18.02834320067599
 21
-8.413795471190997
 31
0.0
  0
LINE
  5
324E
330
3124
100
AcDbEntity
  8
AM_0
 48
0.5
100
AcDbLine
 10
16.478012084954
 20
-10.149978637695
 30
0.0
 11
16.478210449212
 21
-10.14766693115199
 31
0.0
  0
LINE
  5
324F
330
3124
100
AcDbEntity
  8
AM_0
 48
0.5
100
AcDbLine
 10
16.477920532219
 20
-10.14563941955599
 30
0.0
 11
16.47821807860599
 21
-10.14769363403299
 31
0.0
  0
LINE
  5
3250
330
3124
100
AcDbEntity
  8
AM_0
 48
0.5
100
AcDbLine
 10
16.21135711669199
 20
-10.18951034545899
 30
0.0
 11
16.22316741942599
 21
-9.515052795409999
 31
0.0
  0
LINE
  5
3251
330
3124
100
AcDbEntity
  8
AM_0
 48
0.5
100
AcDbLine
 10
16.435127258294
 20
-10.15256881713899
 30
0.0
 11
16.47782135008999
 21
-10.145793914795
 31
0.0
  0
LINE
  5
3252
330
3124
100
AcDbEntity
  8
AM_0
 48
0.5
100
AcDbLine
 10
16.47778320311799
 20
-10.14586830139099
 30
0.0
 11
16.48957824706299
 21
-9.471168518065997
 31
0.0
  0
LINE
  5
3253
330
3124
100
AcDbEntity
  8
AM_0
 48
0.5
100
AcDbLine
 10
16.21139526366499
 20
-10.189529418945
 30
0.0
 11
16.43511199950499
 21
-10.15260314941399
 31
0.0
  0
LINE
  5
3254
330
3124
100
AcDbEntity
  8
AM_0
 48
0.5
100
AcDbLine
 10
16.491195678704
 20
-9.465364456176999
 30
0.0
 11
16.489593505852
 21
-9.471096038817996
 31
0.0
  0
LINE
  5
3255
330
3124
100
AcDbEntity
  8
AM_0
 48
0.5
100
AcDbLine
 10
16.22526550292199
 20
-9.257488250731999
 30
0.0
 11
16.16313171385999
 21
-9.227750778197997
 31
0.0
  0
LINE
  5
3256
330
3124
100
AcDbEntity
  8
AM_0
 48
0.5
100
AcDbLine
 10
16.16312408446499
 20
-9.227771759032997
 30
0.0
 11
16.13131713866499
 21
-9.211286544799996
 31
0.0
  0
LINE
  5
3257
330
3124
100
AcDbEntity
  8
AM_0
 48
0.5
100
AcDbLine
 10
17.281349182122
 20
-6.254981994628998
 30
0.0
 11
13.646865844719
 21
-7.776889801024999
 31
0.0
  0
LINE
  5
3258
330
3124
100
AcDbEntity
  8
AM_0
 48
0.5
100
AcDbLine
 10
13.516342163079
 20
-7.717756271361999
 30
0.0
 11
13.430641174309
 21
-7.882875442505
 31
0.0
  0
LINE
  5
3259
330
3124
100
AcDbEntity
  8
AM_0
 48
0.5
100
AcDbLine
 10
13.646827697747
 20
-7.776906967162997
 30
0.0
 11
13.51632690428999
 21
-7.717765808104999
 31
0.0
  0
LINE
  5
325A
330
3124
100
AcDbEntity
  8
AM_0
 48
0.5
100
AcDbLine
 10
18.694152832024
 20
-6.817193984984999
 30
0.0
 11
18.719650268547
 21
-6.845815658568998
 31
0.0
  0
LINE
  5
325B
330
3124
100
AcDbEntity
  8
AM_0
 48
0.5
100
AcDbLine
 10
17.281311035149
 20
-6.254940032958998
 30
0.0
 11
18.34890747069599
 21
-6.658319473265997
 31
0.0
  0
ARC
  5
325C
330
3124
100
AcDbEntity
  8
AM_0
 48
0.5
100
AcDbCircle
 10
0.0000228881799984
 20
0.0000190734860013
 30
0.0
 40
19.49998474121
100
AcDbArc
 50
100.2016413506989
 51
120.9987819016372
  0
LINE
  5
325D
330
3124
100
AcDbEntity
  8
AM_0
 48
0.5
100
AcDbLine
 10
-1.950981140140001
 20
12.322135925293
 30
0.0
 11
-12.6708984375
 21
13.418087005615
 31
0.0
  0
ARC
  5
325E
330
3124
100
AcDbEntity
  8
AM_0
 48
0.5
100
AcDbCircle
 10
0.0000228881799984
 20
0.0000190734860013
 30
0.0
 40
19.50001335143999
100
AcDbArc
 50
122.690592438289
 51
149.4406321716755
  0
ARC
  5
325F
330
3124
100
AcDbEntity
  8
AM_0
 48
0.5
100
AcDbCircle
 10
0.0000228881799984
 20
0.0000190734860013
 30
0.0
 40
18.663509368896
100
AcDbArc
 50
133.8748222985085
 51
149.573424709516
  0
ARC
  5
3260
330
3124
100
AcDbEntity
  8
AM_0
 48
0.5
100
AcDbCircle
 10
0.0000228881799984
 20
0.0000190734860013
 30
0.0
 40
18.455200195312
100
AcDbArc
 50
133.3596894313076
 51
149.6160724106961
  0
LINE
  5
3261
330
3124
100
AcDbEntity
  8
AM_0
 48
0.5
100
AcDbLine
 10
-16.09307098389
 20
9.451782226563004
 30
0.0
 11
-15.92045593262
 21
9.334457397461001
 31
0.0
  0
LINE
  5
3262
330
3124
100
AcDbEntity
  8
AM_0
 48
0.5
100
AcDbLine
 10
-13.43058776856
 20
7.882942199707002
 30
0.0
 11
-16.0390625
 21
9.389038085938004
 31
0.0
  0
LINE
  5
3263
330
3124
100
AcDbEntity
  8
AM_0
 48
0.5
100
AcDbLine
 10
-16.13130187989
 20
9.211307525635
 30
0.0
 11
-13.64679718018
 21
7.776920318603998
 31
0.0
  0
LINE
  5
3264
330
3124
100
AcDbEntity
  8
AM_0
 48
0.5
100
AcDbLine
 10
-17.2812576294
 20
6.254970550537002
 30
0.0
 11
-13.64675903321
 21
7.776885986328004
 31
0.0
  0
ARC
  5
3265
330
3124
100
AcDbEntity
  8
AM_0
 48
0.5
100
AcDbCircle
 10
0.0000228881799984
 20
0.0000190734860013
 30
0.0
 40
19.500045776367
100
AcDbArc
 50
160.2015815486477
 51
180.998756250529
  0
LINE
  5
3266
330
3124
100
AcDbEntity
  8
AM_0
 48
0.5
100
AcDbLine
 10
-19.47840118408
 20
-0.9154396057129972
 30
0.0
 11
-19.49689483643
 21
-0.3399314880369957
 31
0.0
  0
LINE
  5
3267
330
3124
100
AcDbEntity
  8
AM_0
 48
0.5
100
AcDbLine
 10
-18.69406890868999
 20
6.817291259766001
 30
0.0
 11
-18.71956634522
 21
6.84591293335
 31
0.0
  0
LINE
  5
3268
330
3124
100
AcDbEntity
  8
AM_0
 48
0.5
100
AcDbLine
 10
-17.28128814698
 20
6.255043029784999
 30
0.0
 11
-18.34889984131
 21
6.658420562743998
 31
0.0
  0
LINE
  5
3269
330
3124
100
AcDbEntity
  8
AM_0
 48
0.5
100
AcDbLine
 10
-18.03099822997999
 20
8.408767700194999
 30
0.0
 11
-18.02840423584
 21
8.413887023926001
 31
0.0
  0
LINE
  5
326A
330
3124
100
AcDbEntity
  8
AM_0
 48
0.5
100
AcDbLine
 10
-16.47797393799
 20
10.150062561035
 30
0.0
 11
-18.02828216553
 21
8.413852691651001
 31
0.0
  0
LINE
  5
326B
330
3124
100
AcDbEntity
  8
AM_0
 48
0.5
100
AcDbLine
 10
-16.47792816162
 20
10.150058746338
 30
0.0
 11
-16.47812652588
 21
10.147747039795
 31
0.0
  0
LINE
  5
326C
330
3124
100
AcDbEntity
  8
AM_0
 48
0.5
100
AcDbLine
 10
-16.47785186768
 20
10.145706176758
 30
0.0
 11
-16.47813415528
 21
10.147701263428
 31
0.0
  0
LINE
  5
326D
330
3124
100
AcDbEntity
  8
AM_0
 48
0.5
100
AcDbLine
 10
-16.21144866944
 20
10.189453125
 30
0.0
 11
-16.22325897217
 21
9.514995574951001
 31
0.0
  0
LINE
  5
326E
330
3124
100
AcDbEntity
  8
AM_0
 48
0.5
100
AcDbLine
 10
-16.43508148194
 20
10.15255355835
 30
0.0
 11
-16.47779083252
 21
10.14577484130899
 31
0.0
  0
LINE
  5
326F
330
3124
100
AcDbEntity
  8
AM_0
 48
0.5
100
AcDbLine
 10
-16.47782897948999
 20
10.145748138428
 30
0.0
 11
-16.48962402344
 21
9.471107482909999
 31
0.0
  0
LINE
  5
3270
330
3124
100
AcDbEntity
  8
AM_0
 48
0.5
100
AcDbLine
 10
-16.2113647461
 20
10.189445495606
 30
0.0
 11
-16.43508148194
 21
10.15251922607399
 31
0.0
  0
LINE
  5
3271
330
3124
100
AcDbEntity
  8
AM_0
 48
0.5
100
AcDbLine
 10
-16.4912185669
 20
9.465435028076001
 30
0.0
 11
-16.48960876465
 21
9.471195220947002
 31
0.0
  0
LINE
  5
3272
330
3124
100
AcDbEntity
  8
AM_0
 48
0.5
100
AcDbLine
 10
-16.22518157959
 20
9.257541656493998
 30
0.0
 11
-16.16304779053
 21
9.227806091308998
 31
0.0
  0
LINE
  5
3273
330
3124
100
AcDbEntity
  8
AM_0
 48
0.5
100
AcDbLine
 10
-16.16306304932
 20
9.227821350098004
 30
0.0
 11
-16.13125610352
 21
9.211338043213004
 31
0.0
  0
LINE
  5
3274
330
3124
100
AcDbEntity
  8
AM_0
 48
0.5
100
AcDbLine
 10
-11.72368621825999
 20
6.922916412353998
 30
0.0
 11
-15.92050933838
 21
9.334480285645
 31
0.0
  0
LINE
  5
3275
330
3124
100
AcDbEntity
  8
AM_0
 48
0.5
100
AcDbLine
 10
-12.45970153809
 20
7.331809997558998
 30
0.0
 11
-13.43059539795
 21
7.882892608643004
 31
0.0
  0
LINE
  5
3276
330
3124
100
AcDbEntity
  8
AM_0
 48
0.5
100
AcDbLine
 10
-13.51622772217
 20
7.717823028565
 30
0.0
 11
-12.54524993897
 21
7.166687011718998
 31
0.0
  0
LINE
  5
3277
330
3124
100
AcDbEntity
  8
AM_0
 48
0.5
100
AcDbLine
 10
-13.51621246338
 20
7.717784881592002
 30
0.0
 11
-13.4305267334
 21
7.882877349853998
 31
0.0
  0
LINE
  5
3278
330
3124
100
AcDbEntity
  8
AM_0
 48
0.5
100
AcDbLine
 10
-13.64678192139
 20
7.776958465576001
 30
0.0
 11
-13.51627349854
 21
7.71781539917
 31
0.0
  0
LINE
  5
3279
330
3124
100
AcDbEntity
  8
AM_0
 48
0.5
100
AcDbLine
 10
-12.07405853272
 20
6.34684753418
 30
0.0
 11
-12.07465362549
 21
6.314811706543004
 31
0.0
  0
LINE
  5
327A
330
3124
100
AcDbEntity
  8
AM_0
 48
0.5
100
AcDbLine
 10
-12.5018157959
 20
5.098350524903004
 30
0.0
 11
-12.49821472168
 21
5.087779998778998
 31
0.0
  0
LINE
  5
327B
330
3124
100
AcDbEntity
  8
AM_0
 48
0.5
100
AcDbLine
 10
-11.72357177735
 20
6.922843933106001
 30
0.0
 11
-12.07467651366999
 21
6.314750671387002
 31
0.0
  0
LINE
  5
327C
330
3124
100
AcDbEntity
  8
AM_0
 48
0.5
100
AcDbLine
 10
-12.07489013672
 20
6.314838409423998
 30
0.0
 11
-12.49829101563
 21
5.087863922118998
 31
0.0
  0
LINE
  5
327D
330
3124
100
AcDbEntity
  8
AM_0
 48
0.5
100
AcDbLine
 10
-11.64665222168
 20
4.471523284912002
 30
0.0
 11
-12.49814605713
 21
5.087856292725
 31
0.0
  0
LINE
  5
327E
330
3124
100
AcDbEntity
  8
AM_0
 48
0.5
100
AcDbLine
 10
-11.89510345459
 20
7.021530151367002
 30
0.0
 11
-11.89789581299
 21
6.864513397217002
 31
0.0
  0
LINE
  5
327F
330
3124
100
AcDbEntity
  8
AM_0
 48
0.5
100
AcDbLine
 10
-11.89814758301
 20
6.861572265625
 30
0.0
 11
-11.89794921875
 21
6.864311218262002
 31
0.0
  0
LINE
  5
3280
330
3124
100
AcDbEntity
  8
AM_0
 48
0.5
100
AcDbLine
 10
-12.67195892334
 20
4.601947784423998
 30
0.0
 11
-11.8988571167
 21
6.858917236328004
 31
0.0
  0
LINE
  5
3281
330
3124
100
AcDbEntity
  8
AM_0
 48
0.5
100
AcDbLine
 10
-11.89891815186
 20
6.85892868042
 30
0.0
 11
-11.8983078003
 21
6.861606597901001
 31
0.0
  0
LINE
  5
3282
330
3124
100
AcDbEntity
  8
AM_0
 48
0.5
100
AcDbLine
 10
-11.9130935669
 20
6.905174255371001
 30
0.0
 11
-11.89797973633
 21
6.864562988281001
 31
0.0
  0
LINE
  5
3283
330
3124
100
AcDbEntity
  8
AM_0
 48
0.5
100
AcDbLine
 10
-11.89791870117
 20
6.864269256592002
 30
0.0
 11
-11.91304016114
 21
6.905075073242002
 31
0.0
  0
LINE
  5
3284
330
3124
100
AcDbEntity
  8
AM_0
 48
0.5
100
AcDbLine
 10
-11.96391296387
 20
6.859394073486001
 30
0.0
 11
-12.0311126709
 21
7.099750518798998
 31
0.0
  0
LINE
  5
3285
330
3124
100
AcDbEntity
  8
AM_0
 48
0.5
100
AcDbLine
 10
-12.16184997559
 20
6.945858001708998
 30
0.0
 11
-12.17515563965
 21
7.180526733398998
 31
0.0
  0
LINE
  5
3286
330
3124
100
AcDbEntity
  8
AM_0
 48
0.5
100
AcDbLine
 10
-12.34436035157
 20
7.046016693114999
 30
0.0
 11
-12.30895996094
 21
7.249069213867002
 31
0.0
  0
LINE
  5
3287
330
3124
100
AcDbEntity
  8
AM_0
 48
0.5
100
AcDbLine
 10
-12.54531860352
 20
7.166603088378998
 30
0.0
 11
-12.45971679688
 21
7.331771850586001
 31
0.0
  0
LINE
  5
3288
330
3124
100
AcDbEntity
  8
AM_0
 48
0.5
100
AcDbLine
 10
-12.54521942139
 20
7.166618347168004
 30
0.0
 11
-12.51682281494
 21
7.149890899658004
 31
0.0
  0
LINE
  5
3289
330
3124
100
AcDbEntity
  8
AM_0
 48
0.5
100
AcDbLine
 10
-10.53202819823999
 20
16.411254882813
 30
0.0
 11
-10.04291534424
 21
16.71509552002
 31
0.0
  0
LINE
  5
328A
330
3124
100
AcDbEntity
  8
AM_0
 48
0.5
100
AcDbLine
 10
-12.93529510498
 20
13.45369720459
 30
0.0
 11
-13.08919525147
 21
13.90491867065399
 31
0.0
  0
LINE
  5
328B
330
3124
100
AcDbEntity
  8
AM_0
 48
0.5
100
AcDbLine
 10
-12.93535614014
 20
13.45371246337899
 30
0.0
 11
-12.67086791991999
 21
13.418071746826
 31
0.0
  0
LINE
  5
328C
330
3124
100
AcDbEntity
  8
AM_0
 48
0.5
100
AcDbLine
 10
9.695701599119999
 20
7.850563049317003
 30
0.0
 11
5.28491973877
 21
17.68231201171899
 31
0.0
  0
LINE
  5
328D
330
3124
100
AcDbEntity
  8
AM_0
 48
0.5
100
AcDbLine
 10
14.057685852044
 20
11.838523864746
 30
0.0
 11
14.94079589842999
 21
12.561431884766
 31
0.0
  0
LINE
  5
328E
330
3124
100
AcDbEntity
  8
AM_0
 48
0.5
100
AcDbLine
 10
11.85728454589099
 20
6.691562652588004
 30
0.0
 11
16.04418945311799
 21
9.120456695557003
 31
0.0
  0
LINE
  5
328F
330
3124
100
AcDbEntity
  8
AM_0
 48
0.5
100
AcDbLine
 10
12.57930755614499
 20
7.124496459961001
 30
0.0
 11
13.54220581053999
 21
7.689800262451001
 31
0.0
  0
LINE
  5
3290
330
3124
100
AcDbEntity
  8
AM_0
 48
0.5
100
AcDbLine
 10
13.44202423094999
 20
7.846481323242002
 30
0.0
 11
12.47912597655499
 21
7.281177520752002
 31
0.0
  0
LINE
  5
3291
330
3124
100
AcDbEntity
  8
AM_0
 48
0.5
100
AcDbLine
 10
11.50611114501199
 20
7.299747467041001
 30
0.0
 11
10.65530395508
 21
8.279983520508004
 31
0.0
  0
LINE
  5
3292
330
3124
100
AcDbEntity
  8
AM_0
 48
0.5
100
AcDbLine
 10
9.695678710929996
 20
7.850681304932003
 30
0.0
 11
10.65528869629
 21
8.279998779297002
 31
0.0
  0
LINE
  5
3293
330
3124
100
AcDbEntity
  8
AM_0
 48
0.5
100
AcDbLine
 10
10.32130432129
 20
8.673229217528998
 30
0.0
 11
11.889389038079
 21
6.87520980835
 31
0.0
  0
LINE
  5
3294
330
3124
100
AcDbEntity
  8
AM_0
 48
0.5
100
AcDbLine
 10
11.53363800048099
 20
7.283233642578004
 30
0.0
 11
11.50615692137999
 21
7.299705505371001
 31
0.0
  0
LINE
  5
3295
330
3124
100
AcDbEntity
  8
AM_0
 48
0.5
100
AcDbLine
 10
11.85733032225799
 20
6.691543579102003
 30
0.0
 11
11.50613403319599
 21
7.299694061278998
 31
0.0
  0
LINE
  5
3296
330
3124
100
AcDbEntity
  8
AM_0
 48
0.5
100
AcDbLine
 10
12.02839660643799
 20
6.790824890137002
 30
0.0
 11
11.893783569329
 21
6.871768951416001
 31
0.0
  0
LINE
  5
3297
330
3124
100
AcDbEntity
  8
AM_0
 48
0.5
100
AcDbLine
 10
11.89136505126199
 20
6.873397827148998
 30
0.0
 11
11.893653869622
 21
6.871822357178004
 31
0.0
  0
LINE
  5
3298
330
3124
100
AcDbEntity
  8
AM_0
 48
0.5
100
AcDbLine
 10
11.88942718505099
 20
6.875228881836001
 30
0.0
 11
11.891418457024
 21
6.873470306397003
 31
0.0
  0
LINE
  5
3299
330
3124
100
AcDbEntity
  8
AM_0
 48
0.5
100
AcDbLine
 10
11.93665313719999
 20
6.864585876465
 30
0.0
 11
11.893859863274
 21
6.871788024903004
 31
0.0
  0
LINE
  5
329A
330
3124
100
AcDbEntity
  8
AM_0
 48
0.5
100
AcDbLine
 10
11.89376831053999
 20
6.871894836426001
 30
0.0
 11
11.936668395989
 21
6.864566802978998
 31
0.0
  0
LINE
  5
329B
330
3124
100
AcDbEntity
  8
AM_0
 48
0.5
100
AcDbLine
 10
11.92238616942599
 20
6.931510925293004
 30
0.0
 11
12.16410064696499
 21
6.869495391846001
 31
0.0
  0
LINE
  5
329C
330
3124
100
AcDbEntity
  8
AM_0
 48
0.5
100
AcDbLine
 10
12.09619140624299
 20
7.059566497803004
 30
0.0
 11
12.30619049071499
 21
6.953788757323998
 31
0.0
  0
LINE
  5
329D
330
3124
100
AcDbEntity
  8
AM_0
 48
0.5
100
AcDbLine
 10
12.27421569823499
 20
7.167476654053004
 30
0.0
 11
12.432312011712
 21
7.035278320313004
 31
0.0
  0
LINE
  5
329E
330
3124
100
AcDbEntity
  8
AM_0
 48
0.5
100
AcDbLine
 10
12.47913360594999
 20
7.281223297118998
 30
0.0
 11
12.57933807372299
 21
7.124549865723004
 31
0.0
  0
LINE
  5
329F
330
3124
100
AcDbEntity
  8
AM_0
 48
0.5
100
AcDbLine
 10
12.47912597655499
 20
7.281185150147003
 30
0.0
 11
12.450424194329
 21
7.265014648438004
 31
0.0
  0
LINE
  5
32A0
330
3124
100
AcDbEntity
  8
AM_0
 48
0.5
100
AcDbLine
 10
10.66635131836
 20
8.277744293213004
 30
0.0
 11
10.65534210205
 21
8.279945373534999
 31
0.0
  0
ARC
  5
32A1
330
3124
100
AcDbEntity
  8
AM_0
 48
0.5
100
AcDbCircle
 10
0.0000228881799984
 20
0.0000190734860013
 30
0.0
 40
18.663457870483
100
AcDbArc
 50
13.87474553467155
 51
29.57353065323962
  0
ARC
  5
32A2
330
3124
100
AcDbEntity
  8
AM_0
 48
0.5
100
AcDbCircle
 10
0.0000228881799984
 20
0.0000190734860013
 30
0.0
 40
18.455215454101
100
AcDbArc
 50
13.35960669105652
 51
29.6162671468754
  0
LINE
  5
32A3
330
3124
100
AcDbEntity
  8
AM_0
 48
0.5
100
AcDbLine
 10
13.542213439934
 20
7.689811706543004
 30
0.0
 11
16.15071105956299
 21
9.19580078125
 31
0.0
  0
LINE
  5
32A4
330
3124
100
AcDbEntity
  8
AM_0
 48
0.5
100
AcDbLine
 10
16.04289245604699
 20
9.364501953125
 30
0.0
 11
13.558410644524
 21
7.930000305176001
 31
0.0
  0
LINE
  5
32A5
330
3124
100
AcDbEntity
  8
AM_0
 48
0.5
100
AcDbLine
 10
14.05773162841099
 20
11.838436126709
 30
0.0
 11
13.55844116210199
 21
7.929954528808998
 31
0.0
  0
LINE
  5
32A6
330
3124
100
AcDbEntity
  8
AM_0
 48
0.5
100
AcDbLine
 10
13.44205474852799
 20
7.846530914307003
 30
0.0
 11
13.542251586907
 21
7.689861297608004
 31
0.0
  0
LINE
  5
32A7
330
3124
100
AcDbEntity
  8
AM_0
 48
0.5
100
AcDbLine
 10
13.558326721184
 20
7.930126190186001
 30
0.0
 11
13.44192504882099
 21
7.846626281738004
 31
0.0
  0
LINE
  5
32A8
330
3124
100
AcDbEntity
  8
AM_0
 48
0.5
100
AcDbLine
 10
18.11892700194599
 20
4.475582122803004
 30
0.0
 11
18.586738586419
 21
4.383232116698998
 31
0.0
  0
LINE
  5
32A9
330
3124
100
AcDbEntity
  8
AM_0
 48
0.5
100
AcDbLine
 10
18.11883544921199
 20
4.475559234618998
 30
0.0
 11
17.95571899413299
 21
4.264297485352003
 31
0.0
  0
LINE
  5
32AA
330
3124
100
AcDbEntity
  8
AM_0
 48
0.5
100
AcDbLine
 10
16.23208618163299
 20
9.211223602295
 30
0.0
 11
16.04418945311799
 21
9.120468139648998
 31
0.0
  0
LINE
  5
32AB
330
3124
100
AcDbEntity
  8
AM_0
 48
0.5
100
AcDbLine
 10
16.29761505126199
 20
11.410915374756
 30
0.0
 11
16.300704956047
 21
11.406158447266
 31
0.0
  0
LINE
  5
32AC
330
3124
100
AcDbEntity
  8
AM_0
 48
0.5
100
AcDbLine
 10
17.02921295165299
 20
9.195224761963004
 30
0.0
 11
16.300712585442
 21
11.406047821045
 31
0.0
  0
LINE
  5
32AD
330
3124
100
AcDbEntity
  8
AM_0
 48
0.5
100
AcDbLine
 10
17.02920532225799
 20
9.195308685303004
 30
0.0
 11
17.02720642089099
 21
9.196712493897003
 31
0.0
  0
LINE
  5
32AE
330
3124
100
AcDbEntity
  8
AM_0
 48
0.5
100
AcDbLine
 10
17.025398254387
 20
9.197387695313004
 30
0.0
 11
17.02719879149699
 21
9.196716308593998
 31
0.0
  0
LINE
  5
32AF
330
3124
100
AcDbEntity
  8
AM_0
 48
0.5
100
AcDbLine
 10
16.93001556395799
 20
8.944728851318998
 30
0.0
 11
16.35183715819599
 21
9.292198181153004
 31
0.0
  0
LINE
  5
32B0
330
3124
100
AcDbEntity
  8
AM_0
 48
0.5
100
AcDbLine
 10
17.01006317137999
 20
9.156894683838004
 30
0.0
 11
17.02557373046199
 21
9.197326660156001
 31
0.0
  0
LINE
  5
32B1
330
3124
100
AcDbEntity
  8
AM_0
 48
0.5
100
AcDbLine
 10
17.02552032469999
 20
9.197364807128998
 30
0.0
 11
16.44704437255099
 21
9.544948577881001
 31
0.0
  0
LINE
  5
32B2
330
3124
100
AcDbEntity
  8
AM_0
 48
0.5
100
AcDbLine
 10
16.93002319335199
 20
8.944690704346001
 30
0.0
 11
16.93093109130099
 21
8.945182800293004
 31
0.0
  0
LINE
  5
32B3
330
3124
100
AcDbEntity
  8
AM_0
 48
0.5
100
AcDbLine
 10
16.92996978758999
 20
8.944667816162002
 30
0.0
 11
17.00997924803999
 21
9.156894683838004
 31
0.0
  0
LINE
  5
32B4
330
3124
100
AcDbEntity
  8
AM_0
 48
0.5
100
AcDbLine
 10
16.44281768798099
 20
9.549118041992002
 30
0.0
 11
16.44703674315699
 21
9.54496383667
 31
0.0
  0
LINE
  5
32B5
330
3124
100
AcDbEntity
  8
AM_0
 48
0.5
100
AcDbLine
 10
16.12983703612599
 20
9.422790527343998
 30
0.0
 11
16.073135375969
 21
9.383850097656001
 31
0.0
  0
LINE
  5
32B6
330
3124
100
AcDbEntity
  8
AM_0
 48
0.5
100
AcDbLine
 10
16.073066711419
 20
9.383869171143004
 30
0.0
 11
16.04285430907499
 21
9.364582061768004
 31
0.0
  0
ARC
  5
32B7
330
3124
100
AcDbEntity
  8
AM_0
 48
0.5
100
AcDbCircle
 10
0.0000228881799984
 20
0.0000190734860013
 30
0.0
 40
19.500022888183
100
AcDbArc
 50
62.69066590071974
 51
89.44054853975305
  0
ARC
  5
32B8
330
3124
100
AcDbEntity
  8
AM_0
 48
0.5
100
AcDbCircle
 10
0.0000228881799984
 20
0.0000190734860013
 30
0.0
 40
18.66346359252899
100
AcDbArc
 50
73.8749230816987
 51
89.57358013421902
  0
ARC
  5
32B9
330
3124
100
AcDbEntity
  8
AM_0
 48
0.5
100
AcDbCircle
 10
0.0000228881799984
 20
0.0000190734860013
 30
0.0
 40
18.455282211303
100
AcDbArc
 50
73.35969459184688
 51
89.61626881652581
  0
LINE
  5
32BA
330
3124
100
AcDbEntity
  8
AM_0
 48
0.5
100
AcDbLine
 10
0.1336975097599975
 20
13.61452484130899
 30
0.0
 11
0.1236877441399997
 21
18.454788208008
 31
0.0
  0
LINE
  5
32BB
330
3124
100
AcDbEntity
  8
AM_0
 48
0.5
100
AcDbLine
 10
0.111534118649999
 20
15.572807312012
 30
0.0
 11
0.111534118649999
 21
18.584770202637
 31
0.0
  0
LINE
  5
32BC
330
3124
100
AcDbEntity
  8
AM_0
 48
0.5
100
AcDbLine
 10
-0.0883560180700016
 20
18.575798034668
 30
0.0
 11
-0.0883560180700016
 21
15.706901550293
 31
0.0
  0
LINE
  5
32BD
330
3124
100
AcDbEntity
  8
AM_0
 48
0.5
100
AcDbLine
 10
-3.223556518560002
 20
18.093505859375
 30
0.0
 11
-0.0883560180700016
 21
15.706912994385
 31
0.0
  0
LINE
  5
32BE
330
3124
100
AcDbEntity
  8
AM_0
 48
0.5
100
AcDbLine
 10
-0.5685806274399994
 20
13.614582061768
 30
0.0
 11
-1.84287261963
 21
13.36775970459
 31
0.0
  0
LINE
  5
32BF
330
3124
100
AcDbEntity
  8
AM_0
 48
0.5
100
AcDbLine
 10
-2.3505859375
 20
13.275016784668
 30
0.0
 11
-0.0093765258800005
 21
13.734001159668
 31
0.0
  0
LINE
  5
32C0
330
3124
100
AcDbEntity
  8
AM_0
 48
0.5
100
AcDbLine
 10
-1.835525512700002
 20
13.376064300537
 30
0.0
 11
-1.842811584480003
 21
13.367645263672
 31
0.0
  0
LINE
  5
32C1
330
3124
100
AcDbEntity
  8
AM_0
 48
0.5
100
AcDbLine
 10
-1.950942993170002
 20
12.322116851807
 30
0.0
 11
-1.842826843259999
 21
13.367748260498
 31
0.0
  0
LINE
  5
32C2
330
3124
100
AcDbEntity
  8
AM_0
 48
0.5
100
AcDbLine
 10
-0.540634155280003
 20
13.630119323731
 30
0.0
 11
-0.5686416626000011
 21
13.614612579346
 31
0.0
  0
LINE
  5
32C3
330
3124
100
AcDbEntity
  8
AM_0
 48
0.5
100
AcDbLine
 10
0.1336288452099978
 20
13.614494323731
 30
0.0
 11
-0.5685806274399994
 21
13.614494323731
 31
0.0
  0
LINE
  5
32C4
330
3124
100
AcDbEntity
  8
AM_0
 48
0.5
100
AcDbLine
 10
0.1331939697199971
 20
13.81236267089899
 30
0.0
 11
-0.004188537600001
 21
13.736255645752
 31
0.0
  0
LINE
  5
32C5
330
3124
100
AcDbEntity
  8
AM_0
 48
0.5
100
AcDbLine
 10
-0.0093765258800005
 20
13.734107971192
 30
0.0
 11
-0.0067901611400032
 21
13.735023498535
 31
0.0
  0
LINE
  5
32C6
330
3124
100
AcDbEntity
  8
AM_0
 48
0.5
100
AcDbLine
 10
-0.0067825317400008
 20
13.73494720459
 30
0.0
 11
-0.0042724609400011
 21
13.736171722412
 31
0.0
  0
LINE
  5
32C7
330
3124
100
AcDbEntity
  8
AM_0
 48
0.5
100
AcDbLine
 10
0.0234985351499972
 20
13.769599914551
 30
0.0
 11
-0.004188537600001
 21
13.736221313477
 31
0.0
  0
LINE
  5
32C8
330
3124
100
AcDbEntity
  8
AM_0
 48
0.5
100
AcDbLine
 10
-0.0042877197300015
 20
13.73624420166
 30
0.0
 11
0.0235214233400001
 21
13.769641876221
 31
0.0
  0
LINE
  5
32C9
330
3124
100
AcDbEntity
  8
AM_0
 48
0.5
100
AcDbLine
 10
-0.0415878295900001
 20
13.79079437255899
 30
0.0
 11
0.1328964233400001
 21
13.969188690186
 31
0.0
  0
LINE
  5
32CA
330
3124
100
AcDbEntity
  8
AM_0
 48
0.5
100
AcDbLine
 10
-0.0656967163100006
 20
14.005439758301
 30
0.0
 11
0.1308975219699988
 21
14.13433456420899
 31
0.0
  0
LINE
  5
32CB
330
3124
100
AcDbEntity
  8
AM_0
 48
0.5
100
AcDbLine
 10
-0.0700454711899994
 20
14.213443756104
 30
0.0
 11
0.1234512329099999
 21
14.284366607666
 31
0.0
  0
LINE
  5
32CC
330
3124
100
AcDbEntity
  8
AM_0
 48
0.5
100
AcDbLine
 10
0.1196670532199988
 20
14.456287384033
 30
0.0
 11
0.1114578246999969
 21
15.572772979736
 31
0.0
  0
LINE
  5
32CD
330
3124
100
AcDbEntity
  8
AM_0
 48
0.5
100
AcDbLine
 10
-0.0661621093800022
 20
14.447811126709
 30
0.0
 11
0.1197128295900001
 21
14.456233978272
 31
0.0
  0
LINE
  5
32CE
330
3124
100
AcDbEntity
  8
AM_0
 48
0.5
100
AcDbLine
 10
-0.0742645263700013
 20
15.564445495606
 30
0.0
 11
0.1115188598599985
 21
15.572868347168
 31
0.0
  0
LINE
  5
32CF
330
3124
100
AcDbEntity
  8
AM_0
 48
0.5
100
AcDbLine
 10
-0.0882797241199995
 20
15.706943511963
 30
0.0
 11
-0.0741729736400032
 21
15.56439208984399
 31
0.0
  0
LINE
  5
32D0
330
3124
100
AcDbEntity
  8
AM_0
 48
0.5
100
AcDbLine
 10
-0.066108703620003
 20
14.447875976563
 30
0.0
 11
-0.0664138794000024
 21
14.414798736572
 31
0.0
  0
LINE
  5
32D1
330
3124
100
AcDbEntity
  8
AM_0
 48
0.5
100
AcDbLine
 10
-0.0742416381900029
 20
15.56436920165999
 30
0.0
 11
-0.0661392211899994
 21
14.447883605957
 31
0.0
  0
LINE
  5
32D2
330
3124
100
AcDbEntity
  8
AM_0
 48
0.5
100
AcDbLine
 10
0.5512237548799988
 20
19.345245361328
 30
0.0
 11
-1.72756958008
 21
19.819854736328
 31
0.0
  0
LINE
  5
32D3
330
3124
100
AcDbEntity
  8
AM_0
 48
0.5
100
AcDbLine
 10
-1.733291625980001
 20
19.81965637206999
 30
0.0
 11
-1.727577209480003
 21
19.819961547852
 31
0.0
  0
LINE
  5
32D4
330
3124
100
AcDbEntity
  8
AM_0
 48
0.5
100
AcDbLine
 10
-3.44313812256
 20
19.598190307617
 30
0.0
 11
-3.431137084959999
 21
19.63449478149399
 31
0.0
  0
LINE
  5
32D5
330
3124
100
AcDbEntity
  8
AM_0
 48
0.5
100
AcDbLine
 10
-3.2236328125
 20
18.093547821045
 30
0.0
 11
-3.408126831060002
 21
19.219833374024
 31
0.0
  0
LINE
  5
32D6
330
3124
100
AcDbEntity
  8
AM_0
 48
0.5
100
AcDbLine
 10
0.1388854980399969
 20
18.66300201416
 30
0.0
 11
0.1235809326099968
 21
18.454761505127
 31
0.0
  0
LINE
  5
32D7
330
3124
100
AcDbEntity
  8
AM_0
 48
0.5
100
AcDbLine
 10
0.5512084960899984
 20
19.345302581787
 30
0.0
 11
0.5490188598599986
 21
19.3444480896
 31
0.0
  0
LINE
  5
32D8
330
3124
100
AcDbEntity
  8
AM_0
 48
0.5
100
AcDbLine
 10
0.5474395751899977
 20
19.34315872192399
 30
0.0
 11
0.5489425659200009
 21
19.344501495361
 31
0.0
  0
LINE
  5
32D9
330
3124
100
AcDbEntity
  8
AM_0
 48
0.5
100
AcDbLine
 10
0.7187347412099996
 20
19.13421630859399
 30
0.0
 11
0.1286392211899994
 21
18.80719375610399
 31
0.0
  0
LINE
  5
32DA
330
3124
100
AcDbEntity
  8
AM_0
 48
0.5
100
AcDbLine
 10
0.5747528076099968
 20
19.30950164794899
 30
0.0
 11
0.5475921630799974
 21
19.343032836914
 31
0.0
  0
LINE
  5
32DB
330
3124
100
AcDbEntity
  8
AM_0
 48
0.5
100
AcDbLine
 10
0.5476074218699978
 20
19.34316635131899
 30
0.0
 11
-0.0426101684600013
 21
19.016078948975
 31
0.0
  0
LINE
  5
32DC
330
3124
100
AcDbEntity
  8
AM_0
 48
0.5
100
AcDbLine
 10
0.7186813354500004
 20
19.134281158447
 30
0.0
 11
0.5748062133800005
 21
19.309535980225
 31
0.0
  0
LINE
  5
32DD
330
3124
100
AcDbEntity
  8
AM_0
 48
0.5
100
AcDbLine
 10
-0.0483551025400004
 20
19.014430999756
 30
0.0
 11
-0.0425567627000021
 21
19.015895843506
 31
0.0
  0
LINE
  5
32DE
330
3124
100
AcDbEntity
  8
AM_0
 48
0.5
100
AcDbLine
 10
-0.0953750610400022
 20
18.680160522461
 30
0.0
 11
-0.0899734497100013
 21
18.61164855956999
 31
0.0
  0
LINE
  5
32DF
330
3124
100
AcDbEntity
  8
AM_0
 48
0.5
100
AcDbLine
 10
-0.0900650024399994
 20
18.611572265625
 30
0.0
 11
-0.0884704589900025
 21
18.575839996338
 31
0.0
  0
LINE
  5
32E0
330
3124
100
AcDbEntity
  8
AM_0
 48
0.5
100
AcDbLine
 10
5.183494567869999
 20
17.929225921631
 30
0.0
 11
5.497283935539996
 21
18.288105010986
 31
0.0
  0
LINE
  5
32E1
330
3124
100
AcDbEntity
  8
AM_0
 48
0.5
100
AcDbLine
 10
5.183532714839998
 20
17.929149627686
 30
0.0
 11
5.284927368159998
 21
17.682319641113
 31
0.0
  0
ARC
  5
32E2
330
3124
100
AcDbEntity
  8
AM_0
 48
0.5
100
AcDbCircle
 10
0.0000228881799984
 20
0.0000190734860013
 30
0.0
 40
19.49999618530199
100
AcDbArc
 50
40.20145185084404
 51
60.99867777914629
  0
LINE
  5
32E3
330
3124
100
AcDbEntity
  8
AM_0
 48
0.5
100
AcDbLine
 10
8.94654083252
 20
17.32659149169899
 30
0.0
 11
9.454231262199996
 21
17.05486297607399
 31
0.0
  0
LINE
  5
32E4
330
3124
100
AcDbEntity
  8
AM_0
 48
0.5
100
AcDbLine
 10
15.25093841551999
 20
12.781024932861
 30
0.0
 11
15.28843688964099
 21
12.78883361816399
 31
0.0
  0
LINE
  5
32E5
330
3124
100
AcDbEntity
  8
AM_0
 48
0.5
100
AcDbLine
 10
19.47853851317599
 20
0.9153747558600002
 30
0.0
 11
19.49703216551999
 21
0.3399276733400001
 31
0.0
  0
ENDBLK
  5
32E7
330
3124
100
AcDbEntity
  8
0
100
AcDbBlockEnd
  0
ENDSEC
  0
SECTION
  2
ENTITIES
  0
TEXT
  5
1142
330
1F
100
AcDbEntity
  8
AM_6
100
AcDbText
 10
-81.54761904761853
 20
-66.50000481469792
 30
0.0
 40
5.0
  1
WEM2040E
 72
     4
 11
-62.4999999999995
 21
-64.00000481469792
 31
0.0
100
AcDbText
  0
DIMENSION
  5
155D
330
1F
100
AcDbEntity
  8
AM_5
100
AcDbDimension
  2
*D5
 10
-40.0
 20
-34.00000481469801
 30
0.0
 11
-20.0
 21
-30.60000481469801
 31
0.0
 70
    32
  1
<>
  3
AM_JIS$0
100
AcDbAlignedDimension
 13
-0.0000000000000008
 23
-6.0
 33
0.0
 14
-40.0
 24
-19.00000381469792
 34
0.0
 50
0.0000000000001132
100
AcDbRotatedDimension
1001
ACAD
1000
DSTYLE
1002
{
1070
   171
1070
     0
1070
   271
1070
     0
1002
}
1001
GENIUS_GENDTOL_13
1000

1000
h7
1000

1040
0.0
  0
DIMENSION
  5
15E8
330
1F
100
AcDbEntity
  8
AM_5
100
AcDbDimension
  2
*D6
 10
-124.999999999999
 20
-34.00000481469818
 30
0.0
 11
-82.4999999999995
 21
-30.60000481469818
 31
0.0
 70
    32
  1
<>
  3
AM_JIS$0
100
AcDbAlignedDimension
 13
-40.0
 23
-19.00000381469792
 33
0.0
 14
-124.999999999999
 24
-13.66150283813491
 34
0.0
 50
0.0000000000001132
100
AcDbRotatedDimension
1001
ACAD
1000
DSTYLE
1002
{
1070
   171
1070
     0
1070
   271
1070
     0
1002
}
1001
GENIUS_GENDTOL_13
1000

1000
h7
1000

1040
0.0
  0
DIMENSION
  5
1673
330
1F
100
AcDbEntity
  8
AM_5
100
AcDbDimension
  2
*D7
 10
0.0000000000000179
 20
-44.00000481469793
 30
0.0
 11
-62.4999999999995
 21
-40.60000481469793
 31
0.0
 70
    32
  1
<>
  3
AM_JIS$0
100
AcDbAlignedDimension
 13
-124.999999999999
 23
-13.66150283813491
 33
0.0
 14
0.0000000000000196
 24
-15.99999999999991
 34
0.0
 50
0.0000000000001132
100
AcDbRotatedDimension
1001
ACAD
1000
DSTYLE
1002
{
1070
   171
1070
     0
1070
   271
1070
     0
1002
}
1001
GENIUS_GENDTOL_13
1000

1000
h7
1000

1040
0.0
  0
DIMENSION
  5
1895
330
1F
100
AcDbEntity
  8
AM_5
100
AcDbDimension
  2
*D8
 10
14.82220558984295
 20
20.00000000000006
 30
0.0
 11
11.42220558984295
 21
-0.0000019073489317
 31
0.0
 70
    32
  1
%%c<>
  3
AM_JIS$0
100
AcDbAlignedDimension
 13
0.0000000000000186
 23
-20.00000381469793
 33
0.0
 14
0.0000000000000249
 24
20.00000000000007
 34
0.0
 50
90.00000000000003
100
AcDbRotatedDimension
1001
ACAD
1000
DSTYLE
1002
{
1070
   171
1070
     0
1070
   271
1070
     0
1002
}
1001
GENIUS_GENDTOL_13
1000

1000
h7
1000

1040
0.0
  0
DIMENSION
  5
1E16
330
1F
100
AcDbEntity
  8
AM_5
100
AcDbDimension
  2
*D9
 10
-142.8687457493613
 20
-15.99999999999991
 30
0.0
 11
-146.2687457493613
 21
0.000000000000066
 31
0.0
 70
    32
  1
%%c<>
  3
AM_JIS$0
100
AcDbAlignedDimension
 13
-117.0069867683911
 23
16.00000000000008
 33
0.0
 14
-117.0069943977861
 24
-15.99999999999991
 34
0.0
 50
270.0
100
AcDbRotatedDimension
1001
ACAD
1000
DSTYLE
1002
{
1070
   171
1070
     0
1070
   271
1070
     0
1002
}
1001
GENIUS_GENDTOL_13
1000

1000
h7
1000

1040
0.0
  0
INSERT
  5
2938
330
1F
100
AcDbEntity
  8
AM_11
100
AcDbBlockReference
  2
A$C64E1636B
 10
-0.0000000000000028
 20
0.0000000000000716
 30
0.0
 50
180.0
  0
DIMENSION
  5
2A01
330
1F
100
AcDbEntity
  8
AM_5
100
AcDbDimension
  2
*D11
 10
0.0000000000000009
 20
34.00000100000006
 30
0.0
 11
-4.5
 21
37.40000100000006
 31
0.0
 70
    32
  1
<>
  3
AM_JIS$0
100
AcDbAlignedDimension
 13
-9.000000000000001
 23
20.00000000000007
 33
0.0
 14
0.0
 24
20.00000000000007
 34
0.0
 50
180.0
100
AcDbRotatedDimension
1001
ACAD
1000
DSTYLE
1002
{
1070
   271
1070
     0
1002
}
1001
GENIUS_GENDTOL_13
1000

1000
h7
1000

1040
0.0
  0
VIEWPORT
  5
110
330
101
100
AcDbEntity
 67
     1
  8
0
100
AcDbViewport
 10
420.5
 20
297.0
 30
0.0
 40
948.9782706766916
 41
628.452
 68
     1
 69
     1
1001
ACAD
1000
MVIEW
1002
{
1070
    16
1010
0.0
1020
0.0
1030
0.0
1010
0.0
1020
0.0
1030
1.0
1040
0.0
1040
628.452
1040
420.5
1040
297.0
1040
50.0
1040
0.0
1040
0.0
1070
     0
1070
   100
1070
     1
1070
     1
1070
     0
1070
     0
1070
     0
1070
     0
1040
0.0
1040
0.0
1040
0.0
1040
10.0
1040
10.0
1040
10.0
1040
10.0
1070
     0
1002
{
1002
}
1002
}
  0
ENDSEC
  0
SECTION
  2
OBJECTS
  0
DICTIONARY
  5
C
330
0
100
AcDbDictionary
  3
ACAD_GROUP
350
D
  3
ACAD_LAYOUT
350
1A
  3
ACAD_MLINESTYLE
350
17
  3
ACAD_PLOTSETTINGS
350
19
  3
ACAD_PLOTSTYLENAME
350
E
  3
ACDBVARIABLEDICTIONARY
350
34
  3
ACMDICTIONARY
350
43
  3
AMG
350
2B
  3
AMGSNAPSETTINGS
350
6E
  3
DWGPROPS
350
34EE
  3
ACDBHEADERROUNDTRIPXREC
350
34FA
  0
DICTIONARY
  5
74
330
1F
100
AcDbDictionary
280
     1
  3
ACAD_INDEX
360
34F0
  3
ACAD_LAYOUTSELFREF
360
351D
  0
DICTIONARY
  5
3522
330
101
100
AcDbDictionary
280
     1
  3
ACAD_LAYOUTSELFREF
360
3523
  0
DICTIONARY
  5
D
102
{ACAD_REACTORS
330
C
102
}
330
C
100
AcDbDictionary
  0
DICTIONARY
  5
1A
102
{ACAD_REACTORS
330
C
102
}
330
C
100
AcDbDictionary
  0
DICTIONARY
  5
17
102
{ACAD_REACTORS
330
C
102
}
330
C
100
AcDbDictionary
  3
STANDARD
350
18
  0
DICTIONARY
  5
19
102
{ACAD_REACTORS
330
C
102
}
330
C
100
AcDbDictionary
  0
ACDBDICTIONARYWDFLT
  5
E
102
{ACAD_REACTORS
330
C
102
}
330
C
100
AcDbDictionary
281
     1
  3
Normal
350
F
100
AcDbDictionaryWithDefault
340
F
  0
DICTIONARY
  5
34
102
{ACAD_REACTORS
330
C
102
}
330
C
100
AcDbDictionary
  3
INDEXCTL
350
35
  3
SORTENTS
350
B5E
  0
DICTIONARY
  5
43
102
{ACAD_REACTORS
330
C
102
}
330
C
100
AcDbDictionary
  3
ACMSTDDICTIONARY
350
260
  0
DICTIONARY
  5
2B
102
{ACAD_REACTORS
330
C
102
}
330
C
100
AcDbDictionary
  3
ACMGSETTINGS
350
2C
  0
DICTIONARY
  5
6E
102
{ACAD_REACTORS
330
C
102
}
330
C
100
AcDbDictionary
  0
XRECORD
  5
34EE
102
{ACAD_REACTORS
330
C
102
}
330
C
100
AcDbXrecord
  1
DWGPROPS COOKIE
  2

  3

  4

  6

  7

  8

  9

300
AmdtFileType=82
301
=
302
=
303
=
304
=
305
=
306
=
307
=
308
=
309
=
 40
0.0696581944444445
 41
2452839.420061482
 42
2453075.596395208
  1

 90
        1
  0
DICTIONARY
  5
34FA
102
{ACAD_REACTORS
330
C
102
}
330
C
100
AcDbDictionary
  3
TSTACKALIGN
350
34FB
  3
TSTACKSIZE
350
34FC
  3
HYPERLINKBASE
350
34FD
  3
STYLESHEET
350
34FE
  3
LAYOUTDICT
350
34FF
  3
PLOTSETDICT
350
3500
  3
PLOTSTYLNAMDICT
350
3501
  3
LWETCUNION
350
3502
  3
INSUNITS
350
3503
  3
CEPSNTYPE
350
3504
  3
FINGERPRINTGUID
350
3505
  3
VERSIONGUID
350
3506
  3
PSVPSCALE
350
3507
  3
DIMSTYLEDATA
350
3508
  3
PUCSORTHOREF
350
3509
  3
PUCSORTHOVIEW
350
350A
  3
PUCSBASE
350
350B
  3
PUCSORGTOP
350
350C
  3
PUCSORGBOTTOM
350
350D
  3
PUCSORGLEFT
350
350E
  3
PUCSORGRIGHT
350
350F
  3
PUCSORGFRONT
350
3510
  3
PUCSORGBACK
350
3511
  3
UCSORTHOREF
350
3512
  3
UCSORTHOVIEW
350
3513
  3
UCSBASE
350
3514
  3
UCSORGTOP
350
3515
  3
UCSORGBOTTOM
350
3516
  3
UCSORGLEFT
350
3517
  3
UCSORGRIGHT
350
3518
  3
UCSORGFRONT
350
3519
  3
UCSORGBACK
350
351A
  0
DICTIONARY
  5
34F0
102
{ACAD_REACTORS
330
74
102
}
330
74
100
AcDbDictionary
  3
*A1
350
34F1
  0
XRECORD
  5
351D
102
{ACAD_REACTORS
330
74
102
}
330
74
100
AcDbXrecord
340
1F
  0
XRECORD
  5
3523
102
{ACAD_REACTORS
330
3522
102
}
330
3522
100
AcDbXrecord
340
101
  0
MLINESTYLE
  5
18
102
{ACAD_REACTORS
330
17
102
}
330
17
100
AcDbMlineStyle
  2
STANDARD
 70
     0
  3

 62
   256
 51
90.0
 52
90.0
 71
     2
 49
0.5
 62
   256
  6
BYLAYER
 49
-0.5
 62
   256
  6
BYLAYER
  0
ACDBPLACEHOLDER
  5
F
102
{ACAD_REACTORS
330
E
102
}
330
E
100
AcDbPlaceHolder
280
     0
  0
DICTIONARYVAR
  5
35
102
{ACAD_REACTORS
330
34
102
}
330
34
100
DictionaryVariables
280
     0
  1
1
  0
DICTIONARYVAR
  5
B5E
102
{ACAD_REACTORS
330
34
102
}
330
34
100
DictionaryVariables
280
     0
  1
96
  0
DICTIONARY
  5
260
102
{ACAD_REACTORS
330
43
102
}
330
43
100
AcDbDictionary
  0
DICTIONARY
  5
2C
102
{ACAD_REACTORS
330
2B
102
}
330
2B
100
AcDbDictionary
  3
DWGSETTINGS
350
2D
  0
XRECORD
  5
34FB
102
{ACAD_REACTORS
330
34FA
102
}
330
34FA
100
AcDbXrecord
 90
        1
  0
XRECORD
  5
34FC
102
{ACAD_REACTORS
330
34FA
102
}
330
34FA
100
AcDbXrecord
 90
       70
  0
XRECORD
  5
34FD
102
{ACAD_REACTORS
330
34FA
102
}
330
34FA
100
AcDbXrecord
  1

  0
XRECORD
  5
34FE
102
{ACAD_REACTORS
330
34FA
102
}
330
34FA
100
AcDbXrecord
  1
ASAMI.ctb
  0
XRECORD
  5
34FF
102
{ACAD_REACTORS
330
34FA
102
}
330
34FA
100
AcDbXrecord
340
1A
  0
XRECORD
  5
3500
102
{ACAD_REACTORS
330
34FA
102
}
330
34FA
100
AcDbXrecord
340
19
  0
XRECORD
  5
3501
102
{ACAD_REACTORS
330
34FA
102
}
330
34FA
100
AcDbXrecord
340
E
  0
XRECORD
  5
3502
102
{ACAD_REACTORS
330
34FA
102
}
330
34FA
100
AcDbXrecord
 90
    10781
  0
XRECORD
  5
3503
102
{ACAD_REACTORS
330
34FA
102
}
330
34FA
100
AcDbXrecord
 90
        4
  0
XRECORD
  5
3504
102
{ACAD_REACTORS
330
34FA
102
}
330
34FA
100
AcDbXrecord
 90
        0
  0
XRECORD
  5
3505
102
{ACAD_REACTORS
330
34FA
102
}
330
34FA
100
AcDbXrecord
  1
{AFB28963-8C59-40AE-9337-C84526B81ACE}
  0
XRECORD
  5
3506
102
{ACAD_REACTORS
330
34FA
102
}
330
34FA
100
AcDbXrecord
  1
{41F0EEE0-C7DE-4442-AF26-9C9BA7154250}
  0
XRECORD
  5
3507
102
{ACAD_REACTORS
330
34FA
102
}
330
34FA
100
AcDbXrecord
 40
0.0
  0
XRECORD
  5
3508
102
{ACAD_REACTORS
330
34FA
102
}
330
34FA
100
AcDbXrecord
1000
DSTYLE
1002
{
1070
    79
 70
     2
1070
   341
340
59
1070
   342
340
59
1070
   371
 70
    -1
1070
   372
 70
    -1
1002
}
  0
XRECORD
  5
3509
102
{ACAD_REACTORS
330
34FA
102
}
330
34FA
100
AcDbXrecord
340
0
  0
XRECORD
  5
350A
102
{ACAD_REACTORS
330
34FA
102
}
330
34FA
100
AcDbXrecord
 70
     0
  0
XRECORD
  5
350B
102
{ACAD_REACTORS
330
34FA
102
}
330
34FA
100
AcDbXrecord
340
0
  0
XRECORD
  5
350C
102
{ACAD_REACTORS
330
34FA
102
}
330
34FA
100
AcDbXrecord
 10
0.0
 20
0.0
 30
0.0
  0
XRECORD
  5
350D
102
{ACAD_REACTORS
330
34FA
102
}
330
34FA
100
AcDbXrecord
 10
0.0
 20
0.0
 30
0.0
  0
XRECORD
  5
350E
102
{ACAD_REACTORS
330
34FA
102
}
330
34FA
100
AcDbXrecord
 10
0.0
 20
0.0
 30
0.0
  0
XRECORD
  5
350F
102
{ACAD_REACTORS
330
34FA
102
}
330
34FA
100
AcDbXrecord
 10
0.0
 20
0.0
 30
0.0
  0
XRECORD
  5
3510
102
{ACAD_REACTORS
330
34FA
102
}
330
34FA
100
AcDbXrecord
 10
0.0
 20
0.0
 30
0.0
  0
XRECORD
  5
3511
102
{ACAD_REACTORS
330
34FA
102
}
330
34FA
100
AcDbXrecord
 10
0.0
 20
0.0
 30
0.0
  0
XRECORD
  5
3512
102
{ACAD_REACTORS
330
34FA
102
}
330
34FA
100
AcDbXrecord
340
0
  0
XRECORD
  5
3513
102
{ACAD_REACTORS
330
34FA
102
}
330
34FA
100
AcDbXrecord
 70
     0
  0
XRECORD
  5
3514
102
{ACAD_REACTORS
330
34FA
102
}
330
34FA
100
AcDbXrecord
340
0
  0
XRECORD
  5
3515
102
{ACAD_REACTORS
330
34FA
102
}
330
34FA
100
AcDbXrecord
 10
0.0
 20
0.0
 30
0.0
  0
XRECORD
  5
3516
102
{ACAD_REACTORS
330
34FA
102
}
330
34FA
100
AcDbXrecord
 10
0.0
 20
0.0
 30
0.0
  0
XRECORD
  5
3517
102
{ACAD_REACTORS
330
34FA
102
}
330
34FA
100
AcDbXrecord
 10
0.0
 20
0.0
 30
0.0
  0
XRECORD
  5
3518
102
{ACAD_REACTORS
330
34FA
102
}
330
34FA
100
AcDbXrecord
 10
0.0
 20
0.0
 30
0.0
  0
XRECORD
  5
3519
102
{ACAD_REACTORS
330
34FA
102
}
330
34FA
100
AcDbXrecord
 10
0.0
 20
0.0
 30
0.0
  0
XRECORD
  5
351A
102
{ACAD_REACTORS
330
34FA
102
}
330
34FA
100
AcDbXrecord
 10
0.0
 20
0.0
 30
0.0
  0
LAYER_INDEX
  5
34F1
102
{ACAD_REACTORS
330
34F0
102
}
330
34F0
100
AcDbIndex
 40
2453152.407168402
100
AcDbLayerIndex
  8
0
360
34F2
 90
        0
  8
AM_0
360
34F3
 90
        0
  8
AM_7
360
34F4
 90
        0
  8
AM_11
360
34F5
 90
        1
  8
AM_5
360
34F6
 90
        6
  8
Defpoints
360
34F7
 90
        0
  8
AM_6
360
34F8
 90
        1
  0
XRECORD
  5
2D
102
{ACAD_REACTORS
330
2C
102
}
330
2C
100
AcDbXrecord
  1
VERSION
140
15.0
  1
PRODUCT
  2
AutoCAD Mechanical 2000
  0
IDBUFFER
  5
34F2
330
0
100
AcDbIdBuffer
  0
IDBUFFER
  5
34F3
330
0
100
AcDbIdBuffer
  0
IDBUFFER
  5
34F4
330
0
100
AcDbIdBuffer
  0
IDBUFFER
  5
34F5
330
0
100
AcDbIdBuffer
330
2938
  0
IDBUFFER
  5
34F6
330
0
100
AcDbIdBuffer
330
155D
330
15E8
330
1673
330
1895
330
1E16
330
2A01
  0
IDBUFFER
  5
34F7
330
0
100
AcDbIdBuffer
  0
IDBUFFER
  5
34F8
330
0
100
AcDbIdBuffer
330
1142
  0
ENDSEC
  0
EOF
