  0
SECTION
  2
HEADER
  9
$ACADVER
  1
AC1014
  9
$ACADMAINTVER
 70
     9
  9
$DWGCODEPAGE
  3
ANSI_932
  9
$INSBASE
 10
0.0
 20
0.0
 30
0.0
  9
$EXTMIN
 10
-69.30000762939399
 20
-91.49999909265089
 30
-0.00000001
  9
$EXTMAX
 10
26.431510017944
 20
44.30000290734911
 30
0.00000001
  9
$LIMMIN
 10
-120.2341207540623
 20
-104.8791552687662
  9
$LIMMAX
 10
73.94791947024805
 20
51.38674655599743
  9
$ORTHOMODE
 70
     0
  9
$REGENMODE
 70
     1
  9
$FILLMODE
 70
     1
  9
$QTEXTMODE
 70
     0
  9
$MIRRTEXT
 70
     0
  9
$DRAGMODE
 70
     2
  9
$LTSCALE
 40
1.0
  9
$OSMODE
 70
    55
  9
$ATTMODE
 70
     1
  9
$TEXTSIZE
 40
2.5
  9
$TRACEWID
 40
1.0
  9
$TEXTSTYLE
  7
STANDARD
  9
$CLAYER
  8
AM_11
  9
$CELTYPE
  6
BYLAYER
  9
$CECOLOR
 62
   256
  9
$CELTSCALE
 40
1.0
  9
$DELOBJ
 70
     1
  9
$DISPSILH
 70
     0
  9
$DIMSCALE
 40
1.0
  9
$DIMASZ
 40
2.5
  9
$DIMEXO
 40
1.0
  9
$DIMDLI
 40
12.0
  9
$DIMRND
 40
0.0
  9
$DIMDLE
 40
0.0
  9
$DIMEXE
 40
1.0
  9
$DIMTP
 40
0.1
  9
$DIMTM
 40
0.1
  9
$DIMTXT
 40
3.2
  9
$DIMCEN
 40
0.0
  9
$DIMTSZ
 40
0.0
  9
$DIMTOL
 70
     0
  9
$DIMLIM
 70
     0
  9
$DIMTIH
 70
     0
  9
$DIMTOH
 70
     0
  9
$DIMSE1
 70
     0
  9
$DIMSE2
 70
     0
  9
$DIMTAD
 70
     3
  9
$DIMZIN
 70
     8
  9
$DIMBLK
  1
OPEN30
  9
$DIMASO
 70
     1
  9
$DIMSHO
 70
     1
  9
$DIMPOST
  1

  9
$DIMAPOST
  1
"
  9
$DIMALT
 70
     0
  9
$DIMALTD
 70
     2
  9
$DIMALTF
 40
0.0393701
  9
$DIMLFAC
 40
1.0
  9
$DIMTOFL
 70
     1
  9
$DIMTVP
 40
0.0
  9
$DIMTIX
 70
     0
  9
$DIMSOXD
 70
     0
  9
$DIMSAH
 70
     0
  9
$DIMBLK1
  1

  9
$DIMBLK2
  1

  9
$DIMSTYLE
  2
AM_JIS
  9
$DIMCLRD
 70
   256
  9
$DIMCLRE
 70
   256
  9
$DIMCLRT
 70
     2
  9
$DIMTFAC
 40
0.71
  9
$DIMGAP
 40
1.5
  9
$DIMJUST
 70
     0
  9
$DIMSD1
 70
     0
  9
$DIMSD2
 70
     0
  9
$DIMTOLJ
 70
     0
  9
$DIMTZIN
 70
     0
  9
$DIMALTZ
 70
     0
  9
$DIMALTTZ
 70
     0
  9
$DIMFIT
 70
     3
  9
$DIMUPT
 70
     0
  9
$DIMUNIT
 70
     2
  9
$DIMDEC
 70
     3
  9
$DIMTDEC
 70
     3
  9
$DIMALTU
 70
     2
  9
$DIMALTTD
 70
     2
  9
$DIMTXSTY
  7
ASAMI
  9
$DIMAUNIT
 70
     0
  9
$LUNITS
 70
     2
  9
$LUPREC
 70
     0
  9
$SKETCHINC
 40
1.0
  9
$FILLETRAD
 40
2.5
  9
$AUNITS
 70
     0
  9
$AUPREC
 70
     0
  9
$MENU
  1
.
  9
$ELEVATION
 40
0.0
  9
$PELEVATION
 40
0.0
  9
$THICKNESS
 40
0.0
  9
$LIMCHECK
 70
     0
  9
$BLIPMODE
 70
     0
  9
$CHAMFERA
 40
2.5
  9
$CHAMFERB
 40
2.5
  9
$CHAMFERC
 40
20.0
  9
$CHAMFERD
 40
0.0
  9
$SKPOLY
 70
     0
  9
$TDCREATE
 40
2452839.420061482
  9
$TDUPDATE
 40
2453152.398235706
  9
$TDINDWG
 40
0.1110841435
  9
$TDUSRTIMER
 40
0.1110841435
  9
$USRTIMER
 70
     1
  9
$ANGBASE
 50
0.0
  9
$ANGDIR
 70
     0
  9
$PDMODE
 70
     0
  9
$PDSIZE
 40
0.0
  9
$PLINEWID
 40
0.0
  9
$COORDS
 70
     1
  9
$SPLFRAME
 70
     0
  9
$SPLINETYPE
 70
     6
  9
$SPLINESEGS
 70
     8
  9
$ATTDIA
 70
     1
  9
$ATTREQ
 70
     1
  9
$HANDLING
 70
 12289
  9
$HANDSEED
  5
356D
  9
$SURFTAB1
 70
     6
  9
$SURFTAB2
 70
     6
  9
$SURFTYPE
 70
     6
  9
$SURFU
 70
     6
  9
$SURFV
 70
     6
  9
$UCSNAME
  2

  9
$UCSORG
 10
0.0
 20
0.0
 30
0.0
  9
$UCSXDIR
 10
1.0
 20
0.0
 30
0.0
  9
$UCSYDIR
 10
0.0
 20
1.0
 30
0.0
  9
$PUCSNAME
  2

  9
$PUCSORG
 10
0.0
 20
0.0
 30
0.0
  9
$PUCSXDIR
 10
1.0
 20
0.0
 30
0.0
  9
$PUCSYDIR
 10
0.0
 20
1.0
 30
0.0
  9
$USERI1
 70
     0
  9
$USERI2
 70
     0
  9
$USERI3
 70
     0
  9
$USERI4
 70
     0
  9
$USERI5
 70
     0
  9
$USERR1
 40
0.0
  9
$USERR2
 40
0.0
  9
$USERR3
 40
0.0
  9
$USERR4
 40
0.0
  9
$USERR5
 40
0.0
  9
$WORLDVIEW
 70
     1
  9
$SHADEDGE
 70
     3
  9
$SHADEDIF
 70
    70
  9
$TILEMODE
 70
     1
  9
$MAXACTVP
 70
    64
  9
$PINSBASE
 10
0.0
 20
0.0
 30
0.0
  9
$PLIMCHECK
 70
     0
  9
$PEXTMIN
 10
1.000000000000000E+20
 20
1.000000000000000E+20
 30
1.000000000000000E+20
  9
$PEXTMAX
 10
-1.000000000000000E+20
 20
-1.000000000000000E+20
 30
-1.000000000000000E+20
  9
$PLIMMIN
 10
0.0
 20
0.0
  9
$PLIMMAX
 10
841.0
 20
594.0
  9
$UNITMODE
 70
     0
  9
$VISRETAIN
 70
     1
  9
$PLINEGEN
 70
     0
  9
$PSLTSCALE
 70
     0
  9
$TREEDEPTH
 70
  3020
  9
$PICKSTYLE
 70
     0
  9
$CMLSTYLE
  2
STANDARD
  9
$CMLJUST
 70
     0
  9
$CMLSCALE
 40
20.0
  9
$PROXYGRAPHICS
 70
     1
  9
$MEASUREMENT
 70
     1
  0
ENDSEC
  0
SECTION
  2
CLASSES
  0
CLASS
  1
ACDBDICTIONARYWDFLT
  2
AcDbDictionaryWithDefault
  3
AutoCAD 2000
 90
        0
280
     0
281
     0
  0
CLASS
  1
ACDBPLACEHOLDER
  2
AcDbPlaceHolder
  3
AutoCAD 2000
 90
        0
280
     0
281
     0
  0
CLASS
  1
LAYOUT
  2
AcDbLayout
  3
AutoCAD 2000
 90
        0
280
     0
281
     0
  0
CLASS
  1
AMGSETTINGSOBJ
  2
AmgSettingsObj
  3
"AcadM|Product Description: AutoCAD Mechanical 2000|Company: Autodesk"
 90
        0
280
     0
281
     0
  0
CLASS
  1
ACME_DOCUMENT
  2
AcMeDbDoc
  3
AcMeServices
 90
        0
280
     0
281
     0
  0
CLASS
  1
ACMESCOPE
  2
AcMeScope
  3
AcMeServices
 90
        0
280
     0
281
     0
  0
CLASS
  1
ACMECOMMANDHISTORY
  2
AcMeCommandHistory
  3
AcMeServices
 90
        0
280
     0
281
     0
  0
CLASS
  1
DICTIONARYVAR
  2
AcDbDictionaryVar
  3
AutoCAD 2000
 90
        0
280
     0
281
     0
  0
CLASS
  1
ACIMSYSVARMAN
  2
AcImSysVarManager
  3
AcMeServices
 90
        0
280
     0
281
     0
  0
CLASS
  1
ACIMREALSYSVAR
  2
AcImRealSysVar
  3
AcMeServices
 90
        0
280
     0
281
     0
  0
CLASS
  1
ACIMINTSYSVAR
  2
AcImIntSysVar
  3
AcMeServices
 90
        0
280
     0
281
     0
  0
CLASS
  1
ACMEDRAWINGMAN
  2
AcMeDrawingMan
  3
AcMeServices
 90
        0
280
     0
281
     0
  0
CLASS
  1
ACMEVIEW
  2
AcMeView
  3
AcMeServices
 90
        0
280
     0
281
     0
  0
CLASS
  1
ACDBENTITYCACHE
  2
AcMeEntityCache
  3
AcMeServices
 90
        0
280
     0
281
     0
  0
CLASS
  1
GSMANAGER
  2
AcMeGSManager
  3
AcMeServices
 90
        0
280
     0
281
     0
  0
CLASS
  1
AmdtInternalReactor
  2
AmdtInternalReactor
  3
AcMeServices
 90
        0
280
     0
281
     0
  0
CLASS
  1
ACMESTATEMGR
  2
AcMeStateMgr
  3
AcMeServices
 90
        0
280
     0
281
     0
  0
CLASS
  1
ACME_DATABASE
  2
AcMeDbDatabase
  3
AcMeServices
 90
        0
280
     0
281
     0
  0
CLASS
  1
ACRFINSADJUSTERMGR
  2
AcRfInsAdjusterMgr
  3
AcMeServices
 90
        0
280
     0
281
     0
  0
CLASS
  1
ACMDATADICTIONARY
  2
AcmDataDictionary
  3
"AcmSymBB|Product Description: AutoCAD Mechanical 2000|Company: Autodesk"
 90
        0
280
     0
281
     0
  0
CLASS
  1
ACMDATAENTRYBLOCK
  2
AcmDataEntryBlock
  3
"AcmSymBB|Product Description: AutoCAD Mechanical 2000|Company: Autodesk"
 90
        0
280
     0
281
     0
  0
CLASS
  1
AMGOBJPROPCFG
  2
AmgObjPropCfg
  3
"AmgLay|Product Description: AutoCAD Mechanical 2000|Company: Autodesk"
 90
        1
280
     0
281
     0
  0
CLASS
  1
ACAMGFILTERDAT
  2
AcAmgFilterDat
  3
"AcadM|Product Description: AutoCAD Mechanical 2000|Company: Autodesk"
 90
        0
280
     0
281
     0
  0
CLASS
  1
LAYER_INDEX
  2
AcDbLayerIndex
  3
AutoCAD 2000
 90
        0
280
     0
281
     0
  0
CLASS
  1
IDBUFFER
  2
AcDbIdBuffer
  3
AutoCAD 2000
 90
        0
280
     0
281
     0
  0
CLASS
  1
ACIMSTRSYSVAR
  2
AcImStrSysVar
  3
AcMeServices
 90
        0
280
     0
281
     0
  0
CLASS
  1
ACMSTANDARDJIS
  2
AcmStandardJIS
  3
"AcmSymBB|Product Description: AutoCAD Mechanical 2000|Company: Autodesk"
 90
        0
280
     0
281
     0
  0
CLASS
  1
ACMSURFSTANDARDJIS
  2
AcmSurfTextStdJIS
  3
"AcmSymBB|Product Description: AutoCAD Mechanical 2000|Company: Autodesk"
 90
        0
280
     0
281
     0
  0
CLASS
  1
ACMFCFSTANDARDJIS
  2
AcmFCFStdJIS
  3
"AcmSymBB|Product Description: AutoCAD Mechanical 2000|Company: Autodesk"
 90
        0
280
     0
281
     0
  0
CLASS
  1
ACMWELDSTANDARDJIS
  2
AcmWeldingStdJIS
  3
"AcmSymBB|Product Description: AutoCAD Mechanical 2000|Company: Autodesk"
 90
        0
280
     0
281
     0
  0
CLASS
  1
ACMIDSTANDARDJIS
  2
AcmIdStdJIS
  3
"AcmSymBB|Product Description: AutoCAD Mechanical 2000|Company: Autodesk"
 90
        0
280
     0
281
     0
  0
CLASS
  1
ACMDATUMSTANDARDJIS
  2
AcmDatumStdJIS
  3
"AcmSymBB|Product Description: AutoCAD Mechanical 2000|Company: Autodesk"
 90
        0
280
     0
281
     0
  0
CLASS
  1
ACMBOMSTANDARDJIS
  2
AcmBOMStdJIS
  3
"AcmSymBB|Product Description: AutoCAD Mechanical 2000|Company: Autodesk"
 90
        0
280
     0
281
     0
  0
CLASS
  1
ACMSTANDARDANSI
  2
AcmStandardANSI
  3
"AcmSymBB|Product Description: AutoCAD Mechanical 2000|Company: Autodesk"
 90
        0
280
     0
281
     0
  0
CLASS
  1
ACMSURFSTANDARDANSI
  2
AcmSurfTextStdANSI
  3
"AcmSymBB|Product Description: AutoCAD Mechanical 2000|Company: Autodesk"
 90
        0
280
     0
281
     0
  0
CLASS
  1
ACMFCFSTANDARDANSI
  2
AcmFCFStdANSI
  3
"AcmSymBB|Product Description: AutoCAD Mechanical 2000|Company: Autodesk"
 90
        0
280
     0
281
     0
  0
CLASS
  1
ACMWELDSTANDARDANSI
  2
AcmWeldingStdANSI
  3
"AcmSymBB|Product Description: AutoCAD Mechanical 2000|Company: Autodesk"
 90
        0
280
     0
281
     0
  0
CLASS
  1
ACMIDSTANDARDANSI
  2
AcmIdStdANSI
  3
"AcmSymBB|Product Description: AutoCAD Mechanical 2000|Company: Autodesk"
 90
        0
280
     0
281
     0
  0
CLASS
  1
ACMDATUMSTANDARDANSI
  2
AcmDatumStdANSI
  3
"AcmSymBB|Product Description: AutoCAD Mechanical 2000|Company: Autodesk"
 90
        0
280
     0
281
     0
  0
CLASS
  1
ACMBOMSTANDARDANSI
  2
AcmBOMStdANSI
  3
"AcmSymBB|Product Description: AutoCAD Mechanical 2000|Company: Autodesk"
 90
        0
280
     0
281
     0
  0
CLASS
  1
ACMSTANDARDBSI
  2
AcmStandardBSI
  3
"AcmSymBB|Product Description: AutoCAD Mechanical 2000|Company: Autodesk"
 90
        0
280
     0
281
     0
  0
CLASS
  1
ACMSURFSTANDARDBSI
  2
AcmSurfTextStdBSI
  3
"AcmSymBB|Product Description: AutoCAD Mechanical 2000|Company: Autodesk"
 90
        0
280
     0
281
     0
  0
CLASS
  1
ACMFCFSTANDARDBSI
  2
AcmFCFStdBSI
  3
"AcmSymBB|Product Description: AutoCAD Mechanical 2000|Company: Autodesk"
 90
        0
280
     0
281
     0
  0
CLASS
  1
ACMWELDSTANDARDBSI
  2
AcmWeldingStdBSI
  3
"AcmSymBB|Product Description: AutoCAD Mechanical 2000|Company: Autodesk"
 90
        0
280
     0
281
     0
  0
CLASS
  1
ACMIDSTANDARDBSI
  2
AcmIdStdBSI
  3
"AcmSymBB|Product Description: AutoCAD Mechanical 2000|Company: Autodesk"
 90
        0
280
     0
281
     0
  0
CLASS
  1
ACMDATUMSTANDARDBSI
  2
AcmDatumStdBSI
  3
"AcmSymBB|Product Description: AutoCAD Mechanical 2000|Company: Autodesk"
 90
        0
280
     0
281
     0
  0
CLASS
  1
ACMBOMSTANDARDBSI
  2
AcmBOMStdBSI
  3
"AcmSymBB|Product Description: AutoCAD Mechanical 2000|Company: Autodesk"
 90
        0
280
     0
281
     0
  0
CLASS
  1
LONG_TRANSACTION
  2
AcDbLongTransaction
  3
AutoCAD 2000
 90
        0
280
     0
281
     0
  0
CLASS
  1
LWPOLYLINE
  2
AcDbPolyline
  3
AutoCAD 2000
 90
        0
280
     0
281
     1
  0
CLASS
  1
HATCH
  2
AcDbHatch
  3
AutoCAD 2000
 90
        0
280
     0
281
     1
  0
CLASS
  1
XRECORD
  2
AcDbXrecord
  3
AutoCAD 2000
 90
        0
280
     0
281
     0
  0
ENDSEC
  0
SECTION
  2
TABLES
  0
TABLE
  2
VPORT
  5
8
330
0
100
AcDbSymbolTable
 70
     3
  0
VPORT
  5
3542
330
8
100
AcDbSymbolTableRecord
100
AcDbViewportTableRecord
  2
*ACTIVE
 70
     0
 10
0.0
 20
0.0
 11
1.0
 21
1.0
 12
-4.294897378808258
 22
-20.37739995088523
 13
0.0
 23
0.0
 14
2.5
 24
2.5
 15
10.0
 25
10.0
 16
0.0
 26
0.0
 36
1.0
 17
0.0
 27
0.0
 37
0.0
 40
161.9090783593259
 41
1.56570841889117
 42
50.0
 43
0.0
 44
0.0
 50
0.0
 51
0.0
 71
     0
 72
   100
 73
     1
 74
     3
 75
     0
 76
     0
 77
     0
 78
     0
  0
ENDTAB
  0
TABLE
  2
LTYPE
  5
5
330
0
100
AcDbSymbolTable
 70
    10
  0
LTYPE
  5
14
330
5
100
AcDbSymbolTableRecord
100
AcDbLinetypeTableRecord
  2
BYBLOCK
 70
     0
  3

 72
    65
 73
     0
 40
0.0
  0
LTYPE
  5
15
330
5
100
AcDbSymbolTableRecord
100
AcDbLinetypeTableRecord
  2
BYLAYER
 70
     0
  3

 72
    65
 73
     0
 40
0.0
  0
LTYPE
  5
16
330
5
100
AcDbSymbolTableRecord
100
AcDbLinetypeTableRecord
  2
CONTINUOUS
 70
     0
  3
Solid line
 72
    65
 73
     0
 40
0.0
  0
LTYPE
  5
4B
330
5
100
AcDbSymbolTableRecord
100
AcDbLinetypeTableRecord
  2
AM_ISO02W050
 70
     0
  3
__ __ __ __ __ __ __ __ __ __ __ __ __ __ __
 72
    65
 73
     2
 40
7.5
 49
6.0
 74
     0
 49
-1.5
 74
     0
  0
LTYPE
  5
4C
330
5
100
AcDbSymbolTableRecord
100
AcDbLinetypeTableRecord
  2
AM_ISO08W050
 70
     0
  3
____ . ____ . ____ . ____ . ____ . ____ . ____
 72
    65
 73
     4
 40
18.0
 49
12.0
 74
     0
 49
-1.5
 74
     0
 49
3.0
 74
     0
 49
-1.5
 74
     0
  0
LTYPE
  5
4D
330
5
100
AcDbSymbolTableRecord
100
AcDbLinetypeTableRecord
  2
AM_ISO09W050
 70
     0
  3
_____ . . _____ . . _____ . . ____ .. ____
 72
    65
 73
     6
 40
22.5
 49
12.0
 74
     0
 49
-1.5
 74
     0
 49
3.0
 74
     0
 49
-1.5
 74
     0
 49
3.0
 74
     0
 49
-1.5
 74
     0
  0
LTYPE
  5
4E
330
5
100
AcDbSymbolTableRecord
100
AcDbLinetypeTableRecord
  2
AMCONSTR
 70
     0
  3
_______________________
 72
    65
 73
     2
 40
9999.0
 49
9999.0
 74
     0
 49
0.0
 74
     0
  0
LTYPE
  5
4F
330
5
100
AcDbSymbolTableRecord
100
AcDbLinetypeTableRecord
  2
AM_ISO02W050X2
 70
     0
  3
 _ _ _ _ _ _ _ _ _ _ _ _
 72
    65
 73
     2
 40
3.75
 49
3.0
 74
     0
 49
-0.75
 74
     0
  0
LTYPE
  5
50
330
5
100
AcDbSymbolTableRecord
100
AcDbLinetypeTableRecord
  2
AM_ISO08W050X2
 70
     0
  3
__ . __ . __ . __ . __ . __
 72
    65
 73
     4
 40
9.0
 49
6.0
 74
     0
 49
-0.75
 74
     0
 49
1.5
 74
     0
 49
-0.75
 74
     0
  0
LTYPE
  5
53
330
5
100
AcDbSymbolTableRecord
100
AcDbLinetypeTableRecord
  2
AMZIGZAG
 70
     0
  3
/\/-/\/-/\/-/\/-/\/-/\/
 72
    65
 73
     2
 40
11.00009999999999
 49
0.0001
 74
     4
 75
   135
340
52
 46
0.04
 50
0.0
 44
0.0
 45
0.0
 49
-11.0
 74
     0
  0
LTYPE
  5
166
330
5
100
AcDbSymbolTableRecord
100
AcDbLinetypeTableRecord
  2
ACJISTGL
 70
     0
  3
_ _ _ _ _
 72
    65
 73
     2
 40
3.0
 49
2.0
 74
     0
 49
-1.0
 74
     0
  0
LTYPE
  5
26A
330
5
100
AcDbSymbolTableRecord
100
AcDbLinetypeTableRecord
  2
ACJISTGB
 70
     0
  3
__ . . __ . .
 72
    65
 73
     6
 40
9.0
 49
4.0
 74
     0
 49
-1.0
 74
     0
 49
1.0
 74
     0
 49
-1.0
 74
     0
 49
1.0
 74
     0
 49
-1.0
 74
     0
  0
ENDTAB
  0
TABLE
  2
LAYER
  5
2
330
0
100
AcDbSymbolTable
 70
     7
  0
LAYER
  5
10
330
2
100
AcDbSymbolTableRecord
100
AcDbLayerTableRecord
  2
0
 70
     0
 62
     7
  6
CONTINUOUS
  0
LAYER
  5
3F9
330
2
100
AcDbSymbolTableRecord
100
AcDbLayerTableRecord
  2
AM_0
 70
     0
 62
     7
  6
CONTINUOUS
  0
LAYER
  5
CD5
330
2
100
AcDbSymbolTableRecord
100
AcDbLayerTableRecord
  2
AM_7
 70
     0
 62
     4
  6
AM_ISO08W050
  0
LAYER
  5
CDE
330
2
100
AcDbSymbolTableRecord
100
AcDbLayerTableRecord
  2
AM_11
 70
     0
 62
     3
  6
AM_ISO09W050
  0
LAYER
  5
CFB
330
2
100
AcDbSymbolTableRecord
100
AcDbLayerTableRecord
  2
AM_5
 70
     0
 62
     3
  6
CONTINUOUS
  0
LAYER
  5
CFD
330
2
100
AcDbSymbolTableRecord
100
AcDbLayerTableRecord
  2
DEFPOINTS
 70
     0
 62
     7
  6
CONTINUOUS
  0
LAYER
  5
113C
330
2
100
AcDbSymbolTableRecord
100
AcDbLayerTableRecord
  2
AM_6
 70
     0
 62
     2
  6
CONTINUOUS
  0
ENDTAB
  0
TABLE
  2
STYLE
  5
3
330
0
100
AcDbSymbolTable
 70
     5
  0
STYLE
  5
11
330
3
100
AcDbSymbolTableRecord
100
AcDbTextStyleTableRecord
  2
STANDARD
 70
     0
 40
0.0
 41
1.0
 50
0.0
 71
     0
 42
2.5
  3
simplex.shx
  4
EXTFONT.SHX
  0
STYLE
  5
52
330
3
100
AcDbSymbolTableRecord
100
AcDbTextStyleTableRecord
  2

 70
     1
 40
0.0
 41
1.0
 50
0.0
 71
     0
 42
2.5
  3
ltypeshp.shx
  4

  0
STYLE
  5
6B
330
3
100
AcDbSymbolTableRecord
100
AcDbTextStyleTableRecord
  2
ASAMI
 70
     0
 40
0.0
 41
1.0
 50
0.0
 71
     0
 42
2.5
  3
simplex.shx
  4
EXTFONT.SHX
  0
STYLE
  5
262
330
3
100
AcDbSymbolTableRecord
100
AcDbTextStyleTableRecord
  2
ACJISTS
 70
     0
 40
1.0
 41
1.0
 50
0.0
 71
     0
 42
2.5
  3
simplex.shx
  4
bigfont.shx
  0
STYLE
  5
269
330
3
100
AcDbSymbolTableRecord
100
AcDbTextStyleTableRecord
  2
ACJISGDT
 70
     0
 40
0.0
 41
1.0
 50
0.0
 71
     0
 42
2.5
  3
amgdtans.shx
  4

  0
ENDTAB
  0
TABLE
  2
VIEW
  5
6
330
0
100
AcDbSymbolTable
 70
     0
  0
ENDTAB
  0
TABLE
  2
UCS
  5
7
330
0
100
AcDbSymbolTable
 70
     0
  0
ENDTAB
  0
TABLE
  2
APPID
  5
9
330
0
100
AcDbSymbolTable
 70
    12
  0
APPID
  5
12
330
9
100
AcDbSymbolTableRecord
100
AcDbRegAppTableRecord
  2
ACAD
 70
     0
  0
APPID
  5
30
330
9
100
AcDbSymbolTableRecord
100
AcDbRegAppTableRecord
  2
MCAD_NO_VIS
 70
     0
  0
APPID
  5
31
330
9
100
AcDbSymbolTableRecord
100
AcDbRegAppTableRecord
  2
ACAD_TEMP_GRAPHIC
 70
     0
  0
APPID
  5
2C2
330
9
100
AcDbSymbolTableRecord
100
AcDbRegAppTableRecord
  2
GENIUS_GENDTOL_13
 70
     0
  0
APPID
  5
339
330
9
100
AcDbSymbolTableRecord
100
AcDbRegAppTableRecord
  2
GENIUS_GENODEF_13
 70
     0
  0
APPID
  5
33A
330
9
100
AcDbSymbolTableRecord
100
AcDbRegAppTableRecord
  2
GENIUS_GENOBJ-N-RSBK_13
 70
     0
  0
APPID
  5
33B
330
9
100
AcDbSymbolTableRecord
100
AcDbRegAppTableRecord
  2
GENIUS_GENOBJ-N-LIB_13
 70
     0
  0
APPID
  5
33C
330
9
100
AcDbSymbolTableRecord
100
AcDbRegAppTableRecord
  2
GENIUS_GENSCALE_13
 70
     0
  0
APPID
  5
378
330
9
100
AcDbSymbolTableRecord
100
AcDbRegAppTableRecord
  2
GENIUS_GENDIMSH_14
 70
     0
  0
APPID
  5
13A0
330
9
100
AcDbSymbolTableRecord
100
AcDbRegAppTableRecord
  2
GENIUS_GENOBJ-N-CEN_13
 70
     0
  0
APPID
  5
13D7
330
9
100
AcDbSymbolTableRecord
100
AcDbRegAppTableRecord
  2
GENIUS_GENREC_14
 70
     0
  0
APPID
  5
13D8
330
9
100
AcDbSymbolTableRecord
100
AcDbRegAppTableRecord
  2
GENIUS_GENOBJ-N-REC_13
 70
     0
  0
ENDTAB
  0
TABLE
  2
DIMSTYLE
  5
A
330
0
100
AcDbSymbolTable
 70
     9
  0
DIMSTYLE
105
58
330
A
100
AcDbSymbolTableRecord
100
AcDbDimStyleTableRecord
  2
AM_JIS
 70
     0
  3

  4
"
  5
OPEN30
  6

  7

 40
1.0
 41
2.5
 42
1.0
 43
12.0
 44
1.0
 45
0.0
 46
0.0
 47
0.1
 48
0.1
140
3.2
141
0.0
142
0.0
143
0.0393701
144
1.0
145
0.0
146
0.71
147
1.5
 71
     0
 72
     0
 73
     0
 74
     0
 75
     0
 76
     0
 77
     3
 78
     8
170
     0
171
     2
172
     1
173
     0
174
     0
175
     0
176
   256
177
   256
178
     2
270
     2
271
     3
272
     3
273
     2
274
     2
340
6B
275
     0
280
     0
281
     0
282
     0
283
     0
284
     0
285
     0
286
     0
287
     3
288
     0
  0
DIMSTYLE
105
5F
330
A
100
AcDbSymbolTableRecord
100
AcDbDimStyleTableRecord
  2
AM_JIS$3
 70
     0
  3

  4
"
  5
OPEN30
  6

  7

 40
1.0
 41
2.5
 42
1.0
 43
10.0
 44
1.0
 45
0.0
 46
0.0
 47
0.1
 48
0.1
140
3.2
141
0.0
142
0.0
143
0.0393701
144
1.0
145
0.0
146
0.71
147
1.5
 71
     0
 72
     0
 73
     0
 74
     1
 75
     0
 76
     0
 77
     3
 78
     8
170
     0
171
     2
172
     0
173
     0
174
     0
175
     0
176
   256
177
   256
178
     2
270
     2
271
     2
272
     3
273
     2
274
     2
340
6B
275
     0
280
     0
281
     0
282
     0
283
     0
284
     0
285
     0
286
     0
287
     0
288
     1
  0
DIMSTYLE
105
60
330
A
100
AcDbSymbolTableRecord
100
AcDbDimStyleTableRecord
  2
AM_JIS$4
 70
     0
  3

  4
"
  5
OPEN30
  6

  7

 40
1.0
 41
2.5
 42
1.0
 43
10.0
 44
1.0
 45
0.0
 46
0.0
 47
0.1
 48
0.1
140
3.2
141
0.0
142
0.0
143
0.0393701
144
1.0
145
0.0
146
0.71
147
1.5
 71
     0
 72
     0
 73
     0
 74
     1
 75
     0
 76
     0
 77
     3
 78
     8
170
     0
171
     2
172
     0
173
     0
174
     0
175
     0
176
   256
177
   256
178
     2
270
     2
271
     2
272
     3
273
     2
274
     2
340
6B
275
     0
280
     0
281
     0
282
     0
283
     0
284
     0
285
     0
286
     0
287
     0
288
     1
  0
DIMSTYLE
105
61
330
A
100
AcDbSymbolTableRecord
100
AcDbDimStyleTableRecord
  2
AM_JIS$6
 70
     0
  3

  4
"
  5
OPEN30
  6

  7

 40
1.0
 41
2.5
 42
1.0
 43
10.0
 44
1.0
 45
0.0
 46
0.0
 47
0.1
 48
0.1
140
3.2
141
0.0
142
0.0
143
0.0393701
144
1.0
145
0.0
146
0.71
147
1.5
 71
     0
 72
     0
 73
     0
 74
     0
 75
     0
 76
     0
 77
     0
 78
     8
170
     0
171
     2
172
     1
173
     0
174
     0
175
     0
176
   256
177
   256
178
     2
270
     2
271
     2
272
     2
273
     2
274
     2
340
6B
275
     0
280
     0
281
     0
282
     0
283
     0
284
     0
285
     0
286
     0
287
     3
288
     0
  0
DIMSTYLE
105
62
330
A
100
AcDbSymbolTableRecord
100
AcDbDimStyleTableRecord
  2
AM_JIS$7
 70
     0
  3

  4
"
  5
OPEN30
  6

  7

 40
1.0
 41
2.5
 42
1.0
 43
10.0
 44
1.0
 45
0.0
 46
0.0
 47
0.1
 48
0.1
140
3.2
141
0.0
142
0.0
143
0.0393701
144
1.0
145
0.0
146
0.71
147
1.5
 71
     0
 72
     0
 73
     0
 74
     0
 75
     0
 76
     0
 77
     3
 78
     8
170
     0
171
     2
172
     1
173
     0
174
     0
175
     0
176
   256
177
   256
178
     2
270
     2
271
     2
272
     3
273
     2
274
     2
340
6B
275
     0
280
     0
281
     0
282
     0
283
     0
284
     0
285
     0
286
     0
287
     3
288
     0
  0
DIMSTYLE
105
63
330
A
100
AcDbSymbolTableRecord
100
AcDbDimStyleTableRecord
  2
AM_JIS$SF
 70
     0
  3

  4
"
  5
OPEN30
  6

  7

 40
1.0
 41
2.5
 42
1.0
 43
10.0
 44
1.0
 45
0.0
 46
0.0
 47
0.1
 48
0.1
140
3.2
141
0.0
142
0.0
143
0.0393701
144
1.0
145
0.0
146
0.71
147
1.5
 71
     0
 72
     0
 73
     0
 74
     0
 75
     1
 76
     1
 77
     3
 78
     8
170
     0
171
     2
172
     1
173
     0
174
     0
175
     0
176
   256
177
   256
178
     2
270
     2
271
     2
272
     2
273
     2
274
     2
340
6B
275
     0
280
     0
281
     0
282
     0
283
     0
284
     0
285
     0
286
     0
287
     3
288
     0
  0
DIMSTYLE
105
68
330
A
100
AcDbSymbolTableRecord
100
AcDbDimStyleTableRecord
  2
AM_JIS$SH
 70
     0
  3

  4
"
  5

  6
GENAXEH
  7
OPEN30
 40
1.0
 41
2.5
 42
1.0
 43
10.0
 44
1.0
 45
0.0
 46
0.0
 47
0.1
 48
0.1
140
3.2
141
0.0
142
0.0
143
0.0393701
144
2.0
145
0.0
146
0.71
147
1.5
 71
     0
 72
     0
 73
     0
 74
     0
 75
     1
 76
     1
 77
     3
 78
     8
170
     0
171
     2
172
     1
173
     1
174
     0
175
     0
176
   256
177
   256
178
     2
270
     2
271
     2
272
     2
273
     2
274
     2
340
6B
275
     0
280
     0
281
     0
282
     0
283
     0
284
     0
285
     0
286
     0
287
     3
288
     0
  0
DIMSTYLE
105
B34
330
A
100
AcDbSymbolTableRecord
100
AcDbDimStyleTableRecord
  2
AM_JIS$2
 70
     0
  3

  4
"
  5
OPEN30
  6

  7

 40
1.0
 41
2.5
 42
1.0
 43
12.0
 44
1.0
 45
0.0
 46
0.0
 47
0.1
 48
0.1
140
3.2
141
0.0
142
0.0
143
0.0393701
144
1.0
145
0.0
146
0.71
147
1.5
 71
     0
 72
     0
 73
     0
 74
     0
 75
     0
 76
     0
 77
     3
 78
     8
170
     0
171
     2
172
     1
173
     0
174
     0
175
     0
176
   256
177
   256
178
     2
270
     2
271
     3
272
     3
273
     2
274
     2
340
6B
275
     0
280
     0
281
     0
282
     0
283
     0
284
     0
285
     0
286
     0
287
     3
288
     0
  0
DIMSTYLE
105
BA5
102
{ACAD_REACTORS
330
2BFF
330
2C97
330
2D98
330
2E3C
330
2EC7
330
2F52
330
3018
330
30AC
330
313C
102
}
330
A
100
AcDbSymbolTableRecord
100
AcDbDimStyleTableRecord
  2
AM_JIS$0
 70
     0
  3

  4
"
  5
OPEN30
  6

  7

 40
1.0
 41
2.5
 42
0.0
 43
10.0
 44
1.0
 45
0.0
 46
0.0
 47
0.1
 48
0.1000000001
140
3.799999999999999
141
0.0
142
0.0
143
0.0393701
144
1.0
145
0.0
146
0.71
147
1.5
 71
     0
 72
     0
 73
     0
 74
     0
 75
     0
 76
     0
 77
     3
 78
     1
170
     0
171
     2
172
     1
173
     0
174
     0
175
     0
176
     3
177
     3
178
     2
270
     2
271
     2
272
     2
273
     2
274
     2
340
11
275
     1
280
     0
281
     0
282
     0
283
     0
284
     8
285
     0
286
     0
287
     0
288
     0
  0
ENDTAB
  0
TABLE
  2
BLOCK_RECORD
  5
1
330
0
100
AcDbSymbolTable
 70
    14
  0
BLOCK_RECORD
  5
1F
102
{ACAD_XDICTIONARY
360
74
102
}
330
1
100
AcDbSymbolTableRecord
100
AcDbBlockTableRecord
  2
*MODEL_SPACE
  0
BLOCK_RECORD
  5
101
102
{ACAD_XDICTIONARY
360
356B
102
}
330
1
100
AcDbSymbolTableRecord
100
AcDbBlockTableRecord
  2
*PAPER_SPACE
  0
BLOCK_RECORD
  5
59
330
1
100
AcDbSymbolTableRecord
100
AcDbBlockTableRecord
  2
_OPEN30
  0
BLOCK_RECORD
  5
64
330
1
100
AcDbSymbolTableRecord
100
AcDbBlockTableRecord
  2
GENAXEH
  0
BLOCK_RECORD
  5
2C00
330
1
100
AcDbSymbolTableRecord
100
AcDbBlockTableRecord
  2
*D5
  0
BLOCK_RECORD
  5
2C98
330
1
100
AcDbSymbolTableRecord
100
AcDbBlockTableRecord
  2
*D6
  0
BLOCK_RECORD
  5
2D99
330
1
100
AcDbSymbolTableRecord
100
AcDbBlockTableRecord
  2
*D7
  0
BLOCK_RECORD
  5
2E3D
330
1
100
AcDbSymbolTableRecord
100
AcDbBlockTableRecord
  2
*D8
  0
BLOCK_RECORD
  5
2EC8
330
1
100
AcDbSymbolTableRecord
100
AcDbBlockTableRecord
  2
*D9
  0
BLOCK_RECORD
  5
2F53
330
1
100
AcDbSymbolTableRecord
100
AcDbBlockTableRecord
  2
*D10
  0
BLOCK_RECORD
  5
3019
330
1
100
AcDbSymbolTableRecord
100
AcDbBlockTableRecord
  2
*D11
  0
BLOCK_RECORD
  5
30AD
330
1
100
AcDbSymbolTableRecord
100
AcDbBlockTableRecord
  2
*D12
  0
BLOCK_RECORD
  5
313D
330
1
100
AcDbSymbolTableRecord
100
AcDbBlockTableRecord
  2
*D13
  0
ENDTAB
  0
ENDSEC
  0
SECTION
  2
BLOCKS
  0
BLOCK
  5
20
330
1F
100
AcDbEntity
  8
0
100
AcDbBlockBegin
  2
*MODEL_SPACE
 70
     0
 10
0.0
 20
0.0
 30
0.0
  3
*MODEL_SPACE
  1

  0
ENDBLK
  5
21
330
1F
100
AcDbEntity
  8
0
100
AcDbBlockEnd
  0
BLOCK
  5
103
330
101
100
AcDbEntity
 67
     1
  8
0
100
AcDbBlockBegin
  2
*PAPER_SPACE
 70
     0
 10
0.0
 20
0.0
 30
0.0
  3
*PAPER_SPACE
  1

  0
ENDBLK
  5
104
330
101
100
AcDbEntity
 67
     1
  8
0
100
AcDbBlockEnd
  0
BLOCK
  5
5D
330
59
100
AcDbEntity
  8
0
100
AcDbBlockBegin
  2
_OPEN30
 70
     0
 10
0.0
 20
0.0
 30
0.0
  3
_OPEN30
  1

  0
LINE
  5
5A
330
59
100
AcDbEntity
  8
0
 62
     0
100
AcDbLine
 10
-1.0
 20
0.26794919
 30
0.0
 11
0.0
 21
0.0
 31
0.0
  0
LINE
  5
5B
330
59
100
AcDbEntity
  8
0
 62
     0
100
AcDbLine
 10
0.0
 20
0.0
 30
0.0
 11
-1.0
 21
-0.26794919
 31
0.0
  0
LINE
  5
5C
330
59
100
AcDbEntity
  8
0
 62
     0
100
AcDbLine
 10
0.0
 20
0.0
 30
0.0
 11
-1.0
 21
0.0
 31
0.0
  0
ENDBLK
  5
5E
330
59
100
AcDbEntity
  8
0
100
AcDbBlockEnd
  0
BLOCK
  5
66
330
64
100
AcDbEntity
  8
0
100
AcDbBlockBegin
  2
GENAXEH
 70
     0
 10
0.0
 20
0.0
 30
0.0
  3
GENAXEH
  1

  0
LINE
  5
65
330
64
100
AcDbEntity
  8
0
100
AcDbLine
 10
-1.0
 20
0.0
 30
0.0
 11
1.0
 21
0.0
 31
0.0
  0
ENDBLK
  5
67
330
64
100
AcDbEntity
  8
0
100
AcDbBlockEnd
  0
BLOCK
  5
2C0A
330
2C00
100
AcDbEntity
  8
0
100
AcDbBlockBegin
  2
*D5
 70
     1
 10
0.0
 20
0.0
 30
0.0
  3
*D5
  1

  0
LINE
  5
3446
330
2C00
100
AcDbEntity
  8
AM_5
 62
     3
100
AcDbLine
 10
-8.999999999999992
 20
20.0000019073488
 30
0.0
 11
-8.999999999999991
 21
40.0000029073491
 31
0.0
  0
LINE
  5
3447
330
2C00
100
AcDbEntity
  8
AM_5
 62
     3
100
AcDbLine
 10
-0.0000000000000016
 20
19.21977710723881
 30
0.0
 11
-0.0000000000000003
 21
40.0000029073491
 31
0.0
  0
LINE
  5
3448
330
2C00
100
AcDbEntity
  8
AM_5
 62
     3
100
AcDbLine
 10
-6.499999999999991
 20
39.0000029073491
 30
0.0
 11
-2.5
 21
39.0000029073491
 31
0.0
  0
INSERT
  5
3449
330
2C00
100
AcDbEntity
  8
AM_5
 62
     3
100
AcDbBlockReference
  2
_OPEN30
 10
-8.999999999999991
 20
39.0000029073491
 30
0.0
 41
2.5
 42
2.5
 43
2.5
 50
180.0
  0
INSERT
  5
344A
330
2C00
100
AcDbEntity
  8
AM_5
 62
     3
100
AcDbBlockReference
  2
_OPEN30
 10
-0.0000000000000004
 20
39.0000029073491
 30
0.0
 41
2.5
 42
2.5
 43
2.5
  0
MTEXT
  5
344B
330
2C00
100
AcDbEntity
  8
AM_5
 62
     2
100
AcDbMText
 10
-4.499999999999995
 20
42.40000290734911
 30
0.0
 40
3.799999999999999
 41
0.0
 71
     5
 72
     1
  1
9
1001
ACAD
1000
MTEXTBEGIN
1070
    73
1070
     1
1070
    44
1040
1.0
1070
    74
1070
     0
1000
MTEXTEND
  0
POINT
  5
344C
330
2C00
100
AcDbEntity
  8
DEFPOINTS
 62
     0
100
AcDbPoint
 10
-8.999999999999992
 20
20.0000019073488
 30
0.0
  0
POINT
  5
344D
330
2C00
100
AcDbEntity
  8
DEFPOINTS
 62
     0
100
AcDbPoint
 10
-0.0000000000000016
 20
19.21977710723881
 30
0.0
  0
POINT
  5
344E
330
2C00
100
AcDbEntity
  8
DEFPOINTS
 62
     0
100
AcDbPoint
 10
-0.0000000000000004
 20
39.0000029073491
 30
0.0
  0
ENDBLK
  5
2C0B
330
2C00
100
AcDbEntity
  8
0
100
AcDbBlockEnd
  0
BLOCK
  5
2CA3
330
2C98
100
AcDbEntity
  8
0
100
AcDbBlockBegin
  2
*D6
 70
     1
 10
0.0
 20
0.0
 30
0.0
  3
*D6
  1

  0
LINE
  5
34BD
330
2C98
100
AcDbEntity
  8
AM_5
 62
     3
100
AcDbLine
 10
-38.99993133544798
 20
-5.199995040892789
 30
0.0
 11
-55.000007629394
 21
-5.199995040892785
 31
0.0
  0
LINE
  5
34BE
330
2C98
100
AcDbEntity
  8
AM_5
 62
     3
100
AcDbLine
 10
-38.99992656707697
 20
5.20000839233521
 30
0.0
 11
-55.000007629394
 21
5.200008392335215
 31
0.0
  0
LINE
  5
34BF
330
2C98
100
AcDbEntity
  8
AM_5
 62
     3
100
AcDbLine
 10
-54.000007629394
 20
-2.699995040892785
 30
0.0
 11
-54.000007629394
 21
2.700008392335214
 31
0.0
  0
INSERT
  5
34C0
330
2C98
100
AcDbEntity
  8
AM_5
 62
     3
100
AcDbBlockReference
  2
_OPEN30
 10
-54.000007629394
 20
-5.199995040892785
 30
0.0
 41
2.5
 42
2.5
 43
2.5
 50
270.0
  0
INSERT
  5
34C1
330
2C98
100
AcDbEntity
  8
AM_5
 62
     3
100
AcDbBlockReference
  2
_OPEN30
 10
-54.000007629394
 20
5.200008392335215
 30
0.0
 41
2.5
 42
2.5
 43
2.5
 50
90.0
  0
MTEXT
  5
34C2
330
2C98
100
AcDbEntity
  8
AM_5
 62
     2
100
AcDbMText
 10
-57.40000762939399
 20
0.0000066757212062
 30
0.0
 40
3.799999999999999
 41
0.0
 71
     5
 72
     1
  1
10.4
 11
0.0000000000000001
 21
1.0
 31
0.0
1001
ACAD
1000
MTEXTBEGIN
1070
    73
1070
     1
1070
    44
1040
1.0
1070
    74
1070
     0
1000
MTEXTEND
  0
POINT
  5
34C3
330
2C98
100
AcDbEntity
  8
DEFPOINTS
 62
     0
100
AcDbPoint
 10
-38.99993133544798
 20
-5.199995040892789
 30
0.0
  0
POINT
  5
34C4
330
2C98
100
AcDbEntity
  8
DEFPOINTS
 62
     0
100
AcDbPoint
 10
-38.99992656707697
 20
5.20000839233521
 30
0.0
  0
POINT
  5
34C5
330
2C98
100
AcDbEntity
  8
DEFPOINTS
 62
     0
100
AcDbPoint
 10
-54.000007629394
 20
5.200008392335215
 30
0.0
  0
ENDBLK
  5
2CA4
330
2C98
100
AcDbEntity
  8
0
100
AcDbBlockEnd
  0
BLOCK
  5
2DA5
330
2D99
100
AcDbEntity
  8
0
100
AcDbBlockBegin
  2
*D7
 70
     1
 10
0.0
 20
0.0
 30
0.0
  3
*D7
  1

  0
LINE
  5
34F4
330
2D99
100
AcDbEntity
  8
AM_5
 62
     3
100
AcDbLine
 10
-33.69993400573697
 20
-5.199995040892789
 30
0.0
 11
-33.69993400573697
 21
-39.99999909265087
 31
0.0
  0
LINE
  5
34F5
330
2D99
100
AcDbEntity
  8
AM_5
 62
     3
100
AcDbLine
 10
-40.00000762939399
 20
-14.99999809265089
 30
0.0
 11
-40.00000762939399
 21
-39.99999909265087
 31
0.0
  0
LINE
  5
34F6
330
2D99
100
AcDbEntity
  8
AM_5
 62
     3
100
AcDbLine
 10
-31.19993400573697
 20
-38.99999909265087
 30
0.0
 11
-28.69993400573697
 21
-38.99999909265087
 31
0.0
  0
LINE
  5
34F7
330
2D99
100
AcDbEntity
  8
AM_5
 62
     3
100
AcDbLine
 10
-42.50000762939399
 20
-38.99999909265087
 30
0.0
 11
-55.96191239129876
 21
-38.99999909265087
 31
0.0
  0
LINE
  5
34F8
330
2D99
100
AcDbEntity
  8
AM_5
 62
     3
100
AcDbLine
 10
-33.69993400573697
 20
-38.99999909265087
 30
0.0
 11
-40.00000762939399
 21
-38.99999909265087
 31
0.0
  0
INSERT
  5
34F9
330
2D99
100
AcDbEntity
  8
AM_5
 62
     3
100
AcDbBlockReference
  2
_OPEN30
 10
-33.69993400573697
 20
-38.99999909265087
 30
0.0
 41
2.5
 42
2.5
 43
2.5
 50
180.0
  0
INSERT
  5
34FA
330
2D99
100
AcDbEntity
  8
AM_5
 62
     3
100
AcDbBlockReference
  2
_OPEN30
 10
-40.00000762939399
 20
-38.99999909265087
 30
0.0
 41
2.5
 42
2.5
 43
2.5
  0
MTEXT
  5
34FB
330
2D99
100
AcDbEntity
  8
AM_5
 62
     2
100
AcDbMText
 10
-50.48096001034638
 20
-35.59999909265087
 30
0.0
 40
3.799999999999999
 41
0.0
 71
     5
 72
     1
  1
6.3
1001
ACAD
1000
MTEXTBEGIN
1070
    73
1070
     1
1070
    44
1040
1.0
1070
    74
1070
     0
1000
MTEXTEND
  0
POINT
  5
34FC
330
2D99
100
AcDbEntity
  8
DEFPOINTS
 62
     0
100
AcDbPoint
 10
-33.69993400573697
 20
-5.199995040892789
 30
0.0
  0
POINT
  5
34FD
330
2D99
100
AcDbEntity
  8
DEFPOINTS
 62
     0
100
AcDbPoint
 10
-40.00000762939399
 20
-14.99999809265089
 30
0.0
  0
POINT
  5
34FE
330
2D99
100
AcDbEntity
  8
DEFPOINTS
 62
     0
100
AcDbPoint
 10
-40.00000762939399
 20
-38.99999909265087
 30
0.0
  0
ENDBLK
  5
2DA6
330
2D99
100
AcDbEntity
  8
0
100
AcDbBlockEnd
  0
BLOCK
  5
2E47
330
2E3D
100
AcDbEntity
  8
0
100
AcDbBlockBegin
  2
*D8
 70
     1
 10
0.0
 20
0.0
 30
0.0
  3
*D8
  1

  0
LINE
  5
3405
330
2E3D
100
AcDbEntity
  8
AM_5
 62
     3
100
AcDbLine
 10
-40.00000762939399
 20
-14.99999427795389
 30
0.0
 11
-40.00000762939399
 21
-49.99999909265083
 31
0.0
  0
LINE
  5
3406
330
2E3D
100
AcDbEntity
  8
AM_5
 62
     3
100
AcDbLine
 10
-19.99993085861168
 20
-11.49999809265078
 30
0.0
 11
-19.99993085861168
 21
-49.99999909265083
 31
0.0
  0
LINE
  5
3407
330
2E3D
100
AcDbEntity
  8
AM_5
 62
     3
100
AcDbLine
 10
-37.500007629394
 20
-48.99999909265083
 30
0.0
 11
-22.49993085861168
 21
-48.99999909265083
 31
0.0
  0
INSERT
  5
3408
330
2E3D
100
AcDbEntity
  8
AM_5
 62
     3
100
AcDbBlockReference
  2
_OPEN30
 10
-40.00000762939399
 20
-48.99999909265083
 30
0.0
 41
2.5
 42
2.5
 43
2.5
 50
180.0
  0
INSERT
  5
3409
330
2E3D
100
AcDbEntity
  8
AM_5
 62
     3
100
AcDbBlockReference
  2
_OPEN30
 10
-19.99993085861168
 20
-48.99999909265083
 30
0.0
 41
2.5
 42
2.5
 43
2.5
  0
MTEXT
  5
340A
330
2E3D
100
AcDbEntity
  8
AM_5
 62
     2
100
AcDbMText
 10
-29.99996924400284
 20
-45.59999909265083
 30
0.0
 40
3.799999999999999
 41
0.0
 71
     5
 72
     1
  1
20
1001
ACAD
1000
MTEXTBEGIN
1070
    73
1070
     1
1070
    44
1040
1.0
1070
    74
1070
     0
1000
MTEXTEND
  0
POINT
  5
340B
330
2E3D
100
AcDbEntity
  8
DEFPOINTS
 62
     0
100
AcDbPoint
 10
-40.00000762939399
 20
-14.99999427795389
 30
0.0
  0
POINT
  5
340C
330
2E3D
100
AcDbEntity
  8
DEFPOINTS
 62
     0
100
AcDbPoint
 10
-19.99993085861168
 20
-11.49999809265078
 30
0.0
  0
POINT
  5
340D
330
2E3D
100
AcDbEntity
  8
DEFPOINTS
 62
     0
100
AcDbPoint
 10
-19.99993085861168
 20
-48.99999909265083
 30
0.0
  0
ENDBLK
  5
2E48
330
2E3D
100
AcDbEntity
  8
0
100
AcDbBlockEnd
  0
BLOCK
  5
2ED2
330
2EC8
100
AcDbEntity
  8
0
100
AcDbBlockBegin
  2
*D9
 70
     1
 10
0.0
 20
0.0
 30
0.0
  3
*D9
  1

  0
LINE
  5
3417
330
2EC8
100
AcDbEntity
  8
AM_5
 62
     3
100
AcDbLine
 10
-40.00000762939399
 20
-14.99999809265089
 30
0.0
 11
-40.00000762939399
 21
-59.99999909265082
 31
0.0
  0
LINE
  5
3418
330
2EC8
100
AcDbEntity
  8
AM_5
 62
     3
100
AcDbLine
 10
-14.00000762939399
 20
-6.999998092650894
 30
0.0
 11
-14.000007629394
 21
-59.99999909265082
 31
0.0
  0
LINE
  5
3419
330
2EC8
100
AcDbEntity
  8
AM_5
 62
     3
100
AcDbLine
 10
-37.500007629394
 20
-58.99999909265082
 30
0.0
 11
-16.500007629394
 21
-58.99999909265082
 31
0.0
  0
INSERT
  5
341A
330
2EC8
100
AcDbEntity
  8
AM_5
 62
     3
100
AcDbBlockReference
  2
_OPEN30
 10
-40.00000762939399
 20
-58.99999909265082
 30
0.0
 41
2.5
 42
2.5
 43
2.5
 50
180.0
  0
INSERT
  5
341B
330
2EC8
100
AcDbEntity
  8
AM_5
 62
     3
100
AcDbBlockReference
  2
_OPEN30
 10
-14.000007629394
 20
-58.99999909265082
 30
0.0
 41
2.5
 42
2.5
 43
2.5
  0
MTEXT
  5
341C
330
2EC8
100
AcDbEntity
  8
AM_5
 62
     2
100
AcDbMText
 10
-27.00000762939399
 20
-55.59999909265083
 30
0.0
 40
3.799999999999999
 41
0.0
 71
     5
 72
     1
  1
26
1001
ACAD
1000
MTEXTBEGIN
1070
    73
1070
     1
1070
    44
1040
1.0
1070
    74
1070
     0
1000
MTEXTEND
  0
POINT
  5
341D
330
2EC8
100
AcDbEntity
  8
DEFPOINTS
 62
     0
100
AcDbPoint
 10
-40.00000762939399
 20
-14.99999809265089
 30
0.0
  0
POINT
  5
341E
330
2EC8
100
AcDbEntity
  8
DEFPOINTS
 62
     0
100
AcDbPoint
 10
-14.00000762939399
 20
-6.999998092650894
 30
0.0
  0
POINT
  5
341F
330
2EC8
100
AcDbEntity
  8
DEFPOINTS
 62
     0
100
AcDbPoint
 10
-14.000007629394
 20
-58.99999909265082
 30
0.0
  0
ENDBLK
  5
2ED3
330
2EC8
100
AcDbEntity
  8
0
100
AcDbBlockEnd
  0
BLOCK
  5
2F5D
330
2F53
100
AcDbEntity
  8
0
100
AcDbBlockBegin
  2
*D10
 70
     1
 10
0.0
 20
0.0
 30
0.0
  3
*D10
  1

  0
LINE
  5
342B
330
2F53
100
AcDbEntity
  8
AM_5
 62
     3
100
AcDbLine
 10
-38.99993129173658
 20
11.00000190734911
 30
0.0
 11
-65.00000762939399
 21
11.00000190734912
 31
0.0
  0
LINE
  5
342C
330
2F53
100
AcDbEntity
  8
AM_5
 62
     3
100
AcDbLine
 10
-39.00000758568259
 20
-10.99999809265078
 30
0.0
 11
-65.00000762939399
 21
-10.99999809265078
 31
0.0
  0
LINE
  5
342D
330
2F53
100
AcDbEntity
  8
AM_5
 62
     3
100
AcDbLine
 10
-64.00000762939399
 20
8.500001907349121
 30
0.0
 11
-64.00000762939399
 21
-8.499998092650779
 31
0.0
  0
INSERT
  5
342E
330
2F53
100
AcDbEntity
  8
AM_5
 62
     3
100
AcDbBlockReference
  2
_OPEN30
 10
-64.00000762939399
 20
11.00000190734912
 30
0.0
 41
2.5
 42
2.5
 43
2.5
 50
90.0
  0
INSERT
  5
342F
330
2F53
100
AcDbEntity
  8
AM_5
 62
     3
100
AcDbBlockReference
  2
_OPEN30
 10
-64.00000762939399
 20
-10.99999809265078
 30
0.0
 41
2.5
 42
2.5
 43
2.5
 50
270.0
  0
MTEXT
  5
3430
330
2F53
100
AcDbEntity
  8
AM_5
 62
     2
100
AcDbMText
 10
-67.40000762939399
 20
0.0000019073491612
 30
0.0
 40
3.799999999999999
 41
0.0
 71
     5
 72
     1
  1
%%c22
 11
0.0000000000000001
 21
1.0
 31
0.0
1001
ACAD
1000
MTEXTBEGIN
1070
    73
1070
     1
1070
    44
1040
1.0
1070
    74
1070
     0
1000
MTEXTEND
  0
POINT
  5
3431
330
2F53
100
AcDbEntity
  8
DEFPOINTS
 62
     0
100
AcDbPoint
 10
-38.99993129173658
 20
11.00000190734911
 30
0.0
  0
POINT
  5
3432
330
2F53
100
AcDbEntity
  8
DEFPOINTS
 62
     0
100
AcDbPoint
 10
-39.00000758568259
 20
-10.99999809265078
 30
0.0
  0
POINT
  5
3433
330
2F53
100
AcDbEntity
  8
DEFPOINTS
 62
     0
100
AcDbPoint
 10
-64.00000762939399
 20
-10.99999809265078
 30
0.0
  0
ENDBLK
  5
2F5E
330
2F53
100
AcDbEntity
  8
0
100
AcDbBlockEnd
  0
BLOCK
  5
3023
330
3019
100
AcDbEntity
  8
0
100
AcDbBlockBegin
  2
*D11
 70
     1
 10
0.0
 20
0.0
 30
0.0
  3
*D11
  1

  0
LINE
  5
344F
330
3019
100
AcDbEntity
  8
AM_5
 62
     3
100
AcDbLine
 10
-14.00000762939399
 20
5.500001907349208
 30
0.0
 11
16.43151001794398
 21
5.500001907349199
 31
0.0
  0
LINE
  5
3450
330
3019
100
AcDbEntity
  8
AM_5
 62
     3
100
AcDbLine
 10
-13.99993133544898
 20
-5.499998092650789
 30
0.0
 11
16.43151001794398
 21
-5.499998092650797
 31
0.0
  0
LINE
  5
3451
330
3019
100
AcDbEntity
  8
AM_5
 62
     3
100
AcDbLine
 10
15.43151001794398
 20
3.000001907349199
 30
0.0
 11
15.43151001794398
 21
-2.999998092650797
 31
0.0
  0
INSERT
  5
3452
330
3019
100
AcDbEntity
  8
AM_5
 62
     3
100
AcDbBlockReference
  2
_OPEN30
 10
15.43151001794398
 20
5.500001907349199
 30
0.0
 41
2.5
 42
2.5
 43
2.5
 50
90.0
  0
INSERT
  5
3453
330
3019
100
AcDbEntity
  8
AM_5
 62
     3
100
AcDbBlockReference
  2
_OPEN30
 10
15.43151001794398
 20
-5.499998092650797
 30
0.0
 41
2.5
 42
2.5
 43
2.5
 50
270.0
  0
MTEXT
  5
3454
330
3019
100
AcDbEntity
  8
AM_5
 62
     2
100
AcDbMText
 10
12.03151001794398
 20
0.0000019073492038
 30
0.0
 40
3.799999999999999
 41
0.0
 71
     5
 72
     1
  1
%%c11
 11
0.0000000000000001
 21
1.0
 31
0.0
1001
ACAD
1000
MTEXTBEGIN
1070
    73
1070
     1
1070
    44
1040
1.0
1070
    74
1070
     0
1000
MTEXTEND
  0
POINT
  5
3455
330
3019
100
AcDbEntity
  8
DEFPOINTS
 62
     0
100
AcDbPoint
 10
-14.00000762939399
 20
5.500001907349208
 30
0.0
  0
POINT
  5
3456
330
3019
100
AcDbEntity
  8
DEFPOINTS
 62
     0
100
AcDbPoint
 10
-13.99993133544898
 20
-5.499998092650789
 30
0.0
  0
POINT
  5
3457
330
3019
100
AcDbEntity
  8
DEFPOINTS
 62
     0
100
AcDbPoint
 10
15.43151001794398
 20
-5.499998092650797
 30
0.0
  0
ENDBLK
  5
3024
330
3019
100
AcDbEntity
  8
0
100
AcDbBlockEnd
  0
BLOCK
  5
30B7
330
30AD
100
AcDbEntity
  8
0
100
AcDbBlockBegin
  2
*D12
 70
     1
 10
0.0
 20
0.0
 30
0.0
  3
*D12
  1

  0
LINE
  5
343D
330
30AD
100
AcDbEntity
  8
AM_5
 62
     3
100
AcDbLine
 10
-0.3693695068359801
 20
24.748905897141
 30
0.0
 11
26.431510017944
 21
24.748905897141
 31
0.0
  0
LINE
  5
343E
330
30AD
100
AcDbEntity
  8
AM_5
 62
     3
100
AcDbLine
 10
0.0000000000000061
 20
-24.99999809265079
 30
0.0
 11
26.43151001794398
 21
-24.9999980926508
 31
0.0
  0
LINE
  5
343F
330
30AD
100
AcDbEntity
  8
AM_5
 62
     3
100
AcDbLine
 10
25.43151001794399
 20
22.248905897141
 30
0.0
 11
25.43151001794399
 21
-22.4999980926508
 31
0.0
  0
INSERT
  5
3440
330
30AD
100
AcDbEntity
  8
AM_5
 62
     3
100
AcDbBlockReference
  2
_OPEN30
 10
25.431510017944
 20
24.748905897141
 30
0.0
 41
2.5
 42
2.5
 43
2.5
 50
90.0
  0
INSERT
  5
3441
330
30AD
100
AcDbEntity
  8
AM_5
 62
     3
100
AcDbBlockReference
  2
_OPEN30
 10
25.43151001794398
 20
-24.9999980926508
 30
0.0
 41
2.5
 42
2.5
 43
2.5
 50
270.0
  0
MTEXT
  5
3442
330
30AD
100
AcDbEntity
  8
AM_5
 62
     2
100
AcDbMText
 10
22.03151001794399
 20
-0.1255460977548932
 30
0.0
 40
3.799999999999999
 41
0.0
 71
     5
 72
     1
  1
%%c50
 11
0.0000000000000001
 21
1.0
 31
0.0
1001
ACAD
1000
MTEXTBEGIN
1070
    73
1070
     1
1070
    44
1040
1.0
1070
    74
1070
     0
1000
MTEXTEND
  0
POINT
  5
3443
330
30AD
100
AcDbEntity
  8
DEFPOINTS
 62
     0
100
AcDbPoint
 10
-0.3693695068359801
 20
24.748905897141
 30
0.0
  0
POINT
  5
3444
330
30AD
100
AcDbEntity
  8
DEFPOINTS
 62
     0
100
AcDbPoint
 10
0.0000000000000061
 20
-24.99999809265079
 30
0.0
  0
POINT
  5
3445
330
30AD
100
AcDbEntity
  8
DEFPOINTS
 62
     0
100
AcDbPoint
 10
25.43151001794398
 20
-24.9999980926508
 30
0.0
  0
ENDBLK
  5
30B8
330
30AD
100
AcDbEntity
  8
0
100
AcDbBlockEnd
  0
BLOCK
  5
3147
330
313D
100
AcDbEntity
  8
0
100
AcDbBlockBegin
  2
*D13
 70
     1
 10
0.0
 20
0.0
 30
0.0
  3
*D13
  1

  0
LINE
  5
340E
330
313D
100
AcDbEntity
  8
AM_5
 62
     3
100
AcDbLine
 10
0.0000000000000003
 20
-19.99999809265089
 30
0.0
 11
-0.0000000000000028
 21
-69.99999909265088
 31
0.0
  0
LINE
  5
340F
330
313D
100
AcDbEntity
  8
AM_5
 62
     3
100
AcDbLine
 10
-40.00000762939399
 20
-14.99999809265089
 30
0.0
 11
-40.00000762939399
 21
-69.99999909265088
 31
0.0
  0
LINE
  5
3410
330
313D
100
AcDbEntity
  8
AM_5
 62
     3
100
AcDbLine
 10
-2.500000000000002
 20
-68.99999909265088
 30
0.0
 11
-37.500007629394
 21
-68.99999909265088
 31
0.0
  0
INSERT
  5
3411
330
313D
100
AcDbEntity
  8
AM_5
 62
     3
100
AcDbBlockReference
  2
_OPEN30
 10
-0.0000000000000027
 20
-68.99999909265088
 30
0.0
 41
2.5
 42
2.5
 43
2.5
  0
INSERT
  5
3412
330
313D
100
AcDbEntity
  8
AM_5
 62
     3
100
AcDbBlockReference
  2
_OPEN30
 10
-40.00000762939399
 20
-68.99999909265088
 30
0.0
 41
2.5
 42
2.5
 43
2.5
 50
180.0
  0
MTEXT
  5
3413
330
313D
100
AcDbEntity
  8
AM_5
 62
     2
100
AcDbMText
 10
-20.00000381469699
 20
-65.59999909265087
 30
0.0
 40
3.799999999999999
 41
0.0
 71
     5
 72
     1
  1
40
1001
ACAD
1000
MTEXTBEGIN
1070
    73
1070
     1
1070
    44
1040
1.0
1070
    74
1070
     0
1000
MTEXTEND
  0
POINT
  5
3414
330
313D
100
AcDbEntity
  8
DEFPOINTS
 62
     0
100
AcDbPoint
 10
0.0000000000000003
 20
-19.99999809265089
 30
0.0
  0
POINT
  5
3415
330
313D
100
AcDbEntity
  8
DEFPOINTS
 62
     0
100
AcDbPoint
 10
-40.00000762939399
 20
-14.99999809265089
 30
0.0
  0
POINT
  5
3416
330
313D
100
AcDbEntity
  8
DEFPOINTS
 62
     0
100
AcDbPoint
 10
-40.00000762939399
 20
-68.99999909265088
 30
0.0
  0
ENDBLK
  5
3148
330
313D
100
AcDbEntity
  8
0
100
AcDbBlockEnd
  0
ENDSEC
  0
SECTION
  2
ENTITIES
  0
TEXT
  5
1142
330
1F
100
AcDbEntity
  8
AM_6
100
AcDbText
 10
-39.04762286231605
 20
-91.49999909265089
 30
0.0
 40
5.0
  1
WEM2050F
 72
     4
 11
-20.000003814697
 21
-88.99999909265089
 31
0.0
100
AcDbText
  0
DIMENSION
  5
2BFF
330
1F
100
AcDbEntity
  8
AM_5
100
AcDbDimension
  2
*D5
 10
-0.0000000000000004
 20
39.0000029073491
 30
0.0
 11
-4.499999999999995
 21
42.40000290734911
 31
0.0
 70
    32
  1
<>
  3
AM_JIS$0
100
AcDbAlignedDimension
 13
-8.999999999999992
 23
20.0000019073488
 33
0.0
 14
-0.0000000000000016
 24
19.21977710723881
 34
0.0
 50
180.0
100
AcDbRotatedDimension
1001
ACAD
1000
DSTYLE
1002
{
1070
   271
1070
     0
1002
}
1001
GENIUS_GENDTOL_13
1000

1000
h7
1000

1040
0.0
  0
DIMENSION
  5
2C97
330
1F
100
AcDbEntity
  8
AM_5
100
AcDbDimension
  2
*D6
 10
-54.000007629394
 20
5.200008392335215
 30
0.0
 11
-54.000007629394
 21
0.0000066757212058
 31
0.0
 70
   160
  1
<>
  3
AM_JIS$0
100
AcDbAlignedDimension
 13
-38.99993133544798
 23
-5.199995040892789
 33
0.0
 14
-38.99992656707697
 24
5.20000839233521
 34
0.0
 50
270.0
100
AcDbRotatedDimension
1001
ACAD
1000
DSTYLE
1002
{
1070
   271
1070
     1
1002
}
1001
GENIUS_GENDTOL_13
1000

1000
h7
1000

1040
0.0
  0
DIMENSION
  5
2D98
330
1F
100
AcDbEntity
  8
AM_5
100
AcDbDimension
  2
*D7
 10
-40.00000762939399
 20
-38.99999909265087
 30
0.0
 11
-50.48096001034638
 21
-35.59999909265087
 31
0.0
 70
    32
  1
<>
  3
AM_JIS$0
100
AcDbAlignedDimension
 13
-33.69993400573697
 23
-5.199995040892789
 33
0.0
 14
-40.00000762939399
 24
-14.99999809265089
 34
0.0
 50
0.0000000000001132
100
AcDbRotatedDimension
1001
ACAD
1000
DSTYLE
1002
{
1070
   271
1070
     1
1002
}
1001
GENIUS_GENDTOL_13
1000

1000
h7
1000

1040
0.0
  0
DIMENSION
  5
2E3C
330
1F
100
AcDbEntity
  8
AM_5
100
AcDbDimension
  2
*D8
 10
-19.99993085861168
 20
-48.99999909265083
 30
0.0
 11
-29.99996924400284
 21
-45.59999909265083
 31
0.0
 70
    32
  1
<>
  3
AM_JIS$0
100
AcDbAlignedDimension
 13
-40.00000762939399
 23
-14.99999427795389
 33
0.0
 14
-19.99993085861168
 24
-11.49999809265078
 34
0.0
 50
0.0000000000001132
100
AcDbRotatedDimension
1001
ACAD
1000
DSTYLE
1002
{
1070
   271
1070
     0
1002
}
1001
GENIUS_GENDTOL_13
1000

1000
h7
1000

1040
0.0
  0
DIMENSION
  5
2EC7
330
1F
100
AcDbEntity
  8
AM_5
100
AcDbDimension
  2
*D9
 10
-14.000007629394
 20
-58.99999909265082
 30
0.0
 11
-27.00000762939399
 21
-55.59999909265083
 31
0.0
 70
    32
  1
<>
  3
AM_JIS$0
100
AcDbAlignedDimension
 13
-40.00000762939399
 23
-14.99999809265089
 33
0.0
 14
-14.00000762939399
 24
-6.999998092650894
 34
0.0
 50
0.0000000000001132
100
AcDbRotatedDimension
1001
ACAD
1000
DSTYLE
1002
{
1070
   271
1070
     0
1002
}
1001
GENIUS_GENDTOL_13
1000

1000
h7
1000

1040
0.0
  0
DIMENSION
  5
2F52
330
1F
100
AcDbEntity
  8
AM_5
100
AcDbDimension
  2
*D10
 10
-64.00000762939399
 20
-10.99999809265078
 30
0.0
 11
-67.40000762939399
 21
0.0000019073491612
 31
0.0
 70
    32
  1
%%c<>
  3
AM_JIS$0
100
AcDbAlignedDimension
 13
-38.99993129173658
 23
11.00000190734911
 33
0.0
 14
-39.00000758568259
 24
-10.99999809265078
 34
0.0
 50
270.0
100
AcDbRotatedDimension
1001
ACAD
1000
DSTYLE
1002
{
1070
   271
1070
     0
1002
}
1001
GENIUS_GENDTOL_13
1000

1000
h7
1000

1040
0.0
  0
DIMENSION
  5
3018
330
1F
100
AcDbEntity
  8
AM_5
100
AcDbDimension
  2
*D11
 10
15.43151001794398
 20
-5.499998092650797
 30
0.0
 11
12.03151001794398
 21
0.0000019073492038
 31
0.0
 70
    32
  1
%%c<>
  3
AM_JIS$0
100
AcDbAlignedDimension
 13
-14.00000762939399
 23
5.500001907349208
 33
0.0
 14
-13.99993133544898
 24
-5.499998092650789
 34
0.0
 50
90.0
100
AcDbRotatedDimension
1001
ACAD
1000
DSTYLE
1002
{
1070
   271
1070
     0
1002
}
1001
GENIUS_GENDTOL_13
1000

1000
h7
1000

1040
0.0
  0
DIMENSION
  5
30AC
330
1F
100
AcDbEntity
  8
AM_5
100
AcDbDimension
  2
*D12
 10
25.43151001794398
 20
-24.9999980926508
 30
0.0
 11
22.03151001794399
 21
-0.1255460977548932
 31
0.0
 70
    32
  1
%%c<>
  3
AM_JIS$0
100
AcDbAlignedDimension
 13
-0.3693695068359801
 23
24.748905897141
 33
0.0
 14
0.0000000000000061
 24
-24.99999809265079
 34
0.0
 50
90.00000000000003
100
AcDbRotatedDimension
1001
ACAD
1000
DSTYLE
1002
{
1070
   271
1070
     0
1002
}
1001
GENIUS_GENDTOL_13
1000

1000
h7
1000

1040
0.0
  0
DIMENSION
  5
313C
330
1F
100
AcDbEntity
  8
AM_5
100
AcDbDimension
  2
*D13
 10
-40.00000762939399
 20
-68.99999909265088
 30
0.0
 11
-20.00000381469699
 21
-65.59999909265087
 31
0.0
 70
    32
  1
<>
  3
AM_JIS$0
100
AcDbAlignedDimension
 13
0.0000000000000003
 23
-19.99999809265089
 33
0.0
 14
-40.00000762939399
 24
-14.99999809265089
 34
0.0
 50
0.0000000000001132
100
AcDbRotatedDimension
1001
ACAD
1000
DSTYLE
1002
{
1070
   271
1070
     0
1002
}
1001
GENIUS_GENDTOL_13
1000

1000
h7
1000

1040
0.0
  0
LINE
  5
3300
330
1F
100
AcDbEntity
  8
AM_7
  6
AM_ISO08W050X2
100
AcDbLine
 10
1.431509017944016
 20
0.0000019073492082
 30
0.0
 11
-38.15482616424498
 21
0.000001907349213
 31
0.0
  0
LINE
  5
3301
330
1F
100
AcDbEntity
  8
AM_0
100
AcDbLine
 10
-38.99993133544798
 20
-10.99999809265078
 30
0.0
 11
-22.99993109703028
 21
-10.99999809265078
 31
0.0
  0
LINE
  5
3302
330
1F
100
AcDbEntity
  8
AM_0
100
AcDbLine
 10
-38.99993133544798
 20
11.00000190734921
 30
0.0
 11
-22.99993109703028
 21
11.00000190734921
 31
0.0
  0
LINE
  5
3303
330
1F
100
AcDbEntity
  8
AM_0
100
AcDbLine
 10
-27.99990344047518
 20
-20.00002098083379
 30
0.0
 11
-20.74110651016198
 21
-21.94502449035578
 31
0.0
  0
LINE
  5
3304
330
1F
100
AcDbEntity
  8
AM_0
100
AcDbLine
 10
-20.74110078811608
 20
21.94488894939471
 30
0.0
 11
-27.99990344047518
 21
19.99988210201311
 31
0.0
  0
LWPOLYLINE
  5
3305
330
1F
100
AcDbEntity
  8
AM_11
100
AcDbPolyline
 90
        4
 70
     1
 43
0.0
 10
0.0000000000000046
 20
-24.99999809265079
 10
-8.999999999999985
 20
-24.99999809265079
 10
-8.999999999999975
 20
25.0000019073491
 10
0.0000000000000143
 20
25.0000019073491
1001
GENIUS_GENREC_14
1002
{
1000
PYDIR
1011
0.0000000000000143
1021
25.0000019073491
1031
0.0
1002
}
1002
{
1000
PXDIR
1011
-8.999999999999985
1021
-24.99999809265079
1031
0.0
1002
}
1002
{
1000
PORI
1011
0.0000000000000046
1021
-24.99999809265079
1031
0.0
1002
}
1002
{
1000
PINS
1011
0.0000000000000046
1021
-24.99999809265079
1031
0.0
1002
}
1002
{
1000
PINS2
1011
-8.999999999999978
1021
25.0000019073491
1031
0.0
1002
}
1002
{
1000
C
1070
     1
1002
}
1001
GENIUS_GENODEF_13
1002
{
1000
HIER
1070
     0
1002
}
1002
{
1000
MANEDIT
1070
     0
1002
}
1002
{
1000
NOSEL
1070
     0
1002
}
1002
{
1000
BEHIND
1070
     0
1002
}
1002
{
1000
REACTOR
1002
}
1001
GENIUS_GENOBJ-N-REC_13
1002
{
1000
OWNER
1000
GEN
1002
}
  0
SPLINE
  5
3306
330
1F
100
AcDbEntity
  8
AM_0
100
AcDbSpline
210
0.0
220
0.0
230
1.0
 70
     8
 71
     3
 72
    11
 73
     7
 74
     5
 42
0.0000000001
 43
0.0000000001
 44
0.0000000001
 40
0.0
 40
0.0
 40
0.0
 40
0.0
 40
1.06451294975862
 40
2.137140765756596
 40
3.209761490630761
 40
4.273425786156138
 40
4.273425786156138
 40
4.273425786156138
 40
4.273425786156138
 10
-5.110923767089978
 20
23.0134239196782
 30
0.0
 10
-4.751109782118828
 20
22.91227141904554
 30
0.0
 10
-4.028738921768524
 20
22.70919532428378
 30
0.0
 10
-3.618501818332785
 20
21.55989161968105
 30
0.0
 10
-4.10841978502623
 20
20.44255906627673
 30
0.0
 10
-4.842916923298817
 20
20.2906968439663
 30
0.0
 10
-5.208625793456977
 20
20.2150840759282
 30
0.0
 11
-5.110923767089978
 21
23.0134239196782
 31
0.0
 11
-4.142936706542979
 21
22.570491790772
 31
0.0
 11
-3.768928527831978
 21
21.5651817321782
 31
0.0
 11
-4.212730407714978
 21
20.5886802673345
 31
0.0
 11
-5.208625793456977
 21
20.2150840759282
 31
0.0
  0
SPLINE
  5
3307
330
1F
100
AcDbEntity
  8
AM_0
100
AcDbSpline
210
0.0
220
0.0
230
1.0
 70
     8
 71
     3
 72
    11
 73
     7
 74
     5
 42
0.0000000001
 43
0.0000000001
 44
0.0000000001
 40
0.0
 40
0.0
 40
0.0
 40
0.0
 40
1.331316683908145
 40
2.673103043809398
 40
4.010706230513101
 40
5.351149893725551
 40
5.351149893725551
 40
5.351149893725551
 40
5.351149893725551
 10
-5.272438049316978
 20
23.3691978454595
 30
0.0
 10
-5.729362358993814
 20
23.27338805830752
 30
0.0
 10
-6.646804300307254
 20
23.08101502132968
 30
0.0
 10
-7.266761030346899
 20
21.68968884590569
 30
0.0
 10
-6.756352983319728
 20
20.24694391840087
 30
0.0
 10
-5.848797780869422
 20
19.99658518117047
 30
0.0
 10
-5.394538879394978
 20
19.871273040772
 30
0.0
 11
-5.272438049316978
 21
23.3691978454595
 31
0.0
 11
-6.51813507080098
 21
22.8994712829595
 31
0.0
 11
-7.078224182128977
 21
21.6801719665532
 31
0.0
 11
-6.61513519287098
 21
20.4252891540532
 31
0.0
 11
-5.394538879394978
 21
19.871273040772
 31
0.0
  0
SPLINE
  5
3308
330
1F
100
AcDbEntity
  8
AM_0
100
AcDbSpline
210
0.0
220
0.0
230
1.0
 70
     8
 71
     3
 72
    11
 73
     7
 74
     5
 42
0.0000000001
 43
0.0000000001
 44
0.0000000001
 40
0.0
 40
0.0
 40
0.0
 40
0.0
 40
1.340881293567895
 40
2.677336929420848
 40
4.019226084941259
 40
5.347551490878214
 40
5.347551490878214
 40
5.347551490878214
 40
5.347551490878214
 10
-5.394538879394978
 20
19.871273040772
 30
0.0
 10
-4.932464865846172
 20
19.96502523819165
 30
0.0
 10
-4.009841941255952
 20
20.15222019837942
 30
0.0
 10
-3.402918951672213
 20
21.55648342611903
 30
0.0
 10
-3.92378185725507
 20
22.98592252187194
 30
0.0
 10
-4.824410944824276
 20
23.24187278332643
 30
0.0
 10
-5.272438049316978
 20
23.3691978454595
 30
0.0
 11
-5.394538879394978
 21
19.871273040772
 31
0.0
 11
-4.13832855224598
 21
20.3402061462407
 31
0.0
 11
-3.59113311767598
 21
21.559505462647
 31
0.0
 11
-4.06533050537098
 21
22.8148155212407
 31
0.0
 11
-5.272438049316978
 21
23.3691978454595
 31
0.0
  0
SPLINE
  5
3309
330
1F
100
AcDbEntity
  8
AM_0
100
AcDbSpline
210
0.0
220
0.0
230
1.0
 70
     8
 71
     3
 72
    11
 73
     7
 74
     5
 42
0.0000000001
 43
0.0000000001
 44
0.0000000001
 40
0.0
 40
0.0
 40
0.0
 40
0.0
 40
1.054438275565414
 40
2.108965979854029
 40
3.163593432977306
 40
4.218385955658157
 40
4.218385955658157
 40
4.218385955658157
 40
4.218385955658157
 10
-9.924934387206977
 20
24.1895103454595
 30
0.0
 10
-9.984280743786715
 20
23.84307738323514
 30
0.0
 10
-10.10297849021273
 20
23.15018207721121
 30
0.0
 10
-10.28076143317952
 20
22.11074512538463
 30
0.0
 10
-10.45846228457465
 20
21.0711743474883
 30
0.0
 10
-10.57683399058895
 20
20.37806974574196
 30
0.0
 10
-10.63602447509798
 20
20.0314903259282
 30
0.0
 11
-9.924934387206977
 21
24.1895103454595
 31
0.0
 11
-10.10292816162097
 21
23.1502037048345
 31
0.0
 11
-10.28073883056697
 21
22.110774993897
 31
0.0
 11
-10.45842742919898
 21
21.071224212647
 31
0.0
 11
-10.63602447509798
 21
20.0314903259282
 31
0.0
  0
SPLINE
  5
330A
330
1F
100
AcDbEntity
  8
AM_0
100
AcDbSpline
210
0.0
220
0.0
230
1.0
 70
     8
 71
     3
 72
    11
 73
     7
 74
     5
 42
0.0000000001
 43
0.0000000001
 44
0.0000000001
 40
0.0
 40
0.0
 40
0.0
 40
0.0
 40
1.051200602323006
 40
2.102506660480781
 40
3.153812718638698
 40
4.205284650436051
 40
4.205284650436051
 40
4.205284650436051
 40
4.205284650436051
 10
-0.6756362915039781
 20
19.0487022399907
 30
0.0
 10
-0.6252553628886509
 20
19.39546161394414
 30
0.0
 10
-0.5244884514724575
 20
20.0890151485503
 30
0.0
 10
-0.3735455683926772
 20
21.12939333496571
 30
0.0
 10
-0.2224814444498825
 20
22.16984531611348
 30
0.0
 10
-0.1219180492366208
 20
22.86351977823928
 30
0.0
 10
-0.0716323852539775
 20
23.210384368897
 30
0.0
 11
-0.6756362915039781
 21
19.0487022399907
 31
0.0
 11
-0.52452850341798
 21
20.0889854431157
 31
0.0
 11
-0.3735275268559772
 21
21.1293907165532
 31
0.0
 11
-0.2225265502929797
 21
22.1697959899907
 31
0.0
 11
-0.0716323852539775
 21
23.210384368897
 31
0.0
  0
ELLIPSE
  5
330B
330
1F
100
AcDbEntity
  8
AM_0
100
AcDbEllipse
 10
-4.754737854003977
 20
21.5107994079595
 30
0.0
 11
0.9011383524979981
 21
-0.9130858329984
 31
0.0
210
0.0
220
0.0
230
1.0
 40
0.9508988519415998
 41
2.500066514080984
 42
5.297898696110535
  0
SPLINE
  5
330C
330
1F
100
AcDbEntity
  8
AM_0
100
AcDbSpline
210
0.0
220
0.0
230
1.0
 70
     8
 71
     3
 72
    11
 73
     7
 74
     5
 42
0.0000000001
 43
0.0000000001
 44
0.0000000001
 40
0.0
 40
0.0
 40
0.0
 40
0.0
 40
1.972379278104614
 40
3.841886616254221
 40
5.619713183971374
 40
7.31870225565513
 40
7.31870225565513
 40
7.31870225565513
 40
7.31870225565513
 10
-11.96782684326197
 20
18.8853111267095
 30
0.0
 10
-12.61942660284526
 20
18.9753709021087
 30
0.0
 10
-13.88864111107269
 20
19.15079327122908
 30
0.0
 10
-15.71471974340596
 20
19.5772267985662
 30
0.0
 10
-17.42082529346015
 20
20.10335117685964
 30
0.0
 10
-18.48158026578373
 20
20.57237606516388
 30
0.0
 10
-18.99993133544887
 20
20.80157089233451
 30
0.0
 11
-11.96782684326197
 21
18.8853111267095
 31
0.0
 11
-13.91713714599598
 21
19.1860923767095
 31
0.0
 11
-15.73892974853477
 21
19.60577011108451
 31
0.0
 11
-17.43323516845667
 21
20.14428329467821
 31
0.0
 11
-18.99993133544887
 21
20.80157089233451
 31
0.0
  0
ARC
  5
330D
330
1F
100
AcDbEntity
  8
AM_0
100
AcDbCircle
 10
-5.09772491455098
 20
21.611995697022
 30
0.0
 40
1.4000109434128
100
AcDbArc
 50
89.0054673108545
 51
266.6256090167341
  0
ARC
  5
330E
330
1F
100
AcDbEntity
  8
AM_0
100
AcDbCircle
 10
-5.229331970214978
 20
21.6165733337407
 30
0.0
 40
1.7500646114349
100
AcDbArc
 50
89.21423204283472
 51
266.0844326382311
  0
ARC
  5
330F
330
1F
100
AcDbEntity
  8
AM_0
100
AcDbCircle
 10
-5.180824279784978
 20
21.5256919860845
 30
0.0
 40
1.2500605583191
100
AcDbArc
 50
88.00121776700065
 51
267.9964757944817
  0
ARC
  5
3310
330
1F
100
AcDbEntity
  8
AM_0
100
AcDbCircle
 10
-5.180824279784978
 20
21.5256919860845
 30
0.0
 40
1.249964118003799
100
AcDbArc
 50
267.9964757944817
 51
88.00121412453099
  0
ARC
  5
3311
330
1F
100
AcDbEntity
  8
AM_0
100
AcDbCircle
 10
-9.66103363037098
 20
19.2719688415532
 30
0.0
 40
1.9887183904648
100
AcDbArc
 50
114.7183974602859
 51
187.2966518167376
  0
ARC
  5
3312
330
1F
100
AcDbEntity
  8
AM_0
100
AcDbCircle
 10
-9.73413848876998
 20
19.5635948181157
 30
0.0
 40
1.988522171974199
100
AcDbArc
 50
110.2511873657202
 51
194.0640365435586
  0
SPLINE
  5
3313
330
1F
100
AcDbEntity
  8
AM_0
100
AcDbSpline
210
0.0
220
0.0
230
1.0
 70
     8
 71
     3
 72
    11
 73
     7
 74
     5
 42
0.0000000001
 43
0.0000000001
 44
0.0000000001
 40
0.0
 40
0.0
 40
0.0
 40
0.0
 40
2.187338889737712
 40
4.371519364267697
 40
6.552577503370827
 40
8.730686462310012
 40
8.730686462310012
 40
8.730686462310012
 40
8.730686462310012
 10
-0.3693313598629792
 20
24.7488975524907
 30
0.0
 10
-1.098362476365633
 20
24.75983225315154
 30
0.0
 10
-2.555372022484575
 20
24.78168586527612
 30
0.0
 10
-4.739378739886536
 20
24.81025418565879
 30
0.0
 10
-6.920343083406404
 20
24.83604511023253
 30
0.0
 10
-8.373326756511964
 20
24.85054115332141
 30
0.0
 10
-9.099327087401977
 20
24.85778427124071
 30
0.0
 11
-0.3693313598629792
 21
24.7488975524907
 31
0.0
 11
-2.556434631347979
 21
24.7810020446782
 31
0.0
 11
-4.740425109862979
 21
24.8098106384282
 31
0.0
 11
-6.921333312987979
 21
24.835384368897
 31
0.0
 11
-9.099327087401977
 21
24.85778427124071
 31
0.0
  0
SPLINE
  5
3314
330
1F
100
AcDbEntity
  8
AM_0
100
AcDbSpline
210
0.0
220
0.0
230
1.0
 70
     8
 71
     3
 72
    11
 73
     7
 74
     5
 42
0.0000000001
 43
0.0000000001
 44
0.0000000001
 40
0.0
 40
0.0
 40
0.0
 40
0.0
 40
0.2876727102592795
 40
0.5765023683986791
 40
0.8648502775016721
 40
1.150982290932054
 40
1.150982290932054
 40
1.150982290932054
 40
1.150982290932054
 10
-9.099327087401977
 20
24.85778427124071
 30
0.0
 10
-9.1960091958192
 20
24.85028355337308
 30
0.0
 10
-9.38976224397615
 20
24.83525195162163
 30
0.0
 10
-9.646457810894915
 20
24.6879233866409
 30
0.0
 10
-9.845539005513591
 20
24.46879971249614
 30
0.0
 10
-9.898537402141272
 20
24.28236709724322
 30
0.0
 10
-9.924934387206977
 20
24.1895103454595
 30
0.0
 11
-9.099327087401977
 21
24.85778427124071
 31
0.0
 11
-9.383735656737979
 21
24.8145713806157
 31
0.0
 11
-9.637031555175978
 21
24.6757774353032
 31
0.0
 11
-9.826026916503979
 21
24.45800399780321
 31
0.0
 11
-9.924934387206977
 21
24.1895103454595
 31
0.0
  0
SPLINE
  5
3315
330
1F
100
AcDbEntity
  8
AM_0
100
AcDbSpline
210
0.0
220
0.0
230
1.0
 70
     8
 71
     3
 72
    11
 73
     7
 74
     5
 42
0.0000000001
 43
0.0000000001
 44
0.0000000001
 40
0.0
 40
0.0
 40
0.0
 40
0.0
 40
0.1143908836343309
 40
0.2295159150744226
 40
0.3451600617232366
 40
0.4605379410194005
 40
0.4605379410194005
 40
0.4605379410194005
 40
0.4605379410194005
 10
0.0000686645510228
 20
24.3373985290532
 30
0.0
 10
-0.000516822137822
 20
24.3757904466619
 30
0.0
 10
-0.0016915531031294
 20
24.45282067688189
 30
0.0
 10
-0.0442791641012363
 20
24.56199758985653
 30
0.0
 10
-0.116032550969795
 20
24.65561707065473
 30
0.0
 10
-0.1832600262637164
 20
24.69450356856595
 30
0.0
 10
-0.2168350219729795
 20
24.7139244079595
 30
0.0
 11
0.0000686645510228
 21
24.3373985290532
 31
0.0
 11
-0.008430480956978
 21
24.4514732360845
 31
0.0
 11
-0.0490341186519778
 21
24.5592002868657
 31
0.0
 11
-0.1209335327149787
 21
24.6497764587407
 31
0.0
 11
-0.2168350219729795
 21
24.7139244079595
 31
0.0
  0
ELLIPSE
  5
3316
330
1F
100
AcDbEntity
  8
AM_0
100
AcDbEllipse
 10
38.24725341796902
 20
-16.13239097595079
 30
0.0
 11
60.42945423526098
 21
-37.65869003741501
 31
0.0
210
0.0
220
0.0
230
1.0
 40
0.0358761136594
 41
2.94385150028398
 42
3.091681489737188
  0
ELLIPSE
  5
3317
330
1F
100
AcDbEntity
  8
AM_0
100
AcDbEllipse
 10
-129.00227355957
 20
-0.0114192962637764
 30
0.0
 11
-926.2906300463001
 21
-2.500976609161889
 31
0.0
210
0.0
220
0.0
230
1.0
 40
0.0260482294188
 41
4.585641793080764
 42
4.593285422070587
  0
SPLINE
  5
3318
330
1F
100
AcDbEntity
  8
AM_0
100
AcDbSpline
210
0.0
220
0.0
230
1.0
 70
     8
 71
     3
 72
    11
 73
     7
 74
     5
 42
0.0000000001
 43
0.0000000001
 44
0.0000000001
 40
0.0
 40
0.0
 40
0.0
 40
0.0
 40
0.3892080287732555
 40
0.7797651978646379
 40
1.17097098559655
 40
1.5620093495063
 40
1.5620093495063
 40
1.5620093495063
 40
1.5620093495063
 10
-19.99993133544887
 20
23.24608993530321
 30
0.0
 10
-19.98507175412146
 20
23.3767981208343
 30
0.0
 10
-19.95530108261072
 20
23.63866757526058
 30
0.0
 10
-19.72485362296037
 20
23.96990016217837
 30
0.0
 10
-19.39399426766853
 20
24.20226557331055
 30
0.0
 10
-19.13126690233085
 20
24.232419838342
 30
0.0
 10
-18.99993133544887
 20
24.24749374389701
 30
0.0
 11
-19.99993133544887
 21
23.24608993530321
 31
0.0
 11
-19.92453765869107
 21
23.62792587280321
 31
0.0
 11
-19.70833587646447
 21
23.95318222045951
 31
0.0
 11
-19.38343048095667
 21
24.17107772827201
 31
0.0
 11
-18.99993133544887
 21
24.24749374389701
 31
0.0
  0
SPLINE
  5
3319
330
1F
100
AcDbEntity
  8
AM_0
100
AcDbSpline
210
0.0
220
0.0
230
1.0
 70
     8
 71
     3
 72
    11
 73
     7
 74
     5
 42
0.0000000001
 43
0.0000000001
 44
0.0000000001
 40
0.0
 40
0.0
 40
0.0
 40
0.0
 40
0.3255228749847496
 40
0.6515980608458274
 40
0.9782682084277753
 40
1.304923507887692
 40
1.304923507887692
 40
1.304923507887692
 40
1.304923507887692
 10
-19.99993133544887
 20
22.90630722045951
 30
0.0
 10
-20.01021975450635
 20
22.79722184580666
 30
0.0
 10
-20.03081404886227
 20
22.5788660126144
 30
0.0
 10
-20.19310402011892
 20
22.28730260728466
 30
0.0
 10
-20.43207108877033
 20
22.05370330741313
 30
0.0
 10
-20.63810993324433
 20
21.97676028113287
 30
0.0
 10
-20.74112701415978
 20
21.93828964233451
 30
0.0
 11
-19.99993133544887
 21
22.90630722045951
 31
0.0
 11
-20.05263519287078
 21
22.58507919311571
 31
0.0
 11
-20.20572662353477
 21
22.29717636108451
 31
0.0
 11
-20.44373321533167
 21
22.07342147827201
 31
0.0
 11
-20.74112701415978
 21
21.93828964233451
 31
0.0
  0
SPLINE
  5
331A
330
1F
100
AcDbEntity
  8
AM_0
100
AcDbSpline
210
0.0
220
0.0
230
1.0
 70
     8
 71
     3
 72
    11
 73
     7
 74
     5
 42
0.0000000001
 43
0.0000000001
 44
0.0000000001
 40
0.0
 40
0.0
 40
0.0
 40
0.0
 40
0.0235847032725974
 40
0.0512089783206942
 40
0.0898583343909339
 40
0.1423158253457166
 40
0.1423158253457166
 40
0.1423158253457166
 40
0.1423158253457166
 10
-19.99993133544887
 20
21.06267929077201
 30
0.0
 10
-20.00284720335914
 20
21.05502219113919
 30
0.0
 10
-20.00917836703235
 20
21.03839648910833
 30
0.0
 10
-20.03969165245703
 20
21.02707764673967
 30
0.0
 10
-20.07884833930867
 20
21.02505159137172
 30
0.0
 10
-20.10910965251383
 20
21.02913765349918
 30
0.0
 10
-20.12653350830047
 20
21.03149032592821
 30
0.0
 11
-19.99993133544887
 21
21.06267929077201
 31
0.0
 11
-20.01102447509727
 21
21.04186630249071
 31
0.0
 11
-20.03583526611298
 21
21.02972030639701
 31
0.0
 11
-20.07433319091767
 21
21.026302337647
 31
0.0
 11
-20.12653350830047
 21
21.03149032592821
 31
0.0
  0
SPLINE
  5
331B
330
1F
100
AcDbEntity
  8
AM_0
100
AcDbSpline
210
0.0
220
0.0
230
1.0
 70
     8
 71
     3
 72
    11
 73
     7
 74
     5
 42
0.0000000001
 43
0.0000000001
 44
0.0000000001
 40
0.0
 40
0.0
 40
0.0
 40
0.0
 40
0.0697438504454431
 40
0.2541843677722955
 40
0.5709068033474925
 40
1.072381352752286
 40
1.072381352752286
 40
1.072381352752286
 40
1.072381352752286
 10
-19.99993133544887
 20
21.12469100952201
 30
0.0
 10
-19.97896998937778
 20
21.13633121820227
 30
0.0
 10
-19.90257549058385
 20
21.17875444355095
 30
0.0
 10
-19.7096720672856
 20
21.08623333060407
 30
0.0
 10
-19.40293930052081
 20
20.99033183766871
 30
0.0
 10
-19.15307416866548
 20
20.87329996092492
 30
0.0
 10
-18.99993133544887
 20
20.80157089233451
 30
0.0
 11
-19.99993133544887
 21
21.12469100952201
 31
0.0
 11
-19.93633270263637
 21
21.1533164978032
 31
0.0
 11
-19.75653839111298
 21
21.11217880249071
 31
0.0
 11
-19.45952606201137
 21
21.00219345092821
 31
0.0
 11
-18.99993133544887
 21
20.80157089233451
 31
0.0
  0
LINE
  5
331C
330
1F
100
AcDbEntity
  8
AM_0
100
AcDbLine
 10
-0.3693695068359801
 20
24.748905897141
 30
0.0
 11
-0.2168941497799785
 21
24.7139377593999
 31
0.0
  0
LINE
  5
331D
330
1F
100
AcDbEntity
  8
AM_0
100
AcDbLine
 10
-0.2168464660649789
 20
24.7139024734502
 30
0.0
 11
-0.3685379028319779
 21
24.7488727569585
 31
0.0
  0
LINE
  5
331E
330
1F
100
AcDbEntity
  8
AM_0
100
AcDbLine
 10
-0.0716991424559803
 20
23.2104709148412
 30
0.0
 11
0.0000000000000213
 21
24.3374648094182
 31
0.0
  0
LINE
  5
331F
330
1F
100
AcDbEntity
  8
AM_0
100
AcDbLine
 10
-11.96782684326197
 20
24.2499961853032
 30
0.0
 11
-18.99993133544887
 21
24.24999618530321
 31
0.0
  0
LINE
  5
3320
330
1F
100
AcDbEntity
  8
AM_0
100
AcDbLine
 10
-9.929840087890978
 20
24.1609969139104
 30
0.0
 11
-11.96783065795897
 21
24.2499859333043
 31
0.0
  0
LINE
  5
3321
330
1F
100
AcDbEntity
  8
AM_0
100
AcDbLine
 10
-9.931108474731978
 20
24.1537353992467
 30
0.0
 11
-11.96780967712397
 21
24.244250774384
 31
0.0
  0
LINE
  5
3322
330
1F
100
AcDbEntity
  8
AM_0
100
AcDbLine
 10
-11.96782684326197
 20
24.2441978454595
 30
0.0
 11
-11.96782684326197
 21
24.2499961853032
 31
0.0
  0
ARC
  5
3323
330
1F
100
AcDbEntity
  8
AM_0
100
AcDbCircle
 10
-20.99993133544888
 20
22.91088485717821
 30
0.0
 40
0.9999701380729998
100
AcDbArc
 50
284.9993301482552
 51
0.0000050089577454
  0
ARC
  5
3324
330
1F
100
AcDbEntity
  8
AM_0
100
AcDbCircle
 10
-18.99993133544887
 20
23.24999618530321
 30
0.0
 40
1.0
100
AcDbArc
 50
89.9999974955211
 51
180.0
  0
LINE
  5
3325
330
1F
100
AcDbEntity
  8
AM_0
100
AcDbLine
 10
-19.99993133544887
 20
23.24608993530321
 30
0.0
 11
-19.99993133544887
 21
22.90630722045951
 31
0.0
  0
LINE
  5
3326
330
1F
100
AcDbEntity
  8
AM_0
100
AcDbLine
 10
-20.74111843109097
 20
21.93831110000661
 30
0.0
 11
-22.03942871093718
 21
21.59022730588961
 31
0.0
  0
LINE
  5
3327
330
1F
100
AcDbEntity
  8
AM_0
100
AcDbLine
 10
-20.12647199630707
 20
21.03157251700811
 30
0.0
 11
-20.74106836318937
 21
21.22255238890701
 31
0.0
  0
SPLINE
  5
3328
330
1F
100
AcDbEntity
  8
AM_0
100
AcDbSpline
210
0.0
220
0.0
230
1.0
 70
     8
 71
     3
 72
    11
 73
     7
 74
     5
 42
0.0000000001
 43
0.0000000001
 44
0.0000000001
 40
0.0
 40
0.0
 40
0.0
 40
0.0
 40
0.0199720295977191
 40
0.0399286649192464
 40
0.0601317222874306
 40
0.0802797962359903
 40
0.0802797962359903
 40
0.0802797962359903
 40
0.0802797962359903
 10
-0.8941268920899839
 20
-17.33148384094179
 30
0.0
 10
-0.8961638220371812
 20
-17.32514541671875
 30
0.0
 10
-0.9002361118827215
 20
-17.31247345387796
 30
0.0
 10
-0.9069680362031842
 20
-17.29359042366328
 30
0.0
 10
-0.9142996882576374
 20
-17.27486660776084
 30
0.0
 10
-0.9197236568964687
 20
-17.26255701063868
 30
0.0
 10
-0.9224319458009853
 20
-17.25641059875379
 30
0.0
 11
-0.8941268920899839
 21
-17.33148384094179
 31
0.0
 11
-0.9003372192379844
 21
-17.31250190734779
 31
0.0
 11
-0.9070358276369832
 21
-17.29370307922279
 31
0.0
 11
-0.9144363403319831
 21
-17.27490425109779
 31
0.0
 11
-0.9224319458009853
 21
-17.25641059875379
 31
0.0
  0
SPLINE
  5
3329
330
1F
100
AcDbEntity
  8
AM_0
100
AcDbSpline
210
0.0
220
0.0
230
1.0
 70
     8
 71
     3
 72
    11
 73
     7
 74
     5
 42
0.0000000001
 43
0.0000000001
 44
0.0000000001
 40
0.0
 40
0.0
 40
0.0
 40
0.0
 40
0.0286391658685935
 40
0.0570761126272487
 40
0.0855654772827847
 40
0.1139720809439306
 40
0.1139720809439306
 40
0.1139720809439306
 40
0.1139720809439306
 10
-0.7009353637699842
 20
-17.95367622375379
 30
0.0
 10
-0.6982350120325519
 20
-17.96283368077147
 30
0.0
 10
-0.692853375548932
 20
-17.98108393465519
 30
0.0
 10
-0.685958527860675
 20
-18.00876816387547
 30
0.0
 10
-0.6801131556577768
 20
-18.03661602352407
 30
0.0
 10
-0.6771271317296992
 20
-18.05534720529526
 30
0.0
 10
-0.6756362915039826
 20
-18.06469917297279
 30
0.0
 11
-0.7009353637699842
 21
-17.95367622375379
 31
0.0
 11
-0.6930313110349839
 21
-17.98120307922279
 31
0.0
 11
-0.6861343383789826
 21
-18.00879096984779
 31
0.0
 11
-0.6803359985349839
 21
-18.03668403625379
 31
0.0
 11
-0.6756362915039826
 21
-18.06469917297279
 31
0.0
  0
SPLINE
  5
332A
330
1F
100
AcDbEntity
  8
AM_0
100
AcDbSpline
210
0.0
220
0.0
230
1.0
 70
     8
 71
     3
 72
    11
 73
     7
 74
     5
 42
0.0000000001
 43
0.0000000001
 44
0.0000000001
 40
0.0
 40
0.0
 40
0.0
 40
0.0
 40
1.02710646268177
 40
2.05395572958202
 40
3.080623881970073
 40
4.107155585634374
 40
4.107155585634374
 40
4.107155585634374
 40
4.107155585634374
 10
-0.6756362915039826
 20
-18.06469917297279
 30
0.0
 10
-0.6252597169268044
 20
-18.40334147763639
 30
0.0
 10
-0.5245191824749539
 20
-19.08054128818628
 30
0.0
 10
-0.3735551389775705
 20
-20.09625845410644
 30
0.0
 10
-0.2225068689867568
 20
-21.11176940511928
 30
0.0
 10
-0.1219216516470336
 20
-21.78873758002733
 30
0.0
 10
-0.071632385253983
 20
-22.12719917297279
 30
0.0
 11
-0.6756362915039826
 21
-18.06469917297279
 31
0.0
 11
-0.5245285034179848
 21
-19.08062934875379
 31
0.0
 11
-0.3735275268559822
 21
-20.09631538390979
 31
0.0
 11
-0.222526550292985
 21
-21.11181831359779
 31
0.0
 11
-0.071632385253983
 21
-22.12719917297279
 31
0.0
  0
SPLINE
  5
332B
330
1F
100
AcDbEntity
  8
AM_0
100
AcDbSpline
210
0.0
220
0.0
230
1.0
 70
     8
 71
     3
 72
    11
 73
     7
 74
     5
 42
0.0000000001
 43
0.0000000001
 44
0.0000000001
 40
0.0
 40
0.0
 40
0.0
 40
0.0
 40
0.1104349574470213
 40
0.2206638170173662
 40
0.3315459504669029
 40
0.4433304280147513
 40
0.4433304280147513
 40
0.4433304280147513
 40
0.4433304280147513
 10
0.000068664551017
 20
-23.22259712219179
 30
0.0
 10
-0.0004871169374206
 20
-23.25968398716135
 30
0.0
 10
-0.0015976426939509
 20
-23.33378850419633
 30
0.0
 10
-0.0442485570254698
 20
-23.43821244732196
 30
0.0
 10
-0.1165730026552874
 20
-23.52595298139313
 30
0.0
 10
-0.1833241803845439
 20
-23.55995724335867
 30
0.0
 10
-0.2168350219729854
 20
-23.57702827453479
 30
0.0
 11
0.000068664551017
 21
-23.22259712219179
 31
0.0
 11
-0.0084304809569838
 21
-23.33270454406679
 31
0.0
 11
-0.0490341186519837
 21
-23.43518257140979
 31
0.0
 11
-0.1209335327149846
 21
-23.51959419250379
 31
0.0
 11
-0.2168350219729854
 21
-23.57702827453479
 31
0.0
  0
SPLINE
  5
332C
330
1F
100
AcDbEntity
  8
AM_0
100
AcDbSpline
210
0.0
220
0.0
230
1.0
 70
     8
 71
     3
 72
    11
 73
     7
 74
     5
 42
0.0000000001
 43
0.0000000001
 44
0.0000000001
 40
0.0
 40
0.0
 40
0.0
 40
0.0
 40
2.191905879499473
 40
4.381374503353104
 40
6.568477031134473
 40
8.753435403935672
 40
8.753435403935672
 40
8.753435403935672
 40
8.753435403935672
 10
-0.3693313598629851
 20
-23.60339546203479
 30
0.0
 10
-1.098414071488112
 20
-23.55576734311559
 30
0.0
 10
-2.555768802558646
 20
-23.46056406462313
 30
0.0
 10
-4.739740789775684
 20
-23.30504721380442
 30
0.0
 10
-6.920789414708711
 20
-23.14130567166142
 30
0.0
 10
-8.373385324849015
 20
-23.02360573113376
 30
0.0
 10
-9.099327087401984
 20
-22.96478462219179
 30
0.0
 11
-0.3693313598629851
 21
-23.60339546203479
 31
0.0
 11
-2.556434631347985
 21
-23.45837593078479
 31
0.0
 11
-4.740425109862984
 21
-23.30359077453479
 31
0.0
 11
-6.921333312987984
 21
-23.13910102844179
 31
0.0
 11
-9.099327087401984
 21
-22.96478462219179
 31
0.0
  0
SPLINE
  5
332D
330
1F
100
AcDbEntity
  8
AM_0
100
AcDbSpline
210
0.0
220
0.0
230
1.0
 70
     8
 71
     3
 72
    11
 73
     7
 74
     5
 42
0.0000000001
 43
0.0000000001
 44
0.0000000001
 40
0.0
 40
0.0
 40
0.0
 40
0.0
 40
0.0409493137373396
 40
0.082036631557383
 40
0.1233528792440467
 40
0.1649839231166057
 40
0.1649839231166057
 40
0.1649839231166057
 40
0.1649839231166057
 10
-0.9224319458009853
 20
-17.25641059875379
 30
0.0
 10
-0.9281678787852573
 20
-17.24401868679853
 30
0.0
 10
-0.9396590755336776
 20
-17.2191931006633
 30
0.0
 10
-0.9599091233704747
 20
-17.18337004535018
 30
0.0
 10
-0.9818747364707105
 20
-17.14831243865227
 30
0.0
 10
-0.9982252810411495
 20
-17.12600505689652
 30
0.0
 10
-1.006431579589983
 20
-17.11480903625379
 30
0.0
 11
-0.9224319458009853
 21
-17.25641059875379
 31
0.0
 11
-0.9401321411129844
 21
-17.21948432922279
 31
0.0
 11
-0.9601364135739823
 21
-17.18359565734779
 31
0.0
 11
-0.9822311401369832
 21
-17.14868354797279
 31
0.0
 11
-1.006431579589983
 21
-17.11480903625379
 31
0.0
  0
SPLINE
  5
332E
330
1F
100
AcDbEntity
  8
AM_0
100
AcDbSpline
210
0.0
220
0.0
230
1.0
 70
     8
 71
     3
 72
    11
 73
     7
 74
     5
 42
0.0000000001
 43
0.0000000001
 44
0.0000000001
 40
0.0
 40
0.0
 40
0.0
 40
0.0
 40
0.2887680968487735
 40
0.5717707082552455
 40
0.8382532776959207
 40
1.084960891925206
 40
1.084960891925206
 40
1.084960891925206
 40
1.084960891925206
 10
-9.099327087401984
 20
-22.96478462219179
 30
0.0
 10
-9.195715845003739
 20
-22.9537760249505
 30
0.0
 10
-9.386568881759599
 20
-22.93197862589487
 30
0.0
 10
-9.63902577897312
 20
-22.802528674022
 30
0.0
 10
-9.840743882025199
 20
-22.61729369696105
 30
0.0
 10
-9.897601186964035
 20
-22.45345800540801
 30
0.0
 10
-9.924934387206985
 20
-22.37469673156679
 30
0.0
 11
-9.099327087401984
 21
-22.96478462219179
 31
0.0
 11
-9.383735656737986
 21
-22.91479682922279
 31
0.0
 11
-9.637031555175985
 21
-22.78857612609779
 31
0.0
 11
-9.826026916503986
 21
-22.60070991515978
 31
0.0
 11
-9.924934387206985
 21
-22.37469673156679
 31
0.0
  0
ELLIPSE
  5
332F
330
1F
100
AcDbEntity
  8
AM_0
100
AcDbEllipse
 10
-1.013526916503983
 20
-21.11639595031679
 30
0.0
 11
0.2002716087759992
 21
-0.036071798164997
 31
0.0
210
0.0
220
0.0
230
1.0
 40
0.8972320030403999
 41
6.236117859539165
 42
6.477716013766906
  0
ELLIPSE
  5
3330
330
1F
100
AcDbEntity
  8
AM_0
100
AcDbEllipse
 10
-1.043235778808983
 20
-21.10968208312879
 30
0.0
 11
0.2302856489919982
 21
-0.041503891189997
 31
0.0
210
0.0
220
0.0
230
1.0
 40
0.8969040376815
 41
6.009558733454085
 42
6.236101753539656
  0
SPLINE
  5
3331
330
1F
100
AcDbEntity
  8
AM_0
100
AcDbSpline
210
0.0
220
0.0
230
1.0
 70
     8
 71
     3
 72
    11
 73
     7
 74
     5
 42
0.0000000001
 43
0.0000000001
 44
0.0000000001
 40
0.0
 40
0.0
 40
0.0
 40
0.0
 40
0.0241382323713351
 40
0.0483707459794024
 40
0.0726926239426139
 40
0.0973113832761181
 40
0.0973113832761181
 40
0.0973113832761181
 40
0.0973113832761181
 10
-0.631324768066984
 20
-21.38739204406679
 30
0.0
 10
-0.6281058918222305
 20
-21.38001323525637
 30
0.0
 10
-0.6216555667620161
 20
-21.36522679683336
 30
0.0
 10
-0.6141586978357329
 20
-21.34215205784922
 30
0.0
 10
-0.6082178907383076
 20
-21.31846213331276
 30
0.0
 10
-0.6058355448013631
 20
-21.30231426988692
 30
0.0
 10
-0.6046371459959856
 20
-21.29419136047279
 30
0.0
 11
-0.631324768066984
 21
-21.38739204406679
 31
0.0
 11
-0.6220321655269835
 21
-21.36511421203479
 31
0.0
 11
-0.6144332885739829
 21
-21.34210395812879
 31
0.0
 11
-0.6086349487309825
 21
-21.31848335265979
 31
0.0
 11
-0.6046371459959856
 21
-21.29419136047279
 31
0.0
  0
ELLIPSE
  5
3332
330
1F
100
AcDbEntity
  8
AM_0
100
AcDbEllipse
 10
-1.014930725097985
 20
-21.12237739562879
 30
0.0
 11
0.1995849600039996
 21
-0.0359496949559955
 31
0.0
210
0.0
220
0.0
230
0.9999999999999998
 40
0.8969526495610001
 41
5.439988661231852
 42
6.016396732587049
  0
SPLINE
  5
3333
330
1F
100
AcDbEntity
  8
AM_0
100
AcDbSpline
210
0.0
220
0.0
230
1.0
 70
     8
 71
     3
 72
    11
 73
     7
 74
     5
 42
0.0000000001
 43
0.0000000001
 44
0.0000000001
 40
0.0
 40
0.0
 40
0.0
 40
0.0
 40
0.0586960217889648
 40
0.1168876660416011
 40
0.1743972950650542
 40
0.2316661304095878
 40
0.2316661304095878
 40
0.2316661304095878
 40
0.2316661304095878
 10
-0.796333312987985
 20
-21.54290962219179
 30
0.0
 10
-0.7786012821335198
 20
-21.53449332832722
 30
0.0
 10
-0.7432895925575535
 20
-21.51773306218711
 30
0.0
 10
-0.6976698333085118
 20
-21.48105385158753
 30
0.0
 10
-0.6585287186587325
 20
-21.43810796448333
 30
0.0
 10
-0.6403800602439775
 20
-21.40427369057059
 30
0.0
 10
-0.631324768066984
 20
-21.38739204406679
 30
0.0
 11
-0.796333312987985
 21
-21.54290962219179
 31
0.0
 11
-0.744331359862985
 21
-21.51568794250379
 31
0.0
 11
-0.6985244750979853
 21
-21.47979927062879
 31
0.0
 11
-0.6604385375979853
 21
-21.43670845031679
 31
0.0
 11
-0.631324768066984
 21
-21.38739204406679
 31
0.0
  0
ELLIPSE
  5
3334
330
1F
100
AcDbEntity
  8
AM_0
100
AcDbEllipse
 10
-1.028831481933983
 20
-21.10241889953479
 30
0.0
 11
0.2249755892049983
 21
-0.0405273213720037
 31
0.0
210
0.0
220
0.0
230
1.0
 40
0.8971914824382
 41
4.903891243495042
 42
5.440125748080937
  0
SPLINE
  5
3335
330
1F
100
AcDbEntity
  8
AM_0
100
AcDbSpline
210
0.0
220
0.0
230
1.0
 70
     8
 71
     3
 72
    11
 73
     7
 74
     5
 42
0.0000000001
 43
0.0000000001
 44
0.0000000001
 40
0.0
 40
0.0
 40
0.0
 40
0.0
 40
0.0484064202423195
 40
0.0958352752825625
 40
0.1428910874247759
 40
0.1901368348739119
 40
0.1901368348739119
 40
0.1901368348739119
 40
0.1901368348739119
 10
-0.9826278686519835
 20
-21.57208442687879
 30
0.0
 10
-0.9664843522422298
 20
-21.57273060399722
 30
0.0
 10
-0.9345233369179711
 20
-21.57400990871995
 30
0.0
 10
-0.8870426314115464
 20
-21.56886862386339
 30
0.0
 10
-0.8406195849571114
 20
-21.55937539730561
 30
0.0
 10
-0.811115212161232
 20
-21.54840557876523
 30
0.0
 10
-0.796333312987985
 20
-21.54290962219179
 30
0.0
 11
-0.9826278686519835
 21
-21.57208442687879
 31
0.0
 11
-0.9342269897459857
 21
-21.57281684875379
 31
0.0
 11
-0.8870315551759858
 21
-21.56811714172279
 31
0.0
 11
-0.8410263061519835
 21
-21.55822944640978
 31
0.0
 11
-0.796333312987985
 21
-21.54290962219179
 31
0.0
  0
SPLINE
  5
3336
330
1F
100
AcDbEntity
  8
AM_0
100
AcDbSpline
210
0.0
220
0.0
230
1.0
 70
     8
 71
     3
 72
    11
 73
     7
 74
     5
 42
0.0000000001
 43
0.0000000001
 44
0.0000000001
 40
0.0
 40
0.0
 40
0.0
 40
0.0
 40
0.0281094271203921
 40
0.0561735925712937
 40
0.0844267558514219
 40
0.1127744814420481
 40
0.1127744814420481
 40
0.1127744814420481
 40
0.1127744814420481
 10
-9.245429992675985
 20
-21.19580268859779
 30
0.0
 10
-9.240250649728789
 20
-21.20361174131964
 30
0.0
 10
-9.229900303588447
 20
-21.21921727266279
 30
0.0
 10
-9.213364185235986
 20
-21.24200117457731
 30
0.0
 10
-9.195768830633893
 20
-21.26408068470647
 30
0.0
 10
-9.183350960886178
 20
-21.27828718201881
 30
0.0
 10
-9.177131652831983
 20
-21.28540229797279
 30
0.0
 11
-9.245429992675985
 21
-21.19580268859779
 31
0.0
 11
-9.229728698730982
 21
-21.21911811828478
 31
0.0
 11
-9.213233947753982
 21
-21.24182319640979
 31
0.0
 11
-9.195625305175985
 21
-21.26391792297279
 31
0.0
 11
-9.177131652831983
 21
-21.28540229797279
 31
0.0
  0
SPLINE
  5
3337
330
1F
100
AcDbEntity
  8
AM_0
100
AcDbSpline
210
0.0
220
0.0
230
1.0
 70
     8
 71
     3
 72
    11
 73
     7
 74
     5
 42
0.0000000001
 43
0.0000000001
 44
0.0000000001
 40
0.0
 40
0.0
 40
0.0
 40
0.0
 40
0.0905157039053884
 40
0.1802593089355299
 40
0.2703088635170108
 40
0.3620020185672978
 40
0.3620020185672978
 40
0.3620020185672978
 40
0.3620020185672978
 10
-9.177131652831983
 20
-21.28540229797279
 30
0.0
 10
-9.15615586213144
 20
-21.30713876083266
 30
0.0
 10
-9.11438320420671
 20
-21.35042627454321
 30
0.0
 10
-9.042941112035673
 20
-21.40575887661632
 30
0.0
 10
-8.965825252927281
 20
-21.45360286903405
 30
0.0
 10
-8.910259280062035
 20
-21.47791117662126
 30
0.0
 10
-8.882225036620985
 20
-21.49017524719179
 30
0.0
 11
-9.177131652831983
 21
-21.28540229797279
 31
0.0
 11
-9.112724304198982
 21
-21.34900093078479
 31
0.0
 11
-9.042137145995985
 21
-21.40442085265978
 31
0.0
 11
-8.965324401855982
 21
-21.45141792297279
 31
0.0
 11
-8.882225036620985
 21
-21.49017524719179
 31
0.0
  0
SPLINE
  5
3338
330
1F
100
AcDbEntity
  8
AM_0
100
AcDbSpline
210
0.0
220
0.0
230
1.0
 70
     8
 71
     3
 72
    11
 73
     7
 74
     5
 42
0.0000000001
 43
0.0000000001
 44
0.0000000001
 40
0.0
 40
0.0
 40
0.0
 40
0.0
 40
0.0548859321314132
 40
0.1098328823939741
 40
0.1646577964311702
 40
0.2195437285625834
 40
0.2195437285625834
 40
0.2195437285625834
 40
0.2195437285625834
 10
-8.513038635253982
 20
-21.28882026672279
 30
0.0
 10
-8.513471173444694
 20
-21.30711046368199
 30
0.0
 10
-8.514336730690178
 20
-21.34371119129234
 30
0.0
 10
-8.515630638190291
 20
-21.39858186977936
 30
0.0
 10
-8.516930725288926
 20
-21.45345240219673
 30
0.0
 10
-8.517794497317709
 20
-21.49001248190061
 30
0.0
 10
-8.518226623534983
 20
-21.50830268859779
 30
0.0
 11
-8.513038635253982
 21
-21.28882026672279
 31
0.0
 11
-8.514335632323982
 21
-21.34369087219179
 31
0.0
 11
-8.515632629394984
 21
-21.39862251281679
 31
0.0
 11
-8.516929626464984
 21
-21.45343208312879
 31
0.0
 11
-8.518226623534983
 21
-21.50830268859779
 31
0.0
  0
SPLINE
  5
3339
330
1F
100
AcDbEntity
  8
AM_0
100
AcDbSpline
210
0.0
220
0.0
230
1.0
 70
     8
 71
     3
 72
    11
 73
     7
 74
     5
 42
0.0000000001
 43
0.0000000001
 44
0.0000000001
 40
0.0
 40
0.0
 40
0.0
 40
0.0
 40
0.0648950701883018
 40
0.1288480610700205
 40
0.1925865070101047
 40
0.2566575281629567
 40
0.2566575281629567
 40
0.2566575281629567
 40
0.2566575281629567
 10
-8.763832092284983
 20
-21.24109077453478
 30
0.0
 10
-8.743449818458348
 20
-21.24838348332869
 30
0.0
 10
-8.702981159511834
 20
-21.2628630329357
 30
0.0
 10
-8.640364296765071
 20
-21.27750999811976
 30
0.0
 10
-8.577024819565696
 20
-21.28699316677271
 30
0.0
 10
-8.534404331193188
 20
-21.28821017780432
 30
0.0
 10
-8.513038635253982
 20
-21.28882026672279
 30
0.0
 11
-8.763832092284983
 21
-21.24109077453478
 31
0.0
 11
-8.702323913573982
 21
-21.26178169250379
 31
0.0
 11
-8.640129089355982
 21
-21.27667427062879
 31
0.0
 11
-8.577033996581983
 21
-21.28570747375379
 31
0.0
 11
-8.513038635253982
 21
-21.28882026672279
 31
0.0
  0
SPLINE
  5
333A
330
1F
100
AcDbEntity
  8
AM_0
100
AcDbSpline
210
0.0
220
0.0
230
1.0
 70
     8
 71
     3
 72
    11
 73
     7
 74
     5
 42
0.0000000001
 43
0.0000000001
 44
0.0000000001
 40
0.0
 40
0.0
 40
0.0
 40
0.0
 40
0.0863537676945739
 40
0.1715728355378586
 40
0.2564766923500291
 40
0.3418100237562664
 40
0.3418100237562664
 40
0.3418100237562664
 40
0.3418100237562664
 10
-8.882225036620985
 20
-21.49017524719179
 30
0.0
 10
-8.855139172978471
 20
-21.49999457313878
 30
0.0
 10
-8.801323357499818
 20
-21.51950419779991
 30
0.0
 10
-8.717751712172807
 20
-21.53835303501035
 30
0.0
 10
-8.633202705202798
 20
-21.54992260794015
 30
0.0
 10
-8.576405654851113
 20
-21.55037385776137
 30
0.0
 10
-8.547935485839984
 20
-21.55060005187879
 30
0.0
 11
-8.882225036620985
 21
-21.49017524719179
 31
0.0
 11
-8.800437927245985
 21
-21.51788520812879
 31
0.0
 11
-8.717430114745985
 21
-21.53717231750379
 31
0.0
 11
-8.633232116698982
 21
-21.54809761047279
 31
0.0
 11
-8.547935485839984
 21
-21.55060005187879
 31
0.0
  0
SPLINE
  5
333B
330
1F
100
AcDbEntity
  8
AM_0
100
AcDbSpline
210
0.0
220
0.0
230
1.0
 70
     8
 71
     3
 72
    11
 73
     7
 74
     5
 42
0.0000000001
 43
0.0000000001
 44
0.0000000001
 40
0.0
 40
0.0
 40
0.0
 40
0.0
 40
0.2146539022706314
 40
0.4285575881056586
 40
0.6419659760221244
 40
0.8545618039651113
 40
0.8545618039651113
 40
0.8545618039651113
 40
0.8545618039651113
 10
-1.199028015136978
 20
18.4241905212407
 30
0.0
 10
-1.13291738612372
 20
18.45276188447665
 30
0.0
 10
-1.000927185068119
 20
18.50980475389467
 30
0.0
 10
-0.8416471036798251
 20
18.65781276374271
 30
0.0
 10
-0.7235819594053237
 20
18.8398022393472
 30
0.0
 10
-0.6915978453163975
 20
18.97915750847196
 30
0.0
 10
-0.6756362915039781
 20
19.0487022399907
 30
0.0
 11
-1.199028015136978
 21
18.4241905212407
 31
0.0
 11
-1.007133483886978
 21
18.5203819274907
 31
0.0
 11
-0.8483352661129799
 21
18.6636924743657
 31
0.0
 11
-0.7351303100589782
 21
18.8446006774907
 31
0.0
 11
-0.6756362915039781
 21
19.0487022399907
 31
0.0
  0
SPLINE
  5
333C
330
1F
100
AcDbEntity
  8
AM_0
100
AcDbSpline
210
0.0
220
0.0
230
1.0
 70
     8
 71
     3
 72
    11
 73
     7
 74
     5
 42
0.0000000001
 43
0.0000000001
 44
0.0000000001
 40
0.0
 40
0.0
 40
0.0
 40
0.0
 40
0.2861969260814263
 40
0.5683942667676827
 40
0.8860653453396809
 40
1.288618784234923
 40
1.288618784234923
 40
1.288618784234923
 40
1.288618784234923
 10
-19.97403717040978
 20
-23.47601509094178
 30
0.0
 10
-19.94463123002425
 20
-23.56810678299717
 30
0.0
 10
-19.88623029555965
 20
-23.75100319106804
 30
0.0
 10
-19.67598310679718
 20
-23.96800748358122
 30
0.0
 10
-19.38174312072209
 20
-24.1455469675746
 30
0.0
 10
-19.13682362684228
 20
-24.14814625920372
 30
0.0
 10
-18.99993133544888
 20
-24.14959907531679
 30
0.0
 11
-19.97403717040978
 21
-23.47601509094178
 31
0.0
 11
-19.86643218994108
 21
-23.74121284484778
 31
0.0
 11
-19.67693328857388
 21
-23.95031929015978
 31
0.0
 11
-19.40013885498018
 21
-24.10620307922279
 31
0.0
 11
-18.99993133544888
 21
-24.14959907531679
 31
0.0
  0
SPLINE
  5
333D
330
1F
100
AcDbEntity
  8
AM_0
100
AcDbSpline
210
0.0
220
0.0
230
1.0
 70
     8
 71
     3
 72
    11
 73
     7
 74
     5
 42
0.0000000001
 43
0.0000000001
 44
0.0000000001
 40
0.0
 40
0.0
 40
0.0
 40
0.0
 40
1.941506688843495
 40
3.763974352869948
 40
5.467815862152073
 40
7.053189929467365
 40
7.053189929467365
 40
7.053189929467365
 40
7.053189929467365
 10
-11.96782684326198
 20
-23.61529731750379
 30
0.0
 10
-12.61403088533633
 20
-23.65078333716672
 30
0.0
 10
-13.86681845236634
 20
-23.71957963267488
 30
0.0
 10
-15.68504986233031
 20
-23.84644120579978
 30
0.0
 10
-17.38343617727484
 20
-23.98453178992387
 30
0.0
 10
-18.47419487537369
 20
-24.09591386020317
 30
0.0
 10
-18.99993133544888
 20
-24.14959907531679
 30
0.0
 11
-11.96782684326198
 21
-23.61529731750379
 31
0.0
 11
-13.90613555908198
 21
-23.72668647765979
 31
0.0
 11
-15.72423553466768
 21
-23.85278511047279
 31
0.0
 11
-17.42223358154268
 21
-23.99377632140978
 31
0.0
 11
-18.99993133544888
 21
-24.14959907531679
 31
0.0
  0
SPLINE
  5
333E
330
1F
100
AcDbEntity
  8
AM_0
100
AcDbSpline
210
0.0
220
0.0
230
1.0
 70
     8
 71
     3
 72
    11
 73
     7
 74
     5
 42
0.0000000001
 43
0.0000000001
 44
0.0000000001
 40
0.0
 40
0.0
 40
0.0
 40
0.0
 40
0.2505730769872541
 40
0.4993781699294309
 40
0.7489810370437896
 40
1.0028023224539
 40
1.0028023224539
 40
1.0028023224539
 40
1.0028023224539
 10
-20.12653350830048
 20
-22.32373237609779
 30
0.0
 10
-20.16335696866748
 20
-22.24864204086423
 30
0.0
 10
-20.2367440718217
 20
-22.09899118994608
 30
0.0
 10
-20.37973629868884
 20
-21.89338930040495
 30
0.0
 10
-20.54544327434166
 20
-21.70395641212915
 30
0.0
 10
-20.67553573306871
 20
-21.59754016377003
 30
0.0
 10
-20.74112701415978
 20
-21.54388618469178
 30
0.0
 11
-20.12653350830048
 21
-22.32373237609779
 31
0.0
 11
-20.24253082275358
 21
-22.10162544250379
 31
0.0
 11
-20.38323211669888
 21
-21.89642524719178
 31
0.0
 11
-20.54923248290978
 21
-21.71002388000379
 31
0.0
 11
-20.74112701415978
 21
-21.54388618469178
 31
0.0
  0
ELLIPSE
  5
333F
330
1F
100
AcDbEntity
  8
AM_0
100
AcDbEllipse
 10
38.24726867675801
 20
13.9146690368657
 30
0.0
 11
-59.9659334526007
 21
-34.36608442429449
 31
0.0
210
0.0
220
0.0
230
1.0
 40
0.220785605981
 41
6.229343677385934
 42
6.377144415881468
  0
SPLINE
  5
3340
330
1F
100
AcDbEntity
  8
AM_0
100
AcDbSpline
210
0.0
220
0.0
230
1.0
 70
     8
 71
     3
 72
    11
 73
     7
 74
     5
 42
0.0000000001
 43
0.0000000001
 44
0.0000000001
 40
0.0
 40
0.0
 40
0.0
 40
0.0
 40
0.2799688488502841
 40
0.5716668155455121
 40
0.8790436986819651
 40
1.199185140374873
 40
1.199185140374873
 40
1.199185140374873
 40
1.199185140374873
 10
-19.99993133544888
 20
-20.83789253234779
 30
0.0
 10
-20.01062532664924
 20
-20.74403134160439
 30
0.0
 10
-20.03246132704745
 20
-20.55237670489772
 30
0.0
 10
-20.19824763335478
 20
-20.30011503940594
 30
0.0
 10
-20.43855875326444
 20
-20.10080217082534
 30
0.0
 10
-20.63891244024258
 20
-20.03498414302048
 30
0.0
 10
-20.74112701415978
 20
-20.00140571594179
 30
0.0
 11
-19.99993133544888
 21
-20.83789253234779
 31
0.0
 11
-20.05263519287078
 21
-20.56292915344179
 31
0.0
 11
-20.20563507080048
 21
-20.31457710265978
 31
0.0
 11
-20.44393157958948
 21
-20.12042427062879
 31
0.0
 11
-20.74112701415978
 21
-20.00140571594179
 31
0.0
  0
SPLINE
  5
3341
330
1F
100
AcDbEntity
  8
AM_0
100
AcDbSpline
210
0.0
220
0.0
230
1.0
 70
     8
 71
     3
 72
    11
 73
     7
 74
     5
 42
0.0000000001
 43
0.0000000001
 44
0.0000000001
 40
0.0
 40
0.0
 40
0.0
 40
0.0
 40
0.3358070319789598
 40
0.6899799945129357
 40
1.066486671750617
 40
1.456474723856694
 40
1.456474723856694
 40
1.456474723856694
 40
1.456474723856694
 10
-19.99993133544888
 20
-21.12860298156678
 30
0.0
 10
-19.98430162070234
 20
-21.24140876636278
 30
0.0
 10
-19.95218737213674
 20
-21.47318990065258
 30
0.0
 10
-19.71584638669268
 20
-21.75831203423045
 30
0.0
 10
-19.38745703368189
 20
-21.95499396670257
 30
0.0
 10
-19.13061239237346
 20
-21.98255900680742
 30
0.0
 10
-18.99993133544888
 20
-21.99658393859779
 30
0.0
 11
-19.99993133544888
 21
-21.12860298156678
 31
0.0
 11
-19.92443084716768
 21
-21.45581245422279
 31
0.0
 11
-19.70853424072228
 21
-21.73657417297279
 31
0.0
 11
-19.38362884521448
 21
-21.92682075500379
 31
0.0
 11
-18.99993133544888
 21
-21.99658393859779
 31
0.0
  0
ELLIPSE
  5
3342
330
1F
100
AcDbEntity
  8
AM_0
100
AcDbEllipse
 10
-12.68903350830098
 20
-0.0095233917227928
 30
0.0
 11
-0.2402808529110038
 21
-24.279235170485
 31
0.0
210
0.0
220
0.0
230
1.0
 40
0.3054807821093
 41
0.4394005997419232
 42
0.4850781788261814
  0
ELLIPSE
  5
3343
330
1F
100
AcDbEntity
  8
AM_0
100
AcDbEllipse
 10
-12.47693634033198
 20
0.0811748504652081
 30
0.0
 11
1.887298927073995
 21
-24.27081235578199
 31
0.0
210
0.0
220
0.0
230
1.0
 40
0.1238246876261
 41
0.4634472743245473
 42
0.4922056617664629
  0
ELLIPSE
  5
3344
330
1F
100
AcDbEntity
  8
AM_0
100
AcDbEllipse
 10
-234.59472656249
 20
8.228388786317236
 30
0.0
 11
431.8953473886799
 21
-14.85992664321405
 31
0.0
210
0.0
220
0.0
230
1.0
 40
0.0587959027651
 41
5.262825916959247
 42
5.285306351814445
  0
ELLIPSE
  5
3345
330
1F
100
AcDbEntity
  8
AM_0
100
AcDbEllipse
 10
-128.95332336425
 20
0.0009098052992209
 30
0.0
 11
926.0881131093499
 21
-12.77403388678011
 31
0.0
210
0.0
220
0.0
230
1.0
 40
0.0222720243427
 41
4.831719980101007
 42
4.839382221184154
  0
LINE
  5
3346
330
1F
100
AcDbEntity
  8
AM_0
100
AcDbLine
 10
-1.065357208251983
 20
-21.30822563171279
 30
0.0
 11
-1.519227981567984
 21
-10.91279792785579
 31
0.0
  0
ARC
  5
3347
330
1F
100
AcDbEntity
  8
AM_0
100
AcDbCircle
 10
-3.517330169677983
 20
-10.99999809265079
 30
0.0
 40
2.0
100
AcDbArc
 50
2.498888000785966
 51
90.00000432571088
  0
ARC
  5
3348
330
1F
100
AcDbEntity
  8
AM_0
100
AcDbCircle
 10
-3.517330169677981
 20
11.0000019073492
 30
0.0
 40
2.0
100
AcDbArc
 50
269.9999956742891
 51
357.501111999214
  0
LINE
  5
3349
330
1F
100
AcDbEntity
  8
AM_0
100
AcDbLine
 10
-1.157722473144979
 20
18.4255495071416
 30
0.0
 11
-10.41103076934798
 21
18.77253484726
 31
0.0
  0
LINE
  5
334A
330
1F
100
AcDbEntity
  8
AM_0
100
AcDbLine
 10
-1.519233703612983
 20
-10.91276359557979
 30
0.0
 11
-1.519233703612981
 21
10.9128131866462
 31
0.0
  0
LINE
  5
334B
330
1F
100
AcDbEntity
  8
AM_0
100
AcDbLine
 10
-1.191160202026979
 20
18.4268023967748
 30
0.0
 11
-1.519227981567981
 21
10.9127874374402
 31
0.0
  0
LINE
  5
334C
330
1F
100
AcDbEntity
  8
AM_0
100
AcDbLine
 10
-13.99993133544898
 20
9.000001907349208
 30
0.0
 11
-13.99993133544898
 21
-8.999998092650789
 31
0.0
  0
LINE
  5
334D
330
1F
100
AcDbEntity
  8
AM_0
100
AcDbLine
 10
-22.99993133544888
 20
11.50000190734911
 30
0.0
 11
-22.99993133544888
 21
-11.49999809265078
 31
0.0
  0
LINE
  5
334E
330
1F
100
AcDbEntity
  8
AM_0
100
AcDbLine
 10
-19.99993133544888
 20
11.5000019073491
 30
0.0
 11
-19.99993133544888
 21
-11.49999809265078
 31
0.0
  0
LINE
  5
334F
330
1F
100
AcDbEntity
  8
AM_0
100
AcDbLine
 10
-19.99993085861168
 20
5.500001907349209
 30
0.0
 11
-13.99993133544898
 21
5.500001907349208
 31
0.0
  0
LINE
  5
3350
330
1F
100
AcDbEntity
  8
AM_0
100
AcDbLine
 10
-10.41100883483898
 20
18.7727541923528
 30
0.0
 11
-11.96781539916998
 21
18.8854870796209
 31
0.0
  0
LINE
  5
3351
330
1F
100
AcDbEntity
  8
AM_0
100
AcDbLine
 10
-10.63593482971197
 20
20.031464695931
 30
0.0
 11
-10.73604393005398
 21
18.90559649467521
 31
0.0
  0
LINE
  5
3352
330
1F
100
AcDbEntity
  8
AM_0
100
AcDbLine
 10
-10.73614311218298
 20
18.9056196212774
 30
0.0
 11
-10.73113822936998
 21
18.7949540615087
 31
0.0
  0
ARC
  5
3353
330
1F
100
AcDbEntity
  8
AM_0
100
AcDbCircle
 10
-9.73413848876998
 20
19.5635948181157
 30
0.0
 40
1.999948978424099
100
AcDbArc
 50
194.0640365435586
 51
201.2683074904485
  0
LINE
  5
3354
330
1F
100
AcDbEntity
  8
AM_0
100
AcDbLine
 10
-13.99993133544898
 20
9.000001907349208
 30
0.0
 11
-3.517330169677981
 21
9.000001907349206
 31
0.0
  0
LINE
  5
3355
330
1F
100
AcDbEntity
  8
AM_0
100
AcDbLine
 10
-22.99993109703028
 20
11.50000190734911
 30
0.0
 11
-19.99993085861168
 21
11.5000019073491
 31
0.0
  0
LINE
  5
3356
330
1F
100
AcDbEntity
  8
AM_0
100
AcDbLine
 10
-19.99993085861168
 20
-5.499998092650788
 30
0.0
 11
-13.99993133544898
 21
-5.499998092650789
 31
0.0
  0
LINE
  5
3357
330
1F
100
AcDbEntity
  8
AM_0
100
AcDbLine
 10
-13.99993133544898
 20
-8.999998092650789
 30
0.0
 11
-3.517330169677983
 21
-8.999998092650791
 31
0.0
  0
LINE
  5
3358
330
1F
100
AcDbEntity
  8
AM_0
100
AcDbLine
 10
-22.99993109703028
 20
-11.49999809265078
 30
0.0
 11
-19.99993085861168
 21
-11.49999809265078
 31
0.0
  0
LINE
  5
3359
330
1F
100
AcDbEntity
  8
AM_0
100
AcDbLine
 10
-8.513036727904983
 20
-21.28814125060979
 30
0.0
 11
-1.020921707152985
 21
-21.30834388732779
 31
0.0
  0
LINE
  5
335A
330
1F
100
AcDbEntity
  8
AM_0
100
AcDbLine
 10
-8.522298812865985
 20
-21.55021476745479
 30
0.0
 11
-1.027103424071983
 21
-21.57053947448679
 31
0.0
  0
LINE
  5
335B
330
1F
100
AcDbEntity
  8
AM_0
100
AcDbLine
 10
-0.0716743469239831
 20
-22.12718772888079
 30
0.0
 11
-0.7040710449219834
 21
-18.61153221130279
 31
0.0
  0
LINE
  5
335C
330
1F
100
AcDbEntity
  8
AM_0
100
AcDbLine
 10
-0.9159641265869831
 20
-18.40224647521879
 30
0.0
 11
-0.8107681274419837
 21
-21.11688423156679
 31
0.0
  0
LINE
  5
335D
330
1F
100
AcDbEntity
  8
AM_0
100
AcDbLine
 10
-0.6038227081299843
 20
-21.19721031188879
 30
0.0
 11
-0.7040252685549842
 21
-18.61156654357779
 31
0.0
  0
LINE
  5
335E
330
1F
100
AcDbEntity
  8
AM_0
100
AcDbLine
 10
-0.9666366577149842
 20
-20.99279975890979
 30
0.0
 11
-0.9666366577149839
 21
-18.46557807922279
 31
0.0
  0
LINE
  5
335F
330
1F
100
AcDbEntity
  8
AM_0
100
AcDbLine
 10
-1.157737731933983
 20
-21.17358589172279
 30
0.0
 11
-1.157737731933982
 21
-18.75299263000379
 31
0.0
  0
LINE
  5
3360
330
1F
100
AcDbEntity
  8
AM_0
100
AcDbLine
 10
-0.7009353637699842
 20
-17.95365715026779
 30
0.0
 11
-0.8941249847409851
 21
-17.33146858215279
 31
0.0
  0
LINE
  5
3361
330
1F
100
AcDbEntity
  8
AM_0
100
AcDbLine
 10
-0.8706436157229846
 20
-17.43652153015079
 30
0.0
 11
-0.8941345214849841
 21
-17.33144950866579
 31
0.0
  0
LINE
  5
3362
330
1F
100
AcDbEntity
  8
AM_0
100
AcDbLine
 10
-0.8664855957029844
 20
-17.46621131896879
 30
0.0
 11
-0.8706836700439824
 21
-17.43659782409579
 31
0.0
  0
LINE
  5
3363
330
1F
100
AcDbEntity
  8
AM_0
100
AcDbLine
 10
-0.9224967956539822
 20
-17.25636482238679
 30
0.0
 11
-1.003087997436983
 21
-17.24714851379279
 31
0.0
  0
LINE
  5
3364
330
1F
100
AcDbEntity
  8
AM_0
100
AcDbLine
 10
-0.9826488494869829
 20
-17.93047523498479
 30
0.0
 11
-0.9159507751469833
 21
-18.40228843688879
 31
0.0
  0
LINE
  5
3365
330
1F
100
AcDbEntity
  8
AM_0
100
AcDbLine
 10
-0.7236270904539825
 20
-18.47675514221079
 30
0.0
 11
-0.8664283752439823
 21
-17.46616554260179
 31
0.0
  0
LINE
  5
3366
330
1F
100
AcDbEntity
  8
AM_0
100
AcDbLine
 10
-0.8664398193359852
 20
-17.46623039245479
 30
0.0
 11
-0.9980297088619829
 21
-17.41526985168379
 31
0.0
  0
LINE
  5
3367
330
1F
100
AcDbEntity
  8
AM_0
100
AcDbLine
 10
-0.7040271759029846
 20
-18.61152076721079
 30
0.0
 11
-0.7236175537109854
 21
-18.47682762145879
 31
0.0
  0
LINE
  5
3368
330
1F
100
AcDbEntity
  8
AM_0
100
AcDbLine
 10
-0.7236766815189827
 20
-18.47687721252379
 30
0.0
 11
-0.9159793853759852
 21
-18.40235710143979
 31
0.0
  0
LINE
  5
3369
330
1F
100
AcDbEntity
  8
AM_0
100
AcDbLine
 10
-1.157697677611983
 20
-18.75300407409579
 30
0.0
 11
-0.9665927886959851
 21
-18.46558570861679
 31
0.0
  0
LINE
  5
336A
330
1F
100
AcDbEntity
  8
AM_0
100
AcDbLine
 10
-0.0715999603269836
 20
-22.12726020812879
 30
0.0
 11
0.0001010894770145
 21
-23.22263145446679
 31
0.0
  0
LINE
  5
336B
330
1F
100
AcDbEntity
  8
AM_0
100
AcDbLine
 10
-0.2168312072759827
 20
-23.57702445983779
 30
0.0
 11
-0.3685340881349846
 21
-23.60339164733779
 31
0.0
  0
LINE
  5
336C
330
1F
100
AcDbEntity
  8
AM_0
100
AcDbLine
 10
-0.6046657562259858
 20
-21.29417610168379
 30
0.0
 11
-0.6023616790769835
 21
-21.23019218444679
 31
0.0
  0
LINE
  5
336D
330
1F
100
AcDbEntity
  8
AM_0
100
AcDbLine
 10
-0.6023674011229849
 20
-21.23019599914479
 30
0.0
 11
-0.6038608551029851
 21
-21.19720649719179
 31
0.0
  0
LINE
  5
336E
330
1F
100
AcDbEntity
  8
AM_0
100
AcDbLine
 10
-0.9826240539549843
 20
-21.57213401794379
 30
0.0
 11
-1.027124404906983
 21
-21.57066917419379
 31
0.0
  0
LINE
  5
336F
330
1F
100
AcDbEntity
  8
AM_0
100
AcDbLine
 10
-1.157684326171983
 20
-21.17363929748479
 30
0.0
 11
-0.9665851593019835
 21
-20.99285697936879
 31
0.0
  0
LINE
  5
3370
330
1F
100
AcDbEntity
  8
AM_0
100
AcDbLine
 10
-4.941041946410985
 20
-23.28772544860779
 30
0.0
 11
-10.41104412078898
 21
-23.52735328674179
 31
0.0
  0
LINE
  5
3371
330
1F
100
AcDbEntity
  8
AM_0
100
AcDbLine
 10
-10.41104030609098
 20
-23.52747535705479
 30
0.0
 11
-11.96785640716598
 21
-23.61536598205479
 31
0.0
  0
LINE
  5
3372
330
1F
100
AcDbEntity
  8
AM_0
100
AcDbLine
 10
-9.753112792968986
 20
-22.01516532897879
 30
0.0
 11
-11.96781444549598
 21
-22.07406425475979
 31
0.0
  0
LINE
  5
3373
330
1F
100
AcDbEntity
  8
AM_0
100
AcDbLine
 10
-9.924920082091984
 20
-22.37465858459379
 30
0.0
 11
-9.997417449950985
 21
-22.02186393737679
 31
0.0
  0
LINE
  5
3374
330
1F
100
AcDbEntity
  8
AM_0
100
AcDbLine
 10
-9.177125930785985
 20
-21.28532981872479
 30
0.0
 11
-9.083019256591983
 21
-21.19413566589279
 31
0.0
  0
LINE
  5
3375
330
1F
100
AcDbEntity
  8
AM_0
100
AcDbLine
 10
-8.882125854491983
 20
-21.49019050598079
 30
0.0
 11
-8.763734817504984
 21
-21.24110603332379
 31
0.0
  0
LINE
  5
3376
330
1F
100
AcDbEntity
  8
AM_0
100
AcDbLine
 10
-8.522315979003982
 20
-21.55050849914478
 30
0.0
 11
-8.547920227050985
 21
-21.55069160461379
 31
0.0
  0
LINE
  5
3377
330
1F
100
AcDbEntity
  8
AM_0
100
AcDbLine
 10
-8.518194198608982
 20
-21.50828361511179
 30
0.0
 11
-8.522298812865985
 21
-21.55026054382179
 31
0.0
  0
LINE
  5
3378
330
1F
100
AcDbEntity
  8
AM_0
100
AcDbLine
 10
-20.74111843109098
 20
-20.00139427184978
 30
0.0
 11
-22.03942728042568
 21
-19.68889427184978
 31
0.0
  0
ARC
  5
3379
330
1F
100
AcDbEntity
  8
AM_0
100
AcDbCircle
 10
-20.99993133544888
 20
-22.91089057922279
 30
0.0
 40
1.0
100
AcDbArc
 50
0.0000050089577454
 51
75.00065937908532
  0
LINE
  5
337A
330
1F
100
AcDbEntity
  8
AM_0
100
AcDbLine
 10
-19.99994850158658
 20
-22.88833808898879
 30
0.0
 11
-20.12654209136929
 21
-22.32367897033578
 31
0.0
  0
ARC
  5
337B
330
1F
100
AcDbEntity
  8
AM_0
100
AcDbCircle
 10
-18.99993133544888
 20
-23.25000190734779
 30
0.0
 40
1.0
100
AcDbArc
 50
180.0
 51
193.0620426696738
  0
LINE
  5
337C
330
1F
100
AcDbEntity
  8
AM_0
100
AcDbLine
 10
-19.99992179870568
 20
-23.24628257751379
 30
0.0
 11
-19.97402667999238
 21
-23.47603034973078
 31
0.0
  0
LINE
  5
337D
330
1F
100
AcDbEntity
  8
AM_0
100
AcDbLine
 10
-19.99993133544888
 20
-22.88842964172279
 30
0.0
 11
-19.99993133544888
 21
-23.24627876281679
 31
0.0
  0
LINE
  5
337E
330
1F
100
AcDbEntity
  8
AM_0
100
AcDbLine
 10
-39.99993133544798
 20
-11.99999809265078
 30
0.0
 11
-39.99993133544798
 21
-18.99999809265078
 31
0.0
  0
LINE
  5
337F
330
1F
100
AcDbEntity
  8
AM_0
100
AcDbLine
 10
-39.99993133544798
 20
-6.199995040892789
 30
0.0
 11
-39.99993133544798
 21
-18.99999809265078
 31
0.0
  0
LINE
  5
3381
330
1F
100
AcDbEntity
  8
AM_0
100
AcDbLine
 10
-33.69993591308558
 20
5.20001411438121
 30
0.0
 11
-33.69993591308558
 21
-5.199995040892789
 31
0.0
  0
LINE
  5
3382
330
1F
100
AcDbEntity
  8
AM_0
100
AcDbLine
 10
-33.69993400573697
 20
5.199998855592212
 30
0.0
 11
-38.99993419647097
 21
5.199998855592212
 31
0.0
  0
LINE
  5
3383
330
1F
100
AcDbEntity
  8
AM_0
100
AcDbLine
 10
-27.99993133544887
 20
19.99999618530321
 30
0.0
 11
-38.99993133544798
 21
19.99999618530321
 31
0.0
  0
LINE
  5
3384
330
1F
100
AcDbEntity
  8
AM_0
100
AcDbLine
 10
-39.99993133544798
 20
12.00000190734911
 30
0.0
 11
-39.99993133544798
 21
19.00000190734911
 31
0.0
  0
ARC
  5
3385
330
1F
100
AcDbEntity
  8
AM_0
100
AcDbCircle
 10
-38.99993133544798
 20
18.99999618530321
 30
0.0
 40
1.0
100
AcDbArc
 50
89.9999974955211
 51
180.0
  0
LINE
  5
3386
330
1F
100
AcDbEntity
  8
AM_0
100
AcDbLine
 10
-38.99993133544798
 20
5.20001411438121
 30
0.0
 11
-38.99993133544798
 21
11.00000190734921
 31
0.0
  0
LINE
  5
3387
330
1F
100
AcDbEntity
  8
AM_0
100
AcDbLine
 10
-39.99993133544798
 20
12.00000190734911
 30
0.0
 11
-39.99993133544798
 21
6.200014114381211
 31
0.0
  0
ARC
  5
3388
330
1F
100
AcDbEntity
  8
AM_0
100
AcDbCircle
 10
-38.99993133544798
 20
12.00000190734911
 30
0.0
 40
1.0
100
AcDbArc
 50
180.0000050089575
 51
270.0000025044788
  0
LINE
  5
3389
330
1F
100
AcDbEntity
  8
AM_0
100
AcDbLine
 10
-38.99992656707697
 20
5.20000839233521
 30
0.0
 11
-39.99992752075097
 21
6.200010299683212
 31
0.0
  0
LINE
  5
338A
330
1F
100
AcDbEntity
  8
AM_0
100
AcDbLine
 10
-33.69993400573697
 20
-5.199995040892789
 30
0.0
 11
-38.99993324279698
 21
-5.199995040892789
 31
0.0
  0
LINE
  5
338B
330
1F
100
AcDbEntity
  8
AM_0
100
AcDbLine
 10
-38.99993133544798
 20
-10.99999809265078
 30
0.0
 11
-38.99993133544798
 21
-5.199995040892789
 31
0.0
  0
LINE
  5
338C
330
1F
100
AcDbEntity
  8
AM_0
100
AcDbLine
 10
-39.99994564056297
 20
-6.200012207029788
 30
0.0
 11
-38.99994373321497
 21
-5.200012207029788
 31
0.0
  0
ARC
  5
338D
330
1F
100
AcDbEntity
  8
AM_0
100
AcDbCircle
 10
-38.99993133544798
 20
-11.99999809265078
 30
0.0
 40
1.0
100
AcDbArc
 50
89.9999974955211
 51
179.9999949910424
  0
LINE
  5
338E
330
1F
100
AcDbEntity
  8
AM_0
100
AcDbLine
 10
-38.99993133544798
 20
-20.00000190734779
 30
0.0
 11
-27.99993133544888
 21
-20.00000190734779
 31
0.0
  0
ARC
  5
338F
330
1F
100
AcDbEntity
  8
AM_0
100
AcDbCircle
 10
-38.99993133544798
 20
-19.00000190734779
 30
0.0
 40
1.0
100
AcDbArc
 50
180.0
 51
270.0000025044788
  0
LINE
  5
351D
330
1F
100
AcDbEntity
  8
AM_0
100
AcDbLine
 10
-3.517330169677981
 20
9.000001907349206
 30
0.0
 11
-3.517330169677983
 21
-8.999998092650793
 31
0.0
  0
VIEWPORT
  5
110
330
101
100
AcDbEntity
 67
     1
  8
0
100
AcDbViewport
 10
420.5
 20
297.0
 30
0.0
 40
948.9782706766916
 41
628.452
 68
     1
 69
     1
1001
ACAD
1000
MVIEW
1002
{
1070
    16
1010
0.0
1020
0.0
1030
0.0
1010
0.0
1020
0.0
1030
1.0
1040
0.0
1040
628.452
1040
420.5
1040
297.0
1040
50.0
1040
0.0
1040
0.0
1070
     0
1070
   100
1070
     1
1070
     1
1070
     0
1070
     0
1070
     0
1070
     0
1040
0.0
1040
0.0
1040
0.0
1040
10.0
1040
10.0
1040
10.0
1040
10.0
1070
     0
1002
{
1002
}
1002
}
  0
ENDSEC
  0
SECTION
  2
OBJECTS
  0
DICTIONARY
  5
C
330
0
100
AcDbDictionary
  3
ACAD_GROUP
350
D
  3
ACAD_LAYOUT
350
1A
  3
ACAD_MLINESTYLE
350
17
  3
ACAD_PLOTSETTINGS
350
19
  3
ACAD_PLOTSTYLENAME
350
E
  3
ACDBVARIABLEDICTIONARY
350
34
  3
ACMDICTIONARY
350
43
  3
AMG
350
2B
  3
AMGSNAPSETTINGS
350
6E
  3
DWGPROPS
350
3537
  3
ACDBHEADERROUNDTRIPXREC
350
3543
  0
DICTIONARY
  5
74
330
1F
100
AcDbDictionary
280
     1
  3
ACAD_INDEX
360
3539
  3
ACAD_LAYOUTSELFREF
360
3566
  0
DICTIONARY
  5
356B
330
101
100
AcDbDictionary
280
     1
  3
ACAD_LAYOUTSELFREF
360
356C
  0
DICTIONARY
  5
D
102
{ACAD_REACTORS
330
C
102
}
330
C
100
AcDbDictionary
  0
DICTIONARY
  5
1A
102
{ACAD_REACTORS
330
C
102
}
330
C
100
AcDbDictionary
  0
DICTIONARY
  5
17
102
{ACAD_REACTORS
330
C
102
}
330
C
100
AcDbDictionary
  3
STANDARD
350
18
  0
DICTIONARY
  5
19
102
{ACAD_REACTORS
330
C
102
}
330
C
100
AcDbDictionary
  0
ACDBDICTIONARYWDFLT
  5
E
102
{ACAD_REACTORS
330
C
102
}
330
C
100
AcDbDictionary
281
     1
  3
Normal
350
F
100
AcDbDictionaryWithDefault
340
F
  0
DICTIONARY
  5
34
102
{ACAD_REACTORS
330
C
102
}
330
C
100
AcDbDictionary
  3
INDEXCTL
350
35
  3
SORTENTS
350
B5E
  0
DICTIONARY
  5
43
102
{ACAD_REACTORS
330
C
102
}
330
C
100
AcDbDictionary
  3
ACMSTDDICTIONARY
350
260
  0
DICTIONARY
  5
2B
102
{ACAD_REACTORS
330
C
102
}
330
C
100
AcDbDictionary
  3
ACMGSETTINGS
350
2C
  0
DICTIONARY
  5
6E
102
{ACAD_REACTORS
330
C
102
}
330
C
100
AcDbDictionary
  0
XRECORD
  5
3537
102
{ACAD_REACTORS
330
C
102
}
330
C
100
AcDbXrecord
  1
DWGPROPS COOKIE
  2

  3

  4

  6

  7

  8

  9

300
AmdtFileType=82
301
=
302
=
303
=
304
=
305
=
306
=
307
=
308
=
309
=
 40
0.1109946180555555
 41
2452839.420061482
 42
2453075.608758136
  1

 90
        1
  0
DICTIONARY
  5
3543
102
{ACAD_REACTORS
330
C
102
}
330
C
100
AcDbDictionary
  3
TSTACKALIGN
350
3544
  3
TSTACKSIZE
350
3545
  3
HYPERLINKBASE
350
3546
  3
STYLESHEET
350
3547
  3
LAYOUTDICT
350
3548
  3
PLOTSETDICT
350
3549
  3
PLOTSTYLNAMDICT
350
354A
  3
LWETCUNION
350
354B
  3
INSUNITS
350
354C
  3
CEPSNTYPE
350
354D
  3
FINGERPRINTGUID
350
354E
  3
VERSIONGUID
350
354F
  3
PSVPSCALE
350
3550
  3
DIMSTYLEDATA
350
3551
  3
PUCSORTHOREF
350
3552
  3
PUCSORTHOVIEW
350
3553
  3
PUCSBASE
350
3554
  3
PUCSORGTOP
350
3555
  3
PUCSORGBOTTOM
350
3556
  3
PUCSORGLEFT
350
3557
  3
PUCSORGRIGHT
350
3558
  3
PUCSORGFRONT
350
3559
  3
PUCSORGBACK
350
355A
  3
UCSORTHOREF
350
355B
  3
UCSORTHOVIEW
350
355C
  3
UCSBASE
350
355D
  3
UCSORGTOP
350
355E
  3
UCSORGBOTTOM
350
355F
  3
UCSORGLEFT
350
3560
  3
UCSORGRIGHT
350
3561
  3
UCSORGFRONT
350
3562
  3
UCSORGBACK
350
3563
  0
DICTIONARY
  5
3539
102
{ACAD_REACTORS
330
74
102
}
330
74
100
AcDbDictionary
  3
*A1
350
353A
  0
XRECORD
  5
3566
102
{ACAD_REACTORS
330
74
102
}
330
74
100
AcDbXrecord
340
1F
  0
XRECORD
  5
356C
102
{ACAD_REACTORS
330
356B
102
}
330
356B
100
AcDbXrecord
340
101
  0
MLINESTYLE
  5
18
102
{ACAD_REACTORS
330
17
102
}
330
17
100
AcDbMlineStyle
  2
STANDARD
 70
     0
  3

 62
   256
 51
90.0
 52
90.0
 71
     2
 49
0.5
 62
   256
  6
BYLAYER
 49
-0.5
 62
   256
  6
BYLAYER
  0
ACDBPLACEHOLDER
  5
F
102
{ACAD_REACTORS
330
E
102
}
330
E
100
AcDbPlaceHolder
280
     0
  0
DICTIONARYVAR
  5
35
102
{ACAD_REACTORS
330
34
102
}
330
34
100
DictionaryVariables
280
     0
  1
1
  0
DICTIONARYVAR
  5
B5E
102
{ACAD_REACTORS
330
34
102
}
330
34
100
DictionaryVariables
280
     0
  1
96
  0
DICTIONARY
  5
260
102
{ACAD_REACTORS
330
43
102
}
330
43
100
AcDbDictionary
  0
DICTIONARY
  5
2C
102
{ACAD_REACTORS
330
2B
102
}
330
2B
100
AcDbDictionary
  3
DWGSETTINGS
350
2D
  0
XRECORD
  5
3544
102
{ACAD_REACTORS
330
3543
102
}
330
3543
100
AcDbXrecord
 90
        1
  0
XRECORD
  5
3545
102
{ACAD_REACTORS
330
3543
102
}
330
3543
100
AcDbXrecord
 90
       70
  0
XRECORD
  5
3546
102
{ACAD_REACTORS
330
3543
102
}
330
3543
100
AcDbXrecord
  1

  0
XRECORD
  5
3547
102
{ACAD_REACTORS
330
3543
102
}
330
3543
100
AcDbXrecord
  1
ASAMI.ctb
  0
XRECORD
  5
3548
102
{ACAD_REACTORS
330
3543
102
}
330
3543
100
AcDbXrecord
340
1A
  0
XRECORD
  5
3549
102
{ACAD_REACTORS
330
3543
102
}
330
3543
100
AcDbXrecord
340
19
  0
XRECORD
  5
354A
102
{ACAD_REACTORS
330
3543
102
}
330
3543
100
AcDbXrecord
340
E
  0
XRECORD
  5
354B
102
{ACAD_REACTORS
330
3543
102
}
330
3543
100
AcDbXrecord
 90
    10781
  0
XRECORD
  5
354C
102
{ACAD_REACTORS
330
3543
102
}
330
3543
100
AcDbXrecord
 90
        4
  0
XRECORD
  5
354D
102
{ACAD_REACTORS
330
3543
102
}
330
3543
100
AcDbXrecord
 90
        0
  0
XRECORD
  5
354E
102
{ACAD_REACTORS
330
3543
102
}
330
3543
100
AcDbXrecord
  1
{AFB28963-8C59-40AE-9337-C84526B81ACE}
  0
XRECORD
  5
354F
102
{ACAD_REACTORS
330
3543
102
}
330
3543
100
AcDbXrecord
  1
{CC238B89-E1FF-4990-82B1-FE103F4494AC}
  0
XRECORD
  5
3550
102
{ACAD_REACTORS
330
3543
102
}
330
3543
100
AcDbXrecord
 40
0.0
  0
XRECORD
  5
3551
102
{ACAD_REACTORS
330
3543
102
}
330
3543
100
AcDbXrecord
1000
DSTYLE
1002
{
1070
    79
 70
     2
1070
   341
340
59
1070
   342
340
59
1070
   371
 70
    -1
1070
   372
 70
    -1
1002
}
  0
XRECORD
  5
3552
102
{ACAD_REACTORS
330
3543
102
}
330
3543
100
AcDbXrecord
340
0
  0
XRECORD
  5
3553
102
{ACAD_REACTORS
330
3543
102
}
330
3543
100
AcDbXrecord
 70
     0
  0
XRECORD
  5
3554
102
{ACAD_REACTORS
330
3543
102
}
330
3543
100
AcDbXrecord
340
0
  0
XRECORD
  5
3555
102
{ACAD_REACTORS
330
3543
102
}
330
3543
100
AcDbXrecord
 10
0.0
 20
0.0
 30
0.0
  0
XRECORD
  5
3556
102
{ACAD_REACTORS
330
3543
102
}
330
3543
100
AcDbXrecord
 10
0.0
 20
0.0
 30
0.0
  0
XRECORD
  5
3557
102
{ACAD_REACTORS
330
3543
102
}
330
3543
100
AcDbXrecord
 10
0.0
 20
0.0
 30
0.0
  0
XRECORD
  5
3558
102
{ACAD_REACTORS
330
3543
102
}
330
3543
100
AcDbXrecord
 10
0.0
 20
0.0
 30
0.0
  0
XRECORD
  5
3559
102
{ACAD_REACTORS
330
3543
102
}
330
3543
100
AcDbXrecord
 10
0.0
 20
0.0
 30
0.0
  0
XRECORD
  5
355A
102
{ACAD_REACTORS
330
3543
102
}
330
3543
100
AcDbXrecord
 10
0.0
 20
0.0
 30
0.0
  0
XRECORD
  5
355B
102
{ACAD_REACTORS
330
3543
102
}
330
3543
100
AcDbXrecord
340
0
  0
XRECORD
  5
355C
102
{ACAD_REACTORS
330
3543
102
}
330
3543
100
AcDbXrecord
 70
     0
  0
XRECORD
  5
355D
102
{ACAD_REACTORS
330
3543
102
}
330
3543
100
AcDbXrecord
340
0
  0
XRECORD
  5
355E
102
{ACAD_REACTORS
330
3543
102
}
330
3543
100
AcDbXrecord
 10
0.0
 20
0.0
 30
0.0
  0
XRECORD
  5
355F
102
{ACAD_REACTORS
330
3543
102
}
330
3543
100
AcDbXrecord
 10
0.0
 20
0.0
 30
0.0
  0
XRECORD
  5
3560
102
{ACAD_REACTORS
330
3543
102
}
330
3543
100
AcDbXrecord
 10
0.0
 20
0.0
 30
0.0
  0
XRECORD
  5
3561
102
{ACAD_REACTORS
330
3543
102
}
330
3543
100
AcDbXrecord
 10
0.0
 20
0.0
 30
0.0
  0
XRECORD
  5
3562
102
{ACAD_REACTORS
330
3543
102
}
330
3543
100
AcDbXrecord
 10
0.0
 20
0.0
 30
0.0
  0
XRECORD
  5
3563
102
{ACAD_REACTORS
330
3543
102
}
330
3543
100
AcDbXrecord
 10
0.0
 20
0.0
 30
0.0
  0
LAYER_INDEX
  5
353A
102
{ACAD_REACTORS
330
3539
102
}
330
3539
100
AcDbIndex
 40
2453152.398235706
100
AcDbLayerIndex
  8
0
360
353B
 90
        0
  8
AM_0
360
353C
 90
      142
  8
AM_7
360
353D
 90
        1
  8
AM_11
360
353E
 90
        1
  8
AM_5
360
353F
 90
        9
  8
Defpoints
360
3540
 90
        0
  8
AM_6
360
3541
 90
        1
  0
XRECORD
  5
2D
102
{ACAD_REACTORS
330
2C
102
}
330
2C
100
AcDbXrecord
  1
VERSION
140
15.0
  1
PRODUCT
  2
AutoCAD Mechanical 2000
  0
IDBUFFER
  5
353B
330
0
100
AcDbIdBuffer
  0
IDBUFFER
  5
353C
330
0
100
AcDbIdBuffer
330
3372
330
3373
330
3374
330
3375
330
3376
330
3377
330
3378
330
3379
330
337A
330
337B
330
337C
330
337D
330
337E
330
337F
330
3381
330
3382
330
3383
330
3384
330
3385
330
3386
330
3387
330
3388
330
3389
330
338A
330
338B
330
338C
330
338D
330
338E
330
338F
330
351D
330
3301
330
3302
330
3303
330
3304
330
3306
330
3307
330
3308
330
3309
330
330A
330
330B
330
330C
330
330D
330
330E
330
330F
330
3310
330
3311
330
3312
330
3313
330
3314
330
3315
330
3316
330
3317
330
3318
330
3319
330
331A
330
331B
330
331C
330
331D
330
331E
330
331F
330
3320
330
3321
330
3322
330
3323
330
3324
330
3325
330
3326
330
3327
330
3328
330
3329
330
332A
330
332B
330
332C
330
332D
330
332E
330
332F
330
3330
330
3331
330
3332
330
3333
330
3334
330
3335
330
3336
330
3337
330
3338
330
3339
330
333A
330
333B
330
333C
330
333D
330
333E
330
333F
330
3340
330
3341
330
3342
330
3343
330
3344
330
3345
330
3346
330
3347
330
3348
330
3349
330
334A
330
334B
330
334C
330
334D
330
334E
330
334F
330
3350
330
3351
330
3352
330
3353
330
3354
330
3355
330
3356
330
3357
330
3358
330
3359
330
335A
330
335B
330
335C
330
335D
330
335E
330
335F
330
3360
330
3361
330
3362
330
3363
330
3364
330
3365
330
3366
330
3367
330
3368
330
3369
330
336A
330
336B
330
336C
330
336D
330
336E
330
336F
330
3370
330
3371
  0
IDBUFFER
  5
353D
330
0
100
AcDbIdBuffer
330
3300
  0
IDBUFFER
  5
353E
330
0
100
AcDbIdBuffer
330
3305
  0
IDBUFFER
  5
353F
330
0
100
AcDbIdBuffer
330
2BFF
330
2C97
330
2D98
330
2E3C
330
2EC7
330
2F52
330
3018
330
30AC
330
313C
  0
IDBUFFER
  5
3540
330
0
100
AcDbIdBuffer
  0
IDBUFFER
  5
3541
330
0
100
AcDbIdBuffer
330
1142
  0
ENDSEC
  0
EOF
