  0
SECTION
  2
HEADER
  9
$ACADVER
  1
AC1014
  9
$ACADMAINTVER
 70
     9
  9
$DWGCODEPAGE
  3
ANSI_932
  9
$INSBASE
 10
0.0
 20
0.0
 30
0.0
  9
$EXTMIN
 10
-202.3829115585025
 20
-61.50000239732619
 30
-0.00000001
  9
$EXTMAX
 10
19.53445534570298
 20
34.3000000795101
 30
0.00000001
  9
$LIMMIN
 10
-217.7165852329617
 20
-104.1231290559895
  9
$LIMMAX
 10
100.9015630366993
 20
57.03739630465282
  9
$ORTHOMODE
 70
     0
  9
$REGENMODE
 70
     1
  9
$FILLMODE
 70
     1
  9
$QTEXTMODE
 70
     0
  9
$MIRRTEXT
 70
     0
  9
$DRAGMODE
 70
     2
  9
$LTSCALE
 40
1.0
  9
$OSMODE
 70
    55
  9
$ATTMODE
 70
     1
  9
$TEXTSIZE
 40
2.5
  9
$TRACEWID
 40
1.0
  9
$TEXTSTYLE
  7
STANDARD
  9
$CLAYER
  8
AM_0
  9
$CELTYPE
  6
BYLAYER
  9
$CECOLOR
 62
   256
  9
$CELTSCALE
 40
1.0
  9
$DELOBJ
 70
     1
  9
$DISPSILH
 70
     0
  9
$DIMSCALE
 40
1.0
  9
$DIMASZ
 40
2.5
  9
$DIMEXO
 40
1.0
  9
$DIMDLI
 40
12.0
  9
$DIMRND
 40
0.0
  9
$DIMDLE
 40
0.0
  9
$DIMEXE
 40
1.0
  9
$DIMTP
 40
0.1
  9
$DIMTM
 40
0.1
  9
$DIMTXT
 40
3.2
  9
$DIMCEN
 40
0.0
  9
$DIMTSZ
 40
0.0
  9
$DIMTOL
 70
     0
  9
$DIMLIM
 70
     0
  9
$DIMTIH
 70
     0
  9
$DIMTOH
 70
     0
  9
$DIMSE1
 70
     0
  9
$DIMSE2
 70
     0
  9
$DIMTAD
 70
     3
  9
$DIMZIN
 70
     8
  9
$DIMBLK
  1
OPEN30
  9
$DIMASO
 70
     1
  9
$DIMSHO
 70
     1
  9
$DIMPOST
  1

  9
$DIMAPOST
  1
"
  9
$DIMALT
 70
     0
  9
$DIMALTD
 70
     2
  9
$DIMALTF
 40
0.0393701
  9
$DIMLFAC
 40
1.0
  9
$DIMTOFL
 70
     1
  9
$DIMTVP
 40
0.0
  9
$DIMTIX
 70
     0
  9
$DIMSOXD
 70
     0
  9
$DIMSAH
 70
     0
  9
$DIMBLK1
  1

  9
$DIMBLK2
  1

  9
$DIMSTYLE
  2
AM_JIS
  9
$DIMCLRD
 70
   256
  9
$DIMCLRE
 70
   256
  9
$DIMCLRT
 70
     2
  9
$DIMTFAC
 40
0.71
  9
$DIMGAP
 40
1.5
  9
$DIMJUST
 70
     0
  9
$DIMSD1
 70
     0
  9
$DIMSD2
 70
     0
  9
$DIMTOLJ
 70
     0
  9
$DIMTZIN
 70
     0
  9
$DIMALTZ
 70
     0
  9
$DIMALTTZ
 70
     0
  9
$DIMFIT
 70
     3
  9
$DIMUPT
 70
     0
  9
$DIMUNIT
 70
     2
  9
$DIMDEC
 70
     3
  9
$DIMTDEC
 70
     3
  9
$DIMALTU
 70
     2
  9
$DIMALTTD
 70
     2
  9
$DIMTXSTY
  7
ASAMI
  9
$DIMAUNIT
 70
     0
  9
$LUNITS
 70
     2
  9
$LUPREC
 70
     0
  9
$SKETCHINC
 40
1.0
  9
$FILLETRAD
 40
2.5
  9
$AUNITS
 70
     0
  9
$AUPREC
 70
     0
  9
$MENU
  1
.
  9
$ELEVATION
 40
0.0
  9
$PELEVATION
 40
0.0
  9
$THICKNESS
 40
0.0
  9
$LIMCHECK
 70
     0
  9
$BLIPMODE
 70
     0
  9
$CHAMFERA
 40
2.5
  9
$CHAMFERB
 40
2.5
  9
$CHAMFERC
 40
20.0
  9
$CHAMFERD
 40
0.0
  9
$SKPOLY
 70
     0
  9
$TDCREATE
 40
2452839.420061482
  9
$TDUPDATE
 40
2453152.394987279
  9
$TDINDWG
 40
0.1552354630
  9
$TDUSRTIMER
 40
0.1552354630
  9
$USRTIMER
 70
     1
  9
$ANGBASE
 50
0.0
  9
$ANGDIR
 70
     0
  9
$PDMODE
 70
     0
  9
$PDSIZE
 40
0.0
  9
$PLINEWID
 40
0.0
  9
$COORDS
 70
     1
  9
$SPLFRAME
 70
     0
  9
$SPLINETYPE
 70
     6
  9
$SPLINESEGS
 70
     8
  9
$ATTDIA
 70
     1
  9
$ATTREQ
 70
     1
  9
$HANDLING
 70
 12289
  9
$HANDSEED
  5
4DD4
  9
$SURFTAB1
 70
     6
  9
$SURFTAB2
 70
     6
  9
$SURFTYPE
 70
     6
  9
$SURFU
 70
     6
  9
$SURFV
 70
     6
  9
$UCSNAME
  2

  9
$UCSORG
 10
0.0
 20
0.0
 30
0.0
  9
$UCSXDIR
 10
1.0
 20
0.0
 30
0.0
  9
$UCSYDIR
 10
0.0
 20
1.0
 30
0.0
  9
$PUCSNAME
  2

  9
$PUCSORG
 10
0.0
 20
0.0
 30
0.0
  9
$PUCSXDIR
 10
1.0
 20
0.0
 30
0.0
  9
$PUCSYDIR
 10
0.0
 20
1.0
 30
0.0
  9
$USERI1
 70
     0
  9
$USERI2
 70
     0
  9
$USERI3
 70
     0
  9
$USERI4
 70
     0
  9
$USERI5
 70
     0
  9
$USERR1
 40
0.0
  9
$USERR2
 40
0.0
  9
$USERR3
 40
0.0
  9
$USERR4
 40
0.0
  9
$USERR5
 40
0.0
  9
$WORLDVIEW
 70
     1
  9
$SHADEDGE
 70
     3
  9
$SHADEDIF
 70
    70
  9
$TILEMODE
 70
     1
  9
$MAXACTVP
 70
    64
  9
$PINSBASE
 10
0.0
 20
0.0
 30
0.0
  9
$PLIMCHECK
 70
     0
  9
$PEXTMIN
 10
1.000000000000000E+20
 20
1.000000000000000E+20
 30
1.000000000000000E+20
  9
$PEXTMAX
 10
-1.000000000000000E+20
 20
-1.000000000000000E+20
 30
-1.000000000000000E+20
  9
$PLIMMIN
 10
0.0
 20
0.0
  9
$PLIMMAX
 10
841.0
 20
594.0
  9
$UNITMODE
 70
     0
  9
$VISRETAIN
 70
     1
  9
$PLINEGEN
 70
     0
  9
$PSLTSCALE
 70
     0
  9
$TREEDEPTH
 70
  3020
  9
$PICKSTYLE
 70
     0
  9
$CMLSTYLE
  2
STANDARD
  9
$CMLJUST
 70
     0
  9
$CMLSCALE
 40
20.0
  9
$PROXYGRAPHICS
 70
     1
  9
$MEASUREMENT
 70
     1
  0
ENDSEC
  0
SECTION
  2
CLASSES
  0
CLASS
  1
ACDBDICTIONARYWDFLT
  2
AcDbDictionaryWithDefault
  3
AutoCAD 2000
 90
        0
280
     0
281
     0
  0
CLASS
  1
ACDBPLACEHOLDER
  2
AcDbPlaceHolder
  3
AutoCAD 2000
 90
        0
280
     0
281
     0
  0
CLASS
  1
LAYOUT
  2
AcDbLayout
  3
AutoCAD 2000
 90
        0
280
     0
281
     0
  0
CLASS
  1
AMGSETTINGSOBJ
  2
AmgSettingsObj
  3
"AcadM|Product Description: AutoCAD Mechanical 2000|Company: Autodesk"
 90
        0
280
     0
281
     0
  0
CLASS
  1
ACME_DOCUMENT
  2
AcMeDbDoc
  3
AcMeServices
 90
        0
280
     0
281
     0
  0
CLASS
  1
ACMESCOPE
  2
AcMeScope
  3
AcMeServices
 90
        0
280
     0
281
     0
  0
CLASS
  1
ACMECOMMANDHISTORY
  2
AcMeCommandHistory
  3
AcMeServices
 90
        0
280
     0
281
     0
  0
CLASS
  1
DICTIONARYVAR
  2
AcDbDictionaryVar
  3
AutoCAD 2000
 90
        0
280
     0
281
     0
  0
CLASS
  1
ACIMSYSVARMAN
  2
AcImSysVarManager
  3
AcMeServices
 90
        0
280
     0
281
     0
  0
CLASS
  1
ACIMREALSYSVAR
  2
AcImRealSysVar
  3
AcMeServices
 90
        0
280
     0
281
     0
  0
CLASS
  1
ACIMINTSYSVAR
  2
AcImIntSysVar
  3
AcMeServices
 90
        0
280
     0
281
     0
  0
CLASS
  1
ACMEDRAWINGMAN
  2
AcMeDrawingMan
  3
AcMeServices
 90
        0
280
     0
281
     0
  0
CLASS
  1
ACMEVIEW
  2
AcMeView
  3
AcMeServices
 90
        0
280
     0
281
     0
  0
CLASS
  1
ACDBENTITYCACHE
  2
AcMeEntityCache
  3
AcMeServices
 90
        0
280
     0
281
     0
  0
CLASS
  1
GSMANAGER
  2
AcMeGSManager
  3
AcMeServices
 90
        0
280
     0
281
     0
  0
CLASS
  1
AmdtInternalReactor
  2
AmdtInternalReactor
  3
AcMeServices
 90
        0
280
     0
281
     0
  0
CLASS
  1
ACMESTATEMGR
  2
AcMeStateMgr
  3
AcMeServices
 90
        0
280
     0
281
     0
  0
CLASS
  1
ACME_DATABASE
  2
AcMeDbDatabase
  3
AcMeServices
 90
        0
280
     0
281
     0
  0
CLASS
  1
ACRFINSADJUSTERMGR
  2
AcRfInsAdjusterMgr
  3
AcMeServices
 90
        0
280
     0
281
     0
  0
CLASS
  1
ACMDATADICTIONARY
  2
AcmDataDictionary
  3
"AcmSymBB|Product Description: AutoCAD Mechanical 2000|Company: Autodesk"
 90
        0
280
     0
281
     0
  0
CLASS
  1
ACMDATAENTRYBLOCK
  2
AcmDataEntryBlock
  3
"AcmSymBB|Product Description: AutoCAD Mechanical 2000|Company: Autodesk"
 90
        0
280
     0
281
     0
  0
CLASS
  1
AMGOBJPROPCFG
  2
AmgObjPropCfg
  3
"AmgLay|Product Description: AutoCAD Mechanical 2000|Company: Autodesk"
 90
        1
280
     0
281
     0
  0
CLASS
  1
ACAMGFILTERDAT
  2
AcAmgFilterDat
  3
"AcadM|Product Description: AutoCAD Mechanical 2000|Company: Autodesk"
 90
        0
280
     0
281
     0
  0
CLASS
  1
LAYER_INDEX
  2
AcDbLayerIndex
  3
AutoCAD 2000
 90
        0
280
     0
281
     0
  0
CLASS
  1
IDBUFFER
  2
AcDbIdBuffer
  3
AutoCAD 2000
 90
        0
280
     0
281
     0
  0
CLASS
  1
ACIMSTRSYSVAR
  2
AcImStrSysVar
  3
AcMeServices
 90
        0
280
     0
281
     0
  0
CLASS
  1
ACMSTANDARDJIS
  2
AcmStandardJIS
  3
"AcmSymBB|Product Description: AutoCAD Mechanical 2000|Company: Autodesk"
 90
        0
280
     0
281
     0
  0
CLASS
  1
ACMSURFSTANDARDJIS
  2
AcmSurfTextStdJIS
  3
"AcmSymBB|Product Description: AutoCAD Mechanical 2000|Company: Autodesk"
 90
        0
280
     0
281
     0
  0
CLASS
  1
ACMFCFSTANDARDJIS
  2
AcmFCFStdJIS
  3
"AcmSymBB|Product Description: AutoCAD Mechanical 2000|Company: Autodesk"
 90
        0
280
     0
281
     0
  0
CLASS
  1
ACMWELDSTANDARDJIS
  2
AcmWeldingStdJIS
  3
"AcmSymBB|Product Description: AutoCAD Mechanical 2000|Company: Autodesk"
 90
        0
280
     0
281
     0
  0
CLASS
  1
ACMIDSTANDARDJIS
  2
AcmIdStdJIS
  3
"AcmSymBB|Product Description: AutoCAD Mechanical 2000|Company: Autodesk"
 90
        0
280
     0
281
     0
  0
CLASS
  1
ACMDATUMSTANDARDJIS
  2
AcmDatumStdJIS
  3
"AcmSymBB|Product Description: AutoCAD Mechanical 2000|Company: Autodesk"
 90
        0
280
     0
281
     0
  0
CLASS
  1
ACMBOMSTANDARDJIS
  2
AcmBOMStdJIS
  3
"AcmSymBB|Product Description: AutoCAD Mechanical 2000|Company: Autodesk"
 90
        0
280
     0
281
     0
  0
CLASS
  1
ACMSTANDARDANSI
  2
AcmStandardANSI
  3
"AcmSymBB|Product Description: AutoCAD Mechanical 2000|Company: Autodesk"
 90
        0
280
     0
281
     0
  0
CLASS
  1
ACMSURFSTANDARDANSI
  2
AcmSurfTextStdANSI
  3
"AcmSymBB|Product Description: AutoCAD Mechanical 2000|Company: Autodesk"
 90
        0
280
     0
281
     0
  0
CLASS
  1
ACMFCFSTANDARDANSI
  2
AcmFCFStdANSI
  3
"AcmSymBB|Product Description: AutoCAD Mechanical 2000|Company: Autodesk"
 90
        0
280
     0
281
     0
  0
CLASS
  1
ACMWELDSTANDARDANSI
  2
AcmWeldingStdANSI
  3
"AcmSymBB|Product Description: AutoCAD Mechanical 2000|Company: Autodesk"
 90
        0
280
     0
281
     0
  0
CLASS
  1
ACMIDSTANDARDANSI
  2
AcmIdStdANSI
  3
"AcmSymBB|Product Description: AutoCAD Mechanical 2000|Company: Autodesk"
 90
        0
280
     0
281
     0
  0
CLASS
  1
ACMDATUMSTANDARDANSI
  2
AcmDatumStdANSI
  3
"AcmSymBB|Product Description: AutoCAD Mechanical 2000|Company: Autodesk"
 90
        0
280
     0
281
     0
  0
CLASS
  1
ACMBOMSTANDARDANSI
  2
AcmBOMStdANSI
  3
"AcmSymBB|Product Description: AutoCAD Mechanical 2000|Company: Autodesk"
 90
        0
280
     0
281
     0
  0
CLASS
  1
ACMSTANDARDBSI
  2
AcmStandardBSI
  3
"AcmSymBB|Product Description: AutoCAD Mechanical 2000|Company: Autodesk"
 90
        0
280
     0
281
     0
  0
CLASS
  1
ACMSURFSTANDARDBSI
  2
AcmSurfTextStdBSI
  3
"AcmSymBB|Product Description: AutoCAD Mechanical 2000|Company: Autodesk"
 90
        0
280
     0
281
     0
  0
CLASS
  1
ACMFCFSTANDARDBSI
  2
AcmFCFStdBSI
  3
"AcmSymBB|Product Description: AutoCAD Mechanical 2000|Company: Autodesk"
 90
        0
280
     0
281
     0
  0
CLASS
  1
ACMWELDSTANDARDBSI
  2
AcmWeldingStdBSI
  3
"AcmSymBB|Product Description: AutoCAD Mechanical 2000|Company: Autodesk"
 90
        0
280
     0
281
     0
  0
CLASS
  1
ACMIDSTANDARDBSI
  2
AcmIdStdBSI
  3
"AcmSymBB|Product Description: AutoCAD Mechanical 2000|Company: Autodesk"
 90
        0
280
     0
281
     0
  0
CLASS
  1
ACMDATUMSTANDARDBSI
  2
AcmDatumStdBSI
  3
"AcmSymBB|Product Description: AutoCAD Mechanical 2000|Company: Autodesk"
 90
        0
280
     0
281
     0
  0
CLASS
  1
ACMBOMSTANDARDBSI
  2
AcmBOMStdBSI
  3
"AcmSymBB|Product Description: AutoCAD Mechanical 2000|Company: Autodesk"
 90
        0
280
     0
281
     0
  0
CLASS
  1
LONG_TRANSACTION
  2
AcDbLongTransaction
  3
AutoCAD 2000
 90
        0
280
     0
281
     0
  0
CLASS
  1
LWPOLYLINE
  2
AcDbPolyline
  3
AutoCAD 2000
 90
        0
280
     0
281
     1
  0
CLASS
  1
HATCH
  2
AcDbHatch
  3
AutoCAD 2000
 90
        0
280
     0
281
     1
  0
CLASS
  1
XRECORD
  2
AcDbXrecord
  3
AutoCAD 2000
 90
        0
280
     0
281
     0
  0
ENDSEC
  0
SECTION
  2
TABLES
  0
TABLE
  2
VPORT
  5
8
330
0
100
AcDbSymbolTable
 70
     3
  0
VPORT
  5
4DA9
330
8
100
AcDbSymbolTableRecord
100
AcDbViewportTableRecord
  2
*ACTIVE
 70
     0
 10
0.0
 20
0.0
 11
1.0
 21
1.0
 12
-94.42587027024757
 22
-10.67230274255204
 13
0.0
 23
0.0
 14
2.5
 24
2.5
 15
10.0
 25
10.0
 16
0.0
 26
0.0
 36
1.0
 17
0.0
 27
0.0
 37
0.0
 40
188.5899633950987
 41
1.56570841889117
 42
50.0
 43
0.0
 44
0.0
 50
0.0
 51
0.0
 71
     0
 72
   100
 73
     1
 74
     3
 75
     0
 76
     0
 77
     0
 78
     0
  0
ENDTAB
  0
TABLE
  2
LTYPE
  5
5
330
0
100
AcDbSymbolTable
 70
    10
  0
LTYPE
  5
14
330
5
100
AcDbSymbolTableRecord
100
AcDbLinetypeTableRecord
  2
BYBLOCK
 70
     0
  3

 72
    65
 73
     0
 40
0.0
  0
LTYPE
  5
15
330
5
100
AcDbSymbolTableRecord
100
AcDbLinetypeTableRecord
  2
BYLAYER
 70
     0
  3

 72
    65
 73
     0
 40
0.0
  0
LTYPE
  5
16
330
5
100
AcDbSymbolTableRecord
100
AcDbLinetypeTableRecord
  2
CONTINUOUS
 70
     0
  3
Solid line
 72
    65
 73
     0
 40
0.0
  0
LTYPE
  5
4B
330
5
100
AcDbSymbolTableRecord
100
AcDbLinetypeTableRecord
  2
AM_ISO02W050
 70
     0
  3
__ __ __ __ __ __ __ __ __ __ __ __ __ __ __
 72
    65
 73
     2
 40
7.5
 49
6.0
 74
     0
 49
-1.5
 74
     0
  0
LTYPE
  5
4C
330
5
100
AcDbSymbolTableRecord
100
AcDbLinetypeTableRecord
  2
AM_ISO08W050
 70
     0
  3
____ . ____ . ____ . ____ . ____ . ____ . ____
 72
    65
 73
     4
 40
18.0
 49
12.0
 74
     0
 49
-1.5
 74
     0
 49
3.0
 74
     0
 49
-1.5
 74
     0
  0
LTYPE
  5
4D
330
5
100
AcDbSymbolTableRecord
100
AcDbLinetypeTableRecord
  2
AM_ISO09W050
 70
     0
  3
_____ . . _____ . . _____ . . ____ .. ____
 72
    65
 73
     6
 40
22.5
 49
12.0
 74
     0
 49
-1.5
 74
     0
 49
3.0
 74
     0
 49
-1.5
 74
     0
 49
3.0
 74
     0
 49
-1.5
 74
     0
  0
LTYPE
  5
4E
330
5
100
AcDbSymbolTableRecord
100
AcDbLinetypeTableRecord
  2
AMCONSTR
 70
     0
  3
_______________________
 72
    65
 73
     2
 40
9999.0
 49
9999.0
 74
     0
 49
0.0
 74
     0
  0
LTYPE
  5
4F
330
5
100
AcDbSymbolTableRecord
100
AcDbLinetypeTableRecord
  2
AM_ISO02W050X2
 70
     0
  3
 _ _ _ _ _ _ _ _ _ _ _ _
 72
    65
 73
     2
 40
3.75
 49
3.0
 74
     0
 49
-0.75
 74
     0
  0
LTYPE
  5
50
330
5
100
AcDbSymbolTableRecord
100
AcDbLinetypeTableRecord
  2
AM_ISO08W050X2
 70
     0
  3
__ . __ . __ . __ . __ . __
 72
    65
 73
     4
 40
9.0
 49
6.0
 74
     0
 49
-0.75
 74
     0
 49
1.5
 74
     0
 49
-0.75
 74
     0
  0
LTYPE
  5
53
330
5
100
AcDbSymbolTableRecord
100
AcDbLinetypeTableRecord
  2
AMZIGZAG
 70
     0
  3
/\/-/\/-/\/-/\/-/\/-/\/
 72
    65
 73
     2
 40
11.00009999999999
 49
0.0001
 74
     4
 75
   135
340
52
 46
0.04
 50
0.0
 44
0.0
 45
0.0
 49
-11.0
 74
     0
  0
LTYPE
  5
166
330
5
100
AcDbSymbolTableRecord
100
AcDbLinetypeTableRecord
  2
ACJISTGL
 70
     0
  3
_ _ _ _ _
 72
    65
 73
     2
 40
3.0
 49
2.0
 74
     0
 49
-1.0
 74
     0
  0
LTYPE
  5
26A
330
5
100
AcDbSymbolTableRecord
100
AcDbLinetypeTableRecord
  2
ACJISTGB
 70
     0
  3
__ . . __ . .
 72
    65
 73
     6
 40
9.0
 49
4.0
 74
     0
 49
-1.0
 74
     0
 49
1.0
 74
     0
 49
-1.0
 74
     0
 49
1.0
 74
     0
 49
-1.0
 74
     0
  0
ENDTAB
  0
TABLE
  2
LAYER
  5
2
330
0
100
AcDbSymbolTable
 70
     7
  0
LAYER
  5
10
330
2
100
AcDbSymbolTableRecord
100
AcDbLayerTableRecord
  2
0
 70
     0
 62
     7
  6
CONTINUOUS
  0
LAYER
  5
3F9
330
2
100
AcDbSymbolTableRecord
100
AcDbLayerTableRecord
  2
AM_0
 70
     0
 62
     7
  6
CONTINUOUS
  0
LAYER
  5
CD5
330
2
100
AcDbSymbolTableRecord
100
AcDbLayerTableRecord
  2
AM_7
 70
     0
 62
     4
  6
AM_ISO08W050
  0
LAYER
  5
CDE
330
2
100
AcDbSymbolTableRecord
100
AcDbLayerTableRecord
  2
AM_11
 70
     0
 62
     3
  6
AM_ISO09W050
  0
LAYER
  5
CFB
330
2
100
AcDbSymbolTableRecord
100
AcDbLayerTableRecord
  2
AM_5
 70
     0
 62
     3
  6
CONTINUOUS
  0
LAYER
  5
CFD
330
2
100
AcDbSymbolTableRecord
100
AcDbLayerTableRecord
  2
DEFPOINTS
 70
     0
 62
     7
  6
CONTINUOUS
  0
LAYER
  5
113C
330
2
100
AcDbSymbolTableRecord
100
AcDbLayerTableRecord
  2
AM_6
 70
     0
 62
     2
  6
CONTINUOUS
  0
ENDTAB
  0
TABLE
  2
STYLE
  5
3
330
0
100
AcDbSymbolTable
 70
     5
  0
STYLE
  5
11
330
3
100
AcDbSymbolTableRecord
100
AcDbTextStyleTableRecord
  2
STANDARD
 70
     0
 40
0.0
 41
1.0
 50
0.0
 71
     0
 42
2.5
  3
simplex.shx
  4
EXTFONT.SHX
  0
STYLE
  5
52
330
3
100
AcDbSymbolTableRecord
100
AcDbTextStyleTableRecord
  2

 70
     1
 40
0.0
 41
1.0
 50
0.0
 71
     0
 42
2.5
  3
ltypeshp.shx
  4

  0
STYLE
  5
6B
330
3
100
AcDbSymbolTableRecord
100
AcDbTextStyleTableRecord
  2
ASAMI
 70
     0
 40
0.0
 41
1.0
 50
0.0
 71
     0
 42
2.5
  3
simplex.shx
  4
EXTFONT.SHX
  0
STYLE
  5
262
330
3
100
AcDbSymbolTableRecord
100
AcDbTextStyleTableRecord
  2
ACJISTS
 70
     0
 40
1.0
 41
1.0
 50
0.0
 71
     0
 42
2.5
  3
simplex.shx
  4
bigfont.shx
  0
STYLE
  5
269
330
3
100
AcDbSymbolTableRecord
100
AcDbTextStyleTableRecord
  2
ACJISGDT
 70
     0
 40
0.0
 41
1.0
 50
0.0
 71
     0
 42
2.5
  3
amgdtans.shx
  4

  0
ENDTAB
  0
TABLE
  2
VIEW
  5
6
330
0
100
AcDbSymbolTable
 70
     0
  0
ENDTAB
  0
TABLE
  2
UCS
  5
7
330
0
100
AcDbSymbolTable
 70
     0
  0
ENDTAB
  0
TABLE
  2
APPID
  5
9
330
0
100
AcDbSymbolTable
 70
    12
  0
APPID
  5
12
330
9
100
AcDbSymbolTableRecord
100
AcDbRegAppTableRecord
  2
ACAD
 70
     0
  0
APPID
  5
30
330
9
100
AcDbSymbolTableRecord
100
AcDbRegAppTableRecord
  2
MCAD_NO_VIS
 70
     0
  0
APPID
  5
31
330
9
100
AcDbSymbolTableRecord
100
AcDbRegAppTableRecord
  2
ACAD_TEMP_GRAPHIC
 70
     0
  0
APPID
  5
2C2
330
9
100
AcDbSymbolTableRecord
100
AcDbRegAppTableRecord
  2
GENIUS_GENDTOL_13
 70
     0
  0
APPID
  5
339
330
9
100
AcDbSymbolTableRecord
100
AcDbRegAppTableRecord
  2
GENIUS_GENODEF_13
 70
     0
  0
APPID
  5
33A
330
9
100
AcDbSymbolTableRecord
100
AcDbRegAppTableRecord
  2
GENIUS_GENOBJ-N-RSBK_13
 70
     0
  0
APPID
  5
33B
330
9
100
AcDbSymbolTableRecord
100
AcDbRegAppTableRecord
  2
GENIUS_GENOBJ-N-LIB_13
 70
     0
  0
APPID
  5
33C
330
9
100
AcDbSymbolTableRecord
100
AcDbRegAppTableRecord
  2
GENIUS_GENSCALE_13
 70
     0
  0
APPID
  5
378
330
9
100
AcDbSymbolTableRecord
100
AcDbRegAppTableRecord
  2
GENIUS_GENDIMSH_14
 70
     0
  0
APPID
  5
13A0
330
9
100
AcDbSymbolTableRecord
100
AcDbRegAppTableRecord
  2
GENIUS_GENOBJ-N-CEN_13
 70
     0
  0
APPID
  5
13D7
330
9
100
AcDbSymbolTableRecord
100
AcDbRegAppTableRecord
  2
GENIUS_GENREC_14
 70
     0
  0
APPID
  5
13D8
330
9
100
AcDbSymbolTableRecord
100
AcDbRegAppTableRecord
  2
GENIUS_GENOBJ-N-REC_13
 70
     0
  0
ENDTAB
  0
TABLE
  2
DIMSTYLE
  5
A
330
0
100
AcDbSymbolTable
 70
     9
  0
DIMSTYLE
105
58
330
A
100
AcDbSymbolTableRecord
100
AcDbDimStyleTableRecord
  2
AM_JIS
 70
     0
  3

  4
"
  5
OPEN30
  6

  7

 40
1.0
 41
2.5
 42
1.0
 43
12.0
 44
1.0
 45
0.0
 46
0.0
 47
0.1
 48
0.1
140
3.2
141
0.0
142
0.0
143
0.0393701
144
1.0
145
0.0
146
0.71
147
1.5
 71
     0
 72
     0
 73
     0
 74
     0
 75
     0
 76
     0
 77
     3
 78
     8
170
     0
171
     2
172
     1
173
     0
174
     0
175
     0
176
   256
177
   256
178
     2
270
     2
271
     3
272
     3
273
     2
274
     2
340
6B
275
     0
280
     0
281
     0
282
     0
283
     0
284
     0
285
     0
286
     0
287
     3
288
     0
  0
DIMSTYLE
105
5F
330
A
100
AcDbSymbolTableRecord
100
AcDbDimStyleTableRecord
  2
AM_JIS$3
 70
     0
  3

  4
"
  5
OPEN30
  6

  7

 40
1.0
 41
2.5
 42
1.0
 43
10.0
 44
1.0
 45
0.0
 46
0.0
 47
0.1
 48
0.1
140
3.2
141
0.0
142
0.0
143
0.0393701
144
1.0
145
0.0
146
0.71
147
1.5
 71
     0
 72
     0
 73
     0
 74
     1
 75
     0
 76
     0
 77
     3
 78
     8
170
     0
171
     2
172
     0
173
     0
174
     0
175
     0
176
   256
177
   256
178
     2
270
     2
271
     2
272
     3
273
     2
274
     2
340
6B
275
     0
280
     0
281
     0
282
     0
283
     0
284
     0
285
     0
286
     0
287
     0
288
     1
  0
DIMSTYLE
105
60
330
A
100
AcDbSymbolTableRecord
100
AcDbDimStyleTableRecord
  2
AM_JIS$4
 70
     0
  3

  4
"
  5
OPEN30
  6

  7

 40
1.0
 41
2.5
 42
1.0
 43
10.0
 44
1.0
 45
0.0
 46
0.0
 47
0.1
 48
0.1
140
3.2
141
0.0
142
0.0
143
0.0393701
144
1.0
145
0.0
146
0.71
147
1.5
 71
     0
 72
     0
 73
     0
 74
     1
 75
     0
 76
     0
 77
     3
 78
     8
170
     0
171
     2
172
     0
173
     0
174
     0
175
     0
176
   256
177
   256
178
     2
270
     2
271
     2
272
     3
273
     2
274
     2
340
6B
275
     0
280
     0
281
     0
282
     0
283
     0
284
     0
285
     0
286
     0
287
     0
288
     1
  0
DIMSTYLE
105
61
330
A
100
AcDbSymbolTableRecord
100
AcDbDimStyleTableRecord
  2
AM_JIS$6
 70
     0
  3

  4
"
  5
OPEN30
  6

  7

 40
1.0
 41
2.5
 42
1.0
 43
10.0
 44
1.0
 45
0.0
 46
0.0
 47
0.1
 48
0.1
140
3.2
141
0.0
142
0.0
143
0.0393701
144
1.0
145
0.0
146
0.71
147
1.5
 71
     0
 72
     0
 73
     0
 74
     0
 75
     0
 76
     0
 77
     0
 78
     8
170
     0
171
     2
172
     1
173
     0
174
     0
175
     0
176
   256
177
   256
178
     2
270
     2
271
     2
272
     2
273
     2
274
     2
340
6B
275
     0
280
     0
281
     0
282
     0
283
     0
284
     0
285
     0
286
     0
287
     3
288
     0
  0
DIMSTYLE
105
62
330
A
100
AcDbSymbolTableRecord
100
AcDbDimStyleTableRecord
  2
AM_JIS$7
 70
     0
  3

  4
"
  5
OPEN30
  6

  7

 40
1.0
 41
2.5
 42
1.0
 43
10.0
 44
1.0
 45
0.0
 46
0.0
 47
0.1
 48
0.1
140
3.2
141
0.0
142
0.0
143
0.0393701
144
1.0
145
0.0
146
0.71
147
1.5
 71
     0
 72
     0
 73
     0
 74
     0
 75
     0
 76
     0
 77
     3
 78
     8
170
     0
171
     2
172
     1
173
     0
174
     0
175
     0
176
   256
177
   256
178
     2
270
     2
271
     2
272
     3
273
     2
274
     2
340
6B
275
     0
280
     0
281
     0
282
     0
283
     0
284
     0
285
     0
286
     0
287
     3
288
     0
  0
DIMSTYLE
105
63
330
A
100
AcDbSymbolTableRecord
100
AcDbDimStyleTableRecord
  2
AM_JIS$SF
 70
     0
  3

  4
"
  5
OPEN30
  6

  7

 40
1.0
 41
2.5
 42
1.0
 43
10.0
 44
1.0
 45
0.0
 46
0.0
 47
0.1
 48
0.1
140
3.2
141
0.0
142
0.0
143
0.0393701
144
1.0
145
0.0
146
0.71
147
1.5
 71
     0
 72
     0
 73
     0
 74
     0
 75
     1
 76
     1
 77
     3
 78
     8
170
     0
171
     2
172
     1
173
     0
174
     0
175
     0
176
   256
177
   256
178
     2
270
     2
271
     2
272
     2
273
     2
274
     2
340
6B
275
     0
280
     0
281
     0
282
     0
283
     0
284
     0
285
     0
286
     0
287
     3
288
     0
  0
DIMSTYLE
105
68
330
A
100
AcDbSymbolTableRecord
100
AcDbDimStyleTableRecord
  2
AM_JIS$SH
 70
     0
  3

  4
"
  5

  6
GENAXEH
  7
OPEN30
 40
1.0
 41
2.5
 42
1.0
 43
10.0
 44
1.0
 45
0.0
 46
0.0
 47
0.1
 48
0.1
140
3.2
141
0.0
142
0.0
143
0.0393701
144
2.0
145
0.0
146
0.71
147
1.5
 71
     0
 72
     0
 73
     0
 74
     0
 75
     1
 76
     1
 77
     3
 78
     8
170
     0
171
     2
172
     1
173
     1
174
     0
175
     0
176
   256
177
   256
178
     2
270
     2
271
     2
272
     2
273
     2
274
     2
340
6B
275
     0
280
     0
281
     0
282
     0
283
     0
284
     0
285
     0
286
     0
287
     3
288
     0
  0
DIMSTYLE
105
B34
330
A
100
AcDbSymbolTableRecord
100
AcDbDimStyleTableRecord
  2
AM_JIS$2
 70
     0
  3

  4
"
  5
OPEN30
  6

  7

 40
1.0
 41
2.5
 42
1.0
 43
12.0
 44
1.0
 45
0.0
 46
0.0
 47
0.1
 48
0.1
140
3.2
141
0.0
142
0.0
143
0.0393701
144
1.0
145
0.0
146
0.71
147
1.5
 71
     0
 72
     0
 73
     0
 74
     0
 75
     0
 76
     0
 77
     3
 78
     8
170
     0
171
     2
172
     1
173
     0
174
     0
175
     0
176
   256
177
   256
178
     2
270
     2
271
     3
272
     3
273
     2
274
     2
340
6B
275
     0
280
     0
281
     0
282
     0
283
     0
284
     0
285
     0
286
     0
287
     3
288
     0
  0
DIMSTYLE
105
BA5
102
{ACAD_REACTORS
330
38E8
330
3983
330
3A0B
330
3AF5
330
385C
330
4CBD
102
}
330
A
100
AcDbSymbolTableRecord
100
AcDbDimStyleTableRecord
  2
AM_JIS$0
 70
     0
  3

  4
"
  5
OPEN30
  6

  7

 40
1.0
 41
2.5
 42
0.0
 43
10.0
 44
1.0
 45
0.0
 46
0.0
 47
0.1
 48
0.1000000001
140
3.799999999999999
141
0.0
142
0.0
143
0.0393701
144
1.0
145
0.0
146
0.71
147
1.5
 71
     0
 72
     0
 73
     0
 74
     0
 75
     0
 76
     0
 77
     3
 78
     1
170
     0
171
     2
172
     1
173
     0
174
     0
175
     0
176
     3
177
     3
178
     2
270
     2
271
     2
272
     2
273
     2
274
     2
340
11
275
     1
280
     0
281
     0
282
     0
283
     0
284
     8
285
     0
286
     0
287
     0
288
     0
  0
ENDTAB
  0
TABLE
  2
BLOCK_RECORD
  5
1
330
0
100
AcDbSymbolTable
 70
    11
  0
BLOCK_RECORD
  5
1F
102
{ACAD_XDICTIONARY
360
74
102
}
330
1
100
AcDbSymbolTableRecord
100
AcDbBlockTableRecord
  2
*MODEL_SPACE
  0
BLOCK_RECORD
  5
101
102
{ACAD_XDICTIONARY
360
4DD2
102
}
330
1
100
AcDbSymbolTableRecord
100
AcDbBlockTableRecord
  2
*PAPER_SPACE
  0
BLOCK_RECORD
  5
59
330
1
100
AcDbSymbolTableRecord
100
AcDbBlockTableRecord
  2
_OPEN30
  0
BLOCK_RECORD
  5
64
330
1
100
AcDbSymbolTableRecord
100
AcDbBlockTableRecord
  2
GENAXEH
  0
BLOCK_RECORD
  5
385D
330
1
100
AcDbSymbolTableRecord
100
AcDbBlockTableRecord
  2
*D5
  0
BLOCK_RECORD
  5
38E9
330
1
100
AcDbSymbolTableRecord
100
AcDbBlockTableRecord
  2
*D6
  0
BLOCK_RECORD
  5
3984
330
1
100
AcDbSymbolTableRecord
100
AcDbBlockTableRecord
  2
*D7
  0
BLOCK_RECORD
  5
3A0C
330
1
100
AcDbSymbolTableRecord
100
AcDbBlockTableRecord
  2
*D8
  0
BLOCK_RECORD
  5
3AF6
330
1
100
AcDbSymbolTableRecord
100
AcDbBlockTableRecord
  2
*D9
  0
BLOCK_RECORD
  5
4CBE
330
1
100
AcDbSymbolTableRecord
100
AcDbBlockTableRecord
  2
*D10
  0
ENDTAB
  0
ENDSEC
  0
SECTION
  2
BLOCKS
  0
BLOCK
  5
20
330
1F
100
AcDbEntity
  8
0
100
AcDbBlockBegin
  2
*MODEL_SPACE
 70
     0
 10
0.0
 20
0.0
 30
0.0
  3
*MODEL_SPACE
  1

  0
ENDBLK
  5
21
330
1F
100
AcDbEntity
  8
0
100
AcDbBlockEnd
  0
BLOCK
  5
103
330
101
100
AcDbEntity
 67
     1
  8
0
100
AcDbBlockBegin
  2
*PAPER_SPACE
 70
     0
 10
0.0
 20
0.0
 30
0.0
  3
*PAPER_SPACE
  1

  0
ENDBLK
  5
104
330
101
100
AcDbEntity
 67
     1
  8
0
100
AcDbBlockEnd
  0
BLOCK
  5
5D
330
59
100
AcDbEntity
  8
0
100
AcDbBlockBegin
  2
_OPEN30
 70
     0
 10
0.0
 20
0.0
 30
0.0
  3
_OPEN30
  1

  0
LINE
  5
5A
330
59
100
AcDbEntity
  8
0
 62
     0
100
AcDbLine
 10
-1.0
 20
0.26794919
 30
0.0
 11
0.0
 21
0.0
 31
0.0
  0
LINE
  5
5B
330
59
100
AcDbEntity
  8
0
 62
     0
100
AcDbLine
 10
0.0
 20
0.0
 30
0.0
 11
-1.0
 21
-0.26794919
 31
0.0
  0
LINE
  5
5C
330
59
100
AcDbEntity
  8
0
 62
     0
100
AcDbLine
 10
0.0
 20
0.0
 30
0.0
 11
-1.0
 21
0.0
 31
0.0
  0
ENDBLK
  5
5E
330
59
100
AcDbEntity
  8
0
100
AcDbBlockEnd
  0
BLOCK
  5
66
330
64
100
AcDbEntity
  8
0
100
AcDbBlockBegin
  2
GENAXEH
 70
     0
 10
0.0
 20
0.0
 30
0.0
  3
GENAXEH
  1

  0
LINE
  5
65
330
64
100
AcDbEntity
  8
0
100
AcDbLine
 10
-1.0
 20
0.0
 30
0.0
 11
1.0
 21
0.0
 31
0.0
  0
ENDBLK
  5
67
330
64
100
AcDbEntity
  8
0
100
AcDbBlockEnd
  0
BLOCK
  5
3867
330
385D
100
AcDbEntity
  8
0
100
AcDbBlockBegin
  2
*D5
 70
     1
 10
0.0
 20
0.0
 30
0.0
  3
*D5
  1

  0
LINE
  5
4C9A
330
385D
100
AcDbEntity
  8
AM_5
 62
     3
100
AcDbLine
 10
0.0000000654635581
 20
14.99999907951012
 30
0.0
 11
19.53445534570298
 21
14.99999907951011
 31
0.0
  0
LINE
  5
4C9B
330
385D
100
AcDbEntity
  8
AM_5
 62
     3
100
AcDbLine
 10
-0.0000000000000006
 20
-15.00000139732618
 30
0.0
 11
19.53445534570297
 21
-15.00000139732618
 31
0.0
  0
LINE
  5
4C9C
330
385D
100
AcDbEntity
  8
AM_5
 62
     3
100
AcDbLine
 10
18.53445534570298
 20
12.49999907951011
 30
0.0
 11
18.53445534570297
 21
-12.50000139732618
 31
0.0
  0
INSERT
  5
4C9D
330
385D
100
AcDbEntity
  8
AM_5
 62
     3
100
AcDbBlockReference
  2
_OPEN30
 10
18.53445534570298
 20
14.99999907951011
 30
0.0
 41
2.5
 42
2.5
 43
2.5
 50
90.0
  0
INSERT
  5
4C9E
330
385D
100
AcDbEntity
  8
AM_5
 62
     3
100
AcDbBlockReference
  2
_OPEN30
 10
18.53445534570297
 20
-15.00000139732618
 30
0.0
 41
2.5
 42
2.5
 43
2.5
 50
270.0
  0
MTEXT
  5
4C9F
330
385D
100
AcDbEntity
  8
AM_5
 62
     2
100
AcDbMText
 10
15.13445534570298
 20
-0.0000011589080316
 30
0.0
 40
3.799999999999999
 41
0.0
 71
     5
 72
     1
  1
%%c30
 11
0.0000000000000001
 21
1.0
 31
0.0
1001
ACAD
1000
MTEXTBEGIN
1070
    73
1070
     1
1070
    44
1040
1.0
1070
    74
1070
     0
1000
MTEXTEND
  0
POINT
  5
4CA0
330
385D
100
AcDbEntity
  8
DEFPOINTS
 62
     0
100
AcDbPoint
 10
0.0000000654635581
 20
14.99999907951012
 30
0.0
  0
POINT
  5
4CA1
330
385D
100
AcDbEntity
  8
DEFPOINTS
 62
     0
100
AcDbPoint
 10
-0.0000000000000006
 20
-15.00000139732618
 30
0.0
  0
POINT
  5
4CA2
330
385D
100
AcDbEntity
  8
DEFPOINTS
 62
     0
100
AcDbPoint
 10
18.53445534570297
 20
-15.00000139732618
 30
0.0
  0
ENDBLK
  5
3868
330
385D
100
AcDbEntity
  8
0
100
AcDbBlockEnd
  0
BLOCK
  5
38F3
330
38E9
100
AcDbEntity
  8
0
100
AcDbBlockBegin
  2
*D6
 70
     1
 10
0.0
 20
0.0
 30
0.0
  3
*D6
  1

  0
LINE
  5
4C91
330
38E9
100
AcDbEntity
  8
AM_5
 62
     3
100
AcDbLine
 10
0.0000000000000031
 20
12.49999809265016
 30
0.0
 11
0.0000000000000041
 21
30.0000000795101
 31
0.0
  0
LINE
  5
4C92
330
38E9
100
AcDbEntity
  8
AM_5
 62
     3
100
AcDbLine
 10
-12.99999999999999
 20
12.51002622227675
 30
0.0
 11
-12.99999999999999
 21
30.00000007951009
 31
0.0
  0
LINE
  5
4C93
330
38E9
100
AcDbEntity
  8
AM_5
 62
     3
100
AcDbLine
 10
-2.499999999999996
 20
29.00000007951009
 30
0.0
 11
-10.49999999999999
 21
29.00000007951009
 31
0.0
  0
INSERT
  5
4C94
330
38E9
100
AcDbEntity
  8
AM_5
 62
     3
100
AcDbBlockReference
  2
_OPEN30
 10
0.0000000000000041
 20
29.00000007951009
 30
0.0
 41
2.5
 42
2.5
 43
2.5
  0
INSERT
  5
4C95
330
38E9
100
AcDbEntity
  8
AM_5
 62
     3
100
AcDbBlockReference
  2
_OPEN30
 10
-12.99999999999999
 20
29.00000007951009
 30
0.0
 41
2.5
 42
2.5
 43
2.5
 50
180.0
  0
MTEXT
  5
4C96
330
38E9
100
AcDbEntity
  8
AM_5
 62
     2
100
AcDbMText
 10
-6.499999999999995
 20
32.4000000795101
 30
0.0
 40
3.799999999999999
 41
0.0
 71
     5
 72
     1
  1
13
1001
ACAD
1000
MTEXTBEGIN
1070
    73
1070
     1
1070
    44
1040
1.0
1070
    74
1070
     0
1000
MTEXTEND
  0
POINT
  5
4C97
330
38E9
100
AcDbEntity
  8
DEFPOINTS
 62
     0
100
AcDbPoint
 10
0.0000000000000031
 20
12.49999809265016
 30
0.0
  0
POINT
  5
4C98
330
38E9
100
AcDbEntity
  8
DEFPOINTS
 62
     0
100
AcDbPoint
 10
-12.99999999999999
 20
12.51002622227675
 30
0.0
  0
POINT
  5
4C99
330
38E9
100
AcDbEntity
  8
DEFPOINTS
 62
     0
100
AcDbPoint
 10
-12.99999999999999
 20
29.00000007951009
 30
0.0
  0
ENDBLK
  5
38F4
330
38E9
100
AcDbEntity
  8
0
100
AcDbBlockEnd
  0
BLOCK
  5
398E
330
3984
100
AcDbEntity
  8
0
100
AcDbBlockBegin
  2
*D7
 70
     1
 10
0.0
 20
0.0
 30
0.0
  3
*D7
  1

  0
LINE
  5
4C88
330
3984
100
AcDbEntity
  8
AM_5
 62
     3
100
AcDbLine
 10
-0.0000000000000005
 20
-13.00000190734982
 30
0.0
 11
-0.0000000000000015
 21
-30.00000239732624
 31
0.0
  0
LINE
  5
4C89
330
3984
100
AcDbEntity
  8
AM_5
 62
     3
100
AcDbLine
 10
-35.0
 20
-12.25049018859981
 30
0.0
 11
-35.0
 21
-30.00000239732624
 31
0.0
  0
LINE
  5
4C8A
330
3984
100
AcDbEntity
  8
AM_5
 62
     3
100
AcDbLine
 10
-2.500000000000001
 20
-29.00000239732624
 30
0.0
 11
-32.5
 21
-29.00000239732624
 31
0.0
  0
INSERT
  5
4C8B
330
3984
100
AcDbEntity
  8
AM_5
 62
     3
100
AcDbBlockReference
  2
_OPEN30
 10
-0.0000000000000015
 20
-29.00000239732624
 30
0.0
 41
2.5
 42
2.5
 43
2.5
  0
INSERT
  5
4C8C
330
3984
100
AcDbEntity
  8
AM_5
 62
     3
100
AcDbBlockReference
  2
_OPEN30
 10
-35.0
 20
-29.00000239732624
 30
0.0
 41
2.5
 42
2.5
 43
2.5
 50
180.0
  0
MTEXT
  5
4C8D
330
3984
100
AcDbEntity
  8
AM_5
 62
     2
100
AcDbMText
 10
-17.5
 20
-25.60000239732624
 30
0.0
 40
3.799999999999999
 41
0.0
 71
     5
 72
     1
  1
35
1001
ACAD
1000
MTEXTBEGIN
1070
    73
1070
     1
1070
    44
1040
1.0
1070
    74
1070
     0
1000
MTEXTEND
  0
POINT
  5
4C8E
330
3984
100
AcDbEntity
  8
DEFPOINTS
 62
     0
100
AcDbPoint
 10
-0.0000000000000005
 20
-13.00000190734982
 30
0.0
  0
POINT
  5
4C8F
330
3984
100
AcDbEntity
  8
DEFPOINTS
 62
     0
100
AcDbPoint
 10
-35.0
 20
-12.25049018859981
 30
0.0
  0
POINT
  5
4C90
330
3984
100
AcDbEntity
  8
DEFPOINTS
 62
     0
100
AcDbPoint
 10
-35.0
 20
-29.00000239732624
 30
0.0
  0
ENDBLK
  5
398F
330
3984
100
AcDbEntity
  8
0
100
AcDbBlockEnd
  0
BLOCK
  5
3A16
330
3A0C
100
AcDbEntity
  8
0
100
AcDbBlockBegin
  2
*D8
 70
     1
 10
0.0
 20
0.0
 30
0.0
  3
*D8
  1

  0
LINE
  5
4C6D
330
3A0C
100
AcDbEntity
  8
AM_5
 62
     3
100
AcDbLine
 10
-35.0
 20
-12.25049018859981
 30
0.0
 11
-35.0
 21
-30.00000239732653
 31
0.0
  0
LINE
  5
4C6E
330
3A0C
100
AcDbEntity
  8
AM_5
 62
     3
100
AcDbLine
 10
-179.9664688553822
 20
-10.16149963534783
 30
0.0
 11
-179.9664688553822
 21
-30.00000239732653
 31
0.0
  0
LINE
  5
4C6F
330
3A0C
100
AcDbEntity
  8
AM_5
 62
     3
100
AcDbLine
 10
-37.5
 20
-29.00000239732653
 30
0.0
 11
-177.4664688553821
 21
-29.00000239732653
 31
0.0
  0
INSERT
  5
4C70
330
3A0C
100
AcDbEntity
  8
AM_5
 62
     3
100
AcDbBlockReference
  2
_OPEN30
 10
-35.0
 20
-29.00000239732653
 30
0.0
 41
2.5
 42
2.5
 43
2.5
  0
INSERT
  5
4C71
330
3A0C
100
AcDbEntity
  8
AM_5
 62
     3
100
AcDbBlockReference
  2
_OPEN30
 10
-179.9664688553822
 20
-29.00000239732653
 30
0.0
 41
2.5
 42
2.5
 43
2.5
 50
180.0
  0
MTEXT
  5
4C72
330
3A0C
100
AcDbEntity
  8
AM_5
 62
     2
100
AcDbMText
 10
-107.483234427691
 20
-25.60000239732653
 30
0.0
 40
3.799999999999999
 41
0.0
 71
     5
 72
     1
  1
145
1001
ACAD
1000
MTEXTBEGIN
1070
    73
1070
     1
1070
    44
1040
1.0
1070
    74
1070
     0
1000
MTEXTEND
  0
POINT
  5
4C73
330
3A0C
100
AcDbEntity
  8
DEFPOINTS
 62
     0
100
AcDbPoint
 10
-35.0
 20
-12.25049018859981
 30
0.0
  0
POINT
  5
4C74
330
3A0C
100
AcDbEntity
  8
DEFPOINTS
 62
     0
100
AcDbPoint
 10
-179.9664688553822
 20
-10.16149963534783
 30
0.0
  0
POINT
  5
4C75
330
3A0C
100
AcDbEntity
  8
DEFPOINTS
 62
     0
100
AcDbPoint
 10
-179.9664688553822
 20
-29.00000239732653
 30
0.0
  0
ENDBLK
  5
3A17
330
3A0C
100
AcDbEntity
  8
0
100
AcDbBlockEnd
  0
BLOCK
  5
3B00
330
3AF6
100
AcDbEntity
  8
0
100
AcDbBlockBegin
  2
*D9
 70
     1
 10
0.0
 20
0.0
 30
0.0
  3
*D9
  1

  0
LINE
  5
4C76
330
3AF6
100
AcDbEntity
  8
AM_5
 62
     3
100
AcDbLine
 10
-179.9664688553822
 20
-10.16149963534783
 30
0.0
 11
-179.9664688553822
 21
-40.00000239732617
 31
0.0
  0
LINE
  5
4C77
330
3AF6
100
AcDbEntity
  8
AM_5
 62
     3
100
AcDbLine
 10
-0.0000000000000005
 20
-13.00000190734982
 30
0.0
 11
-0.0000000000000021
 21
-40.00000239732617
 31
0.0
  0
LINE
  5
4C78
330
3AF6
100
AcDbEntity
  8
AM_5
 62
     3
100
AcDbLine
 10
-177.4664688553821
 20
-39.00000239732618
 30
0.0
 11
-2.500000000000002
 21
-39.00000239732618
 31
0.0
  0
INSERT
  5
4C79
330
3AF6
100
AcDbEntity
  8
AM_5
 62
     3
100
AcDbBlockReference
  2
_OPEN30
 10
-179.9664688553822
 20
-39.00000239732618
 30
0.0
 41
2.5
 42
2.5
 43
2.5
 50
180.0
  0
INSERT
  5
4C7A
330
3AF6
100
AcDbEntity
  8
AM_5
 62
     3
100
AcDbBlockReference
  2
_OPEN30
 10
-0.0000000000000021
 20
-39.00000239732618
 30
0.0
 41
2.5
 42
2.5
 43
2.5
  0
MTEXT
  5
4C7B
330
3AF6
100
AcDbEntity
  8
AM_5
 62
     2
100
AcDbMText
 10
-89.98323442769111
 20
-35.60000239732618
 30
0.0
 40
3.799999999999999
 41
0.0
 71
     5
 72
     1
  1
180
1001
ACAD
1000
MTEXTBEGIN
1070
    73
1070
     1
1070
    44
1040
1.0
1070
    74
1070
     0
1000
MTEXTEND
  0
POINT
  5
4C7C
330
3AF6
100
AcDbEntity
  8
DEFPOINTS
 62
     0
100
AcDbPoint
 10
-179.9664688553822
 20
-10.16149963534783
 30
0.0
  0
POINT
  5
4C7D
330
3AF6
100
AcDbEntity
  8
DEFPOINTS
 62
     0
100
AcDbPoint
 10
-0.0000000000000005
 20
-13.00000190734982
 30
0.0
  0
POINT
  5
4C7E
330
3AF6
100
AcDbEntity
  8
DEFPOINTS
 62
     0
100
AcDbPoint
 10
-0.0000000000000021
 20
-39.00000239732618
 30
0.0
  0
ENDBLK
  5
3B01
330
3AF6
100
AcDbEntity
  8
0
100
AcDbBlockEnd
  0
BLOCK
  5
4CC8
330
4CBE
100
AcDbEntity
  8
0
100
AcDbBlockBegin
  2
*D10
 70
     1
 10
0.0
 20
0.0
 30
0.0
  3
*D10
  1

  0
LINE
  5
4D44
330
4CBE
100
AcDbEntity
  8
AM_5
 62
     3
100
AcDbLine
 10
-176.9664688655879
 20
-12.50000062500255
 30
0.0
 11
-198.0829115585025
 21
-12.50000062500254
 31
0.0
  0
LINE
  5
4D45
330
4CBE
100
AcDbEntity
  8
AM_5
 62
     3
100
AcDbLine
 10
-176.966468756482
 20
12.49999365295065
 30
0.0
 11
-198.0829115585025
 21
12.49999365295065
 31
0.0
  0
LINE
  5
4D46
330
4CBE
100
AcDbEntity
  8
AM_5
 62
     3
100
AcDbLine
 10
-197.0829115585025
 20
-10.00000062500254
 30
0.0
 11
-197.0829115585025
 21
9.999993652950657
 31
0.0
  0
INSERT
  5
4D47
330
4CBE
100
AcDbEntity
  8
AM_5
 62
     3
100
AcDbBlockReference
  2
_OPEN30
 10
-197.0829115585025
 20
-12.50000062500254
 30
0.0
 41
2.5
 42
2.5
 43
2.5
 50
270.0
  0
INSERT
  5
4D48
330
4CBE
100
AcDbEntity
  8
AM_5
 62
     3
100
AcDbBlockReference
  2
_OPEN30
 10
-197.0829115585025
 20
12.49999365295065
 30
0.0
 41
2.5
 42
2.5
 43
2.5
 50
90.0
  0
MTEXT
  5
4D49
330
4CBE
100
AcDbEntity
  8
AM_5
 62
     2
100
AcDbMText
 10
-200.4829115585025
 20
-0.0000034860259763
 30
0.0
 40
3.799999999999999
 41
0.0
 71
     5
 72
     1
  1
%%c25
 11
0.0000000000000001
 21
1.0
 31
0.0
1001
ACAD
1000
MTEXTBEGIN
1070
    73
1070
     1
1070
    44
1040
1.0
1070
    74
1070
     0
1000
MTEXTEND
  0
POINT
  5
4D4A
330
4CBE
100
AcDbEntity
  8
DEFPOINTS
 62
     0
100
AcDbPoint
 10
-176.9664688655879
 20
-12.50000062500255
 30
0.0
  0
POINT
  5
4D4B
330
4CBE
100
AcDbEntity
  8
DEFPOINTS
 62
     0
100
AcDbPoint
 10
-176.966468756482
 20
12.49999365295065
 30
0.0
  0
POINT
  5
4D4C
330
4CBE
100
AcDbEntity
  8
DEFPOINTS
 62
     0
100
AcDbPoint
 10
-197.0829115585025
 20
12.49999365295065
 30
0.0
  0
ENDBLK
  5
4CC9
330
4CBE
100
AcDbEntity
  8
0
100
AcDbBlockEnd
  0
ENDSEC
  0
SECTION
  2
ENTITIES
  0
TEXT
  5
1142
330
1F
100
AcDbEntity
  8
AM_6
100
AcDbText
 10
-111.1737106181672
 20
-61.50000239732618
 30
0.0
 40
5.0
  1
WEM3030EL
 72
     4
 11
-89.98323442769111
 21
-59.00000239732618
 31
0.0
100
AcDbText
  0
DIMENSION
  5
385C
330
1F
100
AcDbEntity
  8
AM_5
100
AcDbDimension
  2
*D5
 10
18.53445534570297
 20
-15.00000139732618
 30
0.0
 11
15.13445534570298
 21
-0.0000011589080316
 31
0.0
 70
    32
  1
%%c<>
  3
AM_JIS$0
100
AcDbAlignedDimension
 13
0.0000000654635581
 23
14.99999907951012
 33
0.0
 14
-0.0000000000000006
 24
-15.00000139732618
 34
0.0
 50
90.00000000000003
100
AcDbRotatedDimension
1001
ACAD
1000
DSTYLE
1002
{
1070
   271
1070
     0
1002
}
1001
GENIUS_GENDTOL_13
1000

1000
h7
1000

1040
0.0
  0
DIMENSION
  5
38E8
330
1F
100
AcDbEntity
  8
AM_5
100
AcDbDimension
  2
*D6
 10
-12.99999999999999
 20
29.00000007951009
 30
0.0
 11
-6.499999999999995
 21
32.4000000795101
 31
0.0
 70
    32
  1
<>
  3
AM_JIS$0
100
AcDbAlignedDimension
 13
0.0000000000000031
 23
12.49999809265016
 33
0.0
 14
-12.99999999999999
 24
12.51002622227675
 34
0.0
 50
180.0
100
AcDbRotatedDimension
1001
ACAD
1000
DSTYLE
1002
{
1070
   271
1070
     0
1002
}
1001
GENIUS_GENDTOL_13
1000

1000
h7
1000

1040
0.0
  0
DIMENSION
  5
3983
330
1F
100
AcDbEntity
  8
AM_5
100
AcDbDimension
  2
*D7
 10
-35.0
 20
-29.00000239732624
 30
0.0
 11
-17.5
 21
-25.60000239732624
 31
0.0
 70
    32
  1
<>
  3
AM_JIS$0
100
AcDbAlignedDimension
 13
-0.0000000000000005
 23
-13.00000190734982
 33
0.0
 14
-35.0
 24
-12.25049018859981
 34
0.0
 50
0.0000000000001132
100
AcDbRotatedDimension
1001
ACAD
1000
DSTYLE
1002
{
1070
   271
1070
     0
1002
}
1001
GENIUS_GENDTOL_13
1000

1000
h7
1000

1040
0.0
  0
DIMENSION
  5
3A0B
330
1F
100
AcDbEntity
  8
AM_5
100
AcDbDimension
  2
*D8
 10
-179.9664688553822
 20
-29.00000239732653
 30
0.0
 11
-107.483234427691
 21
-25.60000239732653
 31
0.0
 70
    32
  1
<>
  3
AM_JIS$0
100
AcDbAlignedDimension
 13
-35.0
 23
-12.25049018859981
 33
0.0
 14
-179.9664688553822
 24
-10.16149963534783
 34
0.0
 50
0.0000000000001132
100
AcDbRotatedDimension
1001
ACAD
1000
DSTYLE
1002
{
1070
   271
1070
     0
1002
}
1001
GENIUS_GENDTOL_13
1000

1000
h7
1000

1040
0.0
  0
DIMENSION
  5
3AF5
330
1F
100
AcDbEntity
  8
AM_5
100
AcDbDimension
  2
*D9
 10
-0.0000000000000021
 20
-39.00000239732618
 30
0.0
 11
-89.98323442769111
 21
-35.60000239732618
 31
0.0
 70
    32
  1
<>
  3
AM_JIS$0
100
AcDbAlignedDimension
 13
-179.9664688553822
 23
-10.16149963534783
 33
0.0
 14
-0.0000000000000005
 24
-13.00000190734982
 34
0.0
 50
0.0000000000001132
100
AcDbRotatedDimension
1001
ACAD
1000
DSTYLE
1002
{
1070
   271
1070
     0
1002
}
1001
GENIUS_GENDTOL_13
1000

1000
h7
1000

1040
0.0
  0
LINE
  5
49FA
330
1F
100
AcDbEntity
  8
AM_7
100
AcDbLine
 10
4.534454345702996
 20
-0.0000014171156104
 30
0.0
 11
-183.082910678519
 21
-0.0000005983089464
 31
0.0
  0
LINE
  5
49FB
330
1F
100
AcDbEntity
  8
AM_0
100
AcDbLine
 10
-37.96646875648304
 20
12.49999876836759
 30
0.0
 11
-176.966468756482
 21
12.49999937499655
 31
0.0
  0
LINE
  5
49FC
330
1F
100
AcDbEntity
  8
AM_0
100
AcDbLine
 10
-176.9664688655879
 20
-12.50000062500255
 30
0.0
 11
-37.96646886558896
 21
-12.5000012316315
 31
0.0
  0
SPLINE
  5
49FE
330
1F
100
AcDbEntity
  8
AM_0
100
AcDbSpline
210
0.0
220
0.0
230
1.0
 70
     8
 71
     3
 72
    11
 73
     7
 74
     5
 42
0.0000000001
 43
0.0000000001
 44
0.0000000001
 40
0.0
 40
0.0
 40
0.0
 40
0.0
 40
0.0611264118836287
 40
0.1217465293777187
 40
0.1818682495541868
 40
0.2414818295725535
 40
0.2414818295725535
 40
0.2414818295725535
 40
0.2414818295725535
 10
-1.191940317063145
 20
-2.164216480015268
 30
0.0
 10
-1.172606841688916
 20
-2.1706497010756
 30
0.0
 10
-1.134100025157575
 20
-2.183462858476467
 30
0.0
 10
-1.076859253798292
 20
-2.203433330686387
 30
0.0
 10
-1.020296524697117
 20
-2.223807148315016
 30
0.0
 10
-0.9829445688120491
 20
-2.23787190573252
 30
0.0
 10
-0.9643478491531535
 20
-2.244874439992533
 30
0.0
 11
-1.191940317063145
 21
-2.164216480015268
 31
0.0
 11
-1.133987436287985
 21
-2.183656177534186
 31
0.0
 11
-1.076736459812952
 21
-2.203584156299042
 31
0.0
 11
-1.020187387636059
 21
-2.224000416311838
 31
0.0
 11
-0.9643478491531535
 21
-2.244874439992533
 31
0.0
  0
SPLINE
  5
49FF
330
1F
100
AcDbEntity
  8
AM_0
100
AcDbSpline
210
0.0
220
0.0
230
1.0
 70
    24
 71
     3
 72
    11
 73
     7
 74
     5
 42
0.0000000001
 43
0.0000000001
 44
0.0000000001
 40
0.0
 40
0.0
 40
0.0
 40
0.0
 40
0.1755004628688223
 40
0.3510009257376445
 40
0.5265013886064672
 40
0.7020018514752843
 40
0.7020018514752843
 40
0.7020018514752843
 40
0.7020018514752843
 10
-0.0618286296855846
 20
-3.758637871666342
 30
0.0
 10
-0.056739823787591
 20
-3.816916273381217
 30
0.0
 10
-0.0465622119916039
 20
-3.933473076810968
 30
0.0
 10
-0.0312957942976245
 20
-4.108308281955595
 30
0.0
 10
-0.0160293766036395
 20
-4.28314348710022
 30
0.0
 10
-0.0058517648076642
 20
-4.39970029052997
 30
0.0
 10
-0.0007629589096767
 20
-4.457978692244846
 30
0.0
 11
-0.0618286296855846
 21
-3.758637871666342
 31
0.0
 11
-0.0465622119916041
 21
-3.933473076810969
 31
0.0
 11
-0.0312957942976236
 21
-4.108308281955595
 31
0.0
 11
-0.016029376603643
 21
-4.283143487100223
 31
0.0
 11
-0.0007629589096767
 21
-4.457978692244846
 31
0.0
  0
SPLINE
  5
4A00
330
1F
100
AcDbEntity
  8
AM_0
100
AcDbSpline
210
0.0
220
0.0
230
1.0
 70
     8
 71
     3
 72
    11
 73
     7
 74
     5
 42
0.0000000001
 43
0.0000000001
 44
0.0000000001
 40
0.0
 40
0.0
 40
0.0
 40
0.0
 40
0.4400599435887133
 40
0.8801198871770839
 40
1.32017983076494
 40
1.76023586152886
 40
1.76023586152886
 40
1.76023586152886
 40
1.76023586152886
 10
-0.0618286296855846
 20
-3.758637871666342
 30
0.0
 10
-0.1370595789453896
 20
-3.632712191462458
 30
0.0
 10
-0.2875214774649408
 20
-3.380860831054785
 30
0.0
 10
-0.5132137228133904
 20
-3.003083430543538
 30
0.0
 10
-0.7389077089652102
 20
-2.625308589310374
 30
0.0
 10
-0.8893641191481805
 20
-2.373455469399155
 30
0.0
 10
-0.9645919897897407
 20
-2.247529469288467
 30
0.0
 11
-0.0618286296855846
 21
-3.758637871666342
 31
0.0
 11
-0.2875213770598728
 21
-3.380860771071365
 31
0.0
 11
-0.5132141244351699
 21
-3.00308367047739
 31
0.0
 11
-0.7389068718094581
 21
-2.625306569883411
 31
0.0
 11
-0.9645919897897407
 21
-2.247529469288467
 31
0.0
  0
SPLINE
  5
4A01
330
1F
100
AcDbEntity
  8
AM_0
100
AcDbSpline
210
0.0
220
0.0
230
1.0
 70
     8
 71
     3
 72
    11
 73
     7
 74
     5
 42
0.0000000001
 43
0.0000000001
 44
0.0000000001
 40
0.0
 40
0.0
 40
0.0
 40
0.0
 40
0.0034671044547201
 40
0.0069342089094104
 40
0.0103936913786865
 40
0.0138607958334225
 40
0.0138607958334225
 40
0.0138607958334225
 40
0.0138607958334225
 10
-13.02179719626139
 20
-3.685731320964968
 30
0.0
 10
-13.02064261499757
 20
-3.685782193613948
 30
0.0
 10
-13.01833345246993
 20
-3.685883938911908
 30
0.0
 10
-13.01487223893436
 20
-3.686036264908966
 30
0.0
 10
-13.01141105713659
 20
-3.686189310559642
 30
0.0
 10
-13.00910442857351
 20
-3.686290848001696
 30
0.0
 10
-13.00794984519006
 20
-3.686341672588398
 30
0.0
 11
-13.02179719626139
 21
-3.685731320964968
 31
0.0
 11
-13.01833345114507
 21
-3.685883908871083
 31
0.0
 11
-13.01486970602873
 21
-3.686036496776199
 31
0.0
 11
-13.0114135903064
 21
-3.686189084682284
 31
0.0
 11
-13.00794984519006
 21
-3.686341672588398
 31
0.0
  0
SPLINE
  5
4A02
330
1F
100
AcDbEntity
  8
AM_0
100
AcDbSpline
210
0.0
220
0.0
230
1.0
 70
     8
 71
     3
 72
    11
 73
     7
 74
     5
 42
0.0000000001
 43
0.0000000001
 44
0.0000000001
 40
0.0
 40
0.0
 40
0.0
 40
0.0
 40
0.206379862676053
 40
0.4127591635249141
 40
0.6191313981104388
 40
0.8255112607865042
 40
0.8255112607865042
 40
0.8255112607865042
 40
0.8255112607865042
 10
-14.58116148035386
 20
4.277983285449469
 30
0.0
 10
-14.64994295157174
 20
4.279258305948016
 30
0.0
 10
-14.78750570676392
 20
4.281808343474125
 30
0.0
 10
-14.99384853582752
 20
4.28557117530474
 30
0.0
 10
-15.20019015560997
 20
4.289399681038418
 30
0.0
 10
-15.33775071702323
 20
4.291940918382285
 30
0.0
 10
-15.40653226886139
 20
4.293211560536582
 30
0.0
 11
-14.58116148035386
 21
4.277983285449469
 31
0.0
 11
-14.7875060848292
 21
4.281797983616003
 31
0.0
 11
-14.99385068930469
 21
4.285582164203542
 31
0.0
 11
-15.20018766438604
 21
4.289396862370044
 31
0.0
 11
-15.40653226886139
 21
4.293211560536582
 31
0.0
  0
SPLINE
  5
4A03
330
1F
100
AcDbEntity
  8
AM_0
100
AcDbSpline
210
0.0
220
0.0
230
1.0
 70
     8
 71
     3
 72
    11
 73
     7
 74
     5
 42
0.0000000001
 43
0.0000000001
 44
0.0000000001
 40
0.0
 40
0.0
 40
0.0
 40
0.0
 40
0.2063465023818937
 40
0.4126930047637973
 40
0.6190318778218761
 40
0.8253783802037839
 40
0.8253783802037839
 40
0.8253783802037839
 40
0.8253783802037839
 10
-14.58116156072293
 20
-14.13739147040953
 30
0.0
 10
-14.6499430955507
 20
-14.13768647433871
 30
0.0
 10
-14.78750616520625
 20
-14.13827648219707
 30
0.0
 10
-14.99384822668021
 20
-14.13916146554509
 30
0.0
 10
-15.20019028785344
 20
-14.14004651901473
 30
0.0
 10
-15.33775081446454
 20
-14.14063650661615
 30
0.0
 10
-15.40653234931236
 20
-14.14093150587041
 30
0.0
 11
-14.58116156072293
 21
-14.13739147040953
 31
0.0
 11
-14.78750616521877
 21
-14.13827647927499
 31
0.0
 11
-14.99385076971464
 21
-14.13916148813946
 31
0.0
 11
-15.2001877448165
 21
-14.14004649700495
 31
0.0
 11
-15.40653234931236
 21
-14.14093150587041
 31
0.0
  0
SPLINE
  5
4A34
330
1F
100
AcDbEntity
  8
AM_0
100
AcDbSpline
210
0.0
220
0.0
230
1.0
 70
     8
 71
     3
 72
    11
 73
     7
 74
     5
 42
0.0000000001
 43
0.0000000001
 44
0.0000000001
 40
0.0
 40
0.0
 40
0.0
 40
0.0
 40
2.897286758492354
 40
5.780868259139253
 40
8.620041747068082
 40
11.34166201473974
 40
11.34166201473974
 40
11.34166201473974
 40
11.34166201473974
 10
-15.40653226886139
 20
4.293211560536582
 30
0.0
 10
-16.37286508169566
 20
4.358481506474347
 30
0.0
 10
-18.3009595891186
 20
4.488712646916826
 30
0.0
 10
-21.07167605833499
 20
5.317827244638536
 30
0.0
 10
-23.63066478771741
 20
6.541422018930443
 30
0.0
 10
-25.07094122928568
 20
7.717528545898112
 30
0.0
 10
-25.77585598187372
 20
8.293150570633768
 30
0.0
 11
-15.40653226886139
 21
4.293211560536582
 31
0.0
 11
-18.28795621773506
 21
4.5959764656898
 31
0.0
 11
-21.05923459560517
 21
5.392881995362316
 31
0.0
 11
-23.602455110117
 21
6.654997484976532
 31
0.0
 11
-25.77585598187372
 21
8.293150570633768
 31
0.0
  0
SPLINE
  5
4A35
330
1F
100
AcDbEntity
  8
AM_0
100
AcDbSpline
210
0.0
220
0.0
230
1.0
 70
     8
 71
     3
 72
    11
 73
     7
 74
     5
 42
0.0000000001
 43
0.0000000001
 44
0.0000000001
 40
0.0
 40
0.0
 40
0.0
 40
0.0
 40
2.791396612084786
 40
5.582265617361871
 40
8.371707069677869
 40
11.15893899006263
 40
11.15893899006263
 40
11.15893899006263
 40
11.15893899006263
 10
-25.63356013850912
 20
9.659392025090756
 30
0.0
 10
-24.85238626545304
 20
9.150674642148841
 30
0.0
 10
-23.29018617039543
 20
8.133336029836771
 30
0.0
 10
-20.70406460933289
 20
7.05294923550385
 30
0.0
 10
-18.00578543663772
 20
6.2987386555791
 30
0.0
 10
-16.1505787079927
 20
6.134245253777475
 30
0.0
 10
-15.22334286909549
 20
6.0520311398151
 30
0.0
 11
-25.63356013850912
 21
9.659392025090756
 31
0.0
 11
-23.24947353595856
 21
8.207487717811037
 31
0.0
 11
-20.68469998118999
 21
7.107084874586758
 31
0.0
 11
-17.99083706931042
 21
6.3831468745491
 31
0.0
 11
-15.22334286909549
 21
6.0520311398151
 31
0.0
  0
SPLINE
  5
4A36
330
1F
100
AcDbEntity
  8
AM_0
100
AcDbSpline
210
0.0
220
0.0
230
1.0
 70
     8
 71
     3
 72
    11
 73
     7
 74
     5
 42
0.0000000001
 43
0.0000000001
 44
0.0000000001
 40
0.0
 40
0.0
 40
0.0
 40
0.0
 40
0.0603063732857419
 40
0.1205003447606372
 40
0.1806279220403337
 40
0.2406748733416081
 40
0.2406748733416081
 40
0.2406748733416081
 40
0.2406748733416081
 10
-9.898323043293741
 20
3.617643909543449
 30
0.0
 10
-9.897715745476947
 20
3.637737350858257
 30
0.0
 10
-9.896502281753154
 20
3.677886782401579
 30
0.0
 10
-9.893441328835166
 20
3.738021562948625
 30
0.0
 10
-9.889562384284124
 20
3.798022588424152
 30
0.0
 10
-9.886139972590481
 20
3.837935311710165
 30
0.0
 10
-9.884429914804293
 20
3.857878284482816
 30
0.0
 11
-9.898323043293741
 21
3.617643909543449
 31
0.0
 11
-9.896293624085698
 21
3.677916126331595
 31
0.0
 11
-9.893302901167313
 21
3.738035755225542
 31
0.0
 11
-9.889350874538482
 21
3.798033313801295
 31
0.0
 11
-9.884429914804293
 21
3.857878284482816
 31
0.0
  0
SPLINE
  5
4A37
330
1F
100
AcDbEntity
  8
AM_0
100
AcDbSpline
210
0.0
220
0.0
230
1.0
 70
     8
 71
     3
 72
    11
 73
     7
 74
     5
 42
0.0000000001
 43
0.0000000001
 44
0.0000000001
 40
0.0
 40
0.0
 40
0.0
 40
0.0
 40
0.72454718946438
 40
1.442054104375388
 40
2.161990686074736
 40
2.890793012167004
 40
2.890793012167004
 40
2.890793012167004
 40
2.890793012167004
 10
-6.822738640720054
 20
1.544584814089872
 30
0.0
 10
-6.979367407479577
 20
1.35817520275966
 30
0.0
 10
-7.291103011803426
 20
0.9871672835757197
 30
0.0
 10
-8.033413381718629
 20
0.7324836084562059
 30
0.0
 10
-8.740442310559027
 20
1.071949172116638
 30
0.0
 10
-9.015687244040496
 20
1.472708922979738
 30
0.0
 10
-9.154151909196892
 20
1.674315048874712
 30
0.0
 11
-6.822738640720054
 21
1.544584814089872
 31
0.0
 11
-7.338920588740074
 21
1.036131447202612
 31
0.0
 11
-8.02650451297495
 21
0.8310838427813928
 31
0.0
 11
-8.688751215844582
 21
1.113462996061594
 31
0.0
 11
-9.154151909196892
 21
1.674315048874712
 31
0.0
  0
SPLINE
  5
4A38
330
1F
100
AcDbEntity
  8
AM_0
100
AcDbSpline
210
0.0
220
0.0
230
1.0
 70
     8
 71
     3
 72
    11
 73
     7
 74
     5
 42
0.0000000001
 43
0.0000000001
 44
0.0000000001
 40
0.0
 40
0.0
 40
0.0
 40
0.0
 40
0.2064941047747848
 40
0.4134494361674685
 40
0.6209741239261662
 40
0.8291657465952647
 40
0.8291657465952647
 40
0.8291657465952647
 40
0.8291657465952647
 10
-5.984947185600081
 20
4.351255953011552
 30
0.0
 10
-5.970707951915423
 20
4.283882244691261
 30
0.0
 10
-5.94219767969821
 20
4.148984341683731
 30
0.0
 10
-5.917389092055937
 20
3.943272000890704
 30
0.0
 10
-5.903729702795972
 20
3.736011235435221
 30
0.0
 10
-5.905124314145644
 20
3.597400034990624
 30
0.0
 10
-5.905822738510043
 20
3.527983247588233
 30
0.0
 11
-5.984947185600081
 21
4.351255953011552
 31
0.0
 11
-5.945220929160431
 21
4.148619234088177
 31
0.0
 11
-5.919273359255512
 21
3.943296968349936
 31
0.0
 11
-5.906364424612442
 21
3.736174165559596
 31
0.0
 11
-5.905822738510043
 21
3.527983247588233
 31
0.0
  0
SPLINE
  5
4A39
330
1F
100
AcDbEntity
  8
AM_0
100
AcDbSpline
210
0.0
220
0.0
230
1.0
 70
     8
 71
     3
 72
    11
 73
     7
 74
     5
 42
0.0000000001
 43
0.0000000001
 44
0.0000000001
 40
0.0
 40
0.0
 40
0.0
 40
0.0
 40
0.7324672920137314
 40
1.456966156555646
 40
2.173547672795754
 40
2.882309248391941
 40
2.882309248391941
 40
2.882309248391941
 40
2.882309248391941
 10
-33.08619692872656
 20
-6.716309846680168
 30
0.0
 10
-33.06580267401751
 20
-6.959643739423833
 30
0.0
 10
-33.02523603135204
 20
-7.443664323463531
 30
0.0
 10
-32.93064301485795
 20
-8.162193658734306
 30
0.0
 10
-32.8145629593656
 20
-8.869556854217472
 30
0.0
 10
-32.71565572661352
 20
-9.334322870298287
 30
0.0
 10
-32.6664734304178
 20
-9.565430942261942
 30
0.0
 11
-33.08619692872656
 21
-6.716309846680168
 31
0.0
 11
-33.01924136550283
 21
-7.445710481738379
 31
0.0
 11
-32.92648318992771
 21
-8.164246859096198
 31
0.0
 11
-32.80859378871542
 21
-8.871064486563694
 31
0.0
 11
-32.6664734304178
 21
-9.565430942261942
 31
0.0
  0
SPLINE
  5
4A3A
330
1F
100
AcDbEntity
  8
AM_0
100
AcDbSpline
210
0.0
220
0.0
230
1.0
 70
     8
 71
     3
 72
    11
 73
     7
 74
     5
 42
0.0000000001
 43
0.0000000001
 44
0.0000000001
 40
0.0
 40
0.0
 40
0.0
 40
0.0
 40
0.0343786985407832
 40
0.0679873037584069
 40
0.100970993167173
 40
0.1334781458107481
 40
0.1334781458107481
 40
0.1334781458107481
 40
0.1334781458107481
 10
-32.66647341560353
 20
-6.170960727418941
 30
0.0
 10
-32.67788619636129
 20
-6.169841993440964
 30
0.0
 10
-32.70045610811012
 20
-6.167629585467017
 30
0.0
 10
-32.7341667756598
 20
-6.168061919253478
 30
0.0
 10
-32.76711662075252
 20
-6.17114294801814
 30
0.0
 10
-32.78849259365093
 20
-6.175650727506038
 30
0.0
 10
-32.79910281016576
 20
-6.177888217074117
 30
0.0
 11
-32.66647341560353
 21
-6.170960727418941
 31
0.0
 11
-32.70074465582668
 21
-6.168244662816376
 31
0.0
 11
-32.73435213873787
 21
-6.168519320872702
 31
0.0
 11
-32.76717379402512
 21
-6.171784701588462
 31
0.0
 11
-32.79910281016576
 21
-6.177888217074117
 31
0.0
  0
SPLINE
  5
4A3B
330
1F
100
AcDbEntity
  8
AM_0
100
AcDbSpline
210
0.0
220
0.0
230
1.0
 70
     8
 71
     3
 72
    11
 73
     7
 74
     5
 42
0.0000000001
 43
0.0000000001
 44
0.0000000001
 40
0.0
 40
0.0
 40
0.0
 40
0.0
 40
0.0653552176014567
 40
0.1306677834581679
 40
0.1959780748900849
 40
0.2612678871350511
 40
0.2612678871350511
 40
0.2612678871350511
 40
0.2612678871350511
 10
-32.40547182865157
 20
-6.162263218792015
 30
0.0
 10
-32.42725650509767
 20
-6.161973746063283
 30
0.0
 10
-32.47081164100011
 20
-6.16139498951984
 30
0.0
 10
-32.53613266646668
 20
-6.162806016437578
 30
0.0
 10
-32.60138261168672
 20
-6.165720208803226
 30
0.0
 10
-32.64477874925685
 20
-6.1692140705026
 30
0.0
 10
-32.66647341560353
 20
-6.170960727418941
 30
0.0
 11
-32.40547182865157
 21
-6.162263218792015
 31
0.0
 11
-32.47082522220444
 21
-6.161774937256798
 31
0.0
 11
-32.53612521000303
 21
-6.163056675252811
 31
0.0
 11
-32.60136416265335
 21
-6.166108432781093
 31
0.0
 11
-32.66647341560353
 21
-6.170960727418941
 31
0.0
  0
SPLINE
  5
4A3C
330
1F
100
AcDbEntity
  8
AM_0
100
AcDbSpline
210
0.0
220
0.0
230
1.0
 70
     8
 71
     3
 72
    11
 73
     7
 74
     5
 42
0.0000000001
 43
0.0000000001
 44
0.0000000001
 40
0.0
 40
0.0
 40
0.0
 40
0.0
 40
0.273762773544165
 40
0.5473661039428894
 40
0.8208471459272328
 40
1.094212596557843
 40
1.094212596557843
 40
1.094212596557843
 40
1.094212596557843
 10
-1.253875712346219
 20
4.600065746817032
 30
0.0
 10
-1.26326242934562
 20
4.690836137871851
 30
0.0
 10
-1.282030396393366
 20
4.872324054076916
 30
0.0
 10
-1.308528494597755
 20
5.144654976017873
 30
0.0
 10
-1.333917361251469
 20
5.416958508295325
 30
0.0
 10
-1.349750896568118
 20
5.598552073254596
 30
0.0
 10
-1.35766599079541
 20
5.689329663285999
 30
0.0
 11
-1.253875712346219
 21
4.600065746817032
 31
0.0
 11
-1.281761148169671
 21
4.872404614126731
 31
0.0
 11
-1.308349586922247
 21
5.14471296385177
 31
0.0
 11
-1.333648657999823
 21
5.417021313572181
 31
0.0
 11
-1.35766599079541
 21
5.689329663285999
 31
0.0
  0
SPLINE
  5
4A3D
330
1F
100
AcDbEntity
  8
AM_0
100
AcDbSpline
210
0.0
220
0.0
230
1.0
 70
     8
 71
     3
 72
    11
 73
     7
 74
     5
 42
0.0000000001
 43
0.0000000001
 44
0.0000000001
 40
0.0
 40
0.0
 40
0.0
 40
0.0
 40
0.1299074954408139
 40
0.2601970727710674
 40
0.3908903712504791
 40
0.5219741690201854
 40
0.5219741690201854
 40
0.5219741690201854
 40
0.5219741690201854
 10
-1.253875712346219
 20
4.600065746817032
 30
0.0
 10
-1.29338210900814
 20
4.582335747949545
 30
0.0
 10
-1.372511097926624
 20
4.5468236030198
 30
0.0
 10
-1.491544217063447
 20
4.493829153228592
 30
0.0
 10
-1.611047192546098
 20
4.44092672774955
 30
0.0
 10
-1.690942258844241
 20
4.405842192544033
 30
0.0
 10
-1.730949382704522
 20
4.388273756712095
 30
0.0
 11
-1.253875712346219
 21
4.600065746817032
 31
0.0
 11
-1.372421244805099
 21
4.546934643819392
 31
0.0
 11
-1.491439799723432
 21
4.493925611135821
 31
0.0
 11
-1.610954265286246
 21
4.441038648766409
 31
0.0
 11
-1.730949382704522
 21
4.388273756712095
 31
0.0
  0
SPLINE
  5
4A3E
330
1F
100
AcDbEntity
  8
AM_0
100
AcDbSpline
210
0.0
220
0.0
230
1.0
 70
     8
 71
     3
 72
    11
 73
     7
 74
     5
 42
0.0000000001
 43
0.0000000001
 44
0.0000000001
 40
0.0
 40
0.0
 40
0.0
 40
0.0
 40
0.1171835642896712
 40
0.2340295548417533
 40
0.3505383924440244
 40
0.4667584145394819
 40
0.4667584145394819
 40
0.4667584145394819
 40
0.4667584145394819
 10
-9.884429914804293
 20
3.857878284482816
 30
0.0
 10
-9.880547164071121
 20
3.896750249146712
 30
0.0
 10
-9.872792847745669
 20
3.974382198996165
 30
0.0
 10
-9.856153513070072
 20
4.090066193320489
 30
0.0
 10
-9.836111069020663
 20
4.204888943743456
 30
0.0
 10
-9.819188416705742
 20
4.28060700694144
 30
0.0
 10
-9.810737591017394
 20
4.318419055646206
 30
0.0
 11
-9.884429914804293
 21
3.857878284482816
 31
0.0
 11
-9.871940595447791
 21
3.974394397710313
 31
0.0
 11
-9.855560284884887
 21
4.090086536310825
 31
0.0
 11
-9.835197430380235
 21
4.204802112392954
 31
0.0
 11
-9.810737591017394
 21
4.318419055646206
 31
0.0
  0
SPLINE
  5
4A3F
330
1F
100
AcDbEntity
  8
AM_0
100
AcDbSpline
210
0.0
220
0.0
230
1.0
 70
     8
 71
     3
 72
    11
 73
     7
 74
     5
 42
0.0000000001
 43
0.0000000001
 44
0.0000000001
 40
0.0
 40
0.0
 40
0.0
 40
0.0
 40
0.1431803753861115
 40
0.2951541274716764
 40
0.4668320163532075
 40
0.6609597137963207
 40
0.6609597137963207
 40
0.6609597137963207
 40
0.6609597137963207
 10
-32.79910281016576
 20
-6.177888217074117
 30
0.0
 10
-32.84436475353595
 20
-6.195508680054061
 30
0.0
 10
-32.93766838796962
 20
-6.231831761080125
 30
0.0
 10
-33.03449150080593
 20
-6.362064125976302
 30
0.0
 10
-33.08883730466449
 20
-6.52844084434132
 30
0.0
 10
-33.08711234153747
 20
-6.651176056812263
 30
0.0
 10
-33.08619692872656
 20
-6.716309846680168
 30
0.0
 11
-32.79910281016576
 21
-6.177888217074117
 31
0.0
 11
-32.92733767372472
 21
-6.241578402061469
 31
0.0
 11
-33.02309420500175
 21
-6.359589876252563
 31
0.0
 11
-33.07764437661016
 21
-6.522370637733495
 31
0.0
 11
-33.08619692872656
 21
-6.716309846680168
 31
0.0
  0
SPLINE
  5
4A40
330
1F
100
AcDbEntity
  8
AM_0
100
AcDbSpline
210
0.0
220
0.0
230
1.0
 70
     8
 71
     3
 72
    11
 73
     7
 74
     5
 42
0.0000000001
 43
0.0000000001
 44
0.0000000001
 40
0.0
 40
0.0
 40
0.0
 40
0.0
 40
0.0691852426298161
 40
0.1382976402637309
 40
0.2073777443714102
 40
0.2764378710744314
 40
0.2764378710744314
 40
0.2764378710744314
 40
0.2764378710744314
 10
-1.558029148747436
 20
5.97070173447343
 30
0.0
 10
-1.560150950042159
 20
5.947737463330217
 30
0.0
 10
-1.564392318591503
 20
5.901833100076398
 30
0.0
 10
-1.569640240560953
 20
5.832904227824082
 30
0.0
 10
-1.574107477359344
 20
5.763962123449806
 30
0.0
 10
-1.576338325611044
 20
5.717968768144059
 30
0.0
 10
-1.577453588427774
 20
5.694975416198205
 30
0.0
 11
-1.558029148747436
 21
5.97070173447343
 31
0.0
 11
-1.56420895861817
 21
5.901793043093401
 31
0.0
 11
-1.569511388118904
 21
5.832884351710542
 31
0.0
 11
-1.573921178458777
 21
5.763945142745787
 31
0.0
 11
-1.577453588427774
 21
5.694975416198205
 31
0.0
  0
SPLINE
  5
4A41
330
1F
100
AcDbEntity
  8
AM_0
100
AcDbSpline
210
0.0
220
0.0
230
1.0
 70
     8
 71
     3
 72
    11
 73
     7
 74
     5
 42
0.0000000001
 43
0.0000000001
 44
0.0000000001
 40
0.0
 40
0.0
 40
0.0
 40
0.0
 40
0.4694743688872995
 40
0.9389036394412892
 40
1.408320404518569
 40
1.877726050076508
 40
1.877726050076508
 40
1.877726050076508
 40
1.877726050076508
 10
-1.253875788843299
 20
-12.92810197779196
 30
0.0
 10
-1.261865033695096
 20
-12.77181453332348
 30
0.0
 10
-1.277842755941187
 20
-12.45925465756664
 30
0.0
 10
-1.300641624497258
 20
-11.99036809857749
 30
0.0
 10
-1.322674089797808
 20
-11.5214678335528
 30
0.0
 10
-1.336582368302898
 20
-11.20883613918027
 30
0.0
 10
-1.343536425189827
 20
-11.05252214341666
 30
0.0
 11
-1.253875788843299
 21
-12.92810197779196
 31
0.0
 11
-1.27764898015703
 21
-12.45922990737521
 31
0.0
 11
-1.300514273520762
 21
-11.99035783696342
 31
0.0
 11
-1.322479298329359
 21
-11.52145524897656
 31
0.0
 11
-1.343536425189827
 21
-11.05252214341666
 31
0.0
  0
SPLINE
  5
4A42
330
1F
100
AcDbEntity
  8
AM_0
100
AcDbSpline
210
0.0
220
0.0
230
1.0
 70
     8
 71
     3
 72
    11
 73
     7
 74
     5
 42
0.0000000001
 43
0.0000000001
 44
0.0000000001
 40
0.0
 40
0.0
 40
0.0
 40
0.0
 40
0.3375066121319759
 40
0.6644510093007055
 40
0.9804934412880667
 40
1.285344716817402
 40
1.285344716817402
 40
1.285344716817402
 40
1.285344716817402
 10
-24.49203497539143
 20
-14.50000129043713
 30
0.0
 10
-24.60454018569571
 20
-14.49949254446266
 30
0.0
 10
-24.82602977390274
 20
-14.49849097363691
 30
0.0
 10
-25.15274534866023
 20
-14.48898624974885
 30
0.0
 10
-25.46837192049345
 20
-14.47360448373422
 30
0.0
 10
-25.67460040024713
 20
-14.45598090719896
 30
0.0
 10
-25.77585608111856
 20
-14.44732794499123
 30
0.0
 11
-24.49203497539143
 21
-14.50000129043713
 31
0.0
 11
-24.82952887186265
 21
-14.49707160146423
 31
0.0
 11
-25.15634161596316
 21
-14.48779425628794
 31
0.0
 11
-25.4719620382549
 21
-14.47146735061449
 31
0.0
 11
-25.77585608111856
 21
-14.44732794499123
 31
0.0
  0
SPLINE
  5
4A43
330
1F
100
AcDbEntity
  8
AM_0
100
AcDbSpline
210
0.0
220
0.0
230
1.0
 70
     8
 71
     3
 72
    11
 73
     7
 74
     5
 42
0.0000000001
 43
0.0000000001
 44
0.0000000001
 40
0.0
 40
0.0
 40
0.0
 40
0.0
 40
2.443690095408479
 40
4.822549974500592
 40
7.067364749563399
 40
9.093536343742687
 40
9.093536343742687
 40
9.093536343742687
 40
9.093536343742687
 10
-15.40653234931236
 20
-14.14093150587041
 30
0.0
 10
-16.22107871321551
 20
-14.15264337143337
 30
0.0
 10
-17.82856181995292
 20
-14.17575639099266
 30
0.0
 10
-20.18165936835576
 20
-14.29509291845388
 30
0.0
 10
-22.39345157013262
 20
-14.44539472498115
 30
0.0
 10
-23.81679542948028
 20
-14.48243109886415
 30
0.0
 10
-24.49203497539143
 20
-14.50000129043713
 30
0.0
 11
-15.40653234931236
 21
-14.14093150587041
 31
0.0
 11
-17.84970861906207
 21
-14.19104135848881
 31
0.0
 11
-20.22586828752558
 21
-14.30435311569669
 31
0.0
 11
-22.46694189648996
 21
-14.43390022505711
 31
0.0
 11
-24.49203497539143
 21
-14.50000129043713
 31
0.0
  0
SPLINE
  5
4A44
330
1F
100
AcDbEntity
  8
AM_0
100
AcDbSpline
210
0.0
220
0.0
230
1.0
 70
     8
 71
     3
 72
    11
 73
     7
 74
     5
 42
0.0000000001
 43
0.0000000001
 44
0.0000000001
 40
0.0
 40
0.0
 40
0.0
 40
0.0
 40
2.451415644842896
 40
5.045408186032796
 40
7.745488961585773
 40
10.51323400224615
 40
10.51323400224615
 40
10.51323400224615
 40
10.51323400224615
 10
-25.63356023159184
 20
-11.66912970342424
 30
0.0
 10
-24.84184434926986
 20
-11.46468885414236
 30
0.0
 10
-23.21236556133649
 20
-11.04391666208416
 30
0.0
 10
-20.65273157322253
 20
-10.67587237854307
 30
0.0
 10
-17.96895989403387
 20
-10.47917917745483
 30
0.0
 10
-16.14606801261119
 20
-10.53577555822803
 30
0.0
 10
-15.22334294161364
 20
-10.56442393830989
 30
0.0
 11
-25.63356023159184
 21
-11.66912970342424
 31
0.0
 11
-23.24947362021466
 21
-11.09854255562596
 31
0.0
 11
-20.68470005894927
 21
-10.71029793791324
 31
0.0
 11
-17.99083714311102
 21
-10.52716196334189
 31
0.0
 11
-15.22334294161364
 21
-10.56442393830989
 31
0.0
  0
SPLINE
  5
4A45
330
1F
100
AcDbEntity
  8
AM_0
100
AcDbSpline
210
0.0
220
0.0
230
1.0
 70
     8
 71
     3
 72
    11
 73
     7
 74
     5
 42
0.0000000001
 43
0.0000000001
 44
0.0000000001
 40
0.0
 40
0.0
 40
0.0
 40
0.0
 40
0.1635895230839226
 40
0.3273962844586906
 40
0.4913964376844345
 40
0.6556012941265284
 40
0.6556012941265284
 40
0.6556012941265284
 40
0.6556012941265284
 10
-1.253875788843299
 20
-12.92810197779196
 30
0.0
 10
-1.293369311808196
 20
-12.96570209604273
 30
0.0
 10
-1.372408803061299
 20
-13.04095226352561
 30
0.0
 10
-1.491431491710541
 20
-13.15348560205521
 30
0.0
 10
-1.61093517937871
 20
-13.26580777295246
 30
0.0
 10
-1.690928069288625
 20
-13.34043940119046
 30
0.0
 10
-1.730949460239786
 20
-13.3777784893819
 30
0.0
 11
-1.253875788843299
 21
-12.92810197779196
 31
0.0
 11
-1.372421321562291
 21
-13.0408339108686
 31
0.0
 11
-1.491439876740469
 21
-13.15338273847417
 31
0.0
 11
-1.610954342562596
 21
-13.26568742545259
 31
0.0
 11
-1.730949460239786
 21
-13.3777784893819
 31
0.0
  0
SPLINE
  5
4A46
330
1F
100
AcDbEntity
  8
AM_0
100
AcDbSpline
210
0.0
220
0.0
230
1.0
 70
     8
 71
     3
 72
    11
 73
     7
 74
     5
 42
0.0000000001
 43
0.0000000001
 44
0.0000000001
 40
0.0
 40
0.0
 40
0.0
 40
0.0
 40
0.0653534006802825
 40
0.1306535025709203
 40
0.195893033365527
 40
0.2610038954743384
 40
0.2610038954743384
 40
0.2610038954743384
 40
0.2610038954743384
 10
-32.40547173870324
 20
14.44805830296648
 30
0.0
 10
-32.42725620788251
 20
14.44803703818865
 30
0.0
 10
-32.47080737997597
 20
14.44799452597541
 30
0.0
 10
-32.53610498082579
 20
14.44813019669169
 30
0.0
 10
-32.60132142941453
 20
14.44838320058886
 30
0.0
 10
-32.64477032299411
 20
14.44871602885102
 30
0.0
 10
-32.66647332561365
 20
14.44888227871495
 30
0.0
 11
-32.40547173870324
 21
14.44805830296648
 31
0.0
 11
-32.47082513225837
 21
14.4480277856736
 31
0.0
 11
-32.53612512005084
 21
14.44814985627108
 31
0.0
 11
-32.60136407268664
 21
14.4484245147589
 31
0.0
 11
-32.66647332561365
 21
14.44888227871495
 31
0.0
  0
SPLINE
  5
4A47
330
1F
100
AcDbEntity
  8
AM_0
100
AcDbSpline
210
0.0
220
0.0
230
1.0
 70
     8
 71
     3
 72
    11
 73
     7
 74
     5
 42
0.0000000001
 43
0.0000000001
 44
0.0000000001
 40
0.0
 40
0.0
 40
0.0
 40
0.0
 40
0.3108766176437421
 40
0.5937148883327457
 40
0.8514540388988651
 40
1.091278496064825
 40
1.091278496064825
 40
1.091278496064825
 40
1.091278496064825
 10
-8.169280954632556
 20
11.7380052301225
 30
0.0
 10
-8.272617985797747
 20
11.7264786231465
 30
0.0
 10
-8.469971953374644
 20
11.70446500814553
 30
0.0
 10
-8.738642142244339
 20
11.60666658724376
 30
0.0
 10
-8.967858206106305
 20
11.48036372107483
 30
0.0
 10
-9.093562635668481
 20
11.37156275833266
 30
0.0
 10
-9.154151867104673
 20
11.31912095707691
 30
0.0
 11
-8.169280954632556
 21
11.7380052301225
 31
0.0
 11
-8.476547190189721
 21
11.69076402052598
 31
0.0
 11
-8.743331858568675
 21
11.59683091622149
 31
0.0
 11
-8.967636058341733
 21
11.46987779220041
 31
0.0
 11
-9.154151867104673
 21
11.31912095707691
 31
0.0
  0
SPLINE
  5
4A75
330
1F
100
AcDbEntity
  8
AM_0
100
AcDbSpline
210
0.0
220
0.0
230
1.0
 70
     8
 71
     3
 72
    11
 73
     7
 74
     5
 42
0.0000000001
 43
0.0000000001
 44
0.0000000001
 40
0.0
 40
0.0
 40
0.0
 40
0.0
 40
0.1565939918340303
 40
0.3132551180709341
 40
0.4700018900604353
 40
0.6268001729758234
 40
0.6268001729758234
 40
0.6268001729758234
 40
0.6268001729758234
 10
-0.2094573346058834
 20
14.40231231284604
 30
0.0
 10
-0.1764179716884897
 20
14.36165593998401
 30
0.0
 10
-0.1103250813389927
 20
14.28032576420864
 30
0.0
 10
-0.044353073932723
 20
14.13680369740183
 30
0.0
 10
-0.0029513065284627
 20
13.98430071388278
 30
0.0
 10
-0.0014924348065748
 20
13.87941558936127
 30
0.0
 10
-0.0007628791098497
 20
13.82696441154465
 30
0.0
 11
-0.2094573346058834
 21
14.40231231284604
 31
0.0
 11
-0.1158675524398192
 21
14.27676299603139
 31
0.0
 11
-0.048461852372997
 21
14.13534453870592
 31
0.0
 11
-0.0094909057696026
 21
13.98351958736404
 31
0.0
 11
-0.0007628791098497
 21
13.82696441154465
 31
0.0
  0
SPLINE
  5
4A76
330
1F
100
AcDbEntity
  8
AM_0
100
AcDbSpline
210
0.0
220
0.0
230
1.0
 70
     8
 71
     3
 72
    11
 73
     7
 74
     5
 42
0.0000000001
 43
0.0000000001
 44
0.0000000001
 40
0.0
 40
0.0
 40
0.0
 40
0.0
 40
0.350003513227096
 40
0.7000075028375793
 40
1.050011016064774
 40
1.39998404076029
 40
1.39998404076029
 40
1.39998404076029
 40
1.39998404076029
 10
-0.061828559041894
 20
12.42831281192715
 30
0.0
 10
-0.0567397579477003
 20
12.5448696155334
 30
0.0
 10
-0.0465621488330385
 20
12.77798338138924
 30
0.0
 10
-0.0312956384212713
 20
13.12765394647628
 30
0.0
 10
-0.0160300967628582
 20
13.47731438133447
 30
0.0
 10
-0.0058518038838972
 20
13.71041778586447
 30
0.0
 10
-0.0007628791098497
 20
13.82696441154465
 30
0.0
 11
-0.061828559041894
 21
12.42831281192715
 31
0.0
 11
-0.0465621390588466
 21
12.77798322201673
 31
0.0
 11
-0.0312957190757971
 21
13.1276541089435
 31
0.0
 11
-0.0160292990927497
 21
13.47732451903318
 31
0.0
 11
-0.0007628791098497
 21
13.82696441154465
 31
0.0
  0
SPLINE
  5
4A77
330
1F
100
AcDbEntity
  8
AM_0
100
AcDbSpline
210
0.0
220
0.0
230
1.0
 70
     8
 71
     3
 72
    11
 73
     7
 74
     5
 42
0.0000000001
 43
0.0000000001
 44
0.0000000001
 40
0.0
 40
0.0
 40
0.0
 40
0.0
 40
0.5056484198629221
 40
1.011296839725843
 40
1.516952404546132
 40
2.022600824409054
 40
2.022600824409054
 40
2.022600824409054
 40
2.022600824409054
 10
-2.084175055763875
 20
12.39623884614375
 30
0.0
 10
-1.9156468023756
 20
12.3989133081382
 30
0.0
 10
-1.578590295599051
 20
12.40426223212709
 30
0.0
 10
-1.073003414079596
 20
12.41230206512104
 30
0.0
 10
-0.567415492560872
 20
12.42027626077251
 30
0.0
 10
-0.2303567430976758
 20
12.42563397415985
 30
0.0
 10
-0.061828559041894
 20
12.42831281192715
 30
0.0
 11
-2.084175055763875
 21
12.39623884614375
 31
0.0
 11
-1.578590338931844
 21
12.40426496698416
 31
0.0
 11
-1.073005622099813
 21
12.41229108782457
 31
0.0
 11
-0.5674132758739249
 21
12.42028669108675
 31
0.0
 11
-0.061828559041894
 21
12.42831281192715
 31
0.0
  0
SPLINE
  5
4A78
330
1F
100
AcDbEntity
  8
AM_0
100
AcDbSpline
210
0.0
220
0.0
230
1.0
 70
     8
 71
     3
 72
    11
 73
     7
 74
     5
 42
0.0000000001
 43
0.0000000001
 44
0.0000000001
 40
0.0
 40
0.0
 40
0.0
 40
0.0
 40
0.6318486487766693
 40
1.263680291641759
 40
1.895528940418417
 40
2.527366602673287
 40
2.527366602673287
 40
2.527366602673287
 40
2.527366602673287
 10
-2.084175055763875
 20
12.39623884614375
 30
0.0
 10
-1.910559694961039
 20
12.51547347650848
 30
0.0
 10
-1.563333646131798
 20
12.75393952809349
 30
0.0
 10
-1.042461910740489
 20
13.11159605004849
 30
0.0
 10
-0.5216303853530917
 20
13.46930465618163
 30
0.0
 10
-0.1743843748689693
 20
13.70774518409303
 30
0.0
 10
-0.0007628791098497
 20
13.82696441154465
 30
0.0
 11
-2.084175055763875
 21
12.39623884614375
 31
0.0
 11
-1.563323918948797
 21
12.75393537707373
 31
0.0
 11
-1.042472782133849
 21
13.11160186726282
 31
0.0
 11
-0.5216216453187861
 21
13.4692983981928
 31
0.0
 11
-0.0007628791098497
 21
13.82696441154465
 31
0.0
  0
SPLINE
  5
4A79
330
1F
100
AcDbEntity
  8
AM_0
100
AcDbSpline
210
0.0
220
0.0
230
1.0
 70
     8
 71
     3
 72
    11
 73
     7
 74
     5
 42
0.0000000001
 43
0.0000000001
 44
0.0000000001
 40
0.0
 40
0.0
 40
0.0
 40
0.0
 40
1.417899568829915
 40
2.835800353476444
 40
4.253699922307013
 40
5.671600706953544
 40
5.671600706953544
 40
5.671600706953544
 40
5.671600706953544
 10
-0.061828559041894
 20
12.42831281192715
 30
0.0
 10
-0.1371450586956333
 20
11.96171924488635
 30
0.0
 10
-0.2877781225852965
 20
11.02853171071139
 30
0.0
 10
-0.5137436196486656
 20
9.628753181523316
 30
0.0
 10
-0.7396900610732065
 20
8.228971165808852
 30
0.0
 10
-0.8903316228403229
 20
7.295785003381911
 30
0.0
 10
-0.9656524360167775
 20
6.829191722122158
 30
0.0
 11
-0.061828559041894
 21
12.42831281192715
 31
0.0
 11
-0.2877807135878696
 21
11.02853253947576
 31
0.0
 11
-0.5137404975288314
 21
9.628752267024907
 31
0.0
 11
-0.7396926520758159
 21
8.228971994573017
 31
0.0
 11
-0.9656524360167775
 21
6.829191722122158
 31
0.0
  0
SPLINE
  5
4A7A
330
1F
100
AcDbEntity
  8
AM_0
100
AcDbSpline
210
0.0
220
0.0
230
1.0
 70
     8
 71
     3
 72
    11
 73
     7
 74
     5
 42
0.0000000001
 43
0.0000000001
 44
0.0000000001
 40
0.0
 40
0.0
 40
0.0
 40
0.0
 40
0.4910084250567508
 40
0.9820406433778028
 40
1.473049068434544
 40
1.964081286755605
 40
1.964081286755605
 40
1.964081286755605
 40
1.964081286755605
 10
-0.9656524360167775
 20
6.829191722122158
 30
0.0
 10
-1.068147495267508
 20
6.95679446465469
 30
0.0
 10
-1.273142580469967
 20
7.212006133087746
 30
0.0
 10
-1.580600797484716
 20
7.594846187554738
 30
0.0
 10
-1.888102293951237
 20
7.977661653328873
 30
0.0
 10
-2.093080351172785
 20
8.23288699830705
 30
0.0
 10
-2.195571862927779
 20
8.360502762645818
 30
0.0
 11
-0.9656524360167775
 21
6.829191722122158
 31
0.0
 11
-1.273132292744103
 21
7.212004223464073
 31
0.0
 11
-1.580612149472278
 21
7.594847242383989
 31
0.0
 11
-1.88809200619959
 21
7.977659743725904
 31
0.0
 11
-2.195571862927779
 21
8.360502762645818
 31
0.0
  0
SPLINE
  5
4A7B
330
1F
100
AcDbEntity
  8
AM_0
100
AcDbSpline
210
0.0
220
0.0
230
1.0
 70
     8
 71
     3
 72
    11
 73
     7
 74
     5
 42
0.0000000001
 43
0.0000000001
 44
0.0000000001
 40
0.0
 40
0.0
 40
0.0
 40
0.0
 40
1.009325876739662
 40
2.018621247517962
 40
3.027947334780808
 40
4.037273211520043
 40
4.037273211520043
 40
4.037273211520043
 40
4.037273211520043
 10
-2.195571862927779
 20
8.360502762645818
 30
0.0
 10
-2.186289299745955
 20
8.696816642433148
 30
0.0
 10
-2.16772445393938
 20
9.3694342372251
 30
0.0
 10
-2.139879413568559
 20
10.37836584739526
 30
0.0
 10
-2.112019840710747
 20
11.38729705640034
 30
0.0
 10
-2.093456650100852
 20
12.05992493961189
 30
0.0
 10
-2.084175055763875
 20
12.39623884614375
 30
0.0
 11
-2.195571862927779
 21
8.360502762645818
 31
0.0
 11
-2.167724568484517
 21
9.369444412915287
 31
0.0
 11
-2.139877274042385
 21
10.37835554560575
 31
0.0
 11
-2.112022350206127
 21
11.38729719587469
 31
0.0
 11
-2.084175055763875
 21
12.39623884614375
 31
0.0
  0
SPLINE
  5
4A7C
330
1F
100
AcDbEntity
  8
AM_0
100
AcDbSpline
210
0.0
220
0.0
230
1.0
 70
     8
 71
     3
 72
    11
 73
     7
 74
     5
 42
0.0000000001
 43
0.0000000001
 44
0.0000000001
 40
0.0
 40
0.0
 40
0.0
 40
0.0
 40
0.0000381469728839
 40
0.0000534057618896
 40
0.000068664550881
 40
0.0001068115232392
 40
0.0001068115232392
 40
0.0001068115232392
 40
0.0001068115232392
 10
-0.7627181367001441
 20
14.66094878987
 30
0.0
 10
-0.7627123238279017
 20
14.66096259544103
 30
0.0
 10
-0.7627041858067852
 20
14.66098192324041
 30
0.0
 10
-0.7626799897270172
 20
14.66097930744795
 30
0.0
 10
-0.762655793647319
 20
14.6609766916554
 30
0.0
 10
-0.7626476556267255
 20
14.6609960194549
 30
0.0
 10
-0.7626418427548778
 20
14.66100982502597
 30
0.0
 11
-0.7627181367001441
 21
14.66094878987
 31
0.0
 11
-0.762695248516005
 21
14.660979307448
 31
0.0
 11
-0.7626799897269994
 21
14.66097930744793
 31
0.0
 11
-0.7626647309380079
 21
14.66097930744787
 31
0.0
 11
-0.7626418427548778
 21
14.66100982502597
 31
0.0
  0
SPLINE
  5
4A7D
330
1F
100
AcDbEntity
  8
AM_0
100
AcDbSpline
210
0.0
220
0.0
230
1.0
 70
     8
 71
     3
 72
    11
 73
     7
 74
     5
 42
0.0000000001
 43
0.0000000001
 44
0.0000000001
 40
0.0
 40
0.0
 40
0.0
 40
0.0
 40
0.1563025922483823
 40
0.312653203044319
 40
0.4690617486336109
 40
0.625548953021754
 40
0.625548953021754
 40
0.625548953021754
 40
0.625548953021754
 10
-0.7626418427548778
 20
14.66100982502597
 30
0.0
 10
-0.7106186071144639
 20
14.65570708692802
 30
0.0
 10
-0.6065561534997633
 20
14.64509998164986
 30
0.0
 10
-0.4586957999678491
 20
14.59040083028952
 30
0.0
 10
-0.321881112099208
 20
14.51195268515386
 30
0.0
 10
-0.2469382070642019
 20
14.43886522809563
 30
0.0
 10
-0.2094573346058834
 20
14.40231231284604
 30
0.0
 11
-0.7626418427548778
 21
14.66100982502597
 31
0.0
 11
-0.6079482393364943
 21
14.63864043958515
 31
0.0
 11
-0.4605635960092422
 21
14.58645538034823
 31
0.0
 11
-0.325973447431991
 21
14.50677398327644
 31
0.0
 11
-0.2094573346058834
 21
14.40231231284604
 31
0.0
  0
SPLINE
  5
4A7E
330
1F
100
AcDbEntity
  8
AM_0
100
AcDbSpline
210
0.0
220
0.0
230
1.0
 70
     8
 71
     3
 72
    11
 73
     7
 74
     5
 42
0.0000000001
 43
0.0000000001
 44
0.0000000001
 40
0.0
 40
0.0
 40
0.0
 40
0.0
 40
0.2824256538760687
 40
0.5648236302814372
 40
0.8472216066861156
 40
1.129642467225023
 40
1.129642467225023
 40
1.129642467225023
 40
1.129642467225023
 10
-2.084175055763875
 20
12.39623884614375
 30
0.0
 10
-2.147665983032691
 20
12.46574853326076
 30
0.0
 10
-2.274641615514163
 20
12.60476109560534
 30
0.0
 10
-2.465118038271822
 20
12.81326183970755
 30
0.0
 10
-2.655595267490807
 20
13.02175968318578
 30
0.0
 10
-2.782566053991669
 20
13.16077450793389
 30
0.0
 10
-2.846054019408901
 20
13.23028473646217
 30
0.0
 11
-2.084175055763875
 21
12.39623884614375
 31
0.0
 11
-2.274650518720804
 21
12.60476545830313
 31
0.0
 11
-2.465118352283889
 21
12.81326155288438
 31
0.0
 11
-2.655586185845951
 21
13.02175764746563
 31
0.0
 11
-2.846054019408901
 21
13.23028473646217
 31
0.0
  0
SPLINE
  5
4A7F
330
1F
100
AcDbEntity
  8
AM_0
100
AcDbSpline
210
0.0
220
0.0
230
1.0
 70
     8
 71
     3
 72
    11
 73
     7
 74
     5
 42
0.0000000001
 43
0.0000000001
 44
0.0000000001
 40
0.0
 40
0.0
 40
0.0
 40
0.0
 40
0.244335714714227
 40
0.4886887051269558
 40
0.7330307093419901
 40
0.9773836997555957
 40
0.9773836997555957
 40
0.9773836997555957
 40
0.9773836997555957
 10
-2.846054019408901
 20
13.23028473646217
 30
0.0
 10
-2.778911036187893
 20
13.27638404958635
 30
0.0
 10
-2.644620322417244
 20
13.36858593527567
 30
0.0
 10
-2.443216723467648
 20
13.50693466673561
 30
0.0
 10
-2.241766518730807
 20
13.64522570214572
 30
0.0
 10
-2.107491050792618
 20
13.73745349250205
 30
0.0
 10
-2.040351807521228
 20
13.7835684243522
 30
0.0
 11
-2.846054019408901
 21
13.23028473646217
 31
0.0
 11
-2.644630373785302
 21
13.36859039964561
 31
0.0
 11
-2.443206728162564
 21
13.50692658040715
 31
0.0
 11
-2.24177545314496
 21
13.64523224359056
 31
0.0
 11
-2.040351807521228
 21
13.7835684243522
 31
0.0
  0
SPLINE
  5
4A80
330
1F
100
AcDbEntity
  8
AM_0
100
AcDbSpline
210
0.0
220
0.0
230
1.0
 70
     8
 71
     3
 72
    11
 73
     7
 74
     5
 42
0.0000000001
 43
0.0000000001
 44
0.0000000001
 40
0.0
 40
0.0
 40
0.0
 40
0.0
 40
0.3874767911100964
 40
0.7749425956299985
 40
1.162425675820989
 40
1.549885190979642
 40
1.549885190979642
 40
1.549885190979642
 40
1.549885190979642
 10
-2.040351807521228
 20
13.7835684243522
 30
0.0
 10
-1.933885505678225
 20
13.85669130662092
 30
0.0
 10
-1.72095592075787
 20
14.00293499781834
 30
0.0
 10
-1.401524121701886
 20
14.22225297921275
 30
0.0
 10
-1.082133689772443
 20
14.44162102687369
 30
0.0
 10
-0.8691878292520684
 20
14.58784101766007
 30
0.0
 10
-0.7627181367001441
 20
14.66094878987
 30
0.0
 11
-2.040351807521228
 21
13.7835684243522
 31
0.0
 11
-1.720947204512893
 21
14.00292877452074
 31
0.0
 11
-1.401534972110686
 21
14.22225860711105
 31
0.0
 11
-1.082122739708345
 21
14.44161895727956
 31
0.0
 11
-0.7627181367001441
 21
14.66094878987
 31
0.0
  0
SPLINE
  5
4A81
330
1F
100
AcDbEntity
  8
AM_0
100
AcDbSpline
210
0.0
220
0.0
230
1.0
 70
     8
 71
     3
 72
    11
 73
     7
 74
     5
 42
0.0000000001
 43
0.0000000001
 44
0.0000000001
 40
0.0
 40
0.0
 40
0.0
 40
0.0
 40
1.810232018091931
 40
3.609104580831231
 40
5.39313828365143
 40
7.158880371313338
 40
7.158880371313338
 40
7.158880371313338
 40
7.158880371313338
 10
-0.7626494721488691
 20
14.661009825026
 30
0.0
 10
-1.365642632203183
 20
14.6835689585627
 30
0.0
 10
-2.567845087143633
 20
14.72854566396464
 30
0.0
 10
-4.364968422211411
 20
14.77569713915926
 30
0.0
 10
-6.147571325432184
 20
14.8090270200861
 30
0.0
 10
-7.330809557385189
 20
14.81737822912261
 30
0.0
 10
-7.919380123304319
 20
14.82153231719717
 30
0.0
 11
-0.7626494721488691
 21
14.661009825026
 31
0.0
 11
-2.571739132513246
 21
14.7253103700306
 31
0.0
 11
-4.369964535134682
 21
14.77355866889418
 31
0.0
 11
-6.153709347006573
 21
14.80566316886636
 31
0.0
 11
-7.919380123304319
 21
14.82153231719717
 31
0.0
  0
SPLINE
  5
4A82
330
1F
100
AcDbEntity
  8
AM_0
100
AcDbSpline
210
0.0
220
0.0
230
1.0
 70
     8
 71
     3
 72
    11
 73
     7
 74
     5
 42
0.0000000001
 43
0.0000000001
 44
0.0000000001
 40
0.0
 40
0.0
 40
0.0
 40
0.0
 40
0.937074833595232
 40
1.874142481512626
 40
2.811217315106921
 40
3.748284963024652
 40
3.748284963024652
 40
3.748284963024652
 40
3.748284963024652
 10
-5.725860564714167
 20
7.100859223365835
 30
0.0
 10
-5.431668465423893
 20
7.205829230826882
 30
0.0
 10
-4.843286522767388
 20
7.415768440817897
 30
0.0
 10
-3.960714327167967
 20
7.730682832859316
 30
0.0
 10
-3.078142171874476
 20
8.045590210458051
 30
0.0
 10
-2.489761213936722
 20
8.255532180230401
 30
0.0
 10
-2.195571862927779
 20
8.360502762645818
 30
0.0
 11
-5.725860564714167
 21
7.100859223365835
 31
0.0
 11
-4.843284574569821
 21
7.415770108186063
 31
0.0
 11
-3.960716213820476
 21
7.730680993005327
 31
0.0
 11
-3.078140223677124
 21
8.045591877825556
 31
0.0
 11
-2.195571862927779
 21
8.360502762645818
 31
0.0
  0
SPLINE
  5
4A83
330
1F
100
AcDbEntity
  8
AM_0
100
AcDbSpline
210
0.0
220
0.0
230
1.0
 70
     8
 71
     3
 72
    11
 73
     7
 74
     5
 42
0.0000000001
 43
0.0000000001
 44
0.0000000001
 40
0.0
 40
0.0
 40
0.0
 40
0.0
 40
0.9583326396868743
 40
1.916665279373751
 40
2.874970298206644
 40
3.833302937893044
 40
3.833302937893044
 40
3.833302937893044
 40
3.833302937893044
 10
-4.09579463160365
 20
10.57031112054884
 30
0.0
 10
-4.231633808940541
 20
10.28118775023024
 30
0.0
 10
-4.503312163614325
 20
9.702941009593056
 30
0.0
 10
-4.910819488158795
 20
8.835576275307992
 30
0.0
 10
-5.318351981696928
 20
7.968223366372246
 30
0.0
 10
-5.590023065348868
 20
7.389983382059038
 30
0.0
 10
-5.725860564714167
 20
7.100859223365835
 30
0.0
 11
-4.09579463160365
 21
10.57031112054884
 31
0.0
 11
-4.503311114881064
 21
9.70294051685834
 31
0.0
 11
-4.910827598158478
 21
8.835569913167837
 31
0.0
 11
-5.318344081435744
 21
7.968229827055337
 31
0.0
 11
-5.725860564714167
 21
7.100859223365835
 31
0.0
  0
SPLINE
  5
4A84
330
1F
100
AcDbEntity
  8
AM_0
100
AcDbSpline
210
0.0
220
0.0
230
1.0
 70
     8
 71
     3
 72
    11
 73
     7
 74
     5
 42
0.0000000001
 43
0.0000000001
 44
0.0000000001
 40
0.0
 40
0.0
 40
0.0
 40
0.0
 40
0.1888509933821453
 40
0.3776743657632
 40
0.5665253591454659
 40
0.7553487315269451
 40
0.7553487315269451
 40
0.7553487315269451
 40
0.7553487315269451
 10
-3.774597118854025
 20
11.25396590430246
 30
0.0
 10
-3.801362179826352
 20
11.19698892904696
 30
0.0
 10
-3.854888387162112
 20
11.08304331188421
 30
0.0
 10
-3.935204824028239
 20
10.91213254426183
 30
0.0
 10
-4.015487143596864
 20
10.74121592003562
 30
0.0
 10
-4.069026774131572
 20
10.62727660941545
 30
0.0
 10
-4.09579463160365
 20
10.57031112054884
 30
0.0
 11
-3.774597118854025
 21
11.25396590430246
 31
0.0
 11
-3.854896497041988
 21
11.0830369495755
 31
0.0
 11
-3.935195875228838
 21
10.91213851242595
 31
0.0
 11
-4.015495253415807
 21
10.74120955769839
 31
0.0
 11
-4.09579463160365
 21
10.57031112054884
 31
0.0
  0
SPLINE
  5
4A85
330
1F
100
AcDbEntity
  8
AM_0
100
AcDbSpline
210
0.0
220
0.0
230
1.0
 70
     8
 71
     3
 72
    11
 73
     7
 74
     5
 42
0.0000000001
 43
0.0000000001
 44
0.0000000001
 40
0.0
 40
0.0
 40
0.0
 40
0.0
 40
0.5458973349729492
 40
1.091790994057529
 40
1.637684653142193
 40
2.183581556539979
 40
2.183581556539979
 40
2.183581556539979
 40
2.183581556539979
 10
-2.846054019408901
 20
13.23028473646217
 30
0.0
 10
-2.923434387028033
 20
13.06559161823964
 30
0.0
 10
-3.078194601213026
 20
12.73620649078244
 30
0.0
 10
-3.310325582240455
 20
12.24212508812289
 30
0.0
 10
-3.542456423440925
 20
11.74804377871246
 30
0.0
 10
-3.697216733756856
 20
11.41865885536734
 30
0.0
 10
-3.774597118854025
 20
11.25396590430246
 30
0.0
 11
-2.846054019408901
 21
13.23028473646217
 31
0.0
 11
-3.078193608967172
 21
12.73620467079439
 31
0.0
 11
-3.310325569131464
 21
12.24212508196377
 31
0.0
 11
-3.542457529295742
 21
11.74804549313304
 31
0.0
 11
-3.774597118854025
 21
11.25396590430246
 31
0.0
  0
SPLINE
  5
4A86
330
1F
100
AcDbEntity
  8
AM_0
100
AcDbSpline
210
0.0
220
0.0
230
1.0
 70
     8
 71
     3
 72
    11
 73
     7
 74
     5
 42
0.0000000001
 43
0.0000000001
 44
0.0000000001
 40
0.0
 40
0.0
 40
0.0
 40
0.0
 40
1.228540447406937
 40
2.450142194725918
 40
3.663639733029095
 40
4.867883141490895
 40
4.867883141490895
 40
4.867883141490895
 40
4.867883141490895
 10
-2.846054019408901
 20
13.23028473646217
 30
0.0
 10
-3.255411177751139
 20
13.24165271890569
 30
0.0
 10
-4.071813477312706
 20
13.26432447831953
 30
0.0
 10
-5.292797203673536
 20
13.28851154490373
 30
0.0
 10
-6.505795148141574
 20
13.30606304990061
 30
0.0
 10
-7.311696063078173
 20
13.31111296868755
 30
0.0
 10
-7.713104189943167
 20
13.31362826356254
 30
0.0
 11
-2.846054019408901
 21
13.23028473646217
 31
0.0
 11
-4.074165286357191
 21
13.26275544494694
 31
0.0
 11
-5.295516909784311
 21
13.28747468855851
 31
0.0
 11
-6.508895815960259
 21
13.30444246729148
 31
0.0
 11
-7.713104189943167
 21
13.31362826356254
 31
0.0
  0
SPLINE
  5
4A87
330
1F
100
AcDbEntity
  8
AM_0
100
AcDbSpline
210
0.0
220
0.0
230
1.0
 70
     8
 71
     3
 72
    11
 73
     7
 74
     5
 42
0.0000000001
 43
0.0000000001
 44
0.0000000001
 40
0.0
 40
0.0
 40
0.0
 40
0.0
 40
2.067907429963167
 40
4.16831625633592
 40
6.244877585144237
 40
8.346149072585884
 40
8.346149072585884
 40
8.346149072585884
 40
8.346149072585884
 10
-7.715080203160189
 20
13.30605990419616
 30
0.0
 10
-7.070159271891384
 20
12.99351756403051
 30
0.0
 10
-5.770181157345441
 20
12.36352064133027
 30
0.0
 10
-5.113361024829862
 20
10.1640901841443
 30
0.0
 10
-5.877095277589144
 20
7.991958869524735
 30
0.0
 10
-7.210492262755594
 20
7.424097449633419
 30
0.0
 10
-7.881134002049949
 20
7.13848740659996
 30
0.0
 11
-7.715080203160189
 21
13.30605990419616
 31
0.0
 11
-5.992362922996406
 21
12.16216903898131
 31
0.0
 11
-5.35042567586448
 21
10.16226058891435
 31
0.0
 11
-6.077949488063681
 21
8.217314303027434
 31
0.0
 11
-7.881134002049949
 21
7.13848740659996
 31
0.0
  0
SPLINE
  5
4A88
330
1F
100
AcDbEntity
  8
AM_0
100
AcDbSpline
210
0.0
220
0.0
230
1.0
 70
     8
 71
     3
 72
    11
 73
     7
 74
     5
 42
0.0000000001
 43
0.0000000001
 44
0.0000000001
 40
0.0
 40
0.0
 40
0.0
 40
0.0
 40
0.0019559988100296
 40
0.0039119976197071
 40
0.0058660760613542
 40
0.0078220748712875
 40
0.0078220748712875
 40
0.0078220748712875
 40
0.0078220748712875
 10
-7.713104189943167
 20
13.31362826356254
 30
0.0
 10
-7.713269280634382
 20
13.31299751158813
 30
0.0
 10
-7.713599462016785
 20
13.31173600763944
 30
0.0
 10
-7.714098402230762
 20
13.30984536714185
 30
0.0
 10
-7.714582029065069
 20
13.30795074394573
 30
0.0
 10
-7.71491409076632
 20
13.30669039044645
 30
0.0
 10
-7.715080203160189
 20
13.30605990419616
 30
0.0
 11
-7.713104189943167
 21
13.31362826356254
 31
0.0
 11
-7.713600100596424
 21
13.3117361737209
 31
0.0
 11
-7.714096011248673
 21
13.30984408387936
 31
0.0
 11
-7.714584292506931
 21
13.30795199403769
 31
0.0
 11
-7.715080203160189
 21
13.30605990419616
 31
0.0
  0
SPLINE
  5
4A89
330
1F
100
AcDbEntity
  8
AM_0
100
AcDbSpline
210
0.0
220
0.0
230
1.0
 70
     8
 71
     3
 72
    11
 73
     7
 74
     5
 42
0.0000000001
 43
0.0000000001
 44
0.0000000001
 40
0.0
 40
0.0
 40
0.0
 40
0.0
 40
0.1689013235411323
 40
0.3378013581790086
 40
0.5066787697555411
 40
0.6755452094833475
 40
0.6755452094833475
 40
0.6755452094833475
 40
0.6755452094833475
 10
-2.37205502775332
 20
5.947813554432033
 30
0.0
 10
-2.424271808337945
 20
5.926746689103602
 30
0.0
 10
-2.528704971035605
 20
5.88461311921014
 30
0.0
 10
-2.687934958362354
 20
5.82818236071114
 30
0.0
 10
-2.848712571217337
 20
5.776361155324472
 30
0.0
 10
-2.957267531842233
 20
5.746477048873295
 30
0.0
 10
-3.011543248912209
 20
5.731535481050911
 30
0.0
 11
-2.37205502775332
 21
5.947813554432033
 31
0.0
 11
-2.529136632028226
 21
5.885740801211573
 31
0.0
 11
-2.688201878858088
 21
5.828947589014772
 31
0.0
 11
-2.849060033379509
 21
5.777525470575795
 31
0.0
 11
-3.011543248912209
 21
5.731535481050911
 31
0.0
  0
SPLINE
  5
4A8A
330
1F
100
AcDbEntity
  8
AM_0
100
AcDbSpline
210
0.0
220
0.0
230
1.0
 70
     8
 71
     3
 72
    11
 73
     7
 74
     5
 42
0.0000000001
 43
0.0000000001
 44
0.0000000001
 40
0.0
 40
0.0
 40
0.0
 40
0.0
 40
0.4169139702156021
 40
0.8337226607361747
 40
1.250438327517938
 40
1.667059593592332
 40
1.667059593592332
 40
1.667059593592332
 40
1.667059593592332
 10
-0.9656524360167775
 20
6.829191722122158
 30
0.0
 10
-1.071659072205509
 20
6.739181737142874
 30
0.0
 10
-1.283645575639915
 20
6.559184496630777
 30
0.0
 10
-1.629341174236977
 20
6.325158042177329
 30
0.0
 10
-1.990817489595168
 20
6.116583026031808
 30
0.0
 10
-2.244985445779756
 20
6.004065796301212
 30
0.0
 10
-2.37205502775332
 20
5.947813554432033
 30
0.0
 11
-0.9656524360167775
 21
6.829191722122158
 31
0.0
 11
-1.28829953189511
 21
6.565153637592267
 31
0.0
 11
-1.632011385952102
 21
6.329374830499307
 31
0.0
 11
-1.994148227671906
 21
6.123198074266759
 31
0.0
 11
-2.37205502775332
 21
5.947813554432033
 31
0.0
  0
SPLINE
  5
4A8B
330
1F
100
AcDbEntity
  8
AM_0
100
AcDbSpline
210
0.0
220
0.0
230
1.0
 70
     8
 71
     3
 72
    11
 73
     7
 74
     5
 42
0.0000000001
 43
0.0000000001
 44
0.0000000001
 40
0.0
 40
0.0
 40
0.0
 40
0.0
 40
0.582535804240369
 40
1.165210122126635
 40
1.74808525421623
 40
2.331169727027839
 40
2.331169727027839
 40
2.331169727027839
 40
2.331169727027839
 10
-2.998702977919944
 20
5.730680988806873
 30
0.0
 10
-2.812612446865665
 20
5.787007306780056
 30
0.0
 10
-2.44038713669933
 20
5.899673335832232
 30
0.0
 10
-1.912634754432965
 20
6.150743162848621
 30
0.0
 10
-1.412709273290321
 20
6.453801369631806
 30
0.0
 10
-1.113819518728381
 20
6.703009092405246
 30
0.0
 10
-0.9643478095585699
 20
6.827635325632464
 30
0.0
 11
-2.998702977919944
 21
5.730680988806873
 31
0.0
 11
-2.44554135602882
 21
5.913328691471743
 31
0.0
 11
-1.917358371557078
 21
6.159361404009628
 31
0.0
 11
-1.421379061138821
 21
6.465544263173057
 31
0.0
 11
-0.9643478095585699
 21
6.827635325632464
 31
0.0
  0
SPLINE
  5
4A8C
330
1F
100
AcDbEntity
  8
AM_0
100
AcDbSpline
210
0.0
220
0.0
230
1.0
 70
     8
 71
     3
 72
    11
 73
     7
 74
     5
 42
0.0000000001
 43
0.0000000001
 44
0.0000000001
 40
0.0
 40
0.0
 40
0.0
 40
0.0
 40
0.1041466448150683
 40
0.2083081282315249
 40
0.3124959514365441
 40
0.416709287554182
 40
0.416709287554182
 40
0.416709287554182
 40
0.416709287554182
 10
-17.18906399861957
 20
6.246092427690972
 30
0.0
 10
-17.20381081549771
 20
6.277579573549455
 30
0.0
 10
-17.23330655035037
 20
6.340558351490695
 30
0.0
 10
-17.26154364082885
 20
6.441206657732376
 30
0.0
 10
-17.27848765035334
 20
6.544399654748121
 30
0.0
 10
-17.27810142999786
 20
6.613978293219605
 30
0.0
 10
-17.27790829617917
 20
6.64877187143771
 30
0.0
 11
-17.18906399861957
 21
6.246092427690972
 31
0.0
 11
-17.23063656900382
 21
6.341581929825405
 31
0.0
 11
-17.25965878536424
 21
6.441618551045065
 31
0.0
 11
-17.27556607251287
 21
6.544584859708489
 31
0.0
 11
-17.27790829617917
 21
6.64877187143771
 31
0.0
  0
SPLINE
  5
4A8D
330
1F
100
AcDbEntity
  8
AM_0
100
AcDbSpline
210
0.0
220
0.0
230
1.0
 70
     8
 71
     3
 72
    11
 73
     7
 74
     5
 42
0.0000000001
 43
0.0000000001
 44
0.0000000001
 40
0.0
 40
0.0
 40
0.0
 40
0.0
 40
0.6601914590053881
 40
1.320382918011073
 40
1.980590840218094
 40
2.640775875151772
 40
2.640775875151772
 40
2.640775875151772
 40
2.640775875151772
 10
-15.05434414201292
 20
8.073362926186549
 30
0.0
 10
-15.23964139130317
 20
7.954648924794236
 30
0.0
 10
-15.61023588988374
 20
7.717220922009556
 30
0.0
 10
-16.16613944668513
 20
7.361087176857405
 30
0.0
 10
-16.72201244746128
 20
7.004909708833789
 30
0.0
 10
-17.09261182122393
 20
6.767483112077258
 30
0.0
 10
-17.27790829617917
 20
6.64877187143771
 30
0.0
 11
-15.05434414201292
 21
8.073362926186549
 31
0.0
 11
-15.6102370879022
 21
7.717222791893598
 31
0.0
 11
-16.16613003379248
 21
7.361082657601646
 31
0.0
 11
-16.7220229796829
 21
7.004912005730695
 31
0.0
 11
-17.27790829617917
 21
6.64877187143771
 31
0.0
  0
SPLINE
  5
4A8E
330
1F
100
AcDbEntity
  8
AM_0
100
AcDbSpline
210
0.0
220
0.0
230
1.0
 70
     8
 71
     3
 72
    11
 73
     7
 74
     5
 42
0.0000000001
 43
0.0000000001
 44
0.0000000001
 40
0.0
 40
0.0
 40
0.0
 40
0.0
 40
0.2823979764053589
 40
0.5647959528107281
 40
0.8472216066867233
 40
1.129619583092091
 40
1.129619583092091
 40
1.129619583092091
 40
1.129619583092091
 10
-15.05434414201292
 20
8.073362926186549
 30
0.0
 10
-14.9908551926301
 20
8.00386392793953
 30
0.0
 10
-14.86387729386443
 20
7.864865931445491
 30
0.0
 10
-14.67339831056318
 20
7.656367526330289
 30
0.0
 10
-14.48294297914347
 20
7.447847515615205
 30
0.0
 10
-14.35595570441678
 20
7.308845588271326
 30
0.0
 10
-14.29246517836675
 20
7.239348030283529
 30
0.0
 11
-15.05434414201292
 21
8.073362926186549
 31
0.0
 11
-14.86387630844985
 21
7.864866831605302
 31
0.0
 11
-14.67340847488677
 21
7.656370737024055
 31
0.0
 11
-14.48293301192984
 21
7.447844124864775
 31
0.0
 11
-14.29246517836675
 21
7.239348030283529
 31
0.0
  0
SPLINE
  5
4A8F
330
1F
100
AcDbEntity
  8
AM_0
100
AcDbSpline
210
0.0
220
0.0
230
1.0
 70
     8
 71
     3
 72
    11
 73
     7
 74
     5
 42
0.0000000001
 43
0.0000000001
 44
0.0000000001
 40
0.0
 40
0.0
 40
0.0
 40
0.0
 40
0.508870920206248
 40
1.017770234348497
 40
1.526641154554745
 40
2.035512074761068
 40
2.035512074761068
 40
2.035512074761068
 40
2.035512074761068
 10
-16.08893579253685
 20
13.63677893488225
 30
0.0
 10
-15.97762168251278
 20
13.50878929393245
 30
0.0
 10
-15.75498725136947
 20
13.25280287047785
 30
0.0
 10
-15.42106110993334
 20
12.86880732570744
 30
0.0
 10
-15.08711138987425
 20
12.48483228654933
 30
0.0
 10
-14.86448631350074
 20
12.22885027069136
 30
0.0
 10
-14.75317377531397
 20
12.10085926276237
 30
0.0
 11
-16.08893579253685
 21
13.63677893488225
 31
0.0
 11
-15.7549971955796
 21
13.25280676545616
 31
0.0
 11
-15.42105096922847
 21
12.86880360161464
 31
0.0
 11
-15.08711237227122
 21
12.48483143218855
 31
0.0
 11
-14.75317377531397
 21
12.10085926276237
 31
0.0
  0
SPLINE
  5
4A90
330
1F
100
AcDbEntity
  8
AM_0
100
AcDbSpline
210
0.0
220
0.0
230
1.0
 70
     8
 71
     3
 72
    11
 73
     7
 74
     5
 42
0.0000000001
 43
0.0000000001
 44
0.0000000001
 40
0.0
 40
0.0
 40
0.0
 40
0.0
 40
1.00967782944916
 40
2.019355658900112
 40
3.029063352057261
 40
4.038741181507218
 40
4.038741181507218
 40
4.038741181507218
 40
4.038741181507218
 10
-14.75317377531397
 20
12.10085926276237
 30
0.0
 10
-14.77827164832124
 20
11.76523708924515
 30
0.0
 10
-14.82846739433582
 20
11.0939927422101
 30
0.0
 10
-14.90376703574957
 20
10.08711668962795
 30
0.0
 10
-14.97904555660805
 20
9.080239057732853
 30
0.0
 10
-15.0292448610023
 20
8.408984994419043
 30
0.0
 10
-15.05434414201292
 20
8.073362926186549
 30
0.0
 11
-14.75317377531397
 21
12.10085926276237
 31
0.0
 11
-14.82846827433718
 21
11.09399280801377
 31
0.0
 11
-14.90376277336038
 21
10.08712635326337
 31
0.0
 11
-14.97904964298971
 21
9.080229380935946
 31
0.0
 11
-15.05434414201292
 21
8.073362926186549
 31
0.0
  0
SPLINE
  5
4A91
330
1F
100
AcDbEntity
  8
AM_0
100
AcDbSpline
210
0.0
220
0.0
230
1.0
 70
     8
 71
     3
 72
    11
 73
     7
 74
     5
 42
0.0000000001
 43
0.0000000001
 44
0.0000000001
 40
0.0
 40
0.0
 40
0.0
 40
0.0
 40
0.5406652363937404
 40
1.081330838830122
 40
1.62199607522487
 40
2.162654048818656
 40
2.162654048818656
 40
2.162654048818656
 40
2.162654048818656
 10
-15.05434414201292
 20
8.073362926186549
 30
0.0
 10
-15.23455302756147
 20
8.071209984520463
 30
0.0
 10
-15.59497092066405
 20
8.066904099730701
 30
0.0
 10
-16.13559691487876
 20
8.060379878012042
 30
0.0
 10
-16.67622142998813
 20
8.053934187069499
 30
0.0
 10
-17.03663636108016
 20
8.049593382116839
 30
0.0
 10
-17.21684261624713
 20
8.047422994218205
 30
0.0
 11
-15.05434414201292
 21
8.073362926186549
 31
0.0
 11
-15.59497066791916
 21
8.066893201983971
 31
0.0
 11
-16.13559719382653
 21
8.060392960202394
 31
0.0
 11
-16.67622371973376
 21
8.053923235998816
 31
0.0
 11
-17.21684261624713
 21
8.047422994218205
 31
0.0
  0
SPLINE
  5
4A92
330
1F
100
AcDbEntity
  8
AM_0
100
AcDbSpline
210
0.0
220
0.0
230
1.0
 70
     8
 71
     3
 72
    11
 73
     7
 74
     5
 42
0.0000000001
 43
0.0000000001
 44
0.0000000001
 40
0.0
 40
0.0
 40
0.0
 40
0.0
 40
1.425505416807016
 40
2.851010833614819
 40
4.276517759588053
 40
5.702023643810846
 40
5.702023643810846
 40
5.702023643810846
 40
5.702023643810846
 10
-17.21684261624713
 20
8.047422994218205
 30
0.0
 10
-17.12285079798987
 20
8.513202572064475
 30
0.0
 10
-16.9348671614753
 20
9.444761727757272
 30
0.0
 10
-16.65289554435157
 20
10.8421017489176
 30
0.0
 10
-16.37090814778105
 20
12.23943874478099
 30
0.0
 10
-16.1829265547223
 20
13.17099898497815
 30
0.0
 10
-16.08893579253685
 20
13.63677893488225
 30
0.0
 11
-17.21684261624713
 21
8.047422994218205
 31
0.0
 11
-16.93486781766782
 21
9.444761860174599
 31
0.0
 11
-16.6528930190895
 21
10.84210072613199
 31
0.0
 11
-16.37091059111618
 21
12.23943959208825
 31
0.0
 11
-16.08893579253685
 21
13.63677893488225
 31
0.0
  0
SPLINE
  5
4A93
330
1F
100
AcDbEntity
  8
AM_0
100
AcDbSpline
210
0.0
220
0.0
230
1.0
 70
     8
 71
     3
 72
    11
 73
     7
 74
     5
 42
0.0000000001
 43
0.0000000001
 44
0.0000000001
 40
0.0
 40
0.0
 40
0.0
 40
0.0
 40
0.3500035132268962
 40
0.699976537923312
 40
1.049980051150207
 40
1.399983564377103
 40
1.399983564377103
 40
1.399983564377103
 40
1.399983564377103
 10
-17.21684261624713
 20
8.047422994218205
 30
0.0
 10
-17.22193127249146
 20
7.930866184287683
 30
0.0
 10
-17.2321081417113
 20
7.697762717598587
 30
0.0
 10
-17.24737637447913
 20
7.348102559183535
 30
0.0
 10
-17.26264175744581
 20
6.998442276342283
 30
0.0
 10
-17.27281944993471
 20
6.765328673072569
 30
0.0
 10
-17.27790829617917
 20
6.64877187143771
 30
0.0
 11
-17.21684261624713
 21
8.047422994218205
 31
0.0
 11
-17.23210903623017
 21
7.697752584128831
 31
0.0
 11
-17.24737545621309
 21
7.348112691616458
 31
0.0
 11
-17.26264187619613
 21
6.998442281527085
 31
0.0
 11
-17.27790829617917
 21
6.64877187143771
 31
0.0
  0
SPLINE
  5
4A94
330
1F
100
AcDbEntity
  8
AM_0
100
AcDbSpline
210
0.0
220
0.0
230
1.0
 70
     8
 71
     3
 72
    11
 73
     7
 74
     5
 42
0.0000000001
 43
0.0000000001
 44
0.0000000001
 40
0.0
 40
0.0
 40
0.0
 40
0.0
 40
0.5080529428317155
 40
1.016677560602778
 40
1.525827828140186
 40
2.035534816382154
 40
2.035534816382154
 40
2.035534816382154
 40
2.035534816382154
 10
-12.55864709075047
 20
14.89642247416273
 30
0.0
 10
-12.44746103666084
 20
14.76868283005632
 30
0.0
 10
-12.22496381892041
 20
14.51305980573424
 30
0.0
 10
-11.89118417779851
 20
14.12929613870395
 30
0.0
 10
-11.55707148884155
 20
13.74509142705368
 30
0.0
 10
-11.33432111681293
 20
13.48872567740197
 30
0.0
 10
-11.22288507352771
 20
13.36047276130195
 30
0.0
 11
-12.55864709075047
 21
14.89642247416273
 31
0.0
 11
-12.22511285170102
 21
14.51318272661341
 31
0.0
 11
-11.89130395444984
 21
14.12942418023469
 31
0.0
 11
-11.55722039899764
 21
13.74520787018287
 31
0.0
 11
-11.22288507352771
 21
13.36047276130195
 31
0.0
  0
SPLINE
  5
4A95
330
1F
100
AcDbEntity
  8
AM_0
100
AcDbSpline
210
0.0
220
0.0
230
1.0
 70
     8
 71
     3
 72
    11
 73
     7
 74
     5
 42
0.0000000001
 43
0.0000000001
 44
0.0000000001
 40
0.0
 40
0.0
 40
0.0
 40
0.0
 40
0.3511289884937127
 40
0.6981948944784416
 40
1.040589197065582
 40
1.377982941161248
 40
1.377982941161248
 40
1.377982941161248
 40
1.377982941161248
 10
-7.747039736817501
 20
13.31378085160124
 30
0.0
 10
-7.86171583152736
 20
13.33795415328036
 30
0.0
 10
-8.089741048666571
 20
13.38602103573131
 30
0.0
 10
-8.437076393621447
 20
13.40580784801061
 30
0.0
 10
-8.780057214051517
 20
13.39063458173775
 30
0.0
 10
-9.002645511670445
 20
13.34667623284523
 30
0.0
 10
-9.113120974562152
 20
13.32485873842254
 30
0.0
 11
-7.747039736817501
 21
13.31378085160124
 31
0.0
 11
-8.092338503629408
 21
13.3775015562332
 31
0.0
 11
-8.438674868277244
 21
13.3999930128228
 31
0.0
 11
-8.780593813668955
 21
13.38195712564321
 31
0.0
 11
-9.113120974562152
 21
13.32485873842254
 31
0.0
  0
SPLINE
  5
4A96
330
1F
100
AcDbEntity
  8
AM_0
100
AcDbSpline
210
0.0
220
0.0
230
1.0
 70
     8
 71
     3
 72
    11
 73
     7
 74
     5
 42
0.0000000001
 43
0.0000000001
 44
0.0000000001
 40
0.0
 40
0.0
 40
0.0
 40
0.0
 40
1.170968263228988
 40
2.335502707567953
 40
3.492597849127092
 40
4.641273125782289
 40
4.641273125782289
 40
4.641273125782289
 40
4.641273125782289
 10
-12.55992119963082
 20
14.89794835307459
 30
0.0
 10
-12.16973488813669
 20
14.88758119541476
 30
0.0
 10
-11.39150612176724
 20
14.86690384185648
 30
0.0
 10
-10.22750959178964
 20
14.84472053354703
 30
0.0
 10
-9.070844215040134
 20
14.82861055436176
 30
0.0
 10
-8.302265961138607
 20
14.82388597875432
 30
0.0
 10
-7.919380123304319
 20
14.82153231719717
 30
0.0
 11
-12.55992119963082
 21
14.89794835307459
 31
0.0
 11
-11.38932793804114
 21
14.86831577960645
 31
0.0
 11
-10.22501366812095
 21
14.8456717315563
 31
0.0
 11
-9.068023616919015
 21
14.83007724408512
 31
0.0
 11
-7.919380123304319
 21
14.82153231719717
 31
0.0
  0
SPLINE
  5
4A97
330
1F
100
AcDbEntity
  8
AM_0
100
AcDbSpline
210
0.0
220
0.0
230
1.0
 70
     8
 71
     3
 72
    11
 73
     7
 74
     5
 42
0.0000000001
 43
0.0000000001
 44
0.0000000001
 40
0.0
 40
0.0
 40
0.0
 40
0.0
 40
0.4247171520066095
 40
0.8499921287376842
 40
1.275843968913875
 40
1.70224412370083
 40
1.70224412370083
 40
1.70224412370083
 40
1.70224412370083
 10
-4.659805272653889
 20
5.773771816369317
 30
0.0
 10
-4.748421798724537
 20
5.884179477052468
 30
0.0
 10
-4.925771240065104
 20
6.105139808156685
 30
0.0
 10
-5.19209155715669
 20
6.436708348516646
 30
0.0
 10
-5.458806977752844
 20
6.768679088861132
 30
0.0
 10
-5.636804529545435
 20
6.990085029776406
 30
0.0
 10
-5.725860564714167
 20
7.100859223365835
 30
0.0
 11
-4.659805272653889
 21
5.773771816369317
 31
0.0
 11
-4.925674411833421
 21
6.104979092920633
 31
0.0
 11
-5.191978426499353
 21
6.436552580410847
 31
0.0
 11
-5.458709687257559
 21
6.768522796417926
 31
0.0
 11
-5.725860564714167
 21
7.100859223365835
 31
0.0
  0
SPLINE
  5
4A98
330
1F
100
AcDbEntity
  8
AM_0
100
AcDbSpline
210
0.0
220
0.0
230
1.0
 70
     8
 71
     3
 72
    11
 73
     7
 74
     5
 42
0.0000000001
 43
0.0000000001
 44
0.0000000001
 40
0.0
 40
0.0
 40
0.0
 40
0.0
 40
0.3564429808890253
 40
0.7119854562362824
 40
1.065677242176385
 40
1.416745528016629
 40
1.416745528016629
 40
1.416745528016629
 40
1.416745528016629
 10
-9.286346404337272
 20
7.15124376038864
 30
0.0
 10
-9.169877294606822
 20
7.12700081938812
 30
0.0
 10
-8.937233318782013
 20
7.078576183936712
 30
0.0
 10
-8.58152497595063
 20
7.058616074643079
 30
0.0
 10
-8.227443701270619
 20
7.073497224023224
 30
0.0
 10
-7.996283734104163
 20
7.116877841154041
 30
0.0
 10
-7.881134002049949
 20
7.13848740659996
 30
0.0
 11
-9.286346404337272
 21
7.15124376038864
 31
0.0
 11
-8.935684173171297
 21
7.087309432686267
 31
0.0
 11
-8.580879180595179
 21
7.064421247543814
 31
0.0
 11
-8.227622954932602
 21
7.081968853424119
 31
0.0
 11
-7.881134002049949
 21
7.13848740659996
 31
0.0
  0
SPLINE
  5
4A99
330
1F
100
AcDbEntity
  8
AM_0
100
AcDbSpline
210
0.0
220
0.0
230
1.0
 70
     8
 71
     3
 72
    11
 73
     7
 74
     5
 42
0.0000000001
 43
0.0000000001
 44
0.0000000001
 40
0.0
 40
0.0
 40
0.0
 40
0.0
 40
2.101309718794981
 40
4.191302564272707
 40
6.284013454621748
 40
8.383789909465793
 40
8.383789909465793
 40
8.383789909465793
 40
8.383789909465793
 10
-9.319381682624438
 20
7.158995225376814
 30
0.0
 10
-9.981988338375977
 20
7.467350496508775
 30
0.0
 10
-11.30363309664996
 20
8.082400351864484
 30
0.0
 10
-11.93544641694485
 20
10.32019483642922
 30
0.0
 10
-11.10673912705481
 20
12.46078844528752
 30
0.0
 10
-9.778411651451932
 20
13.03651188671485
 30
0.0
 10
-9.113128603957152
 20
13.32485873842257
 30
0.0
 11
-9.319381682624438
 21
7.158995225376814
 31
0.0
 11
-11.08092495154963
 21
8.304625115876605
 31
0.0
 11
-11.69242091450755
 21
10.30316027479531
 31
0.0
 11
-10.91449732204494
 21
12.24590929483767
 31
0.0
 11
-9.113128603957152
 21
13.32485873842257
 31
0.0
  0
SPLINE
  5
4A9A
330
1F
100
AcDbEntity
  8
AM_0
100
AcDbSpline
210
0.0
220
0.0
230
1.0
 70
     8
 71
     3
 72
    11
 73
     7
 74
     5
 42
0.0000000001
 43
0.0000000001
 44
0.0000000001
 40
0.0
 40
0.0
 40
0.0
 40
0.0
 40
0.5519716591623001
 40
1.103946738347612
 40
1.655918397509912
 40
2.207920756399885
 40
2.207920756399885
 40
2.207920756399885
 40
2.207920756399885
 10
-14.29246517836675
 20
7.239348030283529
 30
0.0
 10
-14.20998953259556
 20
7.403817758410497
 30
0.0
 10
-14.04503773003309
 20
7.732758233720838
 30
0.0
 10
-13.7975985283421
 20
8.226162543113261
 30
0.0
 10
-13.55016517508958
 20
8.719581233280939
 30
0.0
 10
-13.38521281057729
 20
9.048531599262924
 30
0.0
 10
-13.30273433479222
 20
9.213011356042109
 30
0.0
 11
-14.29246517836675
 21
7.239348030283529
 31
0.0
 11
-14.04503628217041
 21
7.73275623232869
 31
0.0
 11
-13.79759975658005
 21
8.226164434373819
 31
0.0
 11
-13.55017086038371
 21
8.71957263641898
 31
0.0
 11
-13.30273433479222
 21
9.213011356042109
 31
0.0
  0
SPLINE
  5
4A9B
330
1F
100
AcDbEntity
  8
AM_0
100
AcDbSpline
210
0.0
220
0.0
230
1.0
 70
     8
 71
     3
 72
    11
 73
     7
 74
     5
 42
0.0000000001
 43
0.0000000001
 44
0.0000000001
 40
0.0
 40
0.0
 40
0.0
 40
0.0
 40
0.1909134521581738
 40
0.3818576038446712
 40
0.5728017555311613
 40
0.7637424873252926
 40
0.7637424873252926
 40
0.7637424873252926
 40
0.7637424873252926
 10
-13.30273433479222
 20
9.213011356042109
 30
0.0
 10
-13.27420490150071
 20
9.269895828790227
 30
0.0
 10
-13.2171414472884
 20
9.383673921501932
 30
0.0
 10
-13.13155448179919
 20
9.554350904708586
 30
0.0
 10
-13.04595819870721
 20
9.725033387894736
 30
0.0
 10
-12.98890115032662
 20
9.838824865498359
 30
0.0
 10
-12.96037288161772
 20
9.895720094781962
 30
0.0
 11
-13.30273433479222
 21
9.213011356042109
 31
0.0
 11
-13.21714778619645
 21
9.383665652543589
 31
0.0
 11
-13.13155360820554
 21
9.554350466623036
 31
0.0
 11
-13.04595943021463
 21
9.725035280702481
 31
0.0
 11
-12.96037288161772
 21
9.895720094781962
 31
0.0
  0
SPLINE
  5
4A9C
330
1F
100
AcDbEntity
  8
AM_0
100
AcDbSpline
210
0.0
220
0.0
230
1.0
 70
     8
 71
     3
 72
    11
 73
     7
 74
     5
 42
0.0000000001
 43
0.0000000001
 44
0.0000000001
 40
0.0
 40
0.0
 40
0.0
 40
0.0
 40
0.9689930388170008
 40
1.938013357316055
 40
2.907006396132871
 40
3.87599986119382
 40
3.87599986119382
 40
3.87599986119382
 40
3.87599986119382
 10
-12.96037288161772
 20
9.895720094781962
 30
0.0
 10
-12.81558084685006
 20
10.18444620670802
 30
0.0
 10
-12.52599270104122
 20
10.76190655895344
 30
0.0
 10
-12.09163743473373
 20
11.6281055169067
 30
0.0
 10
-11.65725581887282
 20
12.49429142026949
 30
0.0
 10
-11.36767534320636
 20
13.07174560528904
 30
0.0
 10
-11.22288507352771
 20
13.36047276130195
 30
0.0
 11
-12.96037288161772
 21
9.895720094781962
 31
0.0
 11
-12.5260009295955
 21
10.76190051280826
 31
0.0
 11
-12.09162897757315
 21
11.62811144841245
 31
0.0
 11
-11.65725702555094
 21
12.49429186643855
 31
0.0
 11
-11.22288507352771
 21
13.36047276130195
 31
0.0
  0
SPLINE
  5
4A9D
330
1F
100
AcDbEntity
  8
AM_0
100
AcDbSpline
210
0.0
220
0.0
230
1.0
 70
     8
 71
     3
 72
    11
 73
     7
 74
     5
 42
0.0000000001
 43
0.0000000001
 44
0.0000000001
 40
0.0
 40
0.0
 40
0.0
 40
0.0
 40
0.0019245440708489
 40
0.0038805428808202
 40
0.0058365416900758
 40
0.0077906201319182
 40
0.0077906201319182
 40
0.0077906201319182
 40
0.0077906201319182
 10
-9.319381682624438
 20
7.158995225376814
 30
0.0
 10
-9.319544515232246
 20
7.158374720128378
 30
0.0
 10
-9.319872841783229
 20
7.157123568096686
 30
0.0
 10
-9.320365337993036
 20
7.155241423674216
 30
0.0
 10
-9.320863544554544
 20
7.153350592435545
 30
0.0
 10
-9.321187945590413
 20
7.152088246544269
 30
0.0
 10
-9.321350066446342
 20
7.151457383588403
 30
0.0
 11
-9.319381682624438
 21
7.158995225376814
 31
0.0
 11
-9.319869963882563
 21
7.157133653112945
 31
0.0
 11
-9.320365874534825
 21
7.155241563271109
 31
0.0
 11
-9.320861785188084
 21
7.153349473430273
 31
0.0
 11
-9.321350066446342
 21
7.151457383588403
 31
0.0
  0
SPLINE
  5
4A9E
330
1F
100
AcDbEntity
  8
AM_0
100
AcDbSpline
210
0.0
220
0.0
230
1.0
 70
     8
 71
     3
 72
    11
 73
     7
 74
     5
 42
0.0000000001
 43
0.0000000001
 44
0.0000000001
 40
0.0
 40
0.0
 40
0.0
 40
0.0
 40
0.937074993839953
 40
1.874132386463257
 40
2.811207220057519
 40
3.748274867975216
 40
3.748274867975216
 40
3.748274867975216
 40
3.748274867975216
 10
-11.22288507352771
 20
13.36047276130195
 30
0.0
 10
-11.51707606694516
 20
13.25549949543046
 30
0.0
 10
-12.10545252794759
 20
13.04555493541568
 30
0.0
 10
-12.98803799112738
 20
12.73068774242822
 30
0.0
 10
-13.87060260126067
 20
12.41576939028752
 30
0.0
 10
-14.4589841359369
 20
12.20582903695898
 30
0.0
 10
-14.75317377531397
 20
12.10085926276237
 30
0.0
 11
-11.22288507352771
 21
13.36047276130195
 31
0.0
 11
-12.10546106367206
 21
13.04556139964462
 31
0.0
 11
-12.98802942442127
 21
12.73068103240266
 31
0.0
 11
-13.87060541456462
 21
12.41577014758253
 31
0.0
 11
-14.75317377531397
 21
12.10085926276237
 31
0.0
  0
SPLINE
  5
4A9F
330
1F
100
AcDbEntity
  8
AM_0
100
AcDbSpline
210
0.0
220
0.0
230
1.0
 70
     8
 71
     3
 72
    11
 73
     7
 74
     5
 42
0.0000000001
 43
0.0000000001
 44
0.0000000001
 40
0.0
 40
0.0
 40
0.0
 40
0.0
 40
0.5434836340848879
 40
1.086857054526341
 40
1.63015737103076
 40
2.173410255355556
 40
2.173410255355556
 40
2.173410255355556
 40
2.173410255355556
 10
-14.6825255714053
 20
14.51815710257244
 30
0.0
 10
-14.51293882604358
 20
14.5824374281427
 30
0.0
 10
-14.17379972600258
 20
14.71098504380534
 30
0.0
 10
-13.64262558697966
 20
14.83184868827326
 30
0.0
 10
-13.10250546150753
 20
14.90267579050389
 30
0.0
 10
-12.73992793837354
 20
14.89850685227978
 30
0.0
 10
-12.55864709075047
 20
14.89642247416273
 30
0.0
 11
-14.6825255714053
 21
14.51815710257244
 31
0.0
 11
-14.17001336358505
 21
14.69900426830452
 31
0.0
 11
-13.64109795776765
 21
14.8235159847462
 31
0.0
 11
-13.10185998140424
 21
14.88983067965844
 31
0.0
 11
-12.55864709075047
 21
14.89642247416273
 31
0.0
  0
SPLINE
  5
4AA0
330
1F
100
AcDbEntity
  8
AM_0
100
AcDbSpline
210
0.0
220
0.0
230
1.0
 70
     8
 71
     3
 72
    11
 73
     7
 74
     5
 42
0.0000000001
 43
0.0000000001
 44
0.0000000001
 40
0.0
 40
0.0
 40
0.0
 40
0.0
 40
0.4169139702152743
 40
0.8337289521657325
 40
1.250444618948113
 40
1.667065885022647
 40
1.667065885022647
 40
1.667065885022647
 40
1.667065885022647
 10
-16.08893579253685
 20
13.63677893488225
 30
0.0
 10
-15.98292942008259
 20
13.72678930585214
 30
0.0
 10
-15.77094184436393
 20
13.90678867654733
 30
0.0
 10
-15.42524034249788
 20
14.14081024961954
 30
0.0
 10
-15.06376333487527
 20
14.349387959738
 30
0.0
 10
-14.80959522847709
 20
14.46190497028346
 30
0.0
 10
-14.6825255714053
 20
14.51815710257244
 30
0.0
 11
-16.08893579253685
 21
13.63677893488225
 31
0.0
 11
-15.76628869665853
 21
13.90081701941164
 31
0.0
 11
-15.42256921320753
 21
14.13659582650537
 31
0.0
 11
-15.06043237148673
 21
14.34277258273741
 31
0.0
 11
-14.6825255714053
 21
14.51815710257244
 31
0.0
  0
SPLINE
  5
4AA1
330
1F
100
AcDbEntity
  8
AM_0
100
AcDbSpline
210
0.0
220
0.0
230
1.0
 70
     8
 71
     3
 72
    11
 73
     7
 74
     5
 42
0.0000000001
 43
0.0000000001
 44
0.0000000001
 40
0.0
 40
0.0
 40
0.0
 40
0.0
 40
0.9587829676305283
 40
1.917786743958448
 40
2.877169873707434
 40
3.837071264866904
 40
3.837071264866904
 40
3.837071264866904
 40
3.837071264866904
 10
-12.55995171720868
 20
14.89797887065282
 30
0.0
 10
-12.88063929467802
 20
14.89416527473846
 30
0.0
 10
-13.52208830429354
 20
14.8865372046347
 30
0.0
 10
-14.4566517622153
 20
14.63877266436266
 30
0.0
 10
-15.33724752640721
 20
14.23876323343669
 30
0.0
 10
-15.83919252206126
 20
13.83851399162026
 30
0.0
 10
-16.09023278960106
 20
13.63833533137231
 30
0.0
 11
-12.55995171720868
 21
14.89797887065282
 31
0.0
 11
-13.51738732534044
 21
14.8471671072532
 31
0.0
 11
-14.44747918427037
 21
14.61346349803104
 31
0.0
 11
-15.31578820704693
 21
14.20547399986745
 31
0.0
 11
-16.09023278960106
 21
13.63833533137231
 31
0.0
  0
SPLINE
  5
4AA2
330
1F
100
AcDbEntity
  8
AM_0
100
AcDbSpline
210
0.0
220
0.0
230
1.0
 70
     8
 71
     3
 72
    11
 73
     7
 74
     5
 42
0.0000000001
 43
0.0000000001
 44
0.0000000001
 40
0.0
 40
0.0
 40
0.0
 40
0.0
 40
1.660540771341638
 40
3.334553240226568
 40
5.008574913773339
 40
6.669135716770894
 40
6.669135716770894
 40
6.669135716770894
 40
6.669135716770894
 10
-8.120552008797508
 20
12.41717393108173
 30
0.0
 10
-7.562561554325496
 20
12.24957233944278
 30
0.0
 10
-6.442053759463088
 20
11.91300943167673
 30
0.0
 10
-5.823571688462797
 20
10.11578473542361
 30
0.0
 10
-6.595143354709698
 20
8.378781867647916
 30
0.0
 10
-7.740551405288647
 20
8.14032280058093
 30
0.0
 10
-8.310943568507935
 20
8.021574566678749
 30
0.0
 11
-8.120552008797508
 21
12.41717393108173
 31
0.0
 11
-6.622337290242584
 21
11.70110947141817
 31
0.0
 11
-6.055870011961368
 21
10.12585312129007
 31
0.0
 11
-6.756423912639689
 21
8.605467382160457
 31
0.0
 11
-8.310943568507935
 21
8.021574566678749
 31
0.0
  0
SPLINE
  5
4AA3
330
1F
100
AcDbEntity
  8
AM_0
100
AcDbSpline
210
0.0
220
0.0
230
1.0
 70
     8
 71
     3
 72
    11
 73
     7
 74
     5
 42
0.0000000001
 43
0.0000000001
 44
0.0000000001
 40
0.0
 40
0.0
 40
0.0
 40
0.0
 40
0.3026851060214708
 40
0.564474580720805
 40
0.7665747580373755
 40
0.9239401493585226
 40
0.9239401493585226
 40
0.9239401493585226
 40
0.9239401493585226
 10
-1.857772845972442
 20
-4.313111740781416
 30
0.0
 10
-1.756034743584893
 20
-4.312496849050475
 30
0.0
 10
-1.566304322278769
 20
-4.311350143298833
 30
0.0
 10
-1.322663101437536
 20
-4.241537632298329
 30
0.0
 10
-1.129010322855288
 20
-4.126500473623063
 30
0.0
 10
-1.105977217400636
 20
-4.004068945405399
 30
0.0
 10
-1.095893877104794
 20
-3.950471363247438
 30
0.0
 11
-1.857772845972442
 21
-4.313111740781416
 31
0.0
 11
-1.555526752151321
 21
-4.29681535538149
 31
0.0
 11
-1.30459596569267
 21
-4.222199877961613
 31
0.0
 11
-1.143203753247799
 21
-4.100556812258964
 31
0.0
 11
-1.095893877104794
 21
-3.950471363247438
 31
0.0
  0
SPLINE
  5
4AA4
330
1F
100
AcDbEntity
  8
AM_0
100
AcDbSpline
210
0.0
220
0.0
230
1.0
 70
     8
 71
     3
 72
    11
 73
     7
 74
     5
 42
0.0000000001
 43
0.0000000001
 44
0.0000000001
 40
0.0
 40
0.0
 40
0.0
 40
0.0
 40
0.3645065419748659
 40
0.7317160243342514
 40
1.100118306921426
 40
1.468221216063807
 40
1.468221216063807
 40
1.468221216063807
 40
1.468221216063807
 10
-12.99494935692104
 20
-3.689088254676137
 30
0.0
 10
-12.87545560712612
 20
-3.711175354573665
 30
0.0
 10
-12.63558202060827
 20
-3.755513337750953
 30
0.0
 10
-12.27211121336377
 20
-3.804933133300119
 30
0.0
 10
-11.90608264654103
 20
-3.843076209306859
 30
0.0
 10
-11.66094718616955
 20
-3.857037307293655
 30
0.0
 10
-11.53842927711747
 20
-3.864015018844735
 30
0.0
 11
-12.99494935692104
 21
-3.689088254676137
 31
0.0
 11
-12.63600160329181
 21
-3.752503783586669
 31
0.0
 11
-12.2722778486291
 21
-3.802979859392046
 31
0.0
 11
-11.90576173550958
 21
-3.84021130630461
 31
0.0
 11
-11.53842927711747
 21
-3.864015018844735
 31
0.0
  0
SPLINE
  5
4AA5
330
1F
100
AcDbEntity
  8
AM_0
100
AcDbSpline
210
0.0
220
0.0
230
1.0
 70
     8
 71
     3
 72
    11
 73
     7
 74
     5
 42
0.0000000001
 43
0.0000000001
 44
0.0000000001
 40
0.0
 40
0.0
 40
0.0
 40
0.0
 40
0.961698959021678
 40
1.908948523106758
 40
2.815895675834305
 40
3.65954160964195
 40
3.65954160964195
 40
3.65954160964195
 40
3.65954160964195
 10
-12.55995181628704
 20
-7.804353149152571
 30
0.0
 10
-12.87994461933338
 20
-7.780779728652795
 30
0.0
 10
-13.51512237745587
 20
-7.733987075062531
 30
0.0
 10
-14.43729599100577
 20
-7.550268171931236
 30
0.0
 10
-15.30399840478852
 20
-7.300586198631998
 30
0.0
 10
-15.83454960876729
 20
-7.055844156458817
 30
0.0
 10
-16.09023287940063
 20
-6.937898055620586
 30
0.0
 11
-12.55995181628704
 21
-7.804353149152571
 31
0.0
 11
-13.51738742380228
 21
-7.713899043412095
 31
0.0
 11
-14.44747928092901
 21
-7.534425162398951
 31
0.0
 11
-15.315788300782
 21
-7.272523303141444
 31
0.0
 11
-16.09023287940063
 21
-6.937898055620586
 31
0.0
  0
SPLINE
  5
4AA6
330
1F
100
AcDbEntity
  8
AM_0
100
AcDbSpline
210
0.0
220
0.0
230
1.0
 70
     8
 71
     3
 72
    11
 73
     7
 74
     5
 42
0.0000000001
 43
0.0000000001
 44
0.0000000001
 40
0.0
 40
0.0
 40
0.0
 40
0.0
 40
1.815864180892316
 40
3.629192799993398
 40
5.439669290008099
 40
7.2469850692049
 40
7.2469850692049
 40
7.2469850692049
 40
7.2469850692049
 10
-0.7626495786041318
 20
-9.731629811966795
 30
0.0
 10
-1.366236515066515
 20
-9.684910043750246
 30
0.0
 10
-2.572567576072922
 20
-9.591535743946863
 30
0.0
 10
-4.37068940119485
 20
-9.352503127051827
 30
0.0
 10
-6.156004335280612
 20
-9.047964878510111
 30
0.0
 10
-7.331930714483306
 20
-8.779684673282128
 30
0.0
 10
-7.919380225720718
 20
-8.645661763155125
 30
0.0
 11
-0.7626495786041318
 21
-9.731629811966795
 31
0.0
 11
-2.571739238565222
 21
-9.574922040399496
 31
0.0
 11
-4.369964640377952
 21
-9.341371007161614
 31
0.0
 11
-6.153709451037186
 21
-9.031403958360931
 31
0.0
 11
-7.919380225720718
 21
-8.645661763155125
 31
0.0
  0
SPLINE
  5
4AA7
330
1F
100
AcDbEntity
  8
AM_0
100
AcDbSpline
210
0.0
220
0.0
230
1.0
 70
     8
 71
     3
 72
    11
 73
     7
 74
     5
 42
0.0000000001
 43
0.0000000001
 44
0.0000000001
 40
0.0
 40
0.0
 40
0.0
 40
0.0
 40
1.181299033745583
 40
2.361361468398537
 40
3.540099837567318
 40
4.717426904050491
 40
4.717426904050491
 40
4.717426904050491
 40
4.717426904050491
 10
-12.5587463719513
 20
-7.804414184313829
 30
0.0
 10
-12.16829777432246
 20
-7.855654620578224
 30
0.0
 10
-11.38780930570193
 20
-7.958081853956232
 30
0.0
 10
-10.22400902698883
 20
-8.154391283619197
 30
0.0
 10
-9.066666861261527
 20
-8.378912940936951
 30
0.0
 10
-8.301656355027157
 20
-8.556781003896086
 30
0.0
 10
-7.919380225720718
 20
-8.645661763155125
 30
0.0
 11
-12.5587463719513
 21
-7.804414184313829
 31
0.0
 11
-11.38845065732133
 21
-7.96527234371828
 31
0.0
 11
-10.22443393453472
 21
-8.159211557783326
 31
0.0
 11
-9.067733801247838
 21
-8.386079238612436
 31
0.0
 11
-7.919380225720718
 21
-8.645661763155125
 31
0.0
  0
SPLINE
  5
4AA8
330
1F
100
AcDbEntity
  8
AM_0
100
AcDbSpline
210
0.0
220
0.0
230
1.0
 70
     8
 71
     3
 72
    11
 73
     7
 74
     5
 42
0.0000000001
 43
0.0000000001
 44
0.0000000001
 40
0.0
 40
0.0
 40
0.0
 40
0.0
 40
0.1755004628698199
 40
0.3509705238616506
 40
0.5264709867304689
 40
0.7019714495992913
 40
0.7019714495992913
 40
0.7019714495992913
 40
0.7019714495992913
 10
-0.0618286511185331
 20
-8.669679131431342
 30
0.0
 10
-0.0567401443807943
 20
-8.727957559271176
 30
0.0
 10
-0.0465640123853907
 20
-8.844504319401103
 30
0.0
 10
-0.0312939895450162
 20
-9.019329037195168
 30
0.0
 10
-0.0160296342168904
 20
-9.194154249913038
 30
0.0
 10
-0.0058518649672914
 20
-9.310711039592909
 30
0.0
 10
-0.0007629803424919
 20
-9.368989434432847
 30
0.0
 11
-0.0618286511185331
 21
-8.669679131431342
 31
0.0
 11
-0.0465622334245525
 21
-8.84451433657697
 31
0.0
 11
-0.0312958157304388
 21
-9.019319024143596
 31
0.0
 11
-0.0160293980364583
 21
-9.194154229288219
 31
0.0
 11
-0.0007629803424919
 21
-9.368989434432847
 31
0.0
  0
SPLINE
  5
4AA9
330
1F
100
AcDbEntity
  8
AM_0
100
AcDbSpline
210
0.0
220
0.0
230
1.0
 70
     8
 71
     3
 72
    11
 73
     7
 74
     5
 42
0.0000000001
 43
0.0000000001
 44
0.0000000001
 40
0.0
 40
0.0
 40
0.0
 40
0.0
 40
0.0084839416055496
 40
0.0169604186762391
 40
0.0254443602818029
 40
0.0339359312340328
 40
0.0339359312340328
 40
0.0339359312340328
 40
0.0339359312340328
 10
-7.747039736817501
 20
13.31378085160124
 30
0.0
 10
-7.744211755906921
 20
13.3137741373544
 30
0.0
 10
-7.73855828226438
 20
13.3137607147682
 30
0.0
 10
-7.730077163548133
 20
13.31367837432077
 30
0.0
 10
-7.721593148227842
 20
13.31366149792102
 30
0.0
 10
-7.715934690402965
 20
13.31363934500078
 30
0.0
 10
-7.713104189943167
 20
13.31362826356254
 30
0.0
 11
-7.747039736817501
 21
13.31378085160124
 31
0.0
 11
-7.738555850099637
 21
13.31375033398611
 31
0.0
 11
-7.730079592774903
 21
13.31368929879282
 31
0.0
 11
-7.721595706057025
 21
13.31365878117769
 31
0.0
 11
-7.713104189943167
 21
13.31362826356254
 31
0.0
  0
SPLINE
  5
4AAA
330
1F
100
AcDbEntity
  8
AM_0
100
AcDbSpline
210
0.0
220
0.0
230
1.0
 70
     8
 71
     3
 72
    11
 73
     7
 74
     5
 42
0.0000000001
 43
0.0000000001
 44
0.0000000001
 40
0.0
 40
0.0
 40
0.0
 40
0.0
 40
0.0087511283768674
 40
0.017502256752747
 40
0.0262532254924543
 40
0.0350043538693216
 40
0.0350043538693216
 40
0.0350043538693216
 40
0.0350043538693216
 10
-9.286346404337272
 20
7.15124376038864
 30
0.0
 10
-9.289263380930934
 20
7.151263197202539
 30
0.0
 10
-9.295097334117926
 20
7.151302070830335
 30
0.0
 10
-9.303848125168411
 20
7.151376729333009
 30
0.0
 10
-9.31259925829169
 20
7.15138599477601
 30
0.0
 10
-9.318433112657872
 20
7.151433587172908
 30
0.0
 10
-9.321350066446342
 20
7.151457383588403
 30
0.0
 11
-9.286346404337272
 21
7.15124376038864
 31
0.0
 11
-9.295097319865003
 21
7.15130479558283
 31
0.0
 11
-9.30384823539174
 21
7.151365830778021
 31
0.0
 11
-9.312599150918611
 21
7.151396348394213
 31
0.0
 11
-9.321350066446342
 21
7.151457383588403
 31
0.0
  0
ELLIPSE
  5
4AAB
330
1F
100
AcDbEntity
  8
AM_0
100
AcDbEllipse
 10
-11.13287353535052
 20
-0.0443433897556785
 30
0.0
 11
0.6659394810578978
 21
14.26867657845248
 31
0.0
210
0.0
220
0.0
230
1.0
 40
0.0770335569757
 41
4.839998852985584
 42
4.97553591345166
  0
ELLIPSE
  5
4AAC
330
1F
100
AcDbEntity
  8
AM_0
100
AcDbEllipse
 10
-7.116531372260918
 20
-0.043519432674946
 30
0.0
 11
0.6533733448134491
 21
13.99957303262892
 31
0.0
210
0.0
220
0.0
230
1.0
 40
0.0770335940804
 41
4.826341126417905
 42
4.973954505168248
  0
ELLIPSE
  5
4AAD
330
1F
100
AcDbEntity
  8
AM_0
100
AcDbEllipse
 10
-410.1869505512498
 20
30.32379189673232
 30
0.0
 11
-521.5458605005003
 21
35.59833222411339
 31
0.0
210
0.0
220
0.0
230
1.0
 40
0.0203529363457
 41
2.437912561655839
 42
2.47199875824859
  0
ELLIPSE
  5
4AAE
330
1F
100
AcDbEntity
  8
AM_0
100
AcDbEllipse
 10
-17.341987609864
 20
-0.0000013216416309
 30
0.0
 11
0.037459856530438
 21
14.50000024985521
 31
0.0
210
0.0
220
0.0
230
1.0
 40
0.1537896456704
 41
4.36508059581484
 42
4.464008548459623
  0
ELLIPSE
  5
4AAF
330
1F
100
AcDbEntity
  8
AM_0
100
AcDbEllipse
 10
-17.870018005372
 20
-0.0000013193371811
 30
0.0
 11
2.710830466496911
 21
14.48452780341789
 31
0.0
210
0.0
220
0.0
230
1.0
 40
0.2470633902828
 41
4.29374600369878
 42
4.410857212203318
  0
ELLIPSE
  5
4AB0
330
1F
100
AcDbEntity
  8
AM_0
100
AcDbEllipse
 10
-80.70169067382927
 20
-0.0000620802818642
 30
0.0
 11
-646.942295165218
 21
13.54941069706316
 31
0.0
210
0.0
220
0.0
230
1.0
 40
0.0079804685433
 41
1.645666905214683
 42
1.67160432193178
  0
ELLIPSE
  5
4AB1
330
1F
100
AcDbEntity
  8
AM_0
100
AcDbEllipse
 10
-14.31327056884799
 20
-0.0000013348596702
 30
0.0
 11
-19.43897296709647
 21
14.43884290626208
 31
0.0
210
0.0
220
0.0
230
1.0
 40
0.0684437645229
 41
5.658676436600641
 42
5.99465787903928
  0
ELLIPSE
  5
4AB2
330
1F
100
AcDbEntity
  8
AM_0
100
AcDbEllipse
 10
-7.204689025879006
 20
-0.0000013658832054
 30
0.0
 11
-22.56163096956268
 21
14.0433052430276
 31
0.0
210
0.0
220
0.0
230
1.0
 40
0.1600285350054
 41
0.2810515544730735
 42
0.7103656866979709
  0
ELLIPSE
  5
4AB3
330
1F
100
AcDbEntity
  8
AM_0
100
AcDbEllipse
 10
33.6012420652081
 20
-0.0485550107669629
 30
0.0
 11
-183.0750225279125
 21
12.5344857769346
 31
0.0
210
0.0
220
0.0
230
0.9999999999999998
 40
0.0386702636925
 41
1.303678765880611
 42
1.307125094914316
  0
ELLIPSE
  5
4AB4
330
1F
100
AcDbEntity
  8
AM_0
100
AcDbEllipse
 10
-13.16730490625869
 20
19.80123815064716
 30
0.0
 11
20.02816064043832
 21
0.8973685602955587
 31
0.0
210
0.0
220
0.0
230
1.0
 40
0.6866430394882001
 41
4.578876239780207
 42
4.609997742536387
  0
ELLIPSE
  5
4AB5
330
1F
100
AcDbEntity
  8
AM_0
100
AcDbEllipse
 10
-7.85021207907775
 20
4.145109720918008
 30
0.0
 11
-2.003852921392068
 21
0.042144787401288
 31
0.0
210
0.0
220
0.0
230
1.0
 40
0.3290931963557
 41
3.521604801148283
 42
6.080853639782579
  0
ELLIPSE
  5
4AB6
330
1F
100
AcDbEntity
  8
AM_0
100
AcDbEllipse
 10
-14.31327056884799
 20
-0.0000013348596702
 30
0.0
 11
18.68059539786289
 21
8.954346973810453
 31
0.0
210
0.0
220
0.0
230
1.0
 40
0.6105166322271
 41
3.196381168334205
 42
3.532289674527871
  0
ELLIPSE
  5
4AB7
330
1F
100
AcDbEntity
  8
AM_0
100
AcDbEllipse
 10
-12.981208720603
 20
18.48364147586959
 30
0.0
 11
-20.19615086364293
 21
6.502868886714794
 31
0.0
210
0.0
220
0.0
230
1.0
 40
0.6444349673960001
 41
1.094934762590537
 42
1.115053574346471
  0
ELLIPSE
  5
4AB8
330
1F
100
AcDbEntity
  8
AM_0
100
AcDbEllipse
 10
-7.204689025879006
 20
-0.0000013658832054
 30
0.0
 11
22.30894457434759
 21
12.60669050739907
 31
0.0
210
0.0
220
0.0
230
1.0
 40
0.321122739008
 41
3.143776675309747
 42
3.573133419978208
  0
ELLIPSE
  5
4AB9
330
1F
100
AcDbEntity
  8
AM_0
100
AcDbEllipse
 10
-13.16730491665052
 20
17.42010364060696
 30
0.0
 11
2.606430850917235
 21
27.94400031101002
 31
0.0
210
0.0
220
0.0
230
1.0
 40
0.7109716971848
 41
3.169209156321126
 42
3.200382014383227
  0
ELLIPSE
  5
4ABA
330
1F
100
AcDbEntity
  8
AM_0
100
AcDbEllipse
 10
-12.98123920896652
 20
25.17770251674803
 30
0.0
 11
16.60516936632262
 21
36.7263787850321
 31
0.0
210
0.0
220
0.0
230
0.9999999999999998
 40
0.3331595987744
 41
3.396894087453746
 42
3.416995194397786
  0
ELLIPSE
  5
4ABB
330
1F
100
AcDbEntity
  8
AM_0
100
AcDbEllipse
 10
-7.850212158818574
 20
-14.12631361892599
 30
0.0
 11
2.003875758936525
 21
0.0131833491276149
 31
0.0
210
0.0
220
0.0
230
1.0
 40
0.6680322154096001
 41
0.3698758231898598
 42
2.928509869151355
  0
ELLIPSE
  5
4ABC
330
1F
100
AcDbEntity
  8
AM_0
100
AcDbEllipse
 10
-80.70193481445373
 20
0.0000599900321987
 30
0.0
 11
646.9438396913626
 21
2.302496278817698
 31
0.0
210
0.0
220
0.0
230
1.0
 40
0.0221286756711
 41
1.47008023756483
 42
1.495995540178342
  0
ELLIPSE
  5
4ABD
330
1F
100
AcDbEntity
  8
AM_0
100
AcDbEllipse
 10
-17.870018005372
 20
-0.0000013193371811
 30
0.0
 11
2.091712606787897
 21
14.48864814934057
 31
0.0
210
0.0
220
0.0
230
1.0
 40
0.2741709487635998
 41
6.14692385136955
 42
6.264019098475638
  0
ELLIPSE
  5
4AE5
330
1F
100
AcDbEntity
  8
AM_0
100
AcDbEllipse
 10
52.13438435771504
 20
46.38726834890102
 30
0.0
 11
79.68963907052667
 21
51.67836846139451
 31
0.0
210
0.0
220
0.0
230
1.0
 40
0.0299267388384
 41
2.277175371423448
 42
2.312622219355179
  0
ELLIPSE
  5
4AE6
330
1F
100
AcDbEntity
  8
AM_0
100
AcDbEllipse
 10
-59.95347988173275
 20
-26.32458991130997
 30
0.0
 11
76.83954799500115
 21
51.8017598425196
 31
0.0
210
0.0
220
0.0
230
0.9999999999999998
 40
0.0314372126372
 41
0.9134592093061463
 42
0.9415033995468247
  0
ELLIPSE
  5
4AF3
330
1F
100
AcDbEntity
  8
AM_0
100
AcDbEllipse
 10
-8.021163930573573
 20
2.258452006820084
 30
0.0
 11
-1.742858837563762
 21
0.1579284755722476
 31
0.0
210
0.0
220
0.0
230
1.0
 40
0.4954995756148001
 41
2.372415042781191
 42
3.141592830023459
  0
ELLIPSE
  5
4AF4
330
1F
100
AcDbEntity
  8
AM_0
100
AcDbEllipse
 10
-8.021163930573573
 20
2.258452006820084
 30
0.0
 11
-1.742858837563762
 21
0.1579284755722476
 31
0.0
210
0.0
220
0.0
230
1.0
 40
0.4954995756148001
 41
3.141592830023459
 42
6.283185660046717
  0
ELLIPSE
  5
4AF5
330
1F
100
AcDbEntity
  8
AM_0
100
AcDbEllipse
 10
-8.021163930573573
 20
2.258452006820084
 30
0.0
 11
-1.742858837563762
 21
0.1579284755722476
 31
0.0
210
0.0
220
0.0
230
1.0
 40
0.4954995756148001
 41
0.0
 42
0.90886005992093
  0
ELLIPSE
  5
4AF6
330
1F
100
AcDbEntity
  8
AM_0
100
AcDbEllipse
 10
-8.021163930573573
 20
2.258452006820084
 30
0.0
 11
-1.991836537761333
 21
0.1804809645738455
 31
0.0
210
0.0
220
0.0
230
1.0
 40
0.4954915862832001
 41
3.229454127554478
 42
6.026564582550655
  0
ELLIPSE
  5
4AF7
330
1F
100
AcDbEntity
  8
AM_0
100
AcDbEllipse
 10
-15.71565243196006
 20
7.758726698603655
 30
0.0
 11
2.475433437166639
 21
0.3495789700816227
 31
0.0
210
0.0
220
0.0
230
1.0
 40
0.9870808354965999
 41
1.89475533116027
 42
3.141592742156811
  0
ELLIPSE
  5
4AF8
330
1F
100
AcDbEntity
  8
AM_0
100
AcDbEllipse
 10
-15.60990139763005
 20
7.009916883689133
 30
0.0
 11
2.475433437166639
 21
0.3495789700816207
 31
0.0
210
0.0
220
0.0
230
0.9999999999999998
 40
0.9870808354965999
 41
2.029502951331675
 42
2.986704625473528
  0
ELLIPSE
  5
4AF9
330
1F
100
AcDbEntity
  8
AM_0
100
AcDbEllipse
 10
-15.71565243196006
 20
7.758726698603655
 30
0.0
 11
2.475433437166639
 21
0.3495789700816227
 31
0.0
210
0.0
220
0.0
230
1.0
 40
0.9870808354965999
 41
3.141592742156811
 42
3.610979956938743
  0
ELLIPSE
  5
4B06
330
1F
100
AcDbEntity
  8
AM_0
100
AcDbEllipse
 10
2.821876555309559
 20
6.743803521998485
 30
0.0
 11
-40.56349772173008
 21
2.391235361238719
 31
0.0
210
0.0
220
0.0
230
0.9999999999999998
 40
0.1902211128153
 41
4.812133499285732
 42
4.991587001864039
  0
ELLIPSE
  5
4B07
330
1F
100
AcDbEntity
  8
AM_0
100
AcDbEllipse
 10
2.745605492534611
 20
5.449888727409349
 30
0.0
 11
-39.49623094145957
 21
2.328338726779917
 31
0.0
210
0.0
220
0.0
230
1.0
 40
0.1902206972355
 41
4.865644852393481
 42
4.991587245690868
  0
ELLIPSE
  5
4B08
330
1F
100
AcDbEntity
  8
AM_0
100
AcDbEllipse
 10
-4.679359439126442
 20
-0.7081312597173435
 30
0.0
 11
-40.88278796018441
 21
1.160705721115178
 31
0.0
210
0.0
220
0.0
230
1.0
 40
0.1902209822211
 41
4.743390017188895
 42
4.796184611424751
  0
ELLIPSE
  5
4B09
330
1F
100
AcDbEntity
  8
AM_0
100
AcDbEllipse
 10
-13.81188195465038
 20
14.75460729408525
 30
0.0
 11
-39.54886808206569
 21
1.122833509698837
 31
0.0
210
0.0
220
0.0
230
1.0
 40
0.1902206306869001
 41
1.564035081960331
 42
1.68998451745509
  0
ELLIPSE
  5
4B0A
330
1F
100
AcDbEntity
  8
AM_0
100
AcDbEllipse
 10
-18.52458181559942
 20
21.44259559590258
 30
0.0
 11
-40.82838762148589
 21
2.406860501031863
 31
0.0
210
0.0
220
0.0
230
1.0
 40
0.1902210400077
 41
1.761825911165418
 42
1.814606786472407
  0
ELLIPSE
  5
4B0B
330
1F
100
AcDbEntity
  8
AM_0
100
AcDbEllipse
 10
-18.44830312342947
 20
22.73651039049159
 30
0.0
 11
-39.76110736268051
 21
2.343933218102399
 31
0.0
210
0.0
220
0.0
230
1.0
 40
0.1902206861432
 41
1.730641532203349
 42
1.849994044257074
  0
ELLIPSE
  5
4B0C
330
1F
100
AcDbEntity
  8
AM_0
100
AcDbEllipse
 10
-0.7975387980521981
 20
-9.332032643845527
 30
0.0
 11
-0.7967376627108756
 21
0.0722045898861527
 31
0.0
210
0.0
220
0.0
230
1.0
 40
0.4954895457911001
 41
2.445852557937047
 42
3.2294543599625
  0
ELLIPSE
  5
4B0D
330
1F
100
AcDbEntity
  8
AM_0
100
AcDbEllipse
 10
-0.7975387980521981
 20
-9.332032643845527
 30
0.0
 11
-0.7967376627108756
 21
0.0722045898861527
 31
0.0
210
0.0
220
0.0
230
1.0
 40
0.4954895457911001
 41
1.660391548719288
 42
2.445852557937047
  0
ELLIPSE
  5
4B0E
330
1F
100
AcDbEntity
  8
AM_0
100
AcDbEllipse
 10
-0.7975387770937913
 20
-4.52972551493953
 30
0.0
 11
0.7967147569683108
 21
0.0724792695879474
 31
0.0
210
0.0
220
0.0
230
1.0
 40
0.5014026379219
 41
6.110186838467201
 42
6.282051843062084
  0
LINE
  5
4BA3
330
1F
100
AcDbEntity
  8
AM_0
100
AcDbLine
 10
-33.96646874775456
 20
14.49999922774784
 30
0.0
 11
-24.49163049091856
 21
14.4999991863974
 31
0.0
  0
LINE
  5
4BA4
330
1F
100
AcDbEntity
  8
AM_0
100
AcDbLine
 10
-29.50445943619278
 20
-12.62277730005672
 30
0.0
 11
-25.95837407474137
 21
-11.75540671006367
 31
0.0
  0
LINE
  5
4BA5
330
1F
100
AcDbEntity
  8
AM_0
100
AcDbLine
 10
-29.50447077068274
 20
12.49090258580753
 30
0.0
 11
-25.95838160965378
 21
9.893644002522353
 31
0.0
  0
LINE
  5
4BA6
330
1F
100
AcDbEntity
  8
AM_0
100
AcDbLine
 10
-33.96646887431744
 20
-14.50000124908845
 30
0.0
 11
-24.49163061748143
 21
-14.50000129043889
 31
0.0
  0
LINE
  5
4BA8
330
1F
100
AcDbEntity
  8
AM_11
100
AcDbLine
 10
0.0000000654635578
 20
14.99999907951012
 30
0.0
 11
-0.0000000654635856
 21
-15.00000139732618
 31
0.0
  0
LINE
  5
4BA9
330
1F
100
AcDbEntity
  8
AM_11
100
AcDbLine
 10
-13.00000006546355
 20
-15.00000134059109
 30
0.0
 11
-12.99999993453644
 21
14.9999986594089
 31
0.0
  0
LINE
  5
4BAA
330
1F
100
AcDbEntity
  8
AM_0
100
AcDbLine
 10
-0.0618362805125493
 20
-8.66968485347731
 30
0.0
 11
-1.253883369723687
 21
-1.811700305428932
 31
0.0
  0
LINE
  5
4BAB
330
1F
100
AcDbEntity
  8
AM_0
100
AcDbLine
 10
-14.58116151480774
 20
-3.616608999706532
 30
0.0
 11
-14.58116148035386
 21
4.277983285449469
 31
0.0
  0
LINE
  5
4BAC
330
1F
100
AcDbEntity
  8
AM_0
100
AcDbLine
 10
-1.730949420077697
 20
-4.175233323365905
 30
0.0
 11
-1.730949382704522
 21
4.388273756712095
 31
0.0
  0
LINE
  5
4BAD
330
1F
100
AcDbEntity
  8
AM_0
100
AcDbLine
 10
-1.253875749620837
 20
-3.940858325447967
 30
0.0
 11
-1.253875712346219
 21
4.600065746817032
 31
0.0
  0
LINE
  5
4BAE
330
1F
100
AcDbEntity
  8
AM_11
100
AcDbLine
 10
-12.99999993453644
 20
14.9999986594089
 30
0.0
 11
0.0000000654635578
 21
14.99999907951012
 31
0.0
  0
LINE
  5
4BAF
330
1F
100
AcDbEntity
  8
AM_0
100
AcDbLine
 10
-14.60173032036626
 20
6.029400445573235
 30
0.0
 11
-1.357673620190352
 21
5.689343014726031
 31
0.0
  0
ARC
  5
4BB0
330
1F
100
AcDbEntity
  8
AM_0
100
AcDbCircle
 10
-8.413085893832324
 20
10.00579697923352
 30
0.0
 40
1.7446160316467
100
AcDbArc
 50
180.0000047589051
 51
267.4999890936634
  0
ARC
  5
4BB1
330
1F
100
AcDbEntity
  8
AM_0
100
AcDbCircle
 10
-8.413085893832324
 20
10.00579697923352
 30
0.0
 40
1.7499996423721
100
AcDbArc
 50
87.4999977450857
 51
180.0000047589051
  0
ARC
  5
4BB2
330
1F
100
AcDbEntity
  8
AM_0
100
AcDbCircle
 10
-8.021163896837041
 20
9.988676616195084
 30
0.0
 40
1.747492313384999
100
AcDbArc
 50
130.4171054891682
 51
261.0722893110578
  0
CIRCLE
  5
4BB3
330
1F
100
AcDbEntity
  8
AM_0
100
AcDbCircle
 10
-8.374397233201925
 20
10.22631699859667
 30
0.0
 40
3.008213043212899
  0
ARC
  5
4BB4
330
1F
100
AcDbEntity
  8
AM_0
100
AcDbCircle
 10
-8.240257218579499
 20
10.22045762301125
 30
0.0
 40
2.199999570846599
100
AcDbArc
 50
88.15652918848536
 51
266.8660109348977
  0
ARC
  5
4BB5
330
1F
100
AcDbEntity
  8
AM_0
100
AcDbCircle
 10
-8.203514054524555
 20
10.2188401912099
 30
0.0
 40
2.199997663497899
100
AcDbArc
 50
88.45798641769258
 51
266.4893396625527
  0
LINE
  5
4BB6
330
1F
100
AcDbEntity
  8
AM_0
100
AcDbLine
 10
-0.9650420844539008
 20
6.829164065564494
 30
0.0
 11
-0.0618285590418566
 21
12.42832139499595
 31
0.0
  0
ARC
  5
4BB7
330
1F
100
AcDbEntity
  8
AM_0
100
AcDbCircle
 10
-8.413085893832324
 20
10.00579697923352
 30
0.0
 40
1.750000596046399
100
AcDbArc
 50
267.4999959238478
 51
87.49998727242639
  0
LINE
  5
4BB8
330
1F
100
AcDbEntity
  8
AM_0
100
AcDbLine
 10
-0.7647628144401245
 20
14.65957645253762
 30
0.0
 11
-0.7627105073061448
 21
14.66094735935847
 31
0.0
  0
ARC
  5
4BB9
330
1F
100
AcDbEntity
  8
AM_0
100
AcDbCircle
 10
-0.7975386968290121
 20
13.86175445408447
 30
0.0
 40
0.7975340485573001
100
AcDbArc
 50
357.4999915981371
 51
42.58841989447058
  0
ARC
  5
4BBA
330
1F
100
AcDbEntity
  8
AM_0
100
AcDbCircle
 10
-0.7975386968290121
 20
13.86175445408447
 30
0.0
 40
0.7987679243088
100
AcDbArc
 50
42.58842353693445
 51
87.49997042432672
  0
LINE
  5
4BBB
330
1F
100
AcDbEntity
  8
AM_0
100
AcDbLine
 10
-7.747039736817528
 20
13.31377465271824
 30
0.0
 11
-7.71507257376522
 21
13.30605275163873
 31
0.0
  0
LINE
  5
4BBC
330
1F
100
AcDbEntity
  8
AM_0
100
AcDbLine
 10
-7.919441158466792
 20
14.82004792312394
 30
0.0
 11
-7.919372493909277
 21
14.82154185394024
 31
0.0
  0
LINE
  5
4BBD
330
1F
100
AcDbEntity
  8
AM_0
100
AcDbLine
 10
-7.919448787861879
 20
14.82002789596327
 30
0.0
 11
-7.713096560549209
 21
13.3136172963079
 31
0.0
  0
ARC
  5
4BBE
330
1F
100
AcDbEntity
  8
AM_0
100
AcDbCircle
 10
-8.240257218580032
 20
10.22033555269825
 30
0.0
 40
2.2001059055328
100
AcDbArc
 50
87.50003189602828
 51
88.15651552810599
  0
ARC
  5
4BBF
330
1F
100
AcDbEntity
  8
AM_0
100
AcDbCircle
 10
-8.240257218579632
 20
10.22042710543225
 30
0.0
 40
2.200020074844399
100
AcDbArc
 50
86.8770913229663
 51
87.50001823564923
  0
LINE
  5
4BC0
330
1F
100
AcDbEntity
  8
AM_0
100
AcDbLine
 10
-1.558036778142457
 20
5.970696966101463
 30
0.0
 11
-1.537544224435325
 21
5.969811956246029
 31
0.0
  0
LINE
  5
4BC1
330
1F
100
AcDbEntity
  8
AM_0
100
AcDbLine
 10
-1.537544224435317
 20
5.96981386359503
 30
0.0
 11
-1.520530672759462
 21
6.398492376093778
 31
0.0
  0
LINE
  5
4BC2
330
1F
100
AcDbEntity
  8
AM_0
100
AcDbLine
 10
-1.312622041749099
 20
6.544991055301415
 30
0.0
 11
-1.343048071513247
 21
5.542951146071203
 31
0.0
  0
LINE
  5
4BC3
330
1F
100
AcDbEntity
  8
AM_0
100
AcDbLine
 10
-0.9643401801635114
 20
6.82764867707243
 30
0.0
 11
-0.9656295478327733
 21
6.829194583145058
 31
0.0
  0
LINE
  5
4BC4
330
1F
100
AcDbEntity
  8
AM_0
100
AcDbLine
 10
-5.984947185600081
 20
4.351255953011552
 30
0.0
 11
-1.730949382704522
 21
4.388273756712095
 31
0.0
  0
LINE
  5
4BC5
330
1F
100
AcDbEntity
  8
AM_0
100
AcDbLine
 10
-1.558021519353443
 20
5.970698873450397
 30
0.0
 11
-2.240722630062326
 21
6.000514550257866
 31
0.0
  0
LINE
  5
4BC6
330
1F
100
AcDbEntity
  8
AM_0
100
AcDbLine
 10
-9.286346404337315
 20
7.151234223645639
 30
0.0
 11
-9.319389312018486
 21
7.158985688633847
 31
0.0
  0
LINE
  5
4BC7
330
1F
100
AcDbEntity
  8
AM_0
100
AcDbLine
 10
-9.250404332196863
 20
5.89200933182578
 30
0.0
 11
-9.321350066446346
 21
7.151456429914403
 31
0.0
  0
ARC
  5
4BC8
330
1F
100
AcDbEntity
  8
AM_0
100
AcDbCircle
 10
-8.240295365557424
 20
10.21932847262042
 30
0.0
 40
2.1988942623138
100
AcDbArc
 50
267.4998251691205
 51
268.1630297073407
  0
ARC
  5
4BC9
330
1F
100
AcDbEntity
  8
AM_0
100
AcDbCircle
 10
-8.240272477370089
 20
10.22009141207332
 30
0.0
 40
2.1996369361877
100
AcDbArc
 50
266.8659494631958
 51
267.5000437351759
  0
LINE
  5
4BCA
330
1F
100
AcDbEntity
  8
AM_0
100
AcDbLine
 10
-6.029228200996887
 20
2.166039049518804
 30
0.0
 11
-5.970832818172343
 21
1.497318803901953
 31
0.0
  0
LINE
  5
4BCB
330
1F
100
AcDbEntity
  8
AM_0
100
AcDbLine
 10
-6.029228200996845
 20
2.166048586261804
 30
0.0
 11
-5.905822738510009
 21
3.527990876983233
 31
0.0
  0
LINE
  5
4BCC
330
1F
100
AcDbEntity
  8
AM_0
100
AcDbLine
 10
-25.63356013850911
 20
9.659392978765756
 30
0.0
 11
-25.77585598187369
 21
8.293156292679768
 31
0.0
  0
LINE
  5
4BCD
330
1F
100
AcDbEntity
  8
AM_0
100
AcDbLine
 10
-12.55994408781374
 20
14.89796551921239
 30
0.0
 11
-12.55865472014548
 21
14.89642152048847
 31
0.0
  0
LINE
  5
4BCE
330
1F
100
AcDbEntity
  8
AM_0
100
AcDbLine
 10
-15.70251458526559
 20
14.47501526513551
 30
0.0
 11
-15.80961602833488
 21
13.87026034082873
 31
0.0
  0
LINE
  5
4BCF
330
1F
100
AcDbEntity
  8
AM_0
100
AcDbLine
 10
-15.25795739619159
 20
14.27635679685626
 30
0.0
 11
-15.26333611951398
 21
14.23547945465564
 31
0.0
  0
LINE
  5
4BD0
330
1F
100
AcDbEntity
  8
AM_0
100
AcDbLine
 10
-16.09023278960107
 20
13.63833485453511
 30
0.0
 11
-16.08894342193181
 21
13.63678751795118
 31
0.0
  0
LINE
  5
4BD1
330
1F
100
AcDbEntity
  8
AM_0
100
AcDbLine
 10
-14.5811538509588
 20
4.277998544238434
 30
0.0
 11
-9.810737591017328
 21
4.318434314435208
 31
0.0
  0
LINE
  5
4BD2
330
1F
100
AcDbEntity
  8
AM_0
100
AcDbLine
 10
-15.22334286909544
 20
6.052041630232101
 30
0.0
 11
-15.40653226886138
 21
4.293215375233581
 31
0.0
  0
ARC
  5
4BD3
330
1F
100
AcDbEntity
  8
AM_0
100
AcDbCircle
 10
-16.48114010785401
 20
6.613981828897426
 30
0.0
 40
0.7975340485573001
100
AcDbArc
 50
177.4999914983789
 51
207.4776373374977
  0
LINE
  5
4BD4
330
1F
100
AcDbEntity
  8
AM_11
100
AcDbLine
 10
-0.0000000654635571
 20
-15.00000139732618
 30
0.0
 11
-13.00000006546355
 21
-15.00000134059109
 31
0.0
  0
LINE
  5
4BD5
330
1F
100
AcDbEntity
  8
AM_0
100
AcDbLine
 10
-14.60173039287311
 20
-10.58446636045676
 30
0.0
 11
-1.35766606241905
 21
-10.722161730757
 31
0.0
  0
LINE
  5
4BD6
330
1F
100
AcDbEntity
  8
AM_0
100
AcDbLine
 10
-11.53843690651253
 20
-3.864028370285704
 30
0.0
 11
-1.857772845972501
 21
-4.313125092221416
 31
0.0
  0
LINE
  5
4BD7
330
1F
100
AcDbEntity
  8
AM_0
100
AcDbLine
 10
-5.984947264075622
 20
-13.63024657994744
 30
0.0
 11
-1.730949460239769
 21
-13.3777746746849
 31
0.0
  0
LINE
  5
4BD8
330
1F
100
AcDbEntity
  8
AM_0
100
AcDbLine
 10
-1.730941790682713
 20
-4.175237138062938
 30
0.0
 11
-1.253868120226848
 21
-3.940862140145
 31
0.0
  0
LINE
  5
4BD9
330
1F
100
AcDbEntity
  8
AM_0
100
AcDbLine
 10
-1.857765216577484
 20
-4.31312127752445
 30
0.0
 11
-0.7626495786039071
 21
-9.731578313553795
 31
0.0
  0
LINE
  5
4BDA
330
1F
100
AcDbEntity
  8
AM_0
100
AcDbLine
 10
-1.095893877104811
 20
-3.950475177944437
 30
0.0
 11
-0.0007629803425003
 21
-9.368991341780848
 31
0.0
  0
LINE
  5
4BDB
330
1F
100
AcDbEntity
  8
AM_0
100
AcDbLine
 10
-1.095893877104735
 20
-3.950458011806436
 30
0.0
 11
-1.253883371161879
 21
-2.141240558113932
 31
0.0
  0
LINE
  5
4BDC
330
1F
100
AcDbEntity
  8
AM_0
100
AcDbLine
 10
-0.9650497534829284
 20
-2.252383671557471
 30
0.0
 11
-0.9643554785471756
 21
-2.244878254690501
 31
0.0
  0
LINE
  5
4BDD
330
1F
100
AcDbEntity
  8
AM_0
100
AcDbLine
 10
-1.03896333117484
 20
-3.048148594330896
 30
0.0
 11
-0.9650421240879117
 21
-2.252379856860505
 31
0.0
  0
LINE
  5
4BDE
330
1F
100
AcDbEntity
  8
AM_0
100
AcDbLine
 10
-0.9650268652989451
 20
-2.252385578905571
 30
0.0
 11
-0.0618210002905511
 21
-3.758630242271375
 31
0.0
  0
LINE
  5
4BDF
330
1F
100
AcDbEntity
  8
AM_0
100
AcDbLine
 10
-0.0618210002906261
 20
-3.758647408409375
 30
0.0
 11
-0.6879577857874052
 21
-5.067416631750765
 31
0.0
  0
LINE
  5
4BE0
330
1F
100
AcDbEntity
  8
AM_0
100
AcDbLine
 10
-0.4684448518464833
 20
-6.330426657733771
 30
0.0
 11
-0.0007705883037012
 21
-4.457986321639813
 31
0.0
  0
LINE
  5
4BE1
330
1F
100
AcDbEntity
  8
AM_0
100
AcDbLine
 10
-0.4636993685675487
 20
-6.357711279946484
 30
0.0
 11
-0.0064773757145061
 21
-4.527139153645908
 31
0.0
  0
LINE
  5
4BE2
330
1F
100
AcDbEntity
  8
AM_0
100
AcDbLine
 10
-1.343536425189827
 20
-11.05252214341666
 30
0.0
 11
-1.357666062419075
 21
-10.72216745280299
 31
0.0
  0
LINE
  5
4BE3
330
1F
100
AcDbEntity
  8
AM_0
100
AcDbLine
 10
-1.35766606241905
 20
-10.722161730757
 30
0.0
 11
-1.401901287383709
 21
-9.684560259616949
 31
0.0
  0
LINE
  5
4BE4
330
1F
100
AcDbEntity
  8
AM_0
100
AcDbLine
 10
-1.253875774743036
 20
-9.697236499275964
 30
0.0
 11
-1.253875788843299
 21
-12.92810197779196
 31
0.0
  0
LINE
  5
4BE5
330
1F
100
AcDbEntity
  8
AM_0
100
AcDbLine
 10
-25.63356023159181
 20
-11.66912207403024
 30
0.0
 11
-25.77585608111863
 21
-14.44734320378023
 31
0.0
  0
LINE
  5
4BE6
330
1F
100
AcDbEntity
  8
AM_0
100
AcDbLine
 10
-15.22334294161363
 20
-10.5644220309619
 30
0.0
 11
-15.40653234931242
 21
-14.14094294996141
 31
0.0
  0
LINE
  5
4BE7
330
1F
100
AcDbEntity
  8
AM_0
100
AcDbLine
 10
-14.52808383406234
 20
-7.513879202575175
 30
0.0
 11
-14.60173039287312
 21
-10.58446826780576
 31
0.0
  0
LINE
  5
4BE8
330
1F
100
AcDbEntity
  8
AM_0
100
AcDbLine
 10
-12.5599289281026
 20
-7.804253967023668
 30
0.0
 11
-11.53843690651247
 21
-3.864013111496701
 31
0.0
  0
LINE
  5
4BE9
330
1F
100
AcDbEntity
  8
AM_0
100
AcDbLine
 10
-13.00864412009228
 20
-3.68639126364937
 30
0.0
 11
-12.99494172752599
 21
-3.689076810584171
 31
0.0
  0
LINE
  5
4BEA
330
1F
100
AcDbEntity
  8
AM_0
100
AcDbLine
 10
-16.40427401512436
 20
-6.486211195119035
 30
0.0
 11
-16.08973696874752
 21
-6.93604029805475
 31
0.0
  0
LINE
  5
4BEB
330
1F
100
AcDbEntity
  8
AM_0
100
AcDbLine
 10
-16.08832553073553
 20
-6.93054331930091
 30
0.0
 11
-16.09022525000563
 21
-6.937899962969619
 31
0.0
  0
LINE
  5
4BEC
330
1F
100
AcDbEntity
  8
AM_0
100
AcDbLine
 10
-15.97536471340405
 20
-6.494847671600897
 30
0.0
 11
-16.08832553073555
 21
-6.930547133997909
 31
0.0
  0
LINE
  5
4BED
330
1F
100
AcDbEntity
  8
AM_0
100
AcDbLine
 10
-16.08832553073555
 20
-6.930547133997909
 30
0.0
 11
-16.40042117088663
 21
-6.48627413764085
 31
0.0
  0
LINE
  5
4BEE
330
1F
100
AcDbEntity
  8
AM_0
100
AcDbLine
 10
-12.55992129870864
 20
-7.804261596418702
 30
0.0
 11
-12.55874637195131
 21
-7.804416091662831
 31
0.0
  0
LINE
  5
4BEF
330
1F
100
AcDbEntity
  8
AM_0
100
AcDbLine
 10
-25.82741549378541
 20
-6.295810076724212
 30
0.0
 11
-25.9583740747413
 21
-11.75539145127467
 31
0.0
  0
LINE
  5
4BF0
330
1F
100
AcDbEntity
  8
AM_0
100
AcDbLine
 10
-14.58116156072291
 20
-14.13738765571252
 30
0.0
 11
-9.810737670336802
 21
-13.85644285231279
 31
0.0
  0
LINE
  5
4BF1
330
1F
100
AcDbEntity
  8
AM_0
100
AcDbLine
 10
-33.96646887431744
 20
-14.50000124908845
 30
0.0
 11
-33.96646874775456
 21
14.49999922774784
 31
0.0
  0
LINE
  5
4BF2
330
1F
100
AcDbEntity
  8
AM_0
100
AcDbLine
 10
-34.9664688699532
 20
-13.50000124472422
 30
0.0
 11
-34.9664687521188
 21
13.49999923211208
 31
0.0
  0
LINE
  5
4BF3
330
1F
100
AcDbEntity
  8
AM_0
100
AcDbLine
 10
-37.96646886558896
 20
-12.5000012316315
 30
0.0
 11
-37.96646875648304
 21
12.49999876836759
 31
0.0
  0
LINE
  5
4BF4
330
1F
100
AcDbEntity
  8
AM_0
100
AcDbLine
 10
-34.96646493742079
 20
13.49999875527486
 30
0.0
 11
-33.96646874775457
 21
14.49999732039914
 31
0.0
  0
LINE
  5
4BF5
330
1F
100
AcDbEntity
  8
AM_0
100
AcDbLine
 10
-34.96646875779225
 20
12.20001096230618
 30
0.0
 11
-37.96646875779225
 21
12.20001097539889
 31
0.0
  0
LINE
  5
4BF6
330
1F
100
AcDbEntity
  8
AM_0
100
AcDbLine
 10
-33.08619311402861
 20
-6.716319383424187
 30
0.0
 11
-30.94269945939633
 21
-6.1919968830129
 31
0.0
  0
LINE
  5
4BF7
330
1F
100
AcDbEntity
  8
AM_0
100
AcDbLine
 10
-37.96646886427974
 20
-12.2000134386635
 30
0.0
 11
-34.96646886427974
 21
-12.20001345175621
 31
0.0
  0
LINE
  5
4BF8
330
1F
100
AcDbEntity
  8
AM_0
100
AcDbLine
 10
-34.9664650552552
 20
-13.50000124472423
 30
0.0
 11
-33.96646505961943
 21
-14.50000124908847
 31
0.0
  0
LINE
  5
4BF9
330
1F
100
AcDbEntity
  8
AM_0
100
AcDbLine
 10
-176.9664688655879
 20
-12.50000062500255
 30
0.0
 11
-176.966468756482
 21
12.49999937499655
 31
0.0
  0
LINE
  5
4BFA
330
1F
100
AcDbEntity
  8
AM_0
100
AcDbLine
 10
-178.4841080239692
 20
-12.09335388986421
 30
0.0
 11
-178.4841079184127
 21
12.09335265310429
 31
0.0
  0
LINE
  5
4BFB
330
1F
100
AcDbEntity
  8
AM_0
100
AcDbLine
 10
-179.9664688553822
 20
-10.16149963534783
 30
0.0
 11
-179.9664687666878
 21
10.16149841152716
 31
0.0
  0
LINE
  5
4BFC
330
1F
100
AcDbEntity
  8
AM_0
100
AcDbLine
 10
-176.966468756482
 20
12.49999365295065
 30
0.0
 11
-178.4841079184127
 21
12.09334693105838
 31
0.0
  0
ARC
  5
4BFD
330
1F
100
AcDbEntity
  8
AM_0
100
AcDbCircle
 10
-177.9664687666878
 20
10.16149840279868
 30
0.0
 40
2.000000238418599
100
AcDbArc
 50
104.9999942477853
 51
180.0000047589051
  0
LINE
  5
4BFE
330
1F
100
AcDbEntity
  8
AM_0
100
AcDbLine
 10
-178.4841080239691
 20
-12.09333863107521
 30
0.0
 11
-176.9664688655879
 21
-12.49998918091155
 31
0.0
  0
ARC
  5
4BFF
330
1F
100
AcDbEntity
  8
AM_0
100
AcDbCircle
 10
-177.9664688553822
 20
-10.16149964407631
 30
0.0
 40
2.0
100
AcDbArc
 50
180.0000047589051
 51
255.0000052521098
  0
DIMENSION
  5
4CBD
330
1F
100
AcDbEntity
  8
AM_5
100
AcDbDimension
  2
*D10
 10
-197.0829115585025
 20
12.49999365295065
 30
0.0
 11
-200.4829115585025
 21
-0.0000034860259763
 31
0.0
 70
    32
  1
%%c<>
  3
AM_JIS$0
100
AcDbAlignedDimension
 13
-176.9664688655879
 23
-12.50000062500255
 33
0.0
 14
-176.966468756482
 24
12.49999365295065
 34
0.0
 50
269.9999997499476
100
AcDbRotatedDimension
1001
ACAD
1000
DSTYLE
1002
{
1070
   271
1070
     0
1002
}
1001
GENIUS_GENDTOL_13
1000

1000
h7
1000

1040
0.0
  0
LINE
  5
4D68
330
1F
100
AcDbEntity
  8
AM_0
100
AcDbLine
 10
-14.58116151480772
 20
-3.616604561176151
 30
0.0
 11
-13.02179719626139
 21
-3.685731320964968
 31
0.0
  0
VIEWPORT
  5
110
330
101
100
AcDbEntity
 67
     1
  8
0
100
AcDbViewport
 10
420.5
 20
297.0
 30
0.0
 40
948.9782706766916
 41
628.452
 68
     1
 69
     1
1001
ACAD
1000
MVIEW
1002
{
1070
    16
1010
0.0
1020
0.0
1030
0.0
1010
0.0
1020
0.0
1030
1.0
1040
0.0
1040
628.452
1040
420.5
1040
297.0
1040
50.0
1040
0.0
1040
0.0
1070
     0
1070
   100
1070
     1
1070
     1
1070
     0
1070
     0
1070
     0
1070
     0
1040
0.0
1040
0.0
1040
0.0
1040
10.0
1040
10.0
1040
10.0
1040
10.0
1070
     0
1002
{
1002
}
1002
}
  0
ENDSEC
  0
SECTION
  2
OBJECTS
  0
DICTIONARY
  5
C
330
0
100
AcDbDictionary
  3
ACAD_GROUP
350
D
  3
ACAD_LAYOUT
350
1A
  3
ACAD_MLINESTYLE
350
17
  3
ACAD_PLOTSETTINGS
350
19
  3
ACAD_PLOTSTYLENAME
350
E
  3
ACDBVARIABLEDICTIONARY
350
34
  3
ACMDICTIONARY
350
43
  3
AMG
350
2B
  3
AMGSNAPSETTINGS
350
6E
  3
DWGPROPS
350
4D9E
  3
ACDBHEADERROUNDTRIPXREC
350
4DAA
  0
DICTIONARY
  5
74
330
1F
100
AcDbDictionary
280
     1
  3
ACAD_INDEX
360
4DA0
  3
ACAD_LAYOUTSELFREF
360
4DCD
  0
DICTIONARY
  5
4DD2
330
101
100
AcDbDictionary
280
     1
  3
ACAD_LAYOUTSELFREF
360
4DD3
  0
DICTIONARY
  5
D
102
{ACAD_REACTORS
330
C
102
}
330
C
100
AcDbDictionary
  0
DICTIONARY
  5
1A
102
{ACAD_REACTORS
330
C
102
}
330
C
100
AcDbDictionary
  0
DICTIONARY
  5
17
102
{ACAD_REACTORS
330
C
102
}
330
C
100
AcDbDictionary
  3
STANDARD
350
18
  0
DICTIONARY
  5
19
102
{ACAD_REACTORS
330
C
102
}
330
C
100
AcDbDictionary
  0
ACDBDICTIONARYWDFLT
  5
E
102
{ACAD_REACTORS
330
C
102
}
330
C
100
AcDbDictionary
281
     1
  3
Normal
350
F
100
AcDbDictionaryWithDefault
340
F
  0
DICTIONARY
  5
34
102
{ACAD_REACTORS
330
C
102
}
330
C
100
AcDbDictionary
  3
INDEXCTL
350
35
  3
SORTENTS
350
B5E
  0
DICTIONARY
  5
43
102
{ACAD_REACTORS
330
C
102
}
330
C
100
AcDbDictionary
  3
ACMSTDDICTIONARY
350
260
  0
DICTIONARY
  5
2B
102
{ACAD_REACTORS
330
C
102
}
330
C
100
AcDbDictionary
  3
ACMGSETTINGS
350
2C
  0
DICTIONARY
  5
6E
102
{ACAD_REACTORS
330
C
102
}
330
C
100
AcDbDictionary
  0
XRECORD
  5
4D9E
102
{ACAD_REACTORS
330
C
102
}
330
C
100
AcDbXrecord
  1
DWGPROPS COOKIE
  2

  3

  4

  6

  7

  8

  9

300
AmdtFileType=82
301
=
302
=
303
=
304
=
305
=
306
=
307
=
308
=
309
=
 40
0.1551490162037037
 41
2452839.420061482
 42
2453075.67259294
  1

 90
        1
  0
DICTIONARY
  5
4DAA
102
{ACAD_REACTORS
330
C
102
}
330
C
100
AcDbDictionary
  3
TSTACKALIGN
350
4DAB
  3
TSTACKSIZE
350
4DAC
  3
HYPERLINKBASE
350
4DAD
  3
STYLESHEET
350
4DAE
  3
LAYOUTDICT
350
4DAF
  3
PLOTSETDICT
350
4DB0
  3
PLOTSTYLNAMDICT
350
4DB1
  3
LWETCUNION
350
4DB2
  3
INSUNITS
350
4DB3
  3
CEPSNTYPE
350
4DB4
  3
FINGERPRINTGUID
350
4DB5
  3
VERSIONGUID
350
4DB6
  3
PSVPSCALE
350
4DB7
  3
DIMSTYLEDATA
350
4DB8
  3
PUCSORTHOREF
350
4DB9
  3
PUCSORTHOVIEW
350
4DBA
  3
PUCSBASE
350
4DBB
  3
PUCSORGTOP
350
4DBC
  3
PUCSORGBOTTOM
350
4DBD
  3
PUCSORGLEFT
350
4DBE
  3
PUCSORGRIGHT
350
4DBF
  3
PUCSORGFRONT
350
4DC0
  3
PUCSORGBACK
350
4DC1
  3
UCSORTHOREF
350
4DC2
  3
UCSORTHOVIEW
350
4DC3
  3
UCSBASE
350
4DC4
  3
UCSORGTOP
350
4DC5
  3
UCSORGBOTTOM
350
4DC6
  3
UCSORGLEFT
350
4DC7
  3
UCSORGRIGHT
350
4DC8
  3
UCSORGFRONT
350
4DC9
  3
UCSORGBACK
350
4DCA
  0
DICTIONARY
  5
4DA0
102
{ACAD_REACTORS
330
74
102
}
330
74
100
AcDbDictionary
  3
*A1
350
4DA1
  0
XRECORD
  5
4DCD
102
{ACAD_REACTORS
330
74
102
}
330
74
100
AcDbXrecord
340
1F
  0
XRECORD
  5
4DD3
102
{ACAD_REACTORS
330
4DD2
102
}
330
4DD2
100
AcDbXrecord
340
101
  0
MLINESTYLE
  5
18
102
{ACAD_REACTORS
330
17
102
}
330
17
100
AcDbMlineStyle
  2
STANDARD
 70
     0
  3

 62
   256
 51
90.0
 52
90.0
 71
     2
 49
0.5
 62
   256
  6
BYLAYER
 49
-0.5
 62
   256
  6
BYLAYER
  0
ACDBPLACEHOLDER
  5
F
102
{ACAD_REACTORS
330
E
102
}
330
E
100
AcDbPlaceHolder
280
     0
  0
DICTIONARYVAR
  5
35
102
{ACAD_REACTORS
330
34
102
}
330
34
100
DictionaryVariables
280
     0
  1
1
  0
DICTIONARYVAR
  5
B5E
102
{ACAD_REACTORS
330
34
102
}
330
34
100
DictionaryVariables
280
     0
  1
96
  0
DICTIONARY
  5
260
102
{ACAD_REACTORS
330
43
102
}
330
43
100
AcDbDictionary
  0
DICTIONARY
  5
2C
102
{ACAD_REACTORS
330
2B
102
}
330
2B
100
AcDbDictionary
  3
DWGSETTINGS
350
2D
  0
XRECORD
  5
4DAB
102
{ACAD_REACTORS
330
4DAA
102
}
330
4DAA
100
AcDbXrecord
 90
        1
  0
XRECORD
  5
4DAC
102
{ACAD_REACTORS
330
4DAA
102
}
330
4DAA
100
AcDbXrecord
 90
       70
  0
XRECORD
  5
4DAD
102
{ACAD_REACTORS
330
4DAA
102
}
330
4DAA
100
AcDbXrecord
  1

  0
XRECORD
  5
4DAE
102
{ACAD_REACTORS
330
4DAA
102
}
330
4DAA
100
AcDbXrecord
  1
ASAMI.ctb
  0
XRECORD
  5
4DAF
102
{ACAD_REACTORS
330
4DAA
102
}
330
4DAA
100
AcDbXrecord
340
1A
  0
XRECORD
  5
4DB0
102
{ACAD_REACTORS
330
4DAA
102
}
330
4DAA
100
AcDbXrecord
340
19
  0
XRECORD
  5
4DB1
102
{ACAD_REACTORS
330
4DAA
102
}
330
4DAA
100
AcDbXrecord
340
E
  0
XRECORD
  5
4DB2
102
{ACAD_REACTORS
330
4DAA
102
}
330
4DAA
100
AcDbXrecord
 90
    10781
  0
XRECORD
  5
4DB3
102
{ACAD_REACTORS
330
4DAA
102
}
330
4DAA
100
AcDbXrecord
 90
        4
  0
XRECORD
  5
4DB4
102
{ACAD_REACTORS
330
4DAA
102
}
330
4DAA
100
AcDbXrecord
 90
        0
  0
XRECORD
  5
4DB5
102
{ACAD_REACTORS
330
4DAA
102
}
330
4DAA
100
AcDbXrecord
  1
{AFB28963-8C59-40AE-9337-C84526B81ACE}
  0
XRECORD
  5
4DB6
102
{ACAD_REACTORS
330
4DAA
102
}
330
4DAA
100
AcDbXrecord
  1
{6C755727-3199-420A-954D-49F696EEAAB8}
  0
XRECORD
  5
4DB7
102
{ACAD_REACTORS
330
4DAA
102
}
330
4DAA
100
AcDbXrecord
 40
0.0
  0
XRECORD
  5
4DB8
102
{ACAD_REACTORS
330
4DAA
102
}
330
4DAA
100
AcDbXrecord
1000
DSTYLE
1002
{
1070
    79
 70
     2
1070
   341
340
59
1070
   342
340
59
1070
   371
 70
    -1
1070
   372
 70
    -1
1002
}
  0
XRECORD
  5
4DB9
102
{ACAD_REACTORS
330
4DAA
102
}
330
4DAA
100
AcDbXrecord
340
0
  0
XRECORD
  5
4DBA
102
{ACAD_REACTORS
330
4DAA
102
}
330
4DAA
100
AcDbXrecord
 70
     0
  0
XRECORD
  5
4DBB
102
{ACAD_REACTORS
330
4DAA
102
}
330
4DAA
100
AcDbXrecord
340
0
  0
XRECORD
  5
4DBC
102
{ACAD_REACTORS
330
4DAA
102
}
330
4DAA
100
AcDbXrecord
 10
0.0
 20
0.0
 30
0.0
  0
XRECORD
  5
4DBD
102
{ACAD_REACTORS
330
4DAA
102
}
330
4DAA
100
AcDbXrecord
 10
0.0
 20
0.0
 30
0.0
  0
XRECORD
  5
4DBE
102
{ACAD_REACTORS
330
4DAA
102
}
330
4DAA
100
AcDbXrecord
 10
0.0
 20
0.0
 30
0.0
  0
XRECORD
  5
4DBF
102
{ACAD_REACTORS
330
4DAA
102
}
330
4DAA
100
AcDbXrecord
 10
0.0
 20
0.0
 30
0.0
  0
XRECORD
  5
4DC0
102
{ACAD_REACTORS
330
4DAA
102
}
330
4DAA
100
AcDbXrecord
 10
0.0
 20
0.0
 30
0.0
  0
XRECORD
  5
4DC1
102
{ACAD_REACTORS
330
4DAA
102
}
330
4DAA
100
AcDbXrecord
 10
0.0
 20
0.0
 30
0.0
  0
XRECORD
  5
4DC2
102
{ACAD_REACTORS
330
4DAA
102
}
330
4DAA
100
AcDbXrecord
340
0
  0
XRECORD
  5
4DC3
102
{ACAD_REACTORS
330
4DAA
102
}
330
4DAA
100
AcDbXrecord
 70
     0
  0
XRECORD
  5
4DC4
102
{ACAD_REACTORS
330
4DAA
102
}
330
4DAA
100
AcDbXrecord
340
0
  0
XRECORD
  5
4DC5
102
{ACAD_REACTORS
330
4DAA
102
}
330
4DAA
100
AcDbXrecord
 10
0.0
 20
0.0
 30
0.0
  0
XRECORD
  5
4DC6
102
{ACAD_REACTORS
330
4DAA
102
}
330
4DAA
100
AcDbXrecord
 10
0.0
 20
0.0
 30
0.0
  0
XRECORD
  5
4DC7
102
{ACAD_REACTORS
330
4DAA
102
}
330
4DAA
100
AcDbXrecord
 10
0.0
 20
0.0
 30
0.0
  0
XRECORD
  5
4DC8
102
{ACAD_REACTORS
330
4DAA
102
}
330
4DAA
100
AcDbXrecord
 10
0.0
 20
0.0
 30
0.0
  0
XRECORD
  5
4DC9
102
{ACAD_REACTORS
330
4DAA
102
}
330
4DAA
100
AcDbXrecord
 10
0.0
 20
0.0
 30
0.0
  0
XRECORD
  5
4DCA
102
{ACAD_REACTORS
330
4DAA
102
}
330
4DAA
100
AcDbXrecord
 10
0.0
 20
0.0
 30
0.0
  0
LAYER_INDEX
  5
4DA1
102
{ACAD_REACTORS
330
4DA0
102
}
330
4DA0
100
AcDbIndex
 40
2453152.394987279
100
AcDbLayerIndex
  8
0
360
4DA2
 90
        0
  8
AM_0
360
4DA3
 90
      208
  8
AM_7
360
4DA4
 90
        1
  8
AM_11
360
4DA5
 90
        4
  8
AM_5
360
4DA6
 90
        6
  8
Defpoints
360
4DA7
 90
        0
  8
AM_6
360
4DA8
 90
        1
  0
XRECORD
  5
2D
102
{ACAD_REACTORS
330
2C
102
}
330
2C
100
AcDbXrecord
  1
VERSION
140
15.0
  1
PRODUCT
  2
AutoCAD Mechanical 2000
  0
IDBUFFER
  5
4DA2
330
0
100
AcDbIdBuffer
  0
IDBUFFER
  5
4DA3
330
0
100
AcDbIdBuffer
330
4B08
330
4B09
330
4B0A
330
4B0B
330
4B0C
330
4B0D
330
4B0E
330
4BA3
330
4BA4
330
4BA5
330
4BA6
330
4BAA
330
4BAB
330
4BAC
330
4BAD
330
4BAF
330
4BB0
330
4BB1
330
4BB2
330
4BB3
330
4BB4
330
4BB5
330
4BB6
330
4BB7
330
4BB8
330
4BB9
330
4BBA
330
4BBB
330
4BBC
330
4BBD
330
4BBE
330
4BBF
330
4BC0
330
4BC1
330
4BC2
330
4BC3
330
4BC4
330
4BC5
330
4BC6
330
4BC7
330
4BC8
330
4BC9
330
4BCA
330
4BCB
330
4BCC
330
4BCD
330
4BCE
330
4BCF
330
4BD0
330
4BD1
330
4BD2
330
4BD3
330
4BD5
330
4BD6
330
4BD7
330
4BD8
330
4BD9
330
4BDA
330
4BDB
330
4BDC
330
4BDD
330
4BDE
330
4BDF
330
4BE0
330
4BE1
330
4BE2
330
4BE3
330
4BE4
330
4BE5
330
4BE6
330
4BE7
330
4BE8
330
4BE9
330
4BEA
330
4BEB
330
4BEC
330
4BED
330
4BEE
330
4BEF
330
4BF0
330
4BF1
330
4BF2
330
4BF3
330
4BF4
330
4BF5
330
4BF6
330
4BF7
330
4BF8
330
4BF9
330
4BFA
330
4BFB
330
4BFC
330
4BFD
330
4BFE
330
4BFF
330
4D68
330
49FB
330
49FC
330
49FE
330
49FF
330
4A00
330
4A01
330
4A02
330
4A03
330
4A34
330
4A35
330
4A36
330
4A37
330
4A38
330
4A39
330
4A3A
330
4A3B
330
4A3C
330
4A3D
330
4A3E
330
4A3F
330
4A40
330
4A41
330
4A42
330
4A43
330
4A44
330
4A45
330
4A46
330
4A47
330
4A75
330
4A76
330
4A77
330
4A78
330
4A79
330
4A7A
330
4A7B
330
4A7C
330
4A7D
330
4A7E
330
4A7F
330
4A80
330
4A81
330
4A82
330
4A83
330
4A84
330
4A85
330
4A86
330
4A87
330
4A88
330
4A89
330
4A8A
330
4A8B
330
4A8C
330
4A8D
330
4A8E
330
4A8F
330
4A90
330
4A91
330
4A92
330
4A93
330
4A94
330
4A95
330
4A96
330
4A97
330
4A98
330
4A99
330
4A9A
330
4A9B
330
4A9C
330
4A9D
330
4A9E
330
4A9F
330
4AA0
330
4AA1
330
4AA2
330
4AA3
330
4AA4
330
4AA5
330
4AA6
330
4AA7
330
4AA8
330
4AA9
330
4AAA
330
4AAB
330
4AAC
330
4AAD
330
4AAE
330
4AAF
330
4AB0
330
4AB1
330
4AB2
330
4AB3
330
4AB4
330
4AB5
330
4AB6
330
4AB7
330
4AB8
330
4AB9
330
4ABA
330
4ABB
330
4ABC
330
4ABD
330
4AE5
330
4AE6
330
4AF3
330
4AF4
330
4AF5
330
4AF6
330
4AF7
330
4AF8
330
4AF9
330
4B06
330
4B07
  0
IDBUFFER
  5
4DA4
330
0
100
AcDbIdBuffer
330
49FA
  0
IDBUFFER
  5
4DA5
330
0
100
AcDbIdBuffer
330
4BA8
330
4BA9
330
4BAE
330
4BD4
  0
IDBUFFER
  5
4DA6
330
0
100
AcDbIdBuffer
330
385C
330
38E8
330
3983
330
3A0B
330
3AF5
330
4CBD
  0
IDBUFFER
  5
4DA7
330
0
100
AcDbIdBuffer
  0
IDBUFFER
  5
4DA8
330
0
100
AcDbIdBuffer
330
1142
  0
ENDSEC
  0
EOF
