  0
SECTION
  2
HEADER
  9
$ACADVER
  1
AC1014
  9
$ACADMAINTVER
 70
     9
  9
$DWGCODEPAGE
  3
ANSI_932
  9
$INSBASE
 10
0.0
 20
0.0
 30
0.0
  9
$EXTMIN
 10
-223.6435666217319
 20
-66.50000290734981
 30
-0.00000001
  9
$EXTMAX
 10
17.40704445703097
 20
39.2999990926502
 30
0.00000001
  9
$LIMMIN
 10
-243.3140239420917
 20
-94.14790038114835
  9
$LIMMAX
 10
79.40855580166237
 20
58.83110036861501
  9
$ORTHOMODE
 70
     0
  9
$REGENMODE
 70
     1
  9
$FILLMODE
 70
     1
  9
$QTEXTMODE
 70
     0
  9
$MIRRTEXT
 70
     0
  9
$DRAGMODE
 70
     2
  9
$LTSCALE
 40
1.0
  9
$OSMODE
 70
    55
  9
$ATTMODE
 70
     1
  9
$TEXTSIZE
 40
2.5
  9
$TRACEWID
 40
1.0
  9
$TEXTSTYLE
  7
STANDARD
  9
$CLAYER
  8
AM_0
  9
$CELTYPE
  6
BYLAYER
  9
$CECOLOR
 62
   256
  9
$CELTSCALE
 40
1.0
  9
$DELOBJ
 70
     1
  9
$DISPSILH
 70
     0
  9
$DIMSCALE
 40
1.0
  9
$DIMASZ
 40
2.5
  9
$DIMEXO
 40
1.0
  9
$DIMDLI
 40
12.0
  9
$DIMRND
 40
0.0
  9
$DIMDLE
 40
0.0
  9
$DIMEXE
 40
1.0
  9
$DIMTP
 40
0.1
  9
$DIMTM
 40
0.1
  9
$DIMTXT
 40
3.2
  9
$DIMCEN
 40
0.0
  9
$DIMTSZ
 40
0.0
  9
$DIMTOL
 70
     0
  9
$DIMLIM
 70
     0
  9
$DIMTIH
 70
     0
  9
$DIMTOH
 70
     0
  9
$DIMSE1
 70
     0
  9
$DIMSE2
 70
     0
  9
$DIMTAD
 70
     3
  9
$DIMZIN
 70
     8
  9
$DIMBLK
  1
OPEN30
  9
$DIMASO
 70
     1
  9
$DIMSHO
 70
     1
  9
$DIMPOST
  1

  9
$DIMAPOST
  1
"
  9
$DIMALT
 70
     0
  9
$DIMALTD
 70
     2
  9
$DIMALTF
 40
0.0393701
  9
$DIMLFAC
 40
1.0
  9
$DIMTOFL
 70
     1
  9
$DIMTVP
 40
0.0
  9
$DIMTIX
 70
     0
  9
$DIMSOXD
 70
     0
  9
$DIMSAH
 70
     0
  9
$DIMBLK1
  1

  9
$DIMBLK2
  1

  9
$DIMSTYLE
  2
AM_JIS
  9
$DIMCLRD
 70
   256
  9
$DIMCLRE
 70
   256
  9
$DIMCLRT
 70
     2
  9
$DIMTFAC
 40
0.71
  9
$DIMGAP
 40
1.5
  9
$DIMJUST
 70
     0
  9
$DIMSD1
 70
     0
  9
$DIMSD2
 70
     0
  9
$DIMTOLJ
 70
     0
  9
$DIMTZIN
 70
     0
  9
$DIMALTZ
 70
     0
  9
$DIMALTTZ
 70
     0
  9
$DIMFIT
 70
     3
  9
$DIMUPT
 70
     0
  9
$DIMUNIT
 70
     2
  9
$DIMDEC
 70
     3
  9
$DIMTDEC
 70
     3
  9
$DIMALTU
 70
     2
  9
$DIMALTTD
 70
     2
  9
$DIMTXSTY
  7
ASAMI
  9
$DIMAUNIT
 70
     0
  9
$LUNITS
 70
     2
  9
$LUPREC
 70
     0
  9
$SKETCHINC
 40
1.0
  9
$FILLETRAD
 40
2.5
  9
$AUNITS
 70
     0
  9
$AUPREC
 70
     0
  9
$MENU
  1
.
  9
$ELEVATION
 40
0.0
  9
$PELEVATION
 40
0.0
  9
$THICKNESS
 40
0.0
  9
$LIMCHECK
 70
     0
  9
$BLIPMODE
 70
     0
  9
$CHAMFERA
 40
2.5
  9
$CHAMFERB
 40
2.5
  9
$CHAMFERC
 40
20.0
  9
$CHAMFERD
 40
0.0
  9
$SKPOLY
 70
     0
  9
$TDCREATE
 40
2452839.420061482
  9
$TDUPDATE
 40
2453152.393333055
  9
$TDINDWG
 40
0.1480108681
  9
$TDUSRTIMER
 40
0.1480108681
  9
$USRTIMER
 70
     1
  9
$ANGBASE
 50
0.0
  9
$ANGDIR
 70
     0
  9
$PDMODE
 70
     0
  9
$PDSIZE
 40
0.0
  9
$PLINEWID
 40
0.0
  9
$COORDS
 70
     1
  9
$SPLFRAME
 70
     0
  9
$SPLINETYPE
 70
     6
  9
$SPLINESEGS
 70
     8
  9
$ATTDIA
 70
     1
  9
$ATTREQ
 70
     1
  9
$HANDLING
 70
 12289
  9
$HANDSEED
  5
4432
  9
$SURFTAB1
 70
     6
  9
$SURFTAB2
 70
     6
  9
$SURFTYPE
 70
     6
  9
$SURFU
 70
     6
  9
$SURFV
 70
     6
  9
$UCSNAME
  2

  9
$UCSORG
 10
0.0
 20
0.0
 30
0.0
  9
$UCSXDIR
 10
1.0
 20
0.0
 30
0.0
  9
$UCSYDIR
 10
0.0
 20
1.0
 30
0.0
  9
$PUCSNAME
  2

  9
$PUCSORG
 10
0.0
 20
0.0
 30
0.0
  9
$PUCSXDIR
 10
1.0
 20
0.0
 30
0.0
  9
$PUCSYDIR
 10
0.0
 20
1.0
 30
0.0
  9
$USERI1
 70
     0
  9
$USERI2
 70
     0
  9
$USERI3
 70
     0
  9
$USERI4
 70
     0
  9
$USERI5
 70
     0
  9
$USERR1
 40
0.0
  9
$USERR2
 40
0.0
  9
$USERR3
 40
0.0
  9
$USERR4
 40
0.0
  9
$USERR5
 40
0.0
  9
$WORLDVIEW
 70
     1
  9
$SHADEDGE
 70
     3
  9
$SHADEDIF
 70
    70
  9
$TILEMODE
 70
     1
  9
$MAXACTVP
 70
    64
  9
$PINSBASE
 10
0.0
 20
0.0
 30
0.0
  9
$PLIMCHECK
 70
     0
  9
$PEXTMIN
 10
1.000000000000000E+20
 20
1.000000000000000E+20
 30
1.000000000000000E+20
  9
$PEXTMAX
 10
-1.000000000000000E+20
 20
-1.000000000000000E+20
 30
-1.000000000000000E+20
  9
$PLIMMIN
 10
0.0
 20
0.0
  9
$PLIMMAX
 10
841.0
 20
594.0
  9
$UNITMODE
 70
     0
  9
$VISRETAIN
 70
     1
  9
$PLINEGEN
 70
     0
  9
$PSLTSCALE
 70
     0
  9
$TREEDEPTH
 70
  3020
  9
$PICKSTYLE
 70
     0
  9
$CMLSTYLE
  2
STANDARD
  9
$CMLJUST
 70
     0
  9
$CMLSCALE
 40
20.0
  9
$PROXYGRAPHICS
 70
     1
  9
$MEASUREMENT
 70
     1
  0
ENDSEC
  0
SECTION
  2
CLASSES
  0
CLASS
  1
ACDBDICTIONARYWDFLT
  2
AcDbDictionaryWithDefault
  3
AutoCAD 2000
 90
        0
280
     0
281
     0
  0
CLASS
  1
ACDBPLACEHOLDER
  2
AcDbPlaceHolder
  3
AutoCAD 2000
 90
        0
280
     0
281
     0
  0
CLASS
  1
LAYOUT
  2
AcDbLayout
  3
AutoCAD 2000
 90
        0
280
     0
281
     0
  0
CLASS
  1
AMGSETTINGSOBJ
  2
AmgSettingsObj
  3
"AcadM|Product Description: AutoCAD Mechanical 2000|Company: Autodesk"
 90
        0
280
     0
281
     0
  0
CLASS
  1
ACME_DOCUMENT
  2
AcMeDbDoc
  3
AcMeServices
 90
        0
280
     0
281
     0
  0
CLASS
  1
ACMESCOPE
  2
AcMeScope
  3
AcMeServices
 90
        0
280
     0
281
     0
  0
CLASS
  1
ACMECOMMANDHISTORY
  2
AcMeCommandHistory
  3
AcMeServices
 90
        0
280
     0
281
     0
  0
CLASS
  1
DICTIONARYVAR
  2
AcDbDictionaryVar
  3
AutoCAD 2000
 90
        0
280
     0
281
     0
  0
CLASS
  1
ACIMSYSVARMAN
  2
AcImSysVarManager
  3
AcMeServices
 90
        0
280
     0
281
     0
  0
CLASS
  1
ACIMREALSYSVAR
  2
AcImRealSysVar
  3
AcMeServices
 90
        0
280
     0
281
     0
  0
CLASS
  1
ACIMINTSYSVAR
  2
AcImIntSysVar
  3
AcMeServices
 90
        0
280
     0
281
     0
  0
CLASS
  1
ACMEDRAWINGMAN
  2
AcMeDrawingMan
  3
AcMeServices
 90
        0
280
     0
281
     0
  0
CLASS
  1
ACMEVIEW
  2
AcMeView
  3
AcMeServices
 90
        0
280
     0
281
     0
  0
CLASS
  1
ACDBENTITYCACHE
  2
AcMeEntityCache
  3
AcMeServices
 90
        0
280
     0
281
     0
  0
CLASS
  1
GSMANAGER
  2
AcMeGSManager
  3
AcMeServices
 90
        0
280
     0
281
     0
  0
CLASS
  1
AmdtInternalReactor
  2
AmdtInternalReactor
  3
AcMeServices
 90
        0
280
     0
281
     0
  0
CLASS
  1
ACMESTATEMGR
  2
AcMeStateMgr
  3
AcMeServices
 90
        0
280
     0
281
     0
  0
CLASS
  1
ACME_DATABASE
  2
AcMeDbDatabase
  3
AcMeServices
 90
        0
280
     0
281
     0
  0
CLASS
  1
ACRFINSADJUSTERMGR
  2
AcRfInsAdjusterMgr
  3
AcMeServices
 90
        0
280
     0
281
     0
  0
CLASS
  1
ACMDATADICTIONARY
  2
AcmDataDictionary
  3
"AcmSymBB|Product Description: AutoCAD Mechanical 2000|Company: Autodesk"
 90
        0
280
     0
281
     0
  0
CLASS
  1
ACMDATAENTRYBLOCK
  2
AcmDataEntryBlock
  3
"AcmSymBB|Product Description: AutoCAD Mechanical 2000|Company: Autodesk"
 90
        0
280
     0
281
     0
  0
CLASS
  1
AMGOBJPROPCFG
  2
AmgObjPropCfg
  3
"AmgLay|Product Description: AutoCAD Mechanical 2000|Company: Autodesk"
 90
        1
280
     0
281
     0
  0
CLASS
  1
ACAMGFILTERDAT
  2
AcAmgFilterDat
  3
"AcadM|Product Description: AutoCAD Mechanical 2000|Company: Autodesk"
 90
        0
280
     0
281
     0
  0
CLASS
  1
LAYER_INDEX
  2
AcDbLayerIndex
  3
AutoCAD 2000
 90
        0
280
     0
281
     0
  0
CLASS
  1
IDBUFFER
  2
AcDbIdBuffer
  3
AutoCAD 2000
 90
        0
280
     0
281
     0
  0
CLASS
  1
ACIMSTRSYSVAR
  2
AcImStrSysVar
  3
AcMeServices
 90
        0
280
     0
281
     0
  0
CLASS
  1
ACMSTANDARDJIS
  2
AcmStandardJIS
  3
"AcmSymBB|Product Description: AutoCAD Mechanical 2000|Company: Autodesk"
 90
        0
280
     0
281
     0
  0
CLASS
  1
ACMSURFSTANDARDJIS
  2
AcmSurfTextStdJIS
  3
"AcmSymBB|Product Description: AutoCAD Mechanical 2000|Company: Autodesk"
 90
        0
280
     0
281
     0
  0
CLASS
  1
ACMFCFSTANDARDJIS
  2
AcmFCFStdJIS
  3
"AcmSymBB|Product Description: AutoCAD Mechanical 2000|Company: Autodesk"
 90
        0
280
     0
281
     0
  0
CLASS
  1
ACMWELDSTANDARDJIS
  2
AcmWeldingStdJIS
  3
"AcmSymBB|Product Description: AutoCAD Mechanical 2000|Company: Autodesk"
 90
        0
280
     0
281
     0
  0
CLASS
  1
ACMIDSTANDARDJIS
  2
AcmIdStdJIS
  3
"AcmSymBB|Product Description: AutoCAD Mechanical 2000|Company: Autodesk"
 90
        0
280
     0
281
     0
  0
CLASS
  1
ACMDATUMSTANDARDJIS
  2
AcmDatumStdJIS
  3
"AcmSymBB|Product Description: AutoCAD Mechanical 2000|Company: Autodesk"
 90
        0
280
     0
281
     0
  0
CLASS
  1
ACMBOMSTANDARDJIS
  2
AcmBOMStdJIS
  3
"AcmSymBB|Product Description: AutoCAD Mechanical 2000|Company: Autodesk"
 90
        0
280
     0
281
     0
  0
CLASS
  1
ACMSTANDARDANSI
  2
AcmStandardANSI
  3
"AcmSymBB|Product Description: AutoCAD Mechanical 2000|Company: Autodesk"
 90
        0
280
     0
281
     0
  0
CLASS
  1
ACMSURFSTANDARDANSI
  2
AcmSurfTextStdANSI
  3
"AcmSymBB|Product Description: AutoCAD Mechanical 2000|Company: Autodesk"
 90
        0
280
     0
281
     0
  0
CLASS
  1
ACMFCFSTANDARDANSI
  2
AcmFCFStdANSI
  3
"AcmSymBB|Product Description: AutoCAD Mechanical 2000|Company: Autodesk"
 90
        0
280
     0
281
     0
  0
CLASS
  1
ACMWELDSTANDARDANSI
  2
AcmWeldingStdANSI
  3
"AcmSymBB|Product Description: AutoCAD Mechanical 2000|Company: Autodesk"
 90
        0
280
     0
281
     0
  0
CLASS
  1
ACMIDSTANDARDANSI
  2
AcmIdStdANSI
  3
"AcmSymBB|Product Description: AutoCAD Mechanical 2000|Company: Autodesk"
 90
        0
280
     0
281
     0
  0
CLASS
  1
ACMDATUMSTANDARDANSI
  2
AcmDatumStdANSI
  3
"AcmSymBB|Product Description: AutoCAD Mechanical 2000|Company: Autodesk"
 90
        0
280
     0
281
     0
  0
CLASS
  1
ACMBOMSTANDARDANSI
  2
AcmBOMStdANSI
  3
"AcmSymBB|Product Description: AutoCAD Mechanical 2000|Company: Autodesk"
 90
        0
280
     0
281
     0
  0
CLASS
  1
ACMSTANDARDBSI
  2
AcmStandardBSI
  3
"AcmSymBB|Product Description: AutoCAD Mechanical 2000|Company: Autodesk"
 90
        0
280
     0
281
     0
  0
CLASS
  1
ACMSURFSTANDARDBSI
  2
AcmSurfTextStdBSI
  3
"AcmSymBB|Product Description: AutoCAD Mechanical 2000|Company: Autodesk"
 90
        0
280
     0
281
     0
  0
CLASS
  1
ACMFCFSTANDARDBSI
  2
AcmFCFStdBSI
  3
"AcmSymBB|Product Description: AutoCAD Mechanical 2000|Company: Autodesk"
 90
        0
280
     0
281
     0
  0
CLASS
  1
ACMWELDSTANDARDBSI
  2
AcmWeldingStdBSI
  3
"AcmSymBB|Product Description: AutoCAD Mechanical 2000|Company: Autodesk"
 90
        0
280
     0
281
     0
  0
CLASS
  1
ACMIDSTANDARDBSI
  2
AcmIdStdBSI
  3
"AcmSymBB|Product Description: AutoCAD Mechanical 2000|Company: Autodesk"
 90
        0
280
     0
281
     0
  0
CLASS
  1
ACMDATUMSTANDARDBSI
  2
AcmDatumStdBSI
  3
"AcmSymBB|Product Description: AutoCAD Mechanical 2000|Company: Autodesk"
 90
        0
280
     0
281
     0
  0
CLASS
  1
ACMBOMSTANDARDBSI
  2
AcmBOMStdBSI
  3
"AcmSymBB|Product Description: AutoCAD Mechanical 2000|Company: Autodesk"
 90
        0
280
     0
281
     0
  0
CLASS
  1
LONG_TRANSACTION
  2
AcDbLongTransaction
  3
AutoCAD 2000
 90
        0
280
     0
281
     0
  0
CLASS
  1
LWPOLYLINE
  2
AcDbPolyline
  3
AutoCAD 2000
 90
        0
280
     0
281
     1
  0
CLASS
  1
HATCH
  2
AcDbHatch
  3
AutoCAD 2000
 90
        0
280
     0
281
     1
  0
CLASS
  1
XRECORD
  2
AcDbXrecord
  3
AutoCAD 2000
 90
        0
280
     0
281
     0
  0
ENDSEC
  0
SECTION
  2
TABLES
  0
TABLE
  2
VPORT
  5
8
330
0
100
AcDbSymbolTable
 70
     3
  0
VPORT
  5
4407
330
8
100
AcDbSymbolTableRecord
100
AcDbViewportTableRecord
  2
*ACTIVE
 70
     0
 10
0.0
 20
0.0
 11
1.0
 21
1.0
 12
-102.7192282011349
 22
-13.67586077442652
 13
0.0
 23
0.0
 14
2.5
 24
2.5
 15
10.0
 25
10.0
 16
0.0
 26
0.0
 36
1.0
 17
0.0
 27
0.0
 37
0.0
 40
190.4628379282187
 41
1.56570841889117
 42
50.0
 43
0.0
 44
0.0
 50
0.0
 51
0.0
 71
     0
 72
   100
 73
     1
 74
     3
 75
     0
 76
     0
 77
     0
 78
     0
  0
ENDTAB
  0
TABLE
  2
LTYPE
  5
5
330
0
100
AcDbSymbolTable
 70
    10
  0
LTYPE
  5
14
330
5
100
AcDbSymbolTableRecord
100
AcDbLinetypeTableRecord
  2
BYBLOCK
 70
     0
  3

 72
    65
 73
     0
 40
0.0
  0
LTYPE
  5
15
330
5
100
AcDbSymbolTableRecord
100
AcDbLinetypeTableRecord
  2
BYLAYER
 70
     0
  3

 72
    65
 73
     0
 40
0.0
  0
LTYPE
  5
16
330
5
100
AcDbSymbolTableRecord
100
AcDbLinetypeTableRecord
  2
CONTINUOUS
 70
     0
  3
Solid line
 72
    65
 73
     0
 40
0.0
  0
LTYPE
  5
4B
330
5
100
AcDbSymbolTableRecord
100
AcDbLinetypeTableRecord
  2
AM_ISO02W050
 70
     0
  3
__ __ __ __ __ __ __ __ __ __ __ __ __ __ __
 72
    65
 73
     2
 40
7.5
 49
6.0
 74
     0
 49
-1.5
 74
     0
  0
LTYPE
  5
4C
330
5
100
AcDbSymbolTableRecord
100
AcDbLinetypeTableRecord
  2
AM_ISO08W050
 70
     0
  3
____ . ____ . ____ . ____ . ____ . ____ . ____
 72
    65
 73
     4
 40
18.0
 49
12.0
 74
     0
 49
-1.5
 74
     0
 49
3.0
 74
     0
 49
-1.5
 74
     0
  0
LTYPE
  5
4D
330
5
100
AcDbSymbolTableRecord
100
AcDbLinetypeTableRecord
  2
AM_ISO09W050
 70
     0
  3
_____ . . _____ . . _____ . . ____ .. ____
 72
    65
 73
     6
 40
22.5
 49
12.0
 74
     0
 49
-1.5
 74
     0
 49
3.0
 74
     0
 49
-1.5
 74
     0
 49
3.0
 74
     0
 49
-1.5
 74
     0
  0
LTYPE
  5
4E
330
5
100
AcDbSymbolTableRecord
100
AcDbLinetypeTableRecord
  2
AMCONSTR
 70
     0
  3
_______________________
 72
    65
 73
     2
 40
9999.0
 49
9999.0
 74
     0
 49
0.0
 74
     0
  0
LTYPE
  5
4F
330
5
100
AcDbSymbolTableRecord
100
AcDbLinetypeTableRecord
  2
AM_ISO02W050X2
 70
     0
  3
 _ _ _ _ _ _ _ _ _ _ _ _
 72
    65
 73
     2
 40
3.75
 49
3.0
 74
     0
 49
-0.75
 74
     0
  0
LTYPE
  5
50
330
5
100
AcDbSymbolTableRecord
100
AcDbLinetypeTableRecord
  2
AM_ISO08W050X2
 70
     0
  3
__ . __ . __ . __ . __ . __
 72
    65
 73
     4
 40
9.0
 49
6.0
 74
     0
 49
-0.75
 74
     0
 49
1.5
 74
     0
 49
-0.75
 74
     0
  0
LTYPE
  5
53
330
5
100
AcDbSymbolTableRecord
100
AcDbLinetypeTableRecord
  2
AMZIGZAG
 70
     0
  3
/\/-/\/-/\/-/\/-/\/-/\/
 72
    65
 73
     2
 40
11.00009999999999
 49
0.0001
 74
     4
 75
   135
340
52
 46
0.04
 50
0.0
 44
0.0
 45
0.0
 49
-11.0
 74
     0
  0
LTYPE
  5
166
330
5
100
AcDbSymbolTableRecord
100
AcDbLinetypeTableRecord
  2
ACJISTGL
 70
     0
  3
_ _ _ _ _
 72
    65
 73
     2
 40
3.0
 49
2.0
 74
     0
 49
-1.0
 74
     0
  0
LTYPE
  5
26A
330
5
100
AcDbSymbolTableRecord
100
AcDbLinetypeTableRecord
  2
ACJISTGB
 70
     0
  3
__ . . __ . .
 72
    65
 73
     6
 40
9.0
 49
4.0
 74
     0
 49
-1.0
 74
     0
 49
1.0
 74
     0
 49
-1.0
 74
     0
 49
1.0
 74
     0
 49
-1.0
 74
     0
  0
ENDTAB
  0
TABLE
  2
LAYER
  5
2
330
0
100
AcDbSymbolTable
 70
     7
  0
LAYER
  5
10
330
2
100
AcDbSymbolTableRecord
100
AcDbLayerTableRecord
  2
0
 70
     0
 62
     7
  6
CONTINUOUS
  0
LAYER
  5
3F9
330
2
100
AcDbSymbolTableRecord
100
AcDbLayerTableRecord
  2
AM_0
 70
     0
 62
     7
  6
CONTINUOUS
  0
LAYER
  5
CD5
330
2
100
AcDbSymbolTableRecord
100
AcDbLayerTableRecord
  2
AM_7
 70
     0
 62
     4
  6
AM_ISO08W050
  0
LAYER
  5
CDE
330
2
100
AcDbSymbolTableRecord
100
AcDbLayerTableRecord
  2
AM_11
 70
     0
 62
     3
  6
AM_ISO09W050
  0
LAYER
  5
CFB
330
2
100
AcDbSymbolTableRecord
100
AcDbLayerTableRecord
  2
AM_5
 70
     0
 62
     3
  6
CONTINUOUS
  0
LAYER
  5
CFD
330
2
100
AcDbSymbolTableRecord
100
AcDbLayerTableRecord
  2
DEFPOINTS
 70
     0
 62
     7
  6
CONTINUOUS
  0
LAYER
  5
113C
330
2
100
AcDbSymbolTableRecord
100
AcDbLayerTableRecord
  2
AM_6
 70
     0
 62
     2
  6
CONTINUOUS
  0
ENDTAB
  0
TABLE
  2
STYLE
  5
3
330
0
100
AcDbSymbolTable
 70
     5
  0
STYLE
  5
11
330
3
100
AcDbSymbolTableRecord
100
AcDbTextStyleTableRecord
  2
STANDARD
 70
     0
 40
0.0
 41
1.0
 50
0.0
 71
     0
 42
2.5
  3
simplex.shx
  4
EXTFONT.SHX
  0
STYLE
  5
52
330
3
100
AcDbSymbolTableRecord
100
AcDbTextStyleTableRecord
  2

 70
     1
 40
0.0
 41
1.0
 50
0.0
 71
     0
 42
2.5
  3
ltypeshp.shx
  4

  0
STYLE
  5
6B
330
3
100
AcDbSymbolTableRecord
100
AcDbTextStyleTableRecord
  2
ASAMI
 70
     0
 40
0.0
 41
1.0
 50
0.0
 71
     0
 42
2.5
  3
simplex.shx
  4
EXTFONT.SHX
  0
STYLE
  5
262
330
3
100
AcDbSymbolTableRecord
100
AcDbTextStyleTableRecord
  2
ACJISTS
 70
     0
 40
1.0
 41
1.0
 50
0.0
 71
     0
 42
2.5
  3
simplex.shx
  4
bigfont.shx
  0
STYLE
  5
269
330
3
100
AcDbSymbolTableRecord
100
AcDbTextStyleTableRecord
  2
ACJISGDT
 70
     0
 40
0.0
 41
1.0
 50
0.0
 71
     0
 42
2.5
  3
amgdtans.shx
  4

  0
ENDTAB
  0
TABLE
  2
VIEW
  5
6
330
0
100
AcDbSymbolTable
 70
     0
  0
ENDTAB
  0
TABLE
  2
UCS
  5
7
330
0
100
AcDbSymbolTable
 70
     0
  0
ENDTAB
  0
TABLE
  2
APPID
  5
9
330
0
100
AcDbSymbolTable
 70
    12
  0
APPID
  5
12
330
9
100
AcDbSymbolTableRecord
100
AcDbRegAppTableRecord
  2
ACAD
 70
     0
  0
APPID
  5
30
330
9
100
AcDbSymbolTableRecord
100
AcDbRegAppTableRecord
  2
MCAD_NO_VIS
 70
     0
  0
APPID
  5
31
330
9
100
AcDbSymbolTableRecord
100
AcDbRegAppTableRecord
  2
ACAD_TEMP_GRAPHIC
 70
     0
  0
APPID
  5
2C2
330
9
100
AcDbSymbolTableRecord
100
AcDbRegAppTableRecord
  2
GENIUS_GENDTOL_13
 70
     0
  0
APPID
  5
339
330
9
100
AcDbSymbolTableRecord
100
AcDbRegAppTableRecord
  2
GENIUS_GENODEF_13
 70
     0
  0
APPID
  5
33A
330
9
100
AcDbSymbolTableRecord
100
AcDbRegAppTableRecord
  2
GENIUS_GENOBJ-N-RSBK_13
 70
     0
  0
APPID
  5
33B
330
9
100
AcDbSymbolTableRecord
100
AcDbRegAppTableRecord
  2
GENIUS_GENOBJ-N-LIB_13
 70
     0
  0
APPID
  5
33C
330
9
100
AcDbSymbolTableRecord
100
AcDbRegAppTableRecord
  2
GENIUS_GENSCALE_13
 70
     0
  0
APPID
  5
378
330
9
100
AcDbSymbolTableRecord
100
AcDbRegAppTableRecord
  2
GENIUS_GENDIMSH_14
 70
     0
  0
APPID
  5
13A0
330
9
100
AcDbSymbolTableRecord
100
AcDbRegAppTableRecord
  2
GENIUS_GENOBJ-N-CEN_13
 70
     0
  0
APPID
  5
13D7
330
9
100
AcDbSymbolTableRecord
100
AcDbRegAppTableRecord
  2
GENIUS_GENREC_14
 70
     0
  0
APPID
  5
13D8
330
9
100
AcDbSymbolTableRecord
100
AcDbRegAppTableRecord
  2
GENIUS_GENOBJ-N-REC_13
 70
     0
  0
ENDTAB
  0
TABLE
  2
DIMSTYLE
  5
A
330
0
100
AcDbSymbolTable
 70
     9
  0
DIMSTYLE
105
58
330
A
100
AcDbSymbolTableRecord
100
AcDbDimStyleTableRecord
  2
AM_JIS
 70
     0
  3

  4
"
  5
OPEN30
  6

  7

 40
1.0
 41
2.5
 42
1.0
 43
12.0
 44
1.0
 45
0.0
 46
0.0
 47
0.1
 48
0.1
140
3.2
141
0.0
142
0.0
143
0.0393701
144
1.0
145
0.0
146
0.71
147
1.5
 71
     0
 72
     0
 73
     0
 74
     0
 75
     0
 76
     0
 77
     3
 78
     8
170
     0
171
     2
172
     1
173
     0
174
     0
175
     0
176
   256
177
   256
178
     2
270
     2
271
     3
272
     3
273
     2
274
     2
340
6B
275
     0
280
     0
281
     0
282
     0
283
     0
284
     0
285
     0
286
     0
287
     3
288
     0
  0
DIMSTYLE
105
5F
330
A
100
AcDbSymbolTableRecord
100
AcDbDimStyleTableRecord
  2
AM_JIS$3
 70
     0
  3

  4
"
  5
OPEN30
  6

  7

 40
1.0
 41
2.5
 42
1.0
 43
10.0
 44
1.0
 45
0.0
 46
0.0
 47
0.1
 48
0.1
140
3.2
141
0.0
142
0.0
143
0.0393701
144
1.0
145
0.0
146
0.71
147
1.5
 71
     0
 72
     0
 73
     0
 74
     1
 75
     0
 76
     0
 77
     3
 78
     8
170
     0
171
     2
172
     0
173
     0
174
     0
175
     0
176
   256
177
   256
178
     2
270
     2
271
     2
272
     3
273
     2
274
     2
340
6B
275
     0
280
     0
281
     0
282
     0
283
     0
284
     0
285
     0
286
     0
287
     0
288
     1
  0
DIMSTYLE
105
60
330
A
100
AcDbSymbolTableRecord
100
AcDbDimStyleTableRecord
  2
AM_JIS$4
 70
     0
  3

  4
"
  5
OPEN30
  6

  7

 40
1.0
 41
2.5
 42
1.0
 43
10.0
 44
1.0
 45
0.0
 46
0.0
 47
0.1
 48
0.1
140
3.2
141
0.0
142
0.0
143
0.0393701
144
1.0
145
0.0
146
0.71
147
1.5
 71
     0
 72
     0
 73
     0
 74
     1
 75
     0
 76
     0
 77
     3
 78
     8
170
     0
171
     2
172
     0
173
     0
174
     0
175
     0
176
   256
177
   256
178
     2
270
     2
271
     2
272
     3
273
     2
274
     2
340
6B
275
     0
280
     0
281
     0
282
     0
283
     0
284
     0
285
     0
286
     0
287
     0
288
     1
  0
DIMSTYLE
105
61
330
A
100
AcDbSymbolTableRecord
100
AcDbDimStyleTableRecord
  2
AM_JIS$6
 70
     0
  3

  4
"
  5
OPEN30
  6

  7

 40
1.0
 41
2.5
 42
1.0
 43
10.0
 44
1.0
 45
0.0
 46
0.0
 47
0.1
 48
0.1
140
3.2
141
0.0
142
0.0
143
0.0393701
144
1.0
145
0.0
146
0.71
147
1.5
 71
     0
 72
     0
 73
     0
 74
     0
 75
     0
 76
     0
 77
     0
 78
     8
170
     0
171
     2
172
     1
173
     0
174
     0
175
     0
176
   256
177
   256
178
     2
270
     2
271
     2
272
     2
273
     2
274
     2
340
6B
275
     0
280
     0
281
     0
282
     0
283
     0
284
     0
285
     0
286
     0
287
     3
288
     0
  0
DIMSTYLE
105
62
330
A
100
AcDbSymbolTableRecord
100
AcDbDimStyleTableRecord
  2
AM_JIS$7
 70
     0
  3

  4
"
  5
OPEN30
  6

  7

 40
1.0
 41
2.5
 42
1.0
 43
10.0
 44
1.0
 45
0.0
 46
0.0
 47
0.1
 48
0.1
140
3.2
141
0.0
142
0.0
143
0.0393701
144
1.0
145
0.0
146
0.71
147
1.5
 71
     0
 72
     0
 73
     0
 74
     0
 75
     0
 76
     0
 77
     3
 78
     8
170
     0
171
     2
172
     1
173
     0
174
     0
175
     0
176
   256
177
   256
178
     2
270
     2
271
     2
272
     3
273
     2
274
     2
340
6B
275
     0
280
     0
281
     0
282
     0
283
     0
284
     0
285
     0
286
     0
287
     3
288
     0
  0
DIMSTYLE
105
63
330
A
100
AcDbSymbolTableRecord
100
AcDbDimStyleTableRecord
  2
AM_JIS$SF
 70
     0
  3

  4
"
  5
OPEN30
  6

  7

 40
1.0
 41
2.5
 42
1.0
 43
10.0
 44
1.0
 45
0.0
 46
0.0
 47
0.1
 48
0.1
140
3.2
141
0.0
142
0.0
143
0.0393701
144
1.0
145
0.0
146
0.71
147
1.5
 71
     0
 72
     0
 73
     0
 74
     0
 75
     1
 76
     1
 77
     3
 78
     8
170
     0
171
     2
172
     1
173
     0
174
     0
175
     0
176
   256
177
   256
178
     2
270
     2
271
     2
272
     2
273
     2
274
     2
340
6B
275
     0
280
     0
281
     0
282
     0
283
     0
284
     0
285
     0
286
     0
287
     3
288
     0
  0
DIMSTYLE
105
68
330
A
100
AcDbSymbolTableRecord
100
AcDbDimStyleTableRecord
  2
AM_JIS$SH
 70
     0
  3

  4
"
  5

  6
GENAXEH
  7
OPEN30
 40
1.0
 41
2.5
 42
1.0
 43
10.0
 44
1.0
 45
0.0
 46
0.0
 47
0.1
 48
0.1
140
3.2
141
0.0
142
0.0
143
0.0393701
144
2.0
145
0.0
146
0.71
147
1.5
 71
     0
 72
     0
 73
     0
 74
     0
 75
     1
 76
     1
 77
     3
 78
     8
170
     0
171
     2
172
     1
173
     1
174
     0
175
     0
176
   256
177
   256
178
     2
270
     2
271
     2
272
     2
273
     2
274
     2
340
6B
275
     0
280
     0
281
     0
282
     0
283
     0
284
     0
285
     0
286
     0
287
     3
288
     0
  0
DIMSTYLE
105
B34
330
A
100
AcDbSymbolTableRecord
100
AcDbDimStyleTableRecord
  2
AM_JIS$2
 70
     0
  3

  4
"
  5
OPEN30
  6

  7

 40
1.0
 41
2.5
 42
1.0
 43
12.0
 44
1.0
 45
0.0
 46
0.0
 47
0.1
 48
0.1
140
3.2
141
0.0
142
0.0
143
0.0393701
144
1.0
145
0.0
146
0.71
147
1.5
 71
     0
 72
     0
 73
     0
 74
     0
 75
     0
 76
     0
 77
     3
 78
     8
170
     0
171
     2
172
     1
173
     0
174
     0
175
     0
176
   256
177
   256
178
     2
270
     2
271
     3
272
     3
273
     2
274
     2
340
6B
275
     0
280
     0
281
     0
282
     0
283
     0
284
     0
285
     0
286
     0
287
     3
288
     0
  0
DIMSTYLE
105
BA5
102
{ACAD_REACTORS
330
38E8
330
3983
330
3A0B
330
3AF5
330
3B7D
330
385C
102
}
330
A
100
AcDbSymbolTableRecord
100
AcDbDimStyleTableRecord
  2
AM_JIS$0
 70
     0
  3

  4
"
  5
OPEN30
  6

  7

 40
1.0
 41
2.5
 42
0.0
 43
10.0
 44
1.0
 45
0.0
 46
0.0
 47
0.1
 48
0.1000000001
140
3.799999999999999
141
0.0
142
0.0
143
0.0393701
144
1.0
145
0.0
146
0.71
147
1.5
 71
     0
 72
     0
 73
     0
 74
     0
 75
     0
 76
     0
 77
     3
 78
     1
170
     0
171
     2
172
     1
173
     0
174
     0
175
     0
176
     3
177
     3
178
     2
270
     2
271
     2
272
     2
273
     2
274
     2
340
11
275
     1
280
     0
281
     0
282
     0
283
     0
284
     8
285
     0
286
     0
287
     0
288
     0
  0
ENDTAB
  0
TABLE
  2
BLOCK_RECORD
  5
1
330
0
100
AcDbSymbolTable
 70
    11
  0
BLOCK_RECORD
  5
1F
102
{ACAD_XDICTIONARY
360
74
102
}
330
1
100
AcDbSymbolTableRecord
100
AcDbBlockTableRecord
  2
*MODEL_SPACE
  0
BLOCK_RECORD
  5
101
102
{ACAD_XDICTIONARY
360
4430
102
}
330
1
100
AcDbSymbolTableRecord
100
AcDbBlockTableRecord
  2
*PAPER_SPACE
  0
BLOCK_RECORD
  5
59
330
1
100
AcDbSymbolTableRecord
100
AcDbBlockTableRecord
  2
_OPEN30
  0
BLOCK_RECORD
  5
64
330
1
100
AcDbSymbolTableRecord
100
AcDbBlockTableRecord
  2
GENAXEH
  0
BLOCK_RECORD
  5
385D
330
1
100
AcDbSymbolTableRecord
100
AcDbBlockTableRecord
  2
*D5
  0
BLOCK_RECORD
  5
38E9
330
1
100
AcDbSymbolTableRecord
100
AcDbBlockTableRecord
  2
*D6
  0
BLOCK_RECORD
  5
3984
330
1
100
AcDbSymbolTableRecord
100
AcDbBlockTableRecord
  2
*D7
  0
BLOCK_RECORD
  5
3A0C
330
1
100
AcDbSymbolTableRecord
100
AcDbBlockTableRecord
  2
*D8
  0
BLOCK_RECORD
  5
3AF6
330
1
100
AcDbSymbolTableRecord
100
AcDbBlockTableRecord
  2
*D9
  0
BLOCK_RECORD
  5
3B7E
330
1
100
AcDbSymbolTableRecord
100
AcDbBlockTableRecord
  2
*D10
  0
ENDTAB
  0
ENDSEC
  0
SECTION
  2
BLOCKS
  0
BLOCK
  5
20
330
1F
100
AcDbEntity
  8
0
100
AcDbBlockBegin
  2
*MODEL_SPACE
 70
     0
 10
0.0
 20
0.0
 30
0.0
  3
*MODEL_SPACE
  1

  0
ENDBLK
  5
21
330
1F
100
AcDbEntity
  8
0
100
AcDbBlockEnd
  0
BLOCK
  5
103
330
101
100
AcDbEntity
 67
     1
  8
0
100
AcDbBlockBegin
  2
*PAPER_SPACE
 70
     0
 10
0.0
 20
0.0
 30
0.0
  3
*PAPER_SPACE
  1

  0
ENDBLK
  5
104
330
101
100
AcDbEntity
 67
     1
  8
0
100
AcDbBlockEnd
  0
BLOCK
  5
5D
330
59
100
AcDbEntity
  8
0
100
AcDbBlockBegin
  2
_OPEN30
 70
     0
 10
0.0
 20
0.0
 30
0.0
  3
_OPEN30
  1

  0
LINE
  5
5A
330
59
100
AcDbEntity
  8
0
 62
     0
100
AcDbLine
 10
-1.0
 20
0.26794919
 30
0.0
 11
0.0
 21
0.0
 31
0.0
  0
LINE
  5
5B
330
59
100
AcDbEntity
  8
0
 62
     0
100
AcDbLine
 10
0.0
 20
0.0
 30
0.0
 11
-1.0
 21
-0.26794919
 31
0.0
  0
LINE
  5
5C
330
59
100
AcDbEntity
  8
0
 62
     0
100
AcDbLine
 10
0.0
 20
0.0
 30
0.0
 11
-1.0
 21
0.0
 31
0.0
  0
ENDBLK
  5
5E
330
59
100
AcDbEntity
  8
0
100
AcDbBlockEnd
  0
BLOCK
  5
66
330
64
100
AcDbEntity
  8
0
100
AcDbBlockBegin
  2
GENAXEH
 70
     0
 10
0.0
 20
0.0
 30
0.0
  3
GENAXEH
  1

  0
LINE
  5
65
330
64
100
AcDbEntity
  8
0
100
AcDbLine
 10
-1.0
 20
0.0
 30
0.0
 11
1.0
 21
0.0
 31
0.0
  0
ENDBLK
  5
67
330
64
100
AcDbEntity
  8
0
100
AcDbBlockEnd
  0
BLOCK
  5
3867
330
385D
100
AcDbEntity
  8
0
100
AcDbBlockBegin
  2
*D5
 70
     1
 10
0.0
 20
0.0
 30
0.0
  3
*D5
  1

  0
LINE
  5
4388
330
385D
100
AcDbEntity
  8
AM_5
 62
     3
100
AcDbLine
 10
0.0000000000000032
 20
19.99999809265018
 30
0.0
 11
17.40704445703097
 21
19.99999809265018
 31
0.0
  0
LINE
  5
4389
330
385D
100
AcDbEntity
  8
AM_5
 62
     3
100
AcDbLine
 10
-0.0000000000000018
 20
-20.00000190734981
 30
0.0
 11
17.40704445703096
 21
-20.00000190734981
 31
0.0
  0
LINE
  5
438A
330
385D
100
AcDbEntity
  8
AM_5
 62
     3
100
AcDbLine
 10
16.40704445703097
 20
17.49999809265018
 30
0.0
 11
16.40704445703096
 21
-17.50000190734981
 31
0.0
  0
INSERT
  5
438B
330
385D
100
AcDbEntity
  8
AM_5
 62
     3
100
AcDbBlockReference
  2
_OPEN30
 10
16.40704445703097
 20
19.99999809265018
 30
0.0
 41
2.5
 42
2.5
 43
2.5
 50
90.0
  0
INSERT
  5
438C
330
385D
100
AcDbEntity
  8
AM_5
 62
     3
100
AcDbBlockReference
  2
_OPEN30
 10
16.40704445703096
 20
-20.00000190734981
 30
0.0
 41
2.5
 42
2.5
 43
2.5
 50
270.0
  0
MTEXT
  5
438D
330
385D
100
AcDbEntity
  8
AM_5
 62
     2
100
AcDbMText
 10
13.00704445703096
 20
-0.0000019073498129
 30
0.0
 40
3.799999999999999
 41
0.0
 71
     5
 72
     1
  1
%%c40
 11
0.0000000000000001
 21
1.0
 31
0.0
1001
ACAD
1000
MTEXTBEGIN
1070
    73
1070
     1
1070
    44
1040
1.0
1070
    74
1070
     0
1000
MTEXTEND
  0
POINT
  5
438E
330
385D
100
AcDbEntity
  8
DEFPOINTS
 62
     0
100
AcDbPoint
 10
0.0000000000000032
 20
19.99999809265018
 30
0.0
  0
POINT
  5
438F
330
385D
100
AcDbEntity
  8
DEFPOINTS
 62
     0
100
AcDbPoint
 10
-0.0000000000000018
 20
-20.00000190734981
 30
0.0
  0
POINT
  5
4390
330
385D
100
AcDbEntity
  8
DEFPOINTS
 62
     0
100
AcDbPoint
 10
16.40704445703096
 20
-20.00000190734981
 30
0.0
  0
ENDBLK
  5
3868
330
385D
100
AcDbEntity
  8
0
100
AcDbBlockEnd
  0
BLOCK
  5
38F3
330
38E9
100
AcDbEntity
  8
0
100
AcDbBlockBegin
  2
*D6
 70
     1
 10
0.0
 20
0.0
 30
0.0
  3
*D6
  1

  0
LINE
  5
43AE
330
38E9
100
AcDbEntity
  8
AM_5
 62
     3
100
AcDbLine
 10
-0.000000000000011
 20
19.9999980926502
 30
0.0
 11
-0.0000000000000101
 21
34.9999990926502
 31
0.0
  0
LINE
  5
43AF
330
38E9
100
AcDbEntity
  8
AM_5
 62
     3
100
AcDbLine
 10
-12.99999999999999
 20
19.9999980926502
 30
0.0
 11
-12.99999999999999
 21
34.9999990926502
 31
0.0
  0
LINE
  5
43B0
330
38E9
100
AcDbEntity
  8
AM_5
 62
     3
100
AcDbLine
 10
-2.50000000000001
 20
33.99999909265019
 30
0.0
 11
-10.49999999999999
 21
33.99999909265019
 31
0.0
  0
INSERT
  5
43B1
330
38E9
100
AcDbEntity
  8
AM_5
 62
     3
100
AcDbBlockReference
  2
_OPEN30
 10
-0.0000000000000101
 20
33.99999909265019
 30
0.0
 41
2.5
 42
2.5
 43
2.5
  0
INSERT
  5
43B2
330
38E9
100
AcDbEntity
  8
AM_5
 62
     3
100
AcDbBlockReference
  2
_OPEN30
 10
-12.99999999999999
 20
33.99999909265019
 30
0.0
 41
2.5
 42
2.5
 43
2.5
 50
180.0
  0
MTEXT
  5
43B3
330
38E9
100
AcDbEntity
  8
AM_5
 62
     2
100
AcDbMText
 10
-6.500000000000003
 20
37.39999909265019
 30
0.0
 40
3.799999999999999
 41
0.0
 71
     5
 72
     1
  1
13
1001
ACAD
1000
MTEXTBEGIN
1070
    73
1070
     1
1070
    44
1040
1.0
1070
    74
1070
     0
1000
MTEXTEND
  0
POINT
  5
43B4
330
38E9
100
AcDbEntity
  8
DEFPOINTS
 62
     0
100
AcDbPoint
 10
-0.000000000000011
 20
19.9999980926502
 30
0.0
  0
POINT
  5
43B5
330
38E9
100
AcDbEntity
  8
DEFPOINTS
 62
     0
100
AcDbPoint
 10
-12.99999999999999
 20
19.9999980926502
 30
0.0
  0
POINT
  5
43B6
330
38E9
100
AcDbEntity
  8
DEFPOINTS
 62
     0
100
AcDbPoint
 10
-12.99999999999999
 20
33.99999909265019
 30
0.0
  0
ENDBLK
  5
38F4
330
38E9
100
AcDbEntity
  8
0
100
AcDbBlockEnd
  0
BLOCK
  5
398E
330
3984
100
AcDbEntity
  8
0
100
AcDbBlockBegin
  2
*D7
 70
     1
 10
0.0
 20
0.0
 30
0.0
  3
*D7
  1

  0
LINE
  5
43B7
330
3984
100
AcDbEntity
  8
AM_5
 62
     3
100
AcDbLine
 10
-0.0000000000000005
 20
-20.00000190734979
 30
0.0
 11
-0.0000000000000014
 21
-35.00000290734987
 31
0.0
  0
LINE
  5
43B8
330
3984
100
AcDbEntity
  8
AM_5
 62
     3
100
AcDbLine
 10
-40.00446796417299
 20
-15.5000934600838
 30
0.0
 11
-40.00446796417299
 21
-35.00000290734987
 31
0.0
  0
LINE
  5
43B9
330
3984
100
AcDbEntity
  8
AM_5
 62
     3
100
AcDbLine
 10
-2.500000000000001
 20
-34.00000290734987
 30
0.0
 11
-37.50446796417299
 21
-34.00000290734987
 31
0.0
  0
INSERT
  5
43BA
330
3984
100
AcDbEntity
  8
AM_5
 62
     3
100
AcDbBlockReference
  2
_OPEN30
 10
-0.0000000000000013
 20
-34.00000290734987
 30
0.0
 41
2.5
 42
2.5
 43
2.5
  0
INSERT
  5
43BB
330
3984
100
AcDbEntity
  8
AM_5
 62
     3
100
AcDbBlockReference
  2
_OPEN30
 10
-40.00446796417299
 20
-34.00000290734987
 30
0.0
 41
2.5
 42
2.5
 43
2.5
 50
180.0
  0
MTEXT
  5
43BC
330
3984
100
AcDbEntity
  8
AM_5
 62
     2
100
AcDbMText
 10
-20.00223398208649
 20
-30.60000290734987
 30
0.0
 40
3.799999999999999
 41
0.0
 71
     5
 72
     1
  1
40
1001
ACAD
1000
MTEXTBEGIN
1070
    73
1070
     1
1070
    44
1040
1.0
1070
    74
1070
     0
1000
MTEXTEND
  0
POINT
  5
43BD
330
3984
100
AcDbEntity
  8
DEFPOINTS
 62
     0
100
AcDbPoint
 10
-0.0000000000000005
 20
-20.00000190734979
 30
0.0
  0
POINT
  5
43BE
330
3984
100
AcDbEntity
  8
DEFPOINTS
 62
     0
100
AcDbPoint
 10
-40.00446796417299
 20
-15.5000934600838
 30
0.0
  0
POINT
  5
43BF
330
3984
100
AcDbEntity
  8
DEFPOINTS
 62
     0
100
AcDbPoint
 10
-40.00446796417299
 20
-34.00000290734987
 30
0.0
  0
ENDBLK
  5
398F
330
3984
100
AcDbEntity
  8
0
100
AcDbBlockEnd
  0
BLOCK
  5
3A16
330
3A0C
100
AcDbEntity
  8
0
100
AcDbBlockBegin
  2
*D8
 70
     1
 10
0.0
 20
0.0
 30
0.0
  3
*D8
  1

  0
LINE
  5
436D
330
3A0C
100
AcDbEntity
  8
AM_5
 62
     3
100
AcDbLine
 10
-40.00446796417299
 20
-15.5000934600838
 30
0.0
 11
-40.00446796417299
 21
-35.00000290735019
 31
0.0
  0
LINE
  5
436E
330
3A0C
100
AcDbEntity
  8
AM_5
 62
     3
100
AcDbLine
 10
-200.0045166015619
 20
-13.6610126495368
 30
0.0
 11
-200.0045166015619
 21
-35.00000290735019
 31
0.0
  0
LINE
  5
436F
330
3A0C
100
AcDbEntity
  8
AM_5
 62
     3
100
AcDbLine
 10
-42.50446796417299
 20
-34.00000290735019
 30
0.0
 11
-197.5045166015619
 21
-34.00000290735019
 31
0.0
  0
INSERT
  5
4370
330
3A0C
100
AcDbEntity
  8
AM_5
 62
     3
100
AcDbBlockReference
  2
_OPEN30
 10
-40.00446796417299
 20
-34.00000290735019
 30
0.0
 41
2.5
 42
2.5
 43
2.5
  0
INSERT
  5
4371
330
3A0C
100
AcDbEntity
  8
AM_5
 62
     3
100
AcDbBlockReference
  2
_OPEN30
 10
-200.0045166015619
 20
-34.00000290735019
 30
0.0
 41
2.5
 42
2.5
 43
2.5
 50
180.0
  0
MTEXT
  5
4372
330
3A0C
100
AcDbEntity
  8
AM_5
 62
     2
100
AcDbMText
 10
-120.0044922828674
 20
-30.60000290735019
 30
0.0
 40
3.799999999999999
 41
0.0
 71
     5
 72
     1
  1
160
1001
ACAD
1000
MTEXTBEGIN
1070
    73
1070
     1
1070
    44
1040
1.0
1070
    74
1070
     0
1000
MTEXTEND
  0
POINT
  5
4373
330
3A0C
100
AcDbEntity
  8
DEFPOINTS
 62
     0
100
AcDbPoint
 10
-40.00446796417299
 20
-15.5000934600838
 30
0.0
  0
POINT
  5
4374
330
3A0C
100
AcDbEntity
  8
DEFPOINTS
 62
     0
100
AcDbPoint
 10
-200.0045166015619
 20
-13.6610126495368
 30
0.0
  0
POINT
  5
4375
330
3A0C
100
AcDbEntity
  8
DEFPOINTS
 62
     0
100
AcDbPoint
 10
-200.0045166015619
 20
-34.00000290735019
 30
0.0
  0
ENDBLK
  5
3A17
330
3A0C
100
AcDbEntity
  8
0
100
AcDbBlockEnd
  0
BLOCK
  5
3B00
330
3AF6
100
AcDbEntity
  8
0
100
AcDbBlockBegin
  2
*D9
 70
     1
 10
0.0
 20
0.0
 30
0.0
  3
*D9
  1

  0
LINE
  5
43C0
330
3AF6
100
AcDbEntity
  8
AM_5
 62
     3
100
AcDbLine
 10
-200.0045166015619
 20
-13.6610126495368
 30
0.0
 11
-200.0045166015619
 21
-45.0000029073498
 31
0.0
  0
LINE
  5
43C1
330
3AF6
100
AcDbEntity
  8
AM_5
 62
     3
100
AcDbLine
 10
-0.0000000000000005
 20
-20.00000190734979
 30
0.0
 11
-0.000000000000002
 21
-45.0000029073498
 31
0.0
  0
LINE
  5
43C2
330
3AF6
100
AcDbEntity
  8
AM_5
 62
     3
100
AcDbLine
 10
-197.5045166015619
 20
-44.00000290734979
 30
0.0
 11
-2.500000000000001
 21
-44.00000290734979
 31
0.0
  0
INSERT
  5
43C3
330
3AF6
100
AcDbEntity
  8
AM_5
 62
     3
100
AcDbBlockReference
  2
_OPEN30
 10
-200.0045166015619
 20
-44.00000290734979
 30
0.0
 41
2.5
 42
2.5
 43
2.5
 50
180.0
  0
INSERT
  5
43C4
330
3AF6
100
AcDbEntity
  8
AM_5
 62
     3
100
AcDbBlockReference
  2
_OPEN30
 10
-0.0000000000000019
 20
-44.00000290734979
 30
0.0
 41
2.5
 42
2.5
 43
2.5
  0
MTEXT
  5
43C5
330
3AF6
100
AcDbEntity
  8
AM_5
 62
     2
100
AcDbMText
 10
-100.0022583007809
 20
-40.60000290734979
 30
0.0
 40
3.799999999999999
 41
0.0
 71
     5
 72
     1
  1
200
1001
ACAD
1000
MTEXTBEGIN
1070
    73
1070
     1
1070
    44
1040
1.0
1070
    74
1070
     0
1000
MTEXTEND
  0
POINT
  5
43C6
330
3AF6
100
AcDbEntity
  8
DEFPOINTS
 62
     0
100
AcDbPoint
 10
-200.0045166015619
 20
-13.6610126495368
 30
0.0
  0
POINT
  5
43C7
330
3AF6
100
AcDbEntity
  8
DEFPOINTS
 62
     0
100
AcDbPoint
 10
-0.0000000000000005
 20
-20.00000190734979
 30
0.0
  0
POINT
  5
43C8
330
3AF6
100
AcDbEntity
  8
DEFPOINTS
 62
     0
100
AcDbPoint
 10
-0.0000000000000019
 20
-44.00000290734979
 30
0.0
  0
ENDBLK
  5
3B01
330
3AF6
100
AcDbEntity
  8
0
100
AcDbBlockEnd
  0
BLOCK
  5
3B88
330
3B7E
100
AcDbEntity
  8
0
100
AcDbBlockBegin
  2
*D10
 70
     1
 10
0.0
 20
0.0
 30
0.0
  3
*D10
  1

  0
LINE
  5
4376
330
3B7E
100
AcDbEntity
  8
AM_5
 62
     3
100
AcDbLine
 10
-197.0045166015619
 20
-16.0000400543228
 30
0.0
 11
-219.3435666217319
 21
-16.00004005432279
 31
0.0
  0
LINE
  5
4377
330
3B7E
100
AcDbEntity
  8
AM_5
 62
     3
100
AcDbLine
 10
-197.0045471191399
 20
15.9999809265122
 30
0.0
 11
-219.3435666217319
 21
15.9999809265122
 31
0.0
  0
LINE
  5
4378
330
3B7E
100
AcDbEntity
  8
AM_5
 62
     3
100
AcDbLine
 10
-218.3435666217319
 20
-13.50004005432279
 30
0.0
 11
-218.3435666217319
 21
13.4999809265122
 31
0.0
  0
INSERT
  5
4379
330
3B7E
100
AcDbEntity
  8
AM_5
 62
     3
100
AcDbBlockReference
  2
_OPEN30
 10
-218.3435666217319
 20
-16.00004005432279
 30
0.0
 41
2.5
 42
2.5
 43
2.5
 50
270.0
  0
INSERT
  5
437A
330
3B7E
100
AcDbEntity
  8
AM_5
 62
     3
100
AcDbBlockReference
  2
_OPEN30
 10
-218.3435666217319
 20
15.9999809265122
 30
0.0
 41
2.5
 42
2.5
 43
2.5
 50
90.0
  0
MTEXT
  5
437B
330
3B7E
100
AcDbEntity
  8
AM_5
 62
     2
100
AcDbMText
 10
-221.7435666217319
 20
-0.0000295639053296
 30
0.0
 40
3.799999999999999
 41
0.0
 71
     5
 72
     1
  1
%%c32
 11
0.0000000000000001
 21
1.0
 31
0.0
1001
ACAD
1000
MTEXTBEGIN
1070
    73
1070
     1
1070
    44
1040
1.0
1070
    74
1070
     0
1000
MTEXTEND
  0
POINT
  5
437C
330
3B7E
100
AcDbEntity
  8
DEFPOINTS
 62
     0
100
AcDbPoint
 10
-197.0045166015619
 20
-16.0000400543228
 30
0.0
  0
POINT
  5
437D
330
3B7E
100
AcDbEntity
  8
DEFPOINTS
 62
     0
100
AcDbPoint
 10
-197.0045471191399
 20
15.9999809265122
 30
0.0
  0
POINT
  5
437E
330
3B7E
100
AcDbEntity
  8
DEFPOINTS
 62
     0
100
AcDbPoint
 10
-218.3435666217319
 20
15.9999809265122
 30
0.0
  0
ENDBLK
  5
3B89
330
3B7E
100
AcDbEntity
  8
0
100
AcDbBlockEnd
  0
ENDSEC
  0
SECTION
  2
ENTITIES
  0
TEXT
  5
1142
330
1F
100
AcDbEntity
  8
AM_6
100
AcDbText
 10
-126.6689249674476
 20
-66.50000290734979
 30
0.0
 40
5.0
  1
WEM3040EL-C
 72
     4
 11
-100.0022583007809
 21
-64.00000290734979
 31
0.0
100
AcDbText
  0
DIMENSION
  5
385C
330
1F
100
AcDbEntity
  8
AM_5
100
AcDbDimension
  2
*D5
 10
16.40704445703096
 20
-20.00000190734981
 30
0.0
 11
13.00704445703096
 21
-0.0000019073498129
 31
0.0
 70
    32
  1
%%c<>
  3
AM_JIS$0
100
AcDbAlignedDimension
 13
0.0000000000000032
 23
19.99999809265018
 33
0.0
 14
-0.0000000000000018
 24
-20.00000190734981
 34
0.0
 50
90.00000000000003
100
AcDbRotatedDimension
1001
ACAD
1000
DSTYLE
1002
{
1070
   271
1070
     0
1002
}
1001
GENIUS_GENDTOL_13
1000

1000
h7
1000

1040
0.0
  0
DIMENSION
  5
38E8
330
1F
100
AcDbEntity
  8
AM_5
100
AcDbDimension
  2
*D6
 10
-12.99999999999999
 20
33.99999909265019
 30
0.0
 11
-6.500000000000003
 21
37.39999909265019
 31
0.0
 70
    32
  1
<>
  3
AM_JIS$0
100
AcDbAlignedDimension
 13
-0.000000000000011
 23
19.9999980926502
 33
0.0
 14
-12.99999999999999
 24
19.9999980926502
 34
0.0
 50
180.0
100
AcDbRotatedDimension
1001
ACAD
1000
DSTYLE
1002
{
1070
   271
1070
     0
1002
}
1001
GENIUS_GENDTOL_13
1000

1000
h7
1000

1040
0.0
  0
DIMENSION
  5
3983
330
1F
100
AcDbEntity
  8
AM_5
100
AcDbDimension
  2
*D7
 10
-40.00446796417299
 20
-34.00000290734987
 30
0.0
 11
-20.00223398208649
 21
-30.60000290734987
 31
0.0
 70
    32
  1
<>
  3
AM_JIS$0
100
AcDbAlignedDimension
 13
-0.0000000000000005
 23
-20.00000190734979
 33
0.0
 14
-40.00446796417299
 24
-15.5000934600838
 34
0.0
 50
0.0000000000001132
100
AcDbRotatedDimension
1001
ACAD
1000
DSTYLE
1002
{
1070
   271
1070
     0
1002
}
1001
GENIUS_GENDTOL_13
1000

1000
h7
1000

1040
0.0
  0
DIMENSION
  5
3A0B
330
1F
100
AcDbEntity
  8
AM_5
100
AcDbDimension
  2
*D8
 10
-200.0045166015619
 20
-34.00000290735019
 30
0.0
 11
-120.0044922828674
 21
-30.60000290735019
 31
0.0
 70
    32
  1
<>
  3
AM_JIS$0
100
AcDbAlignedDimension
 13
-40.00446796417299
 23
-15.5000934600838
 33
0.0
 14
-200.0045166015619
 24
-13.6610126495368
 34
0.0
 50
0.0000000000001132
100
AcDbRotatedDimension
1001
ACAD
1000
DSTYLE
1002
{
1070
   271
1070
     0
1002
}
1001
GENIUS_GENDTOL_13
1000

1000
h7
1000

1040
0.0
  0
DIMENSION
  5
3AF5
330
1F
100
AcDbEntity
  8
AM_5
100
AcDbDimension
  2
*D9
 10
-0.0000000000000019
 20
-44.00000290734979
 30
0.0
 11
-100.0022583007809
 21
-40.60000290734979
 31
0.0
 70
    32
  1
<>
  3
AM_JIS$0
100
AcDbAlignedDimension
 13
-200.0045166015619
 23
-13.6610126495368
 33
0.0
 14
-0.0000000000000005
 24
-20.00000190734979
 34
0.0
 50
0.0000000000001132
100
AcDbRotatedDimension
1001
ACAD
1000
DSTYLE
1002
{
1070
   271
1070
     0
1002
}
1001
GENIUS_GENDTOL_13
1000

1000
h7
1000

1040
0.0
  0
DIMENSION
  5
3B7D
330
1F
100
AcDbEntity
  8
AM_5
100
AcDbDimension
  2
*D10
 10
-218.3435666217319
 20
15.9999809265122
 30
0.0
 11
-221.7435666217319
 21
-0.0000295639053296
 31
0.0
 70
    32
  1
%%c<>
  3
AM_JIS$0
100
AcDbAlignedDimension
 13
-197.0045166015619
 23
-16.0000400543228
 33
0.0
 14
-197.0045471191399
 24
15.9999809265122
 34
0.0
 50
270.0
100
AcDbRotatedDimension
1001
ACAD
1000
DSTYLE
1002
{
1070
   271
1070
     0
1002
}
1001
GENIUS_GENDTOL_13
1000

1000
h7
1000

1040
0.0
  0
LINE
  5
41E8
330
1F
100
AcDbEntity
  8
AM_7
  6
AM_ISO08W050X2
100
AcDbLine
 10
-204.3435656217319
 20
-0.0000019073497823
 30
0.0
 11
2.407043457030987
 21
-0.0000019073497984
 31
0.0
  0
LINE
  5
41E9
330
1F
100
AcDbEntity
  8
AM_0
100
AcDbLine
 10
-40.8705139160155
 20
15.9999980926502
 30
0.0
 11
-197.004516601562
 21
15.99999809265021
 31
0.0
  0
LINE
  5
41EA
330
1F
100
AcDbEntity
  8
AM_0
100
AcDbLine
 10
-197.004516601562
 20
-16.00000190734978
 30
0.0
 11
-40.8705139160155
 21
-16.00000190734979
 31
0.0
  0
SPLINE
  5
41EB
330
1F
100
AcDbEntity
  8
AM_0
100
AcDbSpline
210
0.0
220
0.0
230
1.0
 70
     8
 71
     3
 72
     9
 73
     5
 74
     3
 42
0.0000000001
 43
0.0000000001
 44
0.0000000001
 40
0.0
 40
0.0
 40
0.0
 40
0.0
 40
0.5963957910332343
 40
2.525125104904355
 40
2.525125104904355
 40
2.525125104904355
 40
2.525125104904355
 10
-2.878509521485011
 20
18.2709941864002
 30
0.0
 10
-2.715184009014561
 20
18.38433288128155
 30
0.0
 10
-2.023667807842173
 20
18.86420612670833
 30
0.0
 10
-1.331906067398326
 20
19.34372538102566
 30
0.0
 10
-0.803527832032007
 20
19.70998954772819
 30
0.0
 11
-2.878509521485011
 21
18.2709941864002
 31
0.0
 11
-2.388519287110011
 21
18.61099052429119
 31
0.0
 11
-0.803527832032007
 21
19.70998954772819
 31
0.0
  0
SPLINE
  5
41EC
330
1F
100
AcDbEntity
  8
AM_0
100
AcDbSpline
210
0.0
220
0.0
230
1.0
 70
     8
 71
     3
 72
     9
 73
     5
 74
     3
 42
0.0000000001
 43
0.0000000001
 44
0.0000000001
 40
0.0
 40
0.0
 40
0.0
 40
0.0
 40
0.0180030433311462
 40
2.638133073945778
 40
2.638133073945778
 40
2.638133073945778
 40
2.638133073945778
 10
-14.29852294921901
 20
12.2309856414782
 30
0.0
 10
-14.30351750907573
 20
12.22765899627731
 30
0.0
 10
-15.03541118424305
 20
11.74017848710422
 30
0.0
 10
-15.77699558112472
 20
11.26746216025767
 30
0.0
 10
-16.51351928711001
 20
10.7979717254632
 30
0.0
 11
-14.29852294921901
 21
12.2309856414782
 31
0.0
 11
-14.313507080078
 21
12.2210063934312
 31
0.0
 11
-16.51351928711001
 21
10.7979717254632
 31
0.0
  0
SPLINE
  5
41ED
330
1F
100
AcDbEntity
  8
AM_0
100
AcDbSpline
210
0.0
220
0.0
230
1.0
 70
     8
 71
     3
 72
    11
 73
     7
 74
     5
 42
0.0000000001
 43
0.0000000001
 44
0.0000000001
 40
0.0
 40
0.0
 40
0.0
 40
0.0
 40
0.115615557755694
 40
0.2300785967965851
 40
0.3444243417268046
 40
0.4606066895229843
 40
0.4606066895229843
 40
0.4606066895229843
 40
0.4606066895229843
 10
-1.32452392578201
 20
-11.5850238800058
 30
0.0
 10
-1.29367024924984
 20
-11.6081261612189
 30
0.0
 10
-1.232270462401623
 20
-11.65410042755026
 30
0.0
 10
-1.14361963810675
 20
-11.72707597039029
 30
0.0
 10
-1.05442963474276
 20
-11.79969773659342
 30
0.0
 10
-0.9972988369925609
 20
-11.85110676636233
 30
0.0
 10
-0.9685058593750149
 20
-11.87701606750579
 30
0.0
 11
-1.32452392578201
 21
-11.5850238800058
 31
0.0
 11
-1.232513427735015
 21
-11.65503120422479
 31
0.0
 11
-1.14352416992201
 21
-11.7270221710218
 31
0.0
 11
-1.055511474610015
 21
-11.8000202178968
 31
0.0
 11
-0.9685058593750149
 21
-11.87701606750579
 31
0.0
  0
SPLINE
  5
41EE
330
1F
100
AcDbEntity
  8
AM_0
100
AcDbSpline
210
0.0
220
0.0
230
1.0
 70
     8
 71
     3
 72
    11
 73
     7
 74
     5
 42
0.0000000001
 43
0.0000000001
 44
0.0000000001
 40
0.0
 40
0.0
 40
0.0
 40
0.0
 40
0.7404468905685249
 40
1.481035616079134
 40
2.222651532757792
 40
2.964696469852102
 40
2.964696469852102
 40
2.964696469852102
 40
2.964696469852102
 10
-12.59951782226601
 20
-19.89599800109979
 30
0.0
 10
-12.84686327555051
 20
-19.89524378275389
 30
0.0
 10
-13.34160156192283
 20
-19.89373520158919
 30
0.0
 10
-14.07179063927348
 20
-19.74894358168258
 30
0.0
 10
-14.77877197101676
 20
-19.51388597700216
 30
0.0
 10
-15.20988683065751
 20
-19.26934262916648
 30
0.0
 10
-15.42550659179701
 20
-19.14703559875579
 30
0.0
 11
-12.59951782226601
 21
-19.89599800109979
 31
0.0
 11
-13.33950805664101
 21
-19.8699970245368
 31
0.0
 11
-14.06750488281301
 21
-19.7340106964118
 31
0.0
 11
-14.76852416992201
 21
-19.49200630188079
 31
0.0
 11
-15.42550659179701
 21
-19.14703559875579
 31
0.0
  0
SPLINE
  5
41EF
330
1F
100
AcDbEntity
  8
AM_0
100
AcDbSpline
210
0.0
220
0.0
230
1.0
 70
     8
 71
     3
 72
    11
 73
     7
 74
     5
 42
0.0000000001
 43
0.0000000001
 44
0.0000000001
 40
0.0
 40
0.0
 40
0.0
 40
0.0
 40
0.3130686250663547
 40
0.6242649883510597
 40
0.9357321465088862
 40
1.247727682223911
 40
1.247727682223911
 40
1.247727682223911
 40
1.247727682223911
 10
-12.81451416015701
 20
-18.94500923156879
 30
0.0
 10
-12.71205754762648
 20
-18.96500958760796
 30
0.0
 10
-12.50775704956696
 20
-19.00489069044018
 30
0.0
 10
-12.19768537933894
 20
-19.0410041663183
 30
0.0
 10
-11.88637469964281
 20
-19.0592466379786
 30
0.0
 10
-11.67853289825821
 20
-19.05441948329566
 30
0.0
 10
-11.57452392578201
 20
-19.05200386047479
 30
0.0
 11
-12.81451416015701
 21
-18.94500923156879
 31
0.0
 11
-12.50650024414101
 21
-19.0010395050058
 31
0.0
 11
-12.19750976562501
 21
-19.03802680969379
 31
0.0
 11
-11.88650512695301
 21
-19.05499458313079
 31
0.0
 11
-11.57452392578201
 21
-19.05200386047479
 31
0.0
  0
SPLINE
  5
41F0
330
1F
100
AcDbEntity
  8
AM_0
100
AcDbSpline
210
0.0
220
0.0
230
1.0
 70
     8
 71
     3
 72
    11
 73
     7
 74
     5
 42
0.0000000001
 43
0.0000000001
 44
0.0000000001
 40
0.0
 40
0.0
 40
0.0
 40
0.0
 40
0.3106990417411669
 40
0.6221130430809119
 40
0.9340721650208056
 40
1.246799481513909
 40
1.246799481513909
 40
1.246799481513909
 40
1.246799481513909
 10
-1.89151000976601
 20
-18.6719989776618
 30
0.0
 10
-1.787766442402875
 20
-18.65573079766389
 30
0.0
 10
-1.580040580003482
 20
-18.62315700243372
 30
0.0
 10
-1.32370407318559
 20
-18.42861305221051
 30
0.0
 10
-1.149070512886627
 20
-18.15717377185124
 30
0.0
 10
-1.134046915214314
 20
-17.94648117237598
 30
0.0
 10
-1.126525878907011
 20
-17.84100532531879
 30
0.0
 11
-1.89151000976601
 21
-18.6719989776618
 31
0.0
 11
-1.58950805664101
 21
-18.5990009307868
 31
0.0
 11
-1.337524414063013
 21
-18.41601753234979
 31
0.0
 11
-1.174530029297011
 21
-18.1500263214118
 31
0.0
 11
-1.126525878907011
 21
-17.84100532531879
 31
0.0
  0
SPLINE
  5
41F1
330
1F
100
AcDbEntity
  8
AM_0
100
AcDbSpline
210
0.0
220
0.0
230
1.0
 70
     8
 71
     3
 72
    11
 73
     7
 74
     5
 42
0.0000000001
 43
0.0000000001
 44
0.0000000001
 40
0.0
 40
0.0
 40
0.0
 40
0.0
 40
1.816873681262876
 40
3.615344894224056
 40
5.395505697811893
 40
7.158524316938153
 40
7.158524316938153
 40
7.158524316938153
 40
7.158524316938153
 10
-0.8015136718750158
 20
-19.71100044250579
 30
0.0
 10
-1.406821457658216
 20
-19.73068175138207
 30
0.0
 10
-2.611306081621864
 20
-19.76984502414631
 30
0.0
 10
-4.409376431907128
 20
-19.81048348054426
 30
0.0
 10
-6.189788438867866
 20
-19.83531745848075
 30
0.0
 10
-7.370851913584343
 20
-19.83846340148044
 30
0.0
 10
-7.958526611328013
 20
-19.84002876281879
 30
0.0
 11
-0.8015136718750158
 21
-19.71100044250579
 31
0.0
 11
-2.617523193360015
 21
-19.76703071594379
 31
0.0
 11
-4.415527343750015
 21
-19.8080158233658
 31
0.0
 11
-6.195526123047011
 21
-19.83203315734979
 31
0.0
 11
-7.958526611328013
 21
-19.84002876281879
 31
0.0
  0
SPLINE
  5
41F2
330
1F
100
AcDbEntity
  8
AM_0
100
AcDbSpline
210
0.0
220
0.0
230
1.0
 70
     8
 71
     3
 72
    11
 73
     7
 74
     5
 42
0.0000000001
 43
0.0000000001
 44
0.0000000001
 40
0.0
 40
0.0
 40
0.0
 40
0.0
 40
0.1212141645769927
 40
0.2404276569343291
 40
0.3565465604761574
 40
0.471087613671978
 40
0.471087613671978
 40
0.471087613671978
 40
0.471087613671978
 10
-9.508514404297008
 20
14.1979961395252
 30
0.0
 10
-9.526673611990254
 20
14.23410999837094
 30
0.0
 10
-9.562692304794905
 20
14.30574164715919
 30
0.0
 10
-9.607538583475466
 20
14.41586186610645
 30
0.0
 10
-9.649144737038989
 20
14.52492128990265
 30
0.0
 10
-9.669430764838443
 20
14.59913259353455
 30
0.0
 10
-9.679504394532008
 20
14.6359844207752
 30
0.0
 11
-9.508514404297008
 21
14.1979961395252
 31
0.0
 11
-9.561523437500012
 21
14.3070049285882
 31
0.0
 11
-9.607513427735012
 21
14.4169902801502
 31
0.0
 11
-9.647521972657008
 21
14.5259990692132
 31
0.0
 11
-9.679504394532008
 21
14.6359844207752
 31
0.0
  0
SPLINE
  5
41F3
330
1F
100
AcDbEntity
  8
AM_0
100
AcDbSpline
210
0.0
220
0.0
230
1.0
 70
     8
 71
     3
 72
    11
 73
     7
 74
     5
 42
0.0000000001
 43
0.0000000001
 44
0.0000000001
 40
0.0
 40
0.0
 40
0.0
 40
0.0
 40
0.1960247523478678
 40
0.392128783618725
 40
0.5870794223905023
 40
0.78258687056957
 40
0.78258687056957
 40
0.78258687056957
 40
0.78258687056957
 10
-15.71151733398501
 20
10.3449687957752
 30
0.0
 10
-15.64612007476874
 20
10.34427436832336
 30
0.0
 10
-15.51529910751168
 20
10.34288523257016
 30
0.0
 10
-15.32050187856552
 20
10.36535350313139
 30
0.0
 10
-15.12830356393141
 20
10.40319892059628
 30
0.0
 10
-15.00449662779242
 20
10.44370528592256
 30
0.0
 10
-14.942504882813
 20
10.4639873504632
 30
0.0
 11
-15.71151733398501
 21
10.3449687957752
 31
0.0
 11
-15.515502929688
 21
10.3469829559312
 31
0.0
 11
-15.320526123047
 21
10.3679790496812
 31
0.0
 11
-15.12951660156301
 21
10.4069805145252
 31
0.0
 11
-14.942504882813
 21
10.4639873504632
 31
0.0
  0
SPLINE
  5
41F4
330
1F
100
AcDbEntity
  8
AM_0
100
AcDbSpline
210
0.0
220
0.0
230
1.0
 70
     8
 71
     3
 72
    11
 73
     7
 74
     5
 42
0.0000000001
 43
0.0000000001
 44
0.0000000001
 40
0.0
 40
0.0
 40
0.0
 40
0.0
 40
0.4221326098875532
 40
0.8381625912446358
 40
1.25437638666942
 40
1.678912719726354
 40
1.678912719726354
 40
1.678912719726354
 40
1.678912719726354
 10
-17.16650390625001
 20
11.0819683074942
 30
0.0
 10
-17.07126533161254
 20
10.97764927758463
 30
0.0
 10
-16.88216501423632
 20
10.77051932273838
 30
0.0
 10
-16.52665871096888
 20
10.54299484263249
 30
0.0
 10
-16.13298578005355
 20
10.38732559608228
 30
0.0
 10
-15.85293089844815
 20
10.35918059778921
 30
0.0
 10
-15.71151733398501
 20
10.3449687957752
 30
0.0
 11
-17.16650390625001
 21
11.0819683074942
 31
0.0
 11
-16.86849975586001
 21
10.7829875946032
 31
0.0
 11
-16.52050781250001
 21
10.5549907684312
 31
0.0
 11
-16.13150024414101
 21
10.4069805145252
 31
0.0
 11
-15.71151733398501
 21
10.3449687957752
 31
0.0
  0
ELLIPSE
  5
41F5
330
1F
100
AcDbEntity
  8
AM_0
100
AcDbEllipse
 10
-18.40951538086001
 20
-0.0000019073497958
 30
0.0
 11
-2.687041505117997
 21
-19.235230035152
 31
0.0
210
0.0
220
0.0
230
1.0
 40
0.2743791346991
 41
3.081244384288265
 42
3.175878413397025
  0
SPLINE
  5
41F6
330
1F
100
AcDbEntity
  8
AM_0
100
AcDbSpline
210
0.0
220
0.0
230
1.0
 70
     8
 71
     3
 72
    11
 73
     7
 74
     5
 42
0.0000000001
 43
0.0000000001
 44
0.0000000001
 40
0.0
 40
0.0
 40
0.0
 40
0.0
 40
0.1612474265091694
 40
0.4836910345711433
 40
0.8654191758033761
 40
1.260324175264949
 40
1.260324175264949
 40
1.260324175264949
 40
1.260324175264949
 10
-27.560516357422
 20
15.5780010223382
 30
0.0
 10
-27.50715558378128
 20
15.58446995359465
 30
0.0
 10
-27.34709022108646
 20
15.60387469151663
 30
0.0
 10
-27.06196790417442
 20
15.64796699105118
 30
0.0
 10
-26.69995801191534
 20
15.70426619876121
 30
0.0
 10
-26.44510814646521
 20
15.74981634121797
 30
0.0
 10
-26.315521240235
 20
15.7729778289782
 30
0.0
 11
-27.560516357422
 21
15.5780010223382
 31
0.0
 11
-27.40051269531301
 21
15.5979900360092
 31
0.0
 11
-27.081512451172
 21
15.6449871063222
 31
0.0
 11
-26.70452880859401
 21
15.7049846649162
 31
0.0
 11
-26.315521240235
 21
15.7729778289782
 31
0.0
  0
ELLIPSE
  5
41F7
330
1F
100
AcDbEntity
  8
AM_0
100
AcDbEllipse
 10
-15.70451354980501
 20
-0.0010089874278004
 30
0.0
 11
-244.7949981689429
 21
0.00000000000003
 31
0.0
210
0.0
220
0.0
230
1.0
 40
0.0786453309364
 41
4.713221896086094
 42
4.727892725663688
  0
SPLINE
  5
41F8
330
1F
100
AcDbEntity
  8
AM_0
100
AcDbSpline
210
0.0
220
0.0
230
1.0
 70
     8
 71
     3
 72
    11
 73
     7
 74
     5
 42
0.0000000001
 43
0.0000000001
 44
0.0000000001
 40
0.0
 40
0.0
 40
0.0
 40
0.0
 40
0.1957394915421204
 40
0.3904296454368317
 40
0.5865165791116985
 40
0.7812682429590011
 40
0.7812682429590011
 40
0.7812682429590011
 40
0.7812682429590011
 10
-20.004516601563
 20
18.7459697723382
 30
0.0
 10
-19.99705592514154
 20
18.81172025159915
 30
0.0
 10
-19.98217456815527
 20
18.94286872911335
 30
0.0
 10
-19.86650791466438
 20
19.10859700951917
 30
0.0
 10
-19.70115680995083
 20
19.22437343672921
 30
0.0
 10
-19.5699138772507
 20
19.23945956071231
 30
0.0
 10
-19.504516601563
 20
19.2469768524162
 30
0.0
 11
-20.004516601563
 21
18.7459697723382
 31
0.0
 11
-19.966522216797
 21
18.9379863739002
 31
0.0
 11
-19.858520507813
 21
19.0999736785882
 31
0.0
 11
-19.695526123047
 21
19.2089824676502
 31
0.0
 11
-19.504516601563
 21
19.2469768524162
 31
0.0
  0
SPLINE
  5
41F9
330
1F
100
AcDbEntity
  8
AM_0
100
AcDbSpline
210
0.0
220
0.0
230
1.0
 70
     8
 71
     3
 72
    11
 73
     7
 74
     5
 42
0.0000000001
 43
0.0000000001
 44
0.0000000001
 40
0.0
 40
0.0
 40
0.0
 40
0.0
 40
0.3483700469933834
 40
0.6960296535891049
 40
1.043798431002804
 40
1.390834587937663
 40
1.390834587937663
 40
1.390834587937663
 40
1.390834587937663
 10
-20.004516601563
 20
17.7459697723382
 30
0.0
 10
-20.01655652954762
 20
17.62915747137324
 30
0.0
 10
-20.04061183216821
 20
17.39577108790749
 30
0.0
 10
-20.22565596000301
 20
17.0903714476171
 30
0.0
 10
-20.49362773215452
 20
16.85484541469107
 30
0.0
 10
-20.71896341144235
 20
16.79090617224048
 30
0.0
 10
-20.831512451172
 20
16.7589702606192
 30
0.0
 11
-20.004516601563
 21
17.7459697723382
 31
0.0
 11
-20.065521240235
 21
17.4029827117912
 31
0.0
 11
-20.239501953125
 21
17.1019878387442
 31
0.0
 11
-20.50552368164101
 21
16.8779888153062
 31
0.0
 11
-20.831512451172
 21
16.7589702606192
 31
0.0
  0
SPLINE
  5
41FA
330
1F
100
AcDbEntity
  8
AM_0
100
AcDbSpline
210
0.0
220
0.0
230
1.0
 70
     8
 71
     3
 72
    11
 73
     7
 74
     5
 42
0.0000000001
 43
0.0000000001
 44
0.0000000001
 40
0.0
 40
0.0
 40
0.0
 40
0.0
 40
0.1612474265092927
 40
0.4836910345712671
 40
0.865578757221362
 40
1.260483756682936
 40
1.260483756682936
 40
1.260483756682936
 40
1.260483756682936
 10
-27.56051635742201
 20
-15.57702827453679
 30
0.0
 10
-27.5071568135666
 20
-15.58350486892698
 30
0.0
 10
-27.34709513983693
 20
-15.60293259381477
 30
0.0
 10
-27.06186744122556
 20
-15.64670397651627
 30
0.0
 10
-26.70006753997977
 20
-15.70464733776435
 30
0.0
 10
-26.44512741211503
 20
-15.7499707145695
 30
0.0
 10
-26.31552124023501
 20
-15.77301216125579
 30
0.0
 11
-27.56051635742201
 21
-15.57702827453679
 31
0.0
 11
-27.40051269531301
 21
-15.59701728820879
 31
0.0
 11
-27.08151245117201
 21
-15.64401435852179
 31
0.0
 11
-26.70452880859401
 21
-15.70501899719379
 31
0.0
 11
-26.31552124023501
 21
-15.77301216125579
 31
0.0
  0
SPLINE
  5
41FB
330
1F
100
AcDbEntity
  8
AM_0
100
AcDbSpline
210
0.0
220
0.0
230
1.0
 70
     8
 71
     3
 72
    11
 73
     7
 74
     5
 42
0.0000000001
 43
0.0000000001
 44
0.0000000001
 40
0.0
 40
0.0
 40
0.0
 40
0.0
 40
0.0537680755483683
 40
0.1083425590578942
 40
0.1638116384770508
 40
0.2201299334112895
 40
0.2201299334112895
 40
0.2201299334112895
 40
0.2201299334112895
 10
-6.527526855469011
 20
10.2639751434312
 30
0.0
 10
-6.524445055503598
 20
10.28163169506138
 30
0.0
 10
-6.518235235059922
 20
10.31720960943234
 30
0.0
 10
-6.510336132866682
 20
10.37124439904203
 30
0.0
 10
-6.50323171433366
 20
10.42624618780197
 30
0.0
 10
-6.499438893204813
 20
10.46331667248042
 30
0.0
 10
-6.497528076172008
 20
10.48199272155619
 30
0.0
 11
-6.527526855469011
 21
10.2639751434312
 31
0.0
 11
-6.518524169922008
 21
10.3169841766342
 31
0.0
 11
-6.510528564453009
 21
10.37096977233819
 31
0.0
 11
-6.503509521485012
 21
10.4259929656972
 31
0.0
 11
-6.497528076172008
 21
10.48199272155619
 31
0.0
  0
SPLINE
  5
41FC
330
1F
100
AcDbEntity
  8
AM_0
100
AcDbSpline
210
0.0
220
0.0
230
1.0
 70
     8
 71
     3
 72
    11
 73
     7
 74
     5
 42
0.0000000001
 43
0.0000000001
 44
0.0000000001
 40
0.0
 40
0.0
 40
0.0
 40
0.0
 40
0.0610046386719994
 40
0.2341132165943629
 40
0.4933080786424781
 40
0.7995838747500273
 40
0.7995838747500273
 40
0.7995838747500273
 40
0.7995838747500273
 10
-1.698516845703009
 20
9.492979049681199
 30
0.0
 10
-1.698615028908645
 20
9.513315602653996
 30
0.0
 10
-1.698991819700087
 20
9.591359763467758
 30
0.0
 10
-1.690645122355631
 20
9.755653530195541
 30
0.0
 10
-1.682444455196997
 20
10.00168594616782
 30
0.0
 10
-1.674064163009337
 20
10.18999595534497
 30
0.0
 10
-1.669525146485012
 20
10.2919902801502
 30
0.0
 11
-1.698516845703009
 21
9.492979049681199
 31
0.0
 11
-1.698516845703009
 21
9.553983688353198
 31
0.0
 11
-1.692504882813009
 21
9.7269878387442
 31
0.0
 11
-1.682525634766006
 21
9.985990524291199
 31
0.0
 11
-1.669525146485012
 21
10.2919902801502
 31
0.0
  0
SPLINE
  5
41FD
330
1F
100
AcDbEntity
  8
AM_0
100
AcDbSpline
210
0.0
220
0.0
230
1.0
 70
     8
 71
     3
 72
    11
 73
     7
 74
     5
 42
0.0000000001
 43
0.0000000001
 44
0.0000000001
 40
0.0
 40
0.0
 40
0.0
 40
0.0
 40
0.0549926757810013
 40
0.1110580517221146
 40
0.1660876004272236
 40
0.2201559734877565
 40
0.2201559734877565
 40
0.2201559734877565
 40
0.2201559734877565
 10
-9.887512207032008
 20
10.6149883270252
 30
0.0
 10
-9.88768907072265
 20
10.59665415951948
 30
0.0
 10
-9.888046248048977
 20
10.55962819389379
 30
0.0
 10
-9.885344191691865
 20
10.50431570346682
 30
0.0
 10
-9.883831797383651
 20
10.44927973530509
 30
0.0
 10
-9.881619891101983
 20
10.41297804079436
 30
0.0
 10
-9.880523681641006
 20
10.3949871063222
 30
0.0
 11
-9.887512207032008
 21
10.6149883270252
 31
0.0
 11
-9.887512207032008
 21
10.5599956512442
 31
0.0
 11
-9.885528564453009
 21
10.5039653778062
 31
0.0
 11
-9.883514404297008
 21
10.4489727020252
 31
0.0
 11
-9.880523681641006
 21
10.3949871063222
 31
0.0
  0
ELLIPSE
  5
41FE
330
1F
100
AcDbEntity
  8
AM_0
100
AcDbEllipse
 10
30.60946655273399
 20
0.0019969940171938
 30
0.0
 11
244.796938825188
 21
-0.1450718640250288
 31
0.0
210
0.0
220
0.0
230
1.0
 40
0.0786446469071
 41
4.524182510832117
 42
4.534140912020752
  0
ELLIPSE
  5
41FF
330
1F
100
AcDbEntity
  8
AM_0
100
AcDbEllipse
 10
30.25849151611298
 20
-0.1530170440688005
 30
0.0
 11
243.7629576835089
 21
-0.1444591048450349
 31
0.0
210
0.0
220
0.0
230
1.0
 40
0.0783424417968
 41
4.534811298244156
 42
4.538996118123486
  0
ELLIPSE
  5
4200
330
1F
100
AcDbEntity
  8
AM_0
100
AcDbEllipse
 10
-17.929519653321
 20
-0.0000171661387945
 30
0.0
 11
2.461990766897995
 21
-19.250198971466
 31
0.0
210
0.0
220
0.0
230
1.0
 40
0.0777555291692
 41
0.1025797719747416
 42
0.1784738895907116
  0
ELLIPSE
  5
4201
330
1F
100
AcDbEntity
  8
AM_0
100
AcDbEllipse
 10
-18.40951538086001
 20
-0.0000019073497958
 30
0.0
 11
2.675660175169999
 21
-19.23681650332099
 31
0.0
210
0.0
220
0.0
230
1.0
 40
0.2743798957921
 41
6.250422819779638
 42
6.363218554449204
  0
ELLIPSE
  5
4202
330
1F
100
AcDbEntity
  8
AM_0
100
AcDbEllipse
 10
-15.70451354980501
 20
0.0009899139392024
 30
0.0
 11
244.786944320107
 21
-0.1450659410690293
 31
0.0
210
0.0
220
0.0
230
1.0
 40
0.0786397543753
 41
4.696841553312156
 42
4.711587675121059
  0
ELLIPSE
  5
4203
330
1F
100
AcDbEntity
  8
AM_0
100
AcDbEllipse
 10
-8.094512939453009
 20
12.7069988250722
 30
0.0
 11
-0.366454884470998
 21
-9.203705083482001
 31
0.0
210
0.0
220
0.0
230
1.0
 40
0.1909664338856
 41
4.943846251941126
 42
4.949397726387658
  0
SPLINE
  5
4204
330
1F
100
AcDbEntity
  8
AM_0
100
AcDbSpline
210
0.0
220
0.0
230
1.0
 70
     8
 71
     3
 72
    11
 73
     7
 74
     5
 42
0.0000000001
 43
0.0000000001
 44
0.0000000001
 40
0.0
 40
0.0
 40
0.0
 40
0.0
 40
0.1947217327538851
 40
0.3902760421611047
 40
0.58578805621364
 40
0.7805456760795048
 40
0.7805456760795048
 40
0.7805456760795048
 40
0.7805456760795048
 10
-20.00451660156301
 20
-18.74603462219379
 30
0.0
 10
-19.99691735992618
 20
-18.81135860525525
 30
0.0
 10
-19.98168638438222
 20
-18.94228587878998
 30
0.0
 10
-19.86719658939189
 20
-19.1086971340212
 30
0.0
 10
-19.70077288062832
 20
-19.22317487568448
 30
0.0
 10
-19.5698510035883
 20
-19.23842453259182
 30
0.0
 10
-19.50451660156301
 20
-19.24603462219379
 30
0.0
 11
-20.00451660156301
 21
-18.74603462219379
 31
0.0
 11
-19.96652221679701
 21
-18.93701362609979
 31
0.0
 11
-19.85852050781301
 21
-19.10003852844379
 31
0.0
 11
-19.69552612304701
 21
-19.20800971984979
 31
0.0
 11
-19.50451660156301
 21
-19.24603462219379
 31
0.0
  0
SPLINE
  5
4205
330
1F
100
AcDbEntity
  8
AM_0
100
AcDbSpline
210
0.0
220
0.0
230
1.0
 70
     8
 71
     3
 72
    11
 73
     7
 74
     5
 42
0.0000000001
 43
0.0000000001
 44
0.0000000001
 40
0.0
 40
0.0
 40
0.0
 40
0.0
 40
0.3483700469924005
 40
0.696029653588125
 40
1.043150622194331
 40
1.390533452600606
 40
1.390533452600606
 40
1.390533452600606
 40
1.390533452600606
 10
-20.00451660156301
 20
-17.74499702453679
 30
0.0
 10
-20.01657478165671
 20
-17.62820937757276
 30
0.0
 10
-20.04066655127347
 20
-17.39487225183095
 30
0.0
 10
-20.22532290190569
 20
-17.08929348561665
 30
0.0
 10
-20.49417523891357
 20
-16.85516937433072
 30
0.0
 10
-20.71903845228686
 20
-16.79039627419525
 30
0.0
 10
-20.83151245117201
 20
-16.75799751281879
 30
0.0
 11
-20.00451660156301
 21
-17.74499702453679
 31
0.0
 11
-20.06552124023501
 21
-17.40200996399079
 31
0.0
 11
-20.23950195312501
 21
-17.10101509094379
 31
0.0
 11
-20.50552368164101
 21
-16.87802314758379
 31
0.0
 11
-20.83151245117201
 21
-16.75799751281879
 31
0.0
  0
ELLIPSE
  5
4206
330
1F
100
AcDbEntity
  8
AM_0
100
AcDbEllipse
 10
-8.108520507813009
 20
12.6899852752672
 30
0.0
 11
-0.3557127134900011
 21
-9.164108015093997
 31
0.0
210
0.0
220
0.0
230
1.0
 40
0.1901664846878
 41
1.335223775783491
 42
1.352206428283689
  0
ELLIPSE
  5
4207
330
1F
100
AcDbEntity
  8
AM_0
100
AcDbEllipse
 10
-11.28251647949301
 20
0.0399913787832005
 30
0.0
 11
0.7540120550570013
 21
-19.22322076740899
 31
0.0
210
0.0
220
0.0
230
1.0
 40
0.0786458233156
 41
0.4708717605149046
 42
0.6603223347098685
  0
ELLIPSE
  5
4208
330
1F
100
AcDbEntity
  8
AM_0
100
AcDbEllipse
 10
-228.975524902338
 20
0.06298637390023
 30
0.0
 11
389.5149767671999
 21
-0.2308348462880524
 31
0.0
210
0.0
220
0.0
230
1.0
 40
0.0586319239614
 41
5.304255901349454
 42
5.337912321004829
  0
SPLINE
  5
4209
330
1F
100
AcDbEntity
  8
AM_0
100
AcDbSpline
210
0.0
220
0.0
230
1.0
 70
     8
 71
     3
 72
    11
 73
     7
 74
     5
 42
0.0000000001
 43
0.0000000001
 44
0.0000000001
 40
0.0
 40
0.0
 40
0.0
 40
0.0
 40
0.3065347093755821
 40
0.6458886988977614
 40
1.018556679157412
 40
1.421461865034531
 40
1.421461865034531
 40
1.421461865034531
 40
1.421461865034531
 10
-20.00451660156301
 20
-3.916017532349795
 30
0.0
 10
-20.01722304250916
 20
-3.813587814657121
 30
0.0
 10
-20.04399634536628
 20
-3.597761694268495
 30
0.0
 10
-20.22550701962244
 20
-3.301475815223644
 30
0.0
 10
-20.48585477805916
 20
-3.031381951287299
 30
0.0
 10
-20.71333695070787
 20
-2.905449728622986
 30
0.0
 10
-20.83151245117201
 20
-2.840028762818794
 30
0.0
 11
-20.00451660156301
 21
-3.916017532349795
 31
0.0
 11
-20.06253051757801
 21
-3.615022659302799
 31
0.0
 11
-20.228515625
 21
-3.319032669068794
 31
0.0
 11
-20.48950195312501
 21
-3.053010940552799
 31
0.0
 11
-20.83151245117201
 21
-2.840028762818794
 31
0.0
  0
SPLINE
  5
420A
330
1F
100
AcDbEntity
  8
AM_0
100
AcDbSpline
210
0.0
220
0.0
230
1.0
 70
     8
 71
     3
 72
    11
 73
     7
 74
     5
 42
0.0000000001
 43
0.0000000001
 44
0.0000000001
 40
0.0
 40
0.0
 40
0.0
 40
0.0
 40
0.1625905307431264
 40
0.3437051785865059
 40
0.5461477258378387
 40
0.7633807987987891
 40
0.7633807987987891
 40
0.7633807987987891
 40
0.7633807987987891
 10
-20.00451660156301
 20
-4.763002395630796
 30
0.0
 10
-19.99720241381284
 20
-4.817461769053724
 30
0.0
 10
-19.98174072489776
 20
-4.932585131911852
 30
0.0
 10
-19.87157922575351
 20
-5.084403907449894
 30
0.0
 10
-19.71269084608515
 20
-5.212949046649507
 30
0.0
 10
-19.57551944911964
 20
-5.247901158155558
 30
0.0
 10
-19.50451660156301
 20
-5.265993118286798
 30
0.0
 11
-20.00451660156301
 21
-4.763002395630796
 31
0.0
 11
-19.97052001953201
 21
-4.921998977661798
 31
0.0
 11
-19.87051391601601
 21
-5.072999954224795
 31
0.0
 11
-19.71051025390701
 21
-5.197023391724795
 31
0.0
 11
-19.50451660156301
 21
-5.265993118286798
 31
0.0
  0
ELLIPSE
  5
420B
330
1F
100
AcDbEntity
  8
AM_0
100
AcDbEllipse
 10
-15.08750915527401
 20
25.0309886932362
 30
0.0
 11
9.891189051643001
 21
-11.573013503846
 31
0.0
210
0.0
220
0.0
230
1.0
 40
0.9678134978217
 41
5.029412893196644
 42
5.552960405201567
  0
SPLINE
  5
420C
330
1F
100
AcDbEntity
  8
AM_0
100
AcDbSpline
210
0.0
220
0.0
230
1.0
 70
     8
 71
     3
 72
    11
 73
     7
 74
     5
 42
0.0000000001
 43
0.0000000001
 44
0.0000000001
 40
0.0
 40
0.0
 40
0.0
 40
0.0
 40
1.025119703924535
 40
2.037923273364633
 40
3.045942801540301
 40
4.054948996376691
 40
4.054948996376691
 40
4.054948996376691
 40
4.054948996376691
 10
-20.83151245117201
 20
-2.840028762818794
 30
0.0
 10
-21.13802647964081
 20
-2.688517013125465
 30
0.0
 10
-21.74737197347721
 20
-2.387313827091532
 30
0.0
 10
-22.60772460611843
 20
-1.845589902690955
 30
0.0
 10
-23.42432580294063
 20
-1.248742638271204
 30
0.0
 10
-23.92169530770562
 20
-0.7956765341159677
 30
0.0
 10
-24.17050170898501
 20
-0.5690326690687938
 30
0.0
 11
-20.83151245117201
 21
-2.840028762818794
 31
0.0
 11
-21.74252319336001
 21
-2.369997024536798
 31
0.0
 11
-22.60250854492201
 21
-1.835023880005796
 31
0.0
 11
-23.41250610351601
 21
-1.235017776490796
 31
0.0
 11
-24.17050170898501
 21
-0.5690326690687938
 31
0.0
  0
SPLINE
  5
420D
330
1F
100
AcDbEntity
  8
AM_0
100
AcDbSpline
210
0.0
220
0.0
230
1.0
 70
     8
 71
     3
 72
    11
 73
     7
 74
     5
 42
0.0000000001
 43
0.0000000001
 44
0.0000000001
 40
0.0
 40
0.0
 40
0.0
 40
0.0
 40
3.395040823371665
 40
6.788460250125019
 40
10.18153843160478
 40
13.57553843534633
 40
13.57553843534633
 40
13.57553843534633
 40
13.57553843534633
 10
-1.670501708985012
 20
9.492002487181199
 30
0.0
 10
-1.679134463250411
 20
8.360316783629805
 30
0.0
 10
-1.696395848968171
 20
6.097485844659274
 30
0.0
 10
-1.639088140989441
 20
2.703848762499745
 30
0.0
 10
-1.524370116378546
 20
-0.6879860575821693
 30
0.0
 10
-1.392467722702334
 20
-2.946573894888733
 30
0.0
 10
-1.326507568360014
 20
-4.076021194458796
 30
0.0
 11
-1.670501708985012
 21
9.492002487181199
 31
0.0
 11
-1.682525634766007
 21
6.096982955931199
 31
0.0
 11
-1.62951660156301
 21
2.703977584838199
 31
0.0
 11
-1.51052856445301
 21
-0.687013626099798
 31
0.0
 11
-1.326507568360014
 21
-4.076021194458796
 31
0.0
  0
ELLIPSE
  5
420E
330
1F
100
AcDbEntity
  8
AM_0
100
AcDbEllipse
 10
10.86447143554698
 20
-4.940019607544798
 30
0.0
 11
41.140318199565
 21
-17.035756266358
 31
0.0
210
0.0
220
0.0
230
1.0
 40
0.3263342316651
 41
2.864372508852267
 42
2.916480808896166
  0
ELLIPSE
  5
420F
330
1F
100
AcDbEntity
  8
AM_0
100
AcDbEllipse
 10
-2.72952270507801
 20
-0.0000019073497978
 30
0.0
 11
28.48599053710499
 21
-11.996462823637
 31
0.0
210
0.0
220
0.0
230
1.0
 40
0.3446240970966
 41
2.787879717401975
 42
3.784057792379865
  0
ELLIPSE
  5
4210
330
1F
100
AcDbEntity
  8
AM_0
100
AcDbEllipse
 10
10.86447143554698
 20
-4.940019607544798
 30
0.0
 11
41.140318199565
 21
-17.035756266358
 31
0.0
210
0.0
220
0.0
230
1.0
 40
0.3263342316651
 41
3.634274590087747
 42
3.841917905775442
  0
ELLIPSE
  5
4211
330
1F
100
AcDbEntity
  8
AM_0
100
AcDbEllipse
 10
-102.761535644531
 20
0.0479869842522104
 30
0.0
 11
305.391944664203
 21
-0.1809817511750344
 31
0.0
210
0.0
220
0.0
230
1.0
 40
0.0586296234118
 41
5.020862502266866
 42
5.034374429871473
  0
SPLINE
  5
4212
330
1F
100
AcDbEntity
  8
AM_0
100
AcDbSpline
210
0.0
220
0.0
230
1.0
 70
     8
 71
     3
 72
    11
 73
     7
 74
     5
 42
0.0000000001
 43
0.0000000001
 44
0.0000000001
 40
0.0
 40
0.0
 40
0.0
 40
0.0
 40
0.6214205501406742
 40
1.307458916294628
 40
2.107879843478676
 40
3.041415064870931
 40
3.041415064870931
 40
3.041415064870931
 40
3.041415064870931
 10
-5.754516601563012
 20
-14.9170246124278
 30
0.0
 10
-5.761879771402174
 20
-14.70792686674687
 30
0.0
 10
-5.777371763188131
 20
-14.2679885481545
 30
0.0
 10
-6.108608303445439
 20
-13.62496376813998
 30
0.0
 10
-6.75551987509351
 20
-13.07889258684463
 30
0.0
 10
-7.343800990402621
 20
-13.02112424351668
 30
0.0
 10
-7.660522460938012
 20
-12.9900226593028
 30
0.0
 11
-5.754516601563012
 21
-14.9170246124278
 31
0.0
 11
-5.819519042969013
 21
-14.29901313781879
 31
0.0
 11
-6.125518798828012
 21
-13.68499946594379
 31
0.0
 11
-6.746520996094013
 21
-13.1799945831308
 31
0.0
 11
-7.660522460938012
 21
-12.9900226593028
 31
0.0
  0
SPLINE
  5
4213
330
1F
100
AcDbEntity
  8
AM_0
100
AcDbSpline
210
0.0
220
0.0
230
1.0
 70
     8
 71
     3
 72
    11
 73
     7
 74
     5
 42
0.0000000001
 43
0.0000000001
 44
0.0000000001
 40
0.0
 40
0.0
 40
0.0
 40
0.0
 40
0.9674346501162533
 40
1.824365223620708
 40
2.561266097569082
 40
3.208916180896606
 40
3.208916180896606
 40
3.208916180896606
 40
3.208916180896606
 10
-7.660522460938012
 20
-12.9900226593028
 30
0.0
 10
-7.983602278302697
 20
-13.04906116945833
 30
0.0
 10
-8.592858503705656
 20
-13.16039458590065
 30
0.0
 10
-9.257292655449504
 20
-13.74548371834408
 30
0.0
 10
-9.649429012448877
 20
-14.3990988886894
 30
0.0
 10
-9.720339697730761
 20
-14.85891792254092
 30
0.0
 10
-9.753509521485016
 20
-15.0740070343028
 30
0.0
 11
-7.660522460938012
 21
-12.9900226593028
 31
0.0
 11
-8.591522216797011
 21
-13.25302314758379
 31
0.0
 11
-9.249511718750015
 21
-13.80200386047479
 31
0.0
 11
-9.616516113282012
 21
-14.44101142883379
 31
0.0
 11
-9.753509521485016
 21
-15.0740070343028
 31
0.0
  0
ELLIPSE
  5
4214
330
1F
100
AcDbEntity
  8
AM_0
100
AcDbEllipse
 10
-7.266510009766007
 20
0.0389842987052029
 30
0.0
 11
0.7457282303899977
 21
-19.01237536233
 31
0.0
210
0.0
220
0.0
230
1.0
 40
0.0786247227617
 41
0.4610940468801765
 42
0.6604544064262292
  0
SPLINE
  5
4225
330
1F
100
AcDbEntity
  8
AM_0
100
AcDbSpline
210
0.0
220
0.0
230
1.0
 70
     8
 71
     3
 72
    11
 73
     7
 74
     5
 42
0.0000000001
 43
0.0000000001
 44
0.0000000001
 40
0.0
 40
0.0
 40
0.0
 40
0.0
 40
0.0304344877144995
 40
0.1110676639569114
 40
0.2221482821248927
 40
0.6384193641582085
 40
0.6384193641582085
 40
0.6384193641582085
 40
0.6384193641582085
 10
-27.571502685547
 20
15.5769939422592
 30
0.0
 10
-27.58024349346873
 20
15.56992151706166
 30
0.0
 10
-27.61214221067632
 20
15.54411139820672
 30
0.0
 10
-27.53753827299439
 20
15.47155353805459
 30
0.0
 10
-27.41864586974854
 20
15.33545470931024
 30
0.0
 10
-27.27439138473533
 20
15.2223076335018
 30
0.0
 10
-27.160522460938
 20
15.1329936981192
 30
0.0
 11
-27.571502685547
 21
15.5769939422592
 31
0.0
 11
-27.592529296875
 21
15.5549907684312
 31
0.0
 11
-27.55252075195301
 21
15.4849834442132
 31
0.0
 11
-27.47650146484401
 21
15.4039897918692
 31
0.0
 11
-27.160522460938
 21
15.1329936981192
 31
0.0
  0
SPLINE
  5
4243
330
1F
100
AcDbEntity
  8
AM_0
100
AcDbSpline
210
0.0
220
0.0
230
1.0
 70
     8
 71
     3
 72
    11
 73
     7
 74
     5
 42
0.0000000001
 43
0.0000000001
 44
0.0000000001
 40
0.0
 40
0.0
 40
0.0
 40
0.0
 40
1.671537957187584
 40
3.356879613956154
 40
5.042868127070599
 40
6.713784299140625
 40
6.713784299140625
 40
6.713784299140625
 40
6.713784299140625
 10
-8.172515869141006
 20
17.4359722137442
 30
0.0
 10
-7.608218254305084
 20
17.27470907828048
 30
0.0
 10
-6.474963007960589
 20
16.95085108295762
 30
0.0
 10
-5.838227629676761
 20
15.14246894791564
 30
0.0
 10
-6.615267354747977
 20
13.38981710340439
 30
0.0
 10
-7.770498108163906
 20
13.15624019809665
 30
0.0
 10
-8.345520019532008
 20
13.0399761199942
 30
0.0
 11
-8.172515869141006
 21
17.4359722137442
 31
0.0
 11
-6.655517578125011
 21
16.73400688171319
 31
0.0
 11
-6.074523925782007
 21
15.15197563171319
 31
0.0
 11
-6.77850341796901
 21
13.61999320983819
 31
0.0
 11
-8.345520019532008
 21
13.0399761199942
 31
0.0
  0
SPLINE
  5
4244
330
1F
100
AcDbEntity
  8
AM_0
100
AcDbSpline
210
0.0
220
0.0
230
1.0
 70
     8
 71
     3
 72
    11
 73
     7
 74
     5
 42
0.0000000001
 43
0.0000000001
 44
0.0000000001
 40
0.0
 40
0.0
 40
0.0
 40
0.0
 40
0.3562749233335076
 40
0.7009092291376325
 40
1.04043123168165
 40
1.377457285308147
 40
1.377457285308147
 40
1.377457285308147
 40
1.377457285308147
 10
-7.779510498047006
 20
18.3339824676502
 30
0.0
 10
-7.896129206575314
 20
18.35711995644655
 30
0.0
 10
-8.125556325197095
 20
18.40263895981814
 30
0.0
 10
-8.472765976589476
 20
18.42190287470938
 30
0.0
 10
-8.813821256890063
 20
18.40543274542761
 30
0.0
 10
-9.035217889150869
 20
18.36108127436087
 30
0.0
 10
-9.145507812500012
 20
18.3389873504632
 30
0.0
 11
-7.779510498047006
 21
18.3339824676502
 31
0.0
 11
-8.130523681641006
 21
18.3949871063222
 31
0.0
 11
-8.474517822266006
 21
18.4159832000722
 31
0.0
 11
-8.813507080078009
 21
18.3969707489002
 31
0.0
 11
-9.145507812500012
 21
18.3389873504632
 31
0.0
  0
SPLINE
  5
4245
330
1F
100
AcDbEntity
  8
AM_0
100
AcDbSpline
210
0.0
220
0.0
230
1.0
 70
     8
 71
     3
 72
    11
 73
     7
 74
     5
 42
0.0000000001
 43
0.0000000001
 44
0.0000000001
 40
0.0
 40
0.0
 40
0.0
 40
0.0
 40
2.101718397809918
 40
4.191476019439893
 40
6.283927264221708
 40
8.384112893699711
 40
8.384112893699711
 40
8.384112893699711
 40
8.384112893699711
 10
-9.325531005860012
 20
12.1719951629632
 30
0.0
 10
-9.989795473266827
 20
12.4774036993059
 30
0.0
 10
-11.31454411162055
 20
13.08648270701055
 30
0.0
 10
-11.95407879691056
 20
15.32201932626493
 30
0.0
 10
-11.13575202586082
 20
17.46620026284392
 30
0.0
 10
-9.809737940327289
 20
18.04770074609398
 30
0.0
 10
-9.145507812500012
 20
18.3389873504632
 30
0.0
 11
-9.325531005860012
 21
12.1719951629632
 31
0.0
 11
-11.092498779297
 21
13.3099956512442
 31
0.0
 11
-11.71151733398501
 21
15.3059673309312
 31
0.0
 11
-10.94250488281301
 21
17.25198173522819
 31
0.0
 11
-9.145507812500012
 21
18.3389873504632
 31
0.0
  0
ELLIPSE
  5
4246
330
1F
100
AcDbEntity
  8
AM_0
100
AcDbEllipse
 10
-18.59251403808601
 20
26.4149761199942
 30
0.0
 11
40.83805818269699
 21
-2.231689608728005
 31
0.0
210
0.0
220
0.0
230
1.0
 40
0.190225308203
 41
4.903498497964143
 42
4.956130615013185
  0
SPLINE
  5
4247
330
1F
100
AcDbEntity
  8
AM_0
100
AcDbSpline
210
0.0
220
0.0
230
1.0
 70
     8
 71
     3
 72
    11
 73
     7
 74
     5
 42
0.0000000001
 43
0.0000000001
 44
0.0000000001
 40
0.0
 40
0.0
 40
0.0
 40
0.0
 40
0.9565686319328694
 40
1.915338524707346
 40
2.877473946821507
 40
3.837107861427839
 40
3.837107861427839
 40
3.837107861427839
 40
3.837107861427839
 10
-12.599517822266
 20
19.8969707489002
 30
0.0
 10
-12.91942011240104
 20
19.89162432990445
 30
0.0
 10
-13.5599608535287
 20
19.88091918870503
 30
0.0
 10
-14.49383444036389
 20
19.63021369300549
 30
0.0
 10
-15.3731942635671
 20
19.22557650729094
 30
0.0
 10
-15.87428998727343
 20
18.82300206448804
 30
0.0
 10
-16.12451171875001
 20
18.6219768524162
 30
0.0
 11
-12.599517822266
 21
19.8969707489002
 31
0.0
 11
-13.554504394532
 21
19.8419780731192
 31
0.0
 11
-14.483520507813
 21
19.6049785614002
 31
0.0
 11
-15.35250854492201
 21
19.1919841766342
 31
0.0
 11
-16.12451171875001
 21
18.6219768524162
 31
0.0
  0
ELLIPSE
  5
4248
330
1F
100
AcDbEntity
  8
AM_0
100
AcDbEllipse
 10
-18.521514892578
 20
27.7099742889392
 30
0.0
 11
39.77066199175398
 21
-2.173359289076004
 31
0.0
210
0.0
220
0.0
230
1.0
 40
0.1902336906615001
 41
4.872127253009194
 42
4.991503495357747
  0
SPLINE
  5
4249
330
1F
100
AcDbEntity
  8
AM_0
100
AcDbSpline
210
0.0
220
0.0
230
1.0
 70
     8
 71
     3
 72
    11
 73
     7
 74
     5
 42
0.0000000001
 43
0.0000000001
 44
0.0000000001
 40
0.0
 40
0.0
 40
0.0
 40
0.0
 40
2.068533903769709
 40
4.168662023495848
 40
6.245123641184157
 40
8.345624058381966
 40
8.345624058381966
 40
8.345624058381966
 40
8.345624058381966
 10
-7.747528076172006
 20
18.32598686218119
 30
0.0
 10
-7.101053145329439
 20
18.01607970206291
 30
0.0
 10
-5.798229203969695
 20
17.39153194539323
 30
0.0
 10
-5.132663586679405
 20
15.19477942482764
 30
0.0
 10
-5.886511677761925
 20
13.01965096664053
 30
0.0
 10
-7.217287731152552
 20
12.44630859791683
 30
0.0
 10
-7.886505126953008
 20
12.1579875946032
 30
0.0
 11
-7.747528076172006
 21
18.32598686218119
 31
0.0
 11
-6.019500732422007
 21
17.1889934539782
 31
0.0
 11
-5.369506835938008
 21
15.1919841766342
 31
0.0
 11
-6.088531494141006
 21
13.2439861297592
 31
0.0
 11
-7.886505126953008
 21
12.1579875946032
 31
0.0
  0
SPLINE
  5
424A
330
1F
100
AcDbEntity
  8
AM_0
100
AcDbSpline
210
0.0
220
0.0
230
1.0
 70
     8
 71
     3
 72
    11
 73
     7
 74
     5
 42
0.0000000001
 43
0.0000000001
 44
0.0000000001
 40
0.0
 40
0.0
 40
0.0
 40
0.0
 40
0.3611768276898061
 40
0.7148587454436085
 40
1.064373598007771
 40
1.416204934026618
 40
1.416204934026618
 40
1.416204934026618
 40
1.416204934026618
 10
-9.291503906250012
 20
12.1639995574942
 30
0.0
 10
-9.173215704489075
 20
12.14096616301391
 30
0.0
 10
-8.939093941881909
 20
12.09537734828622
 30
0.0
 10
-8.583953497305675
 20
12.074718280312
 30
0.0
 10
-8.231672835384543
 20
12.09192712371199
 30
0.0
 10
-8.001814097350891
 20
12.13591900389673
 30
0.0
 10
-7.886505126953008
 20
12.1579875946032
 30
0.0
 11
-9.291503906250012
 21
12.1639995574942
 31
0.0
 11
-8.935516357422008
 21
12.1029949188222
 31
0.0
 11
-8.582519531250012
 21
12.0809917449942
 31
0.0
 11
-8.233520507813009
 21
12.0999736785882
 31
0.0
 11
-7.886505126953008
 21
12.1579875946032
 31
0.0
  0
ELLIPSE
  5
424B
330
1F
100
AcDbEntity
  8
AM_0
100
AcDbEllipse
 10
-4.650527954102008
 20
4.324979782103199
 30
0.0
 11
40.88762039830499
 21
-0.9648154802810019
 31
0.0
210
0.0
220
0.0
230
1.0
 40
0.1902253715643
 41
1.601719771058636
 42
1.654683063209387
  0
ELLIPSE
  5
424C
330
1F
100
AcDbEntity
  8
AM_0
100
AcDbEllipse
 10
-13.85052490234401
 20
19.7479839324942
 30
0.0
 11
39.55398437253201
 21
-0.9333459873100064
 31
0.0
210
0.0
220
0.0
230
1.0
 40
0.1902191713318
 41
4.705689024151205
 42
4.831556827029043
  0
ELLIPSE
  5
424D
330
1F
100
AcDbEntity
  8
AM_0
100
AcDbEllipse
 10
2.747482299803993
 20
10.5159893035882
 30
0.0
 11
39.50605894968799
 21
-2.158871105991005
 31
0.0
210
0.0
220
0.0
230
0.9999999999999998
 40
0.1902181825439
 41
1.724100789434986
 42
1.850123308037651
  0
ELLIPSE
  5
424E
330
1F
100
AcDbEntity
  8
AM_0
100
AcDbEllipse
 10
-4.681503295899012
 20
3.028989791869201
 30
0.0
 11
39.818925046714
 21
-0.9396072284140025
 31
0.0
210
0.0
220
0.0
230
1.0
 40
0.1902334028145
 41
1.570642263539507
 42
1.690079497874158
  0
SPLINE
  5
424F
330
1F
100
AcDbEntity
  8
AM_0
100
AcDbSpline
210
0.0
220
0.0
230
1.0
 70
     8
 71
     3
 72
    11
 73
     7
 74
     5
 42
0.0000000001
 43
0.0000000001
 44
0.0000000001
 40
0.0
 40
0.0
 40
0.0
 40
0.0
 40
0.957574048161074
 40
1.91533857768627
 40
2.877514662583565
 40
3.837130450546661
 40
3.837130450546661
 40
3.837130450546661
 40
3.837130450546661
 10
-4.493499755860012
 20
10.6019878387442
 30
0.0
 10
-4.173250951355814
 20
10.60727399916687
 30
0.0
 10
-3.532689638209593
 20
10.61784737153929
 30
0.0
 10
-2.598907408016696
 20
10.86895259096118
 30
0.0
 10
-1.719841545058171
 20
11.27339469430463
 30
0.0
 10
-1.218728552902377
 20
11.67596482888921
 30
0.0
 10
-0.968505859375012
 20
11.8769817352282
 30
0.0
 11
-4.493499755860012
 21
10.6019878387442
 31
0.0
 11
-3.537506103516006
 21
10.6569805145252
 31
0.0
 11
-2.609527587891006
 21
10.8939800262442
 31
0.0
 11
-1.740509033203009
 21
11.3070049285882
 31
0.0
 11
-0.968505859375012
 21
11.8769817352282
 31
0.0
  0
SPLINE
  5
4250
330
1F
100
AcDbEntity
  8
AM_0
100
AcDbSpline
210
0.0
220
0.0
230
1.0
 70
     8
 71
     3
 72
    11
 73
     7
 74
     5
 42
0.0000000001
 43
0.0000000001
 44
0.0000000001
 40
0.0
 40
0.0
 40
0.0
 40
0.0
 40
1.827885011108664
 40
3.651343718603971
 40
5.468515829377654
 40
7.281562260198334
 40
7.281562260198334
 40
7.281562260198334
 40
7.281562260198334
 10
-16.51550292968801
 20
10.7959880828842
 30
0.0
 10
-15.90653691312863
 20
10.77582293163006
 30
0.0
 10
-14.69007951789088
 20
10.73554145991875
 30
0.0
 10
-12.86764067369499
 20
10.69606166663521
 30
0.0
 10
-11.04992857807723
 20
10.66851147561085
 30
0.0
 10
-9.839853883369528
 20
10.66415910796582
 30
0.0
 10
-9.235504150391006
 20
10.6619853973382
 30
0.0
 11
-16.51550292968801
 21
10.7959880828842
 31
0.0
 11
-14.68850708007801
 21
10.7389812469472
 31
0.0
 11
-12.86550903320301
 21
10.6979961395252
 31
0.0
 11
-11.04852294921901
 21
10.6719951629632
 31
0.0
 11
-9.235504150391006
 21
10.6619853973382
 31
0.0
  0
ELLIPSE
  5
4251
330
1F
100
AcDbEntity
  8
AM_0
100
AcDbEllipse
 10
-13.88151550293001
 20
18.4519786834702
 30
0.0
 11
40.622694526106
 21
-0.9585737779110075
 31
0.0
210
0.0
220
0.0
230
1.0
 40
0.1902102406505
 41
4.652129970291484
 42
4.831551128923321
  0
SPLINE
  5
4252
330
1F
100
AcDbEntity
  8
AM_0
100
AcDbSpline
210
0.0
220
0.0
230
1.0
 70
     8
 71
     3
 72
    11
 73
     7
 74
     5
 42
0.0000000001
 43
0.0000000001
 44
0.0000000001
 40
0.0
 40
0.0
 40
0.0
 40
0.0
 40
1.816904059511079
 40
3.61535260408776
 40
5.395512996204182
 40
7.158536626345805
 40
7.158536626345805
 40
7.158536626345805
 40
7.158536626345805
 10
-0.801513671875011
 20
19.7109966278062
 30
0.0
 10
-1.406816170399026
 20
19.73119936120129
 30
0.0
 10
-2.61127270339203
 20
19.77139961525834
 30
0.0
 10
-4.409393442338505
 20
19.81011331114711
 30
0.0
 10
-6.189789252444257
 20
19.83506569035918
 30
0.0
 10
-7.370851577951559
 20
19.83902929391223
 30
0.0
 10
-7.958526611328007
 20
19.8410015106192
 30
0.0
 11
-0.801513671875011
 21
19.7109966278062
 31
0.0
 11
-2.617523193360011
 21
19.7680034637442
 31
0.0
 11
-4.41552734375001
 21
19.80798149108819
 31
0.0
 11
-6.195526123047006
 21
19.8319683074942
 31
0.0
 11
-7.958526611328007
 21
19.8410015106192
 31
0.0
  0
ELLIPSE
  5
4253
330
1F
100
AcDbEntity
  8
AM_0
100
AcDbEllipse
 10
2.817489624022991
 20
11.8099956512442
 30
0.0
 11
40.57346936116
 21
-2.217220841717005
 31
0.0
210
0.0
220
0.0
230
1.0
 40
0.1902097181918
 41
1.670509192626649
 42
1.850111652163982
  0
LINE
  5
42B4
330
1F
100
AcDbEntity
  8
AM_0
100
AcDbLine
 10
-1.670524597168009
 20
9.492000579833199
 30
0.0
 11
-15.18951797485401
 21
10.0229988098132
 31
0.0
  0
LINE
  5
42B5
330
1F
100
AcDbEntity
  8
AM_0
100
AcDbLine
 10
-16.122493743897
 20
18.6199893951402
 30
0.0
 11
-14.78049468994201
 21
17.0899906158432
 31
0.0
  0
LINE
  5
42B6
330
1F
100
AcDbEntity
  8
AM_0
100
AcDbLine
 10
-16.122547149659
 20
18.6200256347642
 30
0.0
 11
-14.720535278321
 21
19.5080337524402
 31
0.0
  0
LINE
  5
42B7
330
1F
100
AcDbEntity
  8
AM_0
100
AcDbLine
 10
-15.06352233886801
 20
13.0609779357902
 30
0.0
 11
-17.22650909423901
 21
13.0259780883782
 31
0.0
  0
LINE
  5
42B8
330
1F
100
AcDbEntity
  8
AM_0
100
AcDbLine
 10
-15.06350708007801
 20
13.0610256195062
 30
0.0
 11
-17.281520843506
 21
11.6270160675042
 31
0.0
  0
LINE
  5
42B9
330
1F
100
AcDbEntity
  8
AM_11
100
AcDbLine
 10
-0.0000000000000159
 20
-20.00000190734979
 30
0.0
 11
-0.000000000000011
 21
19.9999980926502
 31
0.0
  0
LINE
  5
42BA
330
1F
100
AcDbEntity
  8
AM_11
100
AcDbLine
 10
-13.00000000000001
 20
19.9999980926502
 30
0.0
 11
-13.00000000000001
 21
-20.00000190734979
 31
0.0
  0
LINE
  5
42BB
330
1F
100
AcDbEntity
  8
AM_0
100
AcDbLine
 10
-1.526512145996007
 20
0.0009746551502021
 30
0.0
 11
-1.326511383057008
 21
4.075963973998199
 31
0.0
  0
LINE
  5
42BC
330
1F
100
AcDbEntity
  8
AM_0
100
AcDbLine
 10
-2.074481964112007
 20
18.82791709899819
 30
0.0
 11
-0.801490783692007
 21
19.7109127044662
 31
0.0
  0
LINE
  5
42BD
330
1F
100
AcDbEntity
  8
AM_0
100
AcDbLine
 10
-0.2465133667000114
 20
19.4549789428702
 30
0.0
 11
-0.0355033874510054
 21
18.8809623718252
 31
0.0
  0
LINE
  5
42BE
330
1F
100
AcDbEntity
  8
AM_0
100
AcDbLine
 10
-12.59851455688501
 20
19.8949642181382
 30
0.0
 11
-11.255508422852
 21
18.36495590209819
 31
0.0
  0
ARC
  5
42BF
330
1F
100
AcDbEntity
  8
AM_0
100
AcDbCircle
 10
-0.832519531250011
 20
18.91198539733819
 30
0.0
 40
0.7976026535034001
100
AcDbArc
 50
357.7725573772127
 51
42.81884340635771
  0
LINE
  5
42C0
330
1F
100
AcDbEntity
  8
AM_11
100
AcDbLine
 10
-0.000000000000011
 20
19.9999980926502
 30
0.0
 11
-13.00000000000001
 21
19.9999980926502
 31
0.0
  0
LINE
  5
42C1
330
1F
100
AcDbEntity
  8
AM_0
100
AcDbLine
 10
-0.8015213012700112
 20
19.7109985351552
 30
0.0
 11
-0.2465133667000114
 21
19.4549942016592
 31
0.0
  0
ARC
  5
42C2
330
1F
100
AcDbEntity
  8
AM_0
100
AcDbCircle
 10
-0.832519531250011
 20
18.91198539733819
 30
0.0
 40
0.7989023923874
100
AcDbArc
 50
42.81884704882719
 51
87.77812329814027
  0
LINE
  5
42C3
330
1F
100
AcDbEntity
  8
AM_0
100
AcDbLine
 10
-0.803550720215011
 20
19.7099800109852
 30
0.0
 11
-0.801555633545011
 21
19.71097564697119
 31
0.0
  0
LINE
  5
42C4
330
1F
100
AcDbEntity
  8
AM_0
100
AcDbLine
 10
-12.599510192871
 20
19.8970146179192
 30
0.0
 11
-7.958492279053007
 21
19.8410148620592
 31
0.0
  0
LINE
  5
42C5
330
1F
100
AcDbEntity
  8
AM_0
100
AcDbLine
 10
-12.599494934082
 20
19.8969821929922
 30
0.0
 11
-12.598499298096
 21
19.89498901367119
 31
0.0
  0
LINE
  5
42C6
330
1F
100
AcDbEntity
  8
AM_0
100
AcDbLine
 10
-14.72052383422901
 20
19.5079975128162
 30
0.0
 11
-12.59851074218801
 21
19.8949985504142
 31
0.0
  0
LINE
  5
42C7
330
1F
100
AcDbEntity
  8
AM_0
100
AcDbLine
 10
-12.599494934082
 20
19.8969821929922
 30
0.0
 11
-12.598499298096
 21
19.89498901367119
 31
0.0
  0
LINE
  5
42C8
330
1F
100
AcDbEntity
  8
AM_0
100
AcDbLine
 10
-1.65650939941401
 20
10.5879859924302
 30
0.0
 11
-3.596488952637007
 21
10.6639804840072
 31
0.0
  0
LINE
  5
42C9
330
1F
100
AcDbEntity
  8
AM_0
100
AcDbLine
 10
-2.878517150879009
 20
18.2709941864002
 30
0.0
 11
-3.798507690430011
 21
16.2910041809072
 31
0.0
  0
LINE
  5
42CA
330
1F
100
AcDbEntity
  8
AM_0
100
AcDbLine
 10
-5.73146057128901
 20
12.1300048828112
 30
0.0
 11
-2.206485748291005
 21
13.4049949645982
 31
0.0
  0
LINE
  5
42CB
330
1F
100
AcDbEntity
  8
AM_0
100
AcDbLine
 10
-2.878498077393008
 20
18.27096176147319
 30
0.0
 11
-7.745491027832006
 21
18.3339614868152
 31
0.0
  0
LINE
  5
42CC
330
1F
100
AcDbEntity
  8
AM_0
100
AcDbLine
 10
-2.37250518798901
 20
10.9909877777092
 30
0.0
 11
-4.494518280030012
 21
10.6039829254142
 31
0.0
  0
LINE
  5
42CD
330
1F
100
AcDbEntity
  8
AM_0
100
AcDbLine
 10
-1.64951324462901
 20
10.7949752807602
 30
0.0
 11
-1.637512207032008
 21
11.0209751129142
 31
0.0
  0
LINE
  5
42CE
330
1F
100
AcDbEntity
  8
AM_0
100
AcDbLine
 10
-1.326507568360012
 20
11.6139812469472
 30
0.0
 11
-1.326507568360013
 21
4.075986862181203
 31
0.0
  0
LINE
  5
42CF
330
1F
100
AcDbEntity
  8
AM_0
100
AcDbLine
 10
-2.20651626586901
 20
13.4049587249742
 30
0.0
 11
-2.112514495850011
 21
17.4409732818592
 31
0.0
  0
LINE
  5
42D0
330
1F
100
AcDbEntity
  8
AM_0
100
AcDbLine
 10
-0.9695167541510066
 20
11.8789787292472
 30
0.0
 11
-0.09051513671901
 21
17.4819889068592
 31
0.0
  0
LINE
  5
42D1
330
1F
100
AcDbEntity
  8
AM_0
100
AcDbLine
 10
-0.09051513671901
 20
17.4819889068592
 30
0.0
 11
-0.9695167541510066
 21
11.8789787292472
 31
0.0
  0
LINE
  5
42D2
330
1F
100
AcDbEntity
  8
AM_0
100
AcDbLine
 10
-2.112506866455011
 20
17.4409732818592
 30
0.0
 11
-0.0355186462410058
 21
18.88096809387119
 31
0.0
  0
LINE
  5
42D3
330
1F
100
AcDbEntity
  8
AM_0
100
AcDbLine
 10
-2.112476348877006
 20
17.4409866332992
 30
0.0
 11
-0.0904922485350113
 21
17.4819869995102
 31
0.0
  0
LINE
  5
42D4
330
1F
100
AcDbEntity
  8
AM_0
100
AcDbLine
 10
-0.09051513671901
 20
17.4819927215562
 30
0.0
 11
-0.0355148315430083
 21
18.8809967041002
 31
0.0
  0
LINE
  5
42D5
330
1F
100
AcDbEntity
  8
AM_0
100
AcDbLine
 10
-2.878509521485011
 20
18.2709808349602
 30
0.0
 11
-2.074512481690011
 21
18.8279781341542
 31
0.0
  0
LINE
  5
42D6
330
1F
100
AcDbEntity
  8
AM_0
100
AcDbLine
 10
-2.112533569336005
 20
17.4409999847402
 30
0.0
 11
-2.878536224366005
 21
18.27100372314319
 31
0.0
  0
LINE
  5
42D7
330
1F
100
AcDbEntity
  8
AM_0
100
AcDbLine
 10
-0.9695281982430095
 20
11.8789787292472
 30
0.0
 11
-2.206520080567007
 21
13.40497398376319
 31
0.0
  0
LINE
  5
42D8
330
1F
100
AcDbEntity
  8
AM_0
100
AcDbLine
 10
-1.627548217774011
 20
11.0199890136712
 30
0.0
 11
-1.637538909912007
 21
11.0209865570062
 31
0.0
  0
LINE
  5
42D9
330
1F
100
AcDbEntity
  8
AM_0
100
AcDbLine
 10
-1.611499786377008
 20
11.39797782897819
 30
0.0
 11
-1.62749862670901
 21
11.0199890136712
 31
0.0
  0
LINE
  5
42DA
330
1F
100
AcDbEntity
  8
AM_0
100
AcDbLine
 10
-2.301509857178009
 20
11.04699707031119
 30
0.0
 11
-1.637500762940012
 21
11.0209960937492
 31
0.0
  0
LINE
  5
42DB
330
1F
100
AcDbEntity
  8
AM_0
100
AcDbLine
 10
-0.9695167541510066
 20
11.8789386749252
 30
0.0
 11
-2.37253952026401
 21
10.99092864990119
 31
0.0
  0
LINE
  5
42DC
330
1F
100
AcDbEntity
  8
AM_0
100
AcDbLine
 10
-0.9695358276370079
 20
11.8789806365952
 30
0.0
 11
-0.9685249328620081
 21
11.87696075439319
 31
0.0
  0
LINE
  5
42DD
330
1F
100
AcDbEntity
  8
AM_0
100
AcDbLine
 10
-0.9685249328620081
 20
11.87696075439319
 30
0.0
 11
-0.9695358276370079
 21
11.8789806365952
 31
0.0
  0
LINE
  5
42DE
330
1F
100
AcDbEntity
  8
AM_0
100
AcDbLine
 10
-1.656524658203009
 20
10.5879859924302
 30
0.0
 11
-1.649524688721006
 21
10.7949600219712
 31
0.0
  0
LINE
  5
42DF
330
1F
100
AcDbEntity
  8
AM_0
100
AcDbLine
 10
-1.656517028809011
 20
10.5880107879632
 30
0.0
 11
-1.669517517090012
 21
10.2919712066642
 31
0.0
  0
LINE
  5
42E0
330
1F
100
AcDbEntity
  8
AM_0
100
AcDbLine
 10
-4.494514465332008
 20
10.6039810180652
 30
0.0
 11
-5.731529235840011
 21
12.1299972534172
 31
0.0
  0
LINE
  5
42E1
330
1F
100
AcDbEntity
  8
AM_0
100
AcDbLine
 10
-9.291500091553009
 20
12.1639518737782
 30
0.0
 11
-9.325515747071007
 21
12.1719589233392
 31
0.0
  0
LINE
  5
42E2
330
1F
100
AcDbEntity
  8
AM_0
100
AcDbLine
 10
-9.326507568360012
 20
12.1639995574942
 30
0.0
 11
-9.291503906250012
 21
12.1639995574942
 31
0.0
  0
ARC
  5
42E3
330
1F
100
AcDbEntity
  8
AM_0
100
AcDbCircle
 10
-7.999511718750011
 20
15.0059795379632
 30
0.0
 40
1.749608278274499
100
AcDbArc
 50
92.45683703054295
 51
258.0995453475117
  0
ARC
  5
42E4
330
1F
100
AcDbEntity
  8
AM_0
100
AcDbCircle
 10
-8.431518554688009
 20
15.0229778289782
 30
0.0
 40
1.7493612766266
100
AcDbArc
 50
87.73949857838465
 51
267.7734974388361
  0
ARC
  5
42E5
330
1F
100
AcDbEntity
  8
AM_0
100
AcDbCircle
 10
-8.222503662110012
 20
15.2369976043692
 30
0.0
 40
2.1998183727264
100
AcDbArc
 50
88.43706579831653
 51
267.5251517606183
  0
CIRCLE
  5
42E6
330
1F
100
AcDbEntity
  8
AM_0
100
AcDbCircle
 10
-8.393524169922008
 20
15.2429790496812
 30
0.0
 40
3.0079998970032
  0
LINE
  5
42E7
330
1F
100
AcDbEntity
  8
AM_0
100
AcDbLine
 10
-4.116527557373008
 20
15.6059780120842
 30
0.0
 11
-5.731525421143008
 21
12.1299800872792
 31
0.0
  0
ARC
  5
42E8
330
1F
100
AcDbEntity
  8
AM_0
100
AcDbCircle
 10
-8.431518554688009
 20
15.0229778289782
 30
0.0
 40
1.7503213882446
100
AcDbArc
 50
267.7734974388361
 51
87.73950859629433
  0
LINE
  5
42E9
330
1F
100
AcDbEntity
  8
AM_0
100
AcDbLine
 10
-3.798496246338008
 20
16.2909870147692
 30
0.0
 11
-4.116500854493009
 21
15.6059837341302
 31
0.0
  0
LINE
  5
42EA
330
1F
100
AcDbEntity
  8
AM_0
100
AcDbLine
 10
-7.779525756836005
 20
18.33398056030119
 30
0.0
 11
-7.747520446778008
 21
18.3259792327872
 31
0.0
  0
LINE
  5
42EB
330
1F
100
AcDbEntity
  8
AM_0
100
AcDbLine
 10
-7.745483398438008
 20
18.3339729309072
 30
0.0
 11
-7.747486114502006
 21
18.3259811401352
 31
0.0
  0
LINE
  5
42EC
330
1F
100
AcDbEntity
  8
AM_0
100
AcDbLine
 10
-7.745513916016005
 20
18.3339824676502
 30
0.0
 11
-7.779510498047006
 21
18.3339824676502
 31
0.0
  0
LINE
  5
42ED
330
1F
100
AcDbEntity
  8
AM_0
100
AcDbLine
 10
-14.78051757812501
 20
17.0899791717522
 30
0.0
 11
-15.06351470947301
 21
13.0609951019272
 31
0.0
  0
LINE
  5
42EE
330
1F
100
AcDbEntity
  8
AM_0
100
AcDbLine
 10
-12.97750091552801
 20
14.8929672241202
 30
0.0
 11
-11.25550460815501
 21
18.36495971679619
 31
0.0
  0
LINE
  5
42EF
330
1F
100
AcDbEntity
  8
AM_0
100
AcDbLine
 10
-11.255523681641
 20
18.3649883270252
 30
0.0
 11
-14.780502319336
 21
17.0899963378892
 31
0.0
  0
LINE
  5
42F0
330
1F
100
AcDbEntity
  8
AM_0
100
AcDbLine
 10
-9.679538726807008
 20
14.6359882354722
 30
0.0
 11
-9.753540039063009
 21
15.0749855041492
 31
0.0
  0
LINE
  5
42F1
330
1F
100
AcDbEntity
  8
AM_0
100
AcDbLine
 10
-9.325519561768009
 20
12.1719741821282
 30
0.0
 11
-9.326519012451006
 21
12.1639804840072
 31
0.0
  0
LINE
  5
42F2
330
1F
100
AcDbEntity
  8
AM_0
100
AcDbLine
 10
-13.317520141602
 20
14.2089691162102
 30
0.0
 11
-12.977516174317
 21
14.8929786682122
 31
0.0
  0
LINE
  5
42F3
330
1F
100
AcDbEntity
  8
AM_0
100
AcDbLine
 10
-14.298492431641
 20
12.2309894561752
 30
0.0
 11
-13.31748962402401
 21
14.2089996337882
 31
0.0
  0
LINE
  5
42F4
330
1F
100
AcDbEntity
  8
AM_0
100
AcDbLine
 10
-15.06349563598701
 20
13.0609855651842
 30
0.0
 11
-14.298511505127
 21
12.2309970855702
 31
0.0
  0
LINE
  5
42F5
330
1F
100
AcDbEntity
  8
AM_0
100
AcDbLine
 10
-6.527523040772008
 20
10.2639904022202
 30
0.0
 11
-9.880527496338009
 21
10.3949928283682
 31
0.0
  0
LINE
  5
42F6
330
1F
100
AcDbEntity
  8
AM_0
100
AcDbLine
 10
-4.493492126465012
 20
10.60197448730319
 30
0.0
 11
-9.235511779785012
 21
10.6619720458972
 31
0.0
  0
LINE
  5
42F7
330
1F
100
AcDbEntity
  8
AM_0
100
AcDbLine
 10
-4.493515014649011
 20
10.6019515991202
 30
0.0
 11
-4.494510650635012
 21
10.6039447784412
 31
0.0
  0
LINE
  5
42F8
330
1F
100
AcDbEntity
  8
AM_0
100
AcDbLine
 10
-9.886554718018009
 20
10.5329685211172
 30
0.0
 11
-9.827560424805012
 21
10.6639423370352
 31
0.0
  0
LINE
  5
42F9
330
1F
100
AcDbEntity
  8
AM_0
100
AcDbLine
 10
-14.94255828857501
 20
10.4639949798572
 30
0.0
 11
-14.69255065918001
 21
10.5729961395252
 31
0.0
  0
LINE
  5
42FA
330
1F
100
AcDbEntity
  8
AM_0
100
AcDbLine
 10
-14.692512512207
 20
10.5730361938462
 30
0.0
 11
-14.38252639770501
 21
10.7350292205802
 31
0.0
  0
LINE
  5
42FC
330
1F
100
AcDbEntity
  8
AM_0
100
AcDbLine
 10
-1.126544952393013
 20
-17.84100151062079
 30
0.0
 11
-1.320545196534014
 21
-12.8979969024668
 31
0.0
  0
LINE
  5
42FD
330
1F
100
AcDbEntity
  8
AM_0
100
AcDbLine
 10
-0.0905036926270114
 20
-17.48097801208579
 30
0.0
 11
-1.320503234864013
 21
-12.89798545837479
 31
0.0
  0
LINE
  5
42FE
330
1F
100
AcDbEntity
  8
AM_0
100
AcDbLine
 10
-0.9694862365730124
 20
-11.87803077697879
 30
0.0
 11
-0.0904884338380128
 21
-17.48100852966379
 31
0.0
  0
LINE
  5
42FF
330
1F
100
AcDbEntity
  8
AM_0
100
AcDbLine
 10
-1.804504394532011
 20
-18.54400825500579
 30
0.0
 11
-1.80450439453201
 21
-4.5250263214118
 31
0.0
  0
LINE
  5
4300
330
1F
100
AcDbEntity
  8
AM_0
100
AcDbLine
 10
-11.79953002929701
 20
-18.94799995422479
 30
0.0
 11
-11.799530029297
 21
-5.260011672974796
 31
0.0
  0
LINE
  5
4301
330
1F
100
AcDbEntity
  8
AM_0
100
AcDbLine
 10
-1.326507568360016
 20
-18.01800727844379
 30
0.0
 11
-1.326507568360014
 21
-4.076021194458796
 31
0.0
  0
ARC
  5
4302
330
1F
100
AcDbEntity
  8
AM_0
100
AcDbCircle
 10
-7.999511718750015
 20
-15.00500679016179
 30
0.0
 40
1.7503213882446
100
AcDbArc
 50
272.2265007399319
 51
92.26049277019361
  0
ARC
  5
4303
330
1F
100
AcDbEntity
  8
AM_0
100
AcDbCircle
 10
-7.999511718750015
 20
-15.00500679016179
 30
0.0
 40
1.7493612766266
100
AcDbArc
 50
92.26050324285292
 51
151.8503264396329
  0
ARC
  5
4304
330
1F
100
AcDbEntity
  8
AM_0
100
AcDbCircle
 10
-8.431518554688013
 20
-15.0220050811778
 30
0.0
 40
1.7500337362289
100
AcDbArc
 50
279.3062308712699
 51
88.2970159571081
  0
ARC
  5
4305
330
1F
100
AcDbEntity
  8
AM_0
100
AcDbCircle
 10
-7.999511718750015
 20
-15.00500679016179
 30
0.0
 40
1.993526577949499
100
AcDbArc
 50
2.242359755935422
 51
88.30941639291928
  0
LINE
  5
4306
330
1F
100
AcDbEntity
  8
AM_0
100
AcDbLine
 10
-11.79948425293001
 20
-5.259988784790797
 30
0.0
 11
-1.804496765137009
 21
-4.524988174439798
 31
0.0
  0
LINE
  5
4307
330
1F
100
AcDbEntity
  8
AM_0
100
AcDbLine
 10
-1.326530456543011
 20
-4.075994491577802
 30
0.0
 11
-1.804531097412009
 21
-4.524995803833796
 31
0.0
  0
LINE
  5
4308
330
1F
100
AcDbEntity
  8
AM_0
100
AcDbLine
 10
-0.9695434570320109
 20
-11.87796592712479
 30
0.0
 11
-0.9685516357430124
 21
-11.87697029113879
 31
0.0
  0
LINE
  5
4309
330
1F
100
AcDbEntity
  8
AM_0
100
AcDbLine
 10
-1.32654571533201
 20
-12.65201759338479
 30
0.0
 11
-0.9695472717290137
 21
-11.8780269622818
 31
0.0
  0
LINE
  5
430A
330
1F
100
AcDbEntity
  8
AM_0
100
AcDbLine
 10
-1.326488494873012
 20
-12.8489742279068
 30
0.0
 11
-1.32048416137701
 21
-12.89798545837479
 31
0.0
  0
LINE
  5
430B
330
1F
100
AcDbEntity
  8
AM_11
100
AcDbLine
 10
-13.00000000000001
 20
-20.00000190734979
 30
0.0
 11
-0.0000000000000159
 21
-20.00000190734979
 31
0.0
  0
LINE
  5
430C
330
1F
100
AcDbEntity
  8
AM_0
100
AcDbLine
 10
-11.57453536987301
 20
-19.05204582214479
 30
0.0
 11
-1.891529083252011
 21
-18.6720485687268
 31
0.0
  0
LINE
  5
430D
330
1F
100
AcDbEntity
  8
AM_0
100
AcDbLine
 10
-0.0904922485350155
 20
-17.4810390472428
 30
0.0
 11
-0.0354919433600161
 21
-18.88004493713479
 31
0.0
  0
ARC
  5
430E
330
1F
100
AcDbEntity
  8
AM_0
100
AcDbCircle
 10
-0.8325195312500158
 20
-18.9110126495368
 30
0.0
 40
0.8006004095077999
100
AcDbArc
 50
272.2191036450599
 51
317.1811529511727
  0
ARC
  5
430F
330
1F
100
AcDbEntity
  8
AM_0
100
AcDbCircle
 10
-0.8325195312500158
 20
-18.9110126495368
 30
0.0
 40
0.7989023923874
100
AcDbArc
 50
317.1811529511727
 51
2.227438980323104
  0
LINE
  5
4310
330
1F
100
AcDbEntity
  8
AM_0
100
AcDbLine
 10
-1.804500579834014
 20
-18.54405021667579
 30
0.0
 11
-1.326496124268013
 21
-18.01804161071879
 31
0.0
  0
LINE
  5
4311
330
1F
100
AcDbEntity
  8
AM_0
100
AcDbLine
 10
-12.59951400756901
 20
-19.8960247039808
 30
0.0
 11
-7.95852279663101
 21
-19.84002494812079
 31
0.0
  0
ARC
  5
4312
330
1F
100
AcDbEntity
  8
AM_0
100
AcDbCircle
 10
-7.999511718750015
 20
-15.00500679016179
 30
0.0
 40
1.745536565780599
100
AcDbArc
 50
167.3252205185283
 51
272.2265007399319
  0
LINE
  5
4313
330
1F
100
AcDbEntity
  8
AM_0
100
AcDbLine
 10
-6.007499694825015
 20
-14.92701911926379
 30
0.0
 11
-5.92750167846701
 21
-16.9570293426528
 31
0.0
  0
LINE
  5
4316
330
1F
100
AcDbEntity
  8
AM_0
100
AcDbLine
 10
-40.8705139160155
 20
-16.00000190734979
 30
0.0
 11
-40.8705139160155
 21
15.9999980926502
 31
0.0
  0
LINE
  5
4317
330
1F
100
AcDbEntity
  8
AM_0
100
AcDbLine
 10
-40.00451660156301
 20
-15.50000190734979
 30
0.0
 11
-40.00451660156301
 21
15.4999980926502
 31
0.0
  0
LINE
  5
4318
330
1F
100
AcDbEntity
  8
AM_0
100
AcDbLine
 10
-28.00451660156301
 20
-15.50000190734979
 30
0.0
 11
-28.00451660156301
 21
3.711973190306206
 31
0.0
  0
LINE
  5
4319
330
1F
100
AcDbEntity
  8
AM_0
100
AcDbLine
 10
-28.004516601563
 20
15.4999980926502
 30
0.0
 11
-40.00451660156301
 21
15.4999980926502
 31
0.0
  0
LINE
  5
431A
330
1F
100
AcDbEntity
  8
AM_0
100
AcDbLine
 10
-15.97052383422901
 20
18.7490196228012
 30
0.0
 11
-15.90752410888701
 21
19.2500190734852
 31
0.0
  0
LINE
  5
431B
330
1F
100
AcDbEntity
  8
AM_0
100
AcDbLine
 10
-22.64748764038101
 20
12.3269882202142
 30
0.0
 11
-27.160488128662
 21
15.1329898834222
 31
0.0
  0
LINE
  5
431C
330
1F
100
AcDbEntity
  8
AM_0
100
AcDbLine
 10
-16.51552963256901
 20
10.7960052490222
 30
0.0
 11
-17.07054519653401
 21
11.0530128478992
 31
0.0
  0
ARC
  5
431D
330
1F
100
AcDbEntity
  8
AM_0
100
AcDbCircle
 10
-16.484527587891
 20
11.5960063934312
 30
0.0
 40
0.7989023923874
100
AcDbArc
 50
222.8188418124975
 51
267.7809013638978
  0
LINE
  5
431E
330
1F
100
AcDbEntity
  8
AM_0
100
AcDbLine
 10
-20.831527709961
 20
16.7589797973622
 30
0.0
 11
-26.315523147583
 21
15.7729816436752
 31
0.0
  0
LINE
  5
431F
330
1F
100
AcDbEntity
  8
AM_0
100
AcDbLine
 10
-17.22650146484401
 20
13.0259819030752
 30
0.0
 11
-16.12250518798901
 21
18.6199569702142
 31
0.0
  0
LINE
  5
4320
330
1F
100
AcDbEntity
  8
AM_0
100
AcDbLine
 10
-16.124507904053
 20
18.6219825744622
 30
0.0
 11
-16.12252426147501
 21
18.6199951171862
 31
0.0
  0
LINE
  5
4321
330
1F
100
AcDbEntity
  8
AM_0
100
AcDbLine
 10
-20.004516601563
 20
18.7459697723382
 30
0.0
 11
-20.004516601563
 21
17.7459697723382
 31
0.0
  0
LINE
  5
4322
330
1F
100
AcDbEntity
  8
AM_0
100
AcDbLine
 10
-17.226505279541
 20
13.0259857177722
 30
0.0
 11
-17.28150558471701
 21
11.6269817352282
 31
0.0
  0
LINE
  5
4323
330
1F
100
AcDbEntity
  8
AM_0
100
AcDbLine
 10
-17.07051849365301
 20
11.0530090332022
 30
0.0
 11
-17.28151321411201
 21
11.6269969940172
 31
0.0
  0
ARC
  5
4324
330
1F
100
AcDbEntity
  8
AM_0
100
AcDbCircle
 10
-15.333526611328
 20
12.3319683074942
 30
0.0
 40
1.994297862052899
100
AcDbArc
 50
167.9012300080278
 51
185.5247726799868
  0
ARC
  5
4325
330
1F
100
AcDbEntity
  8
AM_0
100
AcDbCircle
 10
-15.61849975586001
 20
12.3429851531972
 30
0.0
 40
1.9963526725769
100
AcDbArc
 50
140.1209364930725
 51
219.1662410594847
  0
ARC
  5
4326
330
1F
100
AcDbEntity
  8
AM_0
100
AcDbCircle
 10
-16.484527587891
 20
11.5960063934312
 30
0.0
 40
0.7976026535034001
100
AcDbArc
 50
177.7725542892447
 51
222.8188418124975
  0
LINE
  5
4327
330
1F
100
AcDbEntity
  8
AM_0
100
AcDbLine
 10
-16.513496398926
 20
10.7979717254632
 30
0.0
 11
-16.51550292968801
 21
10.7959632873522
 31
0.0
  0
ARC
  5
4328
330
1F
100
AcDbEntity
  8
AM_0
100
AcDbCircle
 10
-15.333526611328
 20
12.3319683074942
 30
0.0
 40
1.998165369033799
100
AcDbArc
 50
230.462438210768
 51
262.416709846388
  0
LINE
  5
4329
330
1F
100
AcDbEntity
  8
AM_0
100
AcDbLine
 10
-28.004516601563
 20
14.6589946746812
 30
0.0
 11
-28.004516601563
 21
15.4999980926502
 31
0.0
  0
LINE
  5
432A
330
1F
100
AcDbEntity
  8
AM_0
100
AcDbLine
 10
-27.560455322266
 20
15.5779685974112
 30
0.0
 11
-27.57145690918
 21
15.5769691467272
 31
0.0
  0
LINE
  5
432B
330
1F
100
AcDbEntity
  8
AM_0
100
AcDbLine
 10
-27.571533203125
 20
15.5769939422592
 30
0.0
 11
-28.00455856323301
 21
15.4999904632562
 31
0.0
  0
LINE
  5
432D
330
1F
100
AcDbEntity
  8
AM_0
100
AcDbLine
 10
-40.00456619262701
 20
15.4999885559072
 30
0.0
 11
-40.8705587387084
 21
15.9999847412102
 31
0.0
  0
LINE
  5
432E
330
1F
100
AcDbEntity
  8
AM_0
100
AcDbLine
 10
-40.00451660156301
 20
-15.50000190734979
 30
0.0
 11
-28.00451660156301
 21
-15.50000190734979
 31
0.0
  0
LINE
  5
432F
330
1F
100
AcDbEntity
  8
AM_0
100
AcDbLine
 10
-20.00451660156301
 20
-18.74603462219379
 30
0.0
 11
-20.00451660156301
 21
-4.763002395630796
 31
0.0
  0
LINE
  5
4330
330
1F
100
AcDbEntity
  8
AM_0
100
AcDbLine
 10
-17.01351928711001
 20
-5.418039321900797
 30
0.0
 11
-19.50452041626001
 21
-5.266038894654795
 31
0.0
  0
LINE
  5
4331
330
1F
100
AcDbEntity
  8
AM_0
100
AcDbLine
 10
-20.00451660156301
 20
-3.916017532349795
 30
0.0
 11
-20.00451660156301
 21
-4.763002395630796
 31
0.0
  0
LINE
  5
4332
330
1F
100
AcDbEntity
  8
AM_0
100
AcDbLine
 10
-20.83153724670401
 20
-16.7580471038828
 30
0.0
 11
-26.31552505493201
 21
-15.77304649353179
 31
0.0
  0
LINE
  5
4333
330
1F
100
AcDbEntity
  8
AM_0
100
AcDbLine
 10
-28.00449562072801
 20
-15.50002479553379
 30
0.0
 11
-27.57150840759301
 21
-15.57601737976179
 31
0.0
  0
LINE
  5
4334
330
1F
100
AcDbEntity
  8
AM_0
100
AcDbLine
 10
-27.56052970886301
 20
-15.57703208923479
 30
0.0
 11
-27.57153129577701
 21
-15.57603263855079
 31
0.0
  0
LINE
  5
4336
330
1F
100
AcDbEntity
  8
AM_0
100
AcDbLine
 10
-40.8704872131346
 20
-16.00010490417579
 30
0.0
 11
-40.00446796417301
 21
-15.50009346008379
 31
0.0
  0
LINE
  5
4337
330
1F
100
AcDbEntity
  8
AM_0
100
AcDbLine
 10
-200.0045166015619
 20
-13.66101264953678
 30
0.0
 11
-200.0045166015619
 21
13.66198539733821
 31
0.0
  0
LINE
  5
4338
330
1F
100
AcDbEntity
  8
AM_0
100
AcDbLine
 10
-197.004516601562
 20
-16.00000190734978
 30
0.0
 11
-197.004516601562
 21
15.99999809265021
 31
0.0
  0
ARC
  5
4339
330
1F
100
AcDbEntity
  8
AM_0
100
AcDbCircle
 10
-198.004516601562
 20
13.66198539733821
 30
0.0
 40
2.000236988067599
100
AcDbArc
 50
105.0089147248961
 51
180.0
  0
LINE
  5
433A
330
1F
100
AcDbEntity
  8
AM_0
100
AcDbLine
 10
-197.0045471191399
 20
15.99998092651221
 30
0.0
 11
-198.522544860839
 21
15.59397888183521
 31
0.0
  0
ARC
  5
433B
330
1F
100
AcDbEntity
  8
AM_0
100
AcDbCircle
 10
-198.004516601562
 20
-13.66101264953678
 30
0.0
 40
2.0
100
AcDbArc
 50
180.0
 51
254.9910852751038
  0
LINE
  5
433C
330
1F
100
AcDbEntity
  8
AM_0
100
AcDbLine
 10
-198.522491455078
 20
-15.59303855896078
 30
0.0
 11
-197.004516601562
 21
-16.00004005432278
 31
0.0
  0
LINE
  5
43C9
330
1F
100
AcDbEntity
  8
AM_0
100
AcDbLine
 10
-17.01351928711001
 20
-5.418039321900797
 30
0.0
 11
-11.799530029297
 21
-5.260011672974796
 31
0.0
  0
VIEWPORT
  5
110
330
101
100
AcDbEntity
 67
     1
  8
0
100
AcDbViewport
 10
420.5
 20
297.0
 30
0.0
 40
948.9782706766916
 41
628.452
 68
     1
 69
     1
1001
ACAD
1000
MVIEW
1002
{
1070
    16
1010
0.0
1020
0.0
1030
0.0
1010
0.0
1020
0.0
1030
1.0
1040
0.0
1040
628.452
1040
420.5
1040
297.0
1040
50.0
1040
0.0
1040
0.0
1070
     0
1070
   100
1070
     1
1070
     1
1070
     0
1070
     0
1070
     0
1070
     0
1040
0.0
1040
0.0
1040
0.0
1040
10.0
1040
10.0
1040
10.0
1040
10.0
1070
     0
1002
{
1002
}
1002
}
  0
ENDSEC
  0
SECTION
  2
OBJECTS
  0
DICTIONARY
  5
C
330
0
100
AcDbDictionary
  3
ACAD_GROUP
350
D
  3
ACAD_LAYOUT
350
1A
  3
ACAD_MLINESTYLE
350
17
  3
ACAD_PLOTSETTINGS
350
19
  3
ACAD_PLOTSTYLENAME
350
E
  3
ACDBVARIABLEDICTIONARY
350
34
  3
ACMDICTIONARY
350
43
  3
AMG
350
2B
  3
AMGSNAPSETTINGS
350
6E
  3
DWGPROPS
350
43FC
  3
ACDBHEADERROUNDTRIPXREC
350
4408
  0
DICTIONARY
  5
74
330
1F
100
AcDbDictionary
280
     1
  3
ACAD_INDEX
360
43FE
  3
ACAD_LAYOUTSELFREF
360
442B
  0
DICTIONARY
  5
4430
330
101
100
AcDbDictionary
280
     1
  3
ACAD_LAYOUTSELFREF
360
4431
  0
DICTIONARY
  5
D
102
{ACAD_REACTORS
330
C
102
}
330
C
100
AcDbDictionary
  0
DICTIONARY
  5
1A
102
{ACAD_REACTORS
330
C
102
}
330
C
100
AcDbDictionary
  0
DICTIONARY
  5
17
102
{ACAD_REACTORS
330
C
102
}
330
C
100
AcDbDictionary
  3
STANDARD
350
18
  0
DICTIONARY
  5
19
102
{ACAD_REACTORS
330
C
102
}
330
C
100
AcDbDictionary
  0
ACDBDICTIONARYWDFLT
  5
E
102
{ACAD_REACTORS
330
C
102
}
330
C
100
AcDbDictionary
281
     1
  3
Normal
350
F
100
AcDbDictionaryWithDefault
340
F
  0
DICTIONARY
  5
34
102
{ACAD_REACTORS
330
C
102
}
330
C
100
AcDbDictionary
  3
INDEXCTL
350
35
  3
SORTENTS
350
B5E
  0
DICTIONARY
  5
43
102
{ACAD_REACTORS
330
C
102
}
330
C
100
AcDbDictionary
  3
ACMSTDDICTIONARY
350
260
  0
DICTIONARY
  5
2B
102
{ACAD_REACTORS
330
C
102
}
330
C
100
AcDbDictionary
  3
ACMGSETTINGS
350
2C
  0
DICTIONARY
  5
6E
102
{ACAD_REACTORS
330
C
102
}
330
C
100
AcDbDictionary
  0
XRECORD
  5
43FC
102
{ACAD_REACTORS
330
C
102
}
330
C
100
AcDbXrecord
  1
DWGPROPS COOKIE
  2

  3

  4

  6

  7

  8

  9

300
AmdtFileType=82
301
=
302
=
303
=
304
=
305
=
306
=
307
=
308
=
309
=
 40
0.1479249652777778
 41
2452839.420061482
 42
2453075.629740659
  1

 90
        1
  0
DICTIONARY
  5
4408
102
{ACAD_REACTORS
330
C
102
}
330
C
100
AcDbDictionary
  3
TSTACKALIGN
350
4409
  3
TSTACKSIZE
350
440A
  3
HYPERLINKBASE
350
440B
  3
STYLESHEET
350
440C
  3
LAYOUTDICT
350
440D
  3
PLOTSETDICT
350
440E
  3
PLOTSTYLNAMDICT
350
440F
  3
LWETCUNION
350
4410
  3
INSUNITS
350
4411
  3
CEPSNTYPE
350
4412
  3
FINGERPRINTGUID
350
4413
  3
VERSIONGUID
350
4414
  3
PSVPSCALE
350
4415
  3
DIMSTYLEDATA
350
4416
  3
PUCSORTHOREF
350
4417
  3
PUCSORTHOVIEW
350
4418
  3
PUCSBASE
350
4419
  3
PUCSORGTOP
350
441A
  3
PUCSORGBOTTOM
350
441B
  3
PUCSORGLEFT
350
441C
  3
PUCSORGRIGHT
350
441D
  3
PUCSORGFRONT
350
441E
  3
PUCSORGBACK
350
441F
  3
UCSORTHOREF
350
4420
  3
UCSORTHOVIEW
350
4421
  3
UCSBASE
350
4422
  3
UCSORGTOP
350
4423
  3
UCSORGBOTTOM
350
4424
  3
UCSORGLEFT
350
4425
  3
UCSORGRIGHT
350
4426
  3
UCSORGFRONT
350
4427
  3
UCSORGBACK
350
4428
  0
DICTIONARY
  5
43FE
102
{ACAD_REACTORS
330
74
102
}
330
74
100
AcDbDictionary
  3
*A1
350
43FF
  0
XRECORD
  5
442B
102
{ACAD_REACTORS
330
74
102
}
330
74
100
AcDbXrecord
340
1F
  0
XRECORD
  5
4431
102
{ACAD_REACTORS
330
4430
102
}
330
4430
100
AcDbXrecord
340
101
  0
MLINESTYLE
  5
18
102
{ACAD_REACTORS
330
17
102
}
330
17
100
AcDbMlineStyle
  2
STANDARD
 70
     0
  3

 62
   256
 51
90.0
 52
90.0
 71
     2
 49
0.5
 62
   256
  6
BYLAYER
 49
-0.5
 62
   256
  6
BYLAYER
  0
ACDBPLACEHOLDER
  5
F
102
{ACAD_REACTORS
330
E
102
}
330
E
100
AcDbPlaceHolder
280
     0
  0
DICTIONARYVAR
  5
35
102
{ACAD_REACTORS
330
34
102
}
330
34
100
DictionaryVariables
280
     0
  1
1
  0
DICTIONARYVAR
  5
B5E
102
{ACAD_REACTORS
330
34
102
}
330
34
100
DictionaryVariables
280
     0
  1
96
  0
DICTIONARY
  5
260
102
{ACAD_REACTORS
330
43
102
}
330
43
100
AcDbDictionary
  0
DICTIONARY
  5
2C
102
{ACAD_REACTORS
330
2B
102
}
330
2B
100
AcDbDictionary
  3
DWGSETTINGS
350
2D
  0
XRECORD
  5
4409
102
{ACAD_REACTORS
330
4408
102
}
330
4408
100
AcDbXrecord
 90
        1
  0
XRECORD
  5
440A
102
{ACAD_REACTORS
330
4408
102
}
330
4408
100
AcDbXrecord
 90
       70
  0
XRECORD
  5
440B
102
{ACAD_REACTORS
330
4408
102
}
330
4408
100
AcDbXrecord
  1

  0
XRECORD
  5
440C
102
{ACAD_REACTORS
330
4408
102
}
330
4408
100
AcDbXrecord
  1
ASAMI.ctb
  0
XRECORD
  5
440D
102
{ACAD_REACTORS
330
4408
102
}
330
4408
100
AcDbXrecord
340
1A
  0
XRECORD
  5
440E
102
{ACAD_REACTORS
330
4408
102
}
330
4408
100
AcDbXrecord
340
19
  0
XRECORD
  5
440F
102
{ACAD_REACTORS
330
4408
102
}
330
4408
100
AcDbXrecord
340
E
  0
XRECORD
  5
4410
102
{ACAD_REACTORS
330
4408
102
}
330
4408
100
AcDbXrecord
 90
    10781
  0
XRECORD
  5
4411
102
{ACAD_REACTORS
330
4408
102
}
330
4408
100
AcDbXrecord
 90
        4
  0
XRECORD
  5
4412
102
{ACAD_REACTORS
330
4408
102
}
330
4408
100
AcDbXrecord
 90
        0
  0
XRECORD
  5
4413
102
{ACAD_REACTORS
330
4408
102
}
330
4408
100
AcDbXrecord
  1
{AFB28963-8C59-40AE-9337-C84526B81ACE}
  0
XRECORD
  5
4414
102
{ACAD_REACTORS
330
4408
102
}
330
4408
100
AcDbXrecord
  1
{46BC6F55-841C-4EDF-A16D-244DBB189349}
  0
XRECORD
  5
4415
102
{ACAD_REACTORS
330
4408
102
}
330
4408
100
AcDbXrecord
 40
0.0
  0
XRECORD
  5
4416
102
{ACAD_REACTORS
330
4408
102
}
330
4408
100
AcDbXrecord
1000
DSTYLE
1002
{
1070
    79
 70
     2
1070
   341
340
59
1070
   342
340
59
1070
   371
 70
    -1
1070
   372
 70
    -1
1002
}
  0
XRECORD
  5
4417
102
{ACAD_REACTORS
330
4408
102
}
330
4408
100
AcDbXrecord
340
0
  0
XRECORD
  5
4418
102
{ACAD_REACTORS
330
4408
102
}
330
4408
100
AcDbXrecord
 70
     0
  0
XRECORD
  5
4419
102
{ACAD_REACTORS
330
4408
102
}
330
4408
100
AcDbXrecord
340
0
  0
XRECORD
  5
441A
102
{ACAD_REACTORS
330
4408
102
}
330
4408
100
AcDbXrecord
 10
0.0
 20
0.0
 30
0.0
  0
XRECORD
  5
441B
102
{ACAD_REACTORS
330
4408
102
}
330
4408
100
AcDbXrecord
 10
0.0
 20
0.0
 30
0.0
  0
XRECORD
  5
441C
102
{ACAD_REACTORS
330
4408
102
}
330
4408
100
AcDbXrecord
 10
0.0
 20
0.0
 30
0.0
  0
XRECORD
  5
441D
102
{ACAD_REACTORS
330
4408
102
}
330
4408
100
AcDbXrecord
 10
0.0
 20
0.0
 30
0.0
  0
XRECORD
  5
441E
102
{ACAD_REACTORS
330
4408
102
}
330
4408
100
AcDbXrecord
 10
0.0
 20
0.0
 30
0.0
  0
XRECORD
  5
441F
102
{ACAD_REACTORS
330
4408
102
}
330
4408
100
AcDbXrecord
 10
0.0
 20
0.0
 30
0.0
  0
XRECORD
  5
4420
102
{ACAD_REACTORS
330
4408
102
}
330
4408
100
AcDbXrecord
340
0
  0
XRECORD
  5
4421
102
{ACAD_REACTORS
330
4408
102
}
330
4408
100
AcDbXrecord
 70
     0
  0
XRECORD
  5
4422
102
{ACAD_REACTORS
330
4408
102
}
330
4408
100
AcDbXrecord
340
0
  0
XRECORD
  5
4423
102
{ACAD_REACTORS
330
4408
102
}
330
4408
100
AcDbXrecord
 10
0.0
 20
0.0
 30
0.0
  0
XRECORD
  5
4424
102
{ACAD_REACTORS
330
4408
102
}
330
4408
100
AcDbXrecord
 10
0.0
 20
0.0
 30
0.0
  0
XRECORD
  5
4425
102
{ACAD_REACTORS
330
4408
102
}
330
4408
100
AcDbXrecord
 10
0.0
 20
0.0
 30
0.0
  0
XRECORD
  5
4426
102
{ACAD_REACTORS
330
4408
102
}
330
4408
100
AcDbXrecord
 10
0.0
 20
0.0
 30
0.0
  0
XRECORD
  5
4427
102
{ACAD_REACTORS
330
4408
102
}
330
4408
100
AcDbXrecord
 10
0.0
 20
0.0
 30
0.0
  0
XRECORD
  5
4428
102
{ACAD_REACTORS
330
4408
102
}
330
4408
100
AcDbXrecord
 10
0.0
 20
0.0
 30
0.0
  0
LAYER_INDEX
  5
43FF
102
{ACAD_REACTORS
330
43FE
102
}
330
43FE
100
AcDbIndex
 40
2453152.393333055
100
AcDbLayerIndex
  8
0
360
4400
 90
        0
  8
AM_0
360
4401
 90
      191
  8
AM_7
360
4402
 90
        1
  8
AM_11
360
4403
 90
        4
  8
AM_5
360
4404
 90
        6
  8
Defpoints
360
4405
 90
        0
  8
AM_6
360
4406
 90
        1
  0
XRECORD
  5
2D
102
{ACAD_REACTORS
330
2C
102
}
330
2C
100
AcDbXrecord
  1
VERSION
140
15.0
  1
PRODUCT
  2
AutoCAD Mechanical 2000
  0
IDBUFFER
  5
4400
330
0
100
AcDbIdBuffer
  0
IDBUFFER
  5
4401
330
0
100
AcDbIdBuffer
330
42E9
330
42EA
330
42EB
330
42EC
330
42ED
330
42EE
330
42EF
330
42F0
330
42F1
330
42F2
330
42F3
330
42F4
330
42F5
330
42F6
330
42F7
330
42F8
330
42F9
330
42FA
330
42FC
330
42FD
330
42FE
330
42FF
330
4300
330
4301
330
4302
330
4303
330
4304
330
4305
330
4306
330
4307
330
4308
330
4309
330
430A
330
430C
330
430D
330
430E
330
430F
330
4310
330
4311
330
4312
330
4313
330
4316
330
4317
330
4318
330
4319
330
431A
330
431B
330
431C
330
431D
330
431E
330
431F
330
4320
330
4321
330
4322
330
4323
330
4324
330
4325
330
4326
330
4327
330
4328
330
4329
330
432A
330
432B
330
432D
330
432E
330
432F
330
4330
330
4331
330
4332
330
4333
330
4334
330
4336
330
4337
330
4338
330
4339
330
433A
330
433B
330
433C
330
43C9
330
41E9
330
41EA
330
41EB
330
41EC
330
41ED
330
41EE
330
41EF
330
41F0
330
41F1
330
41F2
330
41F3
330
41F4
330
41F5
330
41F6
330
41F7
330
41F8
330
41F9
330
41FA
330
41FB
330
41FC
330
41FD
330
41FE
330
41FF
330
4200
330
4201
330
4202
330
4203
330
4204
330
4205
330
4206
330
4207
330
4208
330
4209
330
420A
330
420B
330
420C
330
420D
330
420E
330
420F
330
4210
330
4211
330
4212
330
4213
330
4214
330
4225
330
4243
330
4244
330
4245
330
4246
330
4247
330
4248
330
4249
330
424A
330
424B
330
424C
330
424D
330
424E
330
424F
330
4250
330
4251
330
4252
330
4253
330
42B4
330
42B5
330
42B6
330
42B7
330
42B8
330
42BB
330
42BC
330
42BD
330
42BE
330
42BF
330
42C1
330
42C2
330
42C3
330
42C4
330
42C5
330
42C6
330
42C7
330
42C8
330
42C9
330
42CA
330
42CB
330
42CC
330
42CD
330
42CE
330
42CF
330
42D0
330
42D1
330
42D2
330
42D3
330
42D4
330
42D5
330
42D6
330
42D7
330
42D8
330
42D9
330
42DA
330
42DB
330
42DC
330
42DD
330
42DE
330
42DF
330
42E0
330
42E1
330
42E2
330
42E3
330
42E4
330
42E5
330
42E6
330
42E7
330
42E8
  0
IDBUFFER
  5
4402
330
0
100
AcDbIdBuffer
330
41E8
  0
IDBUFFER
  5
4403
330
0
100
AcDbIdBuffer
330
42B9
330
42BA
330
42C0
330
430B
  0
IDBUFFER
  5
4404
330
0
100
AcDbIdBuffer
330
385C
330
38E8
330
3983
330
3A0B
330
3AF5
330
3B7D
  0
IDBUFFER
  5
4405
330
0
100
AcDbIdBuffer
  0
IDBUFFER
  5
4406
330
0
100
AcDbIdBuffer
330
1142
  0
ENDSEC
  0
EOF
