  0
SECTION
  2
HEADER
  9
$ACADVER
  1
AC1014
  9
$ACADMAINTVER
 70
     9
  9
$DWGCODEPAGE
  3
ANSI_932
  9
$INSBASE
 10
0.0
 20
0.0
 30
0.0
  9
$EXTMIN
 10
-72.26350087943384
 20
-91.50001674083766
 30
-0.00000001
  9
$EXTMAX
 10
26.95970865422012
 20
44.2999862470324
 30
0.00000001
  9
$LIMMIN
 10
-115.3165102585135
 20
-95.62518456515954
  9
$LIMMAX
 10
111.2668593493902
 20
46.0918537569537
  9
$ORTHOMODE
 70
     0
  9
$REGENMODE
 70
     1
  9
$FILLMODE
 70
     1
  9
$QTEXTMODE
 70
     0
  9
$MIRRTEXT
 70
     0
  9
$DRAGMODE
 70
     2
  9
$LTSCALE
 40
1.0
  9
$OSMODE
 70
    55
  9
$ATTMODE
 70
     1
  9
$TEXTSIZE
 40
2.5
  9
$TRACEWID
 40
1.0
  9
$TEXTSTYLE
  7
STANDARD
  9
$CLAYER
  8
AM_11
  9
$CELTYPE
  6
BYLAYER
  9
$CECOLOR
 62
   256
  9
$CELTSCALE
 40
1.0
  9
$DELOBJ
 70
     1
  9
$DISPSILH
 70
     0
  9
$DIMSCALE
 40
1.0
  9
$DIMASZ
 40
2.5
  9
$DIMEXO
 40
1.0
  9
$DIMDLI
 40
12.0
  9
$DIMRND
 40
0.0
  9
$DIMDLE
 40
0.0
  9
$DIMEXE
 40
1.0
  9
$DIMTP
 40
0.1
  9
$DIMTM
 40
0.1
  9
$DIMTXT
 40
3.2
  9
$DIMCEN
 40
0.0
  9
$DIMTSZ
 40
0.0
  9
$DIMTOL
 70
     0
  9
$DIMLIM
 70
     0
  9
$DIMTIH
 70
     0
  9
$DIMTOH
 70
     0
  9
$DIMSE1
 70
     0
  9
$DIMSE2
 70
     0
  9
$DIMTAD
 70
     3
  9
$DIMZIN
 70
     8
  9
$DIMBLK
  1
OPEN30
  9
$DIMASO
 70
     1
  9
$DIMSHO
 70
     1
  9
$DIMPOST
  1

  9
$DIMAPOST
  1
"
  9
$DIMALT
 70
     0
  9
$DIMALTD
 70
     2
  9
$DIMALTF
 40
0.0393701
  9
$DIMLFAC
 40
1.0
  9
$DIMTOFL
 70
     1
  9
$DIMTVP
 40
0.0
  9
$DIMTIX
 70
     0
  9
$DIMSOXD
 70
     0
  9
$DIMSAH
 70
     0
  9
$DIMBLK1
  1

  9
$DIMBLK2
  1

  9
$DIMSTYLE
  2
AM_JIS
  9
$DIMCLRD
 70
   256
  9
$DIMCLRE
 70
   256
  9
$DIMCLRT
 70
     2
  9
$DIMTFAC
 40
0.71
  9
$DIMGAP
 40
1.5
  9
$DIMJUST
 70
     0
  9
$DIMSD1
 70
     0
  9
$DIMSD2
 70
     0
  9
$DIMTOLJ
 70
     0
  9
$DIMTZIN
 70
     0
  9
$DIMALTZ
 70
     0
  9
$DIMALTTZ
 70
     0
  9
$DIMFIT
 70
     3
  9
$DIMUPT
 70
     0
  9
$DIMUNIT
 70
     2
  9
$DIMDEC
 70
     3
  9
$DIMTDEC
 70
     3
  9
$DIMALTU
 70
     2
  9
$DIMALTTD
 70
     2
  9
$DIMTXSTY
  7
ASAMI
  9
$DIMAUNIT
 70
     0
  9
$LUNITS
 70
     2
  9
$LUPREC
 70
     0
  9
$SKETCHINC
 40
1.0
  9
$FILLETRAD
 40
2.5
  9
$AUNITS
 70
     0
  9
$AUPREC
 70
     0
  9
$MENU
  1
.
  9
$ELEVATION
 40
0.0
  9
$PELEVATION
 40
0.0
  9
$THICKNESS
 40
0.0
  9
$LIMCHECK
 70
     0
  9
$BLIPMODE
 70
     0
  9
$CHAMFERA
 40
2.5
  9
$CHAMFERB
 40
2.5
  9
$CHAMFERC
 40
20.0
  9
$CHAMFERD
 40
0.0
  9
$SKPOLY
 70
     0
  9
$TDCREATE
 40
2452839.420061482
  9
$TDUPDATE
 40
2453152.392757951
  9
$TDINDWG
 40
0.1579314815
  9
$TDUSRTIMER
 40
0.1579314815
  9
$USRTIMER
 70
     1
  9
$ANGBASE
 50
0.0
  9
$ANGDIR
 70
     0
  9
$PDMODE
 70
     0
  9
$PDSIZE
 40
0.0
  9
$PLINEWID
 40
0.0
  9
$COORDS
 70
     1
  9
$SPLFRAME
 70
     0
  9
$SPLINETYPE
 70
     6
  9
$SPLINESEGS
 70
     8
  9
$ATTDIA
 70
     1
  9
$ATTREQ
 70
     1
  9
$HANDLING
 70
 12289
  9
$HANDSEED
  5
5680
  9
$SURFTAB1
 70
     6
  9
$SURFTAB2
 70
     6
  9
$SURFTYPE
 70
     6
  9
$SURFU
 70
     6
  9
$SURFV
 70
     6
  9
$UCSNAME
  2

  9
$UCSORG
 10
0.0
 20
0.0
 30
0.0
  9
$UCSXDIR
 10
1.0
 20
0.0
 30
0.0
  9
$UCSYDIR
 10
0.0
 20
1.0
 30
0.0
  9
$PUCSNAME
  2

  9
$PUCSORG
 10
0.0
 20
0.0
 30
0.0
  9
$PUCSXDIR
 10
1.0
 20
0.0
 30
0.0
  9
$PUCSYDIR
 10
0.0
 20
1.0
 30
0.0
  9
$USERI1
 70
     0
  9
$USERI2
 70
     0
  9
$USERI3
 70
     0
  9
$USERI4
 70
     0
  9
$USERI5
 70
     0
  9
$USERR1
 40
0.0
  9
$USERR2
 40
0.0
  9
$USERR3
 40
0.0
  9
$USERR4
 40
0.0
  9
$USERR5
 40
0.0
  9
$WORLDVIEW
 70
     1
  9
$SHADEDGE
 70
     3
  9
$SHADEDIF
 70
    70
  9
$TILEMODE
 70
     1
  9
$MAXACTVP
 70
    64
  9
$PINSBASE
 10
0.0
 20
0.0
 30
0.0
  9
$PLIMCHECK
 70
     0
  9
$PEXTMIN
 10
1.000000000000000E+20
 20
1.000000000000000E+20
 30
1.000000000000000E+20
  9
$PEXTMAX
 10
-1.000000000000000E+20
 20
-1.000000000000000E+20
 30
-1.000000000000000E+20
  9
$PLIMMIN
 10
0.0
 20
0.0
  9
$PLIMMAX
 10
841.0
 20
594.0
  9
$UNITMODE
 70
     0
  9
$VISRETAIN
 70
     1
  9
$PLINEGEN
 70
     0
  9
$PSLTSCALE
 70
     0
  9
$TREEDEPTH
 70
  3020
  9
$PICKSTYLE
 70
     0
  9
$CMLSTYLE
  2
STANDARD
  9
$CMLJUST
 70
     0
  9
$CMLSCALE
 40
20.0
  9
$PROXYGRAPHICS
 70
     1
  9
$MEASUREMENT
 70
     1
  0
ENDSEC
  0
SECTION
  2
CLASSES
  0
CLASS
  1
ACDBDICTIONARYWDFLT
  2
AcDbDictionaryWithDefault
  3
AutoCAD 2000
 90
        0
280
     0
281
     0
  0
CLASS
  1
ACDBPLACEHOLDER
  2
AcDbPlaceHolder
  3
AutoCAD 2000
 90
        0
280
     0
281
     0
  0
CLASS
  1
LAYOUT
  2
AcDbLayout
  3
AutoCAD 2000
 90
        0
280
     0
281
     0
  0
CLASS
  1
AMGSETTINGSOBJ
  2
AmgSettingsObj
  3
"AcadM|Product Description: AutoCAD Mechanical 2000|Company: Autodesk"
 90
        0
280
     0
281
     0
  0
CLASS
  1
ACME_DOCUMENT
  2
AcMeDbDoc
  3
AcMeServices
 90
        0
280
     0
281
     0
  0
CLASS
  1
ACMESCOPE
  2
AcMeScope
  3
AcMeServices
 90
        0
280
     0
281
     0
  0
CLASS
  1
ACMECOMMANDHISTORY
  2
AcMeCommandHistory
  3
AcMeServices
 90
        0
280
     0
281
     0
  0
CLASS
  1
DICTIONARYVAR
  2
AcDbDictionaryVar
  3
AutoCAD 2000
 90
        0
280
     0
281
     0
  0
CLASS
  1
ACIMSYSVARMAN
  2
AcImSysVarManager
  3
AcMeServices
 90
        0
280
     0
281
     0
  0
CLASS
  1
ACIMREALSYSVAR
  2
AcImRealSysVar
  3
AcMeServices
 90
        0
280
     0
281
     0
  0
CLASS
  1
ACIMINTSYSVAR
  2
AcImIntSysVar
  3
AcMeServices
 90
        0
280
     0
281
     0
  0
CLASS
  1
ACMEDRAWINGMAN
  2
AcMeDrawingMan
  3
AcMeServices
 90
        0
280
     0
281
     0
  0
CLASS
  1
ACMEVIEW
  2
AcMeView
  3
AcMeServices
 90
        0
280
     0
281
     0
  0
CLASS
  1
ACDBENTITYCACHE
  2
AcMeEntityCache
  3
AcMeServices
 90
        0
280
     0
281
     0
  0
CLASS
  1
GSMANAGER
  2
AcMeGSManager
  3
AcMeServices
 90
        0
280
     0
281
     0
  0
CLASS
  1
AmdtInternalReactor
  2
AmdtInternalReactor
  3
AcMeServices
 90
        0
280
     0
281
     0
  0
CLASS
  1
ACMESTATEMGR
  2
AcMeStateMgr
  3
AcMeServices
 90
        0
280
     0
281
     0
  0
CLASS
  1
ACME_DATABASE
  2
AcMeDbDatabase
  3
AcMeServices
 90
        0
280
     0
281
     0
  0
CLASS
  1
ACRFINSADJUSTERMGR
  2
AcRfInsAdjusterMgr
  3
AcMeServices
 90
        0
280
     0
281
     0
  0
CLASS
  1
ACMDATADICTIONARY
  2
AcmDataDictionary
  3
"AcmSymBB|Product Description: AutoCAD Mechanical 2000|Company: Autodesk"
 90
        0
280
     0
281
     0
  0
CLASS
  1
ACMDATAENTRYBLOCK
  2
AcmDataEntryBlock
  3
"AcmSymBB|Product Description: AutoCAD Mechanical 2000|Company: Autodesk"
 90
        0
280
     0
281
     0
  0
CLASS
  1
AMGOBJPROPCFG
  2
AmgObjPropCfg
  3
"AmgLay|Product Description: AutoCAD Mechanical 2000|Company: Autodesk"
 90
        1
280
     0
281
     0
  0
CLASS
  1
ACAMGFILTERDAT
  2
AcAmgFilterDat
  3
"AcadM|Product Description: AutoCAD Mechanical 2000|Company: Autodesk"
 90
        0
280
     0
281
     0
  0
CLASS
  1
LAYER_INDEX
  2
AcDbLayerIndex
  3
AutoCAD 2000
 90
        0
280
     0
281
     0
  0
CLASS
  1
IDBUFFER
  2
AcDbIdBuffer
  3
AutoCAD 2000
 90
        0
280
     0
281
     0
  0
CLASS
  1
ACIMSTRSYSVAR
  2
AcImStrSysVar
  3
AcMeServices
 90
        0
280
     0
281
     0
  0
CLASS
  1
ACMSTANDARDJIS
  2
AcmStandardJIS
  3
"AcmSymBB|Product Description: AutoCAD Mechanical 2000|Company: Autodesk"
 90
        0
280
     0
281
     0
  0
CLASS
  1
ACMSURFSTANDARDJIS
  2
AcmSurfTextStdJIS
  3
"AcmSymBB|Product Description: AutoCAD Mechanical 2000|Company: Autodesk"
 90
        0
280
     0
281
     0
  0
CLASS
  1
ACMFCFSTANDARDJIS
  2
AcmFCFStdJIS
  3
"AcmSymBB|Product Description: AutoCAD Mechanical 2000|Company: Autodesk"
 90
        0
280
     0
281
     0
  0
CLASS
  1
ACMWELDSTANDARDJIS
  2
AcmWeldingStdJIS
  3
"AcmSymBB|Product Description: AutoCAD Mechanical 2000|Company: Autodesk"
 90
        0
280
     0
281
     0
  0
CLASS
  1
ACMIDSTANDARDJIS
  2
AcmIdStdJIS
  3
"AcmSymBB|Product Description: AutoCAD Mechanical 2000|Company: Autodesk"
 90
        0
280
     0
281
     0
  0
CLASS
  1
ACMDATUMSTANDARDJIS
  2
AcmDatumStdJIS
  3
"AcmSymBB|Product Description: AutoCAD Mechanical 2000|Company: Autodesk"
 90
        0
280
     0
281
     0
  0
CLASS
  1
ACMBOMSTANDARDJIS
  2
AcmBOMStdJIS
  3
"AcmSymBB|Product Description: AutoCAD Mechanical 2000|Company: Autodesk"
 90
        0
280
     0
281
     0
  0
CLASS
  1
ACMSTANDARDANSI
  2
AcmStandardANSI
  3
"AcmSymBB|Product Description: AutoCAD Mechanical 2000|Company: Autodesk"
 90
        0
280
     0
281
     0
  0
CLASS
  1
ACMSURFSTANDARDANSI
  2
AcmSurfTextStdANSI
  3
"AcmSymBB|Product Description: AutoCAD Mechanical 2000|Company: Autodesk"
 90
        0
280
     0
281
     0
  0
CLASS
  1
ACMFCFSTANDARDANSI
  2
AcmFCFStdANSI
  3
"AcmSymBB|Product Description: AutoCAD Mechanical 2000|Company: Autodesk"
 90
        0
280
     0
281
     0
  0
CLASS
  1
ACMWELDSTANDARDANSI
  2
AcmWeldingStdANSI
  3
"AcmSymBB|Product Description: AutoCAD Mechanical 2000|Company: Autodesk"
 90
        0
280
     0
281
     0
  0
CLASS
  1
ACMIDSTANDARDANSI
  2
AcmIdStdANSI
  3
"AcmSymBB|Product Description: AutoCAD Mechanical 2000|Company: Autodesk"
 90
        0
280
     0
281
     0
  0
CLASS
  1
ACMDATUMSTANDARDANSI
  2
AcmDatumStdANSI
  3
"AcmSymBB|Product Description: AutoCAD Mechanical 2000|Company: Autodesk"
 90
        0
280
     0
281
     0
  0
CLASS
  1
ACMBOMSTANDARDANSI
  2
AcmBOMStdANSI
  3
"AcmSymBB|Product Description: AutoCAD Mechanical 2000|Company: Autodesk"
 90
        0
280
     0
281
     0
  0
CLASS
  1
ACMSTANDARDBSI
  2
AcmStandardBSI
  3
"AcmSymBB|Product Description: AutoCAD Mechanical 2000|Company: Autodesk"
 90
        0
280
     0
281
     0
  0
CLASS
  1
ACMSURFSTANDARDBSI
  2
AcmSurfTextStdBSI
  3
"AcmSymBB|Product Description: AutoCAD Mechanical 2000|Company: Autodesk"
 90
        0
280
     0
281
     0
  0
CLASS
  1
ACMFCFSTANDARDBSI
  2
AcmFCFStdBSI
  3
"AcmSymBB|Product Description: AutoCAD Mechanical 2000|Company: Autodesk"
 90
        0
280
     0
281
     0
  0
CLASS
  1
ACMWELDSTANDARDBSI
  2
AcmWeldingStdBSI
  3
"AcmSymBB|Product Description: AutoCAD Mechanical 2000|Company: Autodesk"
 90
        0
280
     0
281
     0
  0
CLASS
  1
ACMIDSTANDARDBSI
  2
AcmIdStdBSI
  3
"AcmSymBB|Product Description: AutoCAD Mechanical 2000|Company: Autodesk"
 90
        0
280
     0
281
     0
  0
CLASS
  1
ACMDATUMSTANDARDBSI
  2
AcmDatumStdBSI
  3
"AcmSymBB|Product Description: AutoCAD Mechanical 2000|Company: Autodesk"
 90
        0
280
     0
281
     0
  0
CLASS
  1
ACMBOMSTANDARDBSI
  2
AcmBOMStdBSI
  3
"AcmSymBB|Product Description: AutoCAD Mechanical 2000|Company: Autodesk"
 90
        0
280
     0
281
     0
  0
CLASS
  1
LONG_TRANSACTION
  2
AcDbLongTransaction
  3
AutoCAD 2000
 90
        0
280
     0
281
     0
  0
CLASS
  1
LWPOLYLINE
  2
AcDbPolyline
  3
AutoCAD 2000
 90
        0
280
     0
281
     1
  0
CLASS
  1
HATCH
  2
AcDbHatch
  3
AutoCAD 2000
 90
        0
280
     0
281
     1
  0
CLASS
  1
XRECORD
  2
AcDbXrecord
  3
AutoCAD 2000
 90
        0
280
     0
281
     0
  0
ENDSEC
  0
SECTION
  2
TABLES
  0
TABLE
  2
VPORT
  5
8
330
0
100
AcDbSymbolTable
 70
     3
  0
VPORT
  5
5655
330
8
100
AcDbSymbolTableRecord
100
AcDbViewportTableRecord
  2
*ACTIVE
 70
     0
 10
0.0
 20
0.0
 11
1.0
 21
1.0
 12
-4.22565447128926
 22
-28.03083357070173
 13
0.0
 23
0.0
 14
2.5
 24
2.5
 15
10.0
 25
10.0
 16
0.0
 26
0.0
 36
1.0
 17
0.0
 27
0.0
 37
0.0
 40
154.9537952404494
 41
1.56570841889117
 42
50.0
 43
0.0
 44
0.0
 50
0.0
 51
0.0
 71
     0
 72
   100
 73
     1
 74
     3
 75
     0
 76
     0
 77
     0
 78
     0
  0
ENDTAB
  0
TABLE
  2
LTYPE
  5
5
330
0
100
AcDbSymbolTable
 70
    10
  0
LTYPE
  5
14
330
5
100
AcDbSymbolTableRecord
100
AcDbLinetypeTableRecord
  2
BYBLOCK
 70
     0
  3

 72
    65
 73
     0
 40
0.0
  0
LTYPE
  5
15
330
5
100
AcDbSymbolTableRecord
100
AcDbLinetypeTableRecord
  2
BYLAYER
 70
     0
  3

 72
    65
 73
     0
 40
0.0
  0
LTYPE
  5
16
330
5
100
AcDbSymbolTableRecord
100
AcDbLinetypeTableRecord
  2
CONTINUOUS
 70
     0
  3
Solid line
 72
    65
 73
     0
 40
0.0
  0
LTYPE
  5
4B
330
5
100
AcDbSymbolTableRecord
100
AcDbLinetypeTableRecord
  2
AM_ISO02W050
 70
     0
  3
__ __ __ __ __ __ __ __ __ __ __ __ __ __ __
 72
    65
 73
     2
 40
7.5
 49
6.0
 74
     0
 49
-1.5
 74
     0
  0
LTYPE
  5
4C
330
5
100
AcDbSymbolTableRecord
100
AcDbLinetypeTableRecord
  2
AM_ISO08W050
 70
     0
  3
____ . ____ . ____ . ____ . ____ . ____ . ____
 72
    65
 73
     4
 40
18.0
 49
12.0
 74
     0
 49
-1.5
 74
     0
 49
3.0
 74
     0
 49
-1.5
 74
     0
  0
LTYPE
  5
4D
330
5
100
AcDbSymbolTableRecord
100
AcDbLinetypeTableRecord
  2
AM_ISO09W050
 70
     0
  3
_____ . . _____ . . _____ . . ____ .. ____
 72
    65
 73
     6
 40
22.5
 49
12.0
 74
     0
 49
-1.5
 74
     0
 49
3.0
 74
     0
 49
-1.5
 74
     0
 49
3.0
 74
     0
 49
-1.5
 74
     0
  0
LTYPE
  5
4E
330
5
100
AcDbSymbolTableRecord
100
AcDbLinetypeTableRecord
  2
AMCONSTR
 70
     0
  3
_______________________
 72
    65
 73
     2
 40
9999.0
 49
9999.0
 74
     0
 49
0.0
 74
     0
  0
LTYPE
  5
4F
330
5
100
AcDbSymbolTableRecord
100
AcDbLinetypeTableRecord
  2
AM_ISO02W050X2
 70
     0
  3
 _ _ _ _ _ _ _ _ _ _ _ _
 72
    65
 73
     2
 40
3.75
 49
3.0
 74
     0
 49
-0.75
 74
     0
  0
LTYPE
  5
50
330
5
100
AcDbSymbolTableRecord
100
AcDbLinetypeTableRecord
  2
AM_ISO08W050X2
 70
     0
  3
__ . __ . __ . __ . __ . __
 72
    65
 73
     4
 40
9.0
 49
6.0
 74
     0
 49
-0.75
 74
     0
 49
1.5
 74
     0
 49
-0.75
 74
     0
  0
LTYPE
  5
53
330
5
100
AcDbSymbolTableRecord
100
AcDbLinetypeTableRecord
  2
AMZIGZAG
 70
     0
  3
/\/-/\/-/\/-/\/-/\/-/\/
 72
    65
 73
     2
 40
11.00009999999999
 49
0.0001
 74
     4
 75
   135
340
52
 46
0.04
 50
0.0
 44
0.0
 45
0.0
 49
-11.0
 74
     0
  0
LTYPE
  5
166
330
5
100
AcDbSymbolTableRecord
100
AcDbLinetypeTableRecord
  2
ACJISTGL
 70
     0
  3
_ _ _ _ _
 72
    65
 73
     2
 40
3.0
 49
2.0
 74
     0
 49
-1.0
 74
     0
  0
LTYPE
  5
26A
330
5
100
AcDbSymbolTableRecord
100
AcDbLinetypeTableRecord
  2
ACJISTGB
 70
     0
  3
__ . . __ . .
 72
    65
 73
     6
 40
9.0
 49
4.0
 74
     0
 49
-1.0
 74
     0
 49
1.0
 74
     0
 49
-1.0
 74
     0
 49
1.0
 74
     0
 49
-1.0
 74
     0
  0
ENDTAB
  0
TABLE
  2
LAYER
  5
2
330
0
100
AcDbSymbolTable
 70
     7
  0
LAYER
  5
10
330
2
100
AcDbSymbolTableRecord
100
AcDbLayerTableRecord
  2
0
 70
     0
 62
     7
  6
CONTINUOUS
  0
LAYER
  5
3F9
330
2
100
AcDbSymbolTableRecord
100
AcDbLayerTableRecord
  2
AM_0
 70
     0
 62
     7
  6
CONTINUOUS
  0
LAYER
  5
CD5
330
2
100
AcDbSymbolTableRecord
100
AcDbLayerTableRecord
  2
AM_7
 70
     0
 62
     4
  6
AM_ISO08W050
  0
LAYER
  5
CDE
330
2
100
AcDbSymbolTableRecord
100
AcDbLayerTableRecord
  2
AM_11
 70
     0
 62
     3
  6
AM_ISO09W050
  0
LAYER
  5
CFB
330
2
100
AcDbSymbolTableRecord
100
AcDbLayerTableRecord
  2
AM_5
 70
     0
 62
     3
  6
CONTINUOUS
  0
LAYER
  5
CFD
330
2
100
AcDbSymbolTableRecord
100
AcDbLayerTableRecord
  2
DEFPOINTS
 70
     0
 62
     7
  6
CONTINUOUS
  0
LAYER
  5
113C
330
2
100
AcDbSymbolTableRecord
100
AcDbLayerTableRecord
  2
AM_6
 70
     0
 62
     2
  6
CONTINUOUS
  0
ENDTAB
  0
TABLE
  2
STYLE
  5
3
330
0
100
AcDbSymbolTable
 70
     5
  0
STYLE
  5
11
330
3
100
AcDbSymbolTableRecord
100
AcDbTextStyleTableRecord
  2
STANDARD
 70
     0
 40
0.0
 41
1.0
 50
0.0
 71
     0
 42
2.5
  3
simplex.shx
  4
EXTFONT.SHX
  0
STYLE
  5
52
330
3
100
AcDbSymbolTableRecord
100
AcDbTextStyleTableRecord
  2

 70
     1
 40
0.0
 41
1.0
 50
0.0
 71
     0
 42
2.5
  3
ltypeshp.shx
  4

  0
STYLE
  5
6B
330
3
100
AcDbSymbolTableRecord
100
AcDbTextStyleTableRecord
  2
ASAMI
 70
     0
 40
0.0
 41
1.0
 50
0.0
 71
     0
 42
2.5
  3
simplex.shx
  4
EXTFONT.SHX
  0
STYLE
  5
262
330
3
100
AcDbSymbolTableRecord
100
AcDbTextStyleTableRecord
  2
ACJISTS
 70
     0
 40
1.0
 41
1.0
 50
0.0
 71
     0
 42
2.5
  3
simplex.shx
  4
bigfont.shx
  0
STYLE
  5
269
330
3
100
AcDbSymbolTableRecord
100
AcDbTextStyleTableRecord
  2
ACJISGDT
 70
     0
 40
0.0
 41
1.0
 50
0.0
 71
     0
 42
2.5
  3
amgdtans.shx
  4

  0
ENDTAB
  0
TABLE
  2
VIEW
  5
6
330
0
100
AcDbSymbolTable
 70
     0
  0
ENDTAB
  0
TABLE
  2
UCS
  5
7
330
0
100
AcDbSymbolTable
 70
     0
  0
ENDTAB
  0
TABLE
  2
APPID
  5
9
330
0
100
AcDbSymbolTable
 70
    12
  0
APPID
  5
12
330
9
100
AcDbSymbolTableRecord
100
AcDbRegAppTableRecord
  2
ACAD
 70
     0
  0
APPID
  5
30
330
9
100
AcDbSymbolTableRecord
100
AcDbRegAppTableRecord
  2
MCAD_NO_VIS
 70
     0
  0
APPID
  5
31
330
9
100
AcDbSymbolTableRecord
100
AcDbRegAppTableRecord
  2
ACAD_TEMP_GRAPHIC
 70
     0
  0
APPID
  5
2C2
330
9
100
AcDbSymbolTableRecord
100
AcDbRegAppTableRecord
  2
GENIUS_GENDTOL_13
 70
     0
  0
APPID
  5
339
330
9
100
AcDbSymbolTableRecord
100
AcDbRegAppTableRecord
  2
GENIUS_GENODEF_13
 70
     0
  0
APPID
  5
33A
330
9
100
AcDbSymbolTableRecord
100
AcDbRegAppTableRecord
  2
GENIUS_GENOBJ-N-RSBK_13
 70
     0
  0
APPID
  5
33B
330
9
100
AcDbSymbolTableRecord
100
AcDbRegAppTableRecord
  2
GENIUS_GENOBJ-N-LIB_13
 70
     0
  0
APPID
  5
33C
330
9
100
AcDbSymbolTableRecord
100
AcDbRegAppTableRecord
  2
GENIUS_GENSCALE_13
 70
     0
  0
APPID
  5
378
330
9
100
AcDbSymbolTableRecord
100
AcDbRegAppTableRecord
  2
GENIUS_GENDIMSH_14
 70
     0
  0
APPID
  5
13A0
330
9
100
AcDbSymbolTableRecord
100
AcDbRegAppTableRecord
  2
GENIUS_GENOBJ-N-CEN_13
 70
     0
  0
APPID
  5
13D7
330
9
100
AcDbSymbolTableRecord
100
AcDbRegAppTableRecord
  2
GENIUS_GENREC_14
 70
     0
  0
APPID
  5
13D8
330
9
100
AcDbSymbolTableRecord
100
AcDbRegAppTableRecord
  2
GENIUS_GENOBJ-N-REC_13
 70
     0
  0
ENDTAB
  0
TABLE
  2
DIMSTYLE
  5
A
330
0
100
AcDbSymbolTable
 70
     9
  0
DIMSTYLE
105
58
330
A
100
AcDbSymbolTableRecord
100
AcDbDimStyleTableRecord
  2
AM_JIS
 70
     0
  3

  4
"
  5
OPEN30
  6

  7

 40
1.0
 41
2.5
 42
1.0
 43
12.0
 44
1.0
 45
0.0
 46
0.0
 47
0.1
 48
0.1
140
3.2
141
0.0
142
0.0
143
0.0393701
144
1.0
145
0.0
146
0.71
147
1.5
 71
     0
 72
     0
 73
     0
 74
     0
 75
     0
 76
     0
 77
     3
 78
     8
170
     0
171
     2
172
     1
173
     0
174
     0
175
     0
176
   256
177
   256
178
     2
270
     2
271
     3
272
     3
273
     2
274
     2
340
6B
275
     0
280
     0
281
     0
282
     0
283
     0
284
     0
285
     0
286
     0
287
     3
288
     0
  0
DIMSTYLE
105
5F
330
A
100
AcDbSymbolTableRecord
100
AcDbDimStyleTableRecord
  2
AM_JIS$3
 70
     0
  3

  4
"
  5
OPEN30
  6

  7

 40
1.0
 41
2.5
 42
1.0
 43
10.0
 44
1.0
 45
0.0
 46
0.0
 47
0.1
 48
0.1
140
3.2
141
0.0
142
0.0
143
0.0393701
144
1.0
145
0.0
146
0.71
147
1.5
 71
     0
 72
     0
 73
     0
 74
     1
 75
     0
 76
     0
 77
     3
 78
     8
170
     0
171
     2
172
     0
173
     0
174
     0
175
     0
176
   256
177
   256
178
     2
270
     2
271
     2
272
     3
273
     2
274
     2
340
6B
275
     0
280
     0
281
     0
282
     0
283
     0
284
     0
285
     0
286
     0
287
     0
288
     1
  0
DIMSTYLE
105
60
330
A
100
AcDbSymbolTableRecord
100
AcDbDimStyleTableRecord
  2
AM_JIS$4
 70
     0
  3

  4
"
  5
OPEN30
  6

  7

 40
1.0
 41
2.5
 42
1.0
 43
10.0
 44
1.0
 45
0.0
 46
0.0
 47
0.1
 48
0.1
140
3.2
141
0.0
142
0.0
143
0.0393701
144
1.0
145
0.0
146
0.71
147
1.5
 71
     0
 72
     0
 73
     0
 74
     1
 75
     0
 76
     0
 77
     3
 78
     8
170
     0
171
     2
172
     0
173
     0
174
     0
175
     0
176
   256
177
   256
178
     2
270
     2
271
     2
272
     3
273
     2
274
     2
340
6B
275
     0
280
     0
281
     0
282
     0
283
     0
284
     0
285
     0
286
     0
287
     0
288
     1
  0
DIMSTYLE
105
61
330
A
100
AcDbSymbolTableRecord
100
AcDbDimStyleTableRecord
  2
AM_JIS$6
 70
     0
  3

  4
"
  5
OPEN30
  6

  7

 40
1.0
 41
2.5
 42
1.0
 43
10.0
 44
1.0
 45
0.0
 46
0.0
 47
0.1
 48
0.1
140
3.2
141
0.0
142
0.0
143
0.0393701
144
1.0
145
0.0
146
0.71
147
1.5
 71
     0
 72
     0
 73
     0
 74
     0
 75
     0
 76
     0
 77
     0
 78
     8
170
     0
171
     2
172
     1
173
     0
174
     0
175
     0
176
   256
177
   256
178
     2
270
     2
271
     2
272
     2
273
     2
274
     2
340
6B
275
     0
280
     0
281
     0
282
     0
283
     0
284
     0
285
     0
286
     0
287
     3
288
     0
  0
DIMSTYLE
105
62
330
A
100
AcDbSymbolTableRecord
100
AcDbDimStyleTableRecord
  2
AM_JIS$7
 70
     0
  3

  4
"
  5
OPEN30
  6

  7

 40
1.0
 41
2.5
 42
1.0
 43
10.0
 44
1.0
 45
0.0
 46
0.0
 47
0.1
 48
0.1
140
3.2
141
0.0
142
0.0
143
0.0393701
144
1.0
145
0.0
146
0.71
147
1.5
 71
     0
 72
     0
 73
     0
 74
     0
 75
     0
 76
     0
 77
     3
 78
     8
170
     0
171
     2
172
     1
173
     0
174
     0
175
     0
176
   256
177
   256
178
     2
270
     2
271
     2
272
     3
273
     2
274
     2
340
6B
275
     0
280
     0
281
     0
282
     0
283
     0
284
     0
285
     0
286
     0
287
     3
288
     0
  0
DIMSTYLE
105
63
330
A
100
AcDbSymbolTableRecord
100
AcDbDimStyleTableRecord
  2
AM_JIS$SF
 70
     0
  3

  4
"
  5
OPEN30
  6

  7

 40
1.0
 41
2.5
 42
1.0
 43
10.0
 44
1.0
 45
0.0
 46
0.0
 47
0.1
 48
0.1
140
3.2
141
0.0
142
0.0
143
0.0393701
144
1.0
145
0.0
146
0.71
147
1.5
 71
     0
 72
     0
 73
     0
 74
     0
 75
     1
 76
     1
 77
     3
 78
     8
170
     0
171
     2
172
     1
173
     0
174
     0
175
     0
176
   256
177
   256
178
     2
270
     2
271
     2
272
     2
273
     2
274
     2
340
6B
275
     0
280
     0
281
     0
282
     0
283
     0
284
     0
285
     0
286
     0
287
     3
288
     0
  0
DIMSTYLE
105
68
330
A
100
AcDbSymbolTableRecord
100
AcDbDimStyleTableRecord
  2
AM_JIS$SH
 70
     0
  3

  4
"
  5

  6
GENAXEH
  7
OPEN30
 40
1.0
 41
2.5
 42
1.0
 43
10.0
 44
1.0
 45
0.0
 46
0.0
 47
0.1
 48
0.1
140
3.2
141
0.0
142
0.0
143
0.0393701
144
2.0
145
0.0
146
0.71
147
1.5
 71
     0
 72
     0
 73
     0
 74
     0
 75
     1
 76
     1
 77
     3
 78
     8
170
     0
171
     2
172
     1
173
     1
174
     0
175
     0
176
   256
177
   256
178
     2
270
     2
271
     2
272
     2
273
     2
274
     2
340
6B
275
     0
280
     0
281
     0
282
     0
283
     0
284
     0
285
     0
286
     0
287
     3
288
     0
  0
DIMSTYLE
105
B34
330
A
100
AcDbSymbolTableRecord
100
AcDbDimStyleTableRecord
  2
AM_JIS$2
 70
     0
  3

  4
"
  5
OPEN30
  6

  7

 40
1.0
 41
2.5
 42
1.0
 43
12.0
 44
1.0
 45
0.0
 46
0.0
 47
0.1
 48
0.1
140
3.2
141
0.0
142
0.0
143
0.0393701
144
1.0
145
0.0
146
0.71
147
1.5
 71
     0
 72
     0
 73
     0
 74
     0
 75
     0
 76
     0
 77
     3
 78
     8
170
     0
171
     2
172
     1
173
     0
174
     0
175
     0
176
   256
177
   256
178
     2
270
     2
271
     3
272
     3
273
     2
274
     2
340
6B
275
     0
280
     0
281
     0
282
     0
283
     0
284
     0
285
     0
286
     0
287
     3
288
     0
  0
DIMSTYLE
105
BA5
102
{ACAD_REACTORS
330
38E8
330
385C
330
48F8
330
49AE
330
4A36
330
4AC1
330
4B52
330
4E51
330
4EED
102
}
330
A
100
AcDbSymbolTableRecord
100
AcDbDimStyleTableRecord
  2
AM_JIS$0
 70
     0
  3

  4
"
  5
OPEN30
  6

  7

 40
1.0
 41
2.5
 42
0.0
 43
10.0
 44
1.0
 45
0.0
 46
0.0
 47
0.1
 48
0.1000000001
140
3.799999999999999
141
0.0
142
0.0
143
0.0393701
144
1.0
145
0.0
146
0.71
147
1.5
 71
     0
 72
     0
 73
     0
 74
     0
 75
     0
 76
     0
 77
     3
 78
     1
170
     0
171
     2
172
     1
173
     0
174
     0
175
     0
176
     3
177
     3
178
     2
270
     2
271
     2
272
     2
273
     2
274
     2
340
11
275
     1
280
     0
281
     0
282
     0
283
     0
284
     8
285
     0
286
     0
287
     0
288
     0
  0
ENDTAB
  0
TABLE
  2
BLOCK_RECORD
  5
1
330
0
100
AcDbSymbolTable
 70
    14
  0
BLOCK_RECORD
  5
1F
102
{ACAD_XDICTIONARY
360
74
102
}
330
1
100
AcDbSymbolTableRecord
100
AcDbBlockTableRecord
  2
*MODEL_SPACE
  0
BLOCK_RECORD
  5
101
102
{ACAD_XDICTIONARY
360
567E
102
}
330
1
100
AcDbSymbolTableRecord
100
AcDbBlockTableRecord
  2
*PAPER_SPACE
  0
BLOCK_RECORD
  5
59
330
1
100
AcDbSymbolTableRecord
100
AcDbBlockTableRecord
  2
_OPEN30
  0
BLOCK_RECORD
  5
64
330
1
100
AcDbSymbolTableRecord
100
AcDbBlockTableRecord
  2
GENAXEH
  0
BLOCK_RECORD
  5
385D
330
1
100
AcDbSymbolTableRecord
100
AcDbBlockTableRecord
  2
*D5
  0
BLOCK_RECORD
  5
38E9
330
1
100
AcDbSymbolTableRecord
100
AcDbBlockTableRecord
  2
*D6
  0
BLOCK_RECORD
  5
48F9
330
1
100
AcDbSymbolTableRecord
100
AcDbBlockTableRecord
  2
*D7
  0
BLOCK_RECORD
  5
49AF
330
1
100
AcDbSymbolTableRecord
100
AcDbBlockTableRecord
  2
*D8
  0
BLOCK_RECORD
  5
4A37
330
1
100
AcDbSymbolTableRecord
100
AcDbBlockTableRecord
  2
*D9
  0
BLOCK_RECORD
  5
4AC2
330
1
100
AcDbSymbolTableRecord
100
AcDbBlockTableRecord
  2
*D10
  0
BLOCK_RECORD
  5
4B53
330
1
100
AcDbSymbolTableRecord
100
AcDbBlockTableRecord
  2
*D11
  0
BLOCK_RECORD
  5
4E52
330
1
100
AcDbSymbolTableRecord
100
AcDbBlockTableRecord
  2
*D12
  0
BLOCK_RECORD
  5
4EEE
330
1
100
AcDbSymbolTableRecord
100
AcDbBlockTableRecord
  2
*D13
  0
ENDTAB
  0
ENDSEC
  0
SECTION
  2
BLOCKS
  0
BLOCK
  5
20
330
1F
100
AcDbEntity
  8
0
100
AcDbBlockBegin
  2
*MODEL_SPACE
 70
     0
 10
0.0
 20
0.0
 30
0.0
  3
*MODEL_SPACE
  1

  0
ENDBLK
  5
21
330
1F
100
AcDbEntity
  8
0
100
AcDbBlockEnd
  0
BLOCK
  5
103
330
101
100
AcDbEntity
 67
     1
  8
0
100
AcDbBlockBegin
  2
*PAPER_SPACE
 70
     0
 10
0.0
 20
0.0
 30
0.0
  3
*PAPER_SPACE
  1

  0
ENDBLK
  5
104
330
101
100
AcDbEntity
 67
     1
  8
0
100
AcDbBlockEnd
  0
BLOCK
  5
5D
330
59
100
AcDbEntity
  8
0
100
AcDbBlockBegin
  2
_OPEN30
 70
     0
 10
0.0
 20
0.0
 30
0.0
  3
_OPEN30
  1

  0
LINE
  5
5A
330
59
100
AcDbEntity
  8
0
 62
     0
100
AcDbLine
 10
-1.0
 20
0.26794919
 30
0.0
 11
0.0
 21
0.0
 31
0.0
  0
LINE
  5
5B
330
59
100
AcDbEntity
  8
0
 62
     0
100
AcDbLine
 10
0.0
 20
0.0
 30
0.0
 11
-1.0
 21
-0.26794919
 31
0.0
  0
LINE
  5
5C
330
59
100
AcDbEntity
  8
0
 62
     0
100
AcDbLine
 10
0.0
 20
0.0
 30
0.0
 11
-1.0
 21
0.0
 31
0.0
  0
ENDBLK
  5
5E
330
59
100
AcDbEntity
  8
0
100
AcDbBlockEnd
  0
BLOCK
  5
66
330
64
100
AcDbEntity
  8
0
100
AcDbBlockBegin
  2
GENAXEH
 70
     0
 10
0.0
 20
0.0
 30
0.0
  3
GENAXEH
  1

  0
LINE
  5
65
330
64
100
AcDbEntity
  8
0
100
AcDbLine
 10
-1.0
 20
0.0
 30
0.0
 11
1.0
 21
0.0
 31
0.0
  0
ENDBLK
  5
67
330
64
100
AcDbEntity
  8
0
100
AcDbBlockEnd
  0
BLOCK
  5
3867
330
385D
100
AcDbEntity
  8
0
100
AcDbBlockBegin
  2
*D5
 70
     1
 10
0.0
 20
0.0
 30
0.0
  3
*D5
  1

  0
LINE
  5
55CF
330
385D
100
AcDbEntity
  8
AM_5
 62
     3
100
AcDbLine
 10
0.0000018997536582
 20
24.99998425916379
 30
0.0
 11
26.95970865422012
 21
24.99998425916378
 31
0.0
  0
LINE
  5
55D0
330
385D
100
AcDbEntity
  8
AM_5
 62
     3
100
AcDbLine
 10
-0.0000003799517851
 20
-25.00001574083618
 30
0.0
 11
26.95970865422011
 21
-25.00001574083619
 31
0.0
  0
LINE
  5
55D1
330
385D
100
AcDbEntity
  8
AM_5
 62
     3
100
AcDbLine
 10
25.95970865422012
 20
22.49998425916378
 30
0.0
 11
25.95970865422011
 21
-22.50001574083619
 31
0.0
  0
INSERT
  5
55D2
330
385D
100
AcDbEntity
  8
AM_5
 62
     3
100
AcDbBlockReference
  2
_OPEN30
 10
25.95970865422012
 20
24.99998425916378
 30
0.0
 41
2.5
 42
2.5
 43
2.5
 50
90.0
  0
INSERT
  5
55D3
330
385D
100
AcDbEntity
  8
AM_5
 62
     3
100
AcDbBlockReference
  2
_OPEN30
 10
25.95970865422011
 20
-25.00001574083619
 30
0.0
 41
2.5
 42
2.5
 43
2.5
 50
270.0
  0
MTEXT
  5
55D4
330
385D
100
AcDbEntity
  8
AM_5
 62
     2
100
AcDbMText
 10
22.55970865422011
 20
-0.0000157408361983
 30
0.0
 40
3.799999999999999
 41
0.0
 71
     5
 72
     1
  1
%%c50
 11
0.0000000000000001
 21
1.0
 31
0.0
1001
ACAD
1000
MTEXTBEGIN
1070
    73
1070
     1
1070
    44
1040
1.0
1070
    74
1070
     0
1000
MTEXTEND
  0
POINT
  5
55D5
330
385D
100
AcDbEntity
  8
DEFPOINTS
 62
     0
100
AcDbPoint
 10
0.0000018997536582
 20
24.99998425916379
 30
0.0
  0
POINT
  5
55D6
330
385D
100
AcDbEntity
  8
DEFPOINTS
 62
     0
100
AcDbPoint
 10
-0.0000003799517851
 20
-25.00001574083618
 30
0.0
  0
POINT
  5
55D7
330
385D
100
AcDbEntity
  8
DEFPOINTS
 62
     0
100
AcDbPoint
 10
25.95970865422011
 20
-25.00001574083619
 30
0.0
  0
ENDBLK
  5
3868
330
385D
100
AcDbEntity
  8
0
100
AcDbBlockEnd
  0
BLOCK
  5
38F3
330
38E9
100
AcDbEntity
  8
0
100
AcDbBlockBegin
  2
*D6
 70
     1
 10
0.0
 20
0.0
 30
0.0
  3
*D6
  1

  0
LINE
  5
55E1
330
38E9
100
AcDbEntity
  8
AM_5
 62
     3
100
AcDbLine
 10
0.0000000000000031
 20
12.49999809265016
 30
0.0
 11
0.0000000000000047
 21
39.99998624703239
 31
0.0
  0
LINE
  5
55E2
330
38E9
100
AcDbEntity
  8
AM_5
 62
     3
100
AcDbLine
 10
-12.99999999999999
 20
12.51002622227675
 30
0.0
 11
-12.99999999999999
 21
39.99998624703239
 31
0.0
  0
LINE
  5
55E3
330
38E9
100
AcDbEntity
  8
AM_5
 62
     3
100
AcDbLine
 10
-2.499999999999995
 20
38.99998624703239
 30
0.0
 11
-10.49999999999999
 21
38.99998624703239
 31
0.0
  0
INSERT
  5
55E4
330
38E9
100
AcDbEntity
  8
AM_5
 62
     3
100
AcDbBlockReference
  2
_OPEN30
 10
0.0000000000000047
 20
38.99998624703239
 30
0.0
 41
2.5
 42
2.5
 43
2.5
  0
INSERT
  5
55E5
330
38E9
100
AcDbEntity
  8
AM_5
 62
     3
100
AcDbBlockReference
  2
_OPEN30
 10
-12.99999999999999
 20
38.99998624703239
 30
0.0
 41
2.5
 42
2.5
 43
2.5
 50
180.0
  0
MTEXT
  5
55E6
330
38E9
100
AcDbEntity
  8
AM_5
 62
     2
100
AcDbMText
 10
-6.499999999999994
 20
42.39998624703239
 30
0.0
 40
3.799999999999999
 41
0.0
 71
     5
 72
     1
  1
13
1001
ACAD
1000
MTEXTBEGIN
1070
    73
1070
     1
1070
    44
1040
1.0
1070
    74
1070
     0
1000
MTEXTEND
  0
POINT
  5
55E7
330
38E9
100
AcDbEntity
  8
DEFPOINTS
 62
     0
100
AcDbPoint
 10
0.0000000000000031
 20
12.49999809265016
 30
0.0
  0
POINT
  5
55E8
330
38E9
100
AcDbEntity
  8
DEFPOINTS
 62
     0
100
AcDbPoint
 10
-12.99999999999999
 20
12.51002622227675
 30
0.0
  0
POINT
  5
55E9
330
38E9
100
AcDbEntity
  8
DEFPOINTS
 62
     0
100
AcDbPoint
 10
-12.99999999999999
 20
38.99998624703239
 30
0.0
  0
ENDBLK
  5
38F4
330
38E9
100
AcDbEntity
  8
0
100
AcDbBlockEnd
  0
BLOCK
  5
4905
330
48F9
100
AcDbEntity
  8
0
100
AcDbBlockBegin
  2
*D7
 70
     1
 10
0.0
 20
0.0
 30
0.0
  3
*D7
  1

  0
LINE
  5
55C4
330
48F9
100
AcDbEntity
  8
AM_5
 62
     3
100
AcDbLine
 10
-40.00083374780309
 20
-15.00001582065132
 30
0.0
 11
-40.00083374780309
 21
-40.00002906545455
 31
0.0
  0
LINE
  5
55C5
330
48F9
100
AcDbEntity
  8
AM_5
 62
     3
100
AcDbLine
 10
-33.70086709436842
 20
-5.200010128143734
 30
0.0
 11
-33.70086709436842
 21
-40.00002906545455
 31
0.0
  0
LINE
  5
55C6
330
48F9
100
AcDbEntity
  8
AM_5
 62
     3
100
AcDbLine
 10
-31.20086709436842
 20
-39.00002906545455
 30
0.0
 11
-28.70086709436842
 21
-39.00002906545455
 31
0.0
  0
LINE
  5
55C7
330
48F9
100
AcDbEntity
  8
AM_5
 62
     3
100
AcDbLine
 10
-42.50083374780309
 20
-39.00002906545455
 30
0.0
 11
-55.96273850970785
 21
-39.00002906545455
 31
0.0
  0
LINE
  5
55C8
330
48F9
100
AcDbEntity
  8
AM_5
 62
     3
100
AcDbLine
 10
-33.70086709436842
 20
-39.00002906545455
 30
0.0
 11
-40.00083374780309
 21
-39.00002906545455
 31
0.0
  0
INSERT
  5
55C9
330
48F9
100
AcDbEntity
  8
AM_5
 62
     3
100
AcDbBlockReference
  2
_OPEN30
 10
-33.70086709436842
 20
-39.00002906545455
 30
0.0
 41
2.5
 42
2.5
 43
2.5
 50
180.0
  0
INSERT
  5
55CA
330
48F9
100
AcDbEntity
  8
AM_5
 62
     3
100
AcDbBlockReference
  2
_OPEN30
 10
-40.00083374780309
 20
-39.00002906545455
 30
0.0
 41
2.5
 42
2.5
 43
2.5
  0
MTEXT
  5
55CB
330
48F9
100
AcDbEntity
  8
AM_5
 62
     2
100
AcDbMText
 10
-50.48178612875546
 20
-35.60002906545455
 30
0.0
 40
3.799999999999999
 41
0.0
 71
     5
 72
     1
  1
6.3
1001
ACAD
1000
MTEXTBEGIN
1070
    73
1070
     1
1070
    44
1040
1.0
1070
    74
1070
     0
1000
MTEXTEND
  0
POINT
  5
55CC
330
48F9
100
AcDbEntity
  8
DEFPOINTS
 62
     0
100
AcDbPoint
 10
-40.00083374780309
 20
-15.00001582065132
 30
0.0
  0
POINT
  5
55CD
330
48F9
100
AcDbEntity
  8
DEFPOINTS
 62
     0
100
AcDbPoint
 10
-33.70086709436842
 20
-5.200010128143734
 30
0.0
  0
POINT
  5
55CE
330
48F9
100
AcDbEntity
  8
DEFPOINTS
 62
     0
100
AcDbPoint
 10
-33.70086709436842
 20
-39.00002906545455
 30
0.0
  0
ENDBLK
  5
4906
330
48F9
100
AcDbEntity
  8
0
100
AcDbBlockEnd
  0
BLOCK
  5
49B9
330
49AF
100
AcDbEntity
  8
0
100
AcDbBlockBegin
  2
*D8
 70
     1
 10
0.0
 20
0.0
 30
0.0
  3
*D8
  1

  0
LINE
  5
55BB
330
49AF
100
AcDbEntity
  8
AM_5
 62
     3
100
AcDbLine
 10
-40.00083374780309
 20
-15.00001653590703
 30
0.0
 11
-40.00083374780309
 21
-50.00002405527482
 31
0.0
  0
LINE
  5
55BC
330
49AF
100
AcDbEntity
  8
AM_5
 62
     3
100
AcDbLine
 10
-20.0008553736661
 20
-11.60002032448304
 30
0.0
 11
-20.0008553736661
 21
-50.00002405527482
 31
0.0
  0
LINE
  5
55BD
330
49AF
100
AcDbEntity
  8
AM_5
 62
     3
100
AcDbLine
 10
-37.50083374780308
 20
-49.00002405527483
 30
0.0
 11
-22.5008553736661
 21
-49.00002405527483
 31
0.0
  0
INSERT
  5
55BE
330
49AF
100
AcDbEntity
  8
AM_5
 62
     3
100
AcDbBlockReference
  2
_OPEN30
 10
-40.00083374780309
 20
-49.00002405527483
 30
0.0
 41
2.5
 42
2.5
 43
2.5
 50
180.0
  0
INSERT
  5
55BF
330
49AF
100
AcDbEntity
  8
AM_5
 62
     3
100
AcDbBlockReference
  2
_OPEN30
 10
-20.0008553736661
 20
-49.00002405527483
 30
0.0
 41
2.5
 42
2.5
 43
2.5
  0
MTEXT
  5
55C0
330
49AF
100
AcDbEntity
  8
AM_5
 62
     2
100
AcDbMText
 10
-30.00084456073459
 20
-45.60002405527483
 30
0.0
 40
3.799999999999999
 41
0.0
 71
     5
 72
     1
  1
20
1001
ACAD
1000
MTEXTBEGIN
1070
    73
1070
     1
1070
    44
1040
1.0
1070
    74
1070
     0
1000
MTEXTEND
  0
POINT
  5
55C1
330
49AF
100
AcDbEntity
  8
DEFPOINTS
 62
     0
100
AcDbPoint
 10
-40.00083374780309
 20
-15.00001653590703
 30
0.0
  0
POINT
  5
55C2
330
49AF
100
AcDbEntity
  8
DEFPOINTS
 62
     0
100
AcDbPoint
 10
-20.0008553736661
 20
-11.60002032448304
 30
0.0
  0
POINT
  5
55C3
330
49AF
100
AcDbEntity
  8
DEFPOINTS
 62
     0
100
AcDbPoint
 10
-20.0008553736661
 20
-49.00002405527483
 30
0.0
  0
ENDBLK
  5
49BA
330
49AF
100
AcDbEntity
  8
0
100
AcDbBlockEnd
  0
BLOCK
  5
4A41
330
4A37
100
AcDbEntity
  8
0
100
AcDbBlockBegin
  2
*D9
 70
     1
 10
0.0
 20
0.0
 30
0.0
  3
*D9
  1

  0
LINE
  5
55B2
330
4A37
100
AcDbEntity
  8
AM_5
 62
     3
100
AcDbLine
 10
-40.00083374780309
 20
-15.00001582065132
 30
0.0
 11
-40.00083374780309
 21
-60.00002186103771
 31
0.0
  0
LINE
  5
55B3
330
4A37
100
AcDbEntity
  8
AM_5
 62
     3
100
AcDbLine
 10
-14.00085517609127
 20
-9.000014676908334
 30
0.0
 11
-14.00085517609127
 21
-60.00002186103771
 31
0.0
  0
LINE
  5
55B4
330
4A37
100
AcDbEntity
  8
AM_5
 62
     3
100
AcDbLine
 10
-37.50083374780308
 20
-59.00002186103772
 30
0.0
 11
-16.50085517609127
 21
-59.00002186103772
 31
0.0
  0
INSERT
  5
55B5
330
4A37
100
AcDbEntity
  8
AM_5
 62
     3
100
AcDbBlockReference
  2
_OPEN30
 10
-40.00083374780309
 20
-59.00002186103772
 30
0.0
 41
2.5
 42
2.5
 43
2.5
 50
180.0
  0
INSERT
  5
55B6
330
4A37
100
AcDbEntity
  8
AM_5
 62
     3
100
AcDbBlockReference
  2
_OPEN30
 10
-14.00085517609127
 20
-59.00002186103772
 30
0.0
 41
2.5
 42
2.5
 43
2.5
  0
MTEXT
  5
55B7
330
4A37
100
AcDbEntity
  8
AM_5
 62
     2
100
AcDbMText
 10
-27.00084446194718
 20
-55.60002186103772
 30
0.0
 40
3.799999999999999
 41
0.0
 71
     5
 72
     1
  1
26
1001
ACAD
1000
MTEXTBEGIN
1070
    73
1070
     1
1070
    44
1040
1.0
1070
    74
1070
     0
1000
MTEXTEND
  0
POINT
  5
55B8
330
4A37
100
AcDbEntity
  8
DEFPOINTS
 62
     0
100
AcDbPoint
 10
-40.00083374780309
 20
-15.00001582065132
 30
0.0
  0
POINT
  5
55B9
330
4A37
100
AcDbEntity
  8
DEFPOINTS
 62
     0
100
AcDbPoint
 10
-14.00085517609127
 20
-9.000014676908334
 30
0.0
  0
POINT
  5
55BA
330
4A37
100
AcDbEntity
  8
DEFPOINTS
 62
     0
100
AcDbPoint
 10
-14.00085517609127
 20
-59.00002186103772
 30
0.0
  0
ENDBLK
  5
4A42
330
4A37
100
AcDbEntity
  8
0
100
AcDbBlockEnd
  0
BLOCK
  5
4ACC
330
4AC2
100
AcDbEntity
  8
0
100
AcDbBlockBegin
  2
*D10
 70
     1
 10
0.0
 20
0.0
 30
0.0
  3
*D10
  1

  0
LINE
  5
55D8
330
4AC2
100
AcDbEntity
  8
AM_5
 62
     3
100
AcDbLine
 10
-40.00083374780309
 20
-15.00001653590703
 30
0.0
 11
-40.00083374780309
 21
-70.00001674083765
 31
0.0
  0
LINE
  5
55D9
330
4AC2
100
AcDbEntity
  8
AM_5
 62
     3
100
AcDbLine
 10
-0.0000000000000005
 20
-20.00000190735112
 30
0.0
 11
-0.0000000000000035
 21
-70.00001674083765
 31
0.0
  0
LINE
  5
55DA
330
4AC2
100
AcDbEntity
  8
AM_5
 62
     3
100
AcDbLine
 10
-37.50083374780308
 20
-69.00001674083765
 30
0.0
 11
-2.500000000000003
 21
-69.00001674083765
 31
0.0
  0
INSERT
  5
55DB
330
4AC2
100
AcDbEntity
  8
AM_5
 62
     3
100
AcDbBlockReference
  2
_OPEN30
 10
-40.00083374780309
 20
-69.00001674083765
 30
0.0
 41
2.5
 42
2.5
 43
2.5
 50
180.0
  0
INSERT
  5
55DC
330
4AC2
100
AcDbEntity
  8
AM_5
 62
     3
100
AcDbBlockReference
  2
_OPEN30
 10
-0.0000000000000035
 20
-69.00001674083765
 30
0.0
 41
2.5
 42
2.5
 43
2.5
  0
MTEXT
  5
55DD
330
4AC2
100
AcDbEntity
  8
AM_5
 62
     2
100
AcDbMText
 10
-20.00041687390154
 20
-65.60001674083764
 30
0.0
 40
3.799999999999999
 41
0.0
 71
     5
 72
     1
  1
40
1001
ACAD
1000
MTEXTBEGIN
1070
    73
1070
     1
1070
    44
1040
1.0
1070
    74
1070
     0
1000
MTEXTEND
  0
POINT
  5
55DE
330
4AC2
100
AcDbEntity
  8
DEFPOINTS
 62
     0
100
AcDbPoint
 10
-40.00083374780309
 20
-15.00001653590703
 30
0.0
  0
POINT
  5
55DF
330
4AC2
100
AcDbEntity
  8
DEFPOINTS
 62
     0
100
AcDbPoint
 10
-0.0000000000000005
 20
-20.00000190735112
 30
0.0
  0
POINT
  5
55E0
330
4AC2
100
AcDbEntity
  8
DEFPOINTS
 62
     0
100
AcDbPoint
 10
-0.0000000000000035
 20
-69.00001674083765
 30
0.0
  0
ENDBLK
  5
4ACD
330
4AC2
100
AcDbEntity
  8
0
100
AcDbBlockEnd
  0
BLOCK
  5
4B5E
330
4B53
100
AcDbEntity
  8
0
100
AcDbBlockBegin
  2
*D11
 70
     1
 10
0.0
 20
0.0
 30
0.0
  3
*D11
  1

  0
LINE
  5
55F3
330
4B53
100
AcDbEntity
  8
AM_5
 62
     3
100
AcDbLine
 10
-39.00080717984095
 20
-5.200009725400511
 30
0.0
 11
-57.9634966372387
 21
-5.200009725400507
 31
0.0
  0
LINE
  5
55F4
330
4B53
100
AcDbEntity
  8
AM_5
 62
     3
100
AcDbLine
 10
-39.00080710384939
 20
5.199984171083913
 30
0.0
 11
-57.9634966372387
 21
5.199984171083918
 31
0.0
  0
LINE
  5
55F5
330
4B53
100
AcDbEntity
  8
AM_5
 62
     3
100
AcDbLine
 10
-56.96349663723871
 20
-2.700009725400507
 30
0.0
 11
-56.96349663723871
 21
2.699984171083918
 31
0.0
  0
INSERT
  5
55F6
330
4B53
100
AcDbEntity
  8
AM_5
 62
     3
100
AcDbBlockReference
  2
_OPEN30
 10
-56.96349663723871
 20
-5.200009725400507
 30
0.0
 41
2.5
 42
2.5
 43
2.5
 50
270.0
  0
INSERT
  5
55F7
330
4B53
100
AcDbEntity
  8
AM_5
 62
     3
100
AcDbBlockReference
  2
_OPEN30
 10
-56.96349663723871
 20
5.199984171083918
 30
0.0
 41
2.5
 42
2.5
 43
2.5
 50
90.0
  0
MTEXT
  5
55F8
330
4B53
100
AcDbEntity
  8
AM_5
 62
     2
100
AcDbMText
 10
-60.3634966372387
 20
-0.000012777158303
 30
0.0
 40
3.799999999999999
 41
0.0
 71
     5
 72
     1
  1
10.4
 11
0.0000000000000001
 21
1.0
 31
0.0
1001
ACAD
1000
MTEXTBEGIN
1070
    73
1070
     1
1070
    44
1040
1.0
1070
    74
1070
     0
1000
MTEXTEND
  0
POINT
  5
55F9
330
4B53
100
AcDbEntity
  8
DEFPOINTS
 62
     0
100
AcDbPoint
 10
-39.00080717984095
 20
-5.200009725400511
 30
0.0
  0
POINT
  5
55FA
330
4B53
100
AcDbEntity
  8
DEFPOINTS
 62
     0
100
AcDbPoint
 10
-39.00080710384939
 20
5.199984171083913
 30
0.0
  0
POINT
  5
55FB
330
4B53
100
AcDbEntity
  8
DEFPOINTS
 62
     0
100
AcDbPoint
 10
-56.96349663723871
 20
5.199984171083918
 30
0.0
  0
ENDBLK
  5
4B5F
330
4B53
100
AcDbEntity
  8
0
100
AcDbBlockEnd
  0
BLOCK
  5
4E5C
330
4E52
100
AcDbEntity
  8
0
100
AcDbBlockBegin
  2
*D12
 70
     1
 10
0.0
 20
0.0
 30
0.0
  3
*D12
  1

  0
LINE
  5
55FC
330
4E52
100
AcDbEntity
  8
AM_5
 62
     3
100
AcDbLine
 10
-14.00085407423415
 20
5.499985323090824
 30
0.0
 11
16.95970865422006
 21
5.499985323090816
 31
0.0
  0
LINE
  5
55FD
330
4E52
100
AcDbEntity
  8
AM_5
 62
     3
100
AcDbLine
 10
-14.00085491012576
 20
-5.500014676908342
 30
0.0
 11
16.95970865422006
 21
-5.500014676908351
 31
0.0
  0
LINE
  5
55FE
330
4E52
100
AcDbEntity
  8
AM_5
 62
     3
100
AcDbLine
 10
15.95970865422006
 20
2.999985323090816
 30
0.0
 11
15.95970865422006
 21
-3.000014676908351
 31
0.0
  0
INSERT
  5
55FF
330
4E52
100
AcDbEntity
  8
AM_5
 62
     3
100
AcDbBlockReference
  2
_OPEN30
 10
15.95970865422006
 20
5.499985323090816
 30
0.0
 41
2.5
 42
2.5
 43
2.5
 50
90.0
  0
INSERT
  5
5600
330
4E52
100
AcDbEntity
  8
AM_5
 62
     3
100
AcDbBlockReference
  2
_OPEN30
 10
15.95970865422006
 20
-5.500014676908351
 30
0.0
 41
2.5
 42
2.5
 43
2.5
 50
270.0
  0
MTEXT
  5
5601
330
4E52
100
AcDbEntity
  8
AM_5
 62
     2
100
AcDbMText
 10
12.55970865422006
 20
-0.0000146769087649
 30
0.0
 40
3.799999999999999
 41
0.0
 71
     5
 72
     1
  1
%%c11
 11
0.0000000000000001
 21
1.0
 31
0.0
1001
ACAD
1000
MTEXTBEGIN
1070
    73
1070
     1
1070
    44
1040
1.0
1070
    74
1070
     0
1000
MTEXTEND
  0
POINT
  5
5602
330
4E52
100
AcDbEntity
  8
DEFPOINTS
 62
     0
100
AcDbPoint
 10
-14.00085407423415
 20
5.499985323090824
 30
0.0
  0
POINT
  5
5603
330
4E52
100
AcDbEntity
  8
DEFPOINTS
 62
     0
100
AcDbPoint
 10
-14.00085491012576
 20
-5.500014676908342
 30
0.0
  0
POINT
  5
5604
330
4E52
100
AcDbEntity
  8
DEFPOINTS
 62
     0
100
AcDbPoint
 10
15.95970865422006
 20
-5.500014676908351
 30
0.0
  0
ENDBLK
  5
4E5D
330
4E52
100
AcDbEntity
  8
0
100
AcDbBlockEnd
  0
BLOCK
  5
4EF8
330
4EEE
100
AcDbEntity
  8
0
100
AcDbBlockBegin
  2
*D13
 70
     1
 10
0.0
 20
0.0
 30
0.0
  3
*D13
  1

  0
LINE
  5
55EA
330
4EEE
100
AcDbEntity
  8
AM_5
 62
     3
100
AcDbLine
 10
-39.00083566798931
 20
-11.00001277715616
 30
0.0
 11
-67.96350087943384
 21
-11.00001277715615
 31
0.0
  0
LINE
  5
55EB
330
4EEE
100
AcDbEntity
  8
AM_5
 62
     3
100
AcDbLine
 10
-39.00084129131915
 20
10.99998722284352
 30
0.0
 11
-67.96350087943384
 21
10.99998722284353
 31
0.0
  0
LINE
  5
55EC
330
4EEE
100
AcDbEntity
  8
AM_5
 62
     3
100
AcDbLine
 10
-66.96350087943383
 20
-8.500012777156157
 30
0.0
 11
-66.96350087943383
 21
8.499987222843534
 31
0.0
  0
INSERT
  5
55ED
330
4EEE
100
AcDbEntity
  8
AM_5
 62
     3
100
AcDbBlockReference
  2
_OPEN30
 10
-66.96350087943383
 20
-11.00001277715615
 30
0.0
 41
2.5
 42
2.5
 43
2.5
 50
270.0
  0
INSERT
  5
55EE
330
4EEE
100
AcDbEntity
  8
AM_5
 62
     3
100
AcDbBlockReference
  2
_OPEN30
 10
-66.96350087943383
 20
10.99998722284353
 30
0.0
 41
2.5
 42
2.5
 43
2.5
 50
90.0
  0
MTEXT
  5
55EF
330
4EEE
100
AcDbEntity
  8
AM_5
 62
     2
100
AcDbMText
 10
-70.36350087943384
 20
-0.0000127771563213
 30
0.0
 40
3.799999999999999
 41
0.0
 71
     5
 72
     1
  1
%%c22
 11
0.0000000000000001
 21
1.0
 31
0.0
1001
ACAD
1000
MTEXTBEGIN
1070
    73
1070
     1
1070
    44
1040
1.0
1070
    74
1070
     0
1000
MTEXTEND
  0
POINT
  5
55F0
330
4EEE
100
AcDbEntity
  8
DEFPOINTS
 62
     0
100
AcDbPoint
 10
-39.00083566798931
 20
-11.00001277715616
 30
0.0
  0
POINT
  5
55F1
330
4EEE
100
AcDbEntity
  8
DEFPOINTS
 62
     0
100
AcDbPoint
 10
-39.00084129131915
 20
10.99998722284352
 30
0.0
  0
POINT
  5
55F2
330
4EEE
100
AcDbEntity
  8
DEFPOINTS
 62
     0
100
AcDbPoint
 10
-66.96350087943383
 20
10.99998722284353
 30
0.0
  0
ENDBLK
  5
4EF9
330
4EEE
100
AcDbEntity
  8
0
100
AcDbBlockEnd
  0
ENDSEC
  0
SECTION
  2
ENTITIES
  0
TEXT
  5
1142
330
1F
100
AcDbEntity
  8
AM_6
100
AcDbText
 10
-39.04803592152059
 20
-91.50001674083766
 30
0.0
 40
5.0
  1
WEM3050F
 72
     4
 11
-20.00041687390154
 21
-89.00001674083766
 31
0.0
100
AcDbText
  0
DIMENSION
  5
385C
330
1F
100
AcDbEntity
  8
AM_5
100
AcDbDimension
  2
*D5
 10
25.95970865422011
 20
-25.00001574083619
 30
0.0
 11
22.55970865422011
 21
-0.0000157408361983
 31
0.0
 70
    32
  1
%%c<>
  3
AM_JIS$0
100
AcDbAlignedDimension
 13
0.0000018997536582
 23
24.99998425916379
 33
0.0
 14
-0.0000003799517851
 24
-25.00001574083618
 34
0.0
 50
90.00000000000003
100
AcDbRotatedDimension
1001
ACAD
1000
DSTYLE
1002
{
1070
   271
1070
     0
1002
}
1001
GENIUS_GENDTOL_13
1000

1000
h7
1000

1040
0.0
  0
DIMENSION
  5
38E8
330
1F
100
AcDbEntity
  8
AM_5
100
AcDbDimension
  2
*D6
 10
-12.99999999999999
 20
38.99998624703239
 30
0.0
 11
-6.499999999999994
 21
42.39998624703239
 31
0.0
 70
    32
  1
<>
  3
AM_JIS$0
100
AcDbAlignedDimension
 13
0.0000000000000031
 23
12.49999809265016
 33
0.0
 14
-12.99999999999999
 24
12.51002622227675
 34
0.0
 50
180.0
100
AcDbRotatedDimension
1001
ACAD
1000
DSTYLE
1002
{
1070
   271
1070
     0
1002
}
1001
GENIUS_GENDTOL_13
1000

1000
h7
1000

1040
0.0
  0
DIMENSION
  5
48F8
330
1F
100
AcDbEntity
  8
AM_5
100
AcDbDimension
  2
*D7
 10
-33.70086709436842
 20
-39.00002906545455
 30
0.0
 11
-50.48178612875546
 21
-39.00002906545455
 31
0.0
 70
   160
  1
<>
  3
AM_JIS$0
100
AcDbAlignedDimension
 13
-40.00083374780309
 23
-15.00001582065132
 33
0.0
 14
-33.70086709436842
 24
-5.200010128143734
 34
0.0
 50
0.0000209534266725
100
AcDbRotatedDimension
1001
ACAD
1000
DSTYLE
1002
{
1070
   271
1070
     1
1002
}
1001
GENIUS_GENDTOL_13
1000

1000
h7
1000

1040
0.0
  0
DIMENSION
  5
49AE
330
1F
100
AcDbEntity
  8
AM_5
100
AcDbDimension
  2
*D8
 10
-20.0008553736661
 20
-49.00002405527483
 30
0.0
 11
-30.00084456073459
 21
-45.60002405527483
 31
0.0
 70
    32
  1
<>
  3
AM_JIS$0
100
AcDbAlignedDimension
 13
-40.00083374780309
 23
-15.00001653590703
 33
0.0
 14
-20.0008553736661
 24
-11.60002032448304
 34
0.0
 50
0.0000209534266725
100
AcDbRotatedDimension
1001
ACAD
1000
DSTYLE
1002
{
1070
   271
1070
     0
1002
}
1001
GENIUS_GENDTOL_13
1000

1000
h7
1000

1040
0.0
  0
DIMENSION
  5
4A36
330
1F
100
AcDbEntity
  8
AM_5
100
AcDbDimension
  2
*D9
 10
-14.00085517609127
 20
-59.00002186103772
 30
0.0
 11
-27.00084446194718
 21
-55.60002186103772
 31
0.0
 70
    32
  1
<>
  3
AM_JIS$0
100
AcDbAlignedDimension
 13
-40.00083374780309
 23
-15.00001582065132
 33
0.0
 14
-14.00085517609127
 24
-9.000014676908334
 34
0.0
 50
0.0000209534266725
100
AcDbRotatedDimension
1001
ACAD
1000
DSTYLE
1002
{
1070
   271
1070
     0
1002
}
1001
GENIUS_GENDTOL_13
1000

1000
h7
1000

1040
0.0
  0
DIMENSION
  5
4AC1
330
1F
100
AcDbEntity
  8
AM_5
100
AcDbDimension
  2
*D10
 10
-0.0000000000000035
 20
-69.00001674083765
 30
0.0
 11
-20.00041687390154
 21
-65.60001674083764
 31
0.0
 70
    32
  1
<>
  3
AM_JIS$0
100
AcDbAlignedDimension
 13
-40.00083374780309
 23
-15.00001653590703
 33
0.0
 14
-0.0000000000000005
 24
-20.00000190735112
 34
0.0
 50
0.0000209534266725
100
AcDbRotatedDimension
1001
ACAD
1000
DSTYLE
1002
{
1070
   271
1070
     0
1002
}
1001
GENIUS_GENDTOL_13
1000

1000
h7
1000

1040
0.0
  0
DIMENSION
  5
4B52
330
1F
100
AcDbEntity
  8
AM_5
100
AcDbDimension
  2
*D11
 10
-56.96349663723871
 20
5.199984171083918
 30
0.0
 11
-56.96349663723871
 21
-0.0000127771583035
 31
0.0
 70
   160
  1
<>
  3
AM_JIS$0
100
AcDbAlignedDimension
 13
-39.00080717984095
 23
-5.200009725400511
 33
0.0
 14
-39.00080710384939
 24
5.199984171083913
 34
0.0
 50
270.0000209534266
100
AcDbRotatedDimension
1001
ACAD
1000
DSTYLE
1002
{
1070
   271
1070
     1
1002
}
1001
GENIUS_GENDTOL_13
1000

1000
h7
1000

1040
0.0
  0
DIMENSION
  5
4E51
330
1F
100
AcDbEntity
  8
AM_5
100
AcDbDimension
  2
*D12
 10
15.95970865422006
 20
-5.500014676908351
 30
0.0
 11
12.55970865422006
 21
-0.0000146769087649
 31
0.0
 70
    32
  1
%%c<>
  3
AM_JIS$0
100
AcDbAlignedDimension
 13
-14.00085407423415
 23
5.499985323090824
 33
0.0
 14
-14.00085491012576
 24
-5.500014676908342
 34
0.0
 50
90.0000209534266
100
AcDbRotatedDimension
1001
ACAD
1000
DSTYLE
1002
{
1070
   271
1070
     0
1002
}
1001
GENIUS_GENDTOL_13
1000

1000
h7
1000

1040
0.0
  0
DIMENSION
  5
4EED
330
1F
100
AcDbEntity
  8
AM_5
100
AcDbDimension
  2
*D13
 10
-66.96350087943383
 20
10.99998722284353
 30
0.0
 11
-70.36350087943384
 21
-0.0000127771563213
 31
0.0
 70
    32
  1
%%c<>
  3
AM_JIS$0
100
AcDbAlignedDimension
 13
-39.00083566798931
 23
-11.00001277715616
 33
0.0
 14
-39.00084129131915
 24
10.99998722284352
 34
0.0
 50
270.0000209534266
100
AcDbRotatedDimension
1001
ACAD
1000
DSTYLE
1002
{
1070
   271
1070
     0
1002
}
1001
GENIUS_GENDTOL_13
1000

1000
h7
1000

1040
0.0
  0
LINE
  5
528D
330
1F
100
AcDbEntity
  8
AM_7
  6
AM_ISO08W050X2
100
AcDbLine
 10
1.959716796879997
 20
-0.0000158897553064
 30
0.0
 11
-42.96350097655987
 21
-0.0000124760334156
 31
0.0
  0
SPLINE
  5
528E
330
1F
100
AcDbEntity
  8
AM_0
100
AcDbSpline
210
0.0
220
0.0
230
1.0
 70
     8
 71
     3
 72
    11
 73
     7
 74
     5
 42
0.0000000001
 43
0.0000000001
 44
0.0000000001
 40
0.0
 40
0.0
 40
0.0
 40
0.0
 40
3.682082329442846
 40
6.445451476974973
 40
8.225981209092214
 40
9.089202001348136
 40
9.089202001348136
 40
9.089202001348136
 40
9.089202001348136
 10
-20.82684215241625
 20
14.59797969250668
 30
0.0
 10
-22.02215155352756
 20
14.97062017266975
 30
0.0
 10
-24.11452973943325
 20
15.62292392862927
 30
0.0
 10
-26.04215170117021
 20
17.64851071023612
 30
0.0
 10
-26.99185695889003
 20
19.26136672558978
 30
0.0
 10
-27.00618454961547
 20
20.15137886080974
 30
0.0
 10
-27.01086270441983
 20
20.44198002510232
 30
0.0
 11
-20.82684215241625
 21
14.59797969250668
 31
0.0
 11
-24.22283813803194
 21
16.02098410095991
 31
0.0
 11
-26.17382675884917
 21
17.97798498163783
 31
0.0
 11
-26.94885105109662
 21
19.58098949609804
 31
0.0
 11
-27.01086270441983
 21
20.44198002510232
 31
0.0
  0
ARC
  5
528F
330
1F
100
AcDbEntity
  8
AM_0
100
AcDbCircle
 10
-17.84387021881019
 20
24.36498347889223
 30
0.0
 40
9.971149444580099
100
AcDbArc
 50
203.1684054145717
 51
267.0019617464706
  0
ARC
  5
5290
330
1F
100
AcDbEntity
  8
AM_0
100
AcDbCircle
 10
-17.77587705497862
 20
24.36197749228043
 30
0.0
 40
9.174268722534199
100
AcDbArc
 50
203.8940003157647
 51
266.9967025008054
  0
LINE
  5
5291
330
1F
100
AcDbEntity
  8
AM_0
100
AcDbLine
 10
-28.2857955762365
 20
20.30397963370366
 30
0.0
 11
-20.82671954856871
 21
21.61898913768838
 31
0.0
  0
LINE
  5
5292
330
1F
100
AcDbEntity
  8
AM_0
100
AcDbLine
 10
-23.00085365628832
 20
10.99998600700212
 30
0.0
 11
-39.00085365628827
 21
10.99998722284446
 31
0.0
  0
LINE
  5
5293
330
1F
100
AcDbEntity
  8
AM_0
100
AcDbLine
 10
-28.28592073235626
 20
-20.30404544029164
 30
0.0
 11
-20.82684490455413
 21
-21.61905655474581
 31
0.0
  0
LINE
  5
5294
330
1F
100
AcDbEntity
  8
AM_0
100
AcDbLine
 10
-23.00085532807153
 20
-11.00001399299701
 30
0.0
 11
-39.00085532807149
 21
-11.00001277715467
 31
0.0
  0
LINE
  5
5295
330
1F
100
AcDbEntity
  8
AM_11
100
AcDbLine
 10
0.0000018997536582
 20
24.99998425916379
 30
0.0
 11
-0.0000018997536567
 21
-25.00001574083607
 31
0.0
  0
LINE
  5
5296
330
1F
100
AcDbEntity
  8
AM_11
100
AcDbLine
 10
-13.00000189975362
 20
-25.00001475296416
 30
0.0
 11
-12.9999981002463
 21
24.99998524703569
 31
0.0
  0
SPLINE
  5
5298
330
1F
100
AcDbEntity
  8
AM_0
100
AcDbSpline
210
0.0
220
0.0
230
1.0
 70
     8
 71
     3
 72
    11
 73
     7
 74
     5
 42
0.0000000001
 43
0.0000000001
 44
0.0000000001
 40
0.0
 40
0.0
 40
0.0
 40
0.0
 40
1.383010235242427
 40
2.796434807174851
 40
4.202222968856195
 40
5.596823981115022
 40
5.596823981115022
 40
5.596823981115022
 40
5.596823981115022
 10
-7.747862012485688
 20
23.12198649587509
 30
0.0
 10
-7.313175707559961
 20
22.94441203377052
 30
0.0
 10
-6.434243735604276
 20
22.58535799784175
 30
0.0
 10
-5.59295942665121
 20
21.38668129754919
 30
0.0
 10
-5.281056209295817
 20
19.95565492012381
 30
0.0
 10
-5.60000924890358
 20
19.06068285735544
 30
0.0
 10
-5.758848683093423
 20
18.61498446789766
 30
0.0
 11
-7.747862012485688
 21
23.12198649587509
 31
0.0
 11
-6.521848877519916
 21
22.48197938366718
 31
0.0
 11
-5.680845545884269
 21
21.3459853622392
 31
0.0
 11
-5.41284027965104
 21
19.96598045906144
 31
0.0
 11
-5.758848683093423
 21
18.61498446789766
 31
0.0
  0
SPLINE
  5
5299
330
1F
100
AcDbEntity
  8
AM_0
100
AcDbSpline
210
0.0
220
0.0
230
1.0
 70
     8
 71
     3
 72
    11
 73
     7
 74
     0
 42
0.0000000001
 43
0.0000000001
 40
0.5667093439699608
 40
0.5667093439699608
 40
0.5667093439699608
 40
0.5667093439699608
 40
1.600119742228316
 40
3.201214196836252
 40
4.802306782328361
 40
6.402434000772393
 40
6.402434000772393
 40
6.402434000772393
 40
6.402434000772393
 10
-16.13687283805648
 20
23.66665082452102
 30
0.0
 10
-16.20556165159677
 20
23.32909857697968
 30
0.0
 10
-16.38064810901506
 20
22.46856137984937
 30
0.0
 10
-16.66186326839347
 20
21.08498517159604
 30
0.0
 10
-16.98070604743901
 20
19.51628875718408
 30
0.0
 10
-17.193499645171
 20
18.47064816248917
 30
0.0
 10
-17.2998643587788
 20
17.94798552800713
 30
0.0
  0
ARC
  5
529A
330
1F
100
AcDbEntity
  8
AM_0
100
AcDbCircle
 10
-19.0008527622643
 20
22.76498509269051
 30
0.0
 40
1.0
100
AcDbArc
 50
89.99998631141769
 51
179.9999888158955
  0
CIRCLE
  5
529B
330
1F
100
AcDbEntity
  8
AM_0
100
AcDbCircle
 10
-8.423826601549786
 20
20.04798142028773
 30
0.0
 40
3.0060000419617
  0
ARC
  5
529C
330
1F
100
AcDbEntity
  8
AM_0
100
AcDbCircle
 10
-8.554869081487568
 20
20.05498521442567
 30
0.0
 40
3.153732061386099
100
AcDbArc
 50
100.6899631927289
 51
152.7422133101795
  0
LINE
  5
529D
330
1F
100
AcDbEntity
  8
AM_0
100
AcDbLine
 10
-13.77065862974627
 20
23.30094966106729
 30
0.0
 11
-13.925657526289
 21
21.75795040526767
 31
0.0
  0
LINE
  5
529E
330
1F
100
AcDbEntity
  8
AM_0
100
AcDbLine
 10
-2.956663395166648
 20
21.6329648305212
 30
0.0
 11
-2.87267891598341
 21
23.00397465079921
 31
0.0
  0
LINE
  5
529F
330
1F
100
AcDbEntity
  8
AM_0
100
AcDbLine
 10
-2.057737567944966
 20
22.23793378686969
 30
0.0
 11
-0.0407086557030852
 21
23.60195112016738
 31
0.0
  0
LINE
  5
52A0
330
1F
100
AcDbEntity
  8
AM_0
100
AcDbLine
 10
-0.0410748666319224
 20
23.60196637898521
 30
0.0
 11
-0.1160871817950557
 21
22.1789774930834
 31
0.0
  0
SPLINE
  5
52AB
330
1F
100
AcDbEntity
  8
AM_0
100
AcDbSpline
210
0.0
220
0.0
230
1.0
 70
     8
 71
     3
 72
    11
 73
     7
 74
     5
 42
0.0000000001
 43
0.0000000001
 44
0.0000000001
 40
0.0
 40
0.0
 40
0.0
 40
0.0
 40
0.3540394877795548
 40
0.6979802401601239
 40
1.034269996694644
 40
1.369700016820434
 40
1.369700016820434
 40
1.369700016820434
 40
1.369700016820434
 10
-7.781858593832152
 20
23.1309815546105
 30
0.0
 10
-7.897456544139063
 20
23.1553539100963
 30
0.0
 10
-8.125355091906355
 20
23.2034034162176
 30
0.0
 10
-8.470132068825478
 20
23.22782459975083
 30
0.0
 10
-8.809611008040636
 20
23.21660168690883
 30
0.0
 10
-9.029891527703131
 20
23.17483893308614
 30
0.0
 10
-9.139890818644174
 20
23.15398428231956
 30
0.0
 11
-7.781858593832152
 21
23.1309815546105
 31
0.0
 11
-8.129881049833187
 21
23.19597639306877
 31
0.0
 11
-8.472837590827369
 21
23.22197739569209
 31
0.0
 11
-8.808836127040644
 21
23.20798511165467
 31
0.0
 11
-9.139890818644174
 21
23.15398428231956
 31
0.0
  0
ELLIPSE
  5
52AC
330
1F
100
AcDbEntity
  8
AM_0
100
AcDbEllipse
 10
-18.62084712768425
 20
32.65797899081585
 30
0.0
 11
39.736327687284
 21
-2.729907718967361
 31
0.0
210
0.0
220
0.0
230
0.9999999999999998
 40
0.190133182099
 41
4.845170030881479
 42
4.997777302219859
  0
ELLIPSE
  5
52AD
330
1F
100
AcDbEntity
  8
AM_0
100
AcDbEllipse
 10
-15.37685920212739
 20
31.18998405436272
 30
0.0
 11
40.69766332095053
 21
-2.142377378803393
 31
0.0
210
0.0
220
0.0
230
1.0
 40
0.191490342044
 41
4.850764516716816
 42
4.87645647594107
  0
SPLINE
  5
52AE
330
1F
100
AcDbEntity
  8
AM_0
100
AcDbSpline
210
0.0
220
0.0
230
1.0
 70
     8
 71
     3
 72
    11
 73
     7
 74
     5
 42
0.0000000001
 43
0.0000000001
 44
0.0000000001
 40
0.0
 40
0.0
 40
0.0
 40
0.0
 40
1.23180411064901
 40
2.45526637215585
 40
3.669639505505024
 40
4.874745304616673
 40
4.874745304616673
 40
4.874745304616673
 40
4.874745304616673
 10
-2.872862021452831
 20
23.00398228020813
 30
0.0
 10
-3.283179319041787
 20
23.01932307274508
 30
0.0
 10
-4.101035221595344
 20
23.04990076907893
 30
0.0
 10
-5.323795033665029
 20
23.08358628092464
 30
0.0
 10
-6.537764833615962
 20
23.11296338571378
 30
0.0
 10
-7.344183120792748
 20
23.12432370050892
 30
0.0
 10
-7.745847851718099
 20
23.12998210119003
 30
0.0
 11
-2.872862021452831
 21
23.00398228020813
 31
0.0
 11
-4.103880084509357
 21
23.04798109201437
 31
0.0
 11
-5.326841507639423
 21
23.08298484705739
 31
0.0
 11
-6.540891798471701
 21
23.11098481724225
 31
0.0
 11
-7.745847851718099
 21
23.12998210119003
 31
0.0
  0
ELLIPSE
  5
52AF
330
1F
100
AcDbEntity
  8
AM_0
100
AcDbEllipse
 10
2.950135527919743
 20
16.45698286005667
 30
0.0
 11
40.53845310666649
 21
-2.785014179513989
 31
0.0
210
0.0
220
0.0
230
1.0
 40
0.190136386624
 41
1.676063517273816
 42
1.855838200779926
  0
ELLIPSE
  5
52B0
330
1F
100
AcDbEntity
  8
AM_0
100
AcDbEllipse
 10
52.69519465854161
 20
55.64998178072747
 30
0.0
 11
-80.21375026082209
 21
-50.96294757926854
 31
0.0
210
0.0
220
0.0
230
1.0
 40
0.0320936969972
 41
5.426685536059024
 42
5.454298602883742
  0
SPLINE
  5
52B1
330
1F
100
AcDbEntity
  8
AM_0
100
AcDbSpline
210
0.0
220
0.0
230
1.0
 70
     8
 71
     3
 72
    11
 73
     7
 74
     5
 42
0.0000000001
 43
0.0000000001
 44
0.0000000001
 40
0.0
 40
0.0
 40
0.0
 40
0.0
 40
0.3285314821609777
 40
0.6125492057453278
 40
0.8901677263319831
 40
1.20445287834645
 40
1.20445287834645
 40
1.20445287834645
 40
1.20445287834645
 10
-0.0408917611607623
 20
23.6019816377603
 30
0.0
 10
-0.0567894406496122
 20
23.71117923509448
 30
0.0
 10
-0.0864307732854817
 20
23.91477890559297
 30
0.0
 10
-0.2419282341946473
 20
24.1773429463382
 30
0.0
 10
-0.4853525281128243
 20
24.35487759601449
 30
0.0
 10
-0.6803396603760391
 20
24.39544429457636
 30
0.0
 10
-0.7838726562686094
 20
24.41698413562552
 30
0.0
 11
-0.0408917611607623
 21
23.6019816377603
 31
0.0
 11
-0.1108380258379934
 21
23.92298078858253
 31
0.0
 11
-0.2578716987726723
 21
24.16597701557664
 31
0.0
 11
-0.4818707097501774
 21
24.32997849744135
 31
0.0
 11
-0.7838726562686094
 21
24.41698413562552
 31
0.0
  0
ELLIPSE
  5
52B2
330
1F
100
AcDbEntity
  8
AM_0
100
AcDbEllipse
 10
-0.8668500128929178
 20
23.60498005257498
 30
0.0
 11
-0.6902771146056674
 21
-0.4804000449047375
 31
0.0
210
0.0
220
0.0
230
0.9999999999999998
 40
0.9500576774677
 41
2.504878162814664
 42
4.027146317004441
  0
LINE
  5
52DC
330
1F
100
AcDbEntity
  8
AM_11
100
AcDbLine
 10
-12.9999981002463
 20
24.99998524703569
 30
0.0
 11
0.0000018997536582
 21
24.99998425916379
 31
0.0
  0
LINE
  5
52DD
330
1F
100
AcDbEntity
  8
AM_0
100
AcDbLine
 10
-10.16491523095851
 20
23.17695646714432
 30
0.0
 11
-13.77087225278568
 21
23.30095729047852
 31
0.0
  0
LINE
  5
52DE
330
1F
100
AcDbEntity
  8
AM_0
100
AcDbLine
 10
-1.947874180985224
 20
23.62903180098217
 30
0.0
 11
-2.872831503867902
 21
23.0040471300588
 31
0.0
  0
LINE
  5
52DF
330
1F
100
AcDbEntity
  8
AM_0
100
AcDbLine
 10
-0.7857952637683253
 20
24.41593509402363
 30
0.0
 11
-1.063779897193001
 21
24.22795446329172
 31
0.0
  0
LINE
  5
52E0
330
1F
100
AcDbEntity
  8
AM_0
100
AcDbLine
 10
-1.06390196750184
 20
24.22796972208999
 30
0.0
 11
-1.947904698493625
 21
23.62997403120949
 31
0.0
  0
LINE
  5
52E1
330
1F
100
AcDbEntity
  8
AM_0
100
AcDbLine
 10
-0.7837811035341146
 20
24.41691165637057
 30
0.0
 11
-0.7857952637709343
 21
24.41590076174763
 31
0.0
  0
LINE
  5
52E2
330
1F
100
AcDbEntity
  8
AM_0
100
AcDbLine
 10
-0.7858868164186066
 20
24.41698413577858
 30
0.0
 11
-0.7858868164951347
 21
24.41597705570059
 31
0.0
  0
LINE
  5
52E3
330
1F
100
AcDbEntity
  8
AM_0
100
AcDbLine
 10
-0.7857952637709343
 20
24.41590076174763
 30
0.0
 11
-0.7837811035341146
 21
24.41691165637057
 31
0.0
  0
LINE
  5
52E4
330
1F
100
AcDbEntity
  8
AM_0
100
AcDbLine
 10
-0.7838726562686094
 20
24.41698413562552
 30
0.0
 11
-0.7858868164186066
 21
24.41698413577858
 31
0.0
  0
LINE
  5
52E5
330
1F
100
AcDbEntity
  8
AM_0
100
AcDbLine
 10
-7.781828076248673
 20
23.13102733097518
 30
0.0
 11
-7.747800977323367
 21
23.12201701344845
 31
0.0
  0
LINE
  5
52E6
330
1F
100
AcDbEntity
  8
AM_0
100
AcDbLine
 10
-7.747953565213947
 20
23.12200938406504
 30
0.0
 11
-7.745969922026649
 21
23.13000117468631
 31
0.0
  0
LINE
  5
52E7
330
1F
100
AcDbEntity
  8
AM_0
100
AcDbLine
 10
-7.745878369298679
 20
23.12997447179835
 30
0.0
 11
-7.942899739009636
 21
24.63897335761904
 31
0.0
  0
LINE
  5
52E8
330
1F
100
AcDbEntity
  8
AM_0
100
AcDbLine
 10
-16.05541811596417
 20
23.76498486886649
 30
0.0
 11
-19.00085268627416
 21
23.7649850926905
 31
0.0
  0
ARC
  5
52E9
330
1F
100
AcDbEntity
  8
AM_0
100
AcDbCircle
 10
-13.78451372392117
 20
21.80463847437613
 30
0.0
 40
3.0
100
AcDbArc
 50
84.38638360617664
 51
141.6310835495515
  0
SPLINE
  5
52EA
330
1F
100
AcDbEntity
  8
AM_0
100
AcDbSpline
210
0.0
220
0.0
230
1.0
 70
     8
 71
     3
 72
    11
 73
     7
 74
     5
 42
0.0000000001
 43
0.0000000001
 44
0.0000000001
 40
0.0
 40
0.0
 40
0.0
 40
0.0
 40
1.592211203171504
 40
3.185561422775733
 40
4.778917837596566
 40
6.372115184677694
 40
6.372115184677694
 40
6.372115184677694
 40
6.372115184677694
 10
-1.153870836534978
 20
-15.89201012947097
 30
0.0
 10
-1.0675845246415
 20
-16.41568610296052
 30
0.0
 10
-0.8949501744158835
 20
-17.46341267080528
 30
0.0
 10
-0.6349216881744513
 20
-19.03501919469423
 30
0.0
 10
-0.3746422490489675
 20
-20.60691743310881
 30
0.0
 10
-0.202108820114032
 20
-21.65499588859756
 30
0.0
 10
-0.1158464119449377
 20
-22.17900895712991
 30
0.0
 11
-1.153870836534978
 21
-15.89201012947097
 31
0.0
 11
-0.8948377527954361
 21
-17.46300929466274
 31
0.0
 11
-0.6348891417821295
 21
-19.03501172530497
 31
0.0
 11
-0.3748794956085315
 21
-20.60701034125455
 31
0.0
 11
-0.1158464119449377
 21
-22.17900895712991
 31
0.0
  0
ELLIPSE
  5
52EB
330
1F
100
AcDbEntity
  8
AM_0
100
AcDbEllipse
 10
-7.754881297180905
 20
19.94097911115448
 30
0.0
 11
1.376708747372747
 21
-1.489104547768305
 31
0.0
210
0.0
220
0.0
230
1.0
 40
0.9728879759670999
 41
2.498761417339682
 42
5.328966470689556
  0
SPLINE
  5
52EC
330
1F
100
AcDbEntity
  8
AM_0
100
AcDbSpline
210
0.0
220
0.0
230
1.0
 70
     8
 71
     3
 72
    11
 73
     7
 74
     5
 42
0.0000000001
 43
0.0000000001
 44
0.0000000001
 40
0.0
 40
0.0
 40
0.0
 40
0.0
 40
0.0610058337353373
 40
0.233075706309979
 40
0.4933124352321712
 40
0.7996773502206495
 40
0.7996773502206495
 40
0.7996773502206495
 40
0.7996773502206495
 10
-1.756834910949338
 20
13.50898135616704
 30
0.0
 10
-1.757306603398819
 20
13.52931424286585
 30
0.0
 10
-1.759108726967865
 20
13.60699700922563
 30
0.0
 10
-1.751260921078897
 20
13.77136415332662
 30
0.0
 10
-1.741711073581791
 20
14.01734962564757
 30
0.0
 10
-1.732076214655124
 20
14.20598243278458
 30
0.0
 10
-1.726866588513517
 20
14.30797732556974
 30
0.0
 11
-1.756834910949338
 21
13.50898135616704
 31
0.0
 11
-1.757872503964164
 21
13.56997836552388
 31
0.0
 11
-1.752867608084082
 21
13.74197543545556
 31
0.0
 11
-1.741820225046482
 21
14.00197757084707
 31
0.0
 11
-1.726866588513517
 21
14.30797732556974
 31
0.0
  0
SPLINE
  5
52ED
330
1F
100
AcDbEntity
  8
AM_0
100
AcDbSpline
210
0.0
220
0.0
230
1.0
 70
     8
 71
     3
 72
    11
 73
     7
 74
     5
 42
0.0000000001
 43
0.0000000001
 44
0.0000000001
 40
0.0
 40
0.0
 40
0.0
 40
0.0
 40
0.2760254124891372
 40
0.5486153632783937
 40
0.819105030513111
 40
1.092680048226301
 40
1.092680048226301
 40
1.092680048226301
 40
1.092680048226301
 10
-18.04284552744163
 20
15.16298192235737
 30
0.0
 10
-17.96035745675291
 20
15.12198416285806
 30
0.0
 10
-17.79640797667084
 20
15.04049890931386
 30
0.0
 10
-17.53666855567015
 20
14.9541608187958
 30
0.0
 10
-17.27082650523801
 20
14.89219837155981
 30
0.0
 10
-17.08984374971188
 20
14.87741578446775
 30
0.0
 10
-16.9988392020567
 20
14.86998257544418
 30
0.0
 11
-18.04284552744163
 21
15.16298192235737
 31
0.0
 11
-17.79284553633281
 21
15.04597750882783
 31
0.0
 11
-17.53484993755976
 21
14.95798005269971
 31
0.0
 11
-17.27087289125303
 21
14.89898192473006
 31
0.0
 11
-16.9988392020567
 21
14.86998257544418
 31
0.0
  0
ELLIPSE
  5
52EE
330
1F
100
AcDbEntity
  8
AM_0
100
AcDbEllipse
 10
-18.32485846576212
 20
15.17797751873858
 30
0.0
 11
-0.0422058509574387
 21
-0.7988853653137759
 31
0.0
210
0.0
220
0.0
230
0.9999999999999998
 40
0.0837725670784
 41
0.0
 42
1.570805208426979
  0
ELLIPSE
  5
52EF
330
1F
100
AcDbEntity
  8
AM_0
100
AcDbEllipse
 10
-309.2138355002034
 20
15.3929997760225
 30
0.0
 11
474.3760742893105
 21
-23.54490633083345
 31
0.0
210
0.0
220
0.0
230
0.9999999999999998
 40
0.0516274988772
 41
5.390525743660624
 42
5.422428248796435
  0
SPLINE
  5
52F0
330
1F
100
AcDbEntity
  8
AM_0
100
AcDbSpline
210
0.0
220
0.0
230
1.0
 70
     8
 71
     3
 72
    11
 73
     7
 74
     5
 42
0.0000000001
 43
0.0000000001
 44
0.0000000001
 40
0.0
 40
0.0
 40
0.0
 40
0.0
 40
0.0361284194115243
 40
0.0721409608061476
 40
0.1092603874351106
 40
0.1456097063108108
 40
0.1456097063108108
 40
0.1456097063108108
 40
0.1456097063108108
 10
-13.67187640650178
 20
-18.5090173874544
 30
0.0
 10
-13.67075323456588
 20
-18.49702907205117
 30
0.0
 10
-13.66851049314719
 20
-18.47309089247611
 30
0.0
 10
-13.6670326141732
 20
-18.43662811555545
 30
0.0
 10
-13.6704936933896
 20
-18.40022300748952
 30
0.0
 10
-13.67407285728644
 20
-18.3760009894392
 30
0.0
 10
-13.67584368063317
 20
-18.36401692938922
 30
0.0
 11
-13.67187640650178
 21
-18.5090173874544
 31
0.0
 11
-13.66882464594618
 21
-18.47301808959061
 31
0.0
 11
-13.66784808071059
 21
-18.43701879156911
 31
0.0
 11
-13.67083880055905
 21
-18.40002004256255
 31
0.0
 11
-13.67584368063317
 21
-18.36401692938922
 31
0.0
  0
SPLINE
  5
52F1
330
1F
100
AcDbEntity
  8
AM_0
100
AcDbSpline
210
0.0
220
0.0
230
1.0
 70
     8
 71
     3
 72
    11
 73
     7
 74
     5
 42
0.0000000001
 43
0.0000000001
 44
0.0000000001
 40
0.0
 40
0.0
 40
0.0
 40
0.0
 40
0.2446260557984084
 40
0.5204281072453317
 40
0.8388896181852668
 40
1.191826239780126
 40
1.191826239780126
 40
1.191826239780126
 40
1.191826239780126
 10
-16.18585345811778
 20
-18.52001878333102
 30
0.0
 10
-16.15968069843798
 20
-18.59858512639287
 30
0.0
 10
-16.1039996315251
 20
-18.76573058062266
 30
0.0
 10
-15.88664626365066
 20
-18.95708928985683
 30
0.0
 10
-15.60515197020318
 20
-19.10403820827665
 30
0.0
 10
-15.38537103333245
 20
-19.15187170327642
 30
0.0
 10
-15.26983788304313
 20
-19.17701653360317
 30
0.0
 11
-16.18585345811778
 21
-18.52001878333102
 31
0.0
 11
-16.08984517443545
 21
-18.7450172647478
 31
0.0
 11
-15.89282370472161
 21
-18.93801807317649
 31
0.0
 11
-15.61084129409806
 21
-19.08601690441877
 31
0.0
 11
-15.26983788304313
 21
-19.17701653360317
 31
0.0
  0
SPLINE
  5
52F2
330
1F
100
AcDbEntity
  8
AM_0
100
AcDbSpline
210
0.0
220
0.0
230
1.0
 70
     8
 71
     3
 72
    11
 73
     7
 74
     5
 42
0.0000000001
 43
0.0000000001
 44
0.0000000001
 40
0.0
 40
0.0
 40
0.0
 40
0.0
 40
0.0534394621154119
 40
0.2137491353111043
 40
0.4763182351243921
 40
0.8357098414369964
 40
0.8357098414369964
 40
0.8357098414369964
 40
0.8357098414369964
 10
-20.00085339245096
 20
14.47198017905667
 30
0.0
 10
-20.01851038900733
 20
14.47433466751351
 30
0.0
 10
-20.08913549631033
 20
14.4837522374483
 30
0.0
 10
-20.24678466632461
 20
14.50261075683167
 30
0.0
 10
-20.50505405450745
 20
14.53897025894546
 30
0.0
 10
-20.7089966651902
 20
14.57636921190113
 30
0.0
 10
-20.82684215241625
 20
14.59797969250668
 30
0.0
 11
-20.00085339245096
 21
14.47198017905667
 31
0.0
 11
-20.05383190754875
 21
14.47898396726152
 31
0.0
 11
-20.2128895232192
 21
14.49898062241533
 31
0.0
 11
-20.47283825087737
 21
14.53598320564487
 31
0.0
 11
-20.82684215241625
 21
14.59797969250668
 31
0.0
  0
SPLINE
  5
52F3
330
1F
100
AcDbEntity
  8
AM_0
100
AcDbSpline
210
0.0
220
0.0
230
1.0
 70
     8
 71
     3
 72
    11
 73
     7
 74
     5
 42
0.0000000001
 43
0.0000000001
 44
0.0000000001
 40
0.0
 40
0.0
 40
0.0
 40
0.0
 40
0.0181159872699105
 40
0.0734354812136117
 40
0.1657420072016373
 40
0.2959320809797788
 40
0.2959320809797788
 40
0.2959320809797788
 40
0.2959320809797788
 10
-20.00085339245096
 20
14.47198017905667
 30
0.0
 10
-19.9948513054525
 20
14.47131723446614
 30
0.0
 10
-19.97052107489697
 20
14.46862990341992
 30
0.0
 10
-19.91564137439125
 20
14.4621912443408
 30
0.0
 10
-19.82321001445604
 20
14.45607390025588
 30
0.0
 10
-19.74918497043787
 20
14.45159707167861
 30
0.0
 10
-19.70587048404894
 20
14.44897753212888
 30
0.0
 11
-20.00085339245096
 21
14.47198017905667
 31
0.0
 11
-19.98284802151286
 21
14.46998127632144
 31
0.0
 11
-19.92785534618913
 21
14.46397693864554
 31
0.0
 11
-19.83581433109077
 21
14.45698077686633
 31
0.0
 11
-19.70587048404894
 21
14.44897753212888
 31
0.0
  0
ELLIPSE
  5
52F4
330
1F
100
AcDbEntity
  8
AM_0
100
AcDbEllipse
 10
-18.67587280273009
 20
-0.0000162290018342
 30
0.0
 11
-1.398652688082353
 21
-23.76087453003624
 31
0.0
210
0.0
220
0.0
230
1.0
 40
0.3141332651661001
 41
0.6231276706216383
 42
0.6512596760313907
  0
ELLIPSE
  5
52F5
330
1F
100
AcDbEntity
  8
AM_0
100
AcDbEllipse
 10
-40.89080810547024
 20
-0.0000174019086495
 30
0.0
 11
281.4254861211844
 21
-14.2502214126084
 31
0.0
210
0.0
220
0.0
230
1.0
 40
0.0679238666214
 41
4.79367483397071
 42
4.804700788753915
  0
ELLIPSE
  5
52F6
330
1F
100
AcDbEntity
  8
AM_0
100
AcDbEllipse
 10
-0.9598388672563038
 20
-0.0010198869528443
 30
0.0
 11
281.4124717889444
 21
-14.24956242070804
 31
0.0
210
0.0
220
0.0
230
1.0
 40
0.0679199273855
 41
4.670565830727882
 42
4.675460640609204
  0
ELLIPSE
  5
52F7
330
1F
100
AcDbEntity
  8
AM_0
100
AcDbEllipse
 10
-18.67587280273009
 20
-0.0000162290018342
 30
0.0
 11
-1.398652688082353
 21
-23.76087453003624
 31
0.0
210
0.0
220
0.0
230
1.0
 40
0.3141332651661001
 41
0.5612884564747719
 42
0.6231276706216383
  0
SPLINE
  5
52F8
330
1F
100
AcDbEntity
  8
AM_0
100
AcDbSpline
210
0.0
220
0.0
230
1.0
 70
     8
 71
     3
 72
    11
 73
     7
 74
     5
 42
0.0000000001
 43
0.0000000001
 44
0.0000000001
 40
0.0
 40
0.0
 40
0.0
 40
0.0
 40
0.71664953147124
 40
1.657618444022984
 40
2.559629702765065
 40
3.211957576958881
 40
3.211957576958881
 40
3.211957576958881
 40
3.211957576958881
 10
-13.67584368063317
 20
-18.36401692938922
 30
0.0
 10
-13.81326603918608
 20
-18.15572999168419
 30
0.0
 10
-14.13112550347793
 20
-17.67395995706192
 30
0.0
 10
-15.04117581313812
 20
-17.57328444097549
 30
0.0
 10
-15.95861993217442
 20
-17.7725829065331
 30
0.0
 10
-16.11867940673383
 20
-18.29906416941218
 30
0.0
 10
-16.18585345811778
 20
-18.52001878333102
 30
0.0
 11
-13.67584368063317
 21
-18.36401692938922
 31
0.0
 11
-14.13885633438678
 21
-17.81701982389233
 31
0.0
 11
-15.06085339041066
 21
-17.62902002848784
 31
0.0
 11
-15.91186659672169
 21
-17.92801975019622
 31
0.0
 11
-16.18585345811778
 21
-18.52001878333102
 31
0.0
  0
SPLINE
  5
52F9
330
1F
100
AcDbEntity
  8
AM_0
100
AcDbSpline
210
0.0
220
0.0
230
1.0
 70
     8
 71
     3
 72
    11
 73
     7
 74
     5
 42
0.0000000001
 43
0.0000000001
 44
0.0000000001
 40
0.0
 40
0.0
 40
0.0
 40
0.0
 40
1.51136179470401
 40
3.022884529172897
 40
4.53441400371039
 40
6.045779556666377
 40
6.045779556666377
 40
6.045779556666377
 40
6.045779556666377
 10
-1.153870787750014
 20
-15.25001946784987
 30
0.0
 10
-1.067598622325093
 20
-15.74636486025068
 30
0.0
 10
-0.8950451046464815
 20
-16.73910849918097
 30
0.0
 10
-0.6349101244115604
 20
-18.22802610307461
 30
0.0
 10
-0.3746463488039793
 20
-19.71692249120227
 30
0.0
 10
-0.2021098895794399
 20
-20.70967266056343
 30
0.0
 10
-0.1158463380074275
 20
-21.20602082846782
 30
0.0
 11
-1.153870787750014
 21
-15.25001946784987
 31
0.0
 11
-0.8948376977792243
 21
-16.73901790061973
 31
0.0
 11
-0.6348890804587216
 21
-18.22802014815647
 31
0.0
 11
-0.3748794279779274
 21
-19.71701858100065
 31
0.0
 11
-0.1158463380074275
 21
-21.20602082846782
 31
0.0
  0
ELLIPSE
  5
52FA
330
1F
100
AcDbEntity
  8
AM_0
100
AcDbEllipse
 10
-0.8668840202443808
 20
-22.31901973379866
 30
0.0
 11
0.8153685978656193
 21
-0.1845552066728786
 31
0.0
210
0.0
220
0.0
230
1.0
 40
0.7751315481955001
 41
4.98773509432497
 42
6.507823610822308
  0
ELLIPSE
  5
52FB
330
1F
100
AcDbEntity
  8
AM_0
100
AcDbEllipse
 10
-1.938844153335377
 20
-18.15901980492814
 30
0.0
 11
0.8153685978556147
 21
-0.1845552066737792
 31
0.0
210
0.0
220
0.0
230
1.0
 40
0.7751315481955001
 41
4.987666945773298
 42
5.704669161999611
  0
ELLIPSE
  5
52FC
330
1F
100
AcDbEntity
  8
AM_0
100
AcDbEllipse
 10
-1.938844153335377
 20
-18.15901980492814
 30
0.0
 11
0.8153685978556147
 21
-0.1845552066737792
 31
0.0
210
0.0
220
0.0
230
1.0
 40
0.7751315481955001
 41
5.802669176464625
 42
6.507823610822308
  0
ELLIPSE
  5
52FD
330
1F
100
AcDbEntity
  8
AM_0
100
AcDbEllipse
 10
-18.62085347582491
 20
-50.88101865932991
 30
0.0
 11
-39.63500917932266
 21
-3.936728099197864
 31
0.0
210
0.0
220
0.0
230
1.0
 40
0.7295244179192001
 41
4.368476014845946
 42
4.553391296750814
  0
ELLIPSE
  5
52FE
330
1F
100
AcDbEntity
  8
AM_0
100
AcDbEllipse
 10
2.950165310436884
 20
6.783980617012385
 30
0.0
 11
-40.43502725847128
 21
-4.016194071164372
 31
0.0
210
0.0
220
0.0
230
1.0
 40
0.7295122858645
 41
1.22655628079331
 42
1.406253448325485
  0
ELLIPSE
  5
52FF
330
1F
100
AcDbEntity
  8
AM_0
100
AcDbEllipse
 10
-14.18185562110607
 20
-18.0690168146434
 30
0.0
 11
0.8070983942464756
 21
-0.0554486866801258
 31
0.0
210
0.0
220
0.0
230
1.0
 40
0.8121109585344999
 41
3.336622792476854
 42
4.787707191015739
  0
SPLINE
  5
5300
330
1F
100
AcDbEntity
  8
AM_0
100
AcDbSpline
210
0.0
220
0.0
230
1.0
 70
     8
 71
     3
 72
    11
 73
     7
 74
     5
 42
0.0000000001
 43
0.0000000001
 44
0.0000000001
 40
0.0
 40
0.0
 40
0.0
 40
0.0
 40
0.2862678264615566
 40
0.5599530922885636
 40
0.8044329106757055
 40
1.014660656450265
 40
1.014660656450265
 40
1.014660656450265
 40
1.014660656450265
 10
-15.18585370037435
 20
-21.70801858466295
 30
0.0
 10
-15.28132028369369
 20
-21.69822614883221
 30
0.0
 10
-15.46805733060758
 20
-21.67907169199982
 30
0.0
 10
-15.71774806461123
 20
-21.57667927816066
 30
0.0
 10
-15.92382089636328
 20
-21.43386052696481
 30
0.0
 10
-15.99152616735265
 20
-21.29583224595278
 30
0.0
 10
-16.0228287618529
 20
-21.23201678155909
 30
0.0
 11
-15.18585370037435
 21
-21.70801858466295
 31
0.0
 11
-15.46887371663683
 21
-21.66501929557802
 31
0.0
 11
-15.72284099404575
 21
-21.56301808609351
 31
0.0
 11
-15.9158951818571
 21
-21.4130165455444
 31
0.0
 11
-16.0228287618529
 21
-21.23201678155909
 31
0.0
  0
SPLINE
  5
5301
330
1F
100
AcDbEntity
  8
AM_0
100
AcDbSpline
210
0.0
220
0.0
230
1.0
 70
     8
 71
     3
 72
    11
 73
     7
 74
     5
 42
0.0000000001
 43
0.0000000001
 44
0.0000000001
 40
0.0
 40
0.0
 40
0.0
 40
0.0
 40
1.670109065267453
 40
3.355846257598688
 40
5.041272744008368
 40
6.71097934132406
 40
6.71097934132406
 40
6.71097934132406
 40
6.71097934132406
 10
-8.16381666950118
 20
22.23798384193654
 30
0.0
 10
-7.60233546634603
 20
22.06911777517892
 30
0.0
 10
-6.474118972282226
 20
21.72980546920491
 30
0.0
 10
-5.861699282433038
 20
19.91359947553498
 30
0.0
 10
-6.661677217076457
 20
18.17224174383859
 30
0.0
 10
-7.818923143343906
 20
17.95305889702684
 30
0.0
 10
-8.394835069812105
 20
17.84398094506265
 30
0.0
 11
-8.16381666950118
 21
22.23798384193654
 31
0.0
 11
-6.657835279056079
 21
21.5159836054258
 31
0.0
 11
-6.097837841290716
 21
19.92597959558651
 31
0.0
 11
-6.82183698037781
 21
18.4039783841243
 31
0.0
 11
-8.394835069812105
 21
17.84398094506265
 31
0.0
  0
SPLINE
  5
5302
330
1F
100
AcDbEntity
  8
AM_0
100
AcDbSpline
210
0.0
220
0.0
230
1.0
 70
     8
 71
     3
 72
    11
 73
     7
 74
     5
 42
0.0000000001
 43
0.0000000001
 44
0.0000000001
 40
0.0
 40
0.0
 40
0.0
 40
0.0
 40
1.411473938851398
 40
2.820512482113272
 40
4.218411264400987
 40
5.620458665321651
 40
5.620458665321651
 40
5.620458665321651
 40
5.620458665321651
 10
-9.404844900251454
 20
16.99098419564144
 30
0.0
 10
-9.850829302716407
 20
17.16702815292566
 30
0.0
 10
-10.74202859400751
 20
17.51881231645389
 30
0.0
 10
-11.59157110797216
 20
18.72497599931505
 30
0.0
 10
-11.86206304205125
 20
20.16542067353789
 30
0.0
 10
-11.52075750379315
 20
21.0513561600282
 30
0.0
 10
-11.34985188221214
 20
21.49498023882882
 30
0.0
 11
-9.404844900251454
 21
16.99098419564144
 31
0.0
 11
-10.6618638944359
 21
17.63298258217851
 31
0.0
 11
-11.49682474568692
 21
18.76798478185731
 31
0.0
 11
-11.73187102769277
 21
20.14598124442051
 31
0.0
 11
-11.34985188221214
 21
21.49498023882882
 31
0.0
  0
SPLINE
  5
5303
330
1F
100
AcDbEntity
  8
AM_0
100
AcDbSpline
210
0.0
220
0.0
230
1.0
 70
     8
 71
     3
 72
    11
 73
     7
 74
     5
 42
0.0000000001
 43
0.0000000001
 44
0.0000000001
 40
0.0
 40
0.0
 40
0.0
 40
0.0
 40
0.1340193491565449
 40
0.2693523908829991
 40
0.4041964312663163
 40
0.5395767556237572
 40
0.5395767556237572
 40
0.5395767556237572
 40
0.5395767556237572
 10
-14.70886092219159
 20
18.1929804483034
 30
0.0
 10
-14.67115112445365
 20
18.2169317315885
 30
0.0
 10
-14.59536188771764
 20
18.26506907487632
 30
0.0
 10
-14.48219014813978
 20
18.33818241043508
 30
0.0
 10
-14.3675481066832
 20
18.40982993200766
 30
0.0
 10
-14.29179535509921
 20
18.45856529030664
 30
0.0
 10
-14.25384381031438
 20
18.48298132925458
 30
0.0
 11
-14.70886092219159
 21
18.1929804483034
 31
0.0
 11
-14.59582380735041
 21
18.2649790359057
 31
0.0
 11
-14.4818711650827
 21
18.33798470351542
 31
0.0
 11
-14.36785748774152
 21
18.4099832910435
 31
0.0
 11
-14.25384381031438
 21
18.48298132925458
 31
0.0
  0
SPLINE
  5
5304
330
1F
100
AcDbEntity
  8
AM_0
100
AcDbSpline
210
0.0
220
0.0
230
1.0
 70
     8
 71
     3
 72
    11
 73
     7
 74
     5
 42
0.0000000001
 43
0.0000000001
 44
0.0000000001
 40
0.0
 40
0.0
 40
0.0
 40
0.0
 40
0.023288762732335
 40
0.0457978622749234
 40
0.0663911513600496
 40
0.0789111923460645
 40
0.0789111923460645
 40
0.0789111923460645
 40
0.0789111923460645
 10
-15.06585556812331
 20
17.96898145199447
 30
0.0
 10
-15.07254805753239
 20
17.96504650619871
 30
0.0
 10
-15.08570898461797
 20
17.95730834905896
 30
0.0
 10
-15.10412083587188
 20
17.94499076830783
 30
0.0
 10
-15.12051582365295
 20
17.93629913425957
 30
0.0
 10
-15.13019069735612
 20
17.93098848182161
 30
0.0
 10
-15.13384873522299
 20
17.92898054163428
 30
0.0
 11
-15.06585556812331
 21
17.96898145199447
 31
0.0
 11
-15.08581406512527
 21
17.95698041591313
 31
0.0
 11
-15.10485703478723
 21
17.9449793797632
 31
0.0
 11
-15.12286240664672
 21
17.93498487429543
 31
0.0
 11
-15.13384873522299
 21
17.92898054163428
 31
0.0
  0
SPLINE
  5
5305
330
1F
100
AcDbEntity
  8
AM_0
100
AcDbSpline
210
0.0
220
0.0
230
1.0
 70
     8
 71
     3
 72
    11
 73
     7
 74
     5
 42
0.0000000001
 43
0.0000000001
 44
0.0000000001
 40
0.0
 40
0.0
 40
0.0
 40
0.0
 40
0.0746163307716712
 40
0.1487016723366984
 40
0.2224913477524709
 40
0.295221027681798
 40
0.295221027681798
 40
0.295221027681798
 40
0.295221027681798
 10
-14.70886092219159
 20
18.1929804483034
 30
0.0
 10
-14.72979349526831
 20
18.17954575573549
 30
0.0
 10
-14.77150967979021
 20
18.15277197536438
 30
0.0
 10
-14.83505894276962
 20
18.11451387850782
 30
0.0
 10
-14.8962511900368
 20
18.07369781789126
 30
0.0
 10
-14.93809191845864
 20
18.04849368388316
 30
0.0
 10
-14.95886093412187
 20
18.03598278663693
 30
0.0
 11
-14.70886092219159
 21
18.1929804483034
 31
0.0
 11
-14.77184920648127
 21
18.15297953756289
 31
0.0
 11
-14.834837490695
 21
18.11397807750538
 31
0.0
 11
-14.89684921248409
 21
18.07398479608566
 31
0.0
 11
-14.95886093412187
 21
18.03598278663693
 31
0.0
  0
SPLINE
  5
5306
330
1F
100
AcDbEntity
  8
AM_0
100
AcDbSpline
210
0.0
220
0.0
230
1.0
 70
     8
 71
     3
 72
    11
 73
     7
 74
     5
 42
0.0000000001
 43
0.0000000001
 44
0.0000000001
 40
0.0
 40
0.0
 40
0.0
 40
0.0
 40
0.1353803243574409
 40
0.2702243647407581
 40
0.4055574064672123
 40
0.5395767556237572
 40
0.5395767556237572
 40
0.5395767556237572
 40
0.5395767556237572
 10
-14.25384381031438
 20
18.48298132925458
 30
0.0
 10
-14.29179535509921
 20
18.45856529030664
 30
0.0
 10
-14.3675481066832
 20
18.40982993200766
 30
0.0
 10
-14.48219014813978
 20
18.33818241043508
 30
0.0
 10
-14.59536188771763
 20
18.26506907487632
 30
0.0
 10
-14.67115112445364
 20
18.2169317315885
 30
0.0
 10
-14.70886092219159
 20
18.1929804483034
 30
0.0
 11
-14.25384381031438
 21
18.48298132925458
 31
0.0
 11
-14.36785748774152
 21
18.4099832910435
 31
0.0
 11
-14.4818711650827
 21
18.33798470351542
 31
0.0
 11
-14.59582380735041
 21
18.2649790359057
 31
0.0
 11
-14.70886092219159
 21
18.1929804483034
 31
0.0
  0
ELLIPSE
  5
5307
330
1F
100
AcDbEntity
  8
AM_0
100
AcDbEllipse
 10
-1.73184136317817
 20
8.919980652363763
 30
0.0
 11
40.69766332095053
 21
-2.142377378803393
 31
0.0
210
0.0
220
0.0
230
1.0
 40
0.191490342044
 41
1.709288995790887
 42
1.734671171672008
  0
ELLIPSE
  5
5308
330
1F
100
AcDbEntity
  8
AM_0
100
AcDbEllipse
 10
-59.95587280212789
 20
-16.05601475533653
 30
0.0
 11
-77.16339713626361
 21
-51.10824998534041
 31
0.0
210
0.0
220
0.0
230
1.0
 40
0.0338289644264
 41
4.06170267968
 42
4.093027091203552
  0
SPLINE
  5
5309
330
1F
100
AcDbEntity
  8
AM_0
100
AcDbSpline
210
0.0
220
0.0
230
1.0
 70
     8
 71
     3
 72
    11
 73
     7
 74
     5
 42
0.0000000001
 43
0.0000000001
 44
0.0000000001
 40
0.0
 40
0.0
 40
0.0
 40
0.0
 40
1.250774115181718
 40
2.499308168217068
 40
3.744640976299714
 40
4.986840258094039
 40
4.986840258094039
 40
4.986840258094039
 40
4.986840258094039
 10
-14.39184440262514
 20
17.11397804384227
 30
0.0
 10
-13.97519367964928
 20
17.09883950313152
 30
0.0
 10
-13.14263843039404
 20
17.06858953393724
 30
0.0
 10
-11.89495891279585
 20
17.03174273655426
 30
0.0
 10
-10.64993491063259
 20
17.00258889232749
 30
0.0
 10
-9.820869555052087
 20
16.988844866524
 30
0.0
 10
-9.40685906109557
 20
16.9819815102475
 30
0.0
 11
-14.39184440262514
 21
17.11397804384227
 31
0.0
 11
-13.14184440596862
 21
17.06997923059358
 31
0.0
 11
-11.89385856893987
 21
17.03298420167696
 31
0.0
 11
-10.64886345395354
 21
17.0039847784556
 31
0.0
 11
-9.40685906109557
 21
16.9819815102475
 31
0.0
  0
ELLIPSE
  5
530A
330
1F
100
AcDbEntity
  8
AM_0
100
AcDbEllipse
 10
-13.65283025938819
 20
23.31697901002349
 30
0.0
 11
40.6082745112605
 21
-1.445972161791724
 31
0.0
210
0.0
220
0.0
230
1.0
 40
0.1901362866296
 41
4.645826484504977
 42
4.825565214292895
  0
SPLINE
  5
530B
330
1F
100
AcDbEntity
  8
AM_0
100
AcDbSpline
210
0.0
220
0.0
230
1.0
 70
     8
 71
     3
 72
    11
 73
     7
 74
     5
 42
0.0000000001
 43
0.0000000001
 44
0.0000000001
 40
0.0
 40
0.0
 40
0.0
 40
0.0
 40
0.0305288989982034
 40
0.0624667510442479
 40
0.0943570151184937
 40
0.1262432113749307
 40
0.1262432113749307
 40
0.1262432113749307
 40
0.1262432113749307
 10
-15.06585556812331
 20
17.96898145199447
 30
0.0
 10
-15.05717548904757
 20
17.97429334848166
 30
0.0
 10
-15.03941473263441
 20
17.9851622931972
 30
0.0
 10
-15.01283511115326
 20
18.00197936789497
 30
0.0
 10
-14.98583906361824
 20
18.01898282956636
 30
0.0
 10
-14.96785326156126
 20
18.03031637524045
 30
0.0
 10
-14.95886093412187
 20
18.03598278663693
 30
0.0
 11
-15.06585556812331
 21
17.96898145199447
 31
0.0
 11
-15.03985459034756
 21
17.98498029035066
 31
0.0
 11
-15.01281601483586
 21
18.00197857931199
 31
0.0
 11
-14.98583847448357
 21
18.01898449767197
 31
0.0
 11
-14.95886093412187
 21
18.03598278663693
 31
0.0
  0
SPLINE
  5
530C
330
1F
100
AcDbEntity
  8
AM_0
100
AcDbSpline
210
0.0
220
0.0
230
1.0
 70
     8
 71
     3
 72
    11
 73
     7
 74
     0
 42
0.0000000001
 43
0.0000000001
 40
0.4809829834512002
 40
0.4809829834512002
 40
0.4809829834512002
 40
0.4809829834512002
 40
1.592218730924424
 40
3.185565186941628
 40
4.778919719980756
 40
6.372117067061481
 40
6.372117067061481
 40
6.372117067061481
 40
6.372117067061481
 10
-1.075666679046314
 20
16.36656002864935
 30
0.0
 10
-1.015434976467785
 20
16.73204208754489
 30
0.0
 10
-0.8687774401652127
 20
17.62156062365044
 30
0.0
 10
-0.6349184956621206
 20
19.0349903031632
 30
0.0
 10
-0.3746389876718127
 20
20.60688662272008
 30
0.0
 10
-0.2021055197685316
 20
21.65496443611415
 30
0.0
 10
-0.1158430411750579
 20
22.17897749306485
 30
0.0
  0
SPLINE
  5
530D
330
1F
100
AcDbEntity
  8
AM_0
100
AcDbSpline
210
0.0
220
0.0
230
1.0
 70
     8
 71
     3
 72
    11
 73
     7
 74
     5
 42
0.0000000001
 43
0.0000000001
 44
0.0000000001
 40
0.0
 40
0.0
 40
0.0
 40
0.0
 40
0.3600441719594607
 40
0.7120799057324677
 40
1.061359616928379
 40
1.411343415689938
 40
1.411343415689938
 40
1.411343415689938
 40
1.411343415689938
 10
-9.368834158755571
 20
16.98198150735798
 30
0.0
 10
-9.251274982426799
 20
16.95717347655664
 30
0.0
 10
-9.018771490584128
 20
16.90810921830665
 30
0.0
 10
-8.664846456067699
 20
16.88408116340843
 30
0.0
 10
-8.313619707933533
 20
16.89573762458858
 30
0.0
 10
-8.083864203985983
 20
16.93655209291396
 30
0.0
 10
-7.968870781745443
 20
16.95697987509556
 30
0.0
 11
-9.368834158755571
 21
16.98198150735798
 31
0.0
 11
-9.014891292671062
 21
16.91597958837181
 31
0.0
 11
-8.663817075896883
 21
16.88997858513163
 31
0.0
 11
-8.314818051393023
 21
16.90397849757614
 31
0.0
 11
-7.968870781745443
 21
16.95697987509556
 31
0.0
  0
ELLIPSE
  5
530E
330
1F
100
AcDbEntity
  8
AM_0
100
AcDbEllipse
 10
-5.11184633118314
 20
7.798980619293833
 30
0.0
 11
39.80477906344463
 21
-1.417361439872989
 31
0.0
210
0.0
220
0.0
230
0.9999999999999998
 40
0.1901329296823
 41
1.491234800830322
 42
1.684076324510634
  0
SPLINE
  5
530F
330
1F
100
AcDbEntity
  8
AM_0
100
AcDbSpline
210
0.0
220
0.0
230
1.0
 70
     8
 71
     3
 72
    11
 73
     7
 74
     5
 42
0.0000000001
 43
0.0000000001
 44
0.0000000001
 40
0.0
 40
0.0
 40
0.0
 40
0.0
 40
0.0293991370361758
 40
0.0582827319838593
 40
0.0884882218010441
 40
0.1187398861681108
 40
0.1187398861681108
 40
0.1187398861681108
 40
0.1187398861681108
 10
-2.185850367674663
 20
22.14897887106801
 30
0.0
 10
-2.1937975489904
 20
22.14324213682154
 30
0.0
 10
-2.209552550168913
 20
22.13186926747036
 30
0.0
 10
-2.234339554892164
 20
22.11586680665583
 30
0.0
 10
-2.258832359588988
 20
22.09892477241282
 30
0.0
 10
-2.275521760120525
 20
22.08762949024884
 30
0.0
 10
-2.283872833706106
 20
22.08197753574375
 30
0.0
 11
-2.185850367674663
 21
22.14897887106801
 31
0.0
 11
-2.209837185366363
 21
22.13198058187477
 31
0.0
 11
-2.23388503815212
 21
22.11598174337017
 31
0.0
 11
-2.2588484183444
 21
22.09897582485714
 31
0.0
 11
-2.283872833706106
 21
22.08197753574375
 31
0.0
  0
SPLINE
  5
5310
330
1F
100
AcDbEntity
  8
AM_0
100
AcDbSpline
210
0.0
220
0.0
230
1.0
 70
     8
 71
     3
 72
    11
 73
     7
 74
     5
 42
0.0000000001
 43
0.0000000001
 44
0.0000000001
 40
0.0
 40
0.0
 40
0.0
 40
0.0
 40
0.1298258827390959
 40
0.2604145918050374
 40
0.3924711027300672
 40
0.5244809748056698
 40
0.5244809748056698
 40
0.5244809748056698
 40
0.5244809748056698
 10
-2.519834759848278
 20
21.92298097164253
 30
0.0
 10
-2.555817865430439
 20
21.89893978595966
 30
0.0
 10
-2.627995504852984
 20
21.85071615424599
 30
0.0
 10
-2.737277288599472
 20
21.77879606576519
 30
0.0
 10
-2.846839975850534
 20
21.70598194538145
 30
0.0
 10
-2.920181976877183
 20
21.6573111759669
 30
0.0
 10
-2.956846500635489
 20
21.63298008932411
 30
0.0
 11
-2.519834759848278
 21
21.92298097164253
 31
0.0
 11
-2.62786699187946
 21
21.85098238366092
 31
0.0
 11
-2.736814751260645
 21
21.77898379574887
 31
0.0
 11
-2.846861143527778
 21
21.70598575723631
 31
0.0
 11
-2.956846500635489
 21
21.63298008932411
 31
0.0
  0
SPLINE
  5
5311
330
1F
100
AcDbEntity
  8
AM_0
100
AcDbSpline
210
0.0
220
0.0
230
1.0
 70
     8
 71
     3
 72
    11
 73
     7
 74
     5
 42
0.0000000001
 43
0.0000000001
 44
0.0000000001
 40
0.0
 40
0.0
 40
0.0
 40
0.0
 40
0.3285444823154239
 40
0.6117141017698553
 40
0.8899242105494483
 40
1.204207250544468
 40
1.204207250544468
 40
1.204207250544468
 40
1.204207250544468
 10
-17.37487667401904
 20
16.52398193263333
 30
0.0
 10
-17.35904654613516
 20
16.41471690818657
 30
0.0
 10
-17.32957256930514
 20
16.21127731360484
 30
0.0
 10
-17.17313457231963
 20
15.94958629447518
 30
0.0
 10
-16.93075764788723
 20
15.77086962743641
 30
0.0
 10
-16.73543958054708
 20
15.73043019421153
 30
0.0
 10
-16.6318347437712
 20
15.70897943476246
 30
0.0
 11
-17.37487667401904
 21
16.52398193263333
 31
0.0
 11
-17.30486937420182
 21
16.20298278180546
 31
0.0
 11
-17.15783570118177
 21
15.96097837610135
 31
0.0
 11
-16.93383669028021
 21
15.79597744355163
 31
0.0
 11
-16.6318347437712
 21
15.70897943476246
 31
0.0
  0
ELLIPSE
  5
5312
330
1F
100
AcDbEntity
  8
AM_0
100
AcDbEllipse
 10
-16.54885738714719
 20
16.520979703116
 30
0.0
 11
-0.6902771494259619
 21
-0.4804038555947384
 31
0.0
210
0.0
220
0.0
230
1.0
 40
0.9500928910971
 41
5.646878147643245
 42
7.168772767746365
  0
SPLINE
  5
5313
330
1F
100
AcDbEntity
  8
AM_0
100
AcDbSpline
210
0.0
220
0.0
230
1.0
 70
     8
 71
     3
 72
    11
 73
     7
 74
     5
 42
0.0000000001
 43
0.0000000001
 44
0.0000000001
 40
0.0
 40
0.0
 40
0.0
 40
0.0
 40
0.0721095020163004
 40
0.143358012427853
 40
0.2146527591933221
 40
0.2845325756889982
 40
0.2845325756889982
 40
0.2845325756889982
 40
0.2845325756889982
 10
-2.519834759848278
 20
21.92298097164253
 30
0.0
 10
-2.499806665819352
 20
21.93627163023186
 30
0.0
 10
-2.459989614357037
 20
21.96269425618195
 30
0.0
 10
-2.400883973344349
 20
22.00302040728578
 30
0.0
 10
-2.342276148776485
 20
22.04275512805846
 30
0.0
 10
-2.303210091452473
 20
22.06899105020042
 30
0.0
 10
-2.283872833706106
 20
22.08197753574375
 30
0.0
 11
-2.519834759848278
 21
21.92298097164253
 31
0.0
 11
-2.4598371982086
 21
21.96298188261131
 31
0.0
 11
-2.400877234238928
 21
22.00298279365793
 31
0.0
 11
-2.34185623509983
 21
22.04297607530592
 31
0.0
 11
-2.283872833706106
 21
22.08197753574375
 31
0.0
  0
SPLINE
  5
5314
330
1F
100
AcDbEntity
  8
AM_0
100
AcDbSpline
210
0.0
220
0.0
230
1.0
 70
     8
 71
     3
 72
    11
 73
     7
 74
     5
 42
0.0000000001
 43
0.0000000001
 44
0.0000000001
 40
0.0
 40
0.0
 40
0.0
 40
0.0
 40
0.0726686800994562
 40
0.1442285941347459
 40
0.2146667757578373
 40
0.2845465922535133
 40
0.2845465922535133
 40
0.2845465922535133
 40
0.2845465922535133
 10
-2.519834759848278
 20
21.92298097164253
 30
0.0
 10
-2.499948890349803
 20
21.93681747647438
 30
0.0
 10
-2.460480566486116
 20
21.96427937115728
 30
0.0
 10
-2.399743597815116
 20
22.00216789659149
 30
0.0
 10
-2.342224641647756
 20
22.0431887208771
 30
0.0
 10
-2.303271768174729
 20
22.06908227672339
 30
0.0
 10
-2.283872833706106
 20
22.08197753574375
 30
0.0
 11
-2.519834759848278
 21
21.92298097164253
 31
0.0
 11
-2.459837198132651
 21
21.96398133329431
 31
0.0
 11
-2.399839636578926
 21
22.00298279357908
 31
0.0
 11
-2.34185623509983
 21
22.04297607530592
 31
0.0
 11
-2.283872833706106
 21
22.08197753574375
 31
0.0
  0
SPLINE
  5
5315
330
1F
100
AcDbEntity
  8
AM_0
100
AcDbSpline
210
0.0
220
0.0
230
1.0
 70
     8
 71
     3
 72
    11
 73
     7
 74
     5
 42
0.0000000001
 43
0.0000000001
 44
0.0000000001
 40
0.0
 40
0.0
 40
0.0
 40
0.0
 40
0.0208327920779727
 40
0.0416157235020138
 40
0.0588481935441682
 40
0.0694316900762385
 40
0.0694316900762385
 40
0.0694316900762385
 40
0.0694316900762385
 10
-2.185850367674663
 20
22.14897887106801
 30
0.0
 10
-2.180162169544026
 20
22.15296405087116
 30
0.0
 10
-2.168799387265812
 20
22.16092487245345
 30
0.0
 10
-2.152933368331022
 20
22.17243888572319
 30
0.0
 10
-2.139307335724899
 20
22.18129479046376
 30
0.0
 10
-2.132479137993544
 20
22.18758566394174
 30
0.0
 10
-2.12988112627904
 20
22.1899792330259
 30
0.0
 11
-2.185850367674663
 21
22.14897887106801
 31
0.0
 11
-2.1688215581627
 21
22.16097990737198
 31
0.0
 11
-2.151853783820743
 21
22.1729809436796
 31
0.0
 11
-2.137815697121258
 21
22.18297544944885
 31
0.0
 11
-2.12988112627904
 21
22.1899792330259
 31
0.0
  0
SPLINE
  5
5316
330
1F
100
AcDbEntity
  8
AM_0
100
AcDbSpline
210
0.0
220
0.0
230
1.0
 70
     8
 71
     3
 72
    11
 73
     7
 74
     5
 42
0.0000000001
 43
0.0000000001
 44
0.0000000001
 40
0.0
 40
0.0
 40
0.0
 40
0.0
 40
0.0216383523373969
 40
0.042421283761438
 40
0.0588679722265543
 40
0.0694514687586246
 40
0.0694514687586246
 40
0.0694514687586246
 40
0.0694514687586246
 10
-2.185850367674663
 20
22.14897887106801
 30
0.0
 10
-2.179822643217327
 20
22.15294209473655
 30
0.0
 10
-2.168005486085704
 20
22.16071186543035
 30
0.0
 10
-2.152021784845134
 20
22.17208793774309
 30
0.0
 10
-2.139174862989949
 20
22.18155451546392
 30
0.0
 10
-2.132496138323883
 20
22.18760874001709
 30
0.0
 10
-2.12988112627904
 20
22.1899792330259
 30
0.0
 11
-2.185850367674663
 21
22.14897887106801
 31
0.0
 11
-2.1678449956627
 21
22.16097990729778
 31
0.0
 11
-2.150877221320743
 21
22.17298094360539
 31
0.0
 11
-2.137815697121258
 21
22.18297544944885
 31
0.0
 11
-2.12988112627904
 21
22.1899792330259
 31
0.0
  0
ARC
  5
54CF
330
1F
100
AcDbEntity
  8
AM_0
100
AcDbCircle
 10
-3.921875835891597
 20
-11.00001544281145
 30
0.0
 40
2.0
100
AcDbArc
 50
3.009754476029137
 51
89.99997948122524
  0
LINE
  5
54D0
330
1F
100
AcDbEntity
  8
AM_0
100
AcDbLine
 10
-1.924866550219742
 20
-10.89050326546298
 30
0.0
 11
-1.924864895080239
 21
10.89047207633365
 31
0.0
  0
LINE
  5
54D1
330
1F
100
AcDbEntity
  8
AM_0
100
AcDbLine
 10
-23.00085365628832
 20
10.99998600700212
 30
0.0
 11
-23.00085537366609
 21
-11.6000200965126
 31
0.0
  0
LINE
  5
54D2
330
1F
100
AcDbEntity
  8
AM_0
100
AcDbLine
 10
-20.0008553736661
 20
-11.60002032448304
 30
0.0
 11
-20.00085407423413
 21
5.499985779031702
 31
0.0
  0
LINE
  5
54D3
330
1F
100
AcDbEntity
  8
AM_0
100
AcDbLine
 10
-20.00085361069494
 20
11.59997662375868
 30
0.0
 11
-20.00085407423413
 21
5.499985779031702
 31
0.0
  0
LINE
  5
54D4
330
1F
100
AcDbEntity
  8
AM_0
100
AcDbLine
 10
-14.00085380826864
 20
8.999985323090813
 30
0.0
 11
-14.00085407423415
 21
5.499985323090824
 31
0.0
  0
LINE
  5
54D5
330
1F
100
AcDbEntity
  8
AM_0
100
AcDbLine
 10
-3.921874316088671
 20
8.999984557187687
 30
0.0
 11
-14.00085380826864
 21
8.999985323090813
 31
0.0
  0
LINE
  5
54D6
330
1F
100
AcDbEntity
  8
AM_0
100
AcDbLine
 10
-1.726805553350182
 20
14.30802119458411
 30
0.0
 11
-15.63851814443129
 21
15.03718065322618
 31
0.0
  0
LINE
  5
54D7
330
1F
100
AcDbEntity
  8
AM_0
100
AcDbLine
 10
-12.31280410720708
 20
14.06197784007968
 30
0.0
 11
-1.281798291749496
 21
13.48397597949293
 31
0.0
  0
LINE
  5
54D8
330
1F
100
AcDbEntity
  8
AM_0
100
AcDbLine
 10
-1.726622447885109
 20
14.30795634471619
 30
0.0
 11
-1.648344743053265
 21
15.84686434352886
 31
0.0
  0
ARC
  5
54D9
330
1F
100
AcDbEntity
  8
AM_0
100
AcDbCircle
 10
-8.554869081487568
 20
20.05498521442567
 30
0.0
 40
3.152935028076199
100
AcDbArc
 50
280.7111895994388
 51
332.7505511499282
  0
LINE
  5
54DA
330
1F
100
AcDbEntity
  8
AM_0
100
AcDbLine
 10
-3.621763841087183
 20
17.04999521553527
 30
0.0
 11
-6.946806574588209
 21
16.93299298102275
 31
0.0
  0
LINE
  5
54DB
330
1F
100
AcDbEntity
  8
AM_0
100
AcDbLine
 10
-3.241942062979146
 20
17.05997062002156
 30
0.0
 11
-6.933928156695897
 21
16.93197064117712
 31
0.0
  0
LINE
  5
54DC
330
1F
100
AcDbEntity
  8
AM_0
100
AcDbLine
 10
-3.160002267462786
 20
18.35298514016194
 30
0.0
 11
-3.046995536828813
 21
20.17998479588155
 31
0.0
  0
LINE
  5
54DD
330
1F
100
AcDbEntity
  8
AM_0
100
AcDbLine
 10
-2.203886361439281
 20
20.76597563757556
 30
0.0
 11
-3.046903984099685
 21
20.17997335178259
 31
0.0
  0
LINE
  5
54DE
330
1F
100
AcDbEntity
  8
AM_0
100
AcDbLine
 10
-2.129759055961936
 20
22.18994108604362
 30
0.0
 11
-2.057798603106417
 21
22.23791471338834
 31
0.0
  0
LINE
  5
54DF
330
1F
100
AcDbEntity
  8
AM_0
100
AcDbLine
 10
-2.203733773553629
 20
20.76591841710496
 30
0.0
 11
-0.1157820060217234
 21
22.17888975502321
 31
0.0
  0
LINE
  5
54E0
330
1F
100
AcDbEntity
  8
AM_0
100
AcDbLine
 10
-3.046903984099685
 20
20.17997335178259
 30
0.0
 11
-2.956907535785196
 21
21.63298390402575
 31
0.0
  0
ARC
  5
54E1
330
1F
100
AcDbEntity
  8
AM_0
100
AcDbCircle
 10
-3.362425366506978
 20
18.3089769005401
 30
0.0
 40
3.0
100
AcDbArc
 50
262.9555049651554
 51
319.6639496813166
  0
LINE
  5
54E2
330
1F
100
AcDbEntity
  8
AM_0
100
AcDbLine
 10
-1.981901917702757
 20
15.24495091672692
 30
0.0
 11
-1.967894349418705
 21
15.24395146497948
 31
0.0
  0
LINE
  5
54E3
330
1F
100
AcDbEntity
  8
AM_0
100
AcDbLine
 10
-3.23904289305161
 20
17.06006980193025
 30
0.0
 11
-3.159697091836568
 21
18.35096144323975
 31
0.0
  0
LINE
  5
54E4
330
1F
100
AcDbEntity
  8
AM_0
100
AcDbLine
 10
-3.159849679724828
 20
18.35098433143535
 30
0.0
 11
-3.159849679572931
 21
18.35298323280235
 31
0.0
  0
LINE
  5
54E5
330
1F
100
AcDbEntity
  8
AM_0
100
AcDbLine
 10
-3.621824876239499
 20
17.04996469796191
 30
0.0
 11
-3.241850510249583
 21
17.0599648979686
 31
0.0
  0
ARC
  5
54E6
330
1F
100
AcDbEntity
  8
AM_0
100
AcDbCircle
 10
-8.374876411853444
 20
19.973976289615
 30
0.0
 40
1.9997584819794
100
AcDbArc
 50
86.99022247251482
 51
267.0203212949576
  0
ARC
  5
54E7
330
1F
100
AcDbEntity
  8
AM_0
100
AcDbCircle
 10
-8.374876411853444
 20
19.973976289615
 30
0.0
 40
2.000704765319799
100
AcDbArc
 50
267.0203212949576
 51
86.9902324904317
  0
ARC
  5
54E8
330
1F
100
AcDbEntity
  8
AM_0
100
AcDbCircle
 10
-8.239866641293902
 20
20.03897872076259
 30
0.0
 40
2.199801206588699
100
AcDbArc
 50
87.68128052216944
 51
266.7956149014485
  0
ARC
  5
54E9
330
1F
100
AcDbEntity
  8
AM_0
100
AcDbCircle
 10
-8.279844668482004
 20
20.04097762516753
 30
0.0
 40
2.2000601291656
100
AcDbArc
 50
86.97762760368652
 51
267.0036351428151
  0
LINE
  5
54EA
330
1F
100
AcDbEntity
  8
AM_0
100
AcDbLine
 10
-7.984068653743907
 20
15.40298283645545
 30
0.0
 11
-7.981077926980952
 21
15.45697606132618
 31
0.0
  0
LINE
  5
54EB
330
1F
100
AcDbEntity
  8
AM_0
100
AcDbLine
 10
-6.94683709216009
 20
16.93296818549307
 30
0.0
 11
-6.933867121535895
 21
16.93197064117248
 31
0.0
  0
LINE
  5
54EC
330
1F
100
AcDbEntity
  8
AM_0
100
AcDbLine
 10
-7.968901299325588
 20
16.95697796774988
 30
0.0
 11
-6.933867121535315
 21
16.93197827056648
 31
0.0
  0
LINE
  5
54ED
330
1F
100
AcDbEntity
  8
AM_0
100
AcDbLine
 10
-9.368773123597311
 20
16.98195861917034
 30
0.0
 11
-9.40478386510334
 21
16.9909594001048
 31
0.0
  0
LINE
  5
54EE
330
1F
100
AcDbEntity
  8
AM_0
100
AcDbLine
 10
-9.404753347522181
 20
16.99097465889148
 30
0.0
 11
-9.40673699078818
 21
16.98194717796322
 31
0.0
  0
LINE
  5
54EF
330
1F
100
AcDbEntity
  8
AM_0
100
AcDbLine
 10
-9.406706473205137
 20
16.9819872322819
 30
0.0
 11
-9.339720503276591
 21
15.48098396181063
 31
0.0
  0
ARC
  5
54F0
330
1F
100
AcDbEntity
  8
AM_0
100
AcDbCircle
 10
-3.921874164108378
 20
10.99998455718768
 30
0.0
 40
2.0
100
AcDbArc
 50
269.9999571694255
 51
356.9901821746289
  0
LINE
  5
54F1
330
1F
100
AcDbEntity
  8
AM_0
100
AcDbLine
 10
-1.924681789267021
 20
10.89498867788174
 30
0.0
 11
-1.787627147165706
 21
13.51047671983494
 31
0.0
  0
ARC
  5
54F2
330
1F
100
AcDbEntity
  8
AM_0
100
AcDbCircle
 10
-16.58184682594899
 20
17.35198480205787
 30
0.0
 40
2.499624967575099
100
AcDbArc
 50
98.04905688976518
 51
316.3820847662618
  0
ARC
  5
54F3
330
1F
100
AcDbEntity
  8
AM_0
100
AcDbCircle
 10
-16.86486684441512
 20
17.36598476252961
 30
0.0
 40
2.5005831718445
100
AcDbArc
 50
91.23739119278392
 51
241.8654517516596
  0
LINE
  5
54F4
330
1F
100
AcDbEntity
  8
AM_0
100
AcDbLine
 10
-15.21188218613706
 20
17.88102598823706
 30
0.0
 11
-17.37490719159701
 21
16.52400863551665
 31
0.0
  0
LINE
  5
54F5
330
1F
100
AcDbEntity
  8
AM_0
100
AcDbLine
 10
-17.37469356855977
 20
16.52397239587641
 30
0.0
 11
-17.29968125330938
 21
17.94797789859822
 31
0.0
  0
LINE
  5
54F6
330
1F
100
AcDbEntity
  8
AM_0
100
AcDbLine
 10
-14.10879365129847
 20
19.93298398852021
 30
0.0
 11
-14.25381329273409
 21
18.48298514394927
 31
0.0
  0
LINE
  5
54F7
330
1F
100
AcDbEntity
  8
AM_0
100
AcDbLine
 10
-15.05996557044811
 20
19.35199231580489
 30
0.0
 11
-17.29992539393735
 21
17.94800460149777
 31
0.0
  0
LINE
  5
54F8
330
1F
100
AcDbEntity
  8
AM_0
100
AcDbLine
 10
-15.05984350014058
 20
19.35195989086862
 30
0.0
 11
-14.10885468645992
 21
19.93296491503885
 31
0.0
  0
LINE
  5
54F9
330
1F
100
AcDbEntity
  8
AM_0
100
AcDbLine
 10
-13.92584063175668
 20
21.75798092285958
 30
0.0
 11
-13.92584063190858
 21
21.75598202149259
 31
0.0
  0
LINE
  5
54FA
330
1F
100
AcDbEntity
  8
AM_0
100
AcDbLine
 10
-13.92587114948829
 20
21.7559858361919
 30
0.0
 11
-14.10888520403876
 21
19.93298017383017
 31
0.0
  0
LINE
  5
54FB
330
1F
100
AcDbEntity
  8
AM_0
100
AcDbLine
 10
-14.2537522575854
 20
18.48296797780663
 30
0.0
 11
-14.39175284989645
 21
17.11396087769831
 31
0.0
  0
LINE
  5
54FC
330
1F
100
AcDbEntity
  8
AM_0
100
AcDbLine
 10
-14.95876938139202
 20
18.03598087928198
 30
0.0
 11
-15.06579453296476
 21
17.96896237850384
 31
0.0
  0
LINE
  5
54FD
330
1F
100
AcDbEntity
  8
AM_0
100
AcDbLine
 10
-15.13384873522009
 20
17.92901868860628
 30
0.0
 11
-15.21081407089619
 21
17.88103743224789
 31
0.0
  0
LINE
  5
54FE
330
1F
100
AcDbEntity
  8
AM_0
100
AcDbLine
 10
-16.62988161862423
 20
15.71091348612804
 30
0.0
 11
-16.33190797159434
 21
15.89790992344598
 31
0.0
  0
LINE
  5
54FF
330
1F
100
AcDbEntity
  8
AM_0
100
AcDbLine
 10
-16.62875246822785
 20
15.71099740938223
 30
0.0
 11
-16.62975954845149
 21
15.70897561990776
 31
0.0
  0
LINE
  5
5500
330
1F
100
AcDbEntity
  8
AM_0
100
AcDbLine
 10
-16.6298816187712
 20
15.70897943461404
 30
0.0
 11
-16.62988161861872
 21
15.71098596537604
 31
0.0
  0
LINE
  5
5501
330
1F
100
AcDbEntity
  8
AM_0
100
AcDbLine
 10
-16.62997317134568
 20
15.71102601970499
 30
0.0
 11
-16.63195681407656
 21
15.70904046992873
 31
0.0
  0
LINE
  5
5502
330
1F
100
AcDbEntity
  8
AM_0
100
AcDbLine
 10
-16.6318347437712
 20
15.70897943476246
 30
0.0
 11
-16.6298816187712
 21
15.70897943461404
 31
0.0
  0
ARC
  5
5503
330
1F
100
AcDbEntity
  8
AM_0
100
AcDbCircle
 10
-21.00085277449953
 20
22.6039745024828
 30
0.0
 40
1.000250577926599
100
AcDbArc
 50
280.0178912477341
 51
359.9999596739046
  0
LINE
  5
5504
330
1F
100
AcDbEntity
  8
AM_0
100
AcDbLine
 10
-20.0008527622643
 20
22.76498516868065
 30
0.0
 11
-20.00085277449837
 21
22.60398968528165
 31
0.0
  0
LINE
  5
5505
330
1F
100
AcDbEntity
  8
AM_0
100
AcDbLine
 10
-18.04287604502439
 20
15.16294568273569
 30
0.0
 11
-18.25787238200257
 21
15.17494482932229
 31
0.0
  0
LINE
  5
5506
330
1F
100
AcDbEntity
  8
AM_0
100
AcDbLine
 10
-19.00085339701251
 20
14.41195202689453
 30
0.0
 11
-12.31280410720926
 21
14.06194922985068
 31
0.0
  0
LINE
  5
5507
330
1F
100
AcDbEntity
  8
AM_0
100
AcDbLine
 10
-23.00085361069376
 20
11.59999211051812
 30
0.0
 11
-20.00085361069377
 21
11.59999188254768
 31
0.0
  0
LINE
  5
5508
330
1F
100
AcDbEntity
  8
AM_0
100
AcDbLine
 10
-19.70583996646995
 20
14.44896418068656
 30
0.0
 11
-19.00082287944164
 21
14.41196347098421
 31
0.0
  0
LINE
  5
5509
330
1F
100
AcDbEntity
  8
AM_0
100
AcDbLine
 10
-23.00085365628832
 20
10.99998600700212
 30
0.0
 11
-23.00085361069493
 21
11.59997685172912
 31
0.0
  0
LINE
  5
550A
330
1F
100
AcDbEntity
  8
AM_0
100
AcDbLine
 10
-3.921875683911304
 20
-9.000015442811459
 30
0.0
 11
-14.00085517609127
 21
-9.000014676908334
 31
0.0
  0
LINE
  5
550B
330
1F
100
AcDbEntity
  8
AM_0
100
AcDbLine
 10
-14.00085517609127
 20
-9.000014676908334
 30
0.0
 11
-14.00085407423415
 21
5.499985323090824
 31
0.0
  0
LINE
  5
550C
330
1F
100
AcDbEntity
  8
AM_0
100
AcDbLine
 10
-14.00085407423415
 20
5.499985323090824
 30
0.0
 11
-20.00085407423413
 21
5.499985779031702
 31
0.0
  0
LINE
  5
550D
330
1F
100
AcDbEntity
  8
AM_0
100
AcDbLine
 10
-14.00085491012576
 20
-5.500014676908342
 30
0.0
 11
-20.00085491012574
 21
-5.500014220967464
 31
0.0
  0
LINE
  5
550E
330
1F
100
AcDbEntity
  8
AM_11
100
AcDbLine
 10
-0.0000018997536567
 20
-25.00001574083607
 30
0.0
 11
-13.00000189975362
 21
-25.00001475296416
 31
0.0
  0
LINE
  5
550F
330
1F
100
AcDbEntity
  8
AM_0
100
AcDbLine
 10
-1.581880423258685
 20
-23.17602956716088
 30
0.0
 11
-12.31289853441697
 21
-23.76503040728824
 31
0.0
  0
LINE
  5
5510
330
1F
100
AcDbEntity
  8
AM_0
100
AcDbLine
 10
-14.16574238985853
 20
-18.72702920600455
 30
0.0
 11
-1.854737758103639
 21
-18.8180297447911
 31
0.0
  0
LINE
  5
5511
330
1F
100
AcDbEntity
  8
AM_0
100
AcDbLine
 10
-1.924683445091609
 20
-10.89500210485519
 30
0.0
 11
-1.524903751395463
 21
-18.52406824489183
 31
0.0
  0
LINE
  5
5512
330
1F
100
AcDbEntity
  8
AM_0
100
AcDbLine
 10
-1.28186139574097
 20
-13.74102058727424
 30
0.0
 11
-1.281861769460454
 21
-18.65901985485233
 31
0.0
  0
LINE
  5
5513
330
1F
100
AcDbEntity
  8
AM_0
100
AcDbLine
 10
-0.1157547852761249
 20
-21.20600366233707
 30
0.0
 11
-1.281739397241238
 21
-14.68601503689901
 31
0.0
  0
LINE
  5
5514
330
1F
100
AcDbEntity
  8
AM_0
100
AcDbLine
 10
-1.111970376934103
 20
-18.19703427968869
 30
0.0
 11
-1.281953088065891
 21
-15.57803407031478
 31
0.0
  0
LINE
  5
5515
330
1F
100
AcDbEntity
  8
AM_0
100
AcDbLine
 10
-1.154786314793378
 20
-15.245984233329
 30
0.0
 11
-1.153779235019327
 21
-15.25001040795083
 31
0.0
  0
LINE
  5
5516
330
1F
100
AcDbEntity
  8
AM_0
100
AcDbLine
 10
-1.156129087697425
 20
-15.23906294187566
 30
0.0
 11
-1.282136117774968
 21
-14.58105054216367
 31
0.0
  0
LINE
  5
5517
330
1F
100
AcDbEntity
  8
AM_0
100
AcDbLine
 10
-1.156037534966322
 20
-15.23904839834922
 30
0.0
 11
-1.155060972997798
 21
-15.24604240744143
 31
0.0
  0
LINE
  5
5518
330
1F
100
AcDbEntity
  8
AM_0
100
AcDbLine
 10
-1.153840270182934
 20
-15.25005785324339
 30
0.0
 11
-1.281830942070953
 21
-14.58205046970756
 31
0.0
  0
LINE
  5
5519
330
1F
100
AcDbEntity
  8
AM_0
100
AcDbLine
 10
-0.0411088767181079
 20
-22.35802126139233
 30
0.0
 11
-0.1161209962072087
 21
-21.20601796742395
 31
0.0
  0
LINE
  5
551A
330
1F
100
AcDbEntity
  8
AM_0
100
AcDbLine
 10
-1.111848306623307
 20
-18.19702378928047
 30
0.0
 11
-0.0408647360967332
 21
-22.35800314159889
 31
0.0
  0
LINE
  5
551B
330
1F
100
AcDbEntity
  8
AM_0
100
AcDbLine
 10
-1.854768275681393
 20
-18.81800018088498
 30
0.0
 11
-0.7847612671246306
 21
-22.97200245183108
 31
0.0
  0
LINE
  5
551C
330
1F
100
AcDbEntity
  8
AM_0
100
AcDbLine
 10
-1.297731229318478
 20
-22.86006488996142
 30
0.0
 11
-1.581727835371294
 21
-23.17606389944747
 31
0.0
  0
LINE
  5
551D
330
1F
100
AcDbEntity
  8
AM_0
100
AcDbLine
 10
-0.7849443725959356
 20
-22.97201961795416
 30
0.0
 11
-0.7839372929722774
 21
-22.97802490520169
 31
0.0
  0
LINE
  5
551E
330
1F
100
AcDbEntity
  8
AM_0
100
AcDbLine
 10
-0.7849748901741971
 20
-22.97199672976885
 30
0.0
 11
-0.785981970709381
 21
-22.97798675807332
 31
0.0
  0
LINE
  5
551F
330
1F
100
AcDbEntity
  8
AM_0
100
AcDbLine
 10
-0.7838762578219178
 20
-22.97802013683433
 30
0.0
 11
-0.785890417971915
 21
-22.97802013668127
 31
0.0
  0
LINE
  5
5520
330
1F
100
AcDbEntity
  8
AM_0
100
AcDbLine
 10
-0.7858599002377708
 20
-22.97599167141259
 30
0.0
 11
-0.7908342651764436
 21
-22.97202629322759
 31
0.0
  0
LINE
  5
5521
330
1F
100
AcDbEntity
  8
AM_0
100
AcDbLine
 10
-0.7857073123533512
 20
-22.97606510434719
 30
0.0
 11
-0.7847002319795613
 21
-22.97206730168871
 31
0.0
  0
LINE
  5
5522
330
1F
100
AcDbEntity
  8
AM_0
100
AcDbLine
 10
-15.2908950027474
 20
-19.05600432115714
 30
0.0
 11
-15.51889172801266
 21
-17.72800661935284
 31
0.0
  0
LINE
  5
5523
330
1F
100
AcDbEntity
  8
AM_0
100
AcDbLine
 10
-15.29080345001867
 20
-19.0560210104646
 30
0.0
 11
-14.9818129020441
 21
-18.14202672165843
 31
0.0
  0
LINE
  5
5524
330
1F
100
AcDbEntity
  8
AM_0
100
AcDbLine
 10
-14.98187393720429
 20
-18.1420291058396
 30
0.0
 11
-15.06985607649324
 21
-17.63602858035502
 31
0.0
  0
LINE
  5
5525
330
1F
100
AcDbEntity
  8
AM_0
100
AcDbLine
 10
-23.00085537366609
 20
-11.6000200965126
 30
0.0
 11
-20.0008553736661
 21
-11.60002032448304
 31
0.0
  0
LINE
  5
5526
330
1F
100
AcDbEntity
  8
AM_0
100
AcDbLine
 10
-12.31286801683574
 20
-23.76501419482657
 30
0.0
 11
-19.00085629808572
 21
-23.76501368660536
 31
0.0
  0
LINE
  5
5527
330
1F
100
AcDbEntity
  8
AM_0
100
AcDbLine
 10
-14.16595601290233
 20
-18.72694766683422
 30
0.0
 11
-15.17196820231949
 21
-21.70795468953892
 31
0.0
  0
LINE
  5
5528
330
1F
100
AcDbEntity
  8
AM_0
100
AcDbLine
 10
-13.72094865061704
 20
-18.22602359023779
 30
0.0
 11
-13.67193744165265
 21
-18.50902883154156
 31
0.0
  0
LINE
  5
5529
330
1F
100
AcDbEntity
  8
AM_0
100
AcDbLine
 10
-15.26980736546024
 20
-19.17697838663289
 30
0.0
 11
-15.29080345001588
 21
-19.0559842940034
 31
0.0
  0
LINE
  5
552A
330
1F
100
AcDbEntity
  8
AM_0
100
AcDbLine
 10
-16.02417153514449
 20
-21.23006365645706
 30
0.0
 11
-16.29516755959233
 21
-20.31807490066503
 31
0.0
  0
LINE
  5
552B
330
1F
100
AcDbEntity
  8
AM_0
100
AcDbLine
 10
-16.02407998240492
 20
-21.22993777145421
 30
0.0
 11
-15.46206813713112
 21
-19.56493499128567
 31
0.0
  0
LINE
  5
552C
330
1F
100
AcDbEntity
  8
AM_0
100
AcDbLine
 10
-15.17187664959435
 20
-21.70801858572507
 30
0.0
 11
-15.18585370037435
 21
-21.70801858466295
 31
0.0
  0
LINE
  5
552D
330
1F
100
AcDbEntity
  8
AM_0
100
AcDbLine
 10
-16.02292031459196
 20
-21.23200438378604
 30
0.0
 11
-16.02392739452058
 21
-21.23001215806251
 31
0.0
  0
ARC
  5
552E
330
1F
100
AcDbEntity
  8
AM_0
100
AcDbCircle
 10
-21.0008562098615
 20
-22.60401805122707
 30
0.0
 40
1.000250577926599
100
AcDbArc
 50
359.9999596739046
 51
79.98202126988563
  0
ARC
  5
552F
330
1F
100
AcDbEntity
  8
AM_0
100
AcDbCircle
 10
-19.00085622209557
 20
-22.76501368660536
 30
0.0
 40
1.0
100
AcDbArc
 50
179.9999546649524
 51
269.9999571694255
  0
LINE
  5
5530
330
1F
100
AcDbEntity
  8
AM_0
100
AcDbLine
 10
-20.00085622209557
 20
-22.76501361061522
 30
0.0
 11
-20.0008562098615
 21
-22.60401812721721
 31
0.0
  0
SPLINE
  5
5531
330
1F
100
AcDbEntity
  8
AM_0
100
AcDbSpline
210
0.0
220
0.0
230
1.0
 70
     8
 71
     3
 72
    11
 73
     7
 74
     5
 42
0.0000000001
 43
0.0000000001
 44
0.0000000001
 40
0.0
 40
0.0
 40
0.0
 40
0.0
 40
0.3130931901658229
 40
0.5910342609042808
 40
0.7889076394079125
 40
0.8743751013648759
 40
0.8743751013648759
 40
0.8743751013648759
 40
0.8743751013648759
 10
-26.16381679047766
 20
20.64598234110618
 30
0.0
 10
-26.26676707257552
 20
20.62819102086901
 30
0.0
 10
-26.46110903145803
 20
20.59460587709339
 30
0.0
 10
-26.71667935187229
 20
20.53728710473951
 30
0.0
 10
-26.90292491146401
 20
20.50173972664401
 30
0.0
 10
-26.98584925121744
 20
20.45582871013624
 30
0.0
 10
-27.01086270441983
 20
20.44198002510232
 30
0.0
 11
-26.16381679047766
 21
20.64598234110618
 31
0.0
 11
-26.47186122833309
 21
20.58998260865553
 31
0.0
 11
-26.74389492406446
 21
20.5329834227844
 31
0.0
 11
-26.9348128967661
 21
20.48098148416728
 31
0.0
 11
-27.01086270441983
 21
20.44198002510232
 31
0.0
  0
LINE
  5
5532
330
1F
100
AcDbEntity
  8
AM_0
100
AcDbLine
 10
-39.00085532807149
 20
-11.00001277715467
 30
0.0
 11
-39.00085488732841
 21
-5.200009725396886
 31
0.0
  0
LINE
  5
5533
330
1F
100
AcDbEntity
  8
AM_0
100
AcDbLine
 10
-40.00085496331855
 20
-6.200009649406736
 30
0.0
 11
-40.00085593599266
 21
-19.0000127011645
 31
0.0
  0
LINE
  5
5534
330
1F
100
AcDbEntity
  8
AM_0
100
AcDbLine
 10
-39.00085409703136
 20
5.199984171087484
 30
0.0
 11
-39.00085365628827
 21
10.99998722284446
 31
0.0
  0
LINE
  5
5535
330
1F
100
AcDbEntity
  8
AM_0
100
AcDbLine
 10
-40.00085358029813
 20
11.9999872988346
 30
0.0
 11
-40.00085402104121
 21
6.199984247077628
 31
0.0
  0
LINE
  5
5536
330
1F
100
AcDbEntity
  8
AM_0
100
AcDbLine
 10
-31.75884857784698
 20
19.99998667252347
 30
0.0
 11
-39.00085297237695
 21
19.99998722284444
 31
0.0
  0
ARC
  5
5537
330
1F
100
AcDbEntity
  8
AM_0
100
AcDbCircle
 10
-31.75884705804347
 20
39.99999430191841
 30
0.0
 40
20.0
100
AcDbArc
 50
269.9999571694255
 51
280.0001395860809
  0
LINE
  5
5538
330
1F
100
AcDbEntity
  8
AM_0
100
AcDbLine
 10
-40.00085358029813
 20
11.9999872988346
 30
0.0
 11
-40.00085304836695
 21
18.99998920618358
 31
0.0
  0
ARC
  5
5539
330
1F
100
AcDbEntity
  8
AM_0
100
AcDbCircle
 10
-39.00085304836695
 20
18.99998913019344
 30
0.0
 40
1.0
100
AcDbArc
 50
89.99998631141769
 51
179.9999888158955
  0
ARC
  5
553A
330
1F
100
AcDbEntity
  8
AM_0
100
AcDbCircle
 10
-39.00085358029812
 20
11.99998722284446
 30
0.0
 40
1.0
100
AcDbArc
 50
179.9999819857057
 51
269.9999776599962
  0
LINE
  5
553B
330
1F
100
AcDbEntity
  8
AM_0
100
AcDbLine
 10
-33.70086630407137
 20
5.199983768340636
 30
0.0
 11
-39.00085409703136
 21
5.199984171087484
 31
0.0
  0
LINE
  5
553C
330
1F
100
AcDbEntity
  8
AM_0
100
AcDbLine
 10
-33.70086709436842
 20
-5.200010128143733
 30
0.0
 11
-39.00085488732841
 21
-5.200009725396886
 31
0.0
  0
LINE
  5
553D
330
1F
100
AcDbEntity
  8
AM_0
100
AcDbLine
 10
-33.70086630407137
 20
5.199983768340636
 30
0.0
 11
-33.70086709436842
 21
-5.200010128143733
 31
0.0
  0
LINE
  5
553E
330
1F
100
AcDbEntity
  8
AM_0
100
AcDbLine
 10
-39.0010066849386
 20
5.19988880366708
 30
0.0
 11
-40.0009760913699
 21
6.199869806168903
 31
0.0
  0
LINE
  5
553F
330
1F
100
AcDbEntity
  8
AM_0
100
AcDbLine
 10
-40.000946516055
 20
-6.199962919358279
 30
0.0
 11
-39.00097695764646
 21
-5.199983976181109
 31
0.0
  0
LINE
  5
5540
330
1F
100
AcDbEntity
  8
AM_0
100
AcDbLine
 10
-31.75885161745283
 20
-20.00001332747561
 30
0.0
 11
-39.00085601198281
 21
-20.00001277715464
 31
0.0
  0
ARC
  5
5541
330
1F
100
AcDbEntity
  8
AM_0
100
AcDbCircle
 10
-31.75885313725546
 20
-40.00000951277836
 30
0.0
 40
20.0
100
AcDbArc
 50
79.99979706457541
 51
89.99997948122524
  0
ARC
  5
5542
330
1F
100
AcDbEntity
  8
AM_0
100
AcDbCircle
 10
-39.00085540406164
 20
-12.00001277715466
 30
0.0
 40
1.0
100
AcDbArc
 50
89.99995899066425
 51
179.9999546649524
  0
ARC
  5
5543
330
1F
100
AcDbEntity
  8
AM_0
100
AcDbCircle
 10
-39.00085593599266
 20
-19.00001277715464
 30
0.0
 40
1.0
100
AcDbArc
 50
179.9999546649524
 51
269.9999571694255
  0
VIEWPORT
  5
110
330
101
100
AcDbEntity
 67
     1
  8
0
100
AcDbViewport
 10
420.5
 20
297.0
 30
0.0
 40
948.9782706766916
 41
628.452
 68
     1
 69
     1
1001
ACAD
1000
MVIEW
1002
{
1070
    16
1010
0.0
1020
0.0
1030
0.0
1010
0.0
1020
0.0
1030
1.0
1040
0.0
1040
628.452
1040
420.5
1040
297.0
1040
50.0
1040
0.0
1040
0.0
1070
     0
1070
   100
1070
     1
1070
     1
1070
     0
1070
     0
1070
     0
1070
     0
1040
0.0
1040
0.0
1040
0.0
1040
10.0
1040
10.0
1040
10.0
1040
10.0
1070
     0
1002
{
1002
}
1002
}
  0
ENDSEC
  0
SECTION
  2
OBJECTS
  0
DICTIONARY
  5
C
330
0
100
AcDbDictionary
  3
ACAD_GROUP
350
D
  3
ACAD_LAYOUT
350
1A
  3
ACAD_MLINESTYLE
350
17
  3
ACAD_PLOTSETTINGS
350
19
  3
ACAD_PLOTSTYLENAME
350
E
  3
ACDBVARIABLEDICTIONARY
350
34
  3
ACMDICTIONARY
350
43
  3
AMG
350
2B
  3
AMGSNAPSETTINGS
350
6E
  3
DWGPROPS
350
564A
  3
ACDBHEADERROUNDTRIPXREC
350
5656
  0
DICTIONARY
  5
74
330
1F
100
AcDbDictionary
280
     1
  3
ACAD_INDEX
360
564C
  3
ACAD_LAYOUTSELFREF
360
5679
  0
DICTIONARY
  5
567E
330
101
100
AcDbDictionary
280
     1
  3
ACAD_LAYOUTSELFREF
360
567F
  0
DICTIONARY
  5
D
102
{ACAD_REACTORS
330
C
102
}
330
C
100
AcDbDictionary
  0
DICTIONARY
  5
1A
102
{ACAD_REACTORS
330
C
102
}
330
C
100
AcDbDictionary
  0
DICTIONARY
  5
17
102
{ACAD_REACTORS
330
C
102
}
330
C
100
AcDbDictionary
  3
STANDARD
350
18
  0
DICTIONARY
  5
19
102
{ACAD_REACTORS
330
C
102
}
330
C
100
AcDbDictionary
  0
ACDBDICTIONARYWDFLT
  5
E
102
{ACAD_REACTORS
330
C
102
}
330
C
100
AcDbDictionary
281
     1
  3
Normal
350
F
100
AcDbDictionaryWithDefault
340
F
  0
DICTIONARY
  5
34
102
{ACAD_REACTORS
330
C
102
}
330
C
100
AcDbDictionary
  3
INDEXCTL
350
35
  3
SORTENTS
350
B5E
  0
DICTIONARY
  5
43
102
{ACAD_REACTORS
330
C
102
}
330
C
100
AcDbDictionary
  3
ACMSTDDICTIONARY
350
260
  0
DICTIONARY
  5
2B
102
{ACAD_REACTORS
330
C
102
}
330
C
100
AcDbDictionary
  3
ACMGSETTINGS
350
2C
  0
DICTIONARY
  5
6E
102
{ACAD_REACTORS
330
C
102
}
330
C
100
AcDbDictionary
  0
XRECORD
  5
564A
102
{ACAD_REACTORS
330
C
102
}
330
C
100
AcDbXrecord
  1
DWGPROPS COOKIE
  2

  3

  4

  6

  7

  8

  9

300
AmdtFileType=82
301
=
302
=
303
=
304
=
305
=
306
=
307
=
308
=
309
=
 40
0.1578471990740741
 41
2452839.420061482
 42
2453075.674567407
  1

 90
        1
  0
DICTIONARY
  5
5656
102
{ACAD_REACTORS
330
C
102
}
330
C
100
AcDbDictionary
  3
TSTACKALIGN
350
5657
  3
TSTACKSIZE
350
5658
  3
HYPERLINKBASE
350
5659
  3
STYLESHEET
350
565A
  3
LAYOUTDICT
350
565B
  3
PLOTSETDICT
350
565C
  3
PLOTSTYLNAMDICT
350
565D
  3
LWETCUNION
350
565E
  3
INSUNITS
350
565F
  3
CEPSNTYPE
350
5660
  3
FINGERPRINTGUID
350
5661
  3
VERSIONGUID
350
5662
  3
PSVPSCALE
350
5663
  3
DIMSTYLEDATA
350
5664
  3
PUCSORTHOREF
350
5665
  3
PUCSORTHOVIEW
350
5666
  3
PUCSBASE
350
5667
  3
PUCSORGTOP
350
5668
  3
PUCSORGBOTTOM
350
5669
  3
PUCSORGLEFT
350
566A
  3
PUCSORGRIGHT
350
566B
  3
PUCSORGFRONT
350
566C
  3
PUCSORGBACK
350
566D
  3
UCSORTHOREF
350
566E
  3
UCSORTHOVIEW
350
566F
  3
UCSBASE
350
5670
  3
UCSORGTOP
350
5671
  3
UCSORGBOTTOM
350
5672
  3
UCSORGLEFT
350
5673
  3
UCSORGRIGHT
350
5674
  3
UCSORGFRONT
350
5675
  3
UCSORGBACK
350
5676
  0
DICTIONARY
  5
564C
102
{ACAD_REACTORS
330
74
102
}
330
74
100
AcDbDictionary
  3
*A1
350
564D
  0
XRECORD
  5
5679
102
{ACAD_REACTORS
330
74
102
}
330
74
100
AcDbXrecord
340
1F
  0
XRECORD
  5
567F
102
{ACAD_REACTORS
330
567E
102
}
330
567E
100
AcDbXrecord
340
101
  0
MLINESTYLE
  5
18
102
{ACAD_REACTORS
330
17
102
}
330
17
100
AcDbMlineStyle
  2
STANDARD
 70
     0
  3

 62
   256
 51
90.0
 52
90.0
 71
     2
 49
0.5
 62
   256
  6
BYLAYER
 49
-0.5
 62
   256
  6
BYLAYER
  0
ACDBPLACEHOLDER
  5
F
102
{ACAD_REACTORS
330
E
102
}
330
E
100
AcDbPlaceHolder
280
     0
  0
DICTIONARYVAR
  5
35
102
{ACAD_REACTORS
330
34
102
}
330
34
100
DictionaryVariables
280
     0
  1
1
  0
DICTIONARYVAR
  5
B5E
102
{ACAD_REACTORS
330
34
102
}
330
34
100
DictionaryVariables
280
     0
  1
96
  0
DICTIONARY
  5
260
102
{ACAD_REACTORS
330
43
102
}
330
43
100
AcDbDictionary
  0
DICTIONARY
  5
2C
102
{ACAD_REACTORS
330
2B
102
}
330
2B
100
AcDbDictionary
  3
DWGSETTINGS
350
2D
  0
XRECORD
  5
5657
102
{ACAD_REACTORS
330
5656
102
}
330
5656
100
AcDbXrecord
 90
        1
  0
XRECORD
  5
5658
102
{ACAD_REACTORS
330
5656
102
}
330
5656
100
AcDbXrecord
 90
       70
  0
XRECORD
  5
5659
102
{ACAD_REACTORS
330
5656
102
}
330
5656
100
AcDbXrecord
  1

  0
XRECORD
  5
565A
102
{ACAD_REACTORS
330
5656
102
}
330
5656
100
AcDbXrecord
  1
ASAMI.ctb
  0
XRECORD
  5
565B
102
{ACAD_REACTORS
330
5656
102
}
330
5656
100
AcDbXrecord
340
1A
  0
XRECORD
  5
565C
102
{ACAD_REACTORS
330
5656
102
}
330
5656
100
AcDbXrecord
340
19
  0
XRECORD
  5
565D
102
{ACAD_REACTORS
330
5656
102
}
330
5656
100
AcDbXrecord
340
E
  0
XRECORD
  5
565E
102
{ACAD_REACTORS
330
5656
102
}
330
5656
100
AcDbXrecord
 90
    10781
  0
XRECORD
  5
565F
102
{ACAD_REACTORS
330
5656
102
}
330
5656
100
AcDbXrecord
 90
        4
  0
XRECORD
  5
5660
102
{ACAD_REACTORS
330
5656
102
}
330
5656
100
AcDbXrecord
 90
        0
  0
XRECORD
  5
5661
102
{ACAD_REACTORS
330
5656
102
}
330
5656
100
AcDbXrecord
  1
{AFB28963-8C59-40AE-9337-C84526B81ACE}
  0
XRECORD
  5
5662
102
{ACAD_REACTORS
330
5656
102
}
330
5656
100
AcDbXrecord
  1
{D7DDB68A-404D-4AF5-A5AB-54F9DF7049BE}
  0
XRECORD
  5
5663
102
{ACAD_REACTORS
330
5656
102
}
330
5656
100
AcDbXrecord
 40
0.0
  0
XRECORD
  5
5664
102
{ACAD_REACTORS
330
5656
102
}
330
5656
100
AcDbXrecord
1000
DSTYLE
1002
{
1070
    79
 70
     2
1070
   341
340
59
1070
   342
340
59
1070
   371
 70
    -1
1070
   372
 70
    -1
1002
}
  0
XRECORD
  5
5665
102
{ACAD_REACTORS
330
5656
102
}
330
5656
100
AcDbXrecord
340
0
  0
XRECORD
  5
5666
102
{ACAD_REACTORS
330
5656
102
}
330
5656
100
AcDbXrecord
 70
     0
  0
XRECORD
  5
5667
102
{ACAD_REACTORS
330
5656
102
}
330
5656
100
AcDbXrecord
340
0
  0
XRECORD
  5
5668
102
{ACAD_REACTORS
330
5656
102
}
330
5656
100
AcDbXrecord
 10
0.0
 20
0.0
 30
0.0
  0
XRECORD
  5
5669
102
{ACAD_REACTORS
330
5656
102
}
330
5656
100
AcDbXrecord
 10
0.0
 20
0.0
 30
0.0
  0
XRECORD
  5
566A
102
{ACAD_REACTORS
330
5656
102
}
330
5656
100
AcDbXrecord
 10
0.0
 20
0.0
 30
0.0
  0
XRECORD
  5
566B
102
{ACAD_REACTORS
330
5656
102
}
330
5656
100
AcDbXrecord
 10
0.0
 20
0.0
 30
0.0
  0
XRECORD
  5
566C
102
{ACAD_REACTORS
330
5656
102
}
330
5656
100
AcDbXrecord
 10
0.0
 20
0.0
 30
0.0
  0
XRECORD
  5
566D
102
{ACAD_REACTORS
330
5656
102
}
330
5656
100
AcDbXrecord
 10
0.0
 20
0.0
 30
0.0
  0
XRECORD
  5
566E
102
{ACAD_REACTORS
330
5656
102
}
330
5656
100
AcDbXrecord
340
0
  0
XRECORD
  5
566F
102
{ACAD_REACTORS
330
5656
102
}
330
5656
100
AcDbXrecord
 70
     0
  0
XRECORD
  5
5670
102
{ACAD_REACTORS
330
5656
102
}
330
5656
100
AcDbXrecord
340
0
  0
XRECORD
  5
5671
102
{ACAD_REACTORS
330
5656
102
}
330
5656
100
AcDbXrecord
 10
0.0
 20
0.0
 30
0.0
  0
XRECORD
  5
5672
102
{ACAD_REACTORS
330
5656
102
}
330
5656
100
AcDbXrecord
 10
0.0
 20
0.0
 30
0.0
  0
XRECORD
  5
5673
102
{ACAD_REACTORS
330
5656
102
}
330
5656
100
AcDbXrecord
 10
0.0
 20
0.0
 30
0.0
  0
XRECORD
  5
5674
102
{ACAD_REACTORS
330
5656
102
}
330
5656
100
AcDbXrecord
 10
0.0
 20
0.0
 30
0.0
  0
XRECORD
  5
5675
102
{ACAD_REACTORS
330
5656
102
}
330
5656
100
AcDbXrecord
 10
0.0
 20
0.0
 30
0.0
  0
XRECORD
  5
5676
102
{ACAD_REACTORS
330
5656
102
}
330
5656
100
AcDbXrecord
 10
0.0
 20
0.0
 30
0.0
  0
LAYER_INDEX
  5
564D
102
{ACAD_REACTORS
330
564C
102
}
330
564C
100
AcDbIndex
 40
2453152.392757951
100
AcDbLayerIndex
  8
0
360
564E
 90
        0
  8
AM_0
360
564F
 90
      198
  8
AM_7
360
5650
 90
        1
  8
AM_11
360
5651
 90
        4
  8
AM_5
360
5652
 90
        9
  8
Defpoints
360
5653
 90
        0
  8
AM_6
360
5654
 90
        1
  0
XRECORD
  5
2D
102
{ACAD_REACTORS
330
2C
102
}
330
2C
100
AcDbXrecord
  1
VERSION
140
15.0
  1
PRODUCT
  2
AutoCAD Mechanical 2000
  0
IDBUFFER
  5
564E
330
0
100
AcDbIdBuffer
  0
IDBUFFER
  5
564F
330
0
100
AcDbIdBuffer
330
54ED
330
54EE
330
54EF
330
54F0
330
54F1
330
54F2
330
54F3
330
54F4
330
54F5
330
54F6
330
54F7
330
54F8
330
54F9
330
54FA
330
54FB
330
54FC
330
54FD
330
54FE
330
54FF
330
5500
330
5501
330
5502
330
5503
330
5504
330
5505
330
5506
330
5507
330
5508
330
5509
330
550A
330
550B
330
550C
330
550D
330
550F
330
5510
330
5511
330
5512
330
5513
330
5514
330
5515
330
5516
330
5517
330
5518
330
5519
330
551A
330
551B
330
551C
330
551D
330
551E
330
551F
330
5520
330
5521
330
5522
330
5523
330
5524
330
5525
330
5526
330
5527
330
5528
330
5529
330
552A
330
552B
330
552C
330
552D
330
552E
330
552F
330
5530
330
5531
330
5532
330
5533
330
5534
330
5535
330
5536
330
5537
330
5538
330
5539
330
553A
330
553B
330
553C
330
553D
330
553E
330
553F
330
5540
330
5541
330
5542
330
5543
330
528E
330
528F
330
5290
330
5291
330
5292
330
5293
330
5294
330
5298
330
5299
330
529A
330
529B
330
529C
330
529D
330
529E
330
529F
330
52A0
330
52AB
330
52AC
330
52AD
330
52AE
330
52AF
330
52B0
330
52B1
330
52B2
330
52DD
330
52DE
330
52DF
330
52E0
330
52E1
330
52E2
330
52E3
330
52E4
330
52E5
330
52E6
330
52E7
330
52E8
330
52E9
330
52EA
330
52EB
330
52EC
330
52ED
330
52EE
330
52EF
330
52F0
330
52F1
330
52F2
330
52F3
330
52F4
330
52F5
330
52F6
330
52F7
330
52F8
330
52F9
330
52FA
330
52FB
330
52FC
330
52FD
330
52FE
330
52FF
330
5300
330
5301
330
5302
330
5303
330
5304
330
5305
330
5306
330
5307
330
5308
330
5309
330
530A
330
530B
330
530C
330
530D
330
530E
330
530F
330
5310
330
5311
330
5312
330
5313
330
5314
330
5315
330
5316
330
54CF
330
54D0
330
54D1
330
54D2
330
54D3
330
54D4
330
54D5
330
54D6
330
54D7
330
54D8
330
54D9
330
54DA
330
54DB
330
54DC
330
54DD
330
54DE
330
54DF
330
54E0
330
54E1
330
54E2
330
54E3
330
54E4
330
54E5
330
54E6
330
54E7
330
54E8
330
54E9
330
54EA
330
54EB
330
54EC
  0
IDBUFFER
  5
5650
330
0
100
AcDbIdBuffer
330
528D
  0
IDBUFFER
  5
5651
330
0
100
AcDbIdBuffer
330
5295
330
5296
330
52DC
330
550E
  0
IDBUFFER
  5
5652
330
0
100
AcDbIdBuffer
330
385C
330
38E8
330
48F8
330
49AE
330
4A36
330
4AC1
330
4B52
330
4E51
330
4EED
  0
IDBUFFER
  5
5653
330
0
100
AcDbIdBuffer
  0
IDBUFFER
  5
5654
330
0
100
AcDbIdBuffer
330
1142
  0
ENDSEC
  0
EOF
