  0
SECTION
  2
HEADER
  9
$ACADVER
  1
AC1014
  9
$ACADMAINTVER
 70
     9
  9
$DWGCODEPAGE
  3
ANSI_932
  9
$INSBASE
 10
0.0
 20
0.0
 30
0.0
  9
$EXTMIN
 10
-273.6631576103775
 20
-78.00042879495224
 30
-0.00000001
  9
$EXTMAX
 10
17.15010319496515
 20
50.90726973824777
 30
0.00000001
  9
$LIMMIN
 10
-327.0362186811606
 20
-133.8424210855961
  9
$LIMMAX
 10
118.1826253796514
 20
91.30815937241596
  9
$ORTHOMODE
 70
     0
  9
$REGENMODE
 70
     1
  9
$FILLMODE
 70
     1
  9
$QTEXTMODE
 70
     0
  9
$MIRRTEXT
 70
     0
  9
$DRAGMODE
 70
     2
  9
$LTSCALE
 40
1.0
  9
$OSMODE
 70
    55
  9
$ATTMODE
 70
     1
  9
$TEXTSIZE
 40
2.5
  9
$TRACEWID
 40
1.0
  9
$TEXTSTYLE
  7
STANDARD
  9
$CLAYER
  8
AM_0
  9
$CELTYPE
  6
BYLAYER
  9
$CECOLOR
 62
   256
  9
$CELTSCALE
 40
1.0
  9
$DELOBJ
 70
     1
  9
$DISPSILH
 70
     0
  9
$DIMSCALE
 40
1.0
  9
$DIMASZ
 40
2.5
  9
$DIMEXO
 40
1.0
  9
$DIMDLI
 40
12.0
  9
$DIMRND
 40
0.0
  9
$DIMDLE
 40
0.0
  9
$DIMEXE
 40
1.0
  9
$DIMTP
 40
0.1
  9
$DIMTM
 40
0.1
  9
$DIMTXT
 40
3.2
  9
$DIMCEN
 40
0.0
  9
$DIMTSZ
 40
0.0
  9
$DIMTOL
 70
     0
  9
$DIMLIM
 70
     0
  9
$DIMTIH
 70
     0
  9
$DIMTOH
 70
     0
  9
$DIMSE1
 70
     0
  9
$DIMSE2
 70
     0
  9
$DIMTAD
 70
     3
  9
$DIMZIN
 70
     8
  9
$DIMBLK
  1
OPEN30
  9
$DIMASO
 70
     1
  9
$DIMSHO
 70
     1
  9
$DIMPOST
  1

  9
$DIMAPOST
  1
"
  9
$DIMALT
 70
     0
  9
$DIMALTD
 70
     2
  9
$DIMALTF
 40
0.0393701
  9
$DIMLFAC
 40
1.0
  9
$DIMTOFL
 70
     1
  9
$DIMTVP
 40
0.0
  9
$DIMTIX
 70
     0
  9
$DIMSOXD
 70
     0
  9
$DIMSAH
 70
     0
  9
$DIMBLK1
  1

  9
$DIMBLK2
  1

  9
$DIMSTYLE
  2
AM_JIS
  9
$DIMCLRD
 70
   256
  9
$DIMCLRE
 70
   256
  9
$DIMCLRT
 70
     2
  9
$DIMTFAC
 40
0.71
  9
$DIMGAP
 40
1.5
  9
$DIMJUST
 70
     0
  9
$DIMSD1
 70
     0
  9
$DIMSD2
 70
     0
  9
$DIMTOLJ
 70
     0
  9
$DIMTZIN
 70
     0
  9
$DIMALTZ
 70
     0
  9
$DIMALTTZ
 70
     0
  9
$DIMFIT
 70
     3
  9
$DIMUPT
 70
     0
  9
$DIMUNIT
 70
     2
  9
$DIMDEC
 70
     3
  9
$DIMTDEC
 70
     3
  9
$DIMALTU
 70
     2
  9
$DIMALTTD
 70
     2
  9
$DIMTXSTY
  7
ASAMI
  9
$DIMAUNIT
 70
     0
  9
$LUNITS
 70
     2
  9
$LUPREC
 70
     0
  9
$SKETCHINC
 40
1.0
  9
$FILLETRAD
 40
2.5
  9
$AUNITS
 70
     0
  9
$AUPREC
 70
     0
  9
$MENU
  1
.
  9
$ELEVATION
 40
0.0
  9
$PELEVATION
 40
0.0
  9
$THICKNESS
 40
0.0
  9
$LIMCHECK
 70
     0
  9
$BLIPMODE
 70
     0
  9
$CHAMFERA
 40
2.5
  9
$CHAMFERB
 40
2.5
  9
$CHAMFERC
 40
20.0
  9
$CHAMFERD
 40
0.0
  9
$SKPOLY
 70
     0
  9
$TDCREATE
 40
2452839.420061482
  9
$TDUPDATE
 40
2453152.393562916
  9
$TDINDWG
 40
0.1576444560
  9
$TDUSRTIMER
 40
0.1576444560
  9
$USRTIMER
 70
     1
  9
$ANGBASE
 50
0.0
  9
$ANGDIR
 70
     0
  9
$PDMODE
 70
     0
  9
$PDSIZE
 40
0.0
  9
$PLINEWID
 40
0.0
  9
$COORDS
 70
     1
  9
$SPLFRAME
 70
     0
  9
$SPLINETYPE
 70
     6
  9
$SPLINESEGS
 70
     8
  9
$ATTDIA
 70
     1
  9
$ATTREQ
 70
     1
  9
$HANDLING
 70
 12289
  9
$HANDSEED
  5
4BAE
  9
$SURFTAB1
 70
     6
  9
$SURFTAB2
 70
     6
  9
$SURFTYPE
 70
     6
  9
$SURFU
 70
     6
  9
$SURFV
 70
     6
  9
$UCSNAME
  2

  9
$UCSORG
 10
0.0
 20
0.0
 30
0.0
  9
$UCSXDIR
 10
1.0
 20
0.0
 30
0.0
  9
$UCSYDIR
 10
0.0
 20
1.0
 30
0.0
  9
$PUCSNAME
  2

  9
$PUCSORG
 10
0.0
 20
0.0
 30
0.0
  9
$PUCSXDIR
 10
1.0
 20
0.0
 30
0.0
  9
$PUCSYDIR
 10
0.0
 20
1.0
 30
0.0
  9
$USERI1
 70
     0
  9
$USERI2
 70
     0
  9
$USERI3
 70
     0
  9
$USERI4
 70
     0
  9
$USERI5
 70
     0
  9
$USERR1
 40
0.0
  9
$USERR2
 40
0.0
  9
$USERR3
 40
0.0
  9
$USERR4
 40
0.0
  9
$USERR5
 40
0.0
  9
$WORLDVIEW
 70
     1
  9
$SHADEDGE
 70
     3
  9
$SHADEDIF
 70
    70
  9
$TILEMODE
 70
     1
  9
$MAXACTVP
 70
    64
  9
$PINSBASE
 10
0.0
 20
0.0
 30
0.0
  9
$PLIMCHECK
 70
     0
  9
$PEXTMIN
 10
1.000000000000000E+20
 20
1.000000000000000E+20
 30
1.000000000000000E+20
  9
$PEXTMAX
 10
-1.000000000000000E+20
 20
-1.000000000000000E+20
 30
-1.000000000000000E+20
  9
$PLIMMIN
 10
0.0
 20
0.0
  9
$PLIMMAX
 10
841.0
 20
594.0
  9
$UNITMODE
 70
     0
  9
$VISRETAIN
 70
     1
  9
$PLINEGEN
 70
     0
  9
$PSLTSCALE
 70
     0
  9
$TREEDEPTH
 70
  3020
  9
$PICKSTYLE
 70
     0
  9
$CMLSTYLE
  2
STANDARD
  9
$CMLJUST
 70
     0
  9
$CMLSCALE
 40
20.0
  9
$PROXYGRAPHICS
 70
     1
  9
$MEASUREMENT
 70
     1
  0
ENDSEC
  0
SECTION
  2
CLASSES
  0
CLASS
  1
ACDBDICTIONARYWDFLT
  2
AcDbDictionaryWithDefault
  3
AutoCAD 2000
 90
        0
280
     0
281
     0
  0
CLASS
  1
ACDBPLACEHOLDER
  2
AcDbPlaceHolder
  3
AutoCAD 2000
 90
        0
280
     0
281
     0
  0
CLASS
  1
LAYOUT
  2
AcDbLayout
  3
AutoCAD 2000
 90
        0
280
     0
281
     0
  0
CLASS
  1
AMGSETTINGSOBJ
  2
AmgSettingsObj
  3
"AcadM|Product Description: AutoCAD Mechanical 2000|Company: Autodesk"
 90
        0
280
     0
281
     0
  0
CLASS
  1
ACME_DOCUMENT
  2
AcMeDbDoc
  3
AcMeServices
 90
        0
280
     0
281
     0
  0
CLASS
  1
ACMESCOPE
  2
AcMeScope
  3
AcMeServices
 90
        0
280
     0
281
     0
  0
CLASS
  1
ACMECOMMANDHISTORY
  2
AcMeCommandHistory
  3
AcMeServices
 90
        0
280
     0
281
     0
  0
CLASS
  1
DICTIONARYVAR
  2
AcDbDictionaryVar
  3
AutoCAD 2000
 90
        0
280
     0
281
     0
  0
CLASS
  1
ACIMSYSVARMAN
  2
AcImSysVarManager
  3
AcMeServices
 90
        0
280
     0
281
     0
  0
CLASS
  1
ACIMREALSYSVAR
  2
AcImRealSysVar
  3
AcMeServices
 90
        0
280
     0
281
     0
  0
CLASS
  1
ACIMINTSYSVAR
  2
AcImIntSysVar
  3
AcMeServices
 90
        0
280
     0
281
     0
  0
CLASS
  1
ACMEDRAWINGMAN
  2
AcMeDrawingMan
  3
AcMeServices
 90
        0
280
     0
281
     0
  0
CLASS
  1
ACMEVIEW
  2
AcMeView
  3
AcMeServices
 90
        0
280
     0
281
     0
  0
CLASS
  1
ACDBENTITYCACHE
  2
AcMeEntityCache
  3
AcMeServices
 90
        0
280
     0
281
     0
  0
CLASS
  1
GSMANAGER
  2
AcMeGSManager
  3
AcMeServices
 90
        0
280
     0
281
     0
  0
CLASS
  1
AmdtInternalReactor
  2
AmdtInternalReactor
  3
AcMeServices
 90
        0
280
     0
281
     0
  0
CLASS
  1
ACMESTATEMGR
  2
AcMeStateMgr
  3
AcMeServices
 90
        0
280
     0
281
     0
  0
CLASS
  1
ACME_DATABASE
  2
AcMeDbDatabase
  3
AcMeServices
 90
        0
280
     0
281
     0
  0
CLASS
  1
ACRFINSADJUSTERMGR
  2
AcRfInsAdjusterMgr
  3
AcMeServices
 90
        0
280
     0
281
     0
  0
CLASS
  1
ACMDATADICTIONARY
  2
AcmDataDictionary
  3
"AcmSymBB|Product Description: AutoCAD Mechanical 2000|Company: Autodesk"
 90
        0
280
     0
281
     0
  0
CLASS
  1
ACMDATAENTRYBLOCK
  2
AcmDataEntryBlock
  3
"AcmSymBB|Product Description: AutoCAD Mechanical 2000|Company: Autodesk"
 90
        0
280
     0
281
     0
  0
CLASS
  1
AMGOBJPROPCFG
  2
AmgObjPropCfg
  3
"AmgLay|Product Description: AutoCAD Mechanical 2000|Company: Autodesk"
 90
        1
280
     0
281
     0
  0
CLASS
  1
ACAMGFILTERDAT
  2
AcAmgFilterDat
  3
"AcadM|Product Description: AutoCAD Mechanical 2000|Company: Autodesk"
 90
        0
280
     0
281
     0
  0
CLASS
  1
LAYER_INDEX
  2
AcDbLayerIndex
  3
AutoCAD 2000
 90
        0
280
     0
281
     0
  0
CLASS
  1
IDBUFFER
  2
AcDbIdBuffer
  3
AutoCAD 2000
 90
        0
280
     0
281
     0
  0
CLASS
  1
ACIMSTRSYSVAR
  2
AcImStrSysVar
  3
AcMeServices
 90
        0
280
     0
281
     0
  0
CLASS
  1
ACMSTANDARDJIS
  2
AcmStandardJIS
  3
"AcmSymBB|Product Description: AutoCAD Mechanical 2000|Company: Autodesk"
 90
        0
280
     0
281
     0
  0
CLASS
  1
ACMSURFSTANDARDJIS
  2
AcmSurfTextStdJIS
  3
"AcmSymBB|Product Description: AutoCAD Mechanical 2000|Company: Autodesk"
 90
        0
280
     0
281
     0
  0
CLASS
  1
ACMFCFSTANDARDJIS
  2
AcmFCFStdJIS
  3
"AcmSymBB|Product Description: AutoCAD Mechanical 2000|Company: Autodesk"
 90
        0
280
     0
281
     0
  0
CLASS
  1
ACMWELDSTANDARDJIS
  2
AcmWeldingStdJIS
  3
"AcmSymBB|Product Description: AutoCAD Mechanical 2000|Company: Autodesk"
 90
        0
280
     0
281
     0
  0
CLASS
  1
ACMIDSTANDARDJIS
  2
AcmIdStdJIS
  3
"AcmSymBB|Product Description: AutoCAD Mechanical 2000|Company: Autodesk"
 90
        0
280
     0
281
     0
  0
CLASS
  1
ACMDATUMSTANDARDJIS
  2
AcmDatumStdJIS
  3
"AcmSymBB|Product Description: AutoCAD Mechanical 2000|Company: Autodesk"
 90
        0
280
     0
281
     0
  0
CLASS
  1
ACMBOMSTANDARDJIS
  2
AcmBOMStdJIS
  3
"AcmSymBB|Product Description: AutoCAD Mechanical 2000|Company: Autodesk"
 90
        0
280
     0
281
     0
  0
CLASS
  1
ACMSTANDARDANSI
  2
AcmStandardANSI
  3
"AcmSymBB|Product Description: AutoCAD Mechanical 2000|Company: Autodesk"
 90
        0
280
     0
281
     0
  0
CLASS
  1
ACMSURFSTANDARDANSI
  2
AcmSurfTextStdANSI
  3
"AcmSymBB|Product Description: AutoCAD Mechanical 2000|Company: Autodesk"
 90
        0
280
     0
281
     0
  0
CLASS
  1
ACMFCFSTANDARDANSI
  2
AcmFCFStdANSI
  3
"AcmSymBB|Product Description: AutoCAD Mechanical 2000|Company: Autodesk"
 90
        0
280
     0
281
     0
  0
CLASS
  1
ACMWELDSTANDARDANSI
  2
AcmWeldingStdANSI
  3
"AcmSymBB|Product Description: AutoCAD Mechanical 2000|Company: Autodesk"
 90
        0
280
     0
281
     0
  0
CLASS
  1
ACMIDSTANDARDANSI
  2
AcmIdStdANSI
  3
"AcmSymBB|Product Description: AutoCAD Mechanical 2000|Company: Autodesk"
 90
        0
280
     0
281
     0
  0
CLASS
  1
ACMDATUMSTANDARDANSI
  2
AcmDatumStdANSI
  3
"AcmSymBB|Product Description: AutoCAD Mechanical 2000|Company: Autodesk"
 90
        0
280
     0
281
     0
  0
CLASS
  1
ACMBOMSTANDARDANSI
  2
AcmBOMStdANSI
  3
"AcmSymBB|Product Description: AutoCAD Mechanical 2000|Company: Autodesk"
 90
        0
280
     0
281
     0
  0
CLASS
  1
ACMSTANDARDBSI
  2
AcmStandardBSI
  3
"AcmSymBB|Product Description: AutoCAD Mechanical 2000|Company: Autodesk"
 90
        0
280
     0
281
     0
  0
CLASS
  1
ACMSURFSTANDARDBSI
  2
AcmSurfTextStdBSI
  3
"AcmSymBB|Product Description: AutoCAD Mechanical 2000|Company: Autodesk"
 90
        0
280
     0
281
     0
  0
CLASS
  1
ACMFCFSTANDARDBSI
  2
AcmFCFStdBSI
  3
"AcmSymBB|Product Description: AutoCAD Mechanical 2000|Company: Autodesk"
 90
        0
280
     0
281
     0
  0
CLASS
  1
ACMWELDSTANDARDBSI
  2
AcmWeldingStdBSI
  3
"AcmSymBB|Product Description: AutoCAD Mechanical 2000|Company: Autodesk"
 90
        0
280
     0
281
     0
  0
CLASS
  1
ACMIDSTANDARDBSI
  2
AcmIdStdBSI
  3
"AcmSymBB|Product Description: AutoCAD Mechanical 2000|Company: Autodesk"
 90
        0
280
     0
281
     0
  0
CLASS
  1
ACMDATUMSTANDARDBSI
  2
AcmDatumStdBSI
  3
"AcmSymBB|Product Description: AutoCAD Mechanical 2000|Company: Autodesk"
 90
        0
280
     0
281
     0
  0
CLASS
  1
ACMBOMSTANDARDBSI
  2
AcmBOMStdBSI
  3
"AcmSymBB|Product Description: AutoCAD Mechanical 2000|Company: Autodesk"
 90
        0
280
     0
281
     0
  0
CLASS
  1
LONG_TRANSACTION
  2
AcDbLongTransaction
  3
AutoCAD 2000
 90
        0
280
     0
281
     0
  0
CLASS
  1
LWPOLYLINE
  2
AcDbPolyline
  3
AutoCAD 2000
 90
        0
280
     0
281
     1
  0
CLASS
  1
HATCH
  2
AcDbHatch
  3
AutoCAD 2000
 90
        0
280
     0
281
     1
  0
CLASS
  1
XRECORD
  2
AcDbXrecord
  3
AutoCAD 2000
 90
        0
280
     0
281
     0
  0
ENDSEC
  0
SECTION
  2
TABLES
  0
TABLE
  2
VPORT
  5
8
330
0
100
AcDbSymbolTable
 70
     3
  0
VPORT
  5
4B83
330
8
100
AcDbSymbolTableRecord
100
AcDbViewportTableRecord
  2
*ACTIVE
 70
     0
 10
0.0
 20
0.0
 11
1.0
 21
1.0
 12
-126.2626321760405
 22
-9.194558911006893
 13
0.0
 23
0.0
 14
2.5
 24
2.5
 15
10.0
 25
10.0
 16
0.0
 26
0.0
 36
1.0
 17
0.0
 27
0.0
 37
0.0
 40
220.1852710229667
 41
1.56570841889117
 42
50.0
 43
0.0
 44
0.0
 50
0.0
 51
0.0
 71
     0
 72
   100
 73
     1
 74
     3
 75
     0
 76
     0
 77
     0
 78
     0
  0
ENDTAB
  0
TABLE
  2
LTYPE
  5
5
330
0
100
AcDbSymbolTable
 70
    10
  0
LTYPE
  5
14
330
5
100
AcDbSymbolTableRecord
100
AcDbLinetypeTableRecord
  2
BYBLOCK
 70
     0
  3

 72
    65
 73
     0
 40
0.0
  0
LTYPE
  5
15
330
5
100
AcDbSymbolTableRecord
100
AcDbLinetypeTableRecord
  2
BYLAYER
 70
     0
  3

 72
    65
 73
     0
 40
0.0
  0
LTYPE
  5
16
330
5
100
AcDbSymbolTableRecord
100
AcDbLinetypeTableRecord
  2
CONTINUOUS
 70
     0
  3
Solid line
 72
    65
 73
     0
 40
0.0
  0
LTYPE
  5
4B
330
5
100
AcDbSymbolTableRecord
100
AcDbLinetypeTableRecord
  2
AM_ISO02W050
 70
     0
  3
__ __ __ __ __ __ __ __ __ __ __ __ __ __ __
 72
    65
 73
     2
 40
7.5
 49
6.0
 74
     0
 49
-1.5
 74
     0
  0
LTYPE
  5
4C
330
5
100
AcDbSymbolTableRecord
100
AcDbLinetypeTableRecord
  2
AM_ISO08W050
 70
     0
  3
____ . ____ . ____ . ____ . ____ . ____ . ____
 72
    65
 73
     4
 40
18.0
 49
12.0
 74
     0
 49
-1.5
 74
     0
 49
3.0
 74
     0
 49
-1.5
 74
     0
  0
LTYPE
  5
4D
330
5
100
AcDbSymbolTableRecord
100
AcDbLinetypeTableRecord
  2
AM_ISO09W050
 70
     0
  3
_____ . . _____ . . _____ . . ____ .. ____
 72
    65
 73
     6
 40
22.5
 49
12.0
 74
     0
 49
-1.5
 74
     0
 49
3.0
 74
     0
 49
-1.5
 74
     0
 49
3.0
 74
     0
 49
-1.5
 74
     0
  0
LTYPE
  5
4E
330
5
100
AcDbSymbolTableRecord
100
AcDbLinetypeTableRecord
  2
AMCONSTR
 70
     0
  3
_______________________
 72
    65
 73
     2
 40
9999.0
 49
9999.0
 74
     0
 49
0.0
 74
     0
  0
LTYPE
  5
4F
330
5
100
AcDbSymbolTableRecord
100
AcDbLinetypeTableRecord
  2
AM_ISO02W050X2
 70
     0
  3
 _ _ _ _ _ _ _ _ _ _ _ _
 72
    65
 73
     2
 40
3.75
 49
3.0
 74
     0
 49
-0.75
 74
     0
  0
LTYPE
  5
50
330
5
100
AcDbSymbolTableRecord
100
AcDbLinetypeTableRecord
  2
AM_ISO08W050X2
 70
     0
  3
__ . __ . __ . __ . __ . __
 72
    65
 73
     4
 40
9.0
 49
6.0
 74
     0
 49
-0.75
 74
     0
 49
1.5
 74
     0
 49
-0.75
 74
     0
  0
LTYPE
  5
53
330
5
100
AcDbSymbolTableRecord
100
AcDbLinetypeTableRecord
  2
AMZIGZAG
 70
     0
  3
/\/-/\/-/\/-/\/-/\/-/\/
 72
    65
 73
     2
 40
11.00009999999999
 49
0.0001
 74
     4
 75
   135
340
52
 46
0.04
 50
0.0
 44
0.0
 45
0.0
 49
-11.0
 74
     0
  0
LTYPE
  5
166
330
5
100
AcDbSymbolTableRecord
100
AcDbLinetypeTableRecord
  2
ACJISTGL
 70
     0
  3
_ _ _ _ _
 72
    65
 73
     2
 40
3.0
 49
2.0
 74
     0
 49
-1.0
 74
     0
  0
LTYPE
  5
26A
330
5
100
AcDbSymbolTableRecord
100
AcDbLinetypeTableRecord
  2
ACJISTGB
 70
     0
  3
__ . . __ . .
 72
    65
 73
     6
 40
9.0
 49
4.0
 74
     0
 49
-1.0
 74
     0
 49
1.0
 74
     0
 49
-1.0
 74
     0
 49
1.0
 74
     0
 49
-1.0
 74
     0
  0
ENDTAB
  0
TABLE
  2
LAYER
  5
2
330
0
100
AcDbSymbolTable
 70
     7
  0
LAYER
  5
10
330
2
100
AcDbSymbolTableRecord
100
AcDbLayerTableRecord
  2
0
 70
     0
 62
     7
  6
CONTINUOUS
  0
LAYER
  5
3F9
330
2
100
AcDbSymbolTableRecord
100
AcDbLayerTableRecord
  2
AM_0
 70
     0
 62
     7
  6
CONTINUOUS
  0
LAYER
  5
CD5
330
2
100
AcDbSymbolTableRecord
100
AcDbLayerTableRecord
  2
AM_7
 70
     0
 62
     4
  6
AM_ISO08W050
  0
LAYER
  5
CDE
330
2
100
AcDbSymbolTableRecord
100
AcDbLayerTableRecord
  2
AM_11
 70
     0
 62
     3
  6
AM_ISO09W050
  0
LAYER
  5
CFB
330
2
100
AcDbSymbolTableRecord
100
AcDbLayerTableRecord
  2
AM_5
 70
     0
 62
     3
  6
CONTINUOUS
  0
LAYER
  5
CFD
330
2
100
AcDbSymbolTableRecord
100
AcDbLayerTableRecord
  2
DEFPOINTS
 70
     0
 62
     7
  6
CONTINUOUS
  0
LAYER
  5
113C
330
2
100
AcDbSymbolTableRecord
100
AcDbLayerTableRecord
  2
AM_6
 70
     0
 62
     2
  6
CONTINUOUS
  0
ENDTAB
  0
TABLE
  2
STYLE
  5
3
330
0
100
AcDbSymbolTable
 70
     5
  0
STYLE
  5
11
330
3
100
AcDbSymbolTableRecord
100
AcDbTextStyleTableRecord
  2
STANDARD
 70
     0
 40
0.0
 41
1.0
 50
0.0
 71
     0
 42
2.5
  3
simplex.shx
  4
EXTFONT.SHX
  0
STYLE
  5
52
330
3
100
AcDbSymbolTableRecord
100
AcDbTextStyleTableRecord
  2

 70
     1
 40
0.0
 41
1.0
 50
0.0
 71
     0
 42
2.5
  3
ltypeshp.shx
  4

  0
STYLE
  5
6B
330
3
100
AcDbSymbolTableRecord
100
AcDbTextStyleTableRecord
  2
ASAMI
 70
     0
 40
0.0
 41
1.0
 50
0.0
 71
     0
 42
2.5
  3
simplex.shx
  4
EXTFONT.SHX
  0
STYLE
  5
262
330
3
100
AcDbSymbolTableRecord
100
AcDbTextStyleTableRecord
  2
ACJISTS
 70
     0
 40
1.0
 41
1.0
 50
0.0
 71
     0
 42
2.5
  3
simplex.shx
  4
bigfont.shx
  0
STYLE
  5
269
330
3
100
AcDbSymbolTableRecord
100
AcDbTextStyleTableRecord
  2
ACJISGDT
 70
     0
 40
0.0
 41
1.0
 50
0.0
 71
     0
 42
2.5
  3
amgdtans.shx
  4

  0
ENDTAB
  0
TABLE
  2
VIEW
  5
6
330
0
100
AcDbSymbolTable
 70
     0
  0
ENDTAB
  0
TABLE
  2
UCS
  5
7
330
0
100
AcDbSymbolTable
 70
     0
  0
ENDTAB
  0
TABLE
  2
APPID
  5
9
330
0
100
AcDbSymbolTable
 70
    12
  0
APPID
  5
12
330
9
100
AcDbSymbolTableRecord
100
AcDbRegAppTableRecord
  2
ACAD
 70
     0
  0
APPID
  5
30
330
9
100
AcDbSymbolTableRecord
100
AcDbRegAppTableRecord
  2
MCAD_NO_VIS
 70
     0
  0
APPID
  5
31
330
9
100
AcDbSymbolTableRecord
100
AcDbRegAppTableRecord
  2
ACAD_TEMP_GRAPHIC
 70
     0
  0
APPID
  5
2C2
330
9
100
AcDbSymbolTableRecord
100
AcDbRegAppTableRecord
  2
GENIUS_GENDTOL_13
 70
     0
  0
APPID
  5
339
330
9
100
AcDbSymbolTableRecord
100
AcDbRegAppTableRecord
  2
GENIUS_GENODEF_13
 70
     0
  0
APPID
  5
33A
330
9
100
AcDbSymbolTableRecord
100
AcDbRegAppTableRecord
  2
GENIUS_GENOBJ-N-RSBK_13
 70
     0
  0
APPID
  5
33B
330
9
100
AcDbSymbolTableRecord
100
AcDbRegAppTableRecord
  2
GENIUS_GENOBJ-N-LIB_13
 70
     0
  0
APPID
  5
33C
330
9
100
AcDbSymbolTableRecord
100
AcDbRegAppTableRecord
  2
GENIUS_GENSCALE_13
 70
     0
  0
APPID
  5
378
330
9
100
AcDbSymbolTableRecord
100
AcDbRegAppTableRecord
  2
GENIUS_GENDIMSH_14
 70
     0
  0
APPID
  5
13A0
330
9
100
AcDbSymbolTableRecord
100
AcDbRegAppTableRecord
  2
GENIUS_GENOBJ-N-CEN_13
 70
     0
  0
APPID
  5
13D7
330
9
100
AcDbSymbolTableRecord
100
AcDbRegAppTableRecord
  2
GENIUS_GENREC_14
 70
     0
  0
APPID
  5
13D8
330
9
100
AcDbSymbolTableRecord
100
AcDbRegAppTableRecord
  2
GENIUS_GENOBJ-N-REC_13
 70
     0
  0
ENDTAB
  0
TABLE
  2
DIMSTYLE
  5
A
330
0
100
AcDbSymbolTable
 70
     9
  0
DIMSTYLE
105
58
330
A
100
AcDbSymbolTableRecord
100
AcDbDimStyleTableRecord
  2
AM_JIS
 70
     0
  3

  4
"
  5
OPEN30
  6

  7

 40
1.0
 41
2.5
 42
1.0
 43
12.0
 44
1.0
 45
0.0
 46
0.0
 47
0.1
 48
0.1
140
3.2
141
0.0
142
0.0
143
0.0393701
144
1.0
145
0.0
146
0.71
147
1.5
 71
     0
 72
     0
 73
     0
 74
     0
 75
     0
 76
     0
 77
     3
 78
     8
170
     0
171
     2
172
     1
173
     0
174
     0
175
     0
176
   256
177
   256
178
     2
270
     2
271
     3
272
     3
273
     2
274
     2
340
6B
275
     0
280
     0
281
     0
282
     0
283
     0
284
     0
285
     0
286
     0
287
     3
288
     0
  0
DIMSTYLE
105
5F
330
A
100
AcDbSymbolTableRecord
100
AcDbDimStyleTableRecord
  2
AM_JIS$3
 70
     0
  3

  4
"
  5
OPEN30
  6

  7

 40
1.0
 41
2.5
 42
1.0
 43
10.0
 44
1.0
 45
0.0
 46
0.0
 47
0.1
 48
0.1
140
3.2
141
0.0
142
0.0
143
0.0393701
144
1.0
145
0.0
146
0.71
147
1.5
 71
     0
 72
     0
 73
     0
 74
     1
 75
     0
 76
     0
 77
     3
 78
     8
170
     0
171
     2
172
     0
173
     0
174
     0
175
     0
176
   256
177
   256
178
     2
270
     2
271
     2
272
     3
273
     2
274
     2
340
6B
275
     0
280
     0
281
     0
282
     0
283
     0
284
     0
285
     0
286
     0
287
     0
288
     1
  0
DIMSTYLE
105
60
330
A
100
AcDbSymbolTableRecord
100
AcDbDimStyleTableRecord
  2
AM_JIS$4
 70
     0
  3

  4
"
  5
OPEN30
  6

  7

 40
1.0
 41
2.5
 42
1.0
 43
10.0
 44
1.0
 45
0.0
 46
0.0
 47
0.1
 48
0.1
140
3.2
141
0.0
142
0.0
143
0.0393701
144
1.0
145
0.0
146
0.71
147
1.5
 71
     0
 72
     0
 73
     0
 74
     1
 75
     0
 76
     0
 77
     3
 78
     8
170
     0
171
     2
172
     0
173
     0
174
     0
175
     0
176
   256
177
   256
178
     2
270
     2
271
     2
272
     3
273
     2
274
     2
340
6B
275
     0
280
     0
281
     0
282
     0
283
     0
284
     0
285
     0
286
     0
287
     0
288
     1
  0
DIMSTYLE
105
61
330
A
100
AcDbSymbolTableRecord
100
AcDbDimStyleTableRecord
  2
AM_JIS$6
 70
     0
  3

  4
"
  5
OPEN30
  6

  7

 40
1.0
 41
2.5
 42
1.0
 43
10.0
 44
1.0
 45
0.0
 46
0.0
 47
0.1
 48
0.1
140
3.2
141
0.0
142
0.0
143
0.0393701
144
1.0
145
0.0
146
0.71
147
1.5
 71
     0
 72
     0
 73
     0
 74
     0
 75
     0
 76
     0
 77
     0
 78
     8
170
     0
171
     2
172
     1
173
     0
174
     0
175
     0
176
   256
177
   256
178
     2
270
     2
271
     2
272
     2
273
     2
274
     2
340
6B
275
     0
280
     0
281
     0
282
     0
283
     0
284
     0
285
     0
286
     0
287
     3
288
     0
  0
DIMSTYLE
105
62
330
A
100
AcDbSymbolTableRecord
100
AcDbDimStyleTableRecord
  2
AM_JIS$7
 70
     0
  3

  4
"
  5
OPEN30
  6

  7

 40
1.0
 41
2.5
 42
1.0
 43
10.0
 44
1.0
 45
0.0
 46
0.0
 47
0.1
 48
0.1
140
3.2
141
0.0
142
0.0
143
0.0393701
144
1.0
145
0.0
146
0.71
147
1.5
 71
     0
 72
     0
 73
     0
 74
     0
 75
     0
 76
     0
 77
     3
 78
     8
170
     0
171
     2
172
     1
173
     0
174
     0
175
     0
176
   256
177
   256
178
     2
270
     2
271
     2
272
     3
273
     2
274
     2
340
6B
275
     0
280
     0
281
     0
282
     0
283
     0
284
     0
285
     0
286
     0
287
     3
288
     0
  0
DIMSTYLE
105
63
330
A
100
AcDbSymbolTableRecord
100
AcDbDimStyleTableRecord
  2
AM_JIS$SF
 70
     0
  3

  4
"
  5
OPEN30
  6

  7

 40
1.0
 41
2.5
 42
1.0
 43
10.0
 44
1.0
 45
0.0
 46
0.0
 47
0.1
 48
0.1
140
3.2
141
0.0
142
0.0
143
0.0393701
144
1.0
145
0.0
146
0.71
147
1.5
 71
     0
 72
     0
 73
     0
 74
     0
 75
     1
 76
     1
 77
     3
 78
     8
170
     0
171
     2
172
     1
173
     0
174
     0
175
     0
176
   256
177
   256
178
     2
270
     2
271
     2
272
     2
273
     2
274
     2
340
6B
275
     0
280
     0
281
     0
282
     0
283
     0
284
     0
285
     0
286
     0
287
     3
288
     0
  0
DIMSTYLE
105
68
330
A
100
AcDbSymbolTableRecord
100
AcDbDimStyleTableRecord
  2
AM_JIS$SH
 70
     0
  3

  4
"
  5

  6
GENAXEH
  7
OPEN30
 40
1.0
 41
2.5
 42
1.0
 43
10.0
 44
1.0
 45
0.0
 46
0.0
 47
0.1
 48
0.1
140
3.2
141
0.0
142
0.0
143
0.0393701
144
2.0
145
0.0
146
0.71
147
1.5
 71
     0
 72
     0
 73
     0
 74
     0
 75
     1
 76
     1
 77
     3
 78
     8
170
     0
171
     2
172
     1
173
     1
174
     0
175
     0
176
   256
177
   256
178
     2
270
     2
271
     2
272
     2
273
     2
274
     2
340
6B
275
     0
280
     0
281
     0
282
     0
283
     0
284
     0
285
     0
286
     0
287
     3
288
     0
  0
DIMSTYLE
105
B34
330
A
100
AcDbSymbolTableRecord
100
AcDbDimStyleTableRecord
  2
AM_JIS$2
 70
     0
  3

  4
"
  5
OPEN30
  6

  7

 40
1.0
 41
2.5
 42
1.0
 43
12.0
 44
1.0
 45
0.0
 46
0.0
 47
0.1
 48
0.1
140
3.2
141
0.0
142
0.0
143
0.0393701
144
1.0
145
0.0
146
0.71
147
1.5
 71
     0
 72
     0
 73
     0
 74
     0
 75
     0
 76
     0
 77
     3
 78
     8
170
     0
171
     2
172
     1
173
     0
174
     0
175
     0
176
   256
177
   256
178
     2
270
     2
271
     3
272
     3
273
     2
274
     2
340
6B
275
     0
280
     0
281
     0
282
     0
283
     0
284
     0
285
     0
286
     0
287
     3
288
     0
  0
DIMSTYLE
105
BA5
102
{ACAD_REACTORS
330
38E8
330
3983
330
3A0B
330
3AF5
330
3B7D
330
385C
102
}
330
A
100
AcDbSymbolTableRecord
100
AcDbDimStyleTableRecord
  2
AM_JIS$0
 70
     0
  3

  4
"
  5
OPEN30
  6

  7

 40
1.0
 41
2.5
 42
0.0
 43
10.0
 44
1.0
 45
0.0
 46
0.0
 47
0.1
 48
0.1000000001
140
3.799999999999999
141
0.0
142
0.0
143
0.0393701
144
1.0
145
0.0
146
0.71
147
1.5
 71
     0
 72
     0
 73
     0
 74
     0
 75
     0
 76
     0
 77
     3
 78
     1
170
     0
171
     2
172
     1
173
     0
174
     0
175
     0
176
     3
177
     3
178
     2
270
     2
271
     2
272
     2
273
     2
274
     2
340
11
275
     1
280
     0
281
     0
282
     0
283
     0
284
     8
285
     0
286
     0
287
     0
288
     0
  0
ENDTAB
  0
TABLE
  2
BLOCK_RECORD
  5
1
330
0
100
AcDbSymbolTable
 70
    11
  0
BLOCK_RECORD
  5
1F
102
{ACAD_XDICTIONARY
360
74
102
}
330
1
100
AcDbSymbolTableRecord
100
AcDbBlockTableRecord
  2
*MODEL_SPACE
  0
BLOCK_RECORD
  5
101
102
{ACAD_XDICTIONARY
360
4BAC
102
}
330
1
100
AcDbSymbolTableRecord
100
AcDbBlockTableRecord
  2
*PAPER_SPACE
  0
BLOCK_RECORD
  5
59
330
1
100
AcDbSymbolTableRecord
100
AcDbBlockTableRecord
  2
_OPEN30
  0
BLOCK_RECORD
  5
64
330
1
100
AcDbSymbolTableRecord
100
AcDbBlockTableRecord
  2
GENAXEH
  0
BLOCK_RECORD
  5
385D
330
1
100
AcDbSymbolTableRecord
100
AcDbBlockTableRecord
  2
*D5
  0
BLOCK_RECORD
  5
38E9
330
1
100
AcDbSymbolTableRecord
100
AcDbBlockTableRecord
  2
*D6
  0
BLOCK_RECORD
  5
3984
330
1
100
AcDbSymbolTableRecord
100
AcDbBlockTableRecord
  2
*D7
  0
BLOCK_RECORD
  5
3A0C
330
1
100
AcDbSymbolTableRecord
100
AcDbBlockTableRecord
  2
*D8
  0
BLOCK_RECORD
  5
3AF6
330
1
100
AcDbSymbolTableRecord
100
AcDbBlockTableRecord
  2
*D9
  0
BLOCK_RECORD
  5
3B7E
330
1
100
AcDbSymbolTableRecord
100
AcDbBlockTableRecord
  2
*D10
  0
ENDTAB
  0
ENDSEC
  0
SECTION
  2
BLOCKS
  0
BLOCK
  5
20
330
1F
100
AcDbEntity
  8
0
100
AcDbBlockBegin
  2
*MODEL_SPACE
 70
     0
 10
0.0
 20
0.0
 30
0.0
  3
*MODEL_SPACE
  1

  0
ENDBLK
  5
21
330
1F
100
AcDbEntity
  8
0
100
AcDbBlockEnd
  0
BLOCK
  5
103
330
101
100
AcDbEntity
 67
     1
  8
0
100
AcDbBlockBegin
  2
*PAPER_SPACE
 70
     0
 10
0.0
 20
0.0
 30
0.0
  3
*PAPER_SPACE
  1

  0
ENDBLK
  5
104
330
101
100
AcDbEntity
 67
     1
  8
0
100
AcDbBlockEnd
  0
BLOCK
  5
5D
330
59
100
AcDbEntity
  8
0
100
AcDbBlockBegin
  2
_OPEN30
 70
     0
 10
0.0
 20
0.0
 30
0.0
  3
_OPEN30
  1

  0
LINE
  5
5A
330
59
100
AcDbEntity
  8
0
 62
     0
100
AcDbLine
 10
-1.0
 20
0.26794919
 30
0.0
 11
0.0
 21
0.0
 31
0.0
  0
LINE
  5
5B
330
59
100
AcDbEntity
  8
0
 62
     0
100
AcDbLine
 10
0.0
 20
0.0
 30
0.0
 11
-1.0
 21
-0.26794919
 31
0.0
  0
LINE
  5
5C
330
59
100
AcDbEntity
  8
0
 62
     0
100
AcDbLine
 10
0.0
 20
0.0
 30
0.0
 11
-1.0
 21
0.0
 31
0.0
  0
ENDBLK
  5
5E
330
59
100
AcDbEntity
  8
0
100
AcDbBlockEnd
  0
BLOCK
  5
66
330
64
100
AcDbEntity
  8
0
100
AcDbBlockBegin
  2
GENAXEH
 70
     0
 10
0.0
 20
0.0
 30
0.0
  3
GENAXEH
  1

  0
LINE
  5
65
330
64
100
AcDbEntity
  8
0
100
AcDbLine
 10
-1.0
 20
0.0
 30
0.0
 11
1.0
 21
0.0
 31
0.0
  0
ENDBLK
  5
67
330
64
100
AcDbEntity
  8
0
100
AcDbBlockEnd
  0
BLOCK
  5
3867
330
385D
100
AcDbEntity
  8
0
100
AcDbBlockBegin
  2
*D5
 70
     1
 10
0.0
 20
0.0
 30
0.0
  3
*D5
  1

  0
LINE
  5
4AE9
330
385D
100
AcDbEntity
  8
AM_5
 62
     3
100
AcDbLine
 10
0.0000472633151872
 20
31.49957220504775
 30
0.0
 11
17.15010319496515
 21
31.49957220504775
 31
0.0
  0
LINE
  5
4AEA
330
385D
100
AcDbEntity
  8
AM_5
 62
     3
100
AcDbLine
 10
0.0000472633151833
 20
-31.50042779495224
 30
0.0
 11
17.15010319496514
 21
-31.50042779495224
 31
0.0
  0
LINE
  5
4AEB
330
385D
100
AcDbEntity
  8
AM_5
 62
     3
100
AcDbLine
 10
16.15010319496515
 20
28.99957220504775
 30
0.0
 11
16.15010319496514
 21
-29.00042779495224
 31
0.0
  0
INSERT
  5
4AEC
330
385D
100
AcDbEntity
  8
AM_5
 62
     3
100
AcDbBlockReference
  2
_OPEN30
 10
16.15010319496515
 20
31.49957220504775
 30
0.0
 41
2.5
 42
2.5
 43
2.5
 50
90.0
  0
INSERT
  5
4AED
330
385D
100
AcDbEntity
  8
AM_5
 62
     3
100
AcDbBlockReference
  2
_OPEN30
 10
16.15010319496514
 20
-31.50042779495224
 30
0.0
 41
2.5
 42
2.5
 43
2.5
 50
270.0
  0
MTEXT
  5
4AEE
330
385D
100
AcDbEntity
  8
AM_5
 62
     2
100
AcDbMText
 10
12.75010319496514
 20
-0.0004277949522434
 30
0.0
 40
3.799999999999999
 41
0.0
 71
     5
 72
     1
  1
%%c63
 11
0.0000000000000001
 21
1.0
 31
0.0
1001
ACAD
1000
MTEXTBEGIN
1070
    73
1070
     1
1070
    44
1040
1.0
1070
    74
1070
     0
1000
MTEXTEND
  0
POINT
  5
4AEF
330
385D
100
AcDbEntity
  8
DEFPOINTS
 62
     0
100
AcDbPoint
 10
0.0000472633151872
 20
31.49957220504775
 30
0.0
  0
POINT
  5
4AF0
330
385D
100
AcDbEntity
  8
DEFPOINTS
 62
     0
100
AcDbPoint
 10
0.0000472633151833
 20
-31.50042779495224
 30
0.0
  0
POINT
  5
4AF1
330
385D
100
AcDbEntity
  8
DEFPOINTS
 62
     0
100
AcDbPoint
 10
16.15010319496514
 20
-31.50042779495224
 30
0.0
  0
ENDBLK
  5
3868
330
385D
100
AcDbEntity
  8
0
100
AcDbBlockEnd
  0
BLOCK
  5
38F3
330
38E9
100
AcDbEntity
  8
0
100
AcDbBlockBegin
  2
*D6
 70
     1
 10
0.0
 20
0.0
 30
0.0
  3
*D6
  1

  0
LINE
  5
4B28
330
38E9
100
AcDbEntity
  8
AM_5
 62
     3
100
AcDbLine
 10
0.0000472633151785
 20
31.49957220504775
 30
0.0
 11
0.0000472633151794
 21
46.60726973824776
 31
0.0
  0
LINE
  5
4B29
330
38E9
100
AcDbEntity
  8
AM_5
 62
     3
100
AcDbLine
 10
-12.99999999999999
 20
31.54759880129729
 30
0.0
 11
-12.99999999999999
 21
46.60726973824776
 31
0.0
  0
LINE
  5
4B2A
330
38E9
100
AcDbEntity
  8
AM_5
 62
     3
100
AcDbLine
 10
-2.49995273668482
 20
45.60726973824777
 30
0.0
 11
-10.49999999999999
 21
45.60726973824777
 31
0.0
  0
INSERT
  5
4B2B
330
38E9
100
AcDbEntity
  8
AM_5
 62
     3
100
AcDbBlockReference
  2
_OPEN30
 10
0.0000472633151794
 20
45.60726973824777
 30
0.0
 41
2.5
 42
2.5
 43
2.5
  0
INSERT
  5
4B2C
330
38E9
100
AcDbEntity
  8
AM_5
 62
     3
100
AcDbBlockReference
  2
_OPEN30
 10
-12.99999999999999
 20
45.60726973824777
 30
0.0
 41
2.5
 42
2.5
 43
2.5
 50
180.0
  0
MTEXT
  5
4B2D
330
38E9
100
AcDbEntity
  8
AM_5
 62
     2
100
AcDbMText
 10
-6.499976368342407
 20
49.00726973824776
 30
0.0
 40
3.799999999999999
 41
0.0
 71
     5
 72
     1
  1
13
1001
ACAD
1000
MTEXTBEGIN
1070
    73
1070
     1
1070
    44
1040
1.0
1070
    74
1070
     0
1000
MTEXTEND
  0
POINT
  5
4B2E
330
38E9
100
AcDbEntity
  8
DEFPOINTS
 62
     0
100
AcDbPoint
 10
0.0000472633151785
 20
31.49957220504775
 30
0.0
  0
POINT
  5
4B2F
330
38E9
100
AcDbEntity
  8
DEFPOINTS
 62
     0
100
AcDbPoint
 10
-12.99999999999999
 20
31.54759880129729
 30
0.0
  0
POINT
  5
4B30
330
38E9
100
AcDbEntity
  8
DEFPOINTS
 62
     0
100
AcDbPoint
 10
-12.99999999999999
 20
45.60726973824777
 30
0.0
  0
ENDBLK
  5
38F4
330
38E9
100
AcDbEntity
  8
0
100
AcDbBlockEnd
  0
BLOCK
  5
398E
330
3984
100
AcDbEntity
  8
0
100
AcDbBlockBegin
  2
*D7
 70
     1
 10
0.0
 20
0.0
 30
0.0
  3
*D7
  1

  0
LINE
  5
4B31
330
3984
100
AcDbEntity
  8
AM_5
 62
     3
100
AcDbLine
 10
-0.0000000000000012
 20
-31.50042779495224
 30
0.0
 11
-0.0000000000000021
 21
-46.50042879495232
 31
0.0
  0
LINE
  5
4B32
330
3984
100
AcDbEntity
  8
AM_5
 62
     3
100
AcDbLine
 10
-40.02870029527482
 20
-24.00042779495223
 30
0.0
 11
-40.02870029527482
 21
-46.50042879495232
 31
0.0
  0
LINE
  5
4B33
330
3984
100
AcDbEntity
  8
AM_5
 62
     3
100
AcDbLine
 10
-2.500000000000002
 20
-45.50042879495232
 30
0.0
 11
-37.52870029527482
 21
-45.50042879495232
 31
0.0
  0
INSERT
  5
4B34
330
3984
100
AcDbEntity
  8
AM_5
 62
     3
100
AcDbBlockReference
  2
_OPEN30
 10
-0.000000000000002
 20
-45.50042879495232
 30
0.0
 41
2.5
 42
2.5
 43
2.5
  0
INSERT
  5
4B35
330
3984
100
AcDbEntity
  8
AM_5
 62
     3
100
AcDbBlockReference
  2
_OPEN30
 10
-40.02870029527482
 20
-45.50042879495232
 30
0.0
 41
2.5
 42
2.5
 43
2.5
 50
180.0
  0
MTEXT
  5
4B36
330
3984
100
AcDbEntity
  8
AM_5
 62
     2
100
AcDbMText
 10
-20.01435014763741
 20
-42.10042879495232
 30
0.0
 40
3.799999999999999
 41
0.0
 71
     5
 72
     1
  1
40
1001
ACAD
1000
MTEXTBEGIN
1070
    73
1070
     1
1070
    44
1040
1.0
1070
    74
1070
     0
1000
MTEXTEND
  0
POINT
  5
4B37
330
3984
100
AcDbEntity
  8
DEFPOINTS
 62
     0
100
AcDbPoint
 10
-0.0000000000000012
 20
-31.50042779495224
 30
0.0
  0
POINT
  5
4B38
330
3984
100
AcDbEntity
  8
DEFPOINTS
 62
     0
100
AcDbPoint
 10
-40.02870029527482
 20
-24.00042779495223
 30
0.0
  0
POINT
  5
4B39
330
3984
100
AcDbEntity
  8
DEFPOINTS
 62
     0
100
AcDbPoint
 10
-40.02870029527482
 20
-45.50042879495232
 30
0.0
  0
ENDBLK
  5
398F
330
3984
100
AcDbEntity
  8
0
100
AcDbBlockEnd
  0
BLOCK
  5
3A16
330
3A0C
100
AcDbEntity
  8
0
100
AcDbBlockBegin
  2
*D8
 70
     1
 10
0.0
 20
0.0
 30
0.0
  3
*D8
  1

  0
LINE
  5
4B3A
330
3A0C
100
AcDbEntity
  8
AM_5
 62
     3
100
AcDbLine
 10
-40.02870029527482
 20
-24.00042779495223
 30
0.0
 11
-40.02870029527482
 21
-46.50042879495273
 31
0.0
  0
LINE
  5
4B3B
330
3A0C
100
AcDbEntity
  8
AM_5
 62
     3
100
AcDbLine
 10
-250.0287002952747
 20
-18.66143853714222
 30
0.0
 11
-250.0287002952747
 21
-46.50042879495273
 31
0.0
  0
LINE
  5
4B3C
330
3A0C
100
AcDbEntity
  8
AM_5
 62
     3
100
AcDbLine
 10
-42.52870029527482
 20
-45.50042879495274
 30
0.0
 11
-247.5287002952748
 21
-45.50042879495274
 31
0.0
  0
INSERT
  5
4B3D
330
3A0C
100
AcDbEntity
  8
AM_5
 62
     3
100
AcDbBlockReference
  2
_OPEN30
 10
-40.02870029527482
 20
-45.50042879495274
 30
0.0
 41
2.5
 42
2.5
 43
2.5
  0
INSERT
  5
4B3E
330
3A0C
100
AcDbEntity
  8
AM_5
 62
     3
100
AcDbBlockReference
  2
_OPEN30
 10
-250.0287002952747
 20
-45.50042879495274
 30
0.0
 41
2.5
 42
2.5
 43
2.5
 50
180.0
  0
MTEXT
  5
4B3F
330
3A0C
100
AcDbEntity
  8
AM_5
 62
     2
100
AcDbMText
 10
-145.0287002952748
 20
-42.10042879495274
 30
0.0
 40
3.799999999999999
 41
0.0
 71
     5
 72
     1
  1
210
1001
ACAD
1000
MTEXTBEGIN
1070
    73
1070
     1
1070
    44
1040
1.0
1070
    74
1070
     0
1000
MTEXTEND
  0
POINT
  5
4B40
330
3A0C
100
AcDbEntity
  8
DEFPOINTS
 62
     0
100
AcDbPoint
 10
-40.02870029527482
 20
-24.00042779495223
 30
0.0
  0
POINT
  5
4B41
330
3A0C
100
AcDbEntity
  8
DEFPOINTS
 62
     0
100
AcDbPoint
 10
-250.0287002952747
 20
-18.66143853714222
 30
0.0
  0
POINT
  5
4B42
330
3A0C
100
AcDbEntity
  8
DEFPOINTS
 62
     0
100
AcDbPoint
 10
-250.0287002952747
 20
-45.50042879495274
 30
0.0
  0
ENDBLK
  5
3A17
330
3A0C
100
AcDbEntity
  8
0
100
AcDbBlockEnd
  0
BLOCK
  5
3B00
330
3AF6
100
AcDbEntity
  8
0
100
AcDbBlockBegin
  2
*D9
 70
     1
 10
0.0
 20
0.0
 30
0.0
  3
*D9
  1

  0
LINE
  5
4B16
330
3AF6
100
AcDbEntity
  8
AM_5
 62
     3
100
AcDbLine
 10
-250.0287002952747
 20
-18.66143853714222
 30
0.0
 11
-250.0287002952747
 21
-56.50042879495224
 31
0.0
  0
LINE
  5
4B17
330
3AF6
100
AcDbEntity
  8
AM_5
 62
     3
100
AcDbLine
 10
-0.0000000000000012
 20
-31.50042779495224
 30
0.0
 11
-0.0000000000000027
 21
-56.50042879495224
 31
0.0
  0
LINE
  5
4B18
330
3AF6
100
AcDbEntity
  8
AM_5
 62
     3
100
AcDbLine
 10
-247.5287002952748
 20
-55.50042879495224
 30
0.0
 11
-2.500000000000002
 21
-55.50042879495224
 31
0.0
  0
INSERT
  5
4B19
330
3AF6
100
AcDbEntity
  8
AM_5
 62
     3
100
AcDbBlockReference
  2
_OPEN30
 10
-250.0287002952747
 20
-55.50042879495224
 30
0.0
 41
2.5
 42
2.5
 43
2.5
 50
180.0
  0
INSERT
  5
4B1A
330
3AF6
100
AcDbEntity
  8
AM_5
 62
     3
100
AcDbBlockReference
  2
_OPEN30
 10
-0.0000000000000026
 20
-55.50042879495224
 30
0.0
 41
2.5
 42
2.5
 43
2.5
  0
MTEXT
  5
4B1B
330
3AF6
100
AcDbEntity
  8
AM_5
 62
     2
100
AcDbMText
 10
-125.0143501476373
 20
-52.10042879495224
 30
0.0
 40
3.799999999999999
 41
0.0
 71
     5
 72
     1
  1
250
1001
ACAD
1000
MTEXTBEGIN
1070
    73
1070
     1
1070
    44
1040
1.0
1070
    74
1070
     0
1000
MTEXTEND
  0
POINT
  5
4B1C
330
3AF6
100
AcDbEntity
  8
DEFPOINTS
 62
     0
100
AcDbPoint
 10
-250.0287002952747
 20
-18.66143853714222
 30
0.0
  0
POINT
  5
4B1D
330
3AF6
100
AcDbEntity
  8
DEFPOINTS
 62
     0
100
AcDbPoint
 10
-0.0000000000000012
 20
-31.50042779495224
 30
0.0
  0
POINT
  5
4B1E
330
3AF6
100
AcDbEntity
  8
DEFPOINTS
 62
     0
100
AcDbPoint
 10
-0.0000000000000026
 20
-55.50042879495224
 30
0.0
  0
ENDBLK
  5
3B01
330
3AF6
100
AcDbEntity
  8
0
100
AcDbBlockEnd
  0
BLOCK
  5
3B88
330
3B7E
100
AcDbEntity
  8
0
100
AcDbBlockBegin
  2
*D10
 70
     1
 10
0.0
 20
0.0
 30
0.0
  3
*D10
  1

  0
LINE
  5
4AE0
330
3B7E
100
AcDbEntity
  8
AM_5
 62
     3
100
AcDbLine
 10
-246.2131101553739
 20
-21.00041400626523
 30
0.0
 11
-269.3631576103775
 21
-21.00041400626522
 31
0.0
  0
LINE
  5
4AE1
330
3B7E
100
AcDbEntity
  8
AM_5
 62
     3
100
AcDbLine
 10
-246.2131498549804
 20
20.99958647049592
 30
0.0
 11
-269.3631576103775
 21
20.99958647049593
 31
0.0
  0
LINE
  5
4AE2
330
3B7E
100
AcDbEntity
  8
AM_5
 62
     3
100
AcDbLine
 10
-268.3631576103775
 20
-18.50041400626522
 30
0.0
 11
-268.3631576103775
 21
18.49958647049592
 31
0.0
  0
INSERT
  5
4AE3
330
3B7E
100
AcDbEntity
  8
AM_5
 62
     3
100
AcDbBlockReference
  2
_OPEN30
 10
-268.3631576103775
 20
-21.00041400626522
 30
0.0
 41
2.5
 42
2.5
 43
2.5
 50
270.0
  0
INSERT
  5
4AE4
330
3B7E
100
AcDbEntity
  8
AM_5
 62
     3
100
AcDbBlockReference
  2
_OPEN30
 10
-268.3631576103775
 20
20.99958647049593
 30
0.0
 41
2.5
 42
2.5
 43
2.5
 50
90.0
  0
MTEXT
  5
4AE5
330
3B7E
100
AcDbEntity
  8
AM_5
 62
     2
100
AcDbMText
 10
-271.7631576103775
 20
-0.0000295639053189
 30
0.0
 40
3.799999999999999
 41
0.0
 71
     5
 72
     1
  1
%%c42
 11
0.0000000000000001
 21
1.0
 31
0.0
1001
ACAD
1000
MTEXTBEGIN
1070
    73
1070
     1
1070
    44
1040
1.0
1070
    74
1070
     0
1000
MTEXTEND
  0
POINT
  5
4AE6
330
3B7E
100
AcDbEntity
  8
DEFPOINTS
 62
     0
100
AcDbPoint
 10
-246.2131101553739
 20
-21.00041400626523
 30
0.0
  0
POINT
  5
4AE7
330
3B7E
100
AcDbEntity
  8
DEFPOINTS
 62
     0
100
AcDbPoint
 10
-246.2131498549804
 20
20.99958647049592
 30
0.0
  0
POINT
  5
4AE8
330
3B7E
100
AcDbEntity
  8
DEFPOINTS
 62
     0
100
AcDbPoint
 10
-268.3631576103775
 20
20.99958647049593
 30
0.0
  0
ENDBLK
  5
3B89
330
3B7E
100
AcDbEntity
  8
0
100
AcDbBlockEnd
  0
ENDSEC
  0
SECTION
  2
ENTITIES
  0
TEXT
  5
1142
330
1F
100
AcDbEntity
  8
AM_6
100
AcDbText
 10
-151.681016814304
 20
-78.00042879495224
 30
0.0
 40
5.0
  1
WEM3063EL-C
 72
     4
 11
-125.0143501476373
 21
-75.50042879495224
 31
0.0
100
AcDbText
  0
DIMENSION
  5
385C
330
1F
100
AcDbEntity
  8
AM_5
100
AcDbDimension
  2
*D5
 10
16.15010319496514
 20
-31.50042779495224
 30
0.0
 11
12.75010319496514
 21
-0.0004277949522434
 31
0.0
 70
    32
  1
%%c<>
  3
AM_JIS$0
100
AcDbAlignedDimension
 13
0.0000472633151872
 23
31.49957220504775
 33
0.0
 14
0.0000472633151833
 24
-31.50042779495224
 34
0.0
 50
90.00000000000003
100
AcDbRotatedDimension
1001
ACAD
1000
DSTYLE
1002
{
1070
   271
1070
     0
1002
}
1001
GENIUS_GENDTOL_13
1000

1000
h7
1000

1040
0.0
  0
DIMENSION
  5
38E8
330
1F
100
AcDbEntity
  8
AM_5
100
AcDbDimension
  2
*D6
 10
-12.99999999999999
 20
45.60726973824777
 30
0.0
 11
-6.499976368342407
 21
49.00726973824776
 31
0.0
 70
    32
  1
<>
  3
AM_JIS$0
100
AcDbAlignedDimension
 13
0.0000472633151785
 23
31.49957220504775
 33
0.0
 14
-12.99999999999999
 24
31.54759880129729
 34
0.0
 50
180.0
100
AcDbRotatedDimension
1001
ACAD
1000
DSTYLE
1002
{
1070
   271
1070
     0
1002
}
1001
GENIUS_GENDTOL_13
1000

1000
h7
1000

1040
0.0
  0
DIMENSION
  5
3983
330
1F
100
AcDbEntity
  8
AM_5
100
AcDbDimension
  2
*D7
 10
-40.02870029527482
 20
-45.50042879495232
 30
0.0
 11
-20.01435014763741
 21
-42.10042879495232
 31
0.0
 70
    32
  1
<>
  3
AM_JIS$0
100
AcDbAlignedDimension
 13
-0.0000000000000012
 23
-31.50042779495224
 33
0.0
 14
-40.02870029527482
 24
-24.00042779495223
 34
0.0
 50
0.0000000000001132
100
AcDbRotatedDimension
1001
ACAD
1000
DSTYLE
1002
{
1070
   271
1070
     0
1002
}
1001
GENIUS_GENDTOL_13
1000

1000
h7
1000

1040
0.0
  0
DIMENSION
  5
3A0B
330
1F
100
AcDbEntity
  8
AM_5
100
AcDbDimension
  2
*D8
 10
-250.0287002952747
 20
-45.50042879495274
 30
0.0
 11
-145.0287002952748
 21
-42.10042879495274
 31
0.0
 70
    32
  1
<>
  3
AM_JIS$0
100
AcDbAlignedDimension
 13
-40.02870029527482
 23
-24.00042779495223
 33
0.0
 14
-250.0287002952747
 24
-18.66143853714222
 34
0.0
 50
0.0000000000001132
100
AcDbRotatedDimension
1001
ACAD
1000
DSTYLE
1002
{
1070
   271
1070
     0
1002
}
1001
GENIUS_GENDTOL_13
1000

1000
h7
1000

1040
0.0
  0
DIMENSION
  5
3AF5
330
1F
100
AcDbEntity
  8
AM_5
100
AcDbDimension
  2
*D9
 10
-0.0000000000000026
 20
-55.50042879495224
 30
0.0
 11
-125.0143501476373
 21
-52.10042879495224
 31
0.0
 70
    32
  1
<>
  3
AM_JIS$0
100
AcDbAlignedDimension
 13
-250.0287002952747
 23
-18.66143853714222
 33
0.0
 14
-0.0000000000000012
 24
-31.50042779495224
 34
0.0
 50
0.0000000000001132
100
AcDbRotatedDimension
1001
ACAD
1000
DSTYLE
1002
{
1070
   271
1070
     0
1002
}
1001
GENIUS_GENDTOL_13
1000

1000
h7
1000

1040
0.0
  0
DIMENSION
  5
3B7D
330
1F
100
AcDbEntity
  8
AM_5
100
AcDbDimension
  2
*D10
 10
-268.3631576103775
 20
20.99958647049593
 30
0.0
 11
-268.3631576103775
 21
-0.0000295639053193
 31
0.0
 70
   160
  1
%%c<>
  3
AM_JIS$0
100
AcDbAlignedDimension
 13
-246.2131101553739
 23
-21.00041400626523
 33
0.0
 14
-246.2131498549804
 24
20.99958647049592
 34
0.0
 50
270.0
100
AcDbRotatedDimension
1001
ACAD
1000
DSTYLE
1002
{
1070
   271
1070
     0
1002
}
1001
GENIUS_GENDTOL_13
1000

1000
h7
1000

1040
0.0
  0
LINE
  5
4910
330
1F
100
AcDbEntity
  8
AM_7
  6
AM_ISO08W050X2
100
AcDbLine
 10
2.150102194965178
 20
-0.0004277949522405
 30
0.0
 11
-254.3631566103775
 21
-0.0004277949522183
 31
0.0
  0
SPLINE
  5
4940
330
1F
100
AcDbEntity
  8
AM_0
100
AcDbSpline
210
0.0
220
0.0
230
1.0
 70
     8
 71
     3
 72
    11
 73
     7
 74
     5
 42
0.0000000001
 43
0.0000000001
 44
0.0000000001
 40
0.0
 40
0.0
 40
0.0
 40
0.0
 40
1.033177988434011
 40
2.066500344688713
 40
3.095717972997414
 40
4.113532093120149
 40
4.113532093120149
 40
4.113532093120149
 40
4.113532093120149
 10
-5.519667092144821
 20
-0.2064214472922379
 30
0.0
 10
-5.513776441345717
 20
0.1393785530560208
 30
0.0
 10
-5.501994316636265
 20
0.8310268730092429
 30
0.0
 10
-5.698525240109357
 20
1.840900310285043
 30
0.0
 10
-6.089945801122489
 20
2.84167310469945
 30
0.0
 10
-6.687554275177345
 20
3.206935467582235
 30
0.0
 10
-6.984693947614822
 20
3.38854925582776
 30
0.0
 11
-5.519667092144821
 21
-0.2064214472922379
 31
0.0
 11
-5.537733498394821
 21
0.8265985722377616
 31
0.0
 11
-5.731703224964824
 21
1.841552185517761
 31
0.0
 11
-6.176710549184825
 21
2.76959173629776
 31
0.0
 11
-6.984693947614822
 21
3.38854925582776
 31
0.0
  0
ELLIPSE
  5
4941
330
1F
100
AcDbEntity
  8
AM_0
100
AcDbEllipse
 10
-7.639662209334822
 20
-0.0544439082322388
 30
0.0
 11
-1.553955123810002
 21
-30.56555204288997
 31
0.0
210
0.0
220
0.0
230
1.0
 40
0.069430885209
 41
1.363595403347258
 42
1.569371444104485
  0
ELLIPSE
  5
4942
330
1F
100
AcDbEntity
  8
AM_0
100
AcDbEllipse
 10
-74.05375522691482
 20
12.66760199020777
 30
0.0
 11
418.1174217994499
 21
-28.72486651747003
 31
0.0
210
0.0
220
0.0
230
0.9999999999999998
 40
0.0349103404124
 41
4.868697670800708
 42
4.878739369078405
  0
ELLIPSE
  5
494D
330
1F
100
AcDbEntity
  8
AM_0
100
AcDbEllipse
 10
-11.17069858628482
 20
0.0435785527077628
 30
0.0
 11
318.4603556808699
 21
-21.87837849155003
 31
0.0
210
0.0
220
0.0
230
0.9999999999999998
 40
0.0390338205477
 41
4.656787258852465
 42
4.662095028049316
  0
ELLIPSE
  5
494E
330
1F
100
AcDbEntity
  8
AM_0
100
AcDbEllipse
 10
15.14625698011517
 20
-0.0004277949522421
 30
0.0
 11
-50.21086034013001
 21
-23.08856102739996
 31
0.0
210
0.0
220
0.0
230
1.0
 40
0.1912970015467
 41
5.791888889249309
 42
6.67559607269691
  0
SPLINE
  5
494F
330
1F
100
AcDbEntity
  8
AM_0
100
AcDbSpline
210
0.0
220
0.0
230
1.0
 70
    24
 71
     3
 72
     8
 73
     4
 74
     2
 42
0.0000000001
 43
0.0000000001
 44
0.0000000001
 40
0.0
 40
0.0
 40
0.0
 40
0.0
 40
0.0870667092220481
 40
0.0870667092220481
 40
0.0870667092220481
 40
0.0870667092220481
 10
-31.33473056871482
 20
24.98559515426776
 30
0.0
 10
-31.36337640204815
 20
24.99025417119443
 30
0.0
 10
-31.39202223538148
 20
24.99491318812109
 30
0.0
 10
-31.42066806871482
 20
24.99957220504776
 30
0.0
 11
-31.33473056871482
 21
24.98559515426776
 31
0.0
 11
-31.42066806871482
 21
24.99957220504776
 31
0.0
  0
SPLINE
  5
4950
330
1F
100
AcDbEntity
  8
AM_0
100
AcDbSpline
210
0.0
220
0.0
230
1.0
 70
     8
 71
     3
 72
    11
 73
     7
 74
     5
 42
0.0000000001
 43
0.0000000001
 44
0.0000000001
 40
0.0
 40
0.0
 40
0.0
 40
0.0
 40
1.659255766400242
 40
3.317845366402141
 40
4.976854065155777
 40
6.637423456048407
 40
6.637423456048407
 40
6.637423456048407
 40
6.637423456048407
 10
-1.656691017934828
 20
-20.94043023636224
 30
0.0
 10
-1.635998732487403
 20
-21.49312993104686
 30
0.0
 10
-1.594622469235985
 20
-22.59830741974686
 30
0.0
 10
-1.520867358783661
 20
-24.25562809976173
 30
0.0
 10
-1.439849510784392
 20
-25.91305086184219
 30
0.0
 10
-1.37710426799606
 20
-27.01780056820272
 30
0.0
 10
-1.345716896834825
 20
-27.57043511917224
 30
0.0
 11
-1.656691017934828
 21
-20.94043023636224
 31
0.0
 11
-1.592665139024826
 21
-22.59845025589224
 31
0.0
 11
-1.519667092144824
 21
-24.25543267776224
 31
0.0
 11
-1.437696877304826
 21
-25.91241509964224
 31
0.0
 11
-1.345716896834825
 21
-27.57043511917224
 31
0.0
  0
ELLIPSE
  5
4951
330
1F
100
AcDbEntity
  8
AM_0
100
AcDbEllipse
 10
-7.284712258164827
 20
-28.97143609573224
 30
0.0
 11
2.007904009979994
 21
-0.0212400588200128
 31
0.0
210
0.0
220
0.0
230
0.9999999999999998
 40
0.4994910493431
 41
1.425614967039056
 42
1.825933014820355
  0
SPLINE
  5
4952
330
1F
100
AcDbEntity
  8
AM_0
100
AcDbSpline
210
0.0
220
0.0
230
1.0
 70
     8
 71
     3
 72
    11
 73
     7
 74
     5
 42
0.0000000001
 43
0.0000000001
 44
0.0000000001
 40
0.0
 40
0.0
 40
0.0
 40
0.0
 40
0.1281332769317159
 40
0.2520322537996729
 40
0.3724867235431883
 40
0.4892351080154361
 40
0.4892351080154361
 40
0.4892351080154361
 40
0.4892351080154361
 10
-19.02870029527482
 20
-28.05645806839224
 30
0.0
 10
-19.07141332108729
 20
-28.05512609837654
 30
0.0
 10
-19.15542787546301
 20
-28.05250617470729
 30
0.0
 10
-19.27874744690777
 20
-28.03693184355726
 30
0.0
 10
-19.39708519028926
 20
-28.01386180496571
 30
0.0
 10
-19.47256708387842
 20
-27.99013378432904
 30
0.0
 10
-19.50971836168482
 20
-27.97845513870223
 30
0.0
 11
-19.02870029527482
 21
-28.05645806839224
 31
0.0
 11
-19.15669101793483
 21
-28.05041558792224
 31
0.0
 11
-19.27967685777482
 21
-28.03540093948223
 31
0.0
 11
-19.39771884996482
 21
-28.01141412308224
 31
0.0
 11
-19.50971836168482
 21
-27.97845513870223
 31
0.0
  0
SPLINE
  5
4953
330
1F
100
AcDbEntity
  8
AM_0
100
AcDbSpline
210
0.0
220
0.0
230
1.0
 70
     8
 71
     3
 72
    11
 73
     7
 74
     5
 42
0.0000000001
 43
0.0000000001
 44
0.0000000001
 40
0.0
 40
0.0
 40
0.0
 40
0.0
 40
0.1582341222676987
 40
0.3335679003408215
 40
0.5453343336116477
 40
0.798126153663417
 40
0.798126153663417
 40
0.798126153663417
 40
0.798126153663417
 10
-20.02870029527482
 20
-27.43444879104223
 30
0.0
 10
-20.0218282920559
 20
-27.48738222283797
 30
0.0
 10
-20.0073416588821
 20
-27.59896936629914
 30
0.0
 10
-19.90107903730156
 20
-27.7535574508504
 30
0.0
 10
-19.73244170437711
 20
-27.88819720958298
 30
0.0
 10
-19.58820533932233
 20
-27.94664853963292
 30
0.0
 10
-19.50971836168482
 20
-27.97845513870223
 30
0.0
 11
-20.02870029527482
 21
-27.43444879104223
 31
0.0
 11
-19.99671787339482
 21
-27.58941705276223
 31
0.0
 11
-19.90272373277482
 21
-27.73742730667223
 31
0.0
 11
-19.73872226793482
 21
-27.87139947464224
 31
0.0
 11
-19.50971836168482
 21
-27.97845513870223
 31
0.0
  0
SPLINE
  5
4954
330
1F
100
AcDbEntity
  8
AM_0
100
AcDbSpline
210
0.0
220
0.0
230
1.0
 70
     8
 71
     3
 72
    11
 73
     7
 74
     5
 42
0.0000000001
 43
0.0000000001
 44
0.0000000001
 40
0.0
 40
0.0
 40
0.0
 40
0.0
 40
1.238658361734802
 40
2.381529121313801
 40
3.428626597367268
 40
4.381163782704154
 40
4.381163782704154
 40
4.381163782704154
 40
4.381163782704154
 10
-21.34467929918482
 20
-25.99743707229223
 30
0.0
 10
-21.75254419758369
 20
-25.93321165857738
 30
0.0
 10
-22.53673309349377
 20
-25.80972749392352
 30
0.0
 10
-23.66786162649476
 20
-25.64618039992208
 30
0.0
 10
-24.70598183038768
 20
-25.50587711500955
 30
0.0
 10
-25.3682530042944
 20
-25.43037539587971
 30
0.0
 10
-25.68372959214482
 20
-25.39440972854223
 30
0.0
 11
-21.34467929918482
 21
-25.99743707229223
 31
0.0
 11
-22.56867832261482
 21
-25.80743463089223
 31
0.0
 11
-23.69972080308482
 21
-25.64343316604223
 31
0.0
 11
-24.73768467027483
 21
-25.50543267776223
 31
0.0
 11
-25.68372959214482
 21
-25.39440972854223
 31
0.0
  0
SPLINE
  5
4955
330
1F
100
AcDbEntity
  8
AM_0
100
AcDbSpline
210
0.0
220
0.0
230
1.0
 70
     8
 71
     3
 72
    11
 73
     7
 74
     5
 42
0.0000000001
 43
0.0000000001
 44
0.0000000001
 40
0.0
 40
0.0
 40
0.0
 40
0.0
 40
0.3759354259190696
 40
0.7955702133548385
 40
1.296474763615885
 40
1.888466071258157
 40
1.888466071258157
 40
1.888466071258157
 40
1.888466071258157
 10
-20.02870029527482
 20
-27.15942437698223
 30
0.0
 10
-20.0473466015158
 20
-27.03349487395017
 30
0.0
 10
-20.0868066917644
 20
-26.76699761221976
 30
0.0
 10
-20.37049277862732
 20
-26.41898642043828
 30
0.0
 10
-20.79624977332858
 20
-26.13648367256171
 30
0.0
 10
-21.15198656651976
 20
-26.04629160712399
 30
0.0
 10
-21.34467929918482
 20
-25.99743707229223
 30
0.0
 11
-20.02870029527482
 21
-27.15942437698223
 31
0.0
 11
-20.11469883043483
 21
-26.79345758011224
 31
0.0
 11
-20.36469883043483
 21
-26.45642144729223
 31
0.0
 11
-20.78071445543482
 21
-26.17742974808224
 31
0.0
 11
-21.34467929918482
 21
-25.99743707229223
 31
0.0
  0
ELLIPSE
  5
4956
330
1F
100
AcDbEntity
  8
AM_0
100
AcDbEllipse
 10
145.7102828590251
 20
57.37362616012774
 30
0.0
 11
-177.5809248294198
 21
-79.72914230499997
 31
0.0
210
0.0
220
0.0
230
1.0
 40
0.1304748417039
 41
0.1596056986507233
 42
0.2114492825460202
  0
ELLIPSE
  5
4957
330
1F
100
AcDbEntity
  8
AM_0
100
AcDbEllipse
 10
15.14625698011517
 20
-0.0004277949522421
 30
0.0
 11
-50.21086034013001
 21
-23.08856102739996
 31
0.0
210
0.0
220
0.0
230
1.0
 40
0.1912970015467
 41
0.3924107655173242
 42
0.453675948225052
  0
SPLINE
  5
4958
330
1F
100
AcDbEntity
  8
AM_0
100
AcDbSpline
210
0.0
220
0.0
230
1.0
 70
     8
 71
     3
 72
    11
 73
     7
 74
     5
 42
0.0000000001
 43
0.0000000001
 44
0.0000000001
 40
0.0
 40
0.0
 40
0.0
 40
0.0
 40
0.2575198304093687
 40
0.68264960304247
 40
1.145689347416721
 40
1.61669764819672
 40
1.61669764819672
 40
1.61669764819672
 40
1.61669764819672
 10
-31.33473056871482
 20
24.98559515426776
 30
0.0
 10
-31.24908471535916
 20
24.97965803306957
 30
0.0
 10
-31.02204935383949
 20
24.96391954247365
 30
0.0
 10
-30.64005542921853
 20
24.95825185109897
 30
0.0
 10
-30.18707034854857
 20
24.95231077864391
 30
0.0
 10
-29.87571069842435
 20
24.95313571181483
 30
0.0
 10
-29.71870273668482
 20
24.95355169723776
 30
0.0
 11
-31.33473056871482
 21
24.98559515426776
 31
0.0
 11
-31.07771152574482
 21
24.96954290816776
 31
0.0
 11
-30.65272373277482
 21
24.95855658004776
 31
0.0
 11
-30.18971103746482
 21
24.95355169723776
 31
0.0
 11
-29.71870273668482
 21
24.95355169723776
 31
0.0
  0
ELLIPSE
  5
4959
330
1F
100
AcDbEntity
  8
AM_0
100
AcDbEllipse
 10
-11.23570102769482
 20
-0.0134282832322383
 30
0.0
 11
-391.0399780273399
 21
0.0000000000000479
 31
0.0
210
0.0
220
0.0
230
1.0
 40
0.0786697069785
 41
4.724800080173751
 42
4.73227463756769
  0
SPLINE
  5
495A
330
1F
100
AcDbEntity
  8
AM_0
100
AcDbSpline
210
0.0
220
0.0
230
1.0
 70
     8
 71
     3
 72
    11
 73
     7
 74
     5
 42
0.0000000001
 43
0.0000000001
 44
0.0000000001
 40
0.0
 40
0.0
 40
0.0
 40
0.0
 40
0.3904611720824693
 40
0.7812465948444667
 40
1.172609085500102
 40
1.562112413196283
 40
1.562112413196283
 40
1.562112413196283
 40
1.562112413196283
 10
-20.02870029527481
 20
29.73956243941776
 30
0.0
 10
-20.01373145955375
 20
29.87071852293666
 30
0.0
 10
-19.98378135754105
 20
30.13313960592371
 30
0.0
 10
-19.75206165606651
 20
30.46409179500446
 30
0.0
 10
-19.42185289218675
 20
30.69660820268644
 30
0.0
 10
-19.15954298307694
 20
30.72661094511781
 30
0.0
 10
-19.02870029527482
 20
30.74157659957776
 30
0.0
 11
-20.02870029527481
 21
29.73956243941776
 31
0.0
 11
-19.95271152574482
 21
30.12255804488776
 31
0.0
 11
-19.73573154527482
 21
30.44757025191776
 31
0.0
 11
-19.41071933824482
 21
30.66558783004776
 31
0.0
 11
-19.02870029527482
 21
30.74157659957776
 31
0.0
  0
SPLINE
  5
495B
330
1F
100
AcDbEntity
  8
AM_0
100
AcDbSpline
210
0.0
220
0.0
230
1.0
 70
     8
 71
     3
 72
    11
 73
     7
 74
     5
 42
0.0000000001
 43
0.0000000001
 44
0.0000000001
 40
0.0
 40
0.0
 40
0.0
 40
0.0
 40
0.6101591982011666
 40
1.220172593287037
 40
1.829113498515241
 40
2.43643218393985
 40
2.43643218393985
 40
2.43643218393985
 40
2.43643218393985
 10
-20.02870029527481
 20
29.30157415816776
 30
0.0
 10
-20.04683783994768
 20
29.09723113149203
 30
0.0
 10
-20.08310859516138
 20
28.68859390777384
 30
0.0
 10
-20.36891007689969
 20
28.13598019754794
 30
0.0
 10
-20.78982707681209
 20
27.67930611451125
 30
0.0
 10
-21.15989308697946
 20
27.50541042725118
 30
0.0
 10
-21.34467929918482
 20
27.41857855270776
 30
0.0
 11
-20.02870029527481
 21
29.30157415816776
 31
0.0
 11
-20.12171787339481
 21
28.69854681441776
 31
0.0
 11
-20.39173740464482
 21
28.15154974410776
 31
0.0
 11
-20.81269687730482
 21
27.71154730270776
 31
0.0
 11
-21.34467929918482
 21
27.41857855270776
 31
0.0
  0
ELLIPSE
  5
495C
330
1F
100
AcDbEntity
  8
AM_0
100
AcDbEllipse
 10
-11.24375766832482
 20
0.0065912480177617
 30
0.0
 11
-317.80596923828
 21
0.0000000000000389
 31
0.0
210
0.0
220
0.0
230
1.0
 40
0.0786422640737
 41
4.765179366282269
 42
4.770584660006855
  0
SPLINE
  5
495D
330
1F
100
AcDbEntity
  8
AM_0
100
AcDbSpline
210
0.0
220
0.0
230
1.0
 70
     8
 71
     3
 72
    11
 73
     7
 74
     5
 42
0.0000000001
 43
0.0000000001
 44
0.0000000001
 40
0.0
 40
0.0
 40
0.0
 40
0.0
 40
0.0609829488595117
 40
0.2340899827184227
 40
0.4942545037835568
 40
0.8004209196086817
 40
0.8004209196086817
 40
0.8004209196086817
 40
0.8004209196086817
 10
-1.77070468980482
 20
17.61157171676775
 30
0.0
 10
-1.770389798685764
 20
17.6318971076208
 30
0.0
 10
-1.769181053323385
 20
17.70991843132714
 30
0.0
 10
-1.763737938659445
 20
17.87458780209262
 30
0.0
 10
-1.755226099329681
 20
18.12091645280524
 30
0.0
 10
-1.748396104085325
 20
18.3095704976811
 30
0.0
 10
-1.744703713244821
 20
18.41155950973776
 30
0.0
 11
-1.77070468980482
 21
17.61157171676775
 31
0.0
 11
-1.769667092144819
 21
17.67254583785775
 31
0.0
 11
-1.76466220933482
 21
17.84558050582775
 31
0.0
 11
-1.755690041364819
 21
18.10559027145776
 31
0.0
 11
-1.744703713244821
 21
18.41155950973776
 31
0.0
  0
ELLIPSE
  5
495E
330
1F
100
AcDbEntity
  8
AM_0
100
AcDbEllipse
 10
-14.09568637925481
 20
33.05157415816776
 30
0.0
 11
-15.03665211664002
 21
-7.44989038100999
 31
0.0
210
0.0
220
0.0
230
1.0
 40
0.8604370683856
 41
0.4864230047737834
 42
0.5387217236724397
  0
ELLIPSE
  5
495F
330
1F
100
AcDbEntity
  8
AM_0
100
AcDbEllipse
 10
15.14625698011517
 20
-0.0004277949522421
 30
0.0
 11
50.16728295379006
 21
-22.31872725519996
 31
0.0
210
0.0
220
0.0
230
1.0
 40
0.2238475357458
 41
2.835627037212712
 42
3.78236571849839
  0
ELLIPSE
  5
4960
330
1F
100
AcDbEntity
  8
AM_0
100
AcDbEllipse
 10
-16.73667759019481
 20
33.14355413863776
 30
0.0
 11
9.555695146469984
 21
-11.73956206383997
 31
0.0
210
0.0
220
0.0
230
1.0
 40
0.9789253472561
 41
5.104637283033197
 42
5.575640642145633
  0
SPLINE
  5
4961
330
1F
100
AcDbEntity
  8
AM_0
100
AcDbSpline
210
0.0
220
0.0
230
1.0
 70
     8
 71
     3
 72
    11
 73
     7
 74
     5
 42
0.0000000001
 43
0.0000000001
 44
0.0000000001
 40
0.0
 40
0.0
 40
0.0
 40
0.0
 40
3.433073135097594
 40
6.864776593468683
 40
10.29815704632768
 40
13.73307931956795
 40
13.73307931956795
 40
13.73307931956795
 40
13.73307931956795
 10
-1.74171299058482
 20
17.61059515426776
 30
0.0
 10
-1.741126789999428
 20
16.46620710606494
 30
0.0
 10
-1.739954622702282
 20
14.17788758067138
 30
0.0
 10
-1.664541592720029
 20
10.74579561380053
 30
0.0
 10
-1.541903921819823
 20
7.314450195880043
 30
0.0
 10
-1.411122357929277
 20
5.028693458934523
 30
0.0
 10
-1.345716896834822
 20
3.885558533167757
 30
0.0
 11
-1.74171299058482
 21
17.61059515426776
 31
0.0
 11
-1.727674904644819
 21
14.17755072066775
 31
0.0
 11
-1.656691017934823
 21
10.74658148238775
 31
0.0
 11
-1.529676857774822
 21
7.315551208957761
 31
0.0
 11
-1.345716896834822
 21
3.885558533167757
 31
0.0
  0
ELLIPSE
  5
4962
330
1F
100
AcDbEntity
  8
AM_0
100
AcDbEllipse
 10
-14.09568637925482
 20
5.160582947237762
 30
0.0
 11
-14.83035226203998
 21
-18.68859850783001
 31
0.0
210
0.0
220
0.0
230
1.0
 40
0.3685138951258
 41
0.4541538598134337
 42
0.5072378052408616
  0
ELLIPSE
  5
4963
330
1F
100
AcDbEntity
  8
AM_0
100
AcDbEllipse
 10
-16.73667759019482
 20
-23.95440728714223
 30
0.0
 11
14.88015775321997
 21
-1.939207952869994
 31
0.0
210
0.0
220
0.0
230
1.0
 40
0.7274428584530001
 41
1.936221248623767
 42
2.150859414854746
  0
ELLIPSE
  5
4964
330
1F
100
AcDbEntity
  8
AM_0
100
AcDbEllipse
 10
8.707292136365175
 20
-0.0004277949522413
 30
0.0
 11
-39.37290856418996
 21
-17.39428671871001
 31
0.0
210
0.0
220
0.0
230
1.0
 40
0.4563933646055001
 41
6.004199374962135
 42
6.200076753369486
  0
SPLINE
  5
4965
330
1F
100
AcDbEntity
  8
AM_0
100
AcDbSpline
210
0.0
220
0.0
230
1.0
 70
     8
 71
     3
 72
    11
 73
     7
 74
     5
 42
0.0000000001
 43
0.0000000001
 44
0.0000000001
 40
0.0
 40
0.0
 40
0.0
 40
0.0
 40
0.2254297946400555
 40
0.464229693313261
 40
0.7093519645017299
 40
0.9573388258424287
 40
0.9573388258424287
 40
0.9573388258424287
 40
0.9573388258424287
 10
-31.33473056871482
 20
-11.76043756058223
 30
0.0
 10
-31.30814858000094
 20
-11.68832143197302
 30
0.0
 10
-31.25340804098744
 20
-11.53981201102158
 30
0.0
 10
-31.05133255380946
 20
-11.39936470816338
 30
0.0
 10
-30.83399235036721
 20
-11.29058183295534
 30
0.0
 10
-30.67475865858156
 20
-11.24721351060266
 30
0.0
 10
-30.59467929918482
 20
-11.22540338089223
 30
0.0
 11
-31.33473056871482
 21
-11.76043756058223
 31
0.0
 11
-31.23670810777482
 21
-11.55743463089223
 31
0.0
 11
-31.05171054918482
 21
-11.40643365433223
 31
0.0
 11
-30.83167881089482
 21
-11.29840142776223
 31
0.0
 11
-30.59467929918482
 21
-11.22540338089223
 31
0.0
  0
SPLINE
  5
4966
330
1F
100
AcDbEntity
  8
AM_0
100
AcDbSpline
210
0.0
220
0.0
230
1.0
 70
     8
 71
     3
 72
    11
 73
     7
 74
     5
 42
0.0000000001
 43
0.0000000001
 44
0.0000000001
 40
0.0
 40
0.0
 40
0.0
 40
0.0
 40
0.2208112097574391
 40
0.4402602600463795
 40
0.6594381180155943
 40
0.8816042255196911
 40
0.8816042255196911
 40
0.8816042255196911
 40
0.8816042255196911
 10
-30.59467929918482
 20
-11.22540338089223
 30
0.0
 10
-30.52253677684131
 20
-11.21061830353186
 30
0.0
 10
-30.37869677124447
 20
-11.18113935628714
 30
0.0
 10
-30.15995856969944
 20
-11.15723363528752
 30
0.0
 10
-29.93964623169392
 20
-11.14652309844309
 30
0.0
 10
-29.79268225600734
 20
-11.15510458297819
 30
0.0
 10
-29.71870273668482
 20
-11.15942437698223
 30
0.0
 11
-30.59467929918482
 21
-11.22540338089223
 31
0.0
 11
-30.37769931871482
 21
-11.18444879104223
 31
0.0
 11
-30.15968174058482
 21
-11.15942437698223
 31
0.0
 11
-29.94068759996482
 21
-11.15045220901223
 31
0.0
 11
-29.71870273668482
 21
-11.15942437698223
 31
0.0
  0
SPLINE
  5
4967
330
1F
100
AcDbEntity
  8
AM_0
100
AcDbSpline
210
0.0
220
0.0
230
1.0
 70
     8
 71
     3
 72
    11
 73
     7
 74
     5
 42
0.0000000001
 43
0.0000000001
 44
0.0000000001
 40
0.0
 40
0.0
 40
0.0
 40
0.0
 40
1.380201908915766
 40
2.724240792654229
 40
4.044414568082763
 40
5.352784218164981
 40
5.352784218164981
 40
5.352784218164981
 40
5.352784218164981
 10
-21.34467929918482
 20
5.41455023238776
 30
0.0
 10
-21.75848789682555
 20
5.616457077662201
 30
0.0
 10
-22.57526278661647
 20
6.01498055503143
 30
0.0
 10
-23.71035437096578
 20
6.747086148880544
 30
0.0
 10
-24.75878680029153
 20
7.560936274689387
 30
0.0
 10
-25.37633975302806
 20
8.183638063597383
 30
0.0
 10
-25.68372959214482
 20
8.493590759737763
 30
0.0
 11
-21.34467929918482
 21
5.41455023238776
 31
0.0
 11
-22.57270664293482
 21
6.044555115207764
 31
0.0
 11
-23.70570224839482
 21
6.76757757613776
 31
0.0
 11
-24.74268955308482
 21
7.584594177707764
 31
0.0
 11
-25.68372959214482
 21
8.493590759737763
 31
0.0
  0
ELLIPSE
  5
4968
330
1F
100
AcDbEntity
  8
AM_0
100
AcDbEllipse
 10
145.7102828590251
 20
-54.68743951370226
 30
0.0
 11
177.53542444654
 21
-76.44432064441001
 31
0.0
210
0.0
220
0.0
230
0.9999999999999998
 40
0.1528397013857
 41
3.42453324561095
 42
3.478066249141868
  0
ELLIPSE
  5
4969
330
1F
100
AcDbEntity
  8
AM_0
100
AcDbEllipse
 10
-7.964704933944823
 20
-5.091431212922239
 30
0.0
 11
1.742828349470016
 21
-0.1583251972099904
 31
0.0
210
0.0
220
0.0
230
1.0
 40
0.4959984961961001
 41
0.0
 42
3.141592829845985
  0
ELLIPSE
  5
496A
330
1F
100
AcDbEntity
  8
AM_0
100
AcDbEllipse
 10
-7.964704933944823
 20
-5.091431212922239
 30
0.0
 11
1.742828349470016
 21
-0.1583251972099904
 31
0.0
210
0.0
220
0.0
230
1.0
 40
0.4959984961961001
 41
3.1415924773336
 42
6.283185307179586
  0
SPLINE
  5
496B
330
1F
100
AcDbEntity
  8
AM_0
100
AcDbSpline
210
0.0
220
0.0
230
1.0
 70
     8
 71
     3
 72
    11
 73
     7
 74
     5
 42
0.0000000001
 43
0.0000000001
 44
0.0000000001
 40
0.0
 40
0.0
 40
0.0
 40
0.0
 40
0.3207304077504735
 40
0.7170045616292607
 40
1.205577846191871
 40
1.767833824833453
 40
1.767833824833453
 40
1.767833824833453
 40
1.767833824833453
 10
-20.02870029527482
 20
-13.98339898636224
 30
0.0
 10
-20.05066878944095
 20
-13.87643258365394
 30
0.0
 10
-20.09978016194759
 20
-13.63730527663978
 30
0.0
 10
-20.41018073295189
 20
-13.35248566405063
 30
0.0
 10
-20.8261546879211
 20
-13.1094546497905
 30
0.0
 10
-21.16394268639291
 20
-13.00976260422754
 30
0.0
 10
-21.34467929918482
 20
-12.95642144729223
 30
0.0
 11
-20.02870029527482
 21
-13.98339898636224
 31
0.0
 11
-20.12171787339482
 21
-13.67645318558224
 31
0.0
 11
-20.39173740464482
 21
-13.38641412308224
 31
0.0
 11
-20.81269687730482
 21
-13.13842828323223
 31
0.0
 11
-21.34467929918482
 21
-12.95642144729223
 31
0.0
  0
SPLINE
  5
496C
330
1F
100
AcDbEntity
  8
AM_0
100
AcDbSpline
210
0.0
220
0.0
230
1.0
 70
     8
 71
     3
 72
    11
 73
     7
 74
     5
 42
0.0000000001
 43
0.0000000001
 44
0.0000000001
 40
0.0
 40
0.0
 40
0.0
 40
0.0
 40
0.3845175364466464
 40
0.828913205571234
 40
1.367268063958555
 40
2.007003575458625
 40
2.007003575458625
 40
2.007003575458625
 40
2.007003575458625
 10
-20.02870029527482
 20
4.028563904267763
 30
0.0
 10
-20.0474123629666
 20
4.157240546738147
 30
0.0
 10
-20.08775039320728
 20
4.434631713804129
 30
0.0
 10
-20.37570552983284
 20
4.807632372821558
 30
0.0
 10
-20.79669132058925
 20
5.150078019721442
 30
0.0
 10
-21.15182949251623
 20
5.321476265304343
 30
0.0
 10
-21.34467929918482
 20
5.41455023238776
 30
0.0
 11
-20.02870029527482
 21
4.028563904267763
 31
0.0
 11
-20.11372226793482
 21
4.403563904267763
 31
0.0
 11
-20.36573642808482
 21
4.769591736297762
 31
0.0
 11
-20.78071445543482
 21
5.112548279267763
 31
0.0
 11
-21.34467929918482
 21
5.41455023238776
 31
0.0
  0
ELLIPSE
  5
496D
330
1F
100
AcDbEntity
  8
AM_0
100
AcDbEllipse
 10
-7.284712258164823
 20
2.400573181607759
 30
0.0
 11
-2.00790401900997
 21
-0.0200805656199916
 31
0.0
210
0.0
220
0.0
230
1.0
 40
0.4965119486271
 41
4.557138847408703
 42
4.957495468494131
  0
SPLINE
  5
496E
330
1F
100
AcDbEntity
  8
AM_0
100
AcDbSpline
210
0.0
220
0.0
230
1.0
 70
     8
 71
     3
 72
    11
 73
     7
 74
     5
 42
0.0000000001
 43
0.0000000001
 44
0.0000000001
 40
0.0
 40
0.0
 40
0.0
 40
0.0
 40
0.9606048814710739
 40
1.928699400851803
 40
2.900187656035412
 40
3.87195218330062
 40
3.87195218330062
 40
3.87195218330062
 40
3.87195218330062
 10
-7.781691017934825
 20
3.362548279267761
 30
0.0
 10
-8.059287446317641
 20
3.191800365001547
 30
0.0
 10
-8.616644665115682
 20
2.848973250238591
 30
0.0
 10
-9.080165894192626
 20
1.965183711557129
 30
0.0
 10
-9.383175370742993
 20
1.043968516594193
 30
0.0
 10
-9.463505237560786
 20
0.3990857813309807
 30
0.0
 10
-9.503675881214824
 20
0.076598572237762
 30
0.0
 11
-7.781691017934825
 21
3.362548279267761
 31
0.0
 11
-8.552687111684825
 21
2.789550232387759
 31
0.0
 11
-9.052687111684825
 21
1.960570740207762
 31
0.0
 11
-9.352674904644821
 21
1.036559509737762
 31
0.0
 11
-9.503675881214824
 21
0.076598572237762
 31
0.0
  0
ELLIPSE
  5
496F
330
1F
100
AcDbEntity
  8
AM_0
100
AcDbEllipse
 10
-7.964704933944823
 20
-5.091431212922239
 30
0.0
 11
1.991790701500008
 21
-0.1809083741899829
 31
0.0
210
0.0
220
0.0
230
0.9999999999999998
 40
0.4959944276517
 41
0.0811061505923013
 42
2.745374776432493
  0
SPLINE
  5
4970
330
1F
100
AcDbEntity
  8
AM_0
100
AcDbSpline
210
0.0
220
0.0
230
1.0
 70
     8
 71
     3
 72
    11
 73
     7
 74
     5
 42
0.0000000001
 43
0.0000000001
 44
0.0000000001
 40
0.0
 40
0.0
 40
0.0
 40
0.0
 40
0.2092896308805761
 40
0.4893074934118721
 40
0.8393563532485421
 40
1.226703564882539
 40
1.226703564882539
 40
1.226703564882539
 40
1.226703564882539
 10
-20.02870029527482
 20
-14.20141656448223
 30
0.0
 10
-20.00943066290767
 20
-14.27040957775735
 30
0.0
 10
-19.96437933631844
 20
-14.43171139785487
 30
0.0
 10
-19.7166379891394
 20
-14.59615723186163
 30
0.0
 10
-19.40345289062435
 20
-14.72181884993104
 30
0.0
 10
-19.15776029949245
 20
-14.75173954448345
 30
0.0
 10
-19.02870029527482
 20
-14.76745660354223
 30
0.0
 11
-20.02870029527482
 21
-14.20141656448223
 31
0.0
 11
-19.95271152574482
 21
-14.39642388870224
 31
0.0
 11
-19.73573154527482
 21
-14.57342584183224
 31
0.0
 11
-19.41071933824482
 21
-14.70343072464224
 31
0.0
 11
-19.02870029527482
 21
-14.76745660354223
 31
0.0
  0
SPLINE
  5
4971
330
1F
100
AcDbEntity
  8
AM_0
100
AcDbSpline
210
0.0
220
0.0
230
1.0
 70
     8
 71
     3
 72
    11
 73
     7
 74
     5
 42
0.0000000001
 43
0.0000000001
 44
0.0000000001
 40
0.0
 40
0.0
 40
0.0
 40
0.0
 40
0.1290911879507646
 40
0.2527622415531696
 40
0.3718119200996169
 40
0.4880240276478007
 40
0.4880240276478007
 40
0.4880240276478007
 40
0.4880240276478007
 10
-19.02870029527482
 20
3.127562927707763
 30
0.0
 10
-19.07174743182918
 20
3.128223144371709
 30
0.0
 10
-19.15603429060435
 20
3.129515857271315
 30
0.0
 10
-19.27938204402776
 20
3.142965313370196
 30
0.0
 10
-19.39731385873673
 20
3.164261082341847
 30
0.0
 10
-19.47255268758563
 20
3.186556834229815
 30
0.0
 10
-19.50971836168482
 20
3.197570251917759
 30
0.0
 11
-19.02870029527482
 21
3.127562927707763
 31
0.0
 11
-19.15772861558482
 21
3.131591248017762
 31
0.0
 11
-19.28071445543482
 21
3.144591736297762
 31
0.0
 11
-19.39771884996482
 21
3.166564392547762
 31
0.0
 11
-19.50971836168482
 21
3.197570251917759
 31
0.0
  0
SPLINE
  5
4972
330
1F
100
AcDbEntity
  8
AM_0
100
AcDbSpline
210
0.0
220
0.0
230
1.0
 70
     8
 71
     3
 72
    11
 73
     7
 74
     5
 42
0.0000000001
 43
0.0000000001
 44
0.0000000001
 40
0.0
 40
0.0
 40
0.0
 40
0.0
 40
0.161224073527292
 40
0.3404674936554851
 40
0.5526359246570195
 40
0.8062869972391371
 40
0.8062869972391371
 40
0.8062869972391371
 40
0.8062869972391371
 10
-20.02870029527482
 20
3.751586365207764
 30
0.0
 10
-20.02188540617096
 20
3.697616019391934
 30
0.0
 10
-20.00749395604835
 20
3.583643285856426
 30
0.0
 10
-19.90061694662659
 20
3.426811946015756
 30
0.0
 10
-19.73422703720178
 20
3.286448289122898
 30
0.0
 10
-19.58886943225723
 20
3.22890441652838
 30
0.0
 10
-19.50971836168482
 20
3.197570251917759
 30
0.0
 11
-20.02870029527482
 21
3.751586365207764
 31
0.0
 11
-19.99671787339482
 21
3.59356634566776
 31
0.0
 11
-19.90168613511482
 21
3.44158880660776
 31
0.0
 11
-19.73969883043482
 21
3.304564880827761
 31
0.0
 11
-19.50971836168482
 21
3.197570251917759
 31
0.0
  0
ELLIPSE
  5
4973
330
1F
100
AcDbEntity
  8
AM_0
100
AcDbEllipse
 10
-11.24375766832482
 20
-0.0104375605822411
 30
0.0
 11
390.80877464993
 21
-26.84874941914005
 31
0.0
210
0.0
220
0.0
230
1.0
 40
0.0389452809151
 41
4.695129736625078
 42
4.703056676580212
  0
ELLIPSE
  5
4974
330
1F
100
AcDbEntity
  8
AM_0
100
AcDbEllipse
 10
-11.65470737535482
 20
-0.0544439082322383
 30
0.0
 11
-1.561064762619996
 21
-30.70532304504001
 31
0.0
210
0.0
220
0.0
230
1.0
 40
0.0694417811304
 41
1.372699352351039
 42
1.568176306729902
  0
SPLINE
  5
4975
330
1F
100
AcDbEntity
  8
AM_0
100
AcDbSpline
210
0.0
220
0.0
230
1.0
 70
     8
 71
     3
 72
    11
 73
     7
 74
     5
 42
0.0000000001
 43
0.0000000001
 44
0.0000000001
 40
0.0
 40
0.0
 40
0.0
 40
0.0
 40
0.0610129506706953
 40
0.2340894797094632
 40
0.4942245557060622
 40
0.8004214694591894
 40
0.8004214694591894
 40
0.8004214694591894
 40
0.8004214694591894
 10
-1.77070468980482
 20
17.61157171676775
 30
0.0
 10
-1.77040139051948
 20
17.63190730266756
 30
0.0
 10
-1.769237716723655
 20
17.70992920900943
 30
0.0
 10
-1.763760602387036
 20
17.8745881493156
 30
0.0
 10
-1.755216857000356
 20
18.12090551517919
 30
0.0
 10
-1.748393094947667
 20
18.30956018828656
 30
0.0
 10
-1.744703713244821
 20
18.41155950973776
 30
0.0
 11
-1.77070468980482
 21
17.61157171676775
 31
0.0
 11
-1.769697609724819
 21
17.67257635543775
 31
0.0
 11
-1.764692726914821
 21
17.84558050582775
 31
0.0
 11
-1.755690041364819
 21
18.10555975387775
 31
0.0
 11
-1.744703713244821
 21
18.41155950973776
 31
0.0
  0
ELLIPSE
  5
4976
330
1F
100
AcDbEntity
  8
AM_0
100
AcDbEllipse
 10
-8.12669223863482
 20
23.56957952926776
 30
0.0
 11
-0.3190608906299998
 21
-9.165435345479977
 31
0.0
210
0.0
220
0.0
230
0.9999999999999998
 40
0.1902721105661
 41
4.855990438790207
 42
4.893014148811086
  0
SPLINE
  5
4977
330
1F
100
AcDbEntity
  8
AM_0
100
AcDbSpline
210
0.0
220
0.0
230
1.0
 70
     8
 71
     3
 72
    11
 73
     7
 74
     5
 42
0.0000000001
 43
0.0000000001
 44
0.0000000001
 40
0.0
 40
0.0
 40
0.0
 40
0.0
 40
3.433011975792688
 40
6.864746576592704
 40
10.29809540393231
 40
13.7330497854596
 40
13.7330497854596
 40
13.7330497854596
 40
13.7330497854596
 10
-1.74171299058482
 20
17.61056463668776
 30
0.0
 10
-1.741143957361661
 20
16.46619681255293
 30
0.0
 10
-1.740006102644523
 20
14.17788696729571
 30
0.0
 10
-1.664516815745735
 20
10.74581725503567
 30
0.0
 10
-1.541954359956929
 20
7.314458651993781
 30
0.0
 10
-1.411139577754643
 20
5.02870334767397
 30
0.0
 10
-1.345716896834822
 20
3.885558533167757
 30
0.0
 11
-1.74171299058482
 21
17.61056463668776
 31
0.0
 11
-1.72770542222482
 21
14.17758123824775
 31
0.0
 11
-1.656691017934823
 21
10.74658148238775
 31
0.0
 11
-1.529707375354823
 21
7.315581726527757
 31
0.0
 11
-1.345716896834822
 21
3.885558533167757
 31
0.0
  0
ELLIPSE
  5
4978
330
1F
100
AcDbEntity
  8
AM_0
100
AcDbEllipse
 10
-8.12669223863482
 20
23.56957952926776
 30
0.0
 11
-0.3190608906299998
 21
-9.165435345479977
 31
0.0
210
0.0
220
0.0
230
0.9999999999999998
 40
0.1902721105661
 41
1.390227214592301
 42
1.446685732750032
  0
SPLINE
  5
4979
330
1F
100
AcDbEntity
  8
AM_0
100
AcDbSpline
210
0.0
220
0.0
230
1.0
 70
     8
 71
     3
 72
    11
 73
     7
 74
     0
 42
0.0000000001
 43
0.0000000001
 40
0.0
 40
0.0
 40
0.0
 40
0.0
 40
3.303628925843903
 40
6.606437671945113
 40
9.910433918124079
 40
11.87864059333322
 40
11.87864059333322
 40
11.87864059333322
 40
11.87864059333322
 10
-1.656691017934823
 20
10.47357122848776
 30
0.0
 10
-1.636010570275592
 20
11.57458749981528
 30
0.0
 10
-1.594654809215588
 20
13.77634669723018
 30
0.0
 10
-1.52089418198138
 20
17.07900594042225
 30
0.0
 10
-1.450812446219647
 20
19.9364893888734
 30
0.0
 10
-1.402126012335959
 20
21.69321558468518
 30
0.0
 10
-1.383635194213373
 20
22.34902412928092
 30
0.0
  0
SPLINE
  5
497A
330
1F
100
AcDbEntity
  8
AM_0
100
AcDbSpline
210
0.0
220
0.0
230
1.0
 70
     8
 71
     3
 72
    11
 73
     7
 74
     5
 42
0.0000000001
 43
0.0000000001
 44
0.0000000001
 40
0.0
 40
0.0
 40
0.0
 40
0.0
 40
1.671617716527645
 40
3.357853988021402
 40
5.043676710364289
 40
6.714363487881596
 40
6.714363487881596
 40
6.714363487881596
 40
6.714363487881596
 10
-8.253584328474818
 20
29.10287420699775
 30
0.0
 10
-7.68856586857869
 20
28.94414004456729
 30
0.0
 10
-6.55358777513698
 20
28.6252835649533
 30
0.0
 10
-5.908549939202339
 20
26.81908613151544
 30
0.0
 10
-6.679109301174096
 20
25.06359727593653
 30
0.0
 10
-7.832890264699988
 20
24.82455034176067
 30
0.0
 10
-8.407179299184821
 20
24.70556585738775
 30
0.0
 11
-8.253584328474818
 21
29.10287420699775
 31
0.0
 11
-6.733381691754818
 21
28.40768377731776
 31
0.0
 11
-6.145185890974818
 21
26.82736151168775
 31
0.0
 11
-6.843092385114819
 21
25.29278509566776
 31
0.0
 11
-8.407179299184821
 21
24.70556585738775
 31
0.0
  0
SPLINE
  5
497B
330
1F
100
AcDbEntity
  8
AM_0
100
AcDbSpline
210
0.0
220
0.0
230
1.0
 70
     8
 71
     3
 72
    11
 73
     7
 74
     5
 42
0.0000000001
 43
0.0000000001
 44
0.0000000001
 40
0.0
 40
0.0
 40
0.0
 40
0.0
 40
2.41892722995957
 40
4.827126654736167
 40
7.249321940461358
 40
9.640653273676063
 40
9.640653273676063
 40
9.640653273676063
 40
9.640653273676063
 10
-9.02317661363482
 20
23.78607122848776
 30
0.0
 10
-9.821242468389076
 20
24.08592365732909
 30
0.0
 10
-11.41383480105857
 20
24.68429868648264
 30
0.0
 10
-12.04924979931093
 20
27.37725907277205
 30
0.0
 10
-10.6850329635456
 20
29.74613201633372
 30
0.0
 10
-9.011560632432743
 20
29.94330490228043
 30
0.0
 10
-8.180189553084819
 20
30.04125921676775
 30
0.0
 11
-9.02317661363482
 21
23.78607122848776
 31
0.0
 11
-11.12370151597481
 21
24.98565618941775
 31
0.0
 11
-11.71598667222481
 21
27.31988470504775
 31
0.0
 11
-10.48570102769482
 21
29.40637152145776
 31
0.0
 11
-8.180189553084819
 21
30.04125921676775
 31
0.0
  0
SPLINE
  5
497C
330
1F
100
AcDbEntity
  8
AM_0
100
AcDbSpline
210
0.0
220
0.0
230
1.0
 70
     8
 71
     3
 72
    11
 73
     7
 74
     5
 42
0.0000000001
 43
0.0000000001
 44
0.0000000001
 40
0.0
 40
0.0
 40
0.0
 40
0.0
 40
1.837192144232491
 40
3.65633041137815
 40
5.45731803444699
 40
7.240521297588748
 40
7.240521297588748
 40
7.240521297588748
 40
7.240521297588748
 10
-15.22248691636481
 20
31.60726873824776
 30
0.0
 10
-14.61035361914538
 20
31.58913043750971
 30
0.0
 10
-13.3921023886103
 20
31.55303207904054
 30
0.0
 10
-11.57326695369193
 20
31.51991243062852
 30
0.0
 10
-9.77222015962331
 20
31.50120878927582
 30
0.0
 10
-8.577481676991041
 20
31.503111602961
 30
0.0
 10
-7.983076515974818
 20
31.50405828902775
 30
0.0
 11
-15.22248691636481
 21
31.60726873824776
 31
0.0
 11
-13.38600009996482
 21
31.55636541793775
 31
0.0
 11
-11.56718296128481
 21
31.52218573043775
 31
0.0
 11
-9.766279640974818
 21
31.50476019332776
 31
0.0
 11
-7.983076515974818
 21
31.50405828902775
 31
0.0
  0
SPLINE
  5
497D
330
1F
100
AcDbEntity
  8
AM_0
100
AcDbSpline
210
0.0
220
0.0
230
1.0
 70
     8
 71
     3
 72
    11
 73
     7
 74
     5
 42
0.0000000001
 43
0.0000000001
 44
0.0000000001
 40
0.0
 40
0.0
 40
0.0
 40
0.0
 40
0.2872775114230091
 40
0.5768920515667489
 40
0.8673365581014783
 40
1.156886287571543
 40
1.156886287571543
 40
1.156886287571543
 40
1.156886287571543
 10
-16.05528110582482
 20
30.94116156051776
 30
0.0
 10
-16.02878785347835
 20
31.03441733104982
 30
0.0
 10
-15.97558582376457
 20
31.22168751630097
 30
0.0
 10
-15.77429512216933
 20
31.44099650525445
 30
0.0
 10
-15.51485567162031
 20
31.5867865319711
 30
0.0
 10
-15.31984288380402
 20
31.60044836168047
 30
0.0
 10
-15.22248691636481
 20
31.60726873824776
 30
0.0
 11
-16.05528110582482
 21
30.94116156051776
 31
0.0
 11
-15.95579380113482
 21
31.21066229293776
 31
0.0
 11
-15.76490634996482
 21
31.42846624801776
 31
0.0
 11
-15.50907749253481
 21
31.56597845504776
 31
0.0
 11
-15.22248691636481
 21
31.60726873824776
 31
0.0
  0
SPLINE
  5
497E
330
1F
100
AcDbEntity
  8
AM_0
100
AcDbSpline
210
0.0
220
0.0
230
1.0
 70
     8
 71
     3
 72
    11
 73
     7
 74
     5
 42
0.0000000001
 43
0.0000000001
 44
0.0000000001
 40
0.0
 40
0.0
 40
0.0
 40
0.0
 40
0.1699794036182515
 40
0.3396596079215372
 40
0.5096931357446417
 40
0.6798016639693384
 40
0.6798016639693384
 40
0.6798016639693384
 40
0.6798016639693384
 10
-17.00550693589481
 20
22.62957708785776
 30
0.0
 10
-17.04359458133328
 20
22.67194875342534
 30
0.0
 10
-17.1197028299852
 20
22.75661750156374
 30
0.0
 10
-17.19036032893713
 20
22.91342137227537
 30
0.0
 10
-17.23025509521606
 20
23.08027954504368
 30
0.0
 10
-17.22580905797495
 20
23.1940688273636
 30
0.0
 10
-17.22358554918482
 20
23.25097601363776
 30
0.0
 11
-17.00550693589481
 21
22.62957708785776
 31
0.0
 11
-17.11250156480482
 21
22.76165716598776
 31
0.0
 11
-17.18519443589481
 21
22.91497747848776
 31
0.0
 11
-17.22248691636481
 21
23.08087103316776
 31
0.0
 11
-17.22358554918482
 21
23.25097601363776
 31
0.0
  0
SPLINE
  5
497F
330
1F
100
AcDbEntity
  8
AM_0
100
AcDbSpline
210
0.0
220
0.0
230
1.0
 70
     8
 71
     3
 72
    11
 73
     7
 74
     5
 42
0.0000000001
 43
0.0000000001
 44
0.0000000001
 40
0.0
 40
0.0
 40
0.0
 40
0.0
 40
0.3082285497621416
 40
0.6165354499924554
 40
0.9234750928866189
 40
1.22855027771809
 40
1.22855027771809
 40
1.22855027771809
 40
1.22855027771809
 10
-0.8145889671448175
 20
31.40566961715776
 30
0.0
 10
-0.7113518116435954
 20
31.39085341937875
 30
0.0
 10
-0.5048512581679191
 20
31.36121725760233
 30
0.0
 10
-0.2525380967960915
 20
31.16438732172144
 30
0.0
 10
-0.0935315755719399
 20
30.88949352005275
 30
0.0
 10
-0.0859679176317197
 20
30.68294544446003
 30
0.0
 10
-0.0821976097248186
 20
30.57998602340775
 30
0.0
 11
-0.8145889671448175
 21
31.40566961715776
 31
0.0
 11
-0.5143875511348201
 21
31.33578436324775
 31
0.0
 11
-0.2676834495748212
 21
31.15087835738775
 31
0.0
 11
-0.1179031761348201
 21
30.88296453902775
 31
0.0
 11
-0.0821976097248186
 21
30.57998602340775
 31
0.0
  0
SPLINE
  5
4980
330
1F
100
AcDbEntity
  8
AM_0
100
AcDbSpline
210
0.0
220
0.0
230
1.0
 70
     8
 71
     3
 72
    11
 73
     7
 74
     5
 42
0.0000000001
 43
0.0000000001
 44
0.0000000001
 40
0.0
 40
0.0
 40
0.0
 40
0.0
 40
1.774292086934112
 40
3.56047068616239
 40
5.358863419342712
 40
7.169513725707201
 40
7.169513725707201
 40
7.169513725707201
 40
7.169513725707201
 10
-7.983076515974818
 20
31.50405828902775
 30
0.0
 10
-7.391642211075749
 20
31.50498876016785
 30
0.0
 10
-6.204811406333417
 20
31.50685593595194
 30
0.0
 10
-4.418578898037155
 20
31.48923376928202
 30
0.0
 10
-2.620421812036894
 20
31.45751678363724
 30
0.0
 10
-1.417894649802091
 20
31.42299109309349
 30
0.0
 10
-0.8145889671448175
 20
31.40566961715776
 30
0.0
 11
-7.983076515974818
 21
31.50405828902775
 31
0.0
 11
-6.208784523784817
 21
31.50347845504775
 31
0.0
 11
-4.422682228864818
 21
31.48696844527775
 31
0.0
 11
-2.62458652574482
 21
31.45428411910776
 31
0.0
 11
-0.8145889671448175
 21
31.40566961715776
 31
0.0
  0
SPLINE
  5
4981
330
1F
100
AcDbEntity
  8
AM_0
100
AcDbSpline
210
0.0
220
0.0
230
1.0
 70
     8
 71
     3
 72
    11
 73
     7
 74
     5
 42
0.0000000001
 43
0.0000000001
 44
0.0000000001
 40
0.0
 40
0.0
 40
0.0
 40
0.0
 40
2.395914120664637
 40
4.813092028620568
 40
7.222993190663366
 40
9.644385596455455
 40
9.644385596455455
 40
9.644385596455455
 40
9.644385596455455
 10
-8.180189553084819
 20
30.04125921676775
 30
0.0
 10
-7.395705182990111
 20
29.73805021281255
 30
0.0
 10
-5.819774127818214
 20
29.12894121873144
 30
0.0
 10
-5.144209549016514
 20
26.46417495948664
 30
0.0
 10
-6.492494411435792
 20
24.06411349235561
 30
0.0
 10
-8.178279331695351
 20
23.87889882762372
 30
0.0
 10
-9.02317661363482
 20
23.78607122848776
 30
0.0
 11
-8.180189553084819
 21
30.04125921676775
 31
0.0
 11
-6.10569614488482
 21
28.84255926559776
 31
0.0
 11
-5.481886330434821
 21
26.50726263473776
 31
0.0
 11
-6.686201515974819
 21
24.41986029098776
 31
0.0
 11
-9.02317661363482
 21
23.78607122848776
 31
0.0
  0
SPLINE
  5
4982
330
1F
100
AcDbEntity
  8
AM_0
100
AcDbSpline
210
0.0
220
0.0
230
1.0
 70
     8
 71
     3
 72
    11
 73
     7
 74
     5
 42
0.0000000001
 43
0.0000000001
 44
0.0000000001
 40
0.0
 40
0.0
 40
0.0
 40
0.0
 40
0.2303253410549273
 40
0.4609850418077822
 40
0.6923626798166627
 40
0.9245796448948913
 40
0.9245796448948913
 40
0.9245796448948913
 40
0.9245796448948913
 10
-1.04530185777482
 20
22.88256781051776
 30
0.0
 10
-1.062917031610723
 20
22.80717747580901
 30
0.0
 10
-1.098172950955083
 20
22.65628736342088
 30
0.0
 10
-1.233812989798553
 20
22.46384469345185
 30
0.0
 10
-1.415173584928289
 20
22.31322788698852
 30
0.0
 10
-1.562892121153404
 20
22.26388288225619
 30
0.0
 10
-1.636885109724819
 20
22.23916571090776
 30
0.0
 11
-1.04530185777482
 21
22.88256781051776
 31
0.0
 11
-1.111891213244821
 21
22.66207830856776
 31
0.0
 11
-1.241194191754819
 21
22.47106878707775
 31
0.0
 11
-1.42158359605482
 21
22.32617132613775
 31
0.0
 11
-1.636885109724819
 21
22.23916571090776
 31
0.0
  0
SPLINE
  5
4983
330
1F
100
AcDbEntity
  8
AM_0
100
AcDbSpline
210
0.0
220
0.0
230
1.0
 70
     8
 71
     3
 72
    11
 73
     7
 74
     5
 42
0.0000000001
 43
0.0000000001
 44
0.0000000001
 40
0.0
 40
0.0
 40
0.0
 40
0.0
 40
0.0447899290451005
 40
0.0984207762207453
 40
0.1625556648435174
 40
0.2372832004018845
 40
0.2372832004018845
 40
0.2372832004018845
 40
0.2372832004018845
 10
-1.045301857774824
 20
-10.36782891800224
 30
0.0
 10
-1.052647282373063
 20
-10.35467559193766
 30
0.0
 10
-1.068788017713405
 20
-10.32577265351467
 30
0.0
 10
-1.112705817486165
 20
-10.29215721354101
 30
0.0
 10
-1.168872652179425
 20
-10.2611137869223
 30
0.0
 10
-1.212697124982576
 20
-10.24585324819082
 30
0.0
 10
-1.236280861684826
 20
-10.23764092972224
 30
0.0
 11
-1.045301857774824
 21
-10.36782891800224
 31
0.0
 11
-1.069502297224823
 21
-10.33013970901224
 31
0.0
 11
-1.110395851914824
 21
-10.29544122268224
 31
0.0
 11
-1.166487160504823
 21
-10.26434381058224
 31
0.0
 11
-1.236280861684826
 21
-10.23764092972224
 31
0.0
  0
ELLIPSE
  5
4984
330
1F
100
AcDbEntity
  8
AM_0
100
AcDbEllipse
 10
-2.228193703474823
 20
-9.32772882034224
 30
0.0
 11
0.8086853044100053
 21
-0.0556335846999901
 31
0.0
210
0.0
220
0.0
230
0.9999999999999998
 40
0.4997545508103001
 41
0.155426193845259
 42
0.2734195716027869
  0
SPLINE
  5
4985
330
1F
100
AcDbEntity
  8
AM_0
100
AcDbSpline
210
0.0
220
0.0
230
1.0
 70
     8
 71
     3
 72
    11
 73
     7
 74
     5
 42
0.0000000001
 43
0.0000000001
 44
0.0000000001
 40
0.0
 40
0.0
 40
0.0
 40
0.0
 40
0.3008086653336319
 40
0.5667147821269305
 40
0.7868218258368583
 40
0.9829100870003905
 40
0.9829100870003905
 40
0.9829100870003905
 40
0.9829100870003905
 10
-0.8145889671448236
 20
-18.02093560745224
 30
0.0
 10
-0.7134769503373764
 20
-18.02097177178331
 30
0.0
 10
-0.5229848496131745
 20
-18.0210399043319
 30
0.0
 10
-0.2739543969883469
 20
-17.92645759135108
 30
0.0
 10
-0.0966294442819369
 20
-17.75850695582705
 30
0.0
 10
-0.0868195096102331
 20
-17.61577222626352
 30
0.0
 10
-0.0821976097248244
 20
-17.54852349808224
 30
0.0
 11
-0.8145889671448236
 21
-18.02093560745224
 31
0.0
 11
-0.5143875511348261
 21
-18.00183160354223
 31
0.0
 11
-0.2676834495748272
 21
-17.90261895706224
 31
0.0
 11
-0.1179031761348261
 21
-17.74133355667224
 31
0.0
 11
-0.0821976097248244
 21
-17.54852349808224
 31
0.0
  0
ELLIPSE
  5
4986
330
1F
100
AcDbEntity
  8
AM_0
100
AcDbEllipse
 10
-1.968397560894823
 20
-12.19574029495224
 30
0.0
 11
0.8256530969999856
 21
-0.0992126451200194
 31
0.0
210
0.0
220
0.0
230
1.0
 40
0.483683799261
 41
4.853414999083462
 42
6.374893276548648
  0
SPLINE
  5
4987
330
1F
100
AcDbEntity
  8
AM_0
100
AcDbSpline
210
0.0
220
0.0
230
1.0
 70
     8
 71
     3
 72
    11
 73
     7
 74
     5
 42
0.0000000001
 43
0.0000000001
 44
0.0000000001
 40
0.0
 40
0.0
 40
0.0
 40
0.0
 40
1.817686380732162
 40
3.631859151557669
 40
5.446033306138952
 40
7.263464943705739
 40
7.263464943705739
 40
7.263464943705739
 40
7.263464943705739
 10
-7.983076515974824
 20
-16.90301568558224
 30
0.0
 10
-7.392775737308229
 20
-17.04005873919271
 30
0.0
 10
-6.213315238567881
 20
-17.31387994052234
 30
0.0
 10
-4.424402468472139
 20
-17.62676060261879
 30
0.0
 10
-2.62524302307979
 20
-17.873363025781
 30
0.0
 10
-1.418501127483394
 20
-17.9717153401617
 30
0.0
 10
-0.8145889671448236
 20
-18.02093560745224
 30
0.0
 11
-7.983076515974824
 21
-16.90301568558224
 31
0.0
 11
-6.208784523784823
 21
-17.29782159378224
 31
0.0
 11
-4.422682228864823
 21
-17.61572320511224
 31
0.0
 11
-2.624586525744826
 21
-17.85672051956224
 31
0.0
 11
-0.8145889671448236
 21
-18.02093560745224
 31
0.0
  0
SPLINE
  5
4988
330
1F
100
AcDbEntity
  8
AM_0
100
AcDbSpline
210
0.0
220
0.0
230
1.0
 70
     8
 71
     3
 72
    11
 73
     7
 74
     5
 42
0.0000000001
 43
0.0000000001
 44
0.0000000001
 40
0.0
 40
0.0
 40
0.0
 40
0.0
 40
1.843348755701923
 40
3.677656480571413
 40
5.506265337223686
 40
7.332928636442169
 40
7.332928636442169
 40
7.332928636442169
 40
7.332928636442169
 10
-15.22248691636482
 20
-15.79303033401223
 30
0.0
 10
-14.60974579949833
 20
-15.84027328200272
 30
0.0
 10
-13.38726886322345
 20
-15.93452746656821
 30
0.0
 10
-11.56729940621772
 20
-16.17800912216345
 30
0.0
 10
-9.763405912151021
 20
-16.48982991324986
 30
0.0
 10
-8.576309033058869
 20
-16.76533597514747
 30
0.0
 10
-7.983076515974824
 20
-16.90301568558224
 30
0.0
 11
-15.22248691636482
 21
-15.79303033401223
 31
0.0
 11
-13.38600009996482
 21
-15.95193536331223
 31
0.0
 11
-11.56718296128482
 21
-16.18981988479224
 31
0.0
 11
-9.766279640974824
 21
-16.50692803909224
 31
0.0
 11
-7.983076515974824
 21
-16.90301568558224
 31
0.0
  0
SPLINE
  5
4989
330
1F
100
AcDbEntity
  8
AM_0
100
AcDbSpline
210
0.0
220
0.0
230
1.0
 70
     8
 71
     3
 72
    11
 73
     7
 74
     5
 42
0.0000000001
 43
0.0000000001
 44
0.0000000001
 40
0.0
 40
0.0
 40
0.0
 40
0.0
 40
0.1415620946141313
 40
0.351877752152377
 40
0.6158882431490181
 40
0.9046196623851617
 40
0.9046196623851617
 40
0.9046196623851617
 40
0.9046196623851617
 10
-16.05528110582483
 20
-15.50372369339224
 30
0.0
 10
-16.02407624369461
 20
-15.53992601943876
 30
0.0
 10
-15.94651101147242
 20
-15.62991333664158
 30
0.0
 10
-15.74723979713903
 20
-15.7019951716324
 30
0.0
 10
-15.50275372610232
 20
-15.76682040237826
 30
0.0
 10
-15.31865375957465
 20
-15.784037023715
 30
0.0
 10
-15.22248691636482
 20
-15.79303033401223
 30
0.0
 11
-16.05528110582483
 21
-15.50372369339224
 31
0.0
 11
-15.95579380113482
 21
-15.60443170120223
 31
0.0
 11
-15.76490634996482
 21
-15.69271905472224
 31
0.0
 11
-15.50907749253482
 21
-15.75793511917224
 31
0.0
 11
-15.22248691636482
 21
-15.79303033401223
 31
0.0
  0
ELLIPSE
  5
498A
330
1F
100
AcDbEntity
  8
AM_0
100
AcDbEllipse
 10
-14.22700351793482
 20
-11.57373101761224
 30
0.0
 11
0.8086853044200095
 21
-0.0556335846899857
 31
0.0
210
0.0
220
0.0
230
1.0
 40
0.4997571611897
 41
3.426671866227739
 42
4.748615327482854
  0
ELLIPSE
  5
4994
330
1F
100
AcDbEntity
  8
AM_0
100
AcDbEllipse
 10
-7.92649692613482
 20
26.59246771285776
 30
0.0
 11
1.301162692160005
 21
-1.24536134967002
 31
0.0
210
0.0
220
0.0
230
0.9999999999999998
 40
0.9484206245755
 41
2.445225388627235
 42
5.295313811495036
  0
SPLINE
  5
4995
330
1F
100
AcDbEntity
  8
AM_0
100
AcDbSpline
210
0.0
220
0.0
230
1.0
 70
     8
 71
     3
 72
     9
 73
     5
 74
     0
 42
0.0000000001
 43
0.0000000001
 40
0.0
 40
0.0
 40
0.0
 40
0.0
 40
2.606289457835029
 40
2.993297929487323
 40
2.993297929487323
 40
2.993297929487323
 40
2.993297929487323
 10
-13.99897617418482
 20
22.35287420699775
 30
0.0
 10
-14.868180488921
 20
22.39361375221047
 30
0.0
 10
-15.86645313579829
 20
22.44040272108989
 30
0.0
 10
-16.85340401837262
 20
22.58239706488065
 30
0.0
 10
-16.9808053302532
 20
22.60226413168501
 30
0.0
  0
ELLIPSE
  5
4996
330
1F
100
AcDbEntity
  8
AM_0
100
AcDbEllipse
 10
35.06355434339517
 20
-0.0004277949522445
 30
0.0
 11
387.77658569605
 21
-26.48457228680006
 31
0.0
210
0.0
220
0.0
230
1.0
 40
0.0389579971051
 41
4.584876320643959
 42
4.597849548008749
  0
ELLIPSE
  5
4997
330
1F
100
AcDbEntity
  8
AM_0
100
AcDbEllipse
 10
-252.3933548362848
 20
19.61096136520779
 30
0.0
 11
521.2835872911999
 21
-35.60290476217006
 31
0.0
210
0.0
220
0.0
230
1.0
 40
0.0324992834912
 41
5.197339295770824
 42
5.216101542843713
  0
ELLIPSE
  5
4998
330
1F
100
AcDbEntity
  8
AM_0
100
AcDbEllipse
 10
-19.31797641832482
 20
-0.0004583125322387
 30
0.0
 11
-0.2133954519200111
 21
-30.49995348660001
 31
0.0
210
0.0
220
0.0
230
1.0
 40
0.1460588421684
 41
1.135111266031772
 42
1.18111724837124
  0
ELLIPSE
  5
499C
330
1F
100
AcDbEntity
  8
AM_0
100
AcDbEllipse
 10
-8.129896584334819
 20
23.42156927535775
 30
0.0
 11
-5.986297607419999
 21
0.0000000000000007
 31
0.0
210
0.0
220
0.0
230
1.0
 40
0.2923342798444
 41
4.531008295779201
 42
4.535051276719398
  0
LINE
  5
4A06
330
1F
100
AcDbEntity
  8
AM_0
100
AcDbLine
 10
-21.34464878160482
 20
27.41857855270776
 30
0.0
 11
-28.02866977769482
 21
24.96057074020776
 31
0.0
  0
LINE
  5
4A07
330
1F
100
AcDbEntity
  8
AM_0
100
AcDbLine
 10
-21.34470981675482
 20
-12.95642144729223
 30
0.0
 11
-28.02866977769482
 21
-11.27844293167223
 31
0.0
  0
LINE
  5
4A08
330
1F
100
AcDbEntity
  8
AM_11
100
AcDbLine
 10
0.0000472633151785
 20
31.49957220504775
 30
0.0
 11
0.0000472633151708
 21
-31.50042779495224
 31
0.0
  0
LINE
  5
4A09
330
1F
100
AcDbEntity
  8
AM_11
100
AcDbLine
 10
-12.99995273668482
 20
-31.50042779495224
 30
0.0
 11
-12.99995273668482
 21
31.49957220504775
 31
0.0
  0
LINE
  5
4A0A
330
1F
100
AcDbEntity
  8
AM_0
100
AcDbLine
 10
-20.02870029527482
 20
-14.20141656448223
 30
0.0
 11
-20.02870029527482
 21
3.751586365207764
 31
0.0
  0
LINE
  5
4A0B
330
1F
100
AcDbEntity
  8
AM_0
100
AcDbLine
 10
-1.755751076524825
 20
-12.48849542190224
 30
0.0
 11
-1.741743508164825
 21
-13.75448663284224
 31
0.0
  0
LINE
  5
4A0C
330
1F
100
AcDbEntity
  8
AM_0
100
AcDbLine
 10
-1.595869484724823
 20
-12.65243585159224
 30
0.0
 11
-1.590864601914825
 21
-13.87042291214224
 31
0.0
  0
LINE
  5
4A0D
330
1F
100
AcDbEntity
  8
AM_0
100
AcDbLine
 10
-0.4861587913648238
 20
-14.70346124222224
 30
0.0
 11
-0.083540383164825
 21
-13.07955987503224
 31
0.0
  0
LINE
  5
4A0E
330
1F
100
AcDbEntity
  8
AM_0
100
AcDbLine
 10
-0.4903396995748269
 20
-14.67898614456224
 30
0.0
 11
-0.0820450218348242
 21
-13.03277642776224
 31
0.0
  0
LINE
  5
4A0F
330
1F
100
AcDbEntity
  8
AM_0
100
AcDbLine
 10
-0.6921829612848228
 20
-13.47830255081224
 30
0.0
 11
-0.1998733909748238
 21
-12.41717584183224
 31
0.0
  0
LINE
  5
4A10
330
1F
100
AcDbEntity
  8
AM_0
100
AcDbLine
 10
-1.315138283554824
 20
-9.77285821487224
 30
0.0
 11
-0.1998428733948234
 21
-16.40673883011224
 31
0.0
  0
LINE
  5
4A11
330
1F
100
AcDbEntity
  8
AM_0
100
AcDbLine
 10
-1.141798439804824
 20
-12.25769097854223
 30
0.0
 11
-0.0821976097248244
 21
-17.54846246292224
 31
0.0
  0
LINE
  5
4A12
330
1F
100
AcDbEntity
  8
AM_0
100
AcDbLine
 10
-0.8144974144148255
 20
-18.02087457229223
 30
0.0
 11
-1.899122658554824
 21
-12.60498101761224
 31
0.0
  0
LINE
  5
4A13
330
1F
100
AcDbEntity
  8
AM_0
100
AcDbLine
 10
-16.05540317613482
 20
-15.50372369339224
 30
0.0
 11
-15.04331821519482
 21
-11.63211114456224
 31
0.0
  0
LINE
  5
4A14
330
1F
100
AcDbEntity
  8
AM_0
100
AcDbLine
 10
-14.22541660386482
 20
-11.97964532425224
 30
0.0
 11
-15.22233432847482
 21
-15.79306085159223
 31
0.0
  0
LINE
  5
4A29
330
1F
100
AcDbEntity
  8
AM_11
100
AcDbLine
 10
-12.99995273668482
 20
31.49957220504775
 30
0.0
 11
0.0000472633151785
 21
31.49957220504775
 31
0.0
  0
LINE
  5
4A2A
330
1F
100
AcDbEntity
  8
AM_0
100
AcDbLine
 10
-1.741651955434823
 20
17.61059515426776
 30
0.0
 11
-16.94465488511482
 21
18.14160101363776
 31
0.0
  0
LINE
  5
4A2B
330
1F
100
AcDbEntity
  8
AM_0
100
AcDbLine
 10
-4.348249855824822
 20
22.28118841598776
 30
0.0
 11
-9.22025913316482
 21
22.32330267379775
 31
0.0
  0
LINE
  5
4A2C
330
1F
100
AcDbEntity
  8
AM_0
100
AcDbLine
 10
-1.579054299184822
 20
22.24554388473776
 30
0.0
 11
-13.99894565660482
 21
22.35284368941775
 31
0.0
  0
LINE
  5
4A2D
330
1F
100
AcDbEntity
  8
AM_0
100
AcDbLine
 10
-1.612715187854821
 20
22.20452825973775
 30
0.0
 11
-1.744734230824822
 21
18.41152899215775
 31
0.0
  0
LINE
  5
4A2E
330
1F
100
AcDbEntity
  8
AM_0
100
AcDbLine
 10
-0.2000870140248201
 20
28.82269232223776
 30
0.0
 11
-1.045393410504818
 21
22.88259832809776
 31
0.0
  0
LINE
  5
4A2F
330
1F
100
AcDbEntity
  8
AM_0
100
AcDbLine
 10
-0.2000564964448193
 20
28.82269232223776
 30
0.0
 11
-0.0822586448848202
 21
30.57998602340775
 31
0.0
  0
ARC
  5
4A30
330
1F
100
AcDbEntity
  8
AM_0
100
AcDbCircle
 10
-15.91569370347482
 20
23.63757269332776
 30
0.0
 40
1.9973244667053
100
AcDbArc
 50
127.9026603887436
 51
267.9934636810581
  0
ARC
  5
4A31
330
1F
100
AcDbEntity
  8
AM_0
100
AcDbCircle
 10
-15.63069004136481
 20
23.62857000777776
 30
0.0
 40
1.997150182723999
100
AcDbArc
 50
135.5814049404823
 51
263.9160319918565
  0
ARC
  5
4A32
330
1F
100
AcDbEntity
  8
AM_0
100
AcDbCircle
 10
-8.243299904644818
 20
26.90118353316775
 30
0.0
 40
2.1999518871307
100
AcDbArc
 50
89.60672886349245
 51
267.6345509005525
  0
ARC
  5
4A33
330
1F
100
AcDbEntity
  8
AM_0
100
AcDbCircle
 10
-8.330397072614818
 20
26.90417425582776
 30
0.0
 40
2.200040817260699
100
AcDbArc
 50
87.99948972913758
 51
267.9993991154464
  0
CIRCLE
  5
4A34
330
1F
100
AcDbEntity
  8
AM_0
100
AcDbCircle
 10
-8.46360630113482
 20
26.90887396285775
 30
0.0
 40
2.992700099945099
  0
ARC
  5
4A35
330
1F
100
AcDbEntity
  8
AM_0
100
AcDbCircle
 10
-8.434706154644818
 20
26.61016790816775
 30
0.0
 40
1.749966979026799
100
AcDbArc
 50
267.999112247504
 51
87.99921970929712
  0
ARC
  5
4A36
330
1F
100
AcDbEntity
  8
AM_0
100
AcDbCircle
 10
-8.434706154644818
 20
26.61016790816775
 30
0.0
 40
1.750066876411399
100
AcDbArc
 50
87.99923018194856
 51
267.999112247504
  0
LINE
  5
4A38
330
1F
100
AcDbEntity
  8
AM_0
100
AcDbLine
 10
-6.468733254254819
 20
21.86465399215776
 30
0.0
 11
-9.899733010114818
 21
21.98464910934776
 31
0.0
  0
LINE
  5
4A3A
330
1F
100
AcDbEntity
  8
AM_0
100
AcDbLine
 10
-9.799025002304819
 20
22.31655828902775
 30
0.0
 11
-9.798841896834819
 21
22.32760565231776
 31
0.0
  0
LINE
  5
4A3B
330
1F
100
AcDbEntity
  8
AM_0
100
AcDbLine
 10
-17.05897373277482
 20
25.00656073043776
 30
0.0
 11
-16.05528110582482
 21
30.94113104293776
 31
0.0
  0
LINE
  5
4A3C
330
1F
100
AcDbEntity
  8
AM_0
100
AcDbLine
 10
-20.02870029527481
 20
29.73956243941776
 30
0.0
 11
-20.02870029527481
 21
29.30157415816776
 31
0.0
  0
ARC
  5
4A3D
330
1F
100
AcDbEntity
  8
AM_0
100
AcDbCircle
 10
-15.61259311753481
 20
24.28848211715776
 30
0.0
 40
2.5000431537628
100
AcDbArc
 50
215.6977924517776
 51
218.9797973857093
  0
ARC
  5
4A3E
330
1F
100
AcDbEntity
  8
AM_0
100
AcDbCircle
 10
-15.91569370347482
 20
23.63757269332776
 30
0.0
 40
1.9992258548737
100
AcDbArc
 50
267.9934636810581
 51
320.2932466842212
  0
LINE
  5
4A3F
330
1F
100
AcDbEntity
  8
AM_0
100
AcDbLine
 10
-17.00587314683482
 20
25.32092230270776
 30
0.0
 11
-17.14271396714481
 21
25.21356146285776
 31
0.0
  0
LINE
  5
4A40
330
1F
100
AcDbEntity
  8
AM_0
100
AcDbLine
 10
-17.05906528550482
 20
25.00659124801776
 30
0.0
 11
-17.22367710191482
 21
23.25100653121776
 31
0.0
  0
LINE
  5
4A41
330
1F
100
AcDbEntity
  8
AM_0
100
AcDbLine
 10
-6.984693947614822
 20
3.38857977340776
 30
0.0
 11
-1.828688088244823
 21
3.556609558567762
 31
0.0
  0
LINE
  5
4A42
330
1F
100
AcDbEntity
  8
AM_0
100
AcDbLine
 10
-14.22547763902482
 20
-11.97958428909223
 30
0.0
 11
-1.899122658554824
 21
-12.60498101761224
 31
0.0
  0
LINE
  5
4A43
330
1F
100
AcDbEntity
  8
AM_0
100
AcDbLine
 10
-1.345716896834824
 20
-12.29943902542224
 30
0.0
 11
-1.345716896834822
 21
3.885558533167757
 31
0.0
  0
LINE
  5
4A44
330
1F
100
AcDbEntity
  8
AM_0
100
AcDbLine
 10
-1.828688088244825
 20
-12.52343804886224
 30
0.0
 11
-1.828688088244823
 21
3.556579040987761
 31
0.0
  0
LINE
  5
4A45
330
1F
100
AcDbEntity
  8
AM_0
100
AcDbLine
 10
-1.345686379254821
 20
3.88568060348776
 30
0.0
 11
-1.828718605824824
 21
3.556670593717759
 31
0.0
  0
LINE
  5
4A46
330
1F
100
AcDbEntity
  8
AM_0
100
AcDbLine
 10
-1.141645851914824
 20
-12.25775201370224
 30
0.0
 11
-1.315138283554824
 21
-9.772980285182239
 31
0.0
  0
LINE
  5
4A47
330
1F
100
AcDbEntity
  8
AM_0
100
AcDbLine
 10
-0.0837540062148264
 20
-13.07952935745224
 30
0.0
 11
-0.0822586448848256
 21
-13.03271539261224
 31
0.0
  0
LINE
  5
4A48
330
1F
100
AcDbEntity
  8
AM_0
100
AcDbLine
 10
-0.2000870140248252
 20
-12.41711480667224
 30
0.0
 11
-0.0822891624648264
 21
-13.03271539261224
 31
0.0
  0
LINE
  5
4A49
330
1F
100
AcDbEntity
  8
AM_0
100
AcDbLine
 10
-0.1999344261348255
 20
-12.41717584183224
 30
0.0
 11
-1.045240822614823
 21
-10.36788995315224
 31
0.0
  0
LINE
  5
4A4A
330
1F
100
AcDbEntity
  8
AM_0
100
AcDbLine
 10
-1.045210305034822
 20
-10.36785943558224
 30
0.0
 11
-1.106520119494825
 21
-11.01455743362224
 31
0.0
  0
LINE
  5
4A4B
330
1F
100
AcDbEntity
  8
AM_0
100
AcDbLine
 10
-1.345777931994825
 20
-12.29943902542224
 30
0.0
 11
-1.828779640974823
 21
-12.52343804886224
 31
0.0
  0
LINE
  5
4A4C
330
1F
100
AcDbEntity
  8
AM_0
100
AcDbLine
 10
-1.597822609724823
 20
-12.41638238479223
 30
0.0
 11
-1.595808449574826
 21
-12.65243585159224
 31
0.0
  0
LINE
  5
4A4D
330
1F
100
AcDbEntity
  8
AM_0
100
AcDbLine
 10
-1.425001564804824
 20
-9.319611144562241
 30
0.0
 11
-1.315199318714825
 21
-9.772919250032241
 31
0.0
  0
LINE
  5
4A4E
330
1F
100
AcDbEntity
  8
AM_0
100
AcDbLine
 10
-1.441999855824826
 20
-12.17794854690223
 30
0.0
 11
-1.923902931994825
 21
-12.40396173050224
 31
0.0
  0
LINE
  5
4A4F
330
1F
100
AcDbEntity
  8
AM_0
100
AcDbLine
 10
-12.92671054918482
 20
-11.91241509964224
 30
0.0
 11
-12.92671054918482
 21
3.194579529267762
 31
0.0
  0
LINE
  5
4A50
330
1F
100
AcDbEntity
  8
AM_0
100
AcDbLine
 10
-12.92674106675482
 20
3.194579529267762
 30
0.0
 11
-7.781752053084822
 21
3.362548279267761
 31
0.0
  0
LINE
  5
4A51
330
1F
100
AcDbEntity
  8
AM_0
100
AcDbLine
 10
-9.503462258164823
 20
0.076598572237762
 30
0.0
 11
-9.526472512074825
 21
-0.2444158320622393
 31
0.0
  0
LINE
  5
4A52
330
1F
100
AcDbEntity
  8
AM_0
100
AcDbLine
 10
-20.02870029527482
 20
4.028563904267763
 30
0.0
 11
-20.02870029527482
 21
3.751586365207764
 31
0.0
  0
LINE
  5
4A53
330
1F
100
AcDbEntity
  8
AM_0
100
AcDbLine
 10
-5.971723976914824
 20
-5.192444396512238
 30
0.0
 11
-5.883711281604825
 21
-6.452423644562239
 31
0.0
  0
LINE
  5
4A56
330
1F
100
AcDbEntity
  8
AM_11
100
AcDbLine
 10
0.0000472633151708
 20
-31.50042779495224
 30
0.0
 11
-12.99995273668482
 21
-31.50042779495224
 31
0.0
  0
LINE
  5
4A57
330
1F
100
AcDbEntity
  8
AM_0
100
AcDbLine
 10
-6.984724465194826
 20
-27.98248345901224
 30
0.0
 11
-1.828718605824828
 21
-27.89251763870224
 31
0.0
  0
LINE
  5
4A58
330
1F
100
AcDbEntity
  8
AM_0
100
AcDbLine
 10
-1.345716896834824
 20
-17.40142877151224
 30
0.0
 11
-1.345716896834825
 21
-27.57043511917224
 31
0.0
  0
LINE
  5
4A59
330
1F
100
AcDbEntity
  8
AM_0
100
AcDbLine
 10
-1.345716896834824
 20
-17.40142877151224
 30
0.0
 11
-1.345716896834825
 21
-27.57043511917224
 31
0.0
  0
LINE
  5
4A5A
330
1F
100
AcDbEntity
  8
AM_0
100
AcDbLine
 10
-1.741896096054824
 20
-13.75451715042224
 30
0.0
 11
-1.656874123394824
 21
-20.94049127151224
 31
0.0
  0
LINE
  5
4A5B
330
1F
100
AcDbEntity
  8
AM_0
100
AcDbLine
 10
-0.2002090843348246
 20
-16.40689141800224
 30
0.0
 11
-0.0824112327748258
 21
-17.54861505081224
 31
0.0
  0
LINE
  5
4A5C
330
1F
100
AcDbEntity
  8
AM_0
100
AcDbLine
 10
-1.590895119494826
 20
-13.87048394729224
 30
0.0
 11
-1.345900002304825
 21
-17.40148980667224
 31
0.0
  0
LINE
  5
4A5D
330
1F
100
AcDbEntity
  8
AM_0
100
AcDbLine
 10
-1.345777931994827
 20
-27.57040460159224
 30
0.0
 11
-1.828779640974825
 21
-27.89242608597224
 31
0.0
  0
LINE
  5
4A5E
330
1F
100
AcDbEntity
  8
AM_0
100
AcDbLine
 10
-16.25312656480482
 20
-15.08154351761224
 30
0.0
 11
-16.05546421128482
 21
-15.50381524612223
 31
0.0
  0
LINE
  5
4A5F
330
1F
100
AcDbEntity
  8
AM_0
100
AcDbLine
 10
-12.92671054918482
 20
-28.08438165237224
 30
0.0
 11
-19.02873081285482
 21
-28.05642755081223
 31
0.0
  0
LINE
  5
4A60
330
1F
100
AcDbEntity
  8
AM_0
100
AcDbLine
 10
-12.92671054918482
 20
-28.08441216995224
 30
0.0
 11
-7.781721535504825
 21
-27.99542291214224
 31
0.0
  0
LINE
  5
4A61
330
1F
100
AcDbEntity
  8
AM_0
100
AcDbLine
 10
-20.02870029527482
 20
-27.15942437698223
 30
0.0
 11
-20.02870029527482
 21
-27.43444879104223
 31
0.0
  0
LINE
  5
4A62
330
1F
100
AcDbEntity
  8
AM_0
100
AcDbLine
 10
-43.02870029527482
 20
-21.00042779495222
 30
0.0
 11
-43.02870029527482
 21
20.99957220504777
 31
0.0
  0
LINE
  5
4A63
330
1F
100
AcDbEntity
  8
AM_0
100
AcDbLine
 10
-40.02870029527482
 20
-24.00042779495223
 30
0.0
 11
-40.02870029527482
 21
23.99957220504776
 31
0.0
  0
LINE
  5
4A64
330
1F
100
AcDbEntity
  8
AM_0
100
AcDbLine
 10
-28.02870029527482
 20
-11.27844293167223
 30
0.0
 11
-28.02870029527482
 21
11.17358343551776
 31
0.0
  0
LINE
  5
4A65
330
1F
100
AcDbEntity
  8
AM_0
100
AcDbLine
 10
-31.42066806871482
 20
24.99957220504776
 30
0.0
 11
-39.02870029527482
 21
24.99957220504776
 31
0.0
  0
LINE
  5
4A66
330
1F
100
AcDbEntity
  8
AM_0
100
AcDbLine
 10
-31.19981235582482
 20
24.67657415816776
 30
0.0
 11
-24.38575595933482
 21
20.41259710738775
 31
0.0
  0
LINE
  5
4A67
330
1F
100
AcDbEntity
  8
AM_0
100
AcDbLine
 10
-31.42075962144482
 20
24.99948065231776
 30
0.0
 11
-31.19978183824482
 21
24.67648260543776
 31
0.0
  0
ARC
  5
4A68
330
1F
100
AcDbEntity
  8
AM_0
100
AcDbCircle
 10
-39.02870029527482
 20
23.99957220504776
 30
0.0
 40
1.0
100
AcDbArc
 50
89.9999974955215
 51
180.0
  0
LINE
  5
4A69
330
1F
100
AcDbEntity
  8
AM_0
100
AcDbLine
 10
-40.02870029527482
 20
20.49957220504776
 30
0.0
 11
-43.02870029527482
 21
20.49957220504776
 31
0.0
  0
LINE
  5
4A6A
330
1F
100
AcDbEntity
  8
AM_0
100
AcDbLine
 10
-39.02870029527482
 20
-25.00042779495224
 30
0.0
 11
-29.51673740464482
 21
-25.00042779495224
 31
0.0
  0
LINE
  5
4A6B
330
1F
100
AcDbEntity
  8
AM_0
100
AcDbLine
 10
-31.19975132066482
 20
-15.80740411331223
 30
0.0
 11
-24.38572544175482
 21
-14.03439385940223
 31
0.0
  0
ARC
  5
4A6C
330
1F
100
AcDbEntity
  8
AM_0
100
AcDbCircle
 10
-39.02870029527482
 20
-24.00042779495223
 30
0.0
 40
1.0
100
AcDbArc
 50
180.0
 51
270.0000025044784
  0
LINE
  5
4A6D
330
1F
100
AcDbEntity
  8
AM_0
100
AcDbLine
 10
-40.02870029527482
 20
-20.50042779495223
 30
0.0
 11
-43.02870029527482
 21
-20.50042779495223
 31
0.0
  0
LINE
  5
4A6E
330
1F
100
AcDbEntity
  8
AM_0
100
AcDbLine
 10
-43.02870029527482
 20
20.99957220504777
 30
0.0
 11
-247.0287002952748
 21
20.99957220504778
 31
0.0
  0
LINE
  5
4A6F
330
1F
100
AcDbEntity
  8
AM_0
100
AcDbLine
 10
-247.0287002952748
 20
-21.00042779495221
 30
0.0
 11
-43.02870029527482
 21
-21.00042779495222
 31
0.0
  0
LINE
  5
4A70
330
1F
100
AcDbEntity
  8
AM_0
100
AcDbLine
 10
-247.0287002952748
 20
-21.00042779495221
 30
0.0
 11
-247.0287002952748
 21
20.99957220504778
 31
0.0
  0
LINE
  5
4A71
330
1F
100
AcDbEntity
  8
AM_0
100
AcDbLine
 10
-250.0287002952748
 20
-18.66143853714222
 30
0.0
 11
-250.0287002952748
 21
18.66058294723778
 31
0.0
  0
LINE
  5
4A72
330
1F
100
AcDbEntity
  8
AM_0
100
AcDbLine
 10
-247.0286392601148
 20
20.99957220504778
 30
0.0
 11
-248.5466446312148
 21
20.59258978316778
 31
0.0
  0
ARC
  5
4A73
330
1F
100
AcDbEntity
  8
AM_0
100
AcDbCircle
 10
-248.0287002952748
 20
18.66058294723778
 30
0.0
 40
2.000236988067599
100
AcDbArc
 50
105.0089147248954
 51
180.0
  0
ARC
  5
4A74
330
1F
100
AcDbEntity
  8
AM_0
100
AcDbCircle
 10
-248.0287002952748
 20
-18.66143853714222
 30
0.0
 40
2.0
100
AcDbArc
 50
180.0
 51
254.9910852751045
  0
LINE
  5
4A75
330
1F
100
AcDbEntity
  8
AM_0
100
AcDbLine
 10
-248.5466751487848
 20
-20.59344537308222
 30
0.0
 11
-247.0287002952748
 21
-21.00042779495221
 31
0.0
  0
LINE
  5
4B43
330
1F
100
AcDbEntity
  8
AM_0
100
AcDbLine
 10
-19.02870029527482
 20
3.127562927707763
 30
0.0
 11
-12.92671054918482
 21
3.194579529267762
 31
0.0
  0
VIEWPORT
  5
110
330
101
100
AcDbEntity
 67
     1
  8
0
100
AcDbViewport
 10
420.5
 20
297.0
 30
0.0
 40
948.9782706766916
 41
628.452
 68
     1
 69
     1
1001
ACAD
1000
MVIEW
1002
{
1070
    16
1010
0.0
1020
0.0
1030
0.0
1010
0.0
1020
0.0
1030
1.0
1040
0.0
1040
628.452
1040
420.5
1040
297.0
1040
50.0
1040
0.0
1040
0.0
1070
     0
1070
   100
1070
     1
1070
     1
1070
     0
1070
     0
1070
     0
1070
     0
1040
0.0
1040
0.0
1040
0.0
1040
10.0
1040
10.0
1040
10.0
1040
10.0
1070
     0
1002
{
1002
}
1002
}
  0
ENDSEC
  0
SECTION
  2
OBJECTS
  0
DICTIONARY
  5
C
330
0
100
AcDbDictionary
  3
ACAD_GROUP
350
D
  3
ACAD_LAYOUT
350
1A
  3
ACAD_MLINESTYLE
350
17
  3
ACAD_PLOTSETTINGS
350
19
  3
ACAD_PLOTSTYLENAME
350
E
  3
ACDBVARIABLEDICTIONARY
350
34
  3
ACMDICTIONARY
350
43
  3
AMG
350
2B
  3
AMGSNAPSETTINGS
350
6E
  3
DWGPROPS
350
4B78
  3
ACDBHEADERROUNDTRIPXREC
350
4B84
  0
DICTIONARY
  5
74
330
1F
100
AcDbDictionary
280
     1
  3
ACAD_INDEX
360
4B7A
  3
ACAD_LAYOUTSELFREF
360
4BA7
  0
DICTIONARY
  5
4BAC
330
101
100
AcDbDictionary
280
     1
  3
ACAD_LAYOUTSELFREF
360
4BAD
  0
DICTIONARY
  5
D
102
{ACAD_REACTORS
330
C
102
}
330
C
100
AcDbDictionary
  0
DICTIONARY
  5
1A
102
{ACAD_REACTORS
330
C
102
}
330
C
100
AcDbDictionary
  0
DICTIONARY
  5
17
102
{ACAD_REACTORS
330
C
102
}
330
C
100
AcDbDictionary
  3
STANDARD
350
18
  0
DICTIONARY
  5
19
102
{ACAD_REACTORS
330
C
102
}
330
C
100
AcDbDictionary
  0
ACDBDICTIONARYWDFLT
  5
E
102
{ACAD_REACTORS
330
C
102
}
330
C
100
AcDbDictionary
281
     1
  3
Normal
350
F
100
AcDbDictionaryWithDefault
340
F
  0
DICTIONARY
  5
34
102
{ACAD_REACTORS
330
C
102
}
330
C
100
AcDbDictionary
  3
INDEXCTL
350
35
  3
SORTENTS
350
B5E
  0
DICTIONARY
  5
43
102
{ACAD_REACTORS
330
C
102
}
330
C
100
AcDbDictionary
  3
ACMSTDDICTIONARY
350
260
  0
DICTIONARY
  5
2B
102
{ACAD_REACTORS
330
C
102
}
330
C
100
AcDbDictionary
  3
ACMGSETTINGS
350
2C
  0
DICTIONARY
  5
6E
102
{ACAD_REACTORS
330
C
102
}
330
C
100
AcDbDictionary
  0
XRECORD
  5
4B78
102
{ACAD_REACTORS
330
C
102
}
330
C
100
AcDbXrecord
  1
DWGPROPS COOKIE
  2

  3

  4

  6

  7

  8

  9

300
AmdtFileType=82
301
=
302
=
303
=
304
=
305
=
306
=
307
=
308
=
309
=
 40
0.1575601851851852
 41
2452839.420061482
 42
2453075.630673819
  1

 90
        1
  0
DICTIONARY
  5
4B84
102
{ACAD_REACTORS
330
C
102
}
330
C
100
AcDbDictionary
  3
TSTACKALIGN
350
4B85
  3
TSTACKSIZE
350
4B86
  3
HYPERLINKBASE
350
4B87
  3
STYLESHEET
350
4B88
  3
LAYOUTDICT
350
4B89
  3
PLOTSETDICT
350
4B8A
  3
PLOTSTYLNAMDICT
350
4B8B
  3
LWETCUNION
350
4B8C
  3
INSUNITS
350
4B8D
  3
CEPSNTYPE
350
4B8E
  3
FINGERPRINTGUID
350
4B8F
  3
VERSIONGUID
350
4B90
  3
PSVPSCALE
350
4B91
  3
DIMSTYLEDATA
350
4B92
  3
PUCSORTHOREF
350
4B93
  3
PUCSORTHOVIEW
350
4B94
  3
PUCSBASE
350
4B95
  3
PUCSORGTOP
350
4B96
  3
PUCSORGBOTTOM
350
4B97
  3
PUCSORGLEFT
350
4B98
  3
PUCSORGRIGHT
350
4B99
  3
PUCSORGFRONT
350
4B9A
  3
PUCSORGBACK
350
4B9B
  3
UCSORTHOREF
350
4B9C
  3
UCSORTHOVIEW
350
4B9D
  3
UCSBASE
350
4B9E
  3
UCSORGTOP
350
4B9F
  3
UCSORGBOTTOM
350
4BA0
  3
UCSORGLEFT
350
4BA1
  3
UCSORGRIGHT
350
4BA2
  3
UCSORGFRONT
350
4BA3
  3
UCSORGBACK
350
4BA4
  0
DICTIONARY
  5
4B7A
102
{ACAD_REACTORS
330
74
102
}
330
74
100
AcDbDictionary
  3
*A1
350
4B7B
  0
XRECORD
  5
4BA7
102
{ACAD_REACTORS
330
74
102
}
330
74
100
AcDbXrecord
340
1F
  0
XRECORD
  5
4BAD
102
{ACAD_REACTORS
330
4BAC
102
}
330
4BAC
100
AcDbXrecord
340
101
  0
MLINESTYLE
  5
18
102
{ACAD_REACTORS
330
17
102
}
330
17
100
AcDbMlineStyle
  2
STANDARD
 70
     0
  3

 62
   256
 51
90.0
 52
90.0
 71
     2
 49
0.5
 62
   256
  6
BYLAYER
 49
-0.5
 62
   256
  6
BYLAYER
  0
ACDBPLACEHOLDER
  5
F
102
{ACAD_REACTORS
330
E
102
}
330
E
100
AcDbPlaceHolder
280
     0
  0
DICTIONARYVAR
  5
35
102
{ACAD_REACTORS
330
34
102
}
330
34
100
DictionaryVariables
280
     0
  1
1
  0
DICTIONARYVAR
  5
B5E
102
{ACAD_REACTORS
330
34
102
}
330
34
100
DictionaryVariables
280
     0
  1
96
  0
DICTIONARY
  5
260
102
{ACAD_REACTORS
330
43
102
}
330
43
100
AcDbDictionary
  0
DICTIONARY
  5
2C
102
{ACAD_REACTORS
330
2B
102
}
330
2B
100
AcDbDictionary
  3
DWGSETTINGS
350
2D
  0
XRECORD
  5
4B85
102
{ACAD_REACTORS
330
4B84
102
}
330
4B84
100
AcDbXrecord
 90
        1
  0
XRECORD
  5
4B86
102
{ACAD_REACTORS
330
4B84
102
}
330
4B84
100
AcDbXrecord
 90
       70
  0
XRECORD
  5
4B87
102
{ACAD_REACTORS
330
4B84
102
}
330
4B84
100
AcDbXrecord
  1

  0
XRECORD
  5
4B88
102
{ACAD_REACTORS
330
4B84
102
}
330
4B84
100
AcDbXrecord
  1
ASAMI.ctb
  0
XRECORD
  5
4B89
102
{ACAD_REACTORS
330
4B84
102
}
330
4B84
100
AcDbXrecord
340
1A
  0
XRECORD
  5
4B8A
102
{ACAD_REACTORS
330
4B84
102
}
330
4B84
100
AcDbXrecord
340
19
  0
XRECORD
  5
4B8B
102
{ACAD_REACTORS
330
4B84
102
}
330
4B84
100
AcDbXrecord
340
E
  0
XRECORD
  5
4B8C
102
{ACAD_REACTORS
330
4B84
102
}
330
4B84
100
AcDbXrecord
 90
    10781
  0
XRECORD
  5
4B8D
102
{ACAD_REACTORS
330
4B84
102
}
330
4B84
100
AcDbXrecord
 90
        4
  0
XRECORD
  5
4B8E
102
{ACAD_REACTORS
330
4B84
102
}
330
4B84
100
AcDbXrecord
 90
        0
  0
XRECORD
  5
4B8F
102
{ACAD_REACTORS
330
4B84
102
}
330
4B84
100
AcDbXrecord
  1
{AFB28963-8C59-40AE-9337-C84526B81ACE}
  0
XRECORD
  5
4B90
102
{ACAD_REACTORS
330
4B84
102
}
330
4B84
100
AcDbXrecord
  1
{CDCE9D65-1494-4634-9564-7C659E3B5FA7}
  0
XRECORD
  5
4B91
102
{ACAD_REACTORS
330
4B84
102
}
330
4B84
100
AcDbXrecord
 40
0.0
  0
XRECORD
  5
4B92
102
{ACAD_REACTORS
330
4B84
102
}
330
4B84
100
AcDbXrecord
1000
DSTYLE
1002
{
1070
    79
 70
     2
1070
   341
340
59
1070
   342
340
59
1070
   371
 70
    -1
1070
   372
 70
    -1
1002
}
  0
XRECORD
  5
4B93
102
{ACAD_REACTORS
330
4B84
102
}
330
4B84
100
AcDbXrecord
340
0
  0
XRECORD
  5
4B94
102
{ACAD_REACTORS
330
4B84
102
}
330
4B84
100
AcDbXrecord
 70
     0
  0
XRECORD
  5
4B95
102
{ACAD_REACTORS
330
4B84
102
}
330
4B84
100
AcDbXrecord
340
0
  0
XRECORD
  5
4B96
102
{ACAD_REACTORS
330
4B84
102
}
330
4B84
100
AcDbXrecord
 10
0.0
 20
0.0
 30
0.0
  0
XRECORD
  5
4B97
102
{ACAD_REACTORS
330
4B84
102
}
330
4B84
100
AcDbXrecord
 10
0.0
 20
0.0
 30
0.0
  0
XRECORD
  5
4B98
102
{ACAD_REACTORS
330
4B84
102
}
330
4B84
100
AcDbXrecord
 10
0.0
 20
0.0
 30
0.0
  0
XRECORD
  5
4B99
102
{ACAD_REACTORS
330
4B84
102
}
330
4B84
100
AcDbXrecord
 10
0.0
 20
0.0
 30
0.0
  0
XRECORD
  5
4B9A
102
{ACAD_REACTORS
330
4B84
102
}
330
4B84
100
AcDbXrecord
 10
0.0
 20
0.0
 30
0.0
  0
XRECORD
  5
4B9B
102
{ACAD_REACTORS
330
4B84
102
}
330
4B84
100
AcDbXrecord
 10
0.0
 20
0.0
 30
0.0
  0
XRECORD
  5
4B9C
102
{ACAD_REACTORS
330
4B84
102
}
330
4B84
100
AcDbXrecord
340
0
  0
XRECORD
  5
4B9D
102
{ACAD_REACTORS
330
4B84
102
}
330
4B84
100
AcDbXrecord
 70
     0
  0
XRECORD
  5
4B9E
102
{ACAD_REACTORS
330
4B84
102
}
330
4B84
100
AcDbXrecord
340
0
  0
XRECORD
  5
4B9F
102
{ACAD_REACTORS
330
4B84
102
}
330
4B84
100
AcDbXrecord
 10
0.0
 20
0.0
 30
0.0
  0
XRECORD
  5
4BA0
102
{ACAD_REACTORS
330
4B84
102
}
330
4B84
100
AcDbXrecord
 10
0.0
 20
0.0
 30
0.0
  0
XRECORD
  5
4BA1
102
{ACAD_REACTORS
330
4B84
102
}
330
4B84
100
AcDbXrecord
 10
0.0
 20
0.0
 30
0.0
  0
XRECORD
  5
4BA2
102
{ACAD_REACTORS
330
4B84
102
}
330
4B84
100
AcDbXrecord
 10
0.0
 20
0.0
 30
0.0
  0
XRECORD
  5
4BA3
102
{ACAD_REACTORS
330
4B84
102
}
330
4B84
100
AcDbXrecord
 10
0.0
 20
0.0
 30
0.0
  0
XRECORD
  5
4BA4
102
{ACAD_REACTORS
330
4B84
102
}
330
4B84
100
AcDbXrecord
 10
0.0
 20
0.0
 30
0.0
  0
LAYER_INDEX
  5
4B7B
102
{ACAD_REACTORS
330
4B7A
102
}
330
4B7A
100
AcDbIndex
 40
2453152.393562916
100
AcDbLayerIndex
  8
0
360
4B7C
 90
        0
  8
AM_0
360
4B7D
 90
      156
  8
AM_7
360
4B7E
 90
        1
  8
AM_11
360
4B7F
 90
        4
  8
AM_5
360
4B80
 90
        6
  8
Defpoints
360
4B81
 90
        0
  8
AM_6
360
4B82
 90
        1
  0
XRECORD
  5
2D
102
{ACAD_REACTORS
330
2C
102
}
330
2C
100
AcDbXrecord
  1
VERSION
140
15.0
  1
PRODUCT
  2
AutoCAD Mechanical 2000
  0
IDBUFFER
  5
4B7C
330
0
100
AcDbIdBuffer
  0
IDBUFFER
  5
4B7D
330
0
100
AcDbIdBuffer
330
4A48
330
4A49
330
4A4A
330
4A4B
330
4A4C
330
4A4D
330
4A4E
330
4A4F
330
4A50
330
4A51
330
4A52
330
4A53
330
4A57
330
4A58
330
4A59
330
4A5A
330
4A5B
330
4A5C
330
4A5D
330
4A5E
330
4A5F
330
4A60
330
4A61
330
4A62
330
4A63
330
4A64
330
4A65
330
4A66
330
4A67
330
4A68
330
4A69
330
4A6A
330
4A6B
330
4A6C
330
4A6D
330
4A6E
330
4A6F
330
4A70
330
4A71
330
4A72
330
4A73
330
4A74
330
4A75
330
4B43
330
4940
330
4941
330
4942
330
494D
330
494E
330
494F
330
4950
330
4951
330
4952
330
4953
330
4954
330
4955
330
4956
330
4957
330
4958
330
4959
330
495A
330
495B
330
495C
330
495D
330
495E
330
495F
330
4960
330
4961
330
4962
330
4963
330
4964
330
4965
330
4966
330
4967
330
4968
330
4969
330
496A
330
496B
330
496C
330
496D
330
496E
330
496F
330
4970
330
4971
330
4972
330
4973
330
4974
330
4975
330
4976
330
4977
330
4978
330
4979
330
497A
330
497B
330
497C
330
497D
330
497E
330
497F
330
4980
330
4981
330
4982
330
4983
330
4984
330
4985
330
4986
330
4987
330
4988
330
4989
330
498A
330
4994
330
4995
330
4996
330
4997
330
4998
330
499C
330
4A06
330
4A07
330
4A0A
330
4A0B
330
4A0C
330
4A0D
330
4A0E
330
4A0F
330
4A10
330
4A11
330
4A12
330
4A13
330
4A14
330
4A2A
330
4A2B
330
4A2C
330
4A2D
330
4A2E
330
4A2F
330
4A30
330
4A31
330
4A32
330
4A33
330
4A34
330
4A35
330
4A36
330
4A38
330
4A3A
330
4A3B
330
4A3C
330
4A3D
330
4A3E
330
4A3F
330
4A40
330
4A41
330
4A42
330
4A43
330
4A44
330
4A45
330
4A46
330
4A47
  0
IDBUFFER
  5
4B7E
330
0
100
AcDbIdBuffer
330
4910
  0
IDBUFFER
  5
4B7F
330
0
100
AcDbIdBuffer
330
4A08
330
4A09
330
4A29
330
4A56
  0
IDBUFFER
  5
4B80
330
0
100
AcDbIdBuffer
330
385C
330
38E8
330
3983
330
3A0B
330
3AF5
330
3B7D
  0
IDBUFFER
  5
4B81
330
0
100
AcDbIdBuffer
  0
IDBUFFER
  5
4B82
330
0
100
AcDbIdBuffer
330
1142
  0
ENDSEC
  0
EOF
