  0
SECTION
  2
HEADER
  9
$ACADVER
  1
AC1014
  9
$ACADMAINTVER
 70
     9
  9
$DWGCODEPAGE
  3
ANSI_932
  9
$INSBASE
 10
0.0
 20
0.0
 30
0.0
  9
$EXTMIN
 10
-145.5251444326119
 20
-78.000001
 30
-0.00000001
  9
$EXTMAX
 10
20.96475701196298
 20
31.65800600609442
 30
0.00000001
  9
$LIMMIN
 10
-153.225325666733
 20
-94.26819014581218
  9
$LIMMAX
 10
31.74274416361924
 20
51.4914916935337
  9
$ORTHOMODE
 70
     0
  9
$REGENMODE
 70
     1
  9
$FILLMODE
 70
     1
  9
$QTEXTMODE
 70
     0
  9
$MIRRTEXT
 70
     0
  9
$DRAGMODE
 70
     2
  9
$LTSCALE
 40
1.0
  9
$OSMODE
 70
    55
  9
$ATTMODE
 70
     1
  9
$TEXTSIZE
 40
2.5
  9
$TRACEWID
 40
1.0
  9
$TEXTSTYLE
  7
STANDARD
  9
$CLAYER
  8
AM_0
  9
$CELTYPE
  6
BYLAYER
  9
$CECOLOR
 62
   256
  9
$CELTSCALE
 40
1.0
  9
$DELOBJ
 70
     1
  9
$DISPSILH
 70
     0
  9
$DIMSCALE
 40
1.0
  9
$DIMASZ
 40
2.5
  9
$DIMEXO
 40
1.0
  9
$DIMDLI
 40
12.0
  9
$DIMRND
 40
0.0
  9
$DIMDLE
 40
0.0
  9
$DIMEXE
 40
1.0
  9
$DIMTP
 40
0.1
  9
$DIMTM
 40
0.1
  9
$DIMTXT
 40
3.2
  9
$DIMCEN
 40
0.0
  9
$DIMTSZ
 40
0.0
  9
$DIMTOL
 70
     0
  9
$DIMLIM
 70
     0
  9
$DIMTIH
 70
     0
  9
$DIMTOH
 70
     0
  9
$DIMSE1
 70
     0
  9
$DIMSE2
 70
     0
  9
$DIMTAD
 70
     3
  9
$DIMZIN
 70
     8
  9
$DIMBLK
  1
OPEN30
  9
$DIMASO
 70
     1
  9
$DIMSHO
 70
     1
  9
$DIMPOST
  1

  9
$DIMAPOST
  1
"
  9
$DIMALT
 70
     0
  9
$DIMALTD
 70
     2
  9
$DIMALTF
 40
0.0393701
  9
$DIMLFAC
 40
1.0
  9
$DIMTOFL
 70
     1
  9
$DIMTVP
 40
0.0
  9
$DIMTIX
 70
     0
  9
$DIMSOXD
 70
     0
  9
$DIMSAH
 70
     0
  9
$DIMBLK1
  1

  9
$DIMBLK2
  1

  9
$DIMSTYLE
  2
AM_JIS
  9
$DIMCLRD
 70
   256
  9
$DIMCLRE
 70
   256
  9
$DIMCLRT
 70
     2
  9
$DIMTFAC
 40
0.71
  9
$DIMGAP
 40
1.5
  9
$DIMJUST
 70
     0
  9
$DIMSD1
 70
     0
  9
$DIMSD2
 70
     0
  9
$DIMTOLJ
 70
     0
  9
$DIMTZIN
 70
     0
  9
$DIMALTZ
 70
     0
  9
$DIMALTTZ
 70
     0
  9
$DIMFIT
 70
     3
  9
$DIMUPT
 70
     0
  9
$DIMUNIT
 70
     2
  9
$DIMDEC
 70
     3
  9
$DIMTDEC
 70
     3
  9
$DIMALTU
 70
     2
  9
$DIMALTTD
 70
     2
  9
$DIMTXSTY
  7
ASAMI
  9
$DIMAUNIT
 70
     0
  9
$LUNITS
 70
     2
  9
$LUPREC
 70
     2
  9
$SKETCHINC
 40
1.0
  9
$FILLETRAD
 40
2.5
  9
$AUNITS
 70
     0
  9
$AUPREC
 70
     0
  9
$MENU
  1
.
  9
$ELEVATION
 40
0.0
  9
$PELEVATION
 40
0.0
  9
$THICKNESS
 40
0.0
  9
$LIMCHECK
 70
     0
  9
$BLIPMODE
 70
     0
  9
$CHAMFERA
 40
0.5
  9
$CHAMFERB
 40
0.5
  9
$CHAMFERC
 40
20.0
  9
$CHAMFERD
 40
0.0
  9
$SKPOLY
 70
     0
  9
$TDCREATE
 40
2452838.430434386
  9
$TDUPDATE
 40
2453152.391498692
  9
$TDINDWG
 40
0.1995739236
  9
$TDUSRTIMER
 40
0.1995739236
  9
$USRTIMER
 70
     1
  9
$ANGBASE
 50
0.0
  9
$ANGDIR
 70
     0
  9
$PDMODE
 70
     0
  9
$PDSIZE
 40
0.0
  9
$PLINEWID
 40
0.0
  9
$COORDS
 70
     1
  9
$SPLFRAME
 70
     0
  9
$SPLINETYPE
 70
     6
  9
$SPLINESEGS
 70
     8
  9
$ATTDIA
 70
     1
  9
$ATTREQ
 70
     1
  9
$HANDLING
 70
 12289
  9
$HANDSEED
  5
74C7
  9
$SURFTAB1
 70
     6
  9
$SURFTAB2
 70
     6
  9
$SURFTYPE
 70
     6
  9
$SURFU
 70
     6
  9
$SURFV
 70
     6
  9
$UCSNAME
  2

  9
$UCSORG
 10
0.0
 20
0.0
 30
0.0
  9
$UCSXDIR
 10
1.0
 20
0.0
 30
0.0
  9
$UCSYDIR
 10
0.0
 20
1.0
 30
0.0
  9
$PUCSNAME
  2

  9
$PUCSORG
 10
0.0
 20
0.0
 30
0.0
  9
$PUCSXDIR
 10
1.0
 20
0.0
 30
0.0
  9
$PUCSYDIR
 10
0.0
 20
1.0
 30
0.0
  9
$USERI1
 70
     0
  9
$USERI2
 70
     0
  9
$USERI3
 70
     0
  9
$USERI4
 70
     0
  9
$USERI5
 70
     0
  9
$USERR1
 40
0.0
  9
$USERR2
 40
0.0
  9
$USERR3
 40
0.0
  9
$USERR4
 40
0.0
  9
$USERR5
 40
0.0
  9
$WORLDVIEW
 70
     1
  9
$SHADEDGE
 70
     3
  9
$SHADEDIF
 70
    70
  9
$TILEMODE
 70
     1
  9
$MAXACTVP
 70
    64
  9
$PINSBASE
 10
0.0
 20
0.0
 30
0.0
  9
$PLIMCHECK
 70
     0
  9
$PEXTMIN
 10
1.000000000000000E+20
 20
1.000000000000000E+20
 30
1.000000000000000E+20
  9
$PEXTMAX
 10
-1.000000000000000E+20
 20
-1.000000000000000E+20
 30
-1.000000000000000E+20
  9
$PLIMMIN
 10
0.0
 20
0.0
  9
$PLIMMAX
 10
841.0
 20
594.0
  9
$UNITMODE
 70
     0
  9
$VISRETAIN
 70
     1
  9
$PLINEGEN
 70
     0
  9
$PSLTSCALE
 70
     0
  9
$TREEDEPTH
 70
  3020
  9
$PICKSTYLE
 70
     0
  9
$CMLSTYLE
  2
STANDARD
  9
$CMLJUST
 70
     0
  9
$CMLSCALE
 40
20.0
  9
$PROXYGRAPHICS
 70
     1
  9
$MEASUREMENT
 70
     1
  0
ENDSEC
  0
SECTION
  2
CLASSES
  0
CLASS
  1
ACDBDICTIONARYWDFLT
  2
AcDbDictionaryWithDefault
  3
AutoCAD 2000
 90
        0
280
     0
281
     0
  0
CLASS
  1
ACDBPLACEHOLDER
  2
AcDbPlaceHolder
  3
AutoCAD 2000
 90
        0
280
     0
281
     0
  0
CLASS
  1
LAYOUT
  2
AcDbLayout
  3
AutoCAD 2000
 90
        0
280
     0
281
     0
  0
CLASS
  1
AMGSETTINGSOBJ
  2
AmgSettingsObj
  3
"AcadM|Product Description: AutoCAD Mechanical 2000|Company: Autodesk"
 90
        0
280
     0
281
     0
  0
CLASS
  1
ACME_DOCUMENT
  2
AcMeDbDoc
  3
AcMeServices
 90
        0
280
     0
281
     0
  0
CLASS
  1
ACMESCOPE
  2
AcMeScope
  3
AcMeServices
 90
        0
280
     0
281
     0
  0
CLASS
  1
ACMECOMMANDHISTORY
  2
AcMeCommandHistory
  3
AcMeServices
 90
        0
280
     0
281
     0
  0
CLASS
  1
DICTIONARYVAR
  2
AcDbDictionaryVar
  3
AutoCAD 2000
 90
        0
280
     0
281
     0
  0
CLASS
  1
ACIMSYSVARMAN
  2
AcImSysVarManager
  3
AcMeServices
 90
        0
280
     0
281
     0
  0
CLASS
  1
ACIMREALSYSVAR
  2
AcImRealSysVar
  3
AcMeServices
 90
        0
280
     0
281
     0
  0
CLASS
  1
ACIMINTSYSVAR
  2
AcImIntSysVar
  3
AcMeServices
 90
        0
280
     0
281
     0
  0
CLASS
  1
ACMEDRAWINGMAN
  2
AcMeDrawingMan
  3
AcMeServices
 90
        0
280
     0
281
     0
  0
CLASS
  1
ACMEVIEW
  2
AcMeView
  3
AcMeServices
 90
        0
280
     0
281
     0
  0
CLASS
  1
ACDBENTITYCACHE
  2
AcMeEntityCache
  3
AcMeServices
 90
        0
280
     0
281
     0
  0
CLASS
  1
GSMANAGER
  2
AcMeGSManager
  3
AcMeServices
 90
        0
280
     0
281
     0
  0
CLASS
  1
AmdtInternalReactor
  2
AmdtInternalReactor
  3
AcMeServices
 90
        0
280
     0
281
     0
  0
CLASS
  1
ACMESTATEMGR
  2
AcMeStateMgr
  3
AcMeServices
 90
        0
280
     0
281
     0
  0
CLASS
  1
ACME_DATABASE
  2
AcMeDbDatabase
  3
AcMeServices
 90
        0
280
     0
281
     0
  0
CLASS
  1
ACRFINSADJUSTERMGR
  2
AcRfInsAdjusterMgr
  3
AcMeServices
 90
        0
280
     0
281
     0
  0
CLASS
  1
ACMDATADICTIONARY
  2
AcmDataDictionary
  3
"AcmSymBB|Product Description: AutoCAD Mechanical 2000|Company: Autodesk"
 90
        0
280
     0
281
     0
  0
CLASS
  1
ACMDATAENTRYBLOCK
  2
AcmDataEntryBlock
  3
"AcmSymBB|Product Description: AutoCAD Mechanical 2000|Company: Autodesk"
 90
        0
280
     0
281
     0
  0
CLASS
  1
AMGOBJPROPCFG
  2
AmgObjPropCfg
  3
"AmgLay|Product Description: AutoCAD Mechanical 2000|Company: Autodesk"
 90
        1
280
     0
281
     0
  0
CLASS
  1
ACAMGFILTERDAT
  2
AcAmgFilterDat
  3
"AcadM|Product Description: AutoCAD Mechanical 2000|Company: Autodesk"
 90
        0
280
     0
281
     0
  0
CLASS
  1
LAYER_INDEX
  2
AcDbLayerIndex
  3
AutoCAD 2000
 90
        0
280
     0
281
     0
  0
CLASS
  1
IDBUFFER
  2
AcDbIdBuffer
  3
AutoCAD 2000
 90
        0
280
     0
281
     0
  0
CLASS
  1
ACIMSTRSYSVAR
  2
AcImStrSysVar
  3
AcMeServices
 90
        0
280
     0
281
     0
  0
CLASS
  1
ACMSTANDARDJIS
  2
AcmStandardJIS
  3
"AcmSymBB|Product Description: AutoCAD Mechanical 2000|Company: Autodesk"
 90
        0
280
     0
281
     0
  0
CLASS
  1
ACMSURFSTANDARDJIS
  2
AcmSurfTextStdJIS
  3
"AcmSymBB|Product Description: AutoCAD Mechanical 2000|Company: Autodesk"
 90
        0
280
     0
281
     0
  0
CLASS
  1
ACMFCFSTANDARDJIS
  2
AcmFCFStdJIS
  3
"AcmSymBB|Product Description: AutoCAD Mechanical 2000|Company: Autodesk"
 90
        0
280
     0
281
     0
  0
CLASS
  1
ACMWELDSTANDARDJIS
  2
AcmWeldingStdJIS
  3
"AcmSymBB|Product Description: AutoCAD Mechanical 2000|Company: Autodesk"
 90
        0
280
     0
281
     0
  0
CLASS
  1
ACMIDSTANDARDJIS
  2
AcmIdStdJIS
  3
"AcmSymBB|Product Description: AutoCAD Mechanical 2000|Company: Autodesk"
 90
        0
280
     0
281
     0
  0
CLASS
  1
ACMDATUMSTANDARDJIS
  2
AcmDatumStdJIS
  3
"AcmSymBB|Product Description: AutoCAD Mechanical 2000|Company: Autodesk"
 90
        0
280
     0
281
     0
  0
CLASS
  1
ACMBOMSTANDARDJIS
  2
AcmBOMStdJIS
  3
"AcmSymBB|Product Description: AutoCAD Mechanical 2000|Company: Autodesk"
 90
        0
280
     0
281
     0
  0
CLASS
  1
ACMSTANDARDANSI
  2
AcmStandardANSI
  3
"AcmSymBB|Product Description: AutoCAD Mechanical 2000|Company: Autodesk"
 90
        0
280
     0
281
     0
  0
CLASS
  1
ACMSURFSTANDARDANSI
  2
AcmSurfTextStdANSI
  3
"AcmSymBB|Product Description: AutoCAD Mechanical 2000|Company: Autodesk"
 90
        0
280
     0
281
     0
  0
CLASS
  1
ACMFCFSTANDARDANSI
  2
AcmFCFStdANSI
  3
"AcmSymBB|Product Description: AutoCAD Mechanical 2000|Company: Autodesk"
 90
        0
280
     0
281
     0
  0
CLASS
  1
ACMWELDSTANDARDANSI
  2
AcmWeldingStdANSI
  3
"AcmSymBB|Product Description: AutoCAD Mechanical 2000|Company: Autodesk"
 90
        0
280
     0
281
     0
  0
CLASS
  1
ACMIDSTANDARDANSI
  2
AcmIdStdANSI
  3
"AcmSymBB|Product Description: AutoCAD Mechanical 2000|Company: Autodesk"
 90
        0
280
     0
281
     0
  0
CLASS
  1
ACMDATUMSTANDARDANSI
  2
AcmDatumStdANSI
  3
"AcmSymBB|Product Description: AutoCAD Mechanical 2000|Company: Autodesk"
 90
        0
280
     0
281
     0
  0
CLASS
  1
ACMBOMSTANDARDANSI
  2
AcmBOMStdANSI
  3
"AcmSymBB|Product Description: AutoCAD Mechanical 2000|Company: Autodesk"
 90
        0
280
     0
281
     0
  0
CLASS
  1
ACMSTANDARDBSI
  2
AcmStandardBSI
  3
"AcmSymBB|Product Description: AutoCAD Mechanical 2000|Company: Autodesk"
 90
        0
280
     0
281
     0
  0
CLASS
  1
ACMSURFSTANDARDBSI
  2
AcmSurfTextStdBSI
  3
"AcmSymBB|Product Description: AutoCAD Mechanical 2000|Company: Autodesk"
 90
        0
280
     0
281
     0
  0
CLASS
  1
ACMFCFSTANDARDBSI
  2
AcmFCFStdBSI
  3
"AcmSymBB|Product Description: AutoCAD Mechanical 2000|Company: Autodesk"
 90
        0
280
     0
281
     0
  0
CLASS
  1
ACMWELDSTANDARDBSI
  2
AcmWeldingStdBSI
  3
"AcmSymBB|Product Description: AutoCAD Mechanical 2000|Company: Autodesk"
 90
        0
280
     0
281
     0
  0
CLASS
  1
ACMIDSTANDARDBSI
  2
AcmIdStdBSI
  3
"AcmSymBB|Product Description: AutoCAD Mechanical 2000|Company: Autodesk"
 90
        0
280
     0
281
     0
  0
CLASS
  1
ACMDATUMSTANDARDBSI
  2
AcmDatumStdBSI
  3
"AcmSymBB|Product Description: AutoCAD Mechanical 2000|Company: Autodesk"
 90
        0
280
     0
281
     0
  0
CLASS
  1
ACMBOMSTANDARDBSI
  2
AcmBOMStdBSI
  3
"AcmSymBB|Product Description: AutoCAD Mechanical 2000|Company: Autodesk"
 90
        0
280
     0
281
     0
  0
CLASS
  1
LONG_TRANSACTION
  2
AcDbLongTransaction
  3
AutoCAD 2000
 90
        0
280
     0
281
     0
  0
CLASS
  1
LWPOLYLINE
  2
AcDbPolyline
  3
AutoCAD 2000
 90
        0
280
     0
281
     1
  0
CLASS
  1
HATCH
  2
AcDbHatch
  3
AutoCAD 2000
 90
        0
280
     0
281
     1
  0
CLASS
  1
XRECORD
  2
AcDbXrecord
  3
AutoCAD 2000
 90
        0
280
     0
281
     0
  0
ENDSEC
  0
SECTION
  2
TABLES
  0
TABLE
  2
VPORT
  5
8
330
0
100
AcDbSymbolTable
 70
     3
  0
VPORT
  5
749C
330
8
100
AcDbSymbolTableRecord
100
AcDbViewportTableRecord
  2
*ACTIVE
 70
     0
 10
0.0
 20
0.0
 11
1.0
 21
1.0
 12
-56.14967792733878
 22
-24.54332077207161
 13
0.0
 23
0.0
 14
2.5
 24
2.5
 15
10.0
 25
10.0
 16
0.0
 26
0.0
 36
1.0
 17
0.0
 27
0.0
 37
0.0
 40
160.69321277662
 41
1.56570841889117
 42
50.0
 43
0.0
 44
0.0
 50
0.0
 51
0.0
 71
     0
 72
   100
 73
     1
 74
     3
 75
     0
 76
     0
 77
     0
 78
     0
  0
ENDTAB
  0
TABLE
  2
LTYPE
  5
5
330
0
100
AcDbSymbolTable
 70
    10
  0
LTYPE
  5
14
330
5
100
AcDbSymbolTableRecord
100
AcDbLinetypeTableRecord
  2
BYBLOCK
 70
     0
  3

 72
    65
 73
     0
 40
0.0
  0
LTYPE
  5
15
330
5
100
AcDbSymbolTableRecord
100
AcDbLinetypeTableRecord
  2
BYLAYER
 70
     0
  3

 72
    65
 73
     0
 40
0.0
  0
LTYPE
  5
16
330
5
100
AcDbSymbolTableRecord
100
AcDbLinetypeTableRecord
  2
CONTINUOUS
 70
     0
  3
Solid line
 72
    65
 73
     0
 40
0.0
  0
LTYPE
  5
4B
330
5
100
AcDbSymbolTableRecord
100
AcDbLinetypeTableRecord
  2
AM_ISO02W050
 70
     0
  3
__ __ __ __ __ __ __ __ __ __ __ __ __ __ __
 72
    65
 73
     2
 40
7.5
 49
6.0
 74
     0
 49
-1.5
 74
     0
  0
LTYPE
  5
4C
330
5
100
AcDbSymbolTableRecord
100
AcDbLinetypeTableRecord
  2
AM_ISO08W050
 70
     0
  3
____ . ____ . ____ . ____ . ____ . ____ . ____
 72
    65
 73
     4
 40
18.0
 49
12.0
 74
     0
 49
-1.5
 74
     0
 49
3.0
 74
     0
 49
-1.5
 74
     0
  0
LTYPE
  5
4D
330
5
100
AcDbSymbolTableRecord
100
AcDbLinetypeTableRecord
  2
AM_ISO09W050
 70
     0
  3
_____ . . _____ . . _____ . . ____ .. ____
 72
    65
 73
     6
 40
22.5
 49
12.0
 74
     0
 49
-1.5
 74
     0
 49
3.0
 74
     0
 49
-1.5
 74
     0
 49
3.0
 74
     0
 49
-1.5
 74
     0
  0
LTYPE
  5
4E
330
5
100
AcDbSymbolTableRecord
100
AcDbLinetypeTableRecord
  2
AMCONSTR
 70
     0
  3
_______________________
 72
    65
 73
     2
 40
9999.0
 49
9999.0
 74
     0
 49
0.0
 74
     0
  0
LTYPE
  5
4F
330
5
100
AcDbSymbolTableRecord
100
AcDbLinetypeTableRecord
  2
AM_ISO02W050X2
 70
     0
  3
 _ _ _ _ _ _ _ _ _ _ _ _
 72
    65
 73
     2
 40
3.75
 49
3.0
 74
     0
 49
-0.75
 74
     0
  0
LTYPE
  5
50
330
5
100
AcDbSymbolTableRecord
100
AcDbLinetypeTableRecord
  2
AM_ISO08W050X2
 70
     0
  3
__ . __ . __ . __ . __ . __
 72
    65
 73
     4
 40
9.0
 49
6.0
 74
     0
 49
-0.75
 74
     0
 49
1.5
 74
     0
 49
-0.75
 74
     0
  0
LTYPE
  5
53
330
5
100
AcDbSymbolTableRecord
100
AcDbLinetypeTableRecord
  2
AMZIGZAG
 70
     0
  3
/\/-/\/-/\/-/\/-/\/-/\/
 72
    65
 73
     2
 40
11.00009999999999
 49
0.0001
 74
     4
 75
   135
340
52
 46
0.04
 50
0.0
 44
0.0
 45
0.0
 49
-11.0
 74
     0
  0
LTYPE
  5
166
330
5
100
AcDbSymbolTableRecord
100
AcDbLinetypeTableRecord
  2
ACJISTGL
 70
     0
  3
_ _ _ _ _
 72
    65
 73
     2
 40
3.0
 49
2.0
 74
     0
 49
-1.0
 74
     0
  0
LTYPE
  5
26A
330
5
100
AcDbSymbolTableRecord
100
AcDbLinetypeTableRecord
  2
ACJISTGB
 70
     0
  3
__ . . __ . .
 72
    65
 73
     6
 40
9.0
 49
4.0
 74
     0
 49
-1.0
 74
     0
 49
1.0
 74
     0
 49
-1.0
 74
     0
 49
1.0
 74
     0
 49
-1.0
 74
     0
  0
ENDTAB
  0
TABLE
  2
LAYER
  5
2
330
0
100
AcDbSymbolTable
 70
     7
  0
LAYER
  5
10
330
2
100
AcDbSymbolTableRecord
100
AcDbLayerTableRecord
  2
0
 70
     0
 62
     7
  6
CONTINUOUS
  0
LAYER
  5
3F9
330
2
100
AcDbSymbolTableRecord
100
AcDbLayerTableRecord
  2
AM_0
 70
     0
 62
     7
  6
CONTINUOUS
  0
LAYER
  5
BDE
330
2
100
AcDbSymbolTableRecord
100
AcDbLayerTableRecord
  2
AM_7
 70
     0
 62
     4
  6
AM_ISO08W050
  0
LAYER
  5
BDF
330
2
100
AcDbSymbolTableRecord
100
AcDbLayerTableRecord
  2
AM_5
 70
     0
 62
     3
  6
CONTINUOUS
  0
LAYER
  5
BE0
330
2
100
AcDbSymbolTableRecord
100
AcDbLayerTableRecord
  2
DEFPOINTS
 70
     0
 62
     7
  6
CONTINUOUS
  0
LAYER
  5
14FF
330
2
100
AcDbSymbolTableRecord
100
AcDbLayerTableRecord
  2
AM_6
 70
     0
 62
     2
  6
CONTINUOUS
  0
LAYER
  5
728E
330
2
100
AcDbSymbolTableRecord
100
AcDbLayerTableRecord
  2
AM_11
 70
     0
 62
     3
  6
AM_ISO09W050
  0
ENDTAB
  0
TABLE
  2
STYLE
  5
3
330
0
100
AcDbSymbolTable
 70
     5
  0
STYLE
  5
11
330
3
100
AcDbSymbolTableRecord
100
AcDbTextStyleTableRecord
  2
STANDARD
 70
     0
 40
0.0
 41
1.0
 50
0.0
 71
     0
 42
2.5
  3
simplex.shx
  4
EXTFONT.SHX
  0
STYLE
  5
52
330
3
100
AcDbSymbolTableRecord
100
AcDbTextStyleTableRecord
  2

 70
     1
 40
0.0
 41
1.0
 50
0.0
 71
     0
 42
2.5
  3
ltypeshp.shx
  4

  0
STYLE
  5
6B
330
3
100
AcDbSymbolTableRecord
100
AcDbTextStyleTableRecord
  2
ASAMI
 70
     0
 40
0.0
 41
1.0
 50
0.0
 71
     0
 42
2.5
  3
simplex.shx
  4
EXTFONT.SHX
  0
STYLE
  5
262
330
3
100
AcDbSymbolTableRecord
100
AcDbTextStyleTableRecord
  2
ACJISTS
 70
     0
 40
1.0
 41
1.0
 50
0.0
 71
     0
 42
2.5
  3
simplex.shx
  4
bigfont.shx
  0
STYLE
  5
269
330
3
100
AcDbSymbolTableRecord
100
AcDbTextStyleTableRecord
  2
ACJISGDT
 70
     0
 40
0.0
 41
1.0
 50
0.0
 71
     0
 42
2.5
  3
amgdtans.shx
  4

  0
ENDTAB
  0
TABLE
  2
VIEW
  5
6
330
0
100
AcDbSymbolTable
 70
     0
  0
ENDTAB
  0
TABLE
  2
UCS
  5
7
330
0
100
AcDbSymbolTable
 70
     0
  0
ENDTAB
  0
TABLE
  2
APPID
  5
9
330
0
100
AcDbSymbolTable
 70
    14
  0
APPID
  5
12
330
9
100
AcDbSymbolTableRecord
100
AcDbRegAppTableRecord
  2
ACAD
 70
     0
  0
APPID
  5
30
330
9
100
AcDbSymbolTableRecord
100
AcDbRegAppTableRecord
  2
MCAD_NO_VIS
 70
     0
  0
APPID
  5
31
330
9
100
AcDbSymbolTableRecord
100
AcDbRegAppTableRecord
  2
ACAD_TEMP_GRAPHIC
 70
     0
  0
APPID
  5
2C2
330
9
100
AcDbSymbolTableRecord
100
AcDbRegAppTableRecord
  2
GENIUS_GENDTOL_13
 70
     0
  0
APPID
  5
339
330
9
100
AcDbSymbolTableRecord
100
AcDbRegAppTableRecord
  2
GENIUS_GENODEF_13
 70
     0
  0
APPID
  5
33A
330
9
100
AcDbSymbolTableRecord
100
AcDbRegAppTableRecord
  2
GENIUS_GENOBJ-N-RSBK_13
 70
     0
  0
APPID
  5
33B
330
9
100
AcDbSymbolTableRecord
100
AcDbRegAppTableRecord
  2
GENIUS_GENOBJ-N-LIB_13
 70
     0
  0
APPID
  5
33C
330
9
100
AcDbSymbolTableRecord
100
AcDbRegAppTableRecord
  2
GENIUS_GENSCALE_13
 70
     0
  0
APPID
  5
378
330
9
100
AcDbSymbolTableRecord
100
AcDbRegAppTableRecord
  2
GENIUS_GENDIMSH_14
 70
     0
  0
APPID
  5
BE1
330
9
100
AcDbSymbolTableRecord
100
AcDbRegAppTableRecord
  2
GENIUS_GENFIL_13
 70
     0
  0
APPID
  5
BE2
330
9
100
AcDbSymbolTableRecord
100
AcDbRegAppTableRecord
  2
GENIUS_GENOBJ-N-CHA_13
 70
     0
  0
APPID
  5
151B
330
9
100
AcDbSymbolTableRecord
100
AcDbRegAppTableRecord
  2
DCO15
 70
     0
  0
APPID
  5
1860
330
9
100
AcDbSymbolTableRecord
100
AcDbRegAppTableRecord
  2
GENIUS_GENOBJ-N-CEN_13
 70
     0
  0
APPID
  5
359C
330
9
100
AcDbSymbolTableRecord
100
AcDbRegAppTableRecord
  2
GENIUS_GENOBJ-N-FIL_13
 70
     0
  0
ENDTAB
  0
TABLE
  2
DIMSTYLE
  5
A
330
0
100
AcDbSymbolTable
 70
     9
  0
DIMSTYLE
105
58
330
A
100
AcDbSymbolTableRecord
100
AcDbDimStyleTableRecord
  2
AM_JIS
 70
     0
  3

  4
"
  5
OPEN30
  6

  7

 40
1.0
 41
2.5
 42
1.0
 43
12.0
 44
1.0
 45
0.0
 46
0.0
 47
0.1
 48
0.1
140
3.2
141
0.0
142
0.0
143
0.0393701
144
1.0
145
0.0
146
0.71
147
1.5
 71
     0
 72
     0
 73
     0
 74
     0
 75
     0
 76
     0
 77
     3
 78
     8
170
     0
171
     2
172
     1
173
     0
174
     0
175
     0
176
   256
177
   256
178
     2
270
     2
271
     3
272
     3
273
     2
274
     2
340
6B
275
     0
280
     0
281
     0
282
     0
283
     0
284
     0
285
     0
286
     0
287
     3
288
     0
  0
DIMSTYLE
105
5F
330
A
100
AcDbSymbolTableRecord
100
AcDbDimStyleTableRecord
  2
AM_JIS$3
 70
     0
  3

  4
"
  5
OPEN30
  6

  7

 40
1.0
 41
2.5
 42
1.0
 43
10.0
 44
1.0
 45
0.0
 46
0.0
 47
0.1
 48
0.1
140
3.2
141
0.0
142
0.0
143
0.0393701
144
1.0
145
0.0
146
0.71
147
1.5
 71
     0
 72
     0
 73
     0
 74
     1
 75
     0
 76
     0
 77
     3
 78
     8
170
     0
171
     2
172
     0
173
     0
174
     0
175
     0
176
   256
177
   256
178
     2
270
     2
271
     2
272
     3
273
     2
274
     2
340
6B
275
     0
280
     0
281
     0
282
     0
283
     0
284
     0
285
     0
286
     0
287
     0
288
     1
  0
DIMSTYLE
105
60
330
A
100
AcDbSymbolTableRecord
100
AcDbDimStyleTableRecord
  2
AM_JIS$4
 70
     0
  3

  4
"
  5
OPEN30
  6

  7

 40
1.0
 41
2.5
 42
1.0
 43
10.0
 44
1.0
 45
0.0
 46
0.0
 47
0.1
 48
0.1
140
3.2
141
0.0
142
0.0
143
0.0393701
144
1.0
145
0.0
146
0.71
147
1.5
 71
     0
 72
     0
 73
     0
 74
     1
 75
     0
 76
     0
 77
     3
 78
     8
170
     0
171
     2
172
     0
173
     0
174
     0
175
     0
176
   256
177
   256
178
     2
270
     2
271
     2
272
     3
273
     2
274
     2
340
6B
275
     0
280
     0
281
     0
282
     0
283
     0
284
     0
285
     0
286
     0
287
     0
288
     1
  0
DIMSTYLE
105
61
330
A
100
AcDbSymbolTableRecord
100
AcDbDimStyleTableRecord
  2
AM_JIS$6
 70
     0
  3

  4
"
  5
OPEN30
  6

  7

 40
1.0
 41
2.5
 42
1.0
 43
10.0
 44
1.0
 45
0.0
 46
0.0
 47
0.1
 48
0.1
140
3.2
141
0.0
142
0.0
143
0.0393701
144
1.0
145
0.0
146
0.71
147
1.5
 71
     0
 72
     0
 73
     0
 74
     0
 75
     0
 76
     0
 77
     0
 78
     8
170
     0
171
     2
172
     1
173
     0
174
     0
175
     0
176
   256
177
   256
178
     2
270
     2
271
     2
272
     2
273
     2
274
     2
340
6B
275
     0
280
     0
281
     0
282
     0
283
     0
284
     0
285
     0
286
     0
287
     3
288
     0
  0
DIMSTYLE
105
62
330
A
100
AcDbSymbolTableRecord
100
AcDbDimStyleTableRecord
  2
AM_JIS$7
 70
     0
  3

  4
"
  5
OPEN30
  6

  7

 40
1.0
 41
2.5
 42
1.0
 43
10.0
 44
1.0
 45
0.0
 46
0.0
 47
0.1
 48
0.1
140
3.2
141
0.0
142
0.0
143
0.0393701
144
1.0
145
0.0
146
0.71
147
1.5
 71
     0
 72
     0
 73
     0
 74
     0
 75
     0
 76
     0
 77
     3
 78
     8
170
     0
171
     2
172
     1
173
     0
174
     0
175
     0
176
   256
177
   256
178
     2
270
     2
271
     2
272
     3
273
     2
274
     2
340
6B
275
     0
280
     0
281
     0
282
     0
283
     0
284
     0
285
     0
286
     0
287
     3
288
     0
  0
DIMSTYLE
105
63
330
A
100
AcDbSymbolTableRecord
100
AcDbDimStyleTableRecord
  2
AM_JIS$SF
 70
     0
  3

  4
"
  5
OPEN30
  6

  7

 40
1.0
 41
2.5
 42
1.0
 43
10.0
 44
1.0
 45
0.0
 46
0.0
 47
0.1
 48
0.1
140
3.2
141
0.0
142
0.0
143
0.0393701
144
1.0
145
0.0
146
0.71
147
1.5
 71
     0
 72
     0
 73
     0
 74
     0
 75
     1
 76
     1
 77
     3
 78
     8
170
     0
171
     2
172
     1
173
     0
174
     0
175
     0
176
   256
177
   256
178
     2
270
     2
271
     2
272
     2
273
     2
274
     2
340
6B
275
     0
280
     0
281
     0
282
     0
283
     0
284
     0
285
     0
286
     0
287
     3
288
     0
  0
DIMSTYLE
105
68
330
A
100
AcDbSymbolTableRecord
100
AcDbDimStyleTableRecord
  2
AM_JIS$SH
 70
     0
  3

  4
"
  5

  6
GENAXEH
  7
OPEN30
 40
1.0
 41
2.5
 42
1.0
 43
10.0
 44
1.0
 45
0.0
 46
0.0
 47
0.1
 48
0.1
140
3.2
141
0.0
142
0.0
143
0.0393701
144
2.0
145
0.0
146
0.71
147
1.5
 71
     0
 72
     0
 73
     0
 74
     0
 75
     1
 76
     1
 77
     3
 78
     8
170
     0
171
     2
172
     1
173
     1
174
     0
175
     0
176
   256
177
   256
178
     2
270
     2
271
     2
272
     2
273
     2
274
     2
340
6B
275
     0
280
     0
281
     0
282
     0
283
     0
284
     0
285
     0
286
     0
287
     3
288
     0
  0
DIMSTYLE
105
B34
330
A
100
AcDbSymbolTableRecord
100
AcDbDimStyleTableRecord
  2
AM_JIS$2
 70
     0
  3

  4
"
  5
OPEN30
  6

  7

 40
1.0
 41
2.5
 42
1.0
 43
12.0
 44
1.0
 45
0.0
 46
0.0
 47
0.1
 48
0.1
140
3.2
141
0.0
142
0.0
143
0.0393701
144
1.0
145
0.0
146
0.71
147
1.5
 71
     0
 72
     0
 73
     0
 74
     0
 75
     0
 76
     0
 77
     3
 78
     8
170
     0
171
     2
172
     1
173
     0
174
     0
175
     0
176
   256
177
   256
178
     2
270
     2
271
     3
272
     3
273
     2
274
     2
340
6B
275
     0
280
     0
281
     0
282
     0
283
     0
284
     0
285
     0
286
     0
287
     3
288
     0
  0
DIMSTYLE
105
535F
102
{ACAD_REACTORS
330
6F1D
330
7094
330
711C
330
71B9
330
73A3
102
}
330
A
100
AcDbSymbolTableRecord
100
AcDbDimStyleTableRecord
  2
AM_JIS$0
 70
     0
  3

  4
"
  5
OPEN30
  6

  7

 40
1.0
 41
2.5
 42
0.0
 43
10.0
 44
1.0
 45
0.0
 46
0.0
 47
0.1
 48
0.1000000001
140
3.799999999999999
141
0.0
142
0.0
143
0.0393701
144
1.0
145
0.0
146
0.71
147
1.5
 71
     0
 72
     0
 73
     0
 74
     0
 75
     0
 76
     0
 77
     3
 78
     1
170
     0
171
     2
172
     1
173
     0
174
     0
175
     0
176
     3
177
     3
178
     2
270
     2
271
     2
272
     2
273
     2
274
     2
340
11
275
     1
280
     0
281
     0
282
     0
283
     0
284
     8
285
     0
286
     0
287
     0
288
     0
  0
ENDTAB
  0
TABLE
  2
BLOCK_RECORD
  5
1
330
0
100
AcDbSymbolTable
 70
    10
  0
BLOCK_RECORD
  5
1F
102
{ACAD_XDICTIONARY
360
74
102
}
330
1
100
AcDbSymbolTableRecord
100
AcDbBlockTableRecord
  2
*MODEL_SPACE
  0
BLOCK_RECORD
  5
101
102
{ACAD_XDICTIONARY
360
74C5
102
}
330
1
100
AcDbSymbolTableRecord
100
AcDbBlockTableRecord
  2
*PAPER_SPACE
  0
BLOCK_RECORD
  5
59
330
1
100
AcDbSymbolTableRecord
100
AcDbBlockTableRecord
  2
_OPEN30
  0
BLOCK_RECORD
  5
64
330
1
100
AcDbSymbolTableRecord
100
AcDbBlockTableRecord
  2
GENAXEH
  0
BLOCK_RECORD
  5
6F1E
330
1
100
AcDbSymbolTableRecord
100
AcDbBlockTableRecord
  2
*D5
  0
BLOCK_RECORD
  5
7095
330
1
100
AcDbSymbolTableRecord
100
AcDbBlockTableRecord
  2
*D6
  0
BLOCK_RECORD
  5
711D
330
1
100
AcDbSymbolTableRecord
100
AcDbBlockTableRecord
  2
*D7
  0
BLOCK_RECORD
  5
71BA
330
1
100
AcDbSymbolTableRecord
100
AcDbBlockTableRecord
  2
*D8
  0
BLOCK_RECORD
  5
73A4
330
1
100
AcDbSymbolTableRecord
100
AcDbBlockTableRecord
  2
*D9
  0
ENDTAB
  0
ENDSEC
  0
SECTION
  2
BLOCKS
  0
BLOCK
  5
20
330
1F
100
AcDbEntity
  8
0
100
AcDbBlockBegin
  2
*MODEL_SPACE
 70
     0
 10
0.0
 20
0.0
 30
0.0
  3
*MODEL_SPACE
  1

  0
ENDBLK
  5
21
330
1F
100
AcDbEntity
  8
0
100
AcDbBlockEnd
  0
BLOCK
  5
103
330
101
100
AcDbEntity
 67
     1
  8
0
100
AcDbBlockBegin
  2
*PAPER_SPACE
 70
     0
 10
0.0
 20
0.0
 30
0.0
  3
*PAPER_SPACE
  1

  0
ENDBLK
  5
104
330
101
100
AcDbEntity
 67
     1
  8
0
100
AcDbBlockEnd
  0
BLOCK
  5
5D
330
59
100
AcDbEntity
  8
0
100
AcDbBlockBegin
  2
_OPEN30
 70
     0
 10
0.0
 20
0.0
 30
0.0
  3
_OPEN30
  1

  0
LINE
  5
5A
330
59
100
AcDbEntity
  8
0
 62
     0
100
AcDbLine
 10
-1.0
 20
0.26794919
 30
0.0
 11
0.0
 21
0.0
 31
0.0
  0
LINE
  5
5B
330
59
100
AcDbEntity
  8
0
 62
     0
100
AcDbLine
 10
0.0
 20
0.0
 30
0.0
 11
-1.0
 21
-0.26794919
 31
0.0
  0
LINE
  5
5C
330
59
100
AcDbEntity
  8
0
 62
     0
100
AcDbLine
 10
0.0
 20
0.0
 30
0.0
 11
-1.0
 21
0.0
 31
0.0
  0
ENDBLK
  5
5E
330
59
100
AcDbEntity
  8
0
100
AcDbBlockEnd
  0
BLOCK
  5
66
330
64
100
AcDbEntity
  8
0
100
AcDbBlockBegin
  2
GENAXEH
 70
     0
 10
0.0
 20
0.0
 30
0.0
  3
GENAXEH
  1

  0
LINE
  5
65
330
64
100
AcDbEntity
  8
0
100
AcDbLine
 10
-1.0
 20
0.0
 30
0.0
 11
1.0
 21
0.0
 31
0.0
  0
ENDBLK
  5
67
330
64
100
AcDbEntity
  8
0
100
AcDbBlockEnd
  0
BLOCK
  5
6F28
330
6F1E
100
AcDbEntity
  8
0
100
AcDbBlockBegin
  2
*D5
 70
     1
 10
0.0
 20
0.0
 30
0.0
  3
*D5
  1

  0
LINE
  5
7455
330
6F1E
100
AcDbEntity
  8
AM_5
 62
     3
100
AcDbLine
 10
0.9999999999999928
 20
31.5
 30
0.0
 11
20.96475701196298
 21
31.49999999999999
 31
0.0
  0
LINE
  5
7456
330
6F1E
100
AcDbEntity
  8
AM_5
 62
     3
100
AcDbLine
 10
1.000000000000014
 20
-31.5
 30
0.0
 11
20.96475701196296
 21
-31.5
 31
0.0
  0
LINE
  5
7457
330
6F1E
100
AcDbEntity
  8
AM_5
 62
     3
100
AcDbLine
 10
19.96475701196298
 20
29.0
 30
0.0
 11
19.96475701196296
 21
-29.0
 31
0.0
  0
INSERT
  5
7458
330
6F1E
100
AcDbEntity
  8
AM_5
 62
     3
100
AcDbBlockReference
  2
_OPEN30
 10
19.96475701196298
 20
31.49999999999999
 30
0.0
 41
2.5
 42
2.5
 43
2.5
 50
90.0
  0
INSERT
  5
7459
330
6F1E
100
AcDbEntity
  8
AM_5
 62
     3
100
AcDbBlockReference
  2
_OPEN30
 10
19.96475701196296
 20
-31.5
 30
0.0
 41
2.5
 42
2.5
 43
2.5
 50
270.0
  0
MTEXT
  5
745A
330
6F1E
100
AcDbEntity
  8
AM_5
 62
     2
100
AcDbMText
 10
16.56475701196297
 20
-0.0000000000000008
 30
0.0
 40
3.799999999999999
 41
0.0
 71
     5
 72
     1
  1
%%c63
 11
0.0000000000000001
 21
1.0
 31
0.0
1001
ACAD
1000
MTEXTBEGIN
1070
    73
1070
     1
1070
    44
1040
1.0
1070
    74
1070
     0
1000
MTEXTEND
  0
POINT
  5
745B
330
6F1E
100
AcDbEntity
  8
DEFPOINTS
 62
     0
100
AcDbPoint
 10
-0.0000000000000071
 20
31.5
 30
0.0
  0
POINT
  5
745C
330
6F1E
100
AcDbEntity
  8
DEFPOINTS
 62
     0
100
AcDbPoint
 10
0.0000000000000142
 20
-31.5
 30
0.0
  0
POINT
  5
745D
330
6F1E
100
AcDbEntity
  8
DEFPOINTS
 62
     0
100
AcDbPoint
 10
19.96475701196296
 20
-31.5
 30
0.0
  0
ENDBLK
  5
6F29
330
6F1E
100
AcDbEntity
  8
0
100
AcDbBlockEnd
  0
BLOCK
  5
709F
330
7095
100
AcDbEntity
  8
0
100
AcDbBlockBegin
  2
*D6
 70
     1
 10
0.0
 20
0.0
 30
0.0
  3
*D6
  1

  0
LINE
  5
7362
330
7095
100
AcDbEntity
  8
AM_5
 62
     3
100
AcDbLine
 10
-119.9999999999919
 20
-14.66101074219
 30
0.0
 11
-119.9999999999919
 21
-56.500001
 31
0.0
  0
LINE
  5
7363
330
7095
100
AcDbEntity
  8
AM_5
 62
     3
100
AcDbLine
 10
0.0000000000000141
 20
-32.5
 30
0.0
 11
0.0000000000000127
 21
-56.500001
 31
0.0
  0
LINE
  5
7364
330
7095
100
AcDbEntity
  8
AM_5
 62
     3
100
AcDbLine
 10
-117.4999999999919
 20
-55.500001
 30
0.0
 11
-2.499999999999987
 21
-55.500001
 31
0.0
  0
INSERT
  5
7365
330
7095
100
AcDbEntity
  8
AM_5
 62
     3
100
AcDbBlockReference
  2
_OPEN30
 10
-119.9999999999919
 20
-55.500001
 30
0.0
 41
2.5
 42
2.5
 43
2.5
 50
180.0
  0
INSERT
  5
7366
330
7095
100
AcDbEntity
  8
AM_5
 62
     3
100
AcDbBlockReference
  2
_OPEN30
 10
0.0000000000000127
 20
-55.500001
 30
0.0
 41
2.5
 42
2.5
 43
2.5
  0
MTEXT
  5
7367
330
7095
100
AcDbEntity
  8
AM_5
 62
     2
100
AcDbMText
 10
-59.99999999999598
 20
-52.10000100000001
 30
0.0
 40
3.799999999999999
 41
0.0
 71
     5
 72
     1
  1
120
1001
ACAD
1000
MTEXTBEGIN
1070
    73
1070
     1
1070
    44
1040
1.0
1070
    74
1070
     0
1000
MTEXTEND
  0
POINT
  5
7368
330
7095
100
AcDbEntity
  8
DEFPOINTS
 62
     0
100
AcDbPoint
 10
-119.9999999999919
 20
-13.66101074219
 30
0.0
  0
POINT
  5
7369
330
7095
100
AcDbEntity
  8
DEFPOINTS
 62
     0
100
AcDbPoint
 10
0.0000000000000142
 20
-31.5
 30
0.0
  0
POINT
  5
736A
330
7095
100
AcDbEntity
  8
DEFPOINTS
 62
     0
100
AcDbPoint
 10
0.0000000000000127
 20
-55.500001
 30
0.0
  0
ENDBLK
  5
70A0
330
7095
100
AcDbEntity
  8
0
100
AcDbBlockEnd
  0
BLOCK
  5
7127
330
711D
100
AcDbEntity
  8
0
100
AcDbBlockBegin
  2
*D7
 70
     1
 10
0.0
 20
0.0
 30
0.0
  3
*D7
  1

  0
LINE
  5
7374
330
711D
100
AcDbEntity
  8
AM_5
 62
     3
100
AcDbLine
 10
-119.9999999999919
 20
-14.66101074219
 30
0.0
 11
-119.9999999999919
 21
-46.50000100000005
 31
0.0
  0
LINE
  5
7375
330
711D
100
AcDbEntity
  8
AM_5
 62
     3
100
AcDbLine
 10
-29.99999999999999
 20
-24.16198730469
 30
0.0
 11
-29.99999999999999
 21
-46.50000100000005
 31
0.0
  0
LINE
  5
7376
330
711D
100
AcDbEntity
  8
AM_5
 62
     3
100
AcDbLine
 10
-117.4999999999919
 20
-45.50000100000006
 30
0.0
 11
-32.49999999999999
 21
-45.50000100000006
 31
0.0
  0
INSERT
  5
7377
330
711D
100
AcDbEntity
  8
AM_5
 62
     3
100
AcDbBlockReference
  2
_OPEN30
 10
-119.9999999999919
 20
-45.50000100000006
 30
0.0
 41
2.5
 42
2.5
 43
2.5
 50
180.0
  0
INSERT
  5
7378
330
711D
100
AcDbEntity
  8
AM_5
 62
     3
100
AcDbBlockReference
  2
_OPEN30
 10
-29.99999999999999
 20
-45.50000100000006
 30
0.0
 41
2.5
 42
2.5
 43
2.5
  0
MTEXT
  5
7379
330
711D
100
AcDbEntity
  8
AM_5
 62
     2
100
AcDbMText
 10
-74.99999999999599
 20
-42.10000100000006
 30
0.0
 40
3.799999999999999
 41
0.0
 71
     5
 72
     1
  1
90
1001
ACAD
1000
MTEXTBEGIN
1070
    73
1070
     1
1070
    44
1040
1.0
1070
    74
1070
     0
1000
MTEXTEND
  0
POINT
  5
737A
330
711D
100
AcDbEntity
  8
DEFPOINTS
 62
     0
100
AcDbPoint
 10
-119.9999999999919
 20
-13.66101074219
 30
0.0
  0
POINT
  5
737B
330
711D
100
AcDbEntity
  8
DEFPOINTS
 62
     0
100
AcDbPoint
 10
-29.99999999999999
 20
-23.16198730469
 30
0.0
  0
POINT
  5
737C
330
711D
100
AcDbEntity
  8
DEFPOINTS
 62
     0
100
AcDbPoint
 10
-29.99999999999999
 20
-45.50000100000006
 30
0.0
  0
ENDBLK
  5
7128
330
711D
100
AcDbEntity
  8
0
100
AcDbBlockEnd
  0
BLOCK
  5
71C4
330
71BA
100
AcDbEntity
  8
0
100
AcDbBlockBegin
  2
*D8
 70
     1
 10
0.0
 20
0.0
 30
0.0
  3
*D8
  1

  0
LINE
  5
7359
330
71BA
100
AcDbEntity
  8
AM_5
 62
     3
100
AcDbLine
 10
-29.99999999999998
 20
-24.16198730469
 30
0.0
 11
-29.99999999999998
 21
-46.500001
 31
0.0
  0
LINE
  5
735A
330
71BA
100
AcDbEntity
  8
AM_5
 62
     3
100
AcDbLine
 10
0.0000000000000141
 20
-32.5
 30
0.0
 11
0.0000000000000133
 21
-46.500001
 31
0.0
  0
LINE
  5
735B
330
71BA
100
AcDbEntity
  8
AM_5
 62
     3
100
AcDbLine
 10
-27.49999999999998
 20
-45.500001
 30
0.0
 11
-2.499999999999986
 21
-45.500001
 31
0.0
  0
INSERT
  5
735C
330
71BA
100
AcDbEntity
  8
AM_5
 62
     3
100
AcDbBlockReference
  2
_OPEN30
 10
-29.99999999999998
 20
-45.500001
 30
0.0
 41
2.5
 42
2.5
 43
2.5
 50
180.0
  0
INSERT
  5
735D
330
71BA
100
AcDbEntity
  8
AM_5
 62
     3
100
AcDbBlockReference
  2
_OPEN30
 10
0.0000000000000134
 20
-45.500001
 30
0.0
 41
2.5
 42
2.5
 43
2.5
  0
MTEXT
  5
735E
330
71BA
100
AcDbEntity
  8
AM_5
 62
     2
100
AcDbMText
 10
-14.99999999999998
 20
-42.10000100000001
 30
0.0
 40
3.799999999999999
 41
0.0
 71
     5
 72
     1
  1
30
1001
ACAD
1000
MTEXTBEGIN
1070
    73
1070
     1
1070
    44
1040
1.0
1070
    74
1070
     0
1000
MTEXTEND
  0
POINT
  5
735F
330
71BA
100
AcDbEntity
  8
DEFPOINTS
 62
     0
100
AcDbPoint
 10
-29.99999999999998
 20
-23.16198730469
 30
0.0
  0
POINT
  5
7360
330
71BA
100
AcDbEntity
  8
DEFPOINTS
 62
     0
100
AcDbPoint
 10
0.0000000000000142
 20
-31.5
 30
0.0
  0
POINT
  5
7361
330
71BA
100
AcDbEntity
  8
DEFPOINTS
 62
     0
100
AcDbPoint
 10
0.0000000000000134
 20
-45.500001
 30
0.0
  0
ENDBLK
  5
71C5
330
71BA
100
AcDbEntity
  8
0
100
AcDbBlockEnd
  0
BLOCK
  5
73AE
330
73A4
100
AcDbEntity
  8
0
100
AcDbBlockBegin
  2
*D9
 70
     1
 10
0.0
 20
0.0
 30
0.0
  3
*D9
  1

  0
LINE
  5
742F
330
73A4
100
AcDbEntity
  8
AM_5
 62
     3
100
AcDbLine
 10
-116.9999999999919
 20
16.0
 30
0.0
 11
-141.2251444326119
 21
16.0
 31
0.0
  0
LINE
  5
7430
330
73A4
100
AcDbEntity
  8
AM_5
 62
     3
100
AcDbLine
 10
-116.9999999999919
 20
-15.99999999999999
 30
0.0
 11
-141.2251444326119
 21
-15.99999999999999
 31
0.0
  0
LINE
  5
7431
330
73A4
100
AcDbEntity
  8
AM_5
 62
     3
100
AcDbLine
 10
-140.2251444326119
 20
13.5
 30
0.0
 11
-140.2251444326119
 21
-13.49999999999999
 31
0.0
  0
INSERT
  5
7432
330
73A4
100
AcDbEntity
  8
AM_5
 62
     3
100
AcDbBlockReference
  2
_OPEN30
 10
-140.2251444326119
 20
16.0
 30
0.0
 41
2.5
 42
2.5
 43
2.5
 50
90.0
  0
INSERT
  5
7433
330
73A4
100
AcDbEntity
  8
AM_5
 62
     3
100
AcDbBlockReference
  2
_OPEN30
 10
-140.2251444326119
 20
-15.99999999999999
 30
0.0
 41
2.5
 42
2.5
 43
2.5
 50
270.0
  0
MTEXT
  5
7434
330
73A4
100
AcDbEntity
  8
AM_5
 62
     2
100
AcDbMText
 10
-143.6251444326119
 20
-0.0000000000000159
 30
0.0
 40
3.799999999999999
 41
0.0
 71
     5
 72
     1
  1
%%c32
 11
0.0000000000000001
 21
1.0
 31
0.0
1001
ACAD
1000
MTEXTBEGIN
1070
    73
1070
     1
1070
    44
1040
1.0
1070
    74
1070
     0
1000
MTEXTEND
  0
POINT
  5
7435
330
73A4
100
AcDbEntity
  8
DEFPOINTS
 62
     0
100
AcDbPoint
 10
-116.9999999999919
 20
16.0
 30
0.0
  0
POINT
  5
7436
330
73A4
100
AcDbEntity
  8
DEFPOINTS
 62
     0
100
AcDbPoint
 10
-116.9999999999919
 20
-15.99999999999999
 30
0.0
  0
POINT
  5
7437
330
73A4
100
AcDbEntity
  8
DEFPOINTS
 62
     0
100
AcDbPoint
 10
-140.2251444326119
 20
-15.99999999999999
 30
0.0
  0
ENDBLK
  5
73AF
330
73A4
100
AcDbEntity
  8
0
100
AcDbBlockEnd
  0
ENDSEC
  0
SECTION
  2
ENTITIES
  0
TEXT
  5
1500
330
1F
100
AcDbEntity
  8
AM_6
100
AcDbText
 10
-78.9285714285674
 20
-78.000001
 30
0.0
 40
5.0
  1
WFM4063E
 72
     4
 11
-59.99999999999597
 21
-75.500001
 31
0.0
100
AcDbText
  0
ELLIPSE
  5
6D68
330
1F
100
AcDbEntity
  8
AM_0
  6
CONTINUOUS
 48
0.5
100
AcDbEllipse
 10
-11.46696853637698
 20
36.82904052734
 30
0.0
 11
-20.292266737562
 21
0.8241585563899889
 31
0.0
210
0.0
220
0.0
230
1.0
 40
0.9687834900157
 41
0.6461772389223084
 42
0.7327285084365163
  0
ELLIPSE
  5
6D69
330
1F
100
AcDbEntity
  8
AM_0
  6
CONTINUOUS
 48
0.5
100
AcDbEllipse
 10
-12.67695999145499
 20
38.16296386719
 30
0.0
 11
-13.916991987804
 21
15.32748326678995
 31
0.0
210
0.0
220
0.0
230
0.9999999999999998
 40
0.9660425136975
 41
1.570988457973379
 42
2.400869867463662
  0
ELLIPSE
  5
6D6A
330
1F
100
AcDbEntity
  8
AM_0
  6
CONTINUOUS
 48
0.5
100
AcDbEllipse
 10
-12.67695999145499
 20
38.16296386719
 30
0.0
 11
-13.916991987804
 21
15.32748326678995
 31
0.0
210
0.0
220
0.0
230
0.9999999999999998
 40
0.9660425136975
 41
1.495603919598216
 42
1.570988457973379
  0
ELLIPSE
  5
6D6B
330
1F
100
AcDbEntity
  8
AM_0
  6
CONTINUOUS
 48
0.5
100
AcDbEllipse
 10
-6.137943267821981
 20
25.21624755858999
 30
0.0
 11
1.645233162153999
 21
2.696166957039963
 31
0.0
210
0.0
220
0.0
230
1.0
 40
0.9791126761627001
 41
5.848584287736937
 42
9.859449379131696
  0
ELLIPSE
  5
6D6C
330
1F
100
AcDbEntity
  8
AM_0
  6
CONTINUOUS
 48
0.5
100
AcDbEllipse
 10
-6.137943267821981
 20
25.21624755858999
 30
0.0
 11
1.645233162153999
 21
2.696166957039963
 31
0.0
210
0.0
220
0.0
230
1.0
 40
0.9791126761627001
 41
3.576264136405313
 42
5.848599032672962
  0
SPLINE
  5
6D6D
330
1F
100
AcDbEntity
  8
AM_0
  6
CONTINUOUS
 48
0.5
100
AcDbSpline
210
0.0
220
0.0
230
1.0
 70
     8
 71
     3
 72
    11
 73
     7
 74
     5
 42
0.0000000001
 43
0.0000000001
 44
0.0000000001
 40
0.0
 40
0.0
 40
0.0
 40
0.0
 40
0.4940863002721066
 40
0.9256695078863723
 40
1.358910671725453
 40
1.857468043147435
 40
1.857468043147435
 40
1.857468043147435
 40
1.857468043147435
 10
-9.652347564696981
 20
30.04016113281
 30
0.0
 10
-9.816517268268288
 20
30.01422781818855
 30
0.0
 10
-10.12408881726895
 20
29.96564181495333
 30
0.0
 10
-10.51577332415654
 20
29.71085988624094
 30
0.0
 10
-10.77350452646061
 20
29.31969502653006
 30
0.0
 10
-10.82648472298787
 20
29.01087550127753
 30
0.0
 10
-10.85483169555598
 20
28.84564208984
 30
0.0
 11
-9.652347564696981
 21
30.04016113281
 31
0.0
 11
-10.13324356079098
 21
29.9267578125
 31
0.0
 11
-10.49393081664999
 21
29.68975830077999
 31
0.0
 11
-10.73453140258799
 21
29.32946777344
 31
0.0
 11
-10.85483169555598
 21
28.84564208984
 31
0.0
  0
SPLINE
  5
6D6E
330
1F
100
AcDbEntity
  8
AM_0
  6
CONTINUOUS
 48
0.5
100
AcDbSpline
210
0.0
220
0.0
230
1.0
 70
     8
 71
     3
 72
    11
 73
     7
 74
     5
 42
0.0000000001
 43
0.0000000001
 44
0.0000000001
 40
0.0
 40
0.0
 40
0.0
 40
0.0
 40
1.312524410713341
 40
2.626787439298706
 40
3.94302559700468
 40
5.261354676255507
 40
5.261354676255507
 40
5.261354676255507
 40
5.261354676255507
 10
-12.17694473266598
 20
30.51068115234
 30
0.0
 10
-12.19025661882005
 20
30.07337004640287
 30
0.0
 10
-12.21689802453978
 20
29.19816855623238
 30
0.0
 10
-12.23732782649805
 20
27.88394723296056
 30
0.0
 10
-12.24470284373521
 20
26.56765270539371
 30
0.0
 10
-12.23652023908161
 20
25.68949057605115
 30
0.0
 10
-12.23242568969698
 20
25.25006103514999
 30
0.0
 11
-12.17694473266598
 21
30.51068115234
 31
0.0
 11
-12.21362686157198
 21
29.19866943359
 31
0.0
 11
-12.23514175414999
 21
27.88458251953
 31
0.0
 11
-12.24142837524398
 21
26.568359375
 31
0.0
 11
-12.23242568969698
 21
25.25006103514999
 31
0.0
  0
SPLINE
  5
6D6F
330
1F
100
AcDbEntity
  8
AM_0
  6
CONTINUOUS
 48
0.5
100
AcDbSpline
210
0.0
220
0.0
230
1.0
 70
     8
 71
     3
 72
    11
 73
     7
 74
     5
 42
0.0000000001
 43
0.0000000001
 44
0.0000000001
 40
0.0
 40
0.0
 40
0.0
 40
0.0
 40
1.319000450314099
 40
2.63584909866576
 40
3.950781432405568
 40
5.263915956387116
 40
5.263915956387116
 40
5.263915956387116
 40
5.263915956387116
 10
-12.38003921508799
 20
25.24987792969
 30
0.0
 10
-12.38414094626269
 20
25.6895313443801
 30
0.0
 10
-12.39233771709566
 20
26.56812092830348
 30
0.0
 10
-12.38485580492956
 20
27.8850646885646
 30
0.0
 10
-12.36464798492347
 20
29.19991950856454
 30
0.0
 10
-12.33797645367542
 20
30.07554718513978
 30
0.0
 10
-12.32464981079098
 20
30.51306152344
 30
0.0
 11
-12.38003921508799
 21
25.24987792969
 31
0.0
 11
-12.38904190063398
 21
26.56884765625
 31
0.0
 11
-12.38272476196299
 21
27.88568115233999
 31
0.0
 11
-12.36133193969698
 21
29.20043945311999
 31
0.0
 11
-12.32464981079098
 21
30.51306152344
 31
0.0
  0
SPLINE
  5
6D70
330
1F
100
AcDbEntity
  8
AM_0
  6
CONTINUOUS
 48
0.5
100
AcDbSpline
210
0.0
220
0.0
230
1.0
 70
     8
 71
     3
 72
    11
 73
     7
 74
     5
 42
0.0000000001
 43
0.0000000001
 44
0.0000000001
 40
0.0
 40
0.0
 40
0.0
 40
0.0
 40
0.1130661278277658
 40
0.2258125344513066
 40
0.3414345967102287
 40
0.4625878944146663
 40
0.4625878944146663
 40
0.4625878944146663
 40
0.4625878944146663
 10
-11.00622940063398
 20
30.18444824219
 30
0.0
 10
-10.9782398219361
 20
30.2098284005255
 30
0.0
 10
-10.9223398116906
 20
30.26051694879916
 30
0.0
 10
-10.82318307148162
 20
30.31783924996123
 30
0.0
 10
-10.71433780719287
 20
30.36097136190292
 30
0.0
 10
-10.63666916195665
 20
30.37586374632941
 30
0.0
 10
-10.59692764282198
 20
30.38348388672
 30
0.0
 11
-11.00622940063398
 21
30.18444824219
 31
0.0
 11
-10.91983413696299
 21
30.25738525389999
 31
0.0
 11
-10.82284927368098
 21
30.31488037108999
 31
0.0
 11
-10.71512222289999
 21
30.35687255859
 31
0.0
 11
-10.59692764282198
 21
30.38348388672
 31
0.0
  0
SPLINE
  5
6D71
330
1F
100
AcDbEntity
  8
AM_0
  6
CONTINUOUS
 48
0.5
100
AcDbSpline
210
0.0
220
0.0
230
1.0
 70
     8
 71
     3
 72
    11
 73
     7
 74
     5
 42
0.0000000001
 43
0.0000000001
 44
0.0000000001
 40
0.0
 40
0.0
 40
0.0
 40
0.0
 40
0.1157883727124312
 40
0.2316500812695132
 40
0.3487150694204317
 40
0.4654508333122547
 40
0.4654508333122547
 40
0.4654508333122547
 40
0.4654508333122547
 10
-10.59692764282198
 20
30.38348388672
 30
0.0
 10
-10.63553757118058
 20
30.37964748343856
 30
0.0
 10
-10.71278188192233
 20
30.37197224704729
 30
0.0
 10
-10.82106132539356
 20
30.32605823318126
 30
0.0
 10
-10.92016060659857
 20
30.26382429130008
 30
0.0
 10
-10.97756674792237
 20
30.21088207520416
 30
0.0
 10
-11.00622940063398
 20
30.18444824219
 30
0.0
 11
-10.59692764282198
 21
30.38348388672
 31
0.0
 11
-10.71142959594698
 21
30.36627197265
 31
0.0
 11
-10.81912612914999
 21
30.32354736328
 31
0.0
 11
-10.91803359985298
 21
30.26092529297
 31
0.0
 11
-11.00622940063398
 21
30.18444824219
 31
0.0
  0
SPLINE
  5
6D72
330
1F
100
AcDbEntity
  8
AM_0
  6
CONTINUOUS
 48
0.5
100
AcDbSpline
210
0.0
220
0.0
230
1.0
 70
     8
 71
     3
 72
    11
 73
     7
 74
     5
 42
0.0000000001
 43
0.0000000001
 44
0.0000000001
 40
0.0
 40
0.0
 40
0.0
 40
0.0
 40
0.1166062443587434
 40
0.2344790219976975
 40
0.3514036368837355
 40
0.4679806095740569
 40
0.4679806095740569
 40
0.4679806095740569
 40
0.4679806095740569
 10
-11.00622940063398
 20
30.18444824219
 30
0.0
 10
-11.03290233386594
 20
30.15605665468439
 30
0.0
 10
-11.086537911724
 20
30.09896510090106
 30
0.0
 10
-11.1493401592283
 20
29.99953561800945
 30
0.0
 10
-11.19691429928093
 20
29.89105526834644
 30
0.0
 10
-11.20565963140861
 20
29.81329656493768
 30
0.0
 10
-11.21002578735299
 20
29.77447509764999
 30
0.0
 11
-11.00622940063398
 21
30.18444824219
 31
0.0
 11
-11.08334732055598
 21
30.09698486328
 31
0.0
 11
-11.14694595336898
 21
29.99774169922
 31
0.0
 11
-11.19122695922799
 21
29.88952636719
 31
0.0
 11
-11.21002578735299
 21
29.77447509764999
 31
0.0
  0
SPLINE
  5
6D73
330
1F
100
AcDbEntity
  8
AM_0
  6
CONTINUOUS
 48
0.5
100
AcDbSpline
210
0.0
220
0.0
230
1.0
 70
     8
 71
     3
 72
    11
 73
     7
 74
     5
 42
0.0000000001
 43
0.0000000001
 44
0.0000000001
 40
0.0
 40
0.0
 40
0.0
 40
0.0
 40
1.293764048429235
 40
2.592160824459032
 40
3.895490093494654
 40
5.20375074422045
 40
5.20375074422045
 40
5.20375074422045
 40
5.20375074422045
 10
-12.38003921508799
 20
25.24987792969
 30
0.0
 10
-12.39939686424099
 20
24.81905230216362
 30
0.0
 10
-12.43818147867587
 20
23.95585834094423
 30
0.0
 10
-12.4767797864211
 20
22.65789546579141
 30
0.0
 10
-12.50219044944168
 20
21.35477597929935
 30
0.0
 10
-12.50622331862859
 20
20.48424441758517
 30
0.0
 10
-12.50824356079098
 20
20.04815673827999
 30
0.0
 11
-12.38003921508799
 21
25.24987792969
 31
0.0
 11
-12.43484878539999
 21
23.95727539061999
 31
0.0
 11
-12.47452163696299
 21
22.65948486327999
 31
0.0
 11
-12.49893569946299
 21
21.35638427733999
 31
0.0
 11
-12.50824356079098
 21
20.04815673827999
 31
0.0
  0
SPLINE
  5
6D74
330
1F
100
AcDbEntity
  8
AM_0
  6
CONTINUOUS
 48
0.5
100
AcDbSpline
210
0.0
220
0.0
230
1.0
 70
     8
 71
     3
 72
    11
 73
     7
 74
     5
 42
0.0000000001
 43
0.0000000001
 44
0.0000000001
 40
0.0
 40
0.0
 40
0.0
 40
0.0
 40
0.4945112090259092
 40
0.9204202016041381
 40
1.34464835691074
 40
1.83460543917299
 40
1.83460543917299
 40
1.83460543917299
 40
1.83460543917299
 10
-10.98242568969698
 20
21.57653808594
 30
0.0
 10
-10.96005148357394
 20
21.41172347462394
 30
0.0
 10
-10.91840698505779
 20
21.10495854188634
 30
0.0
 10
-10.67399839330937
 20
20.7117783362702
 30
0.0
 10
-10.28869285832348
 20
20.45726714498588
 30
0.0
 10
-9.984743621975407
 20
20.40994486814005
 30
0.0
 10
-9.821842193602989
 20
20.38458251953
 30
0.0
 11
-10.98242568969698
 21
21.57653808594
 31
0.0
 11
-10.87903213500898
 21
21.09295654297
 31
0.0
 11
-10.65112686157198
 21
20.73315429686999
 31
0.0
 11
-10.29874038696299
 21
20.49694824219
 31
0.0
 11
-9.821842193602989
 21
20.38458251953
 31
0.0
  0
SPLINE
  5
6D75
330
1F
100
AcDbEntity
  8
AM_0
  6
CONTINUOUS
 48
0.5
100
AcDbSpline
210
0.0
220
0.0
230
1.0
 70
     8
 71
     3
 72
    11
 73
     7
 74
     5
 42
0.0000000001
 43
0.0000000001
 44
0.0000000001
 40
0.0
 40
0.0
 40
0.0
 40
0.0
 40
0.1111634567499158
 40
0.2226617244332343
 40
0.3375447612001841
 40
0.458860928359909
 40
0.458860928359909
 40
0.458860928359909
 40
0.458860928359909
 10
-11.17914199829098
 20
20.32928466797
 30
0.0
 10
-11.20376673324064
 20
20.35710666454199
 30
0.0
 10
-11.25309036987366
 20
20.41283445418632
 30
0.0
 10
-11.30787058226716
 20
20.51197590414528
 30
0.0
 10
-11.34861307264386
 20
20.62108429853154
 30
0.0
 10
-11.36177426340855
 20
20.69887556846031
 30
0.0
 10
-11.36853408813398
 20
20.73883056639999
 30
0.0
 11
-11.17914199829098
 21
20.32928466797
 31
0.0
 11
-11.24972915649398
 21
20.41516113280999
 31
0.0
 11
-11.30484390258799
 21
20.51208496094
 31
0.0
 11
-11.34442520141598
 21
20.61993408203
 31
0.0
 11
-11.36853408813398
 21
20.73883056639999
 31
0.0
  0
SPLINE
  5
6D76
330
1F
100
AcDbEntity
  8
AM_0
  6
CONTINUOUS
 48
0.5
100
AcDbSpline
210
0.0
220
0.0
230
1.0
 70
     8
 71
     3
 72
    11
 73
     7
 74
     5
 42
0.0000000001
 43
0.0000000001
 44
0.0000000001
 40
0.0
 40
0.0
 40
0.0
 40
0.0
 40
0.116241567239312
 40
0.2314682479321913
 40
0.3470676777707724
 40
0.461791384369311
 40
0.461791384369311
 40
0.461791384369311
 40
0.461791384369311
 10
-11.36853408813398
 20
20.73883056639999
 30
0.0
 10
-11.36554589395843
 20
20.69998684693805
 30
0.0
 10
-11.35959559505313
 20
20.62263854632099
 30
0.0
 10
-11.31597349384832
 20
20.51400814995382
 30
0.0
 10
-11.25636680727906
 20
20.41486508756727
 30
0.0
 10
-11.20481826951993
 20
20.35773907393436
 30
0.0
 10
-11.17914199829098
 20
20.32928466797
 30
0.0
 11
-11.36853408813398
 21
20.73883056639999
 31
0.0
 11
-11.35373306274398
 21
20.62353515624999
 31
0.0
 11
-11.31332778930598
 21
20.515625
 31
0.0
 11
-11.25323867797799
 21
20.41687011719
 31
0.0
 11
-11.17914199829098
 21
20.32928466797
 31
0.0
  0
SPLINE
  5
6D77
330
1F
100
AcDbEntity
  8
AM_0
  6
CONTINUOUS
 48
0.5
100
AcDbSpline
210
0.0
220
0.0
230
1.0
 70
     8
 71
     3
 72
    11
 73
     7
 74
     5
 42
0.0000000001
 43
0.0000000001
 44
0.0000000001
 40
0.0
 40
0.0
 40
0.0
 40
0.0
 40
0.0476060524825898
 40
0.0948844002268357
 40
0.1419548140298906
 40
0.1890157297234806
 40
0.1890157297234806
 40
0.1890157297234806
 40
0.1890157297234806
 10
-11.17914199829098
 20
20.32928466797
 30
0.0
 10
-11.16795632231754
 20
20.31802076189175
 30
0.0
 10
-11.14566196896279
 20
20.29557048683823
 30
0.0
 10
-11.1096954355486
 20
20.26475568196251
 30
0.0
 10
-11.07210946307214
 20
20.23623867189195
 30
0.0
 10
-11.04566493174478
 20
20.21932996514568
 30
0.0
 10
-11.03244400024398
 20
20.21087646483999
 30
0.0
 11
-11.17914199829098
 21
20.32928466797
 31
0.0
 11
-11.14514541625898
 21
20.29595947264999
 31
0.0
 11
-11.10934829711898
 21
20.26507568358999
 31
0.0
 11
-11.07175064086898
 21
20.23675537108999
 31
0.0
 11
-11.03244400024398
 21
20.21087646483999
 31
0.0
  0
SPLINE
  5
6D78
330
1F
100
AcDbEntity
  8
AM_0
  6
CONTINUOUS
 48
0.5
100
AcDbSpline
210
0.0
220
0.0
230
1.0
 70
     8
 71
     3
 72
    11
 73
     7
 74
     5
 42
0.0000000001
 43
0.0000000001
 44
0.0000000001
 40
0.0
 40
0.0
 40
0.0
 40
0.0
 40
0.0685907535281251
 40
0.13573093045921
 40
0.2026455693789654
 40
0.2708054716558562
 40
0.2708054716558562
 40
0.2708054716558562
 40
0.2708054716558562
 10
-11.03244400024398
 20
20.21087646483999
 30
0.0
 10
-11.01269107877174
 20
20.19929152661798
 30
0.0
 10
-10.97360297618056
 20
20.17636665171423
 30
0.0
 10
-10.91021172854945
 20
20.1522821524359
 30
0.0
 10
-10.84449958469344
 20
20.13612122131829
 30
0.0
 10
-10.79952391694298
 20
20.13282689783955
 30
0.0
 10
-10.77682876586898
 20
20.13116455077999
 30
0.0
 11
-11.03244400024398
 21
20.21087646483999
 31
0.0
 11
-10.97232437133799
 21
20.17785644531
 31
0.0
 11
-10.90973281860299
 21
20.15356445311999
 31
0.0
 11
-10.84463882446299
 21
20.13806152344
 31
0.0
 11
-10.77682876586898
 21
20.13116455077999
 31
0.0
  0
SPLINE
  5
6D79
330
1F
100
AcDbEntity
  8
AM_0
  6
CONTINUOUS
 48
0.5
100
AcDbSpline
210
0.0
220
0.0
230
1.0
 70
     8
 71
     3
 72
    11
 73
     7
 74
     5
 42
0.0000000001
 43
0.0000000001
 44
0.0000000001
 40
0.0
 40
0.0
 40
0.0
 40
0.0
 40
0.4944579053841903
 40
0.9204184608965658
 40
1.344578660784298
 40
1.834577768477637
 40
1.834577768477637
 40
1.834577768477637
 40
1.834577768477637
 10
-1.293521881102989
 20
28.85595703125
 30
0.0
 10
-1.31591925216564
 20
29.02074272856843
 30
0.0
 10
-1.357611282118314
 20
29.32748632848264
 30
0.0
 10
-1.601918688948091
 20
29.72073421484777
 30
0.0
 10
-1.987353721239774
 20
29.97504429799324
 30
0.0
 10
-2.291246262073033
 20
30.02252400504994
 30
0.0
 10
-2.454135894774992
 20
30.04797363280999
 30
0.0
 11
-1.293521881102989
 21
28.85595703125
 31
0.0
 11
-1.396945953368984
 21
29.33947753906
 31
0.0
 11
-1.624851226805986
 21
29.69934082031
 31
0.0
 11
-1.977237701415987
 21
29.93542480469
 31
0.0
 11
-2.454135894774992
 21
30.04797363280999
 31
0.0
  0
SPLINE
  5
6D7A
330
1F
100
AcDbEntity
  8
AM_0
  6
CONTINUOUS
 48
0.5
100
AcDbSpline
210
0.0
220
0.0
230
1.0
 70
     8
 71
     3
 72
    11
 73
     7
 74
     5
 42
0.0000000001
 43
0.0000000001
 44
0.0000000001
 40
0.0
 40
0.0
 40
0.0
 40
0.0
 40
0.227733512603774
 40
0.4566281574240958
 40
0.6861363904479379
 40
0.9158452336743419
 40
0.9158452336743419
 40
0.9158452336743419
 40
0.9158452336743419
 10
-11.76892471313398
 20
19.21166992186999
 30
0.0
 10
-11.84476516482244
 20
19.22587057116708
 30
0.0
 10
-11.99683275169959
 20
19.25434427382337
 30
0.0
 10
-12.17750489689337
 20
19.40406230689173
 30
0.0
 10
-12.32249071508008
 20
19.58913398444611
 30
0.0
 10
-12.34791322666273
 20
19.74257960877217
 30
0.0
 10
-12.36063003539999
 20
19.8193359375
 30
0.0
 11
-11.76892471313398
 21
19.21166992186999
 31
0.0
 11
-11.98852920532198
 21
19.27197265625
 31
0.0
 11
-12.17132949829098
 21
19.40972900389999
 31
0.0
 11
-12.30463027954098
 21
19.59655761719
 31
0.0
 11
-12.36063003539999
 21
19.8193359375
 31
0.0
  0
ELLIPSE
  5
6D7B
330
1F
100
AcDbEntity
  8
AM_0
  6
CONTINUOUS
 48
0.5
100
AcDbEllipse
 10
-11.69263076782198
 20
19.88507080077999
 30
0.0
 11
0.5714416469019989
 21
0.6331787036100423
 31
0.0
210
0.0
220
0.0
230
0.9999999999999998
 40
0.9192111985961
 41
2.346715390780832
 42
3.817890167206236
  0
SPLINE
  5
6D7C
330
1F
100
AcDbEntity
  8
AM_0
  6
CONTINUOUS
 48
0.5
100
AcDbSpline
210
0.0
220
0.0
230
1.0
 70
     8
 71
     3
 72
    11
 73
     7
 74
     5
 42
0.0000000001
 43
0.0000000001
 44
0.0000000001
 40
0.0
 40
0.0
 40
0.0
 40
0.0
 40
1.314789634370868
 40
2.625019617030899
 40
3.930652668340971
 40
5.231683987517953
 40
5.231683987517953
 40
5.231683987517953
 40
5.231683987517953
 10
-6.313449859618984
 20
19.01947021484
 30
0.0
 10
-6.751713816845567
 20
19.0195591748955
 30
0.0
 10
-7.626721844808816
 20
19.01973678649567
 30
0.0
 10
-8.936923405888936
 20
19.02715310499304
 30
0.0
 10
-10.24250407398029
 20
19.03927240788094
 30
0.0
 10
-11.11129639832138
 20
19.05228302913553
 30
0.0
 10
-11.54492568969698
 20
19.05877685547
 30
0.0
 11
-6.313449859618984
 21
19.01947021484
 31
0.0
 11
-7.628238677977989
 21
19.02093505858999
 31
0.0
 11
-8.938449859618984
 21
19.02795410156
 31
0.0
 11
-10.24402236938398
 21
19.04052734375
 31
0.0
 11
-11.54492568969698
 21
19.05877685547
 31
0.0
  0
SPLINE
  5
6D7D
330
1F
100
AcDbEntity
  8
AM_0
  6
CONTINUOUS
 48
0.5
100
AcDbSpline
210
0.0
220
0.0
230
1.0
 70
     8
 71
     3
 72
    11
 73
     7
 74
     5
 42
0.0000000001
 43
0.0000000001
 44
0.0000000001
 40
0.0
 40
0.0
 40
0.0
 40
0.0
 40
0.04765067458969
 40
0.0949689150979896
 40
0.1420026318474886
 40
0.1890971385077905
 40
0.1890971385077905
 40
0.1890971385077905
 40
0.1890971385077905
 10
-1.24722671508799
 20
30.19506835936999
 30
0.0
 10
-1.258465558840104
 20
30.20629833262646
 30
0.0
 10
-1.280864838751349
 20
30.22867993343124
 30
0.0
 10
-1.316745789836529
 20
30.25961736698469
 30
0.0
 10
-1.354422216661003
 20
30.28803742661509
 30
0.0
 10
-1.38083290899853
 20
30.30499320041112
 30
0.0
 10
-1.394046783446981
 20
30.3134765625
 30
0.0
 11
-1.24722671508799
 21
30.19506835936999
 31
0.0
 11
-1.281345367430986
 21
30.22833251953
 31
0.0
 11
-1.317142486571981
 21
30.25927734375
 31
0.0
 11
-1.354740142821981
 21
30.28753662109
 31
0.0
 11
-1.394046783446981
 21
30.3134765625
 31
0.0
  0
SPLINE
  5
6D7E
330
1F
100
AcDbEntity
  8
AM_0
  6
CONTINUOUS
 48
0.5
100
AcDbSpline
210
0.0
220
0.0
230
1.0
 70
     8
 71
     3
 72
    11
 73
     7
 74
     5
 42
0.0000000001
 43
0.0000000001
 44
0.0000000001
 40
0.0
 40
0.0
 40
0.0
 40
0.0
 40
0.0684543766894632
 40
0.1355945536196075
 40
0.2025091925426623
 40
0.2705718554150341
 40
0.2705718554150341
 40
0.2705718554150341
 40
0.2705718554150341
 10
-1.394138336180986
 20
30.3134765625
 30
0.0
 10
-1.413851135376698
 20
30.3250402343327
 30
0.0
 10
-1.452898283810481
 20
30.34794557649179
 30
0.0
 10
-1.516249365324368
 20
30.37200509292969
 30
0.0
 10
-1.581927408198719
 20
30.38817808544858
 30
0.0
 10
-1.626875003311673
 20
30.39142775283877
 30
0.0
 10
-1.649539947508984
 20
30.39306640625
 30
0.0
 11
-1.394138336180986
 21
30.3134765625
 31
0.0
 11
-1.454135894774992
 21
30.34643554686999
 31
0.0
 11
-1.516727447508984
 21
30.37072753906
 31
0.0
 11
-1.581821441649992
 21
30.38623046875
 31
0.0
 11
-1.649539947508984
 21
30.39306640625
 31
0.0
  0
SPLINE
  5
6D7F
330
1F
100
AcDbEntity
  8
AM_0
  6
CONTINUOUS
 48
0.5
100
AcDbSpline
210
0.0
220
0.0
230
1.0
 70
     8
 71
     3
 72
    11
 73
     7
 74
     5
 42
0.0000000001
 43
0.0000000001
 44
0.0000000001
 40
0.0
 40
0.0
 40
0.0
 40
0.0
 40
0.116390010162942
 40
0.2316311253360643
 40
0.3472305551746455
 40
0.4618951518492418
 40
0.4618951518492418
 40
0.4618951518492418
 40
0.4618951518492418
 10
-1.057834625243984
 20
29.78533935547
 30
0.0
 10
-1.060922875199262
 20
29.82421653403589
 30
0.0
 10
-1.067068890750414
 20
29.90158713146521
 30
0.0
 10
-1.1104206154967
 20
30.01036271590794
 30
0.0
 10
-1.170111761451488
 20
30.10945471575626
 30
0.0
 10
-1.221591396758678
 20
30.16660782216063
 30
0.0
 10
-1.24722671508799
 20
30.19506835936999
 30
0.0
 11
-1.057834625243984
 21
29.78533935547
 31
0.0
 11
-1.072849273680986
 21
29.90075683594
 31
0.0
 11
-1.113132476805986
 21
30.00872802733999
 31
0.0
 11
-1.173221588133984
 21
30.10748291015
 31
0.0
 11
-1.24722671508799
 21
30.19506835936999
 31
0.0
  0
SPLINE
  5
6D80
330
1F
100
AcDbEntity
  8
AM_0
  6
CONTINUOUS
 48
0.5
100
AcDbSpline
210
0.0
220
0.0
230
1.0
 70
     8
 71
     3
 72
    11
 73
     7
 74
     5
 42
0.0000000001
 43
0.0000000001
 44
0.0000000001
 40
0.0
 40
0.0
 40
0.0
 40
0.0
 40
1.319020705888092
 40
2.635820497133461
 40
3.95065055569007
 40
5.263274465056777
 40
5.263274465056777
 40
5.263274465056777
 40
5.263274465056777
 10
-0.0279273986809869
 20
25.26318359375
 30
0.0
 10
-0.0238419716096769
 20
25.70283840328075
 30
0.0
 10
-0.0156779963467924
 20
26.58140774904717
 30
0.0
 10
-0.0073894440608148
 20
27.89826679108289
 30
0.0
 10
-0.0018770611522623
 20
29.21300812259198
 30
0.0
 10
-0.0008517387831318
 20
30.08882596017596
 30
0.0
 10
-0.0003395080559869
 20
30.5263671875
 30
0.0
 11
-0.0279273986809869
 21
25.26318359375
 31
0.0
 11
-0.0163307189939843
 21
26.58215332031
 31
0.0
 11
-0.0078468322749927
 21
27.89892578125
 31
0.0
 11
-0.0025367736809869
 21
29.21374511719
 31
0.0
 11
-0.0003395080559869
 21
30.5263671875
 31
0.0
  0
SPLINE
  5
6D81
330
1F
100
AcDbEntity
  8
AM_0
  6
CONTINUOUS
 48
0.5
100
AcDbSpline
210
0.0
220
0.0
230
1.0
 70
     8
 71
     3
 72
    11
 73
     7
 74
     5
 42
0.0000000001
 43
0.0000000001
 44
0.0000000001
 40
0.0
 40
0.0
 40
0.0
 40
0.0
 40
1.271216692852251
 40
2.550245673799409
 40
3.837050245386385
 40
5.131624587122329
 40
5.131624587122329
 40
5.131624587122329
 40
5.131624587122329
 10
-6.313449859618984
 20
19.01947021484
 30
0.0
 10
-5.889711425879359
 20
19.02048248705666
 30
0.0
 10
-5.039630465219245
 20
19.02251325242952
 30
0.0
 10
-3.760648932642569
 20
19.03268138977539
 30
0.0
 10
-2.473928467247663
 20
19.04767342226626
 30
0.0
 10
-1.613594484770317
 20
19.06246646801075
 30
0.0
 10
-1.182132720946981
 20
19.06988525389999
 30
0.0
 11
-6.313449859618984
 21
19.01947021484
 31
0.0
 11
-5.042240142821981
 21
19.02368164061999
 31
0.0
 11
-3.763248443602989
 21
19.03344726561999
 31
0.0
 11
-2.476535797118984
 21
19.048828125
 31
0.0
 11
-1.182132720946981
 21
19.06988525389999
 31
0.0
  0
SPLINE
  5
6D82
330
1F
100
AcDbEntity
  8
AM_0
  6
CONTINUOUS
 48
0.5
100
AcDbSpline
210
0.0
220
0.0
230
1.0
 70
     8
 71
     3
 72
    11
 73
     7
 74
     5
 42
0.0000000001
 43
0.0000000001
 44
0.0000000001
 40
0.0
 40
0.0
 40
0.0
 40
0.0
 40
0.494100312710383
 40
0.9256500065051886
 40
1.358941929519477
 40
1.857380838502871
 40
1.857380838502871
 40
1.857380838502871
 40
1.857380838502871
 10
-2.623630523680986
 20
20.39227294922
 30
0.0
 10
-2.459466476449901
 20
20.4182375107952
 30
0.0
 10
-2.15192072616732
 20
20.46687965080754
 30
0.0
 10
-1.760163484382868
 20
20.72156857059635
 30
0.0
 10
-1.502518229269188
 20
21.11276379890757
 30
0.0
 10
-1.449505886257284
 20
21.42154519871124
 30
0.0
 10
-1.421146392821981
 20
21.58673095703
 30
0.0
 11
-2.623630523680986
 21
20.39227294922
 31
0.0
 11
-2.14273452758799
 21
20.50573730469
 31
0.0
 11
-1.782047271727989
 21
20.74267578125
 31
0.0
 11
-1.541446685790987
 21
21.10302734375
 31
0.0
 11
-1.421146392821981
 21
21.58673095703
 31
0.0
  0
SPLINE
  5
6D83
330
1F
100
AcDbEntity
  8
AM_0
  6
CONTINUOUS
 48
0.5
100
AcDbSpline
210
0.0
220
0.0
230
1.0
 70
     8
 71
     3
 72
    11
 73
     7
 74
     5
 42
0.0000000001
 43
0.0000000001
 44
0.0000000001
 40
0.0
 40
0.0
 40
0.0
 40
0.0
 40
1.293055165921328
 40
2.591445031956292
 40
3.895181384810159
 40
5.204202697151318
 40
5.204202697151318
 40
5.204202697151318
 40
5.204202697151318
 10
-0.0279273986809869
 20
25.26318359375
 30
0.0
 10
-0.0391192530989869
 20
24.8323103321878
 30
0.0
 10
-0.0615491356703455
 20
23.96878617443654
 30
0.0
 10
-0.0990947819148075
 20
22.67093367359116
 30
0.0
 10
-0.1396823728132003
 20
21.36784827148338
 30
0.0
 10
-0.1692240796211355
 20
20.49742985856467
 30
0.0
 10
-0.1840248107909872
 20
20.06134033203
 30
0.0
 11
-0.0279273986809869
 21
25.26318359375
 31
0.0
 11
-0.062137603758984
 21
23.97058105469
 31
0.0
 11
-0.0995216369629901
 21
22.67272949219
 31
0.0
 11
-0.1402320861809869
 21
21.36962890625
 31
0.0
 11
-0.1840248107909872
 21
20.06134033203
 31
0.0
  0
SPLINE
  5
6D84
330
1F
100
AcDbEntity
  8
AM_0
  6
CONTINUOUS
 48
0.5
100
AcDbSpline
210
0.0
220
0.0
230
1.0
 70
     8
 71
     3
 72
    11
 73
     7
 74
     5
 42
0.0000000001
 43
0.0000000001
 44
0.0000000001
 40
0.0
 40
0.0
 40
0.0
 40
0.0
 40
0.1166776693082953
 40
0.2344990629118176
 40
0.3514005765689853
 40
0.4679321194640439
 40
0.4679321194640439
 40
0.4679321194640439
 40
0.4679321194640439
 10
-1.420230865477989
 20
20.33978271484
 30
0.0
 10
-1.393579150773642
 20
20.36822293832794
 30
0.0
 10
-1.340014469886431
 20
20.42538216850851
 30
0.0
 10
-1.277105281061301
 20
20.52474480858789
 30
0.0
 10
-1.229689332511191
 20
20.63324445808713
 30
0.0
 10
-1.220848092481721
 20
20.71095978291598
 30
0.0
 10
-1.216434478758984
 20
20.74975585937
 30
0.0
 11
-1.420230865477989
 21
20.33978271484
 31
0.0
 11
-1.343143463133984
 21
20.42736816405999
 31
0.0
 11
-1.279544830321981
 21
20.52655029297
 31
0.0
 11
-1.235324859618984
 21
20.634765625
 31
0.0
 11
-1.216434478758984
 21
20.74975585937
 31
0.0
  0
SPLINE
  5
6D85
330
1F
100
AcDbEntity
  8
AM_0
  6
CONTINUOUS
 48
0.5
100
AcDbSpline
210
0.0
220
0.0
230
1.0
 70
     8
 71
     3
 72
    11
 73
     7
 74
     5
 42
0.0000000001
 43
0.0000000001
 44
0.0000000001
 40
0.0
 40
0.0
 40
0.0
 40
0.0
 40
0.1157883727124312
 40
0.2316726021907848
 40
0.3486723362121228
 40
0.4653681232767661
 40
0.4653681232767661
 40
0.4653681232767661
 40
0.4653681232767661
 10
-1.829532623290987
 20
20.14086914061999
 30
0.0
 10
-1.790918989555144
 20
20.14469750779326
 30
0.0
 10
-1.713659755332706
 20
20.15235741149859
 30
0.0
 10
-1.605450176183286
 20
20.19839019425466
 30
0.0
 10
-1.506281381415231
 20
20.26044889250552
 30
0.0
 10
-1.448889489282374
 20
20.31336104677114
 30
0.0
 10
-1.420230865477989
 20
20.33978271484
 30
0.0
 11
-1.829532623290987
 21
20.14086914061999
 31
0.0
 11
-1.715030670165987
 21
20.15808105469
 31
0.0
 11
-1.60733413696299
 21
20.20086669922
 31
0.0
 11
-1.508426666258984
 21
20.26336669922
 31
0.0
 11
-1.420230865477989
 21
20.33978271484
 31
0.0
  0
SPLINE
  5
6D86
330
1F
100
AcDbEntity
  8
AM_0
  6
CONTINUOUS
 48
0.5
100
AcDbSpline
210
0.0
220
0.0
230
1.0
 70
     8
 71
     3
 72
    11
 73
     7
 74
     5
 42
0.0000000001
 43
0.0000000001
 44
0.0000000001
 40
0.0
 40
0.0
 40
0.0
 40
0.0
 40
0.2318546702925989
 40
0.4655464237397759
 40
0.6985022818944973
 40
0.9283956541718525
 40
0.9283956541718525
 40
0.9283956541718525
 40
0.9283956541718525
 10
-0.339725494383984
 20
19.83227539061999
 30
0.0
 10
-0.3552433625391542
 20
19.75535902525189
 30
0.0
 10
-0.3864020535182395
 20
19.60091685344231
 30
0.0
 10
-0.5375536329541739
 20
19.4166715225703
 30
0.0
 10
-0.7223099802247662
 20
19.26688527302909
 30
0.0
 10
-0.8762642685841747
 20
19.23774188204522
 30
0.0
 10
-0.9527320861809869
 20
19.22326660156
 30
0.0
 11
-0.339725494383984
 21
19.83227539061999
 31
0.0
 11
-0.4035377502439843
 21
19.609375
 31
0.0
 11
-0.5434303283689843
 21
19.42218017577999
 31
0.0
 11
-0.7310218811029899
 21
19.28405761719
 31
0.0
 11
-0.9527320861809869
 21
19.22326660156
 31
0.0
  0
ELLIPSE
  5
6D87
330
1F
100
AcDbEntity
  8
AM_0
  6
CONTINUOUS
 48
0.5
100
AcDbEllipse
 10
-1.005344390868984
 20
19.89654541014999
 30
0.0
 11
-0.520599368460001
 21
0.6557617228199888
 31
0.0
210
0.0
220
0.0
230
1.0
 40
0.9537728937781
 41
2.512048064017229
 42
3.984118784188832
  0
LINE
  5
6D8D
330
1F
100
AcDbEntity
  8
AM_0
  6
CONTINUOUS
100
AcDbLine
 10
-0.9999599456779861
 20
18.92413330077999
 30
0.0
 11
-0.9999599456779861
 21
-28.54949951172
 31
0.0
  0
LINE
  5
6D8E
330
1F
100
AcDbEntity
  8
AM_0
  6
CONTINUOUS
 48
0.5
100
AcDbLine
 10
-29.99999999999998
 20
7.47900390625
 30
0.0
 11
-29.99999999999998
 21
23.30401611327999
 31
0.0
  0
LINE
  5
6D8F
330
1F
100
AcDbEntity
  8
AM_0
  6
CONTINUOUS
 48
0.5
100
AcDbLine
 10
-3.999973297118984
 20
5.708984375
 30
0.0
 11
-0.9999790191649822
 21
16.72296142578
 31
0.0
  0
LINE
  5
6D90
330
1F
100
AcDbEntity
  8
AM_0
  6
CONTINUOUS
 48
0.5
100
AcDbLine
 10
-0.9999713897699962
 20
17.0
 30
0.0
 11
-3.999961853026988
 21
5.804016113279999
 31
0.0
  0
LINE
  5
6D91
330
1F
100
AcDbEntity
  8
AM_0
  6
CONTINUOUS
 48
0.5
100
AcDbLine
 10
-119.9999999999919
 20
-13.66101074219
 30
0.0
 11
-119.9999999999919
 21
13.66101074219
 31
0.0
  0
LINE
  5
6D92
330
1F
100
AcDbEntity
  8
AM_0
  6
CONTINUOUS
100
AcDbLine
 10
-34.99999999999998
 20
-16.0
 30
0.0
 11
-34.99999999999998
 21
16.0
 31
0.0
  0
LINE
  5
6D93
330
1F
100
AcDbEntity
  8
AM_0
  6
CONTINUOUS
100
AcDbLine
 10
-116.9999999999919
 20
-16.0
 30
0.0
 11
-116.9999999999919
 21
16.0
 31
0.0
  0
LINE
  5
6D98
330
1F
100
AcDbEntity
  8
AM_0
  6
CONTINUOUS
 48
0.5
100
AcDbLine
 10
-3.99996376037599
 20
-5.803955078130002
 30
0.0
 11
-0.9999485015869851
 21
-17.0
 31
0.0
  0
LINE
  5
6D99
330
1F
100
AcDbEntity
  8
AM_0
  6
CONTINUOUS
 48
0.5
100
AcDbLine
 10
-29.99999999999998
 20
-22.07098388672
 30
0.0
 11
-29.99999999999998
 21
2.566040039059998
 31
0.0
  0
LINE
  5
6D9F
330
1F
100
AcDbEntity
  8
AM_0
  6
CONTINUOUS
 48
0.5
100
AcDbLine
 10
-29.99999999999998
 20
-22.06201171875
 30
0.0
 11
-29.99999999999998
 21
-23.16198730469
 31
0.0
  0
LINE
  5
6DA0
330
1F
100
AcDbEntity
  8
AM_0
  6
CONTINUOUS
 48
0.5
100
AcDbLine
 10
-17.37402343749998
 20
-30.0
 30
0.0
 11
-17.37402343749998
 21
-16.28332519530999
 31
0.0
  0
LINE
  5
6DA1
330
1F
100
AcDbEntity
  8
AM_0
  6
CONTINUOUS
 48
0.5
100
AcDbLine
 10
-10.54101562499998
 20
-29.94500732422
 30
0.0
 11
-10.54101562499998
 21
-16.17645263672
 31
0.0
  0
LINE
  5
6DA8
330
1F
100
AcDbEntity
  8
AM_0
  6
CONTINUOUS
 48
0.5
100
AcDbLine
 10
-26.96894454955998
 20
-26.50799560547
 30
0.0
 11
-17.37399673461899
 21
-30.0
 31
0.0
  0
LINE
  5
6DA9
330
1F
100
AcDbEntity
  8
AM_0
  6
CONTINUOUS
 48
0.5
100
AcDbLine
 10
-0.9999999999999857
 20
-28.54953956512525
 30
0.0
 11
-0.9999999999999857
 21
-26.5189819336
 31
0.0
  0
LINE
  5
6DBC
330
1F
100
AcDbEntity
  8
AM_0
  6
CONTINUOUS
 48
0.5
100
AcDbLine
 10
-1.499971389769996
 20
-29.04949951172
 30
0.0
 11
-0.9999599456779861
 21
-28.54949951172
 31
0.0
  0
LINE
  5
6DBD
330
1F
100
AcDbEntity
  8
AM_0
  6
CONTINUOUS
 48
0.5
100
AcDbLine
 10
-10.54098320007298
 20
-29.94506835938
 30
0.0
 11
-1.499975204466991
 21
-29.04956054688
 31
0.0
  0
LINE
  5
6DBE
330
1F
100
AcDbEntity
  8
AM_0
  6
CONTINUOUS
 48
0.5
100
AcDbLine
 10
-17.37399291992199
 20
-30.00006103516
 30
0.0
 11
-10.54101562499998
 21
-29.94500732422
 31
0.0
  0
ARC
  5
6DC0
330
1F
100
AcDbEntity
  8
AM_0
  6
CONTINUOUS
 48
0.5
100
AcDbCircle
 10
-26.99996948242199
 20
-23.30401611327999
 30
0.0
 40
3.0
100
AcDbArc
 50
179.9999913485786
 51
248.258907498451
  0
LINE
  5
6DC7
330
1F
100
AcDbEntity
  8
AM_0
  6
CONTINUOUS
 48
0.5
100
AcDbLine
 10
-29.99999999999998
 20
-23.30395507813
 30
0.0
 11
-29.99999999999998
 21
-23.16198730469
 31
0.0
  0
LINE
  5
6DC8
330
1F
100
AcDbEntity
  8
AM_0
  6
CONTINUOUS
 48
0.5
100
AcDbLine
 10
-28.08402252197199
 20
-26.1000366211
 30
0.0
 11
-28.02598571777298
 21
-26.12200927735
 31
0.0
  0
LINE
  5
6DC9
330
1F
100
AcDbEntity
  8
AM_0
  6
CONTINUOUS
 48
0.5
100
AcDbLine
 10
-28.08393478393497
 20
-26.09997558594
 30
0.0
 11
-28.11095428466799
 21
-26.08996582031
 31
0.0
  0
LINE
  5
6DCA
330
1F
100
AcDbEntity
  8
AM_0
  6
CONTINUOUS
 48
0.5
100
AcDbLine
 10
-26.96893692016598
 20
-26.5078125
 30
0.0
 11
-28.02590942382798
 21
-26.12182617188
 31
0.0
  0
LINE
  5
6DE5
330
1F
100
AcDbEntity
  8
AM_0
  6
CONTINUOUS
 48
0.5
100
AcDbLine
 10
-29.99999999999998
 20
-20.41101074219
 30
0.0
 11
-29.99999999999998
 21
-22.06201171875
 31
0.0
  0
ARC
  5
6DE7
330
1F
100
AcDbEntity
  8
AM_0
  6
CONTINUOUS
 48
0.5
100
AcDbCircle
 10
-117.9999694824219
 20
-13.66101074219
 30
0.0
 40
2.0
100
AcDbArc
 50
179.9999913485786
 51
254.9910697934932
  0
LINE
  5
6DF0
330
1F
100
AcDbEntity
  8
AM_0
  6
CONTINUOUS
 48
0.5
100
AcDbLine
 10
-118.5178985595619
 20
-15.59307861328
 30
0.0
 11
-116.9998474121019
 21
-16.00012207030999
 31
0.0
  0
LINE
  5
6DF1
330
1F
100
AcDbEntity
  8
AM_0
  6
CONTINUOUS
100
AcDbLine
 10
-116.9999999999919
 20
-16.00006103516
 30
0.0
 11
-34.99996948242198
 21
-16.00006103516
 31
0.0
  0
LINE
  5
6DF2
330
1F
100
AcDbEntity
  8
AM_0
  6
CONTINUOUS
 48
0.5
100
AcDbLine
 10
-34.99996948242198
 20
-15.50006103516
 30
0.0
 11
-29.99996948242198
 21
-15.50006103516
 31
0.0
  0
LINE
  5
6E03
330
1F
100
AcDbEntity
  8
AM_0
  6
CONTINUOUS
 48
0.5
100
AcDbLine
 10
-3.999959945677986
 20
5.804016113279999
 30
0.0
 11
-3.999959945677986
 21
-5.804016113279999
 31
0.0
  0
LINE
  5
6E31
330
1F
100
AcDbEntity
  8
AM_7
  6
AM_ISO08W050
100
AcDbLine
 10
-126.2251434326119
 20
0.0
 30
0.0
 11
5.964756011963004
 21
0.0
 31
0.0
  0
LINE
  5
6E34
330
1F
100
AcDbEntity
  8
AM_0
  6
CONTINUOUS
 48
0.5
100
AcDbLine
 10
-29.99999999999998
 20
7.47900390625
 30
0.0
 11
-29.99999999999998
 21
2.552978515619997
 31
0.0
  0
ARC
  5
6E5A
330
1F
100
AcDbEntity
  8
AM_0
  6
CONTINUOUS
 48
0.5
100
AcDbCircle
 10
-26.99995803832999
 20
23.30401611327999
 30
0.0
 40
2.9996562004089
100
AcDbArc
 50
119.7614658127325
 51
180.0000050089569
  0
ARC
  5
6E5B
330
1F
100
AcDbEntity
  8
AM_0
  6
CONTINUOUS
 48
0.5
100
AcDbCircle
 10
-26.99996948242199
 20
23.30401611327999
 30
0.0
 40
2.9993526935577
100
AcDbArc
 50
111.7411025194654
 51
179.9999913485786
  0
LINE
  5
6E61
330
1F
100
AcDbEntity
  8
AM_0
  6
CONTINUOUS
 48
0.5
100
AcDbLine
 10
-14.27133560180598
 20
25.4077758789
 30
0.0
 11
-14.27133560180598
 21
20.40777587889999
 31
0.0
  0
LINE
  5
6E62
330
1F
100
AcDbEntity
  8
AM_0
  6
CONTINUOUS
 48
0.5
100
AcDbLine
 10
-19.27133560180598
 20
25.4077758789
 30
0.0
 11
-19.27133560180598
 21
20.40777587889999
 31
0.0
  0
LINE
  5
6E63
330
1F
100
AcDbEntity
  8
AM_0
  6
CONTINUOUS
 48
0.5
100
AcDbLine
 10
-19.77133560180598
 20
24.90783691405999
 30
0.0
 11
-19.77133560180598
 21
20.90777587889999
 31
0.0
  0
LINE
  5
6E64
330
1F
100
AcDbEntity
  8
AM_0
  6
CONTINUOUS
 48
0.5
100
AcDbLine
 10
-13.77133560180598
 20
24.90777587889999
 30
0.0
 11
-13.77133560180598
 21
20.90777587889999
 31
0.0
  0
LINE
  5
6E65
330
1F
100
AcDbEntity
  8
AM_0
  6
CONTINUOUS
 48
0.5
100
AcDbLine
 10
-13.77133560180598
 20
25.14178466797
 30
0.0
 11
-13.77133560180598
 21
19.67272949219
 31
0.0
  0
LINE
  5
6E66
330
1F
100
AcDbEntity
  8
AM_0
  6
CONTINUOUS
 48
0.5
100
AcDbLine
 10
-11.21405982971198
 20
25.21069335936999
 30
0.0
 11
-11.36857032775799
 21
20.73876953125
 31
0.0
  0
LINE
  5
6E67
330
1F
100
AcDbEntity
  8
AM_0
  6
CONTINUOUS
 48
0.5
100
AcDbLine
 10
-10.98243522643999
 20
21.57653808594
 30
0.0
 11
-11.21403503417899
 21
25.21075439452999
 31
0.0
  0
LINE
  5
6E68
330
1F
100
AcDbEntity
  8
AM_0
  6
CONTINUOUS
 48
0.5
100
AcDbLine
 10
-12.23241615295398
 20
25.25
 30
0.0
 11
-12.36052894592299
 21
20.05084228514999
 31
0.0
  0
LINE
  5
6E69
330
1F
100
AcDbEntity
  8
AM_0
  6
CONTINUOUS
 48
0.5
100
AcDbLine
 10
-1.061954498290987
 20
25.22155761719
 30
0.0
 11
-1.21646499633799
 21
20.74963378905999
 31
0.0
  0
LINE
  5
6E6A
330
1F
100
AcDbEntity
  8
AM_0
  6
CONTINUOUS
 48
0.5
100
AcDbLine
 10
-1.421112060546988
 20
21.58673095703
 30
0.0
 11
-1.061893463133984
 21
25.22161865234
 31
0.0
  0
LINE
  5
6E6B
330
1F
100
AcDbEntity
  8
AM_0
  6
CONTINUOUS
 48
0.5
100
AcDbLine
 10
-0.1756496429439949
 20
25.26293945312
 30
0.0
 11
-0.3316555023189949
 21
20.06372070312
 31
0.0
  0
LINE
  5
6E6D
330
1F
100
AcDbEntity
  8
AM_0
  6
CONTINUOUS
 48
0.5
100
AcDbLine
 10
-0.9999618530269884
 20
17.54162597656
 30
0.0
 11
-12.39894294738698
 21
17.77801513672
 31
0.0
  0
LINE
  5
6E6E
330
1F
100
AcDbEntity
  8
AM_0
  6
CONTINUOUS
 48
0.5
100
AcDbLine
 10
-29.99995803832999
 20
15.5
 30
0.0
 11
-29.99995803832999
 21
23.30401611327999
 31
0.0
  0
ARC
  5
6E70
330
1F
100
AcDbEntity
  8
AM_0
  6
CONTINUOUS
 48
0.5
100
AcDbCircle
 10
-117.9999542236319
 20
13.66101074219
 30
0.0
 40
2.000236988067599
100
AcDbArc
 50
105.0089129036648
 51
180.0000050089569
  0
ARC
  5
6E71
330
1F
100
AcDbEntity
  8
AM_0
  6
CONTINUOUS
 48
0.5
100
AcDbCircle
 10
-117.9999694824219
 20
13.66101074219
 30
0.0
 40
2.000236988067599
100
AcDbArc
 50
105.0089129036648
 51
179.9999913485786
  0
LINE
  5
6E7E
330
1F
100
AcDbEntity
  8
AM_0
  6
CONTINUOUS
 48
0.5
100
AcDbLine
 10
-34.99995803832999
 20
16.0
 30
0.0
 11
-34.99995803832999
 21
15.5
 31
0.0
  0
LINE
  5
6E7F
330
1F
100
AcDbEntity
  8
AM_0
  6
CONTINUOUS
 48
0.5
100
AcDbLine
 10
-0.9999599456779861
 20
17.0
 30
0.0
 11
-0.9999599456779861
 21
16.72302246094
 31
0.0
  0
LINE
  5
6E80
330
1F
100
AcDbEntity
  8
AM_0
  6
CONTINUOUS
 48
0.5
100
AcDbLine
 10
-117.0000457763619
 20
15.99993896483999
 30
0.0
 11
-118.5180816650319
 21
15.59295654297
 31
0.0
  0
LINE
  5
6E81
330
1F
100
AcDbEntity
  8
AM_0
  6
CONTINUOUS
100
AcDbLine
 10
-34.99996948242198
 20
15.99993896483999
 30
0.0
 11
-116.9999999999919
 21
15.99993896483999
 31
0.0
  0
LINE
  5
6E82
330
1F
100
AcDbEntity
  8
AM_0
  6
CONTINUOUS
 48
0.5
100
AcDbLine
 10
-29.99996948242198
 20
15.49993896483999
 30
0.0
 11
-34.99996948242198
 21
15.49993896483999
 31
0.0
  0
LINE
  5
6E9A
330
1F
100
AcDbEntity
  8
AM_0
  6
CONTINUOUS
 48
0.5
100
AcDbLine
 10
-29.99999999999998
 20
22.07104492186999
 30
0.0
 11
-29.99999999999998
 21
20.41101074219
 31
0.0
  0
LINE
  5
6E9B
330
1F
100
AcDbEntity
  8
AM_0
  6
CONTINUOUS
 48
0.5
100
AcDbLine
 10
-19.77131271362299
 20
20.90777587889999
 30
0.0
 11
-13.77133560180598
 21
20.90777587889999
 31
0.0
  0
LINE
  5
6E9C
330
1F
100
AcDbEntity
  8
AM_0
  6
CONTINUOUS
 48
0.5
100
AcDbLine
 10
-19.27127838134699
 20
20.40777587889999
 30
0.0
 11
-19.77130889892498
 21
20.90777587889999
 31
0.0
  0
LINE
  5
6E9D
330
1F
100
AcDbEntity
  8
AM_0
  6
CONTINUOUS
 48
0.5
100
AcDbLine
 10
-14.27129364013597
 20
20.40777587889999
 30
0.0
 11
-13.77128219604499
 21
20.90777587889999
 31
0.0
  0
LINE
  5
6E9E
330
1F
100
AcDbEntity
  8
AM_0
  6
CONTINUOUS
 48
0.5
100
AcDbLine
 10
-19.27133560180598
 20
20.40777587889999
 30
0.0
 11
-14.27133560180598
 21
20.40777587889999
 31
0.0
  0
LINE
  5
6E9F
330
1F
100
AcDbEntity
  8
AM_0
  6
AM_ISO08W050
 48
0.5
100
AcDbLine
 10
-29.50304031371999
 20
22.90777587889999
 30
0.0
 11
-10.58269119262698
 21
22.90777587889999
 31
0.0
  0
LINE
  5
6EA0
330
1F
100
AcDbEntity
  8
AM_0
  6
CONTINUOUS
 48
0.5
100
AcDbLine
 10
-12.49581527709898
 20
19.67413330078
 30
0.0
 11
-13.77134323120098
 21
19.67272949219
 31
0.0
  0
LINE
  5
6EA1
330
1F
100
AcDbEntity
  8
AM_0
  6
CONTINUOUS
 48
0.5
100
AcDbLine
 10
-11.36859321594198
 20
20.73883056639999
 30
0.0
 11
-10.98247718810998
 21
21.57659912109
 31
0.0
  0
LINE
  5
6EA2
330
1F
100
AcDbEntity
  8
AM_0
  6
CONTINUOUS
 48
0.5
100
AcDbLine
 10
-6.227951049803991
 20
20.08996582031
 30
0.0
 11
-9.821861267089985
 21
20.38446044922
 31
0.0
  0
LINE
  5
6EA3
330
1F
100
AcDbEntity
  8
AM_0
  6
CONTINUOUS
 48
0.5
100
AcDbLine
 10
-9.821868896483991
 20
20.38464355469
 30
0.0
 11
-10.77685356140098
 21
20.13122558594
 31
0.0
  0
LINE
  5
6EA4
330
1F
100
AcDbEntity
  8
AM_0
  6
CONTINUOUS
 48
0.5
100
AcDbLine
 10
-12.36076164245598
 20
20.05102539061999
 30
0.0
 11
-11.36874198913498
 21
20.73901367186999
 31
0.0
  0
LINE
  5
6EA5
330
1F
100
AcDbEntity
  8
AM_0
  6
CONTINUOUS
 48
0.5
100
AcDbLine
 10
-12.36063003539999
 20
19.8193359375
 30
0.0
 11
-12.36053848266598
 21
20.05084228514999
 31
0.0
  0
LINE
  5
6EA6
330
1F
100
AcDbEntity
  8
AM_0
  6
CONTINUOUS
 48
0.5
100
AcDbLine
 10
-12.50822830200198
 20
20.04797363280999
 30
0.0
 11
-12.36054801940898
 21
20.05065917969
 31
0.0
  0
LINE
  5
6EA7
330
1F
100
AcDbEntity
  8
AM_0
  6
CONTINUOUS
 48
0.5
100
AcDbLine
 10
-12.50822830200198
 20
20.04803466797
 30
0.0
 11
-12.50831985473598
 21
19.81646728514999
 31
0.0
  0
LINE
  5
6EA8
330
1F
100
AcDbEntity
  8
AM_0
  6
CONTINUOUS
 48
0.5
100
AcDbLine
 10
-11.54493713378899
 20
19.05865478514999
 30
0.0
 11
-11.77415275573699
 21
19.06243896483999
 31
0.0
  0
LINE
  5
6EA9
330
1F
100
AcDbEntity
  8
AM_0
  6
CONTINUOUS
 48
0.5
100
AcDbLine
 10
-11.76892852783198
 20
19.21166992186999
 30
0.0
 11
-11.53974151611299
 21
19.2080078125
 31
0.0
  0
LINE
  5
6EAA
330
1F
100
AcDbEntity
  8
AM_0
  6
CONTINUOUS
 48
0.5
100
AcDbLine
 10
-6.227922439574996
 20
20.09020996094
 30
0.0
 11
-10.77681159973099
 21
20.13134765625
 31
0.0
  0
LINE
  5
6EAB
330
1F
100
AcDbEntity
  8
AM_0
  6
CONTINUOUS
 48
0.5
100
AcDbLine
 10
-11.53962898254398
 20
19.20782470703
 30
0.0
 11
-10.77671623229898
 21
20.13098144530999
 31
0.0
  0
LINE
  5
6EAC
330
1F
100
AcDbEntity
  8
AM_0
  6
CONTINUOUS
 48
0.5
100
AcDbLine
 10
-6.310838699339996
 20
19.16870117186999
 30
0.0
 11
-11.53973197936998
 21
19.2080078125
 31
0.0
  0
LINE
  5
6EAD
330
1F
100
AcDbEntity
  8
AM_0
  6
CONTINUOUS
 48
0.5
100
AcDbLine
 10
-11.54495048522898
 20
19.05859375
 30
0.0
 11
-11.53976249694798
 21
19.20782470703
 31
0.0
  0
LINE
  5
6EAE
330
1F
100
AcDbEntity
  8
AM_0
  6
CONTINUOUS
 48
0.5
100
AcDbLine
 10
-2.62365531921398
 20
20.39233398436999
 30
0.0
 11
-6.227949142455983
 21
20.09014892578
 31
0.0
  0
LINE
  5
6EAF
330
1F
100
AcDbEntity
  8
AM_0
  6
CONTINUOUS
 48
0.5
100
AcDbLine
 10
-6.310876846312993
 20
19.16864013672
 30
0.0
 11
-6.22799110412599
 21
20.09002685547
 31
0.0
  0
LINE
  5
6EB0
330
1F
100
AcDbEntity
  8
AM_0
  6
CONTINUOUS
 48
0.5
100
AcDbLine
 10
-6.227966308592982
 20
20.09033203125
 30
0.0
 11
-1.829547882079992
 21
20.14117431639999
 31
0.0
  0
LINE
  5
6EB1
330
1F
100
AcDbEntity
  8
AM_0
  6
CONTINUOUS
 48
0.5
100
AcDbLine
 10
-6.31082344055099
 20
19.16851806639999
 30
0.0
 11
-1.182132720946981
 21
19.21887207031
 31
0.0
  0
LINE
  5
6EB2
330
1F
100
AcDbEntity
  8
AM_0
  6
CONTINUOUS
 48
0.5
100
AcDbLine
 10
-6.313472747801995
 20
19.01940917969
 30
0.0
 11
-6.310848236083984
 21
19.16857910155999
 31
0.0
  0
LINE
  5
6EB3
330
1F
100
AcDbEntity
  8
AM_0
  6
CONTINUOUS
 48
0.5
100
AcDbLine
 10
-1.421155929564989
 20
21.58673095703
 30
0.0
 11
-1.216440200804981
 21
20.74969482421999
 31
0.0
  0
LINE
  5
6EB4
330
1F
100
AcDbEntity
  8
AM_0
  6
CONTINUOUS
 48
0.5
100
AcDbLine
 10
-1.829566955565979
 20
20.14074707030999
 30
0.0
 11
-2.623638153075987
 21
20.39215087889999
 31
0.0
  0
LINE
  5
6EB5
330
1F
100
AcDbEntity
  8
AM_0
  6
CONTINUOUS
 48
0.5
100
AcDbLine
 10
-1.182155609130987
 20
19.21893310547
 30
0.0
 11
-1.829570770262989
 21
20.14080810547
 31
0.0
  0
LINE
  5
6EB6
330
1F
100
AcDbEntity
  8
AM_0
  6
CONTINUOUS
 48
0.5
100
AcDbLine
 10
-0.3316593170159905
 20
20.06365966796999
 30
0.0
 11
-1.216459274291992
 21
20.74963378905999
 31
0.0
  0
LINE
  5
6EB7
330
1F
100
AcDbEntity
  8
AM_0
  6
CONTINUOUS
 48
0.5
100
AcDbLine
 10
-0.9527301788329936
 20
19.22296142578
 30
0.0
 11
-1.182123184203987
 21
19.21875
 31
0.0
  0
LINE
  5
6EB8
330
1F
100
AcDbEntity
  8
AM_0
  6
CONTINUOUS
 48
0.5
100
AcDbLine
 10
-1.182132720946981
 20
19.06988525389999
 30
0.0
 11
-1.182132720946981
 21
19.21905517577999
 31
0.0
  0
LINE
  5
6EB9
330
1F
100
AcDbEntity
  8
AM_0
  6
CONTINUOUS
 48
0.5
100
AcDbLine
 10
-1.182128906249985
 20
19.06994628906
 30
0.0
 11
-0.9528293609619851
 21
19.07421875
 31
0.0
  0
LINE
  5
6EBA
330
1F
100
AcDbEntity
  8
AM_0
  6
CONTINUOUS
 48
0.5
100
AcDbLine
 10
-0.1839962005609834
 20
20.06121826171999
 30
0.0
 11
-0.1920223236079863
 21
19.82977294922
 31
0.0
  0
LINE
  5
6EBB
330
1F
100
AcDbEntity
  8
AM_0
  6
CONTINUOUS
 48
0.5
100
AcDbLine
 10
-0.1840400695799928
 20
20.06146240234
 30
0.0
 11
-0.3316268920899859
 21
20.06384277344
 31
0.0
  0
LINE
  5
6EBC
330
1F
100
AcDbEntity
  8
AM_0
  6
CONTINUOUS
 48
0.5
100
AcDbLine
 10
-0.3397293090819886
 20
19.83221435547
 30
0.0
 11
-0.3316440582269848
 21
20.06365966796999
 31
0.0
  0
LINE
  5
6EC0
330
1F
100
AcDbEntity
  8
AM_0
  6
CONTINUOUS
 48
0.5
100
AcDbLine
 10
-17.37408065795898
 20
30.0
 30
0.0
 11
-26.96902847289999
 21
26.50799560547
 31
0.0
  0
LINE
  5
6EC1
330
1F
100
AcDbEntity
  8
AM_0
  6
CONTINUOUS
 48
0.5
100
AcDbLine
 10
-11.21405410766598
 20
25.21063232422
 30
0.0
 11
-11.21005630493098
 21
29.77435302733999
 31
0.0
  0
LINE
  5
6EC2
330
1F
100
AcDbEntity
  8
AM_0
  6
CONTINUOUS
 48
0.5
100
AcDbLine
 10
-10.85481834411598
 20
28.845703125
 30
0.0
 11
-11.21000480651798
 21
29.77447509764999
 31
0.0
  0
LINE
  5
6EC3
330
1F
100
AcDbEntity
  8
AM_0
  6
CONTINUOUS
 48
0.5
100
AcDbLine
 10
-1.061901092528984
 20
25.22161865234
 30
0.0
 11
-1.057811737059992
 21
29.78533935547
 31
0.0
  0
LINE
  5
6EC4
330
1F
100
AcDbEntity
  8
AM_0
  6
CONTINUOUS
 48
0.5
100
AcDbLine
 10
-1.05781364440898
 20
29.78540039062
 30
0.0
 11
-1.293508529662986
 21
28.85595703125
 31
0.0
  0
LINE
  5
6EC5
330
1F
100
AcDbEntity
  8
AM_0
  6
CONTINUOUS
 48
0.5
100
AcDbLine
 10
-0.1756553649899928
 20
25.26293945312
 30
0.0
 11
-0.1481590270989841
 21
30.5234375
 31
0.0
  0
LINE
  5
6ECF
330
1F
100
AcDbEntity
  8
AM_0
  6
CONTINUOUS
 48
0.5
100
AcDbLine
 10
-28.48899078369098
 20
25.90795898436999
 30
0.0
 11
-28.14997100829998
 21
25.64898681639999
 31
0.0
  0
LINE
  5
6ED0
330
1F
100
AcDbEntity
  8
AM_0
  6
CONTINUOUS
 48
0.5
100
AcDbLine
 10
-28.02600097656199
 20
26.12200927733999
 30
0.0
 11
-28.110980987549
 21
26.08996582031
 31
0.0
  0
LINE
  5
6ED1
330
1F
100
AcDbEntity
  8
AM_0
  6
CONTINUOUS
 48
0.5
100
AcDbLine
 10
-26.96903228759699
 20
26.50799560547
 30
0.0
 11
-28.02600097656199
 21
26.12200927733999
 31
0.0
  0
LINE
  5
6ED2
330
1F
100
AcDbEntity
  8
AM_0
  6
CONTINUOUS
 48
0.5
100
AcDbLine
 10
-19.77133560180598
 20
24.90777587889999
 30
0.0
 11
-13.77134323120098
 21
24.90777587889999
 31
0.0
  0
LINE
  5
6ED3
330
1F
100
AcDbEntity
  8
AM_0
  6
CONTINUOUS
 48
0.5
100
AcDbLine
 10
-19.27132034301698
 20
25.40771484375
 30
0.0
 11
-19.77132034301698
 21
24.90777587889999
 31
0.0
  0
LINE
  5
6ED4
330
1F
100
AcDbEntity
  8
AM_0
  6
CONTINUOUS
 48
0.5
100
AcDbLine
 10
-14.27129364013597
 20
25.40771484375
 30
0.0
 11
-13.77130317687999
 21
24.90771484375
 31
0.0
  0
LINE
  5
6ED5
330
1F
100
AcDbEntity
  8
AM_0
  6
CONTINUOUS
 48
0.5
100
AcDbLine
 10
-19.27133560180598
 20
25.4077758789
 30
0.0
 11
-14.27133560180598
 21
25.4077758789
 31
0.0
  0
LINE
  5
6ED6
330
1F
100
AcDbEntity
  8
AM_0
  6
CONTINUOUS
 48
0.5
100
AcDbLine
 10
-12.38355064392098
 20
25.14324951172
 30
0.0
 11
-13.77133560180598
 21
25.14172363281
 31
0.0
  0
LINE
  5
6ED7
330
1F
100
AcDbEntity
  8
AM_0
  6
CONTINUOUS
 48
0.5
100
AcDbLine
 10
-10.85486984252898
 20
28.84564208984
 30
0.0
 11
-11.21406173705999
 21
25.21075439452999
 31
0.0
  0
LINE
  5
6ED8
330
1F
100
AcDbEntity
  8
AM_0
  6
CONTINUOUS
 48
0.5
100
AcDbLine
 10
-12.23242759704598
 20
25.25
 30
0.0
 11
-11.21401977538998
 21
25.21069335936999
 31
0.0
  0
LINE
  5
6ED9
330
1F
100
AcDbEntity
  8
AM_0
  6
CONTINUOUS
 48
0.5
100
AcDbLine
 10
-12.38003158569298
 20
25.24975585936999
 30
0.0
 11
-12.23241806030199
 21
25.24993896484
 31
0.0
  0
LINE
  5
6EDA
330
1F
100
AcDbEntity
  8
AM_0
  6
CONTINUOUS
 48
0.5
100
AcDbLine
 10
-1.293514251708984
 20
28.85595703125
 30
0.0
 11
-1.061916351317989
 21
25.2216796875
 31
0.0
  0
LINE
  5
6EDB
330
1F
100
AcDbEntity
  8
AM_0
  6
CONTINUOUS
 48
0.5
100
AcDbLine
 10
-0.1756401062009871
 20
25.26287841797
 30
0.0
 11
-1.06191253662098
 21
25.22149658203
 31
0.0
  0
LINE
  5
6EDC
330
1F
100
AcDbEntity
  8
AM_0
  6
CONTINUOUS
 48
0.5
100
AcDbLine
 10
-0.0279369354239805
 20
25.26306152344
 30
0.0
 11
-0.1756420135489805
 21
25.26293945312
 31
0.0
  0
LINE
  5
6EEE
330
1F
100
AcDbEntity
  8
AM_0
  6
CONTINUOUS
 48
0.5
100
AcDbLine
 10
-12.33193969726498
 20
29.99993896483999
 30
0.0
 11
-17.37399291992199
 21
29.99993896483999
 31
0.0
  0
LINE
  5
6EEF
330
1F
100
AcDbEntity
  8
AM_0
  6
CONTINUOUS
 48
0.5
100
AcDbLine
 10
-10.59692382812498
 20
30.38348388672
 30
0.0
 11
-9.652345657347993
 21
30.04016113281
 31
0.0
  0
LINE
  5
6EF0
330
1F
100
AcDbEntity
  8
AM_0
  6
CONTINUOUS
 48
0.5
100
AcDbLine
 10
-9.652370452880987
 20
30.04034423828
 30
0.0
 11
-6.048044204711985
 21
30.34259033202999
 31
0.0
  0
LINE
  5
6EF1
330
1F
100
AcDbEntity
  8
AM_0
  6
CONTINUOUS
 48
0.5
100
AcDbLine
 10
-12.17692565917899
 20
30.51062011719
 30
0.0
 11
-11.20999908447198
 21
29.77435302733999
 31
0.0
  0
LINE
  5
6EF2
330
1F
100
AcDbEntity
  8
AM_0
  6
CONTINUOUS
 48
0.5
100
AcDbLine
 10
-12.32468032836898
 20
30.51306152344
 30
0.0
 11
-12.31656265258799
 21
30.74462890625
 31
0.0
  0
LINE
  5
6EF3
330
1F
100
AcDbEntity
  8
AM_0
  6
CONTINUOUS
 48
0.5
100
AcDbLine
 10
-12.32466125488199
 20
30.51318359375
 30
0.0
 11
-12.17694473266598
 21
30.51080322264999
 31
0.0
  0
LINE
  5
6EF4
330
1F
100
AcDbEntity
  8
AM_0
  6
CONTINUOUS
 48
0.5
100
AcDbLine
 10
-12.16894149780199
 20
30.74212646483999
 30
0.0
 11
-12.17693710327098
 21
30.51068115234
 31
0.0
  0
LINE
  5
6EF5
330
1F
100
AcDbEntity
  8
AM_0
  6
CONTINUOUS
 48
0.5
100
AcDbLine
 10
-6.048023223876981
 20
30.34240722655999
 30
0.0
 11
-10.59691238403299
 21
30.38354492187
 31
0.0
  0
LINE
  5
6EF6
330
1F
100
AcDbEntity
  8
AM_0
  6
CONTINUOUS
 48
0.5
100
AcDbLine
 10
-11.21002006530699
 20
29.7744140625
 30
0.0
 11
-11.00621414184499
 21
30.18444824219
 31
0.0
  0
LINE
  5
6EF7
330
1F
100
AcDbEntity
  8
AM_0
  6
CONTINUOUS
 48
0.5
100
AcDbLine
 10
-6.048049926756988
 20
30.34240722655999
 30
0.0
 11
-1.64953804016099
 21
30.39306640625
 31
0.0
  0
LINE
  5
6EF8
330
1F
100
AcDbEntity
  8
AM_0
  6
CONTINUOUS
 48
0.5
100
AcDbLine
 10
-2.454139709471988
 20
30.04779052733999
 30
0.0
 11
-6.048057556151988
 21
30.34216308594
 31
0.0
  0
LINE
  5
6EF9
330
1F
100
AcDbEntity
  8
AM_0
  6
CONTINUOUS
 48
0.5
100
AcDbLine
 10
-2.454109191893991
 20
30.04791259764999
 30
0.0
 11
-1.649505615233991
 21
30.39306640625
 31
0.0
  0
LINE
  5
6EFA
330
1F
100
AcDbEntity
  8
AM_0
  6
CONTINUOUS
 48
0.5
100
AcDbLine
 10
-1.649557113646991
 20
30.39306640625
 30
0.0
 11
-1.394058227538991
 21
30.3134765625
 31
0.0
  0
LINE
  5
6EFB
330
1F
100
AcDbEntity
  8
AM_0
  6
CONTINUOUS
 48
0.5
100
AcDbLine
 10
-0.1480789184569886
 20
30.52337646484
 30
0.0
 11
-1.057764053343987
 21
29.78521728515
 31
0.0
  0
LINE
  5
6EFC
330
1F
100
AcDbEntity
  8
AM_0
  6
CONTINUOUS
 48
0.5
100
AcDbLine
 10
-0.1480522155759871
 20
30.75494384764999
 30
0.0
 11
-0.1481437683099926
 21
30.5234375
 31
0.0
  0
LINE
  5
6EFD
330
1F
100
AcDbEntity
  8
AM_0
  6
CONTINUOUS
 48
0.5
100
AcDbLine
 10
-0.0003376007079936
 20
30.52642822264999
 30
0.0
 11
-0.1481380462639947
 21
30.52362060547
 31
0.0
  0
LINE
  5
6EFE
330
1F
100
AcDbEntity
  8
AM_0
  6
CONTINUOUS
 48
0.5
100
AcDbLine
 10
-0.0003452301019848
 20
30.52624511719
 30
0.0
 11
-0.0000000000000069
 21
30.75775146484
 31
0.0
  0
SPLINE
  5
6EFF
330
1F
100
AcDbEntity
  8
AM_0
  6
CONTINUOUS
 48
0.5
100
AcDbSpline
210
0.0
220
0.0
230
1.0
 70
     8
 71
     3
 72
    11
 73
     7
 74
     5
 42
0.0000000001
 43
0.0000000001
 44
0.0000000001
 40
0.0
 40
0.0
 40
0.0
 40
0.0
 40
1.305387024534934
 40
2.610206690604235
 40
3.930405436944034
 40
5.231912305552333
 40
5.231912305552333
 40
5.231912305552333
 40
5.231912305552333
 10
-6.094547271727989
 20
31.49353027344
 30
0.0
 10
-6.529669504425827
 20
31.49626441371565
 30
0.0
 10
-7.399724853277778
 20
31.50173150593156
 30
0.0
 10
-8.709865449405416
 20
31.49953204923959
 30
0.0
 10
-10.01870576359815
 20
31.50011561923272
 30
0.0
 10
-10.89260782671344
 20
31.50003835612427
 30
0.0
 10
-11.32644354463329
 20
31.5
 30
0.0
 11
-6.094547271727989
 21
31.49353027344
 31
0.0
 11
-7.399918263615893
 21
31.5
 31
0.0
 11
-8.704737929685194
 21
31.5
 31
0.0
 11
-10.02493667602499
 21
31.5
 31
0.0
 11
-11.32644354463329
 21
31.5
 31
0.0
  0
SPLINE
  5
6F00
330
1F
100
AcDbEntity
  8
AM_0
  6
CONTINUOUS
 48
0.5
100
AcDbSpline
210
0.0
220
0.0
230
1.0
 70
     8
 71
     3
 72
    11
 73
     7
 74
     5
 42
0.0000000001
 43
0.0000000001
 44
0.0000000001
 40
0.0
 40
0.0
 40
0.0
 40
0.0
 40
0.2319972302346557
 40
0.4656583688928892
 40
0.6986504207719613
 40
0.9284821086984203
 40
0.9284821086984203
 40
0.9284821086984203
 40
0.9284821086984203
 10
-12.16894912719698
 20
30.74212646483999
 30
0.0
 10
-12.15340823824653
 20
30.81909076143786
 30
0.0
 10
-12.12221499946307
 20
30.97357135062635
 30
0.0
 10
-11.97095804389753
 20
31.15777330942343
 30
0.0
 10
-11.78629184216722
 20
31.30766887915852
 30
0.0
 10
-11.63231412665637
 20
31.33671257001577
 30
0.0
 10
-11.55585098266598
 20
31.35113525389999
 30
0.0
 11
-12.16894912719698
 21
30.74212646483999
 31
0.0
 11
-12.10504531860299
 21
30.96514892577999
 31
0.0
 11
-11.96512222289999
 21
31.15228271483999
 31
0.0
 11
-11.77753067016598
 21
31.29046630858999
 31
0.0
 11
-11.55585098266598
 21
31.35113525389999
 31
0.0
  0
ELLIPSE
  5
6F01
330
1F
100
AcDbEntity
  8
AM_0
  6
CONTINUOUS
 48
0.5
100
AcDbEllipse
 10
-11.50323867797798
 20
30.67785644530999
 30
0.0
 11
-0.5232830756424305
 21
0.6535819530341862
 31
0.0
210
0.0
220
0.0
230
1.0
 40
0.9535481349956524
 41
-0.6337689427049281
 42
0.8385438698155009
  0
SPLINE
  5
6F02
330
1F
100
AcDbEntity
  8
AM_0
  6
CONTINUOUS
 48
0.5
100
AcDbSpline
210
0.0
220
0.0
230
1.0
 70
     8
 71
     3
 72
    11
 73
     7
 74
     5
 42
0.0000000001
 43
0.0000000001
 44
0.0000000001
 40
0.0
 40
0.0
 40
0.0
 40
0.0
 40
1.293164391136093
 40
2.578961881126486
 40
3.857429717219094
 40
5.128578205437256
 40
5.128578205437256
 40
5.128578205437256
 40
5.128578205437256
 10
-0.9689369201659872
 20
31.36657714844
 30
0.0
 10
-1.399960442716808
 20
31.37208848209342
 30
0.0
 10
-2.259552032267812
 20
31.38307975242513
 30
0.0
 10
-3.545389128830791
 20
31.3832194491179
 30
0.0
 10
-4.823842588753652
 20
31.37222183077555
 30
0.0
 10
-5.673521449449551
 20
31.35371117826419
 30
0.0
 10
-6.097141265868984
 20
31.34448242187
 30
0.0
 11
-0.9689369201659872
 21
31.36657714844
 31
0.0
 11
-2.262027740477989
 21
31.38037109375
 31
0.0
 11
-3.547824859618984
 21
31.38134765625
 31
0.0
 11
-4.826236724852989
 21
31.36938476561999
 31
0.0
 11
-6.097141265868984
 21
31.34448242187
 31
0.0
  0
SPLINE
  5
6F03
330
1F
100
AcDbEntity
  8
AM_0
  6
CONTINUOUS
 48
0.5
100
AcDbSpline
210
0.0
220
0.0
230
1.0
 70
     8
 71
     3
 72
    11
 73
     7
 74
     5
 42
0.0000000001
 43
0.0000000001
 44
0.0000000001
 40
0.0
 40
0.0
 40
0.0
 40
0.0
 40
1.271622903663184
 40
2.568198696164503
 40
3.837022073585187
 40
5.130272837811831
 40
5.130272837811831
 40
5.130272837811831
 40
5.130272837811831
 10
-6.094547271727989
 20
31.49353027344
 30
0.0
 10
-5.670679913846915
 20
31.49625967875142
 30
0.0
 10
-4.814627704720301
 20
31.50177204813537
 30
0.0
 10
-3.535614656658973
 20
31.49953524840451
 30
0.0
 10
-2.249399493719474
 20
31.50011773021466
 30
0.0
 10
-1.395374580806802
 20
31.50003949205159
 30
0.0
 10
-0.9642908922673408
 20
31.5
 30
0.0
 11
-6.094547271727989
 21
31.49353027344
 31
0.0
 11
-4.822940826415987
 21
31.5
 31
0.0
 11
-3.526365033914668
 21
31.5
 31
0.0
 11
-2.257541656493984
 21
31.5
 31
0.0
 11
-0.9642908922673408
 21
31.5
 31
0.0
  0
SPLINE
  5
6F04
330
1F
100
AcDbEntity
  8
AM_0
  6
CONTINUOUS
 48
0.5
100
AcDbSpline
210
0.0
220
0.0
230
1.0
 70
     8
 71
     3
 72
    11
 73
     7
 74
     5
 42
0.0000000001
 43
0.0000000001
 44
0.0000000001
 40
0.0
 40
0.0
 40
0.0
 40
0.0
 40
0.2278512278671434
 40
0.4566116530224261
 40
0.6861695737655089
 40
0.9158784169921554
 40
0.9158784169921554
 40
0.9158784169921554
 40
0.9158784169921554
 10
-0.7397499084469814
 20
31.36273193359
 30
0.0
 10
-0.6638642152347477
 20
31.34854196930721
 30
0.0
 10
-0.5117900212848482
 20
31.32010541836939
 30
0.0
 10
-0.3311222187439261
 20
31.17035530407911
 30
0.0
 10
-0.1861976841588924
 20
30.985277773907
 30
0.0
 10
-0.1607650713628659
 20
30.8318200128494
 30
0.0
 10
-0.1480445861809869
 20
30.75506591797
 30
0.0
 11
-0.7397499084469814
 21
31.36273193359
 31
0.0
 11
-0.5200233459469814
 21
31.30242919922
 31
0.0
 11
-0.3373451232909872
 21
31.16473388672
 31
0.0
 11
-0.2040443420409872
 21
30.97784423828
 31
0.0
 11
-0.1480445861809869
 21
30.75506591797
 31
0.0
  0
ELLIPSE
  5
6F05
330
1F
100
AcDbEntity
  8
AM_0
  6
CONTINUOUS
 48
0.5
100
AcDbEllipse
 10
-0.8159217834469814
 20
30.68933105469
 30
0.0
 11
0.6226172337553755
 21
0.5827090095737986
 31
0.0
210
0.0
220
0.0
230
0.9999999999999998
 40
0.9051963477240864
 41
-0.7175743243493877
 42
0.7680542173861791
  0
LINE
  5
6F06
330
1F
100
AcDbEntity
  8
AM_0
  6
CONTINUOUS
 48
0.5
100
AcDbLine
 10
-11.32644653320298
 20
31.5
 30
0.0
 11
-11.32653236389099
 21
31.35522460937
 31
0.0
  0
LINE
  5
6F07
330
1F
100
AcDbEntity
  8
AM_0
  6
CONTINUOUS
 48
0.5
100
AcDbLine
 10
-11.32644653320298
 20
31.5
 30
0.0
 11
-11.55583763122498
 21
31.5
 31
0.0
  0
LINE
  5
6F08
330
1F
100
AcDbEntity
  8
AM_0
  6
CONTINUOUS
 48
0.5
100
AcDbLine
 10
-6.097145080565979
 20
31.34466552734
 30
0.0
 11
-11.32653999328599
 21
31.35559082030999
 31
0.0
  0
LINE
  5
6F09
330
1F
100
AcDbEntity
  8
AM_0
  6
CONTINUOUS
 48
0.5
100
AcDbLine
 10
-11.32643699645998
 20
31.35534667969
 30
0.0
 11
-10.59683036804199
 21
30.38342285156
 31
0.0
  0
LINE
  5
6F0A
330
1F
100
AcDbEntity
  8
AM_0
  6
CONTINUOUS
 48
0.5
100
AcDbLine
 10
-11.55586051940898
 20
31.35107421875
 30
0.0
 11
-11.32653045654299
 21
31.35528564453
 31
0.0
  0
LINE
  5
6F0B
330
1F
100
AcDbEntity
  8
AM_0
  6
CONTINUOUS
 48
0.5
100
AcDbLine
 10
-6.097122192381988
 20
31.34436035155999
 30
0.0
 11
-6.048021316527993
 21
30.34228515625
 31
0.0
  0
LINE
  5
6F0C
330
1F
100
AcDbEntity
  8
AM_0
  6
CONTINUOUS
 48
0.5
100
AcDbLine
 10
-6.094572067259989
 20
31.49359130859
 30
0.0
 11
-6.097166061400983
 21
31.34454345703
 31
0.0
  0
LINE
  5
6F0D
330
1F
100
AcDbEntity
  8
AM_0
  6
CONTINUOUS
 48
0.5
100
AcDbLine
 10
-0.9690246582029828
 20
31.36657714844
 30
0.0
 11
-1.649612426756988
 21
30.39306640625
 31
0.0
  0
LINE
  5
6F0E
330
1F
100
AcDbEntity
  8
AM_0
  6
CONTINUOUS
 48
0.5
100
AcDbLine
 10
-0.9642908922673408
 20
31.5
 30
0.0
 11
-0.7345459281719739
 21
31.5
 31
0.0
  0
LINE
  5
6F0F
330
1F
100
AcDbEntity
  8
AM_0
  6
CONTINUOUS
 48
0.5
100
AcDbLine
 10
-0.9642908922673408
 20
31.5
 30
0.0
 11
-0.9689350128169849
 21
31.36657714844
 31
0.0
  0
LINE
  5
6F10
330
1F
100
AcDbEntity
  8
AM_0
  6
CONTINUOUS
 48
0.5
100
AcDbLine
 10
-0.7397193908689843
 20
31.36297607422
 30
0.0
 11
-0.9689044952389878
 21
31.36676025389999
 31
0.0
  0
DIMENSION
  5
6F1D
330
1F
100
AcDbEntity
  8
AM_5
100
AcDbDimension
  2
*D5
 10
19.96475701196296
 20
-31.5
 30
0.0
 11
16.56475701196297
 21
-0.0000000000000008
 31
0.0
 70
    32
  1
%%c<>
  3
AM_JIS$0
100
AcDbAlignedDimension
 13
-0.0000000000000071
 23
31.5
 33
0.0
 14
0.0000000000000142
 24
-31.5
 34
0.0
 50
90.00000000000003
100
AcDbRotatedDimension
1001
GENIUS_GENDTOL_13
1000

1000
h7
1000

1040
0.0
1001
ACAD
1000
DSTYLE
1002
{
1070
    42
1040
1.0
1070
   271
1070
     0
1002
}
  0
DIMENSION
  5
7094
330
1F
100
AcDbEntity
  8
AM_5
100
AcDbDimension
  2
*D6
 10
0.0000000000000127
 20
-55.500001
 30
0.0
 11
-59.99999999999598
 21
-52.10000100000001
 31
0.0
 70
    32
  1
<>
  3
AM_JIS$0
100
AcDbAlignedDimension
 13
-119.9999999999919
 23
-13.66101074219
 33
0.0
 14
0.0000000000000142
 24
-31.5
 34
0.0
 50
0.0000000000001132
100
AcDbRotatedDimension
1001
GENIUS_GENDTOL_13
1000

1000
h7
1000

1040
0.0
1001
ACAD
1000
DSTYLE
1002
{
1070
    42
1040
1.0
1070
   271
1070
     0
1002
}
  0
DIMENSION
  5
711C
330
1F
100
AcDbEntity
  8
AM_5
100
AcDbDimension
  2
*D7
 10
-29.99999999999999
 20
-45.50000100000006
 30
0.0
 11
-74.99999999999599
 21
-42.10000100000006
 31
0.0
 70
    32
  1
<>
  3
AM_JIS$0
100
AcDbAlignedDimension
 13
-119.9999999999919
 23
-13.66101074219
 33
0.0
 14
-29.99999999999999
 24
-23.16198730469
 34
0.0
 50
0.0000000000001132
100
AcDbRotatedDimension
1001
GENIUS_GENDTOL_13
1000

1000
h7
1000

1040
0.0
1001
ACAD
1000
DSTYLE
1002
{
1070
    42
1040
1.0
1070
   271
1070
     0
1002
}
  0
DIMENSION
  5
71B9
330
1F
100
AcDbEntity
  8
AM_5
100
AcDbDimension
  2
*D8
 10
0.0000000000000134
 20
-45.500001
 30
0.0
 11
-14.99999999999998
 21
-42.10000100000001
 31
0.0
 70
    32
  1
<>
  3
AM_JIS$0
100
AcDbAlignedDimension
 13
-29.99999999999998
 23
-23.16198730469
 33
0.0
 14
0.0000000000000142
 24
-31.5
 34
0.0
 50
0.0000000000001132
100
AcDbRotatedDimension
1001
GENIUS_GENDTOL_13
1000

1000
h7
1000

1040
0.0
1001
ACAD
1000
DSTYLE
1002
{
1070
    42
1040
1.0
1070
   271
1070
     0
1002
}
  0
LINE
  5
7294
330
1F
100
AcDbEntity
  8
AM_11
100
AcDbLine
 10
0.0000000000000142
 20
-31.5
 30
0.0
 11
-13.05764471418736
 21
-31.5
 31
0.0
  0
LINE
  5
729C
330
1F
100
AcDbEntity
  8
AM_11
100
AcDbLine
 10
0.0000000000000142
 20
31.5
 30
0.0
 11
-13.05764471418736
 21
31.5
 31
0.0
  0
LINE
  5
729E
330
1F
100
AcDbEntity
  8
AM_11
100
AcDbLine
 10
0.0000000000000142
 20
-31.5
 30
0.0
 11
-0.0000000000000071
 21
31.5
 31
0.0
  0
DIMENSION
  5
73A3
330
1F
100
AcDbEntity
  8
AM_5
100
AcDbDimension
  2
*D9
 10
-140.2251444326119
 20
-15.99999999999999
 30
0.0
 11
-143.6251444326119
 21
-0.0000000000000159
 31
0.0
 70
    32
  1
%%c<>
  3
AM_JIS$0
100
AcDbAlignedDimension
 13
-116.9999999999919
 23
16.0
 33
0.0
 14
-116.9999999999919
 24
-16.0
 34
0.0
 50
270.0
100
AcDbRotatedDimension
1001
ACAD
1000
DSTYLE
1002
{
1070
   271
1070
     0
1002
}
1001
GENIUS_GENDTOL_13
1000

1000
h7
1000

1040
0.0
  0
VIEWPORT
  5
110
330
101
100
AcDbEntity
 67
     1
  8
0
100
AcDbViewport
 10
420.5
 20
297.0
 30
0.0
 40
948.9782706766916
 41
628.452
 68
     1
 69
     1
1001
ACAD
1000
MVIEW
1002
{
1070
    16
1010
0.0
1020
0.0
1030
0.0
1010
0.0
1020
0.0
1030
1.0
1040
0.0
1040
628.452
1040
420.5
1040
297.0
1040
50.0
1040
0.0
1040
0.0
1070
     0
1070
   100
1070
     1
1070
     1
1070
     0
1070
     0
1070
     0
1070
     0
1040
0.0
1040
0.0
1040
0.0
1040
10.0
1040
10.0
1040
10.0
1040
10.0
1070
     0
1002
{
1002
}
1002
}
  0
ENDSEC
  0
SECTION
  2
OBJECTS
  0
DICTIONARY
  5
C
330
0
100
AcDbDictionary
  3
ACAD_GROUP
350
D
  3
ACAD_LAYOUT
350
1A
  3
ACAD_MLINESTYLE
350
17
  3
ACAD_PLOTSETTINGS
350
19
  3
ACAD_PLOTSTYLENAME
350
E
  3
ACDBVARIABLEDICTIONARY
350
34
  3
ACMDICTIONARY
350
43
  3
AMG
350
2B
  3
AMGSNAPSETTINGS
350
6E
  3
ASE_INDEX_DICTIONARY
350
151A
  3
DWGPROPS
350
7491
  3
ACDBHEADERROUNDTRIPXREC
350
749D
  0
DICTIONARY
  5
74
330
1F
100
AcDbDictionary
280
     1
  3
ACAD_INDEX
360
7493
  3
ACAD_LAYOUTSELFREF
360
74C0
  0
DICTIONARY
  5
74C5
330
101
100
AcDbDictionary
280
     1
  3
ACAD_LAYOUTSELFREF
360
74C6
  0
DICTIONARY
  5
D
102
{ACAD_REACTORS
330
C
102
}
330
C
100
AcDbDictionary
  0
DICTIONARY
  5
1A
102
{ACAD_REACTORS
330
C
102
}
330
C
100
AcDbDictionary
  0
DICTIONARY
  5
17
102
{ACAD_REACTORS
330
C
102
}
330
C
100
AcDbDictionary
  3
STANDARD
350
18
  0
DICTIONARY
  5
19
102
{ACAD_REACTORS
330
C
102
}
330
C
100
AcDbDictionary
  0
ACDBDICTIONARYWDFLT
  5
E
102
{ACAD_REACTORS
330
C
102
}
330
C
100
AcDbDictionary
281
     1
  3
Normal
350
F
100
AcDbDictionaryWithDefault
340
F
  0
DICTIONARY
  5
34
102
{ACAD_REACTORS
330
C
102
}
330
C
100
AcDbDictionary
  3
INDEXCTL
350
35
  3
SORTENTS
350
B5E
  0
DICTIONARY
  5
43
102
{ACAD_REACTORS
330
C
102
}
330
C
100
AcDbDictionary
  3
ACMSTDDICTIONARY
350
260
  0
DICTIONARY
  5
2B
102
{ACAD_REACTORS
330
C
102
}
330
C
100
AcDbDictionary
  3
ACMGSETTINGS
350
2C
  0
DICTIONARY
  5
6E
102
{ACAD_REACTORS
330
C
102
}
330
C
100
AcDbDictionary
  0
DICTIONARY
  5
151A
102
{ACAD_REACTORS
330
C
102
}
330
C
100
AcDbDictionary
  3
ASEBLOCKHIERARCHYINDEXRECORD
350
151C
1001
DCO15
1040
1471862535.906
  0
XRECORD
  5
7491
102
{ACAD_REACTORS
330
C
102
}
330
C
100
AcDbXrecord
  1
DWGPROPS COOKIE
  2

  3

  4

  6

  7

  8

  9

300
AmdtFileType=82
301
=
302
=
303
=
304
=
305
=
306
=
307
=
308
=
309
=
 40
0.1994894675925926
 41
2452838.430434386
 42
2452870.548933368
  1

 90
        1
  0
DICTIONARY
  5
749D
102
{ACAD_REACTORS
330
C
102
}
330
C
100
AcDbDictionary
  3
TSTACKALIGN
350
749E
  3
TSTACKSIZE
350
749F
  3
HYPERLINKBASE
350
74A0
  3
STYLESHEET
350
74A1
  3
LAYOUTDICT
350
74A2
  3
PLOTSETDICT
350
74A3
  3
PLOTSTYLNAMDICT
350
74A4
  3
LWETCUNION
350
74A5
  3
INSUNITS
350
74A6
  3
CEPSNTYPE
350
74A7
  3
FINGERPRINTGUID
350
74A8
  3
VERSIONGUID
350
74A9
  3
PSVPSCALE
350
74AA
  3
DIMSTYLEDATA
350
74AB
  3
PUCSORTHOREF
350
74AC
  3
PUCSORTHOVIEW
350
74AD
  3
PUCSBASE
350
74AE
  3
PUCSORGTOP
350
74AF
  3
PUCSORGBOTTOM
350
74B0
  3
PUCSORGLEFT
350
74B1
  3
PUCSORGRIGHT
350
74B2
  3
PUCSORGFRONT
350
74B3
  3
PUCSORGBACK
350
74B4
  3
UCSORTHOREF
350
74B5
  3
UCSORTHOVIEW
350
74B6
  3
UCSBASE
350
74B7
  3
UCSORGTOP
350
74B8
  3
UCSORGBOTTOM
350
74B9
  3
UCSORGLEFT
350
74BA
  3
UCSORGRIGHT
350
74BB
  3
UCSORGFRONT
350
74BC
  3
UCSORGBACK
350
74BD
  0
DICTIONARY
  5
7493
102
{ACAD_REACTORS
330
74
102
}
330
74
100
AcDbDictionary
  3
*A1
350
7494
  0
XRECORD
  5
74C0
102
{ACAD_REACTORS
330
74
102
}
330
74
100
AcDbXrecord
340
1F
  0
XRECORD
  5
74C6
102
{ACAD_REACTORS
330
74C5
102
}
330
74C5
100
AcDbXrecord
340
101
  0
MLINESTYLE
  5
18
102
{ACAD_REACTORS
330
17
102
}
330
17
100
AcDbMlineStyle
  2
STANDARD
 70
     0
  3

 62
   256
 51
90.0
 52
90.0
 71
     2
 49
0.5
 62
   256
  6
BYLAYER
 49
-0.5
 62
   256
  6
BYLAYER
  0
ACDBPLACEHOLDER
  5
F
102
{ACAD_REACTORS
330
E
102
}
330
E
100
AcDbPlaceHolder
280
     0
  0
DICTIONARYVAR
  5
35
102
{ACAD_REACTORS
330
34
102
}
330
34
100
DictionaryVariables
280
     0
  1
1
  0
DICTIONARYVAR
  5
B5E
102
{ACAD_REACTORS
330
34
102
}
330
34
100
DictionaryVariables
280
     0
  1
96
  0
DICTIONARY
  5
260
102
{ACAD_REACTORS
330
43
102
}
330
43
100
AcDbDictionary
  0
DICTIONARY
  5
2C
102
{ACAD_REACTORS
330
2B
102
}
330
2B
100
AcDbDictionary
  3
DWGSETTINGS
350
2D
  0
XRECORD
  5
151C
102
{ACAD_REACTORS
330
151A
102
}
330
151A
100
AcDbXrecord
330
0
330
0
330
0
330
0
330
0
330
0
330
0
330
0
  0
XRECORD
  5
749E
102
{ACAD_REACTORS
330
749D
102
}
330
749D
100
AcDbXrecord
 90
        1
  0
XRECORD
  5
749F
102
{ACAD_REACTORS
330
749D
102
}
330
749D
100
AcDbXrecord
 90
       70
  0
XRECORD
  5
74A0
102
{ACAD_REACTORS
330
749D
102
}
330
749D
100
AcDbXrecord
  1

  0
XRECORD
  5
74A1
102
{ACAD_REACTORS
330
749D
102
}
330
749D
100
AcDbXrecord
  1
ASAMI.ctb
  0
XRECORD
  5
74A2
102
{ACAD_REACTORS
330
749D
102
}
330
749D
100
AcDbXrecord
340
1A
  0
XRECORD
  5
74A3
102
{ACAD_REACTORS
330
749D
102
}
330
749D
100
AcDbXrecord
340
19
  0
XRECORD
  5
74A4
102
{ACAD_REACTORS
330
749D
102
}
330
749D
100
AcDbXrecord
340
E
  0
XRECORD
  5
74A5
102
{ACAD_REACTORS
330
749D
102
}
330
749D
100
AcDbXrecord
 90
    10781
  0
XRECORD
  5
74A6
102
{ACAD_REACTORS
330
749D
102
}
330
749D
100
AcDbXrecord
 90
        4
  0
XRECORD
  5
74A7
102
{ACAD_REACTORS
330
749D
102
}
330
749D
100
AcDbXrecord
 90
        0
  0
XRECORD
  5
74A8
102
{ACAD_REACTORS
330
749D
102
}
330
749D
100
AcDbXrecord
  1
{AFB28963-8C59-40AE-9337-C84526B81ACE}
  0
XRECORD
  5
74A9
102
{ACAD_REACTORS
330
749D
102
}
330
749D
100
AcDbXrecord
  1
{1084EADD-0FAB-478D-8574-7848B246AC43}
  0
XRECORD
  5
74AA
102
{ACAD_REACTORS
330
749D
102
}
330
749D
100
AcDbXrecord
 40
0.0
  0
XRECORD
  5
74AB
102
{ACAD_REACTORS
330
749D
102
}
330
749D
100
AcDbXrecord
1000
DSTYLE
1002
{
1070
    79
 70
     2
1070
   341
340
59
1070
   342
340
59
1070
   371
 70
    -1
1070
   372
 70
    -1
1002
}
  0
XRECORD
  5
74AC
102
{ACAD_REACTORS
330
749D
102
}
330
749D
100
AcDbXrecord
340
0
  0
XRECORD
  5
74AD
102
{ACAD_REACTORS
330
749D
102
}
330
749D
100
AcDbXrecord
 70
     0
  0
XRECORD
  5
74AE
102
{ACAD_REACTORS
330
749D
102
}
330
749D
100
AcDbXrecord
340
0
  0
XRECORD
  5
74AF
102
{ACAD_REACTORS
330
749D
102
}
330
749D
100
AcDbXrecord
 10
0.0
 20
0.0
 30
0.0
  0
XRECORD
  5
74B0
102
{ACAD_REACTORS
330
749D
102
}
330
749D
100
AcDbXrecord
 10
0.0
 20
0.0
 30
0.0
  0
XRECORD
  5
74B1
102
{ACAD_REACTORS
330
749D
102
}
330
749D
100
AcDbXrecord
 10
0.0
 20
0.0
 30
0.0
  0
XRECORD
  5
74B2
102
{ACAD_REACTORS
330
749D
102
}
330
749D
100
AcDbXrecord
 10
0.0
 20
0.0
 30
0.0
  0
XRECORD
  5
74B3
102
{ACAD_REACTORS
330
749D
102
}
330
749D
100
AcDbXrecord
 10
0.0
 20
0.0
 30
0.0
  0
XRECORD
  5
74B4
102
{ACAD_REACTORS
330
749D
102
}
330
749D
100
AcDbXrecord
 10
0.0
 20
0.0
 30
0.0
  0
XRECORD
  5
74B5
102
{ACAD_REACTORS
330
749D
102
}
330
749D
100
AcDbXrecord
340
0
  0
XRECORD
  5
74B6
102
{ACAD_REACTORS
330
749D
102
}
330
749D
100
AcDbXrecord
 70
     0
  0
XRECORD
  5
74B7
102
{ACAD_REACTORS
330
749D
102
}
330
749D
100
AcDbXrecord
340
0
  0
XRECORD
  5
74B8
102
{ACAD_REACTORS
330
749D
102
}
330
749D
100
AcDbXrecord
 10
0.0
 20
0.0
 30
0.0
  0
XRECORD
  5
74B9
102
{ACAD_REACTORS
330
749D
102
}
330
749D
100
AcDbXrecord
 10
0.0
 20
0.0
 30
0.0
  0
XRECORD
  5
74BA
102
{ACAD_REACTORS
330
749D
102
}
330
749D
100
AcDbXrecord
 10
0.0
 20
0.0
 30
0.0
  0
XRECORD
  5
74BB
102
{ACAD_REACTORS
330
749D
102
}
330
749D
100
AcDbXrecord
 10
0.0
 20
0.0
 30
0.0
  0
XRECORD
  5
74BC
102
{ACAD_REACTORS
330
749D
102
}
330
749D
100
AcDbXrecord
 10
0.0
 20
0.0
 30
0.0
  0
XRECORD
  5
74BD
102
{ACAD_REACTORS
330
749D
102
}
330
749D
100
AcDbXrecord
 10
0.0
 20
0.0
 30
0.0
  0
LAYER_INDEX
  5
7494
102
{ACAD_REACTORS
330
7493
102
}
330
7493
100
AcDbIndex
 40
2453152.391498692
100
AcDbLayerIndex
  8
0
360
7495
 90
        0
  8
AM_0
360
7496
 90
      173
  8
AM_7
360
7497
 90
        1
  8
AM_5
360
7498
 90
        5
  8
Defpoints
360
7499
 90
        0
  8
AM_6
360
749A
 90
        1
  8
AM_11
360
749B
 90
        3
  0
XRECORD
  5
2D
102
{ACAD_REACTORS
330
2C
102
}
330
2C
100
AcDbXrecord
  1
VERSION
140
15.0
  1
PRODUCT
  2
AutoCAD Mechanical 2000
  0
IDBUFFER
  5
7495
330
0
100
AcDbIdBuffer
  0
IDBUFFER
  5
7496
330
0
100
AcDbIdBuffer
330
6EB7
330
6EB8
330
6EB9
330
6EBA
330
6EBB
330
6EBC
330
6EC0
330
6EC1
330
6EC2
330
6EC3
330
6EC4
330
6EC5
330
6ECF
330
6ED0
330
6ED1
330
6ED2
330
6ED3
330
6ED4
330
6ED5
330
6ED6
330
6ED7
330
6ED8
330
6ED9
330
6EDA
330
6EDB
330
6EDC
330
6EEE
330
6EEF
330
6EF0
330
6EF1
330
6EF2
330
6EF3
330
6EF4
330
6EF5
330
6EF6
330
6EF7
330
6EF8
330
6EF9
330
6EFA
330
6EFB
330
6EFC
330
6EFD
330
6EFE
330
6EFF
330
6F00
330
6F01
330
6F02
330
6F03
330
6F04
330
6F05
330
6F06
330
6F07
330
6F08
330
6F09
330
6F0A
330
6F0B
330
6F0C
330
6F0D
330
6F0E
330
6F0F
330
6F10
330
6D68
330
6D69
330
6D6A
330
6D6B
330
6D6C
330
6D6D
330
6D6E
330
6D6F
330
6D70
330
6D71
330
6D72
330
6D73
330
6D74
330
6D75
330
6D76
330
6D77
330
6D78
330
6D79
330
6D7A
330
6D7B
330
6D7C
330
6D7D
330
6D7E
330
6D7F
330
6D80
330
6D81
330
6D82
330
6D83
330
6D84
330
6D85
330
6D86
330
6D87
330
6D8D
330
6D8E
330
6D8F
330
6D90
330
6D91
330
6D92
330
6D93
330
6D98
330
6D99
330
6D9F
330
6DA0
330
6DA1
330
6DA8
330
6DA9
330
6DBC
330
6DBD
330
6DBE
330
6DC0
330
6DC7
330
6DC8
330
6DC9
330
6DCA
330
6DE5
330
6DE7
330
6DF0
330
6DF1
330
6DF2
330
6E03
330
6E34
330
6E5A
330
6E5B
330
6E61
330
6E62
330
6E63
330
6E64
330
6E65
330
6E66
330
6E67
330
6E68
330
6E69
330
6E6A
330
6E6B
330
6E6D
330
6E6E
330
6E70
330
6E71
330
6E7E
330
6E7F
330
6E80
330
6E81
330
6E82
330
6E9A
330
6E9B
330
6E9C
330
6E9D
330
6E9E
330
6E9F
330
6EA0
330
6EA1
330
6EA2
330
6EA3
330
6EA4
330
6EA5
330
6EA6
330
6EA7
330
6EA8
330
6EA9
330
6EAA
330
6EAB
330
6EAC
330
6EAD
330
6EAE
330
6EAF
330
6EB0
330
6EB1
330
6EB2
330
6EB3
330
6EB4
330
6EB5
330
6EB6
  0
IDBUFFER
  5
7497
330
0
100
AcDbIdBuffer
330
6E31
  0
IDBUFFER
  5
7498
330
0
100
AcDbIdBuffer
330
6F1D
330
7094
330
711C
330
71B9
330
73A3
  0
IDBUFFER
  5
7499
330
0
100
AcDbIdBuffer
  0
IDBUFFER
  5
749A
330
0
100
AcDbIdBuffer
330
1500
  0
IDBUFFER
  5
749B
330
0
100
AcDbIdBuffer
330
7294
330
729C
330
729E
  0
ENDSEC
  0
EOF
