  0
SECTION
  2
HEADER
  9
$ACADVER
  1
AC1015
  9
$ACADMAINTVER
 70
    20
  9
$DWGCODEPAGE
  3
ANSI_932
  9
$INSBASE
 10
0.0
 20
0.0
 30
0.0
  9
$EXTMIN
 10
-205.4789469228492
 20
-56.93000511987307
 30
0.0
  9
$EXTMAX
 10
17.45552925927777
 20
28.63000511987312
 30
0.0
  9
$LIMMIN
 10
-240.026463687423
 20
-104.3343561292535
  9
$LIMMAX
 10
81.00881646246989
 20
39.43696327355758
  9
$ORTHOMODE
 70
     0
  9
$REGENMODE
 70
     1
  9
$FILLMODE
 70
     1
  9
$QTEXTMODE
 70
     0
  9
$MIRRTEXT
 70
     0
  9
$LTSCALE
 40
1.0
  9
$ATTMODE
 70
     1
  9
$TEXTSIZE
 40
2.5
  9
$TRACEWID
 40
1.0
  9
$TEXTSTYLE
  7
STANDARD
  9
$CLAYER
  8
AM_0
  9
$CELTYPE
  6
BYLAYER
  9
$CECOLOR
 62
   256
  9
$CELTSCALE
 40
1.0
  9
$DISPSILH
 70
     0
  9
$DIMSCALE
 40
0.5
  9
$DIMASZ
 40
2.5
  9
$DIMEXO
 40
1.0
  9
$DIMDLI
 40
12.0
  9
$DIMRND
 40
0.0
  9
$DIMDLE
 40
0.0
  9
$DIMEXE
 40
1.0
  9
$DIMTP
 40
0.1
  9
$DIMTM
 40
0.1
  9
$DIMTXT
 40
3.2
  9
$DIMCEN
 40
0.0
  9
$DIMTSZ
 40
0.0
  9
$DIMTOL
 70
     0
  9
$DIMLIM
 70
     0
  9
$DIMTIH
 70
     0
  9
$DIMTOH
 70
     0
  9
$DIMSE1
 70
     0
  9
$DIMSE2
 70
     0
  9
$DIMTAD
 70
     3
  9
$DIMZIN
 70
     8
  9
$DIMBLK
  1
Open30
  9
$DIMASO
 70
     1
  9
$DIMSHO
 70
     1
  9
$DIMPOST
  1

  9
$DIMAPOST
  1
"
  9
$DIMALT
 70
     0
  9
$DIMALTD
 70
     2
  9
$DIMALTF
 40
0.0393701
  9
$DIMLFAC
 40
1.0
  9
$DIMTOFL
 70
     1
  9
$DIMTVP
 40
0.0
  9
$DIMTIX
 70
     0
  9
$DIMSOXD
 70
     0
  9
$DIMSAH
 70
     0
  9
$DIMBLK1
  1

  9
$DIMBLK2
  1

  9
$DIMSTYLE
  2
AM_JIS
  9
$DIMCLRD
 70
   256
  9
$DIMCLRE
 70
   256
  9
$DIMCLRT
 70
     2
  9
$DIMTFAC
 40
0.71
  9
$DIMGAP
 40
1.5
  9
$DIMJUST
 70
     0
  9
$DIMSD1
 70
     0
  9
$DIMSD2
 70
     0
  9
$DIMTOLJ
 70
     0
  9
$DIMTZIN
 70
     0
  9
$DIMALTZ
 70
     0
  9
$DIMALTTZ
 70
     0
  9
$DIMUPT
 70
     0
  9
$DIMDEC
 70
     3
  9
$DIMTDEC
 70
     3
  9
$DIMALTU
 70
     2
  9
$DIMALTTD
 70
     2
  9
$DIMTXSTY
  7
ASAMI
  9
$DIMAUNIT
 70
     0
  9
$DIMADEC
 70
     0
  9
$DIMALTRND
 40
0.0
  9
$DIMAZIN
 70
     2
  9
$DIMDSEP
 70
    46
  9
$DIMATFIT
 70
     3
  9
$DIMFRAC
 70
     0
  9
$DIMLDRBLK
  1
Open30
  9
$DIMLUNIT
 70
     2
  9
$DIMLWD
 70
    -1
  9
$DIMLWE
 70
    -1
  9
$DIMTMOVE
 70
     0
  9
$LUNITS
 70
     2
  9
$LUPREC
 70
     2
  9
$SKETCHINC
 40
1.0
  9
$FILLETRAD
 40
0.4
  9
$AUNITS
 70
     0
  9
$AUPREC
 70
     0
  9
$MENU
  1
.
  9
$ELEVATION
 40
0.0
  9
$PELEVATION
 40
0.0
  9
$THICKNESS
 40
0.0
  9
$LIMCHECK
 70
     1
  9
$CHAMFERA
 40
1.0
  9
$CHAMFERB
 40
1.0
  9
$CHAMFERC
 40
20.0
  9
$CHAMFERD
 40
0.0
  9
$SKPOLY
 70
     0
  9
$TDCREATE
 40
2452802.716478762
  9
$TDUCREATE
 40
2452802.341478762
  9
$TDUPDATE
 40
2453691.649528889
  9
$TDUUPDATE
 40
2453691.274528889
  9
$TDINDWG
 40
0.9794139815
  9
$TDUSRTIMER
 40
0.9794136111
  9
$USRTIMER
 70
     1
  9
$ANGBASE
 50
0.0
  9
$ANGDIR
 70
     0
  9
$PDMODE
 70
     0
  9
$PDSIZE
 40
0.0
  9
$PLINEWID
 40
0.0
  9
$SPLFRAME
 70
     0
  9
$SPLINETYPE
 70
     6
  9
$SPLINESEGS
 70
     8
  9
$HANDSEED
  5
CCD9
  9
$SURFTAB1
 70
     6
  9
$SURFTAB2
 70
     6
  9
$SURFTYPE
 70
     6
  9
$SURFU
 70
     6
  9
$SURFV
 70
     6
  9
$UCSBASE
  2

  9
$UCSNAME
  2

  9
$UCSORG
 10
-0.0000000000002682
 20
0.000000000000161
 30
0.0
  9
$UCSXDIR
 10
1.0
 20
0.000000000000002
 30
0.0
  9
$UCSYDIR
 10
-0.000000000000002
 20
1.0
 30
0.0
  9
$UCSORTHOREF
  2

  9
$UCSORTHOVIEW
 70
     0
  9
$UCSORGTOP
 10
0.0
 20
0.0
 30
0.0
  9
$UCSORGBOTTOM
 10
0.0
 20
0.0
 30
0.0
  9
$UCSORGLEFT
 10
0.0
 20
0.0
 30
0.0
  9
$UCSORGRIGHT
 10
0.0
 20
0.0
 30
0.0
  9
$UCSORGFRONT
 10
0.0
 20
0.0
 30
0.0
  9
$UCSORGBACK
 10
0.0
 20
0.0
 30
0.0
  9
$PUCSBASE
  2

  9
$PUCSNAME
  2

  9
$PUCSORG
 10
0.0
 20
0.0
 30
0.0
  9
$PUCSXDIR
 10
1.0
 20
0.0
 30
0.0
  9
$PUCSYDIR
 10
0.0
 20
1.0
 30
0.0
  9
$PUCSORTHOREF
  2

  9
$PUCSORTHOVIEW
 70
     0
  9
$PUCSORGTOP
 10
0.0
 20
0.0
 30
0.0
  9
$PUCSORGBOTTOM
 10
0.0
 20
0.0
 30
0.0
  9
$PUCSORGLEFT
 10
0.0
 20
0.0
 30
0.0
  9
$PUCSORGRIGHT
 10
0.0
 20
0.0
 30
0.0
  9
$PUCSORGFRONT
 10
0.0
 20
0.0
 30
0.0
  9
$PUCSORGBACK
 10
0.0
 20
0.0
 30
0.0
  9
$USERI1
 70
     0
  9
$USERI2
 70
     0
  9
$USERI3
 70
     0
  9
$USERI4
 70
     0
  9
$USERI5
 70
     0
  9
$USERR1
 40
0.0
  9
$USERR2
 40
0.0
  9
$USERR3
 40
0.0
  9
$USERR4
 40
0.0
  9
$USERR5
 40
0.0
  9
$WORLDVIEW
 70
     1
  9
$SHADEDGE
 70
     3
  9
$SHADEDIF
 70
    70
  9
$TILEMODE
 70
     1
  9
$MAXACTVP
 70
    64
  9
$PINSBASE
 10
0.0
 20
0.0
 30
0.0
  9
$PLIMCHECK
 70
     0
  9
$PEXTMIN
 10
1.000000000000000E+20
 20
1.000000000000000E+20
 30
1.000000000000000E+20
  9
$PEXTMAX
 10
-1.000000000000000E+20
 20
-1.000000000000000E+20
 30
-1.000000000000000E+20
  9
$PLIMMIN
 10
0.0
 20
0.0
  9
$PLIMMAX
 10
841.0
 20
594.0
  9
$UNITMODE
 70
     0
  9
$VISRETAIN
 70
     1
  9
$PLINEGEN
 70
     0
  9
$PSLTSCALE
 70
     0
  9
$TREEDEPTH
 70
  3020
  9
$CMLSTYLE
  2
STANDARD
  9
$CMLJUST
 70
     0
  9
$CMLSCALE
 40
20.0
  9
$PROXYGRAPHICS
 70
     1
  9
$MEASUREMENT
 70
     1
  9
$CELWEIGHT
370
    -1
  9
$ENDCAPS
280
     0
  9
$JOINSTYLE
280
     0
  9
$LWDISPLAY
290
     0
  9
$INSUNITS
 70
     4
  9
$HYPERLINKBASE
  1

  9
$STYLESHEET
  1
ASAMI.ctb
  9
$XEDIT
290
     1
  9
$CEPSNTYPE
380
     0
  9
$PSTYLEMODE
290
     1
  9
$FINGERPRINTGUID
  2
{AFB28963-8C59-40AE-9337-C84526B81ACE}
  9
$VERSIONGUID
  2
{EBA96657-A70C-4E5B-A323-AABB86E9992E}
  9
$EXTNAMES
290
     1
  9
$PSVPSCALE
 40
0.0
  9
$OLESTARTUP
290
     0
  0
ENDSEC
  0
SECTION
  2
CLASSES
  0
CLASS
  1
ACDBDICTIONARYWDFLT
  2
AcDbDictionaryWithDefault
  3
ObjectDBX Classes
 90
        0
280
     0
281
     0
  0
CLASS
  1
ACDBPLACEHOLDER
  2
AcDbPlaceHolder
  3
ObjectDBX Classes
 90
        0
280
     0
281
     0
  0
CLASS
  1
LAYOUT
  2
AcDbLayout
  3
ObjectDBX Classes
 90
        0
280
     0
281
     0
  0
CLASS
  1
AMGSETTINGSOBJ
  2
AmgSettingsObj
  3
"AcadM|Product Description: AutoCAD Mechanical 2000|Company: Autodesk"
 90
        0
280
     0
281
     0
  0
CLASS
  1
ACME_DOCUMENT
  2
AcMeDbDoc
  3
AcMeServices
 90
        0
280
     0
281
     0
  0
CLASS
  1
ACMESCOPE
  2
AcMeScope
  3
AcMeServices
 90
        0
280
     0
281
     0
  0
CLASS
  1
ACMECOMMANDHISTORY
  2
AcMeCommandHistory
  3
AcMeServices
 90
        0
280
     0
281
     0
  0
CLASS
  1
DICTIONARYVAR
  2
AcDbDictionaryVar
  3
ObjectDBX Classes
 90
        0
280
     0
281
     0
  0
CLASS
  1
ACIMSYSVARMAN
  2
AcImSysVarManager
  3
AcMeServices
 90
        0
280
     0
281
     0
  0
CLASS
  1
ACIMREALSYSVAR
  2
AcImRealSysVar
  3
AcMeServices
 90
        0
280
     0
281
     0
  0
CLASS
  1
ACIMINTSYSVAR
  2
AcImIntSysVar
  3
AcMeServices
 90
        0
280
     0
281
     0
  0
CLASS
  1
ACMEDRAWINGMAN
  2
AcMeDrawingMan
  3
AcMeServices
 90
        0
280
     0
281
     0
  0
CLASS
  1
ACMEVIEW
  2
AcMeView
  3
AcMeServices
 90
        0
280
     0
281
     0
  0
CLASS
  1
ACDBENTITYCACHE
  2
AcMeEntityCache
  3
AcMeServices
 90
        0
280
     0
281
     0
  0
CLASS
  1
GSMANAGER
  2
AcMeGSManager
  3
AcMeServices
 90
        0
280
     0
281
     0
  0
CLASS
  1
AMDTINTERNALREACTOR
  2
AmdtInternalReactor
  3
AcMeServices
 90
        0
280
     0
281
     0
  0
CLASS
  1
ACMESTATEMGR
  2
AcMeStateMgr
  3
AcMeServices
 90
        0
280
     0
281
     0
  0
CLASS
  1
ACME_DATABASE
  2
AcMeDbDatabase
  3
AcMeServices
 90
        0
280
     0
281
     0
  0
CLASS
  1
ACRFINSADJUSTERMGR
  2
AcRfInsAdjusterMgr
  3
AcMeServices
 90
        0
280
     0
281
     0
  0
CLASS
  1
ACMDATADICTIONARY
  2
AcmDataDictionary
  3
"AcmSymBB|Product Description: AutoCAD Mechanical 2004 DX|Company: Autodesk"
 90
        0
280
     0
281
     0
  0
CLASS
  1
ACMDATAENTRYBLOCK
  2
AcmDataEntryBlock
  3
"AcmSymBB|Product Description: AutoCAD Mechanical 2004 DX|Company: Autodesk"
 90
    32768
280
     0
281
     0
  0
CLASS
  1
AMGOBJPROPCFG
  2
AmgObjPropCfg
  3
"AmgLay|Product Description: AutoCAD Mechanical 2000|Company: Autodesk"
 90
        1
280
     0
281
     0
  0
CLASS
  1
ACAMGFILTERDAT
  2
AcAmgFilterDat
  3
"AcadM|Product Description: AutoCAD Mechanical 2000|Company: Autodesk"
 90
    32768
280
     0
281
     0
  0
CLASS
  1
LAYER_INDEX
  2
AcDbLayerIndex
  3
ObjectDBX Classes
 90
        0
280
     0
281
     0
  0
CLASS
  1
IDBUFFER
  2
AcDbIdBuffer
  3
ObjectDBX Classes
 90
        0
280
     0
281
     0
  0
CLASS
  1
ACIMSTRSYSVAR
  2
AcImStrSysVar
  3
AcMeServices
 90
        0
280
     0
281
     0
  0
CLASS
  1
ACMSTANDARDJIS
  2
AcmStandardJIS
  3
"Amdt_StdImp|Product Description: AutoCAD Mechanical 2004 DX|Company: Autodesk"
 90
        0
280
     0
281
     0
  0
CLASS
  1
ACMSURFSTANDARDJIS
  2
AcmSurfTextStdJIS
  3
"Amdt_StdImp|Product Description: AutoCAD Mechanical 2004 DX|Company: Autodesk"
 90
        0
280
     0
281
     0
  0
CLASS
  1
ACMFCFSTANDARDJIS
  2
AcmFCFStdJIS
  3
"Amdt_StdImp|Product Description: AutoCAD Mechanical 2004 DX|Company: Autodesk"
 90
    32768
280
     0
281
     0
  0
CLASS
  1
ACMWELDSTANDARDJIS
  2
AcmWeldingStdJIS
  3
"Amdt_StdImp|Product Description: AutoCAD Mechanical 2004 DX|Company: Autodesk"
 90
        0
280
     0
281
     0
  0
CLASS
  1
ACMIDSTANDARDJIS
  2
AcmIdStdJIS
  3
"Amdt_StdImp|Product Description: AutoCAD Mechanical 2004 DX|Company: Autodesk"
 90
        0
280
     0
281
     0
  0
CLASS
  1
ACMDATUMSTANDARDJIS
  2
AcmDatumStdJIS
  3
"Amdt_StdImp|Product Description: AutoCAD Mechanical 2004 DX|Company: Autodesk"
 90
        0
280
     0
281
     0
  0
CLASS
  1
ACMBOMSTANDARDJIS
  2
AcmBOMStdJIS
  3
"Amdt_StdImp|Product Description: AutoCAD Mechanical 2004 DX|Company: Autodesk"
 90
        0
280
     0
281
     0
  0
CLASS
  1
ACMSTANDARDANSI
  2
AcmStandardANSI
  3
"Amdt_StdImp|Product Description: AutoCAD Mechanical 2004 DX|Company: Autodesk"
 90
    32768
280
     0
281
     0
  0
CLASS
  1
ACMSURFSTANDARDANSI
  2
AcmSurfTextStdANSI
  3
"Amdt_StdImp|Product Description: AutoCAD Mechanical 2004 DX|Company: Autodesk"
 90
    32768
280
     0
281
     0
  0
CLASS
  1
ACMFCFSTANDARDANSI
  2
AcmFCFStdANSI
  3
"Amdt_StdImp|Product Description: AutoCAD Mechanical 2004 DX|Company: Autodesk"
 90
    32768
280
     0
281
     0
  0
CLASS
  1
ACMWELDSTANDARDANSI
  2
AcmWeldingStdANSI
  3
"Amdt_StdImp|Product Description: AutoCAD Mechanical 2004 DX|Company: Autodesk"
 90
    32768
280
     0
281
     0
  0
CLASS
  1
ACMIDSTANDARDANSI
  2
AcmIdStdANSI
  3
"Amdt_StdImp|Product Description: AutoCAD Mechanical 2004 DX|Company: Autodesk"
 90
    32768
280
     0
281
     0
  0
CLASS
  1
ACMDATUMSTANDARDANSI
  2
AcmDatumStdANSI
  3
"Amdt_StdImp|Product Description: AutoCAD Mechanical 2004 DX|Company: Autodesk"
 90
    32768
280
     0
281
     0
  0
CLASS
  1
ACMBOMSTANDARDANSI
  2
AcmBOMStdANSI
  3
"Amdt_StdImp|Product Description: AutoCAD Mechanical 2004 DX|Company: Autodesk"
 90
    32768
280
     0
281
     0
  0
CLASS
  1
ACMSTANDARDBSI
  2
AcmStandardBSI
  3
"Amdt_StdImp|Product Description: AutoCAD Mechanical 2004 DX|Company: Autodesk"
 90
    32768
280
     0
281
     0
  0
CLASS
  1
ACMSURFSTANDARDBSI
  2
AcmSurfTextStdBSI
  3
"Amdt_StdImp|Product Description: AutoCAD Mechanical 2004 DX|Company: Autodesk"
 90
    32768
280
     0
281
     0
  0
CLASS
  1
ACMFCFSTANDARDBSI
  2
AcmFCFStdBSI
  3
"Amdt_StdImp|Product Description: AutoCAD Mechanical 2004 DX|Company: Autodesk"
 90
    32768
280
     0
281
     0
  0
CLASS
  1
ACMWELDSTANDARDBSI
  2
AcmWeldingStdBSI
  3
"Amdt_StdImp|Product Description: AutoCAD Mechanical 2004 DX|Company: Autodesk"
 90
    32768
280
     0
281
     0
  0
CLASS
  1
ACMIDSTANDARDBSI
  2
AcmIdStdBSI
  3
"Amdt_StdImp|Product Description: AutoCAD Mechanical 2004 DX|Company: Autodesk"
 90
    32768
280
     0
281
     0
  0
CLASS
  1
ACMDATUMSTANDARDBSI
  2
AcmDatumStdBSI
  3
"Amdt_StdImp|Product Description: AutoCAD Mechanical 2004 DX|Company: Autodesk"
 90
    32768
280
     0
281
     0
  0
CLASS
  1
ACMBOMSTANDARDBSI
  2
AcmBOMStdBSI
  3
"Amdt_StdImp|Product Description: AutoCAD Mechanical 2004 DX|Company: Autodesk"
 90
    32768
280
     0
281
     0
  0
CLASS
  1
STDPART2D
  2
AmgStdPart
  3
"AmgStdPart|Product Description: AutoCAD Mechanical 2000|Company: Autodesk"
 90
    33791
280
     0
281
     1
  0
CLASS
  1
PLOTSETTINGS
  2
AcDbPlotSettings
  3
ObjectDBX Classes
 90
        0
280
     0
281
     0
  0
CLASS
  1
TABLESTYLE
  2
AcDbTableStyle
  3
ObjectDBX Classes
 90
     2047
280
     0
281
     0
  0
CLASS
  1
ACGREFMASTER
  2
AcGrefMaster
  3
AcAttribServices
 90
        0
280
     0
281
     0
  0
CLASS
  1
AM_DRAWING_MGR
  2
AcDmDwgMgr
  3
AcMechDwgViewMgmt
 90
        0
280
     0
281
     0
  0
CLASS
  1
AM_DWG_DOCUMENT
  2
AcDmDwgDocument
  3
AcMechDwgViewMgmt
 90
        0
280
     0
281
     0
  0
CLASS
  1
AM_DWG_SHEET
  2
AcDmSheet
  3
AcMechDwgViewMgmt
 90
        0
280
     0
281
     0
  0
CLASS
  1
AM_VIEWDIMPARMAP
  2
AcDmViewDimParMap
  3
AcMechDwgViewMgmt
 90
        0
280
     0
281
     0
  0
CLASS
  1
AM_DWGMGR_NAME
  2
AcDmDwgMgrName
  3
AcMechDwgViewMgmt
 90
        0
280
     0
281
     0
  0
CLASS
  1
ACGREFACADMASTER
  2
AcGrefacadMaster
  3
AcGrefServices
 90
        0
280
     0
281
     0
  0
CLASS
  1
AMDTMENUSTATEMGR
  2
AmdtMenuStateMgr
  3
McadcomServices
 90
        0
280
     0
281
     0
  0
CLASS
  1
AMDTMCOMMENUSTATE
  2
AmdtMcomMenuState
  3
McadcomServices
 90
        0
280
     0
281
     0
  0
CLASS
  1
AMIMASTER
  2
AmiMaster
  3
AmiServices
 90
        0
280
     0
281
     0
  0
CLASS
  1
MAPIAMMOUDLE
  2
MApiAmModule
  3
MApiAmServices
 90
        0
280
     0
281
     0
  0
CLASS
  1
AMDTADMENUSTATE
  2
AmdtAdMenuState
  3
DesignerServices
 90
        0
280
     0
281
     0
  0
CLASS
  1
ADAPPL
  2
AcAdAppl
  3
DesignerServices
 90
        0
280
     0
281
     0
  0
CLASS
  1
DEPMGR
  2
AcAdDepMgr
  3
DesignerServices
 90
        0
280
     0
281
     0
  0
CLASS
  1
PARAMMGR
  2
AcAdParamMgr
  3
DesignerServices
 90
        0
280
     0
281
     0
  0
CLASS
  1
PARAMSCOPE
  2
AcAdParamScope
  3
DesignerServices
 90
        0
280
     0
281
     0
  0
CLASS
  1
NAMEDAPPL
  2
AcAdNamedAppl
  3
DesignerServices
 90
        0
280
     0
281
     0
  0
CLASS
  1
AMDTDMMENUSTATE
  2
AmdtDmMenuState
  3
AcMechDwgViewMgmt
 90
        0
280
     0
281
     0
  0
CLASS
  1
AMDTAMMENUSTATE
  2
AmdtAmMenuState
  3
DesignerAssemblies
 90
        0
280
     0
281
     0
  0
CLASS
  1
ACAMPROJECT
  2
AcAmProject
  3
DesignerAssemblies
 90
        0
280
     0
281
     0
  0
CLASS
  1
ACAMGRCOMPDEF
  2
AcAmGrCompDef
  3
DesignerAssemblies
 90
        0
280
     0
281
     0
  0
CLASS
  1
ACCMCONTEXT
  2
AcCmContext
  3
DesignerAssemblies
 90
        0
280
     0
281
     0
  0
CLASS
  1
ACAMCOMPDEF
  2
AcAmCompDef
  3
DesignerAssemblies
 90
        0
280
     0
281
     0
  0
CLASS
  1
ACAMCOMPDEFMGR
  2
AcAmCompDefMgr
  3
DesignerAssemblies
 90
        0
280
     0
281
     0
  0
CLASS
  1
AMCONTEXTMGR
  2
AcAmContextMgr
  3
DesignerAssemblies
 90
        0
280
     0
281
     0
  0
CLASS
  1
ACAMCONTEXTMODELER
  2
AcAmContextModeler
  3
DesignerAssemblies
 90
        0
280
     0
281
     0
  0
CLASS
  1
CATALOGSTATE
  2
AcAmCatalogState
  3
DesignerAssemblies
 90
        0
280
     0
281
     0
  0
CLASS
  1
ACAMGRCOMPDEFSET
  2
AcAmGrCompDefSet
  3
DesignerAssemblies
 90
        0
280
     0
281
     0
  0
CLASS
  1
AMDTBROWSERDBTAB
  2
AmdtBrowserDbTab
  3
McadcomServices
 90
        0
280
     0
281
     0
  0
CLASS
  1
CBROWSERAPPOBJECT
  2
CBrowserAppObject
  3
McadcomServices
 90
        0
280
     0
281
     0
  0
CLASS
  1
DM_PLACEHOLDER
  2
AcDmSelsetPlaceholder
  3
AcMechDwgViewMgmt
 90
        0
280
     0
281
     0
  0
CLASS
  1
ACMSTANDARDISO
  2
AcmStandardISO
  3
"Amdt_StdImp|Product Description: AutoCAD Mechanical 2004 DX|Company: Autodesk"
 90
        0
280
     0
281
     0
  0
CLASS
  1
AMDTEDGESTANDARDISO
  2
AmdtEdgeStdISO
  3
"Amdt_StdImp|Product Description: AutoCAD Mechanical 2004 DX|Company: Autodesk"
 90
        0
280
     0
281
     0
  0
CLASS
  1
ACMSURFSTANDARDISO
  2
AcmSurfTextStdISO
  3
"Amdt_StdImp|Product Description: AutoCAD Mechanical 2004 DX|Company: Autodesk"
 90
        0
280
     0
281
     0
  0
CLASS
  1
ACMFCFSTANDARDISO
  2
AcmFCFStdISO
  3
"Amdt_StdImp|Product Description: AutoCAD Mechanical 2004 DX|Company: Autodesk"
 90
        0
280
     0
281
     0
  0
CLASS
  1
ACMWELDSTANDARDISO
  2
AcmWeldingStdISO
  3
"Amdt_StdImp|Product Description: AutoCAD Mechanical 2004 DX|Company: Autodesk"
 90
        0
280
     0
281
     0
  0
CLASS
  1
ACMIDSTANDARDISO
  2
AcmIdStdISO
  3
"Amdt_StdImp|Product Description: AutoCAD Mechanical 2004 DX|Company: Autodesk"
 90
        0
280
     0
281
     0
  0
CLASS
  1
ACMDATUMSTANDARDISO
  2
AcmDatumStdISO
  3
"Amdt_StdImp|Product Description: AutoCAD Mechanical 2004 DX|Company: Autodesk"
 90
        0
280
     0
281
     0
  0
CLASS
  1
ACMBOMSTANDARDISO
  2
AcmBOMStdISO
  3
"Amdt_StdImp|Product Description: AutoCAD Mechanical 2004 DX|Company: Autodesk"
 90
        0
280
     0
281
     0
  0
CLASS
  1
ACMDETAILSTANDARDISO
  2
AmdtDetailSymStdISO
  3
"Amdt_StdImp|Product Description: AutoCAD Mechanical 2004 DX|Company: Autodesk"
 90
        0
280
     0
281
     0
  0
CLASS
  1
ACMSECTIONSTANDARDISO
  2
AmdtSectionSymStdISO
  3
"Amdt_StdImp|Product Description: AutoCAD Mechanical 2004 DX|Company: Autodesk"
 90
        0
280
     0
281
     0
  0
CLASS
  1
ACMCENTERLINESTANDARDISO
  2
AmdtCenterLineStdISO
  3
"Amdt_StdImp|Product Description: AutoCAD Mechanical 2004 DX|Company: Autodesk"
 90
        0
280
     0
281
     0
  0
CLASS
  1
ACMNOTESTANDARDISO
  2
AmdtNoteStdISO
  3
"Amdt_StdImp|Product Description: AutoCAD Mechanical 2004 DX|Company: Autodesk"
 90
        0
280
     0
281
     0
  0
CLASS
  1
AMDTNOTETEMPLATEDB
  2
AmdtNoteTemplateDB
  3
AMDT_STDIMP_MODULE_NAME
 90
        0
280
     0
281
     0
  0
CLASS
  1
ACAMGLAYSTD
  2
AcAmgLayStd
  3
"AcAmgLayStd|Product Description: AutoCAD Mechanical 2000|Company: Autodesk"
 90
        0
280
     0
281
     0
  0
CLASS
  1
ACAMGDIMSTD
  2
AcAmgDimStd
  3
"AcAmgDimStd|Product Description: AutoCAD Mechanical 2000|Company: Autodesk"
 90
        0
280
     0
281
     0
  0
CLASS
  1
ACAMGHOLECHARTSTDISO
  2
AcAmgHoleChartStdISO
  3
ACMSYMBB_MODULE_NAME
 90
        0
280
     0
281
     0
  0
CLASS
  1
ACAMGTITLESTD
  2
AcAmgTitleStd
  3
"TITLEAPP"
 90
        0
280
     0
281
     0
  0
CLASS
  1
ACMTHREADLINESTANDARDISO
  2
AmdtThreadLineStdISO
  3
"Amdt_StdImp|Product Description: AutoCAD Mechanical 2004 DX|Company: Autodesk"
 90
        0
280
     0
281
     0
  0
CLASS
  1
ACMFCFSTANDARDJIS98
  2
AcmFCFStdJIS98
  3
"Amdt_StdImp|Product Description: AutoCAD Mechanical 2004 DX|Company: Autodesk"
 90
        0
280
     0
281
     0
  0
CLASS
  1
ACMDETAILSTANDARDJIS
  2
AmdtDetailSymStdJIS
  3
"Amdt_StdImp|Product Description: AutoCAD Mechanical 2004 DX|Company: Autodesk"
 90
        0
280
     0
281
     0
  0
CLASS
  1
ACMSECTIONSTANDARDJIS
  2
AmdtSectionSymStdJIS
  3
"Amdt_StdImp|Product Description: AutoCAD Mechanical 2004 DX|Company: Autodesk"
 90
        0
280
     0
281
     0
  0
CLASS
  1
ACMCENTERLINESTANDARDJIS
  2
AmdtCenterLineStdJIS
  3
"Amdt_StdImp|Product Description: AutoCAD Mechanical 2004 DX|Company: Autodesk"
 90
        0
280
     0
281
     0
  0
CLASS
  1
ACMTHREADLINESTANDARDJIS
  2
AmdtThreadLineStdJIS
  3
"Amdt_StdImp|Product Description: AutoCAD Mechanical 2004 DX|Company: Autodesk"
 90
        0
280
     0
281
     0
  0
CLASS
  1
ACMNOTESTANDARDJIS
  2
AmdtNoteStdJIS
  3
"Amdt_StdImp|Product Description: AutoCAD Mechanical 2004 DX|Company: Autodesk"
 90
        0
280
     0
281
     0
  0
CLASS
  1
ACAMGHOLECHARTSTDJIS
  2
AcAmgHoleChartStdJIS
  3
ACMSYMBB_MODULE_NAME
 90
        0
280
     0
281
     0
  0
ENDSEC
  0
SECTION
  2
TABLES
  0
TABLE
  2
VPORT
  5
8
330
0
100
AcDbSymbolTable
 70
     3
  0
VPORT
  5
CCCE
330
8
100
AcDbSymbolTableRecord
100
AcDbViewportTableRecord
  2
*Active
 70
     0
 10
0.0
 20
0.0
 11
1.0
 21
1.0
 12
-87.45110926466727
 22
-10.85529990874603
 13
0.0
 23
0.0
 14
2.5
 24
2.5
 15
10.0
 25
10.0
 16
0.0
 26
0.0
 36
1.0
 17
0.0
 27
0.0
 37
0.0
 40
195.5262308630081
 41
1.732758620689654
 42
50.0
 43
0.0
 44
0.0
 50
0.0
 51
0.0
 71
     0
 72
   100
 73
     1
 74
     3
 75
     0
 76
     0
 77
     0
 78
     0
281
     0
 65
     1
110
-0.0000000000002682
120
0.000000000000161
130
0.0
111
1.0
121
0.000000000000002
131
0.0
112
-0.000000000000002
122
1.0
132
0.0
 79
     0
146
0.0
  0
ENDTAB
  0
TABLE
  2
LTYPE
  5
5
330
0
100
AcDbSymbolTable
 70
    17
  0
LTYPE
  5
14
330
5
100
AcDbSymbolTableRecord
100
AcDbLinetypeTableRecord
  2
BYBLOCK
 70
     0
  3

 72
    65
 73
     0
 40
0.0
  0
LTYPE
  5
15
330
5
100
AcDbSymbolTableRecord
100
AcDbLinetypeTableRecord
  2
BYLAYER
 70
     0
  3

 72
    65
 73
     0
 40
0.0
  0
LTYPE
  5
16
330
5
100
AcDbSymbolTableRecord
100
AcDbLinetypeTableRecord
  2
CONTINUOUS
 70
     0
  3
Solid line
 72
    65
 73
     0
 40
0.0
  0
LTYPE
  5
4B
330
5
100
AcDbSymbolTableRecord
100
AcDbLinetypeTableRecord
  2
AM_ISO02W050
 70
     0
  3
__ __ __ __ __ __ __ __ __ __ __ __ __ __ __
 72
    65
 73
     2
 40
7.5
 49
6.0
 74
     0
 49
-1.5
 74
     0
  0
LTYPE
  5
4C
330
5
100
AcDbSymbolTableRecord
100
AcDbLinetypeTableRecord
  2
AM_ISO08W050
 70
     0
  3
____ . ____ . ____ . ____ . ____ . ____ . ____
 72
    65
 73
     4
 40
18.0
 49
12.0
 74
     0
 49
-1.5
 74
     0
 49
3.0
 74
     0
 49
-1.5
 74
     0
  0
LTYPE
  5
4D
330
5
100
AcDbSymbolTableRecord
100
AcDbLinetypeTableRecord
  2
AM_ISO09W050
 70
     0
  3
_____ . . _____ . . _____ . . ____ .. ____
 72
    65
 73
     6
 40
22.5
 49
12.0
 74
     0
 49
-1.5
 74
     0
 49
3.0
 74
     0
 49
-1.5
 74
     0
 49
3.0
 74
     0
 49
-1.5
 74
     0
  0
LTYPE
  5
4E
330
5
100
AcDbSymbolTableRecord
100
AcDbLinetypeTableRecord
  2
Amconstr
 70
     0
  3
_______________________
 72
    65
 73
     2
 40
9999.0
 49
9999.0
 74
     0
 49
0.0
 74
     0
  0
LTYPE
  5
4F
330
5
100
AcDbSymbolTableRecord
100
AcDbLinetypeTableRecord
  2
AM_ISO02W050x2
 70
     0
  3
 _ _ _ _ _ _ _ _ _ _ _ _
 72
    65
 73
     2
 40
3.75
 49
3.0
 74
     0
 49
-0.75
 74
     0
  0
LTYPE
  5
50
330
5
100
AcDbSymbolTableRecord
100
AcDbLinetypeTableRecord
  2
AM_ISO08W050x2
 70
     0
  3
__ . __ . __ . __ . __ . __
 72
    65
 73
     4
 40
9.0
 49
6.0
 74
     0
 49
-0.75
 74
     0
 49
1.5
 74
     0
 49
-0.75
 74
     0
  0
LTYPE
  5
53
330
5
100
AcDbSymbolTableRecord
100
AcDbLinetypeTableRecord
  2
Amzigzag
 70
     0
  3
/\/-/\/-/\/-/\/-/\/-/\/
 72
    65
 73
     2
 40
11.0001
 49
0.0001
 74
     4
 75
   135
340
52
 46
0.04
 50
0.0
 44
0.0
 45
0.0
 49
-11.0
 74
     0
  0
LTYPE
  5
166
330
5
100
AcDbSymbolTableRecord
100
AcDbLinetypeTableRecord
  2
ACJISTGL
 70
     0
  3
_ _ _ _ _
 72
    65
 73
     2
 40
3.0
 49
2.0
 74
     0
 49
-1.0
 74
     0
  0
LTYPE
  5
26A
330
5
100
AcDbSymbolTableRecord
100
AcDbLinetypeTableRecord
  2
ACJISTGB
 70
     0
  3
__ . . __ . .
 72
    65
 73
     6
 40
9.0
 49
4.0
 74
     0
 49
-1.0
 74
     0
 49
1.0
 74
     0
 49
-1.0
 74
     0
 49
1.0
 74
     0
 49
-1.0
 74
     0
  0
LTYPE
  5
CC44
330
5
100
AcDbSymbolTableRecord
100
AcDbLinetypeTableRecord
  2
HIDDEN
 70
     0
  3
Hidden __ __ __ __ __ __ __ __ __ __ __ __ __ _
 72
    65
 73
     2
 40
9.524999999999998
 49
6.349999999999999
 74
     0
 49
-3.174999999999999
 74
     0
  0
LTYPE
  5
CC45
330
5
100
AcDbSymbolTableRecord
100
AcDbLinetypeTableRecord
  2
PHANTOM2
 70
     0
  3
Phantom (.5x) ___ _ _ ___ _ _ ___ _ _ ___ _ _
 72
    65
 73
     6
 40
31.75
 49
15.875
 74
     0
 49
-3.174999999999999
 74
     0
 49
3.174999999999999
 74
     0
 49
-3.174999999999999
 74
     0
 49
3.174999999999999
 74
     0
 49
-3.174999999999999
 74
     0
  0
LTYPE
  5
CC46
330
5
100
AcDbSymbolTableRecord
100
AcDbLinetypeTableRecord
  2
CENTER
 70
     0
  3
__ . __
 72
    65
 73
     4
 40
7.0
 49
4.0
 74
     0
 49
-1.0
 74
     0
 49
1.0
 74
     0
 49
-1.0
 74
     0
  0
LTYPE
  5
CC77
330
5
100
AcDbSymbolTableRecord
100
AcDbLinetypeTableRecord
  2
ACISOWELD
 70
     0
  3
_ _ _ _ _
 72
    65
 73
     2
 40
2.0
 49
2.0
 74
     0
 49
-1.0
 74
     0
  0
LTYPE
  5
CC7A
330
5
100
AcDbSymbolTableRecord
100
AcDbLinetypeTableRecord
  2
ACISOTGB
 70
     0
  3
__ . . __ . .
 72
    65
 73
     6
 40
9.0
 49
4.0
 74
     0
 49
-1.0
 74
     0
 49
1.0
 74
     0
 49
-1.0
 74
     0
 49
1.0
 74
     0
 49
-1.0
 74
     0
  0
LTYPE
  5
CC7B
330
5
100
AcDbSymbolTableRecord
100
AcDbLinetypeTableRecord
  2
ACISOTGL
 70
     0
  3
_ _ _ _ _
 72
    65
 73
     2
 40
3.0
 49
2.0
 74
     0
 49
-1.0
 74
     0
  0
LTYPE
  5
CCA4
330
5
100
AcDbSymbolTableRecord
100
AcDbLinetypeTableRecord
  2
ACJISWELD
 70
     0
  3
_ _ _ _ _
 72
    65
 73
     2
 40
2.0
 49
2.0
 74
     0
 49
-1.0
 74
     0
  0
ENDTAB
  0
TABLE
  2
LAYER
  5
2
330
0
100
AcDbSymbolTable
 70
     8
  0
LAYER
  5
10
330
2
100
AcDbSymbolTableRecord
100
AcDbLayerTableRecord
  2
0
 70
     0
 62
     7
  6
CONTINUOUS
370
    -3
390
F
  0
LAYER
  5
3F9
330
2
100
AcDbSymbolTableRecord
100
AcDbLayerTableRecord
  2
AM_0
 70
     0
 62
     7
  6
CONTINUOUS
370
    -3
390
F
  0
LAYER
  5
BA4
330
2
100
AcDbSymbolTableRecord
100
AcDbLayerTableRecord
  2
AM_5
 70
     0
 62
     3
  6
CONTINUOUS
370
    -3
390
F
  0
LAYER
  5
BA6
330
2
100
AcDbSymbolTableRecord
100
AcDbLayerTableRecord
  2
AM_7
 70
     0
 62
     4
  6
AM_ISO08W050
370
    -3
390
F
  0
LAYER
  5
E64
330
2
100
AcDbSymbolTableRecord
100
AcDbLayerTableRecord
  2
AM_6
 70
     0
 62
     2
  6
CONTINUOUS
370
    -3
390
F
  0
LAYER
  5
F4D
330
2
100
AcDbSymbolTableRecord
100
AcDbLayerTableRecord
  2
DEFPOINTS
 70
     0
 62
     7
  6
CONTINUOUS
290
     0
370
    -3
390
F
  0
LAYER
  5
2382
330
2
100
AcDbSymbolTableRecord
100
AcDbLayerTableRecord
  2
AM_3
 70
     0
 62
     6
  6
ACJISTGL
370
    -3
390
F
  0
LAYER
  5
4E80
330
2
100
AcDbSymbolTableRecord
100
AcDbLayerTableRecord
  2
AM_11
 70
     0
 62
     3
  6
AM_ISO09W050
370
    -3
390
F
  0
ENDTAB
  0
TABLE
  2
STYLE
  5
3
330
0
100
AcDbSymbolTable
 70
     7
  0
STYLE
  5
11
330
3
100
AcDbSymbolTableRecord
100
AcDbTextStyleTableRecord
  2
STANDARD
 70
     0
 40
0.0
 41
1.0
 50
0.0
 71
     0
 42
2.5
  3
simplex.shx
  4
EXTFONT.SHX
  0
STYLE
  5
52
330
3
100
AcDbSymbolTableRecord
100
AcDbTextStyleTableRecord
  2

 70
     1
 40
0.0
 41
1.0
 50
0.0
 71
     0
 42
2.5
  3
ltypeshp.shx
  4

  0
STYLE
  5
6B
330
3
100
AcDbSymbolTableRecord
100
AcDbTextStyleTableRecord
  2
ASAMI
 70
     0
 40
0.0
 41
1.0
 50
0.0
 71
     0
 42
2.5
  3
simplex.shx
  4
EXTFONT.SHX
  0
STYLE
  5
262
330
3
100
AcDbSymbolTableRecord
100
AcDbTextStyleTableRecord
  2
ACJISTS
 70
     0
 40
1.0
 41
1.0
 50
0.0
 71
     0
 42
1.0
  3
isocp.shx
  4
extfont.shx
  0
STYLE
  5
269
330
3
100
AcDbSymbolTableRecord
100
AcDbTextStyleTableRecord
  2
ACJISGDT
 70
     0
 40
0.0
 41
1.0
 50
0.0
 71
     0
 42
1.0
  3
amgdt.shx
  4

  0
STYLE
  5
CC71
330
3
100
AcDbSymbolTableRecord
100
AcDbTextStyleTableRecord
  2
ACISOTS
 70
     0
 40
3.5
 41
1.0
 50
5.0
 71
     0
 42
3.799999999999999
  3
isocp.shx
  4
extfont.shx
  0
STYLE
  5
CC75
330
3
100
AcDbSymbolTableRecord
100
AcDbTextStyleTableRecord
  2
ACISOGDT
 70
     0
 40
0.0
 41
1.0
 50
0.0
 71
     0
 42
2.5
  3
amgdt.shx
  4
extfont.shx
  0
ENDTAB
  0
TABLE
  2
VIEW
  5
6
330
0
100
AcDbSymbolTable
 70
     0
  0
ENDTAB
  0
TABLE
  2
UCS
  5
7
330
0
100
AcDbSymbolTable
 70
     0
  0
ENDTAB
  0
TABLE
  2
APPID
  5
9
330
0
100
AcDbSymbolTable
 70
    36
  0
APPID
  5
12
330
9
100
AcDbSymbolTableRecord
100
AcDbRegAppTableRecord
  2
ACAD
 70
     0
  0
APPID
  5
30
330
9
100
AcDbSymbolTableRecord
100
AcDbRegAppTableRecord
  2
MCAD_NO_VIS
 70
     0
  0
APPID
  5
31
330
9
100
AcDbSymbolTableRecord
100
AcDbRegAppTableRecord
  2
ACAD_TEMP_GRAPHIC
 70
     0
  0
APPID
  5
2C2
330
9
100
AcDbSymbolTableRecord
100
AcDbRegAppTableRecord
  2
GENIUS_GENDTOL_13
 70
     0
  0
APPID
  5
339
330
9
100
AcDbSymbolTableRecord
100
AcDbRegAppTableRecord
  2
GENIUS_GENODEF_13
 70
     0
  0
APPID
  5
33A
330
9
100
AcDbSymbolTableRecord
100
AcDbRegAppTableRecord
  2
GENIUS_GENOBJ-N-RSBK_13
 70
     0
  0
APPID
  5
33B
330
9
100
AcDbSymbolTableRecord
100
AcDbRegAppTableRecord
  2
GENIUS_GENOBJ-N-LIB_13
 70
     0
  0
APPID
  5
33C
330
9
100
AcDbSymbolTableRecord
100
AcDbRegAppTableRecord
  2
GENIUS_GENSCALE_13
 70
     0
  0
APPID
  5
378
330
9
100
AcDbSymbolTableRecord
100
AcDbRegAppTableRecord
  2
GENIUS_GENDIMSH_14
 70
     0
  0
APPID
  5
BB0
330
9
100
AcDbSymbolTableRecord
100
AcDbRegAppTableRecord
  2
GENIUS_GENOBJ-N-CEN_13
 70
     0
  0
APPID
  5
BB1
330
9
100
AcDbSymbolTableRecord
100
AcDbRegAppTableRecord
  2
GENIUS_GENFIL_13
 70
     0
  0
APPID
  5
BB2
330
9
100
AcDbSymbolTableRecord
100
AcDbRegAppTableRecord
  2
GENIUS_GENOBJ-N-CHA_13
 70
     0
  0
APPID
  5
1FAF
330
9
100
AcDbSymbolTableRecord
100
AcDbRegAppTableRecord
  2
GENIUS_GENOBJ-N-CRS_13
 70
     0
  0
APPID
  5
1FB0
330
9
100
AcDbSymbolTableRecord
100
AcDbRegAppTableRecord
  2
GENIUS_GENOENT_13
 70
     0
  0
APPID
  5
1FB1
330
9
100
AcDbSymbolTableRecord
100
AcDbRegAppTableRecord
  2
GENIUS_GENOREF_13
 70
     0
  0
APPID
  5
1FB2
330
9
100
AcDbSymbolTableRecord
100
AcDbRegAppTableRecord
  2
GENIUS_GENOLIS_13
 70
     0
  0
APPID
  5
1FB7
330
9
100
AcDbSymbolTableRecord
100
AcDbRegAppTableRecord
  2
GENIUS_GENOBJ-N-FIL_13
 70
     0
  0
APPID
  5
22A8
330
9
100
AcDbSymbolTableRecord
100
AcDbRegAppTableRecord
  2
GEVID1056506048
 70
     0
  0
APPID
  5
22A9
330
9
100
AcDbSymbolTableRecord
100
AcDbRegAppTableRecord
  2
GEVDC
 70
     0
  0
APPID
  5
22AC
330
9
100
AcDbSymbolTableRecord
100
AcDbRegAppTableRecord
  2
GENIUS_GENBH_13
 70
     0
  0
APPID
  5
22B8
330
9
100
AcDbSymbolTableRecord
100
AcDbRegAppTableRecord
  2
GENIUS_GENOBJ-NBEHI-BHF_13
 70
     0
  0
APPID
  5
22BA
330
9
100
AcDbSymbolTableRecord
100
AcDbRegAppTableRecord
  2
GENIUS_GENOBJ-NBEHI-BHB_13
 70
     0
  0
APPID
  5
35C9
330
9
100
AcDbSymbolTableRecord
100
AcDbRegAppTableRecord
  2
GENIUS_GENREC_14
 70
     0
  0
APPID
  5
35CA
330
9
100
AcDbSymbolTableRecord
100
AcDbRegAppTableRecord
  2
GENIUS_GENOBJ-N-REC_13
 70
     0
  0
APPID
  5
CC0A
330
9
100
AcDbSymbolTableRecord
100
AcDbRegAppTableRecord
  2
ACATTRIBSERVICES
 70
     0
  0
APPID
  5
CC0B
330
9
100
AcDbSymbolTableRecord
100
AcDbRegAppTableRecord
  2
AD_DRAW
 70
     0
  0
APPID
  5
CC0C
330
9
100
AcDbSymbolTableRecord
100
AcDbRegAppTableRecord
  2
DESIGNERASSEMBLIES
 70
     0
  0
APPID
  5
CC0D
330
9
100
AcDbSymbolTableRecord
100
AcDbRegAppTableRecord
  2
ACADM_DIM_EDIT
 70
     0
  0
APPID
  5
CC0E
330
9
100
AcDbSymbolTableRecord
100
AcDbRegAppTableRecord
  2
AMDT_DM_ADJ
 70
     0
  0
APPID
  5
CC0F
330
9
100
AcDbSymbolTableRecord
100
AcDbRegAppTableRecord
  2
ACAD_DSTYLE_DIMTEXT_FILL
 70
     0
  0
APPID
  5
CC10
330
9
100
AcDbSymbolTableRecord
100
AcDbRegAppTableRecord
  2
ACAD_PSEXT
 70
     0
  0
APPID
  5
CC11
330
9
100
AcDbSymbolTableRecord
100
AcDbRegAppTableRecord
  2
ACAD_DIMASSOC_DIMLFAC
 70
     0
  0
APPID
  5
CC12
330
9
100
AcDbSymbolTableRecord
100
AcDbRegAppTableRecord
  2
ACAD_DIMASSOC_CALC_DIMLFAC
 70
     0
  0
APPID
  5
CC13
330
9
100
AcDbSymbolTableRecord
100
AcDbRegAppTableRecord
  2
ACAD_DIMASSOC_OVERRIDDEN_DIMLFAC
 70
     0
  0
APPID
  5
CCC8
330
9
100
AcDbSymbolTableRecord
100
AcDbRegAppTableRecord
  2
GENIUS_GENSCREG_15
 70
     0
  0
APPID
  5
CCC9
330
9
100
AcDbSymbolTableRecord
100
AcDbRegAppTableRecord
  2
GENIUS_GENOBJ-N-SDF_13
 70
     0
  0
ENDTAB
  0
TABLE
  2
DIMSTYLE
  5
A
330
0
100
AcDbSymbolTable
 70
    16
100
AcDbDimStyleTable
 71
     0
  0
DIMSTYLE
105
58
330
A
100
AcDbSymbolTableRecord
100
AcDbDimStyleTableRecord
  2
AM_JIS
 70
     0
  4
"
 41
2.699999999999999
 42
0.0
 43
7.0
 44
0.5
 47
0.1
 48
0.1000000001
 73
     0
 74
     0
 77
     3
 78
     8
 79
     2
140
3.5
141
0.0
143
0.0393701
146
0.71
147
1.0
172
     1
176
     3
177
     3
178
     2
179
     1
271
     2
272
     2
275
     1
283
     0
284
     8
340
11
341
59
342
59
371
    -1
372
    -1
  0
DIMSTYLE
105
5F
330
A
100
AcDbSymbolTableRecord
100
AcDbDimStyleTableRecord
  2
AM_JIS$3
 70
     0
  4
"
 41
2.699999999999999
 42
1.0
 43
10.0
 44
1.0
 47
0.1
 48
0.1000000001
 73
     0
 77
     3
 78
     8
 79
     2
140
3.799999999999999
141
0.0
143
0.0393701
146
0.71
147
1.5
176
   256
177
   256
178
     2
271
     2
272
     2
275
     1
283
     0
284
     8
288
     1
289
     0
340
11
341
59
342
59
371
    -1
372
    -1
  0
DIMSTYLE
105
60
330
A
100
AcDbSymbolTableRecord
100
AcDbDimStyleTableRecord
  2
AM_JIS$4
 70
     0
  4
"
 41
2.699999999999999
 42
1.0
 43
10.0
 44
1.0
 47
0.1
 48
0.1000000001
 73
     0
 77
     3
 78
     8
 79
     2
140
3.799999999999999
141
0.0
143
0.0393701
146
0.71
147
1.5
176
   256
177
   256
178
     2
271
     2
272
     2
275
     1
283
     0
284
     8
288
     1
289
     0
340
11
341
59
342
59
371
    -1
372
    -1
  0
DIMSTYLE
105
61
330
A
100
AcDbSymbolTableRecord
100
AcDbDimStyleTableRecord
  2
AM_JIS$6
 70
     0
  4
"
 41
2.699999999999999
 42
1.0
 43
10.0
 44
1.0
 47
0.1
 48
0.1000000001
 73
     0
 74
     0
 78
     8
 79
     2
140
3.799999999999999
141
0.0
143
0.0393701
146
0.71
147
1.5
172
     1
176
   256
177
   256
178
     2
271
     2
272
     2
275
     1
283
     0
284
     8
340
11
341
59
342
59
371
    -1
372
    -1
  0
DIMSTYLE
105
62
330
A
100
AcDbSymbolTableRecord
100
AcDbDimStyleTableRecord
  2
AM_JIS$7
 70
     0
  4
"
 41
2.699999999999999
 42
1.0
 43
10.0
 44
1.0
 47
0.1
 48
0.1000000001
 73
     0
 74
     0
 77
     3
 78
     8
 79
     2
140
3.5
141
0.0
143
0.0393701
146
0.71
147
1.5
172
     1
176
     3
177
   256
178
     2
271
     2
272
     2
275
     1
283
     0
284
     8
340
11
341
59
342
59
371
    -1
372
    -1
  0
DIMSTYLE
105
63
330
A
100
AcDbSymbolTableRecord
100
AcDbDimStyleTableRecord
  2
AM_JIS$SF
 70
     0
  4
"
 41
2.5
 42
1.0
 43
10.0
 44
1.0
 47
0.1
 48
0.1
 73
     0
 74
     0
 75
     1
 76
     1
 77
     3
 78
     8
 79
     2
140
3.5
141
0.0
143
0.0393701
146
0.71
147
1.5
172
     1
176
   256
177
   256
178
     2
271
     2
272
     3
274
     4
283
     0
284
     8
340
11
341
59
342
59
343
59
344
59
371
    -1
372
    -1
  0
DIMSTYLE
105
68
330
A
100
AcDbSymbolTableRecord
100
AcDbDimStyleTableRecord
  2
AM_JIS$SH
 70
     0
  4
"
 41
2.5
 42
1.0
 43
10.0
 44
1.0
 47
0.1
 48
0.1
 73
     0
 74
     0
 75
     1
 76
     1
 77
     3
 78
     8
 79
     2
140
3.5
141
0.0
143
0.0393701
144
2.0
146
0.71
147
1.5
172
     1
173
     1
176
   256
177
   256
178
     2
271
     2
272
     3
274
     4
283
     0
284
     8
340
11
341
59
342
59
343
64
344
59
371
    -1
372
    -1
  0
DIMSTYLE
105
B34
330
A
100
AcDbSymbolTableRecord
100
AcDbDimStyleTableRecord
  2
AM_JIS$2
 70
     0
  4
"
 41
2.699999999999999
 42
0.0
 43
7.0
 44
0.5
 47
0.1
 48
0.1000000001
 73
     0
 74
     0
 77
     3
 78
     8
 79
     2
140
3.5
141
0.0
143
0.0393701
146
0.71
147
1.0
172
     1
176
     3
177
     3
178
     2
179
     1
271
     2
272
     2
275
     1
283
     0
284
     8
340
11
341
59
342
59
371
    -1
372
    -1
  0
DIMSTYLE
105
3B48
102
{ACAD_REACTORS
330
C754
330
C621
330
C6BF
330
C580
330
C4AC
330
C3D8
102
}
330
A
100
AcDbSymbolTableRecord
100
AcDbDimStyleTableRecord
  2
AM_JIS$0
 70
     0
  4
"
 41
2.699999999999999
 42
0.0
 43
7.0
 44
0.5
 47
0.1
 48
0.1000000001
 73
     0
 74
     0
 77
     3
 78
     8
 79
     2
140
3.5
141
0.0
143
0.0393701
146
0.71
147
1.0
172
     1
176
     3
177
     3
178
     2
179
     1
271
     2
272
     2
275
     1
283
     0
284
     8
340
11
341
59
342
59
371
    -1
372
    -1
  0
DIMSTYLE
105
CC90
330
A
100
AcDbSymbolTableRecord
100
AcDbDimStyleTableRecord
  2
AM_ISO
 70
     0
  4
"
 41
2.5
 42
1.0
 43
10.0
 44
1.0
 47
0.1
 48
0.1
 73
     0
 74
     0
 77
     1
 78
     8
 79
     2
140
3.5
141
0.0
143
0.0393701
146
0.71
147
1.5
172
     1
176
   256
177
   256
178
     2
271
     2
272
     3
274
     4
283
     0
284
     8
340
11
371
    -1
372
    -1
  0
DIMSTYLE
105
CC91
330
A
100
AcDbSymbolTableRecord
100
AcDbDimStyleTableRecord
  2
AM_ISO$3
 70
     0
  4
"
 41
2.5
 42
1.0
 43
10.0
 44
1.0
 47
0.1
 48
0.1
 73
     0
 77
     1
 78
     8
 79
     2
140
3.5
141
0.0
143
0.0393701
146
0.71
147
1.5
176
   256
177
   256
178
     2
271
     2
272
     3
274
     4
283
     0
284
     8
288
     1
289
     0
340
11
371
    -1
372
    -1
  0
DIMSTYLE
105
CC92
330
A
100
AcDbSymbolTableRecord
100
AcDbDimStyleTableRecord
  2
AM_ISO$4
 70
     0
  4
"
 41
2.5
 42
1.0
 43
10.0
 44
1.0
 47
0.1
 48
0.1
 73
     0
 77
     1
 78
     8
 79
     2
140
3.5
141
0.0
143
0.0393701
146
0.71
147
1.5
176
   256
177
   256
178
     2
271
     2
272
     3
274
     4
283
     0
284
     8
288
     1
289
     0
340
11
371
    -1
372
    -1
  0
DIMSTYLE
105
CC93
330
A
100
AcDbSymbolTableRecord
100
AcDbDimStyleTableRecord
  2
AM_ISO$6
 70
     0
  4
"
 41
2.5
 42
1.0
 43
10.0
 44
1.0
 47
0.1
 48
0.1
 73
     0
 74
     0
 78
     8
 79
     2
140
3.5
141
0.0
143
0.0393701
146
0.71
147
1.5
172
     1
176
   256
177
   256
178
     2
271
     2
272
     3
274
     4
283
     0
284
     8
340
11
371
    -1
372
    -1
  0
DIMSTYLE
105
CC94
330
A
100
AcDbSymbolTableRecord
100
AcDbDimStyleTableRecord
  2
AM_ISO$7
 70
     0
  4
"
 41
2.5
 42
1.0
 43
10.0
 44
1.0
 47
0.1
 48
0.1
 73
     0
 74
     0
 77
     1
 78
     8
 79
     2
140
5.0
141
0.0
143
0.0393701
146
0.71
147
1.5
172
     1
176
   256
177
   256
178
     2
271
     2
272
     3
274
     4
283
     0
284
     8
340
11
371
    -1
372
    -1
  0
DIMSTYLE
105
CC95
330
A
100
AcDbSymbolTableRecord
100
AcDbDimStyleTableRecord
  2
AM_ISO$SF
 70
     0
  4
"
 41
2.5
 42
1.0
 43
10.0
 44
1.0
 47
0.1
 48
0.1
 73
     0
 74
     0
 75
     1
 76
     1
 77
     1
 78
     8
 79
     2
140
3.5
141
0.0
143
0.0393701
146
0.71
147
1.5
172
     1
176
   256
177
   256
178
     2
271
     2
272
     3
274
     4
283
     0
284
     8
340
11
371
    -1
372
    -1
  0
DIMSTYLE
105
CC96
330
A
100
AcDbSymbolTableRecord
100
AcDbDimStyleTableRecord
  2
AM_ISO$SH
 70
     0
  4
"
 41
2.5
 42
1.0
 43
10.0
 44
1.0
 47
0.1
 48
0.1
 73
     0
 74
     0
 75
     1
 76
     1
 77
     1
 78
     8
 79
     2
140
3.5
141
0.0
143
0.0393701
144
2.0
146
0.71
147
1.5
172
     1
173
     1
176
   256
177
   256
178
     2
271
     2
272
     3
274
     4
283
     0
284
     8
340
11
343
64
371
    -1
372
    -1
  0
ENDTAB
  0
TABLE
  2
BLOCK_RECORD
  5
1
330
0
100
AcDbSymbolTable
 70
     9
  0
BLOCK_RECORD
  5
1F
102
{ACAD_XDICTIONARY
360
74
102
}
330
1
100
AcDbSymbolTableRecord
100
AcDbBlockTableRecord
  2
*MODEL_SPACE
340
CC05
  0
BLOCK_RECORD
  5
101
102
{ACAD_XDICTIONARY
360
CBC3
102
}
330
1
100
AcDbSymbolTableRecord
100
AcDbBlockTableRecord
  2
*PAPER_SPACE
340
CC06
  0
BLOCK_RECORD
  5
59
330
1
100
AcDbSymbolTableRecord
100
AcDbBlockTableRecord
  2
_Open30
340
0
  0
BLOCK_RECORD
  5
64
330
1
100
AcDbSymbolTableRecord
100
AcDbBlockTableRecord
  2
GENAXEH
340
0
  0
BLOCK_RECORD
  5
C3D9
330
1
100
AcDbSymbolTableRecord
100
AcDbBlockTableRecord
  2
*D2
340
0
  0
BLOCK_RECORD
  5
C4AD
330
1
100
AcDbSymbolTableRecord
100
AcDbBlockTableRecord
  2
*D3
340
0
  0
BLOCK_RECORD
  5
C581
330
1
100
AcDbSymbolTableRecord
100
AcDbBlockTableRecord
  2
*D4
340
0
  0
BLOCK_RECORD
  5
C622
330
1
100
AcDbSymbolTableRecord
100
AcDbBlockTableRecord
  2
*D5
340
0
  0
BLOCK_RECORD
  5
C6C0
330
1
100
AcDbSymbolTableRecord
100
AcDbBlockTableRecord
  2
*D6
340
0
  0
BLOCK_RECORD
  5
C755
330
1
100
AcDbSymbolTableRecord
100
AcDbBlockTableRecord
  2
*D7
340
0
  0
ENDTAB
  0
ENDSEC
  0
SECTION
  2
BLOCKS
  0
BLOCK
  5
20
330
1F
100
AcDbEntity
  8
0
100
AcDbBlockBegin
  2
*MODEL_SPACE
 70
     0
 10
0.0
 20
0.0
 30
0.0
  3
*MODEL_SPACE
  1

  0
ENDBLK
  5
21
330
1F
100
AcDbEntity
  8
0
100
AcDbBlockEnd
  0
BLOCK
  5
103
330
101
100
AcDbEntity
 67
     1
  8
0
100
AcDbBlockBegin
  2
*PAPER_SPACE
 70
     0
 10
0.0
 20
0.0
 30
0.0
  3
*PAPER_SPACE
  1

  0
ENDBLK
  5
104
330
101
100
AcDbEntity
 67
     1
  8
0
100
AcDbBlockEnd
  0
BLOCK
  5
CCB8
330
59
100
AcDbEntity
  8
0
100
AcDbBlockBegin
  2
_Open30
 70
     0
 10
0.0
 20
0.0
 30
0.0
  3
_Open30
  1

  0
LINE
  5
CCB9
330
59
100
AcDbEntity
  8
0
  6
ByBlock
 62
     0
370
    -2
100
AcDbLine
 10
-1.0
 20
0.26794919
 30
0.0
 11
0.0
 21
0.0
 31
0.0
  0
LINE
  5
CCBA
330
59
100
AcDbEntity
  8
0
  6
ByBlock
 62
     0
370
    -2
100
AcDbLine
 10
0.0
 20
0.0
 30
0.0
 11
-1.0
 21
-0.26794919
 31
0.0
  0
LINE
  5
CCBB
330
59
100
AcDbEntity
  8
0
  6
ByBlock
 62
     0
370
    -2
100
AcDbLine
 10
0.0
 20
0.0
 30
0.0
 11
-1.0
 21
0.0
 31
0.0
  0
ENDBLK
  5
CCBC
330
59
100
AcDbEntity
  8
0
100
AcDbBlockEnd
  0
BLOCK
  5
CC98
330
64
100
AcDbEntity
  8
0
100
AcDbBlockBegin
  2
GENAXEH
 70
     0
 10
0.0
 20
0.0
 30
0.0
  3
GENAXEH
  1

  0
LINE
  5
CC99
330
64
100
AcDbEntity
  8
0
100
AcDbLine
 10
-1.0
 20
0.0
 30
0.0
 11
1.0
 21
0.0
 31
0.0
  0
ENDBLK
  5
CC9A
330
64
100
AcDbEntity
  8
0
100
AcDbBlockEnd
  0
BLOCK
  5
C3E3
330
C3D9
100
AcDbEntity
  8
0
100
AcDbBlockBegin
  2
*D2
 70
     1
 10
0.0
 20
0.0
 30
0.0
  3
*D2
  1

  0
LINE
  5
CBC5
330
C3D9
100
AcDbEntity
  8
AM_5
100
AcDbLine
 10
-0.0000000000002994
 20
12.00000000000015
 30
0.0
 11
-0.0000000000003019
 21
25.43000511987314
 31
0.0
  0
LINE
  5
CBC6
330
C3D9
100
AcDbEntity
  8
AM_5
100
AcDbLine
 10
-17.00000000000029
 20
12.00000000000008
 30
0.0
 11
-17.0000000000003
 21
25.43000511987313
 31
0.0
  0
LINE
  5
CBC7
330
C3D9
100
AcDbEntity
  8
AM_5
100
AcDbLine
 10
-2.5000000000003
 20
24.43000511987313
 30
0.0
 11
-14.5000000000003
 21
24.43000511987313
 31
0.0
  0
INSERT
  5
CBC8
330
C3D9
100
AcDbEntity
  8
AM_5
100
AcDbBlockReference
  2
_Open30
 10
-0.0000000000003017
 20
24.43000511987313
 30
0.0
 41
2.5
 42
2.5
 43
2.5
  0
INSERT
  5
CBC9
330
C3D9
100
AcDbEntity
  8
AM_5
100
AcDbBlockReference
  2
_Open30
 10
-17.0000000000003
 20
24.43000511987313
 30
0.0
 41
2.5
 42
2.5
 43
2.5
 50
180.0
  0
MTEXT
  5
CBCA
330
C3D9
100
AcDbEntity
  8
AM_5
 62
     2
100
AcDbMText
 10
-8.5000000000003
 20
27.03000511987313
 30
0.0
 40
3.2
 41
0.0
 71
     5
 72
     1
  1
17
  7
ASAMI
 73
     1
 44
1.0
1001
ACAD
1000
MTEXTBEGIN
1070
    73
1070
     1
1070
    44
1040
1.0
1070
    74
1070
     0
1000
MTEXTEND
  0
POINT
  5
CBCB
330
C3D9
100
AcDbEntity
  8
DEFPOINTS
 62
     0
100
AcDbPoint
 10
-0.0000000000002779
 20
10.50000000000014
 30
0.0
  0
POINT
  5
CBCC
330
C3D9
100
AcDbEntity
  8
DEFPOINTS
 62
     0
100
AcDbPoint
 10
-17.00000000000027
 20
10.50000000000011
 30
0.0
  0
POINT
  5
CBCD
330
C3D9
100
AcDbEntity
  8
DEFPOINTS
 62
     0
100
AcDbPoint
 10
-17.00000000000025
 20
24.43000511987317
 30
0.0
  0
ENDBLK
  5
C3E4
330
C3D9
100
AcDbEntity
  8
0
100
AcDbBlockEnd
  0
BLOCK
  5
C4B7
330
C4AD
100
AcDbEntity
  8
0
100
AcDbBlockBegin
  2
*D3
 70
     1
 10
0.0
 20
0.0
 30
0.0
  3
*D3
  1

  0
LINE
  5
CBCE
330
C4AD
100
AcDbEntity
  8
AM_5
100
AcDbLine
 10
1.499999999999698
 20
10.50000000000015
 30
0.0
 11
17.45552925927773
 21
10.50000000000018
 31
0.0
  0
LINE
  5
CBCF
330
C4AD
100
AcDbEntity
  8
AM_5
100
AcDbLine
 10
1.499999999999784
 20
-10.49999999999984
 30
0.0
 11
17.45552925927777
 21
-10.49999999999981
 31
0.0
  0
LINE
  5
CBD0
330
C4AD
100
AcDbEntity
  8
AM_5
100
AcDbLine
 10
16.45552925927773
 20
8.000000000000181
 30
0.0
 11
16.45552925927775
 21
-7.999999999999817
 31
0.0
  0
INSERT
  5
CBD1
330
C4AD
100
AcDbEntity
  8
AM_5
100
AcDbBlockReference
  2
_Open30
 10
16.45552925927773
 20
10.50000000000018
 30
0.0
 41
2.5
 42
2.5
 43
2.5
 50
90.0000000000001
  0
INSERT
  5
CBD2
330
C4AD
100
AcDbEntity
  8
AM_5
100
AcDbBlockReference
  2
_Open30
 10
16.45552925927777
 20
-10.49999999999981
 30
0.0
 41
2.5
 42
2.5
 43
2.5
 50
270.0000000000001
  0
MTEXT
  5
CBD3
330
C4AD
100
AcDbEntity
  8
AM_5
 62
     2
100
AcDbMText
 10
13.85552925927775
 20
0.0000000000001756
 30
0.0
 40
3.2
 41
0.0
 71
     5
 72
     1
  1
%%c21
  7
ASAMI
 11
-0.000000000000002
 21
1.0
 31
0.0
 73
     1
 44
1.0
1001
ACAD
1000
MTEXTBEGIN
1070
    73
1070
     1
1070
    44
1040
1.0
1070
    74
1070
     0
1000
MTEXTEND
  0
POINT
  5
CBD4
330
C4AD
100
AcDbEntity
  8
DEFPOINTS
 62
     0
100
AcDbPoint
 10
-0.0000000000002779
 20
10.50000000000014
 30
0.0
  0
POINT
  5
CBD5
330
C4AD
100
AcDbEntity
  8
DEFPOINTS
 62
     0
100
AcDbPoint
 10
-0.0000000000002376
 20
-10.49999999999984
 30
0.0
  0
POINT
  5
CBD6
330
C4AD
100
AcDbEntity
  8
DEFPOINTS
 62
     0
100
AcDbPoint
 10
16.45552925927774
 20
-10.49999999999985
 30
0.0
  0
ENDBLK
  5
C4B8
330
C4AD
100
AcDbEntity
  8
0
100
AcDbBlockEnd
  0
BLOCK
  5
C58B
330
C581
100
AcDbEntity
  8
0
100
AcDbBlockBegin
  2
*D4
 70
     1
 10
0.0
 20
0.0
 30
0.0
  3
*D4
  1

  0
LINE
  5
CBD7
330
C581
100
AcDbEntity
  8
AM_5
100
AcDbLine
 10
-0.0000000000002134
 20
-11.99999999999984
 30
0.0
 11
-0.0000000000001871
 21
-25.43000511987284
 31
0.0
  0
LINE
  5
CBD8
330
C581
100
AcDbEntity
  8
AM_5
100
AcDbLine
 10
-34.99999046325624
 20
-11.25000381469699
 30
0.0
 11
-34.99999046325621
 21
-25.43000511987291
 31
0.0
  0
LINE
  5
CBD9
330
C581
100
AcDbEntity
  8
AM_5
100
AcDbLine
 10
-2.500000000000188
 20
-24.43000511987285
 30
0.0
 11
-32.49999046325621
 21
-24.43000511987291
 31
0.0
  0
INSERT
  5
CBDA
330
C581
100
AcDbEntity
  8
AM_5
100
AcDbBlockReference
  2
_Open30
 10
-0.000000000000189
 20
-24.43000511987284
 30
0.0
 41
2.5
 42
2.5
 43
2.5
 50
0.0000000000001018
  0
INSERT
  5
CBDB
330
C581
100
AcDbEntity
  8
AM_5
100
AcDbBlockReference
  2
_Open30
 10
-34.99999046325621
 20
-24.43000511987291
 30
0.0
 41
2.5
 42
2.5
 43
2.5
 50
180.0000000000001
  0
MTEXT
  5
CBDC
330
C581
100
AcDbEntity
  8
AM_5
 62
     2
100
AcDbMText
 10
-17.4999952316282
 20
-21.83000511987287
 30
0.0
 40
3.2
 41
0.0
 71
     5
 72
     1
  1
35
  7
ASAMI
 73
     1
 44
1.0
1001
ACAD
1000
MTEXTBEGIN
1070
    73
1070
     1
1070
    44
1040
1.0
1070
    74
1070
     0
1000
MTEXTEND
  0
POINT
  5
CBDD
330
C581
100
AcDbEntity
  8
DEFPOINTS
 62
     0
100
AcDbPoint
 10
-0.0000000000002376
 20
-10.49999999999984
 30
0.0
  0
POINT
  5
CBDE
330
C581
100
AcDbEntity
  8
DEFPOINTS
 62
     0
100
AcDbPoint
 10
-34.99999046325626
 20
-9.750003814696922
 30
0.0
  0
POINT
  5
CBDF
330
C581
100
AcDbEntity
  8
DEFPOINTS
 62
     0
100
AcDbPoint
 10
-34.99999046325626
 20
-24.43000511987284
 30
0.0
  0
ENDBLK
  5
C58C
330
C581
100
AcDbEntity
  8
0
100
AcDbBlockEnd
  0
BLOCK
  5
C62C
330
C622
100
AcDbEntity
  8
0
100
AcDbBlockBegin
  2
*D5
 70
     1
 10
0.0
 20
0.0
 30
0.0
  3
*D5
  1

  0
LINE
  5
CBE0
330
C622
100
AcDbEntity
  8
AM_5
100
AcDbLine
 10
-34.99999046325624
 20
-11.25000381469699
 30
0.0
 11
-34.99999046325621
 21
-25.43000511987291
 31
0.0
  0
LINE
  5
CBE1
330
C622
100
AcDbEntity
  8
AM_5
100
AcDbLine
 10
-185.0000002384178
 20
-9.161502838135637
 30
0.0
 11
-185.0000002384178
 21
-25.43000511987322
 31
0.0
  0
LINE
  5
CBE2
330
C622
100
AcDbEntity
  8
AM_5
100
AcDbLine
 10
-37.49999046325621
 20
-24.43000511987293
 30
0.0
 11
-182.5000002384178
 21
-24.43000511987321
 31
0.0
  0
INSERT
  5
CBE3
330
C622
100
AcDbEntity
  8
AM_5
100
AcDbBlockReference
  2
_Open30
 10
-34.99999046325621
 20
-24.43000511987291
 30
0.0
 41
2.5
 42
2.5
 43
2.5
 50
0.0000000000001018
  0
INSERT
  5
CBE4
330
C622
100
AcDbEntity
  8
AM_5
100
AcDbBlockReference
  2
_Open30
 10
-185.0000002384178
 20
-24.43000511987321
 30
0.0
 41
2.5
 42
2.5
 43
2.5
 50
180.0000000000001
  0
MTEXT
  5
CBE5
330
C622
100
AcDbEntity
  8
AM_5
 62
     2
100
AcDbMText
 10
-109.999995350837
 20
-21.83000511987307
 30
0.0
 40
3.2
 41
0.0
 71
     5
 72
     1
  1
150
  7
ASAMI
 73
     1
 44
1.0
1001
ACAD
1000
MTEXTBEGIN
1070
    73
1070
     1
1070
    44
1040
1.0
1070
    74
1070
     0
1000
MTEXTEND
  0
POINT
  5
CBE6
330
C622
100
AcDbEntity
  8
DEFPOINTS
 62
     0
100
AcDbPoint
 10
-34.99999046325626
 20
-9.750003814696922
 30
0.0
  0
POINT
  5
CBE7
330
C622
100
AcDbEntity
  8
DEFPOINTS
 62
     0
100
AcDbPoint
 10
-185.0000002384178
 20
-7.661502838135263
 30
0.0
  0
POINT
  5
CBE8
330
C622
100
AcDbEntity
  8
DEFPOINTS
 62
     0
100
AcDbPoint
 10
-185.0000002384178
 20
-24.43000511987284
 30
0.0
  0
ENDBLK
  5
C62D
330
C622
100
AcDbEntity
  8
0
100
AcDbBlockEnd
  0
BLOCK
  5
C6CA
330
C6C0
100
AcDbEntity
  8
0
100
AcDbBlockBegin
  2
*D6
 70
     1
 10
0.0
 20
0.0
 30
0.0
  3
*D6
  1

  0
LINE
  5
CBE9
330
C6C0
100
AcDbEntity
  8
AM_5
100
AcDbLine
 10
-0.0000000000002134
 20
-11.99999999999984
 30
0.0
 11
-0.0000000000001675
 21
-35.43000511987284
 31
0.0
  0
LINE
  5
CBEA
330
C6C0
100
AcDbEntity
  8
AM_5
100
AcDbLine
 10
-184.9999999999992
 20
-9.161502838135637
 30
0.0
 11
-184.9999999999991
 21
-35.43000511987322
 31
0.0
  0
LINE
  5
CBEB
330
C6C0
100
AcDbEntity
  8
AM_5
100
AcDbLine
 10
-2.500000000000169
 20
-34.43000511987285
 30
0.0
 11
-182.4999999999992
 21
-34.43000511987321
 31
0.0
  0
INSERT
  5
CBEC
330
C6C0
100
AcDbEntity
  8
AM_5
100
AcDbBlockReference
  2
_Open30
 10
-0.0000000000001694
 20
-34.43000511987284
 30
0.0
 41
2.5
 42
2.5
 43
2.5
 50
0.0000000000001018
  0
INSERT
  5
CBED
330
C6C0
100
AcDbEntity
  8
AM_5
100
AcDbBlockReference
  2
_Open30
 10
-184.9999999999992
 20
-34.43000511987322
 30
0.0
 41
2.5
 42
2.5
 43
2.5
 50
180.0000000000001
  0
MTEXT
  5
CBEE
330
C6C0
100
AcDbEntity
  8
AM_5
 62
     2
100
AcDbMText
 10
-92.49999999999969
 20
-31.83000511987303
 30
0.0
 40
3.2
 41
0.0
 71
     5
 72
     1
  1
185
  7
ASAMI
 73
     1
 44
1.0
1001
ACAD
1000
MTEXTBEGIN
1070
    73
1070
     1
1070
    44
1040
1.0
1070
    74
1070
     0
1000
MTEXTEND
  0
POINT
  5
CBEF
330
C6C0
100
AcDbEntity
  8
DEFPOINTS
 62
     0
100
AcDbPoint
 10
-0.0000000000002376
 20
-10.49999999999984
 30
0.0
  0
POINT
  5
CBF0
330
C6C0
100
AcDbEntity
  8
DEFPOINTS
 62
     0
100
AcDbPoint
 10
-184.9999999999992
 20
-7.661502838135263
 30
0.0
  0
POINT
  5
CBF1
330
C6C0
100
AcDbEntity
  8
DEFPOINTS
 62
     0
100
AcDbPoint
 10
-184.9999999999992
 20
-34.43000511987284
 30
0.0
  0
ENDBLK
  5
C6CB
330
C6C0
100
AcDbEntity
  8
0
100
AcDbBlockEnd
  0
BLOCK
  5
C75F
330
C755
100
AcDbEntity
  8
0
100
AcDbBlockBegin
  2
*D7
 70
     1
 10
0.0
 20
0.0
 30
0.0
  3
*D7
  1

  0
LINE
  5
CBF2
330
C755
100
AcDbEntity
  8
AM_5
100
AcDbLine
 10
-183.4999923705993
 20
9.999984741210315
 30
0.0
 11
-202.2789469228493
 21
9.99998474121028
 31
0.0
  0
LINE
  5
CBF3
330
C755
100
AcDbEntity
  8
AM_5
100
AcDbLine
 10
-183.4999923705991
 20
-10.00000381469765
 30
0.0
 11
-202.2789469228492
 21
-10.00000381469769
 31
0.0
  0
LINE
  5
CBF4
330
C755
100
AcDbEntity
  8
AM_5
100
AcDbLine
 10
-201.2789469228493
 20
7.499984741210282
 30
0.0
 11
-201.2789469228492
 21
-7.500003814697691
 31
0.0
  0
INSERT
  5
CBF5
330
C755
100
AcDbEntity
  8
AM_5
100
AcDbBlockReference
  2
_Open30
 10
-201.2789469228493
 20
9.999984741210283
 30
0.0
 41
2.5
 42
2.5
 43
2.5
 50
90.0000000000001
  0
INSERT
  5
CBF6
330
C755
100
AcDbEntity
  8
AM_5
100
AcDbBlockReference
  2
_Open30
 10
-201.2789469228492
 20
-10.00000381469769
 30
0.0
 41
2.5
 42
2.5
 43
2.5
 50
270.0000000000001
  0
MTEXT
  5
CBF7
330
C755
100
AcDbEntity
  8
AM_5
 62
     2
100
AcDbMText
 10
-203.8789469228492
 20
-0.0000095367437021
 30
0.0
 40
3.2
 41
0.0
 71
     5
 72
     1
  1
%%c20
  7
ASAMI
 11
-0.000000000000002
 21
1.0
 31
0.0
 73
     1
 44
1.0
1001
ACAD
1000
MTEXTBEGIN
1070
    73
1070
     1
1070
    44
1040
1.0
1070
    74
1070
     0
1000
MTEXTEND
  0
POINT
  5
CBF8
330
C755
100
AcDbEntity
  8
DEFPOINTS
 62
     0
100
AcDbPoint
 10
-181.9999923705992
 20
9.999984741210724
 30
0.0
  0
POINT
  5
CBF9
330
C755
100
AcDbEntity
  8
DEFPOINTS
 62
     0
100
AcDbPoint
 10
-181.9999923705992
 20
-10.00000381469725
 30
0.0
  0
POINT
  5
CBFA
330
C755
100
AcDbEntity
  8
DEFPOINTS
 62
     0
100
AcDbPoint
 10
-201.2789469228493
 20
-10.00000381469724
 30
0.0
  0
ENDBLK
  5
C760
330
C755
100
AcDbEntity
  8
0
100
AcDbBlockEnd
  0
ENDSEC
  0
SECTION
  2
ENTITIES
  0
TEXT
  5
388D
330
1F
100
AcDbEntity
  8
AM_6
100
AcDbText
 10
-116.0714285714283
 20
-56.93000511987296
 30
0.0
 40
5.0
  1
WMM2021ELH
 50
359.9999999999998
 51
359.9999999999998
 72
     4
 11
-92.49999999999969
 21
-54.43000511987303
 31
0.0
100
AcDbText
  0
LINE
  5
C0A7
330
1F
100
AcDbEntity
  8
AM_3
100
AcDbLine
 10
-181.9999999999992
 20
2.999999999999725
 30
0.0
 11
-35.00000000000031
 21
3.000000000000066
 31
0.0
  0
LINE
  5
C0A8
330
1F
100
AcDbEntity
  8
AM_3
100
AcDbLine
 10
-181.9999999999992
 20
-3.000000000000272
 30
0.0
 11
-34.99999046325625
 21
-2.999999999999932
 31
0.0
  0
LINE
  5
C0A9
330
1F
100
AcDbEntity
  8
AM_0
100
AcDbLine
 10
-35.43300437927233
 20
10.00000381469705
 30
0.0
 11
-181.9999999999993
 21
10.0000038146967
 31
0.0
  0
LINE
  5
C0AA
330
1F
100
AcDbEntity
  8
AM_0
100
AcDbLine
 10
-181.9999999999991
 20
-9.999996185303288
 30
0.0
 11
-35.43300437927228
 21
-9.999996185302894
 31
0.0
  0
LINE
  5
C0AB
330
1F
100
AcDbEntity
  8
AM_7
100
AcDbLine
 10
-187.2789459228492
 20
-0.0000000000002842
 30
0.0
 11
2.455528259277715
 21
0.0000000000001563
 31
0.0
  0
SPLINE
  5
C0BD
330
1F
100
AcDbEntity
  8
AM_0
100
AcDbSpline
210
0.0
220
0.0
230
1.0
 70
     8
 71
     3
 72
    11
 73
     7
 74
     5
 42
0.0000000001
 43
0.0000000001
 44
0.0000000001
 40
0.0
 40
0.0
 40
0.0
 40
0.0
 40
0.0095706672008583
 40
0.0198957272639645
 40
0.0309994821186773
 40
0.0429000194872976
 40
0.0429000194872976
 40
0.0429000194872976
 40
0.0429000194872976
 10
-33.85020256042429
 20
9.446308135986074
 30
0.0
 10
-33.84799834088453
 20
9.443999687832082
 30
0.0
 10
-33.84341615764981
 20
9.439200831711511
 30
0.0
 10
-33.83559519901743
 20
9.432428495109048
 30
0.0
 10
-33.82682177814124
 20
9.425603829730805
 30
0.0
 10
-33.82047399406037
 20
9.421298449004117
 30
0.0
 10
-33.81719017028832
 20
9.419071197510064
 30
0.0
 11
-33.85020256042429
 21
9.446308135986074
 31
0.0
 11
-33.8434886932373
 21
9.439487457276072
 31
0.0
 11
-33.83573722839329
 21
9.432666778565065
 31
0.0
 11
-33.82696342468231
 21
9.425861358643075
 31
0.0
 11
-33.81719017028832
 21
9.419071197510064
 31
0.0
  0
SPLINE
  5
C0BE
330
1F
100
AcDbEntity
  8
AM_0
100
AcDbSpline
210
0.0
220
0.0
230
1.0
 70
     8
 71
     3
 72
    11
 73
     7
 74
     5
 42
0.0000000001
 43
0.0000000001
 44
0.0000000001
 40
0.0
 40
0.0
 40
0.0
 40
0.0
 40
0.923991031459322
 40
1.890419256493973
 40
2.881466814003779
 40
3.884121466098175
 40
3.884121466098175
 40
3.884121466098175
 40
3.884121466098175
 10
-29.64286422729529
 20
5.709568023682072
 30
0.0
 10
-29.41323866277834
 20
5.502966003393315
 30
0.0
 10
-28.9434412576449
 20
5.080273115381644
 30
0.0
 10
-28.0965795936097
 20
4.612937168185866
 30
0.0
 10
-27.16129114229577
 20
4.275703329417892
 30
0.0
 10
-26.49825974070993
 20
4.205179348286637
 30
0.0
 10
-26.16481399536129
 20
4.16971206665108
 30
0.0
 11
-29.64286422729529
 21
5.709568023682072
 31
0.0
 11
-28.93349075317328
 21
5.117496490479079
 31
0.0
 11
-28.09328842163031
 21
4.639957427979083
 31
0.0
 11
-27.15678024292028
 21
4.315723419190095
 31
0.0
 11
-26.16481399536129
 21
4.16971206665108
 31
0.0
  0
SPLINE
  5
C0BF
330
1F
100
AcDbEntity
  8
AM_0
100
AcDbSpline
210
0.0
220
0.0
230
1.0
 70
     8
 71
     3
 72
    11
 73
     7
 74
     5
 42
0.0000000001
 43
0.0000000001
 44
0.0000000001
 40
0.0
 40
0.0
 40
0.0
 40
0.0
 40
0.3157186114998441
 40
0.5988154891718303
 40
0.7896355507104125
 40
0.8644428250385088
 40
0.8644428250385088
 40
0.8644428250385088
 40
0.8644428250385088
 10
-33.0550975799563
 20
9.608951568604059
 30
0.0
 10
-33.16276499350187
 20
9.608606940152771
 30
0.0
 10
-33.36697504815739
 20
9.60795329210314
 30
0.0
 10
-33.60106093430848
 20
9.567986665147023
 30
0.0
 10
-33.84170928905208
 20
9.569314510333345
 30
0.0
 10
-33.84833624465482
 20
9.473337619224091
 30
0.0
 10
-33.85020256042429
 20
9.446308135986074
 30
0.0
 11
-33.0550975799563
 21
9.608951568604059
 31
0.0
 11
-33.37067985534631
 21
9.599674224854073
 31
0.0
 11
-33.65244865417429
 21
9.572284698486074
 31
0.0
 11
-33.8358898162843
 21
9.519733428955063
 31
0.0
 11
-33.85020256042429
 21
9.446308135986074
 31
0.0
  0
SPLINE
  5
C0C7
330
1F
100
AcDbEntity
  8
AM_0
100
AcDbSpline
210
0.0
220
0.0
230
1.0
 70
     8
 71
     3
 72
    11
 73
     7
 74
     5
 42
0.0000000001
 43
0.0000000001
 44
0.0000000001
 40
0.0
 40
0.0
 40
0.0
 40
0.0
 40
0.0391538492507623
 40
0.0783048512978689
 40
0.1174453720431923
 40
0.1565909428107132
 40
0.1565909428107132
 40
0.1565909428107132
 40
0.1565909428107132
 10
-10.57788848876928
 20
4.059070587158127
 30
0.0
 10
-10.56587027766558
 20
4.053952009916259
 30
0.0
 10
-10.54183472940278
 20
4.04371522764706
 30
0.0
 10
-10.50410320513909
 20
4.032970784430458
 30
0.0
 10
-10.46560212069457
 20
4.025479961830018
 30
0.0
 10
-10.43955134436388
 20
4.023622449906434
 30
0.0
 10
-10.42652511596628
 20
4.022693634033127
 30
0.0
 11
-10.57788848876928
 21
4.059070587158127
 31
0.0
 11
-10.54155349731428
 21
4.044483184815129
 31
0.0
 11
-10.50397109985327
 21
4.033512115479135
 31
0.0
 11
-10.46550750732428
 21
4.026264190674134
 31
0.0
 11
-10.42652511596628
 21
4.022693634033127
 31
0.0
  0
SPLINE
  5
C0C8
330
1F
100
AcDbEntity
  8
AM_0
100
AcDbSpline
210
0.0
220
0.0
230
1.0
 70
     8
 71
     3
 72
    11
 73
     7
 74
     5
 42
0.0000000001
 43
0.0000000001
 44
0.0000000001
 40
0.0
 40
0.0
 40
0.0
 40
0.0
 40
1.331083246439316
 40
2.672320200788902
 40
4.009166849742498
 40
5.350905344198986
 40
5.350905344198986
 40
5.350905344198986
 40
5.350905344198986
 10
-5.280708312988305
 20
8.852832794190126
 30
0.0
 10
-5.738321367519194
 20
8.760984614794736
 30
0.0
 10
-6.657038219405706
 20
8.576587623952455
 30
0.0
 10
-7.28957875547482
 20
7.191718887185352
 30
0.0
 10
-6.792392202529843
 20
5.74446780208015
 30
0.0
 10
-5.8869404411128
 20
5.485763069084744
 30
0.0
 10
-5.43338775634728
 20
5.356174468994131
 30
0.0
 11
-5.280708312988305
 21
8.852832794190126
 31
0.0
 11
-6.530216217041294
 21
8.394016265869126
 31
0.0
 11
-7.101211547851296
 21
7.180393218994136
 31
0.0
 11
-6.649982452392289
 21
5.922000885010135
 31
0.0
 11
-5.43338775634728
 21
5.356174468994131
 31
0.0
  0
SPLINE
  5
C0C9
330
1F
100
AcDbEntity
  8
AM_0
100
AcDbSpline
210
0.0
220
0.0
230
1.0
 70
     8
 71
     3
 72
    11
 73
     7
 74
     5
 42
0.0000000001
 43
0.0000000001
 44
0.0000000001
 40
0.0
 40
0.0
 40
0.0
 40
0.0
 40
1.139618209071811
 40
2.274984099010405
 40
3.411942149842031
 40
4.549778247886585
 40
4.549778247886585
 40
4.549778247886585
 40
4.549778247886585
 10
-5.43338775634728
 20
5.356174468994131
 30
0.0
 10
-5.043151695639536
 20
5.415896469426101
 30
0.0
 10
-4.264135683168437
 20
5.535117626355916
 30
0.0
 10
-3.559831356630259
 20
6.569914097130368
 30
0.0
 10
-3.598083960557911
 20
7.816425032662864
 30
0.0
 10
-4.180418902404976
 20
8.34502339374889
 30
0.0
 10
-4.471698760986294
 20
8.609424591065144
 30
0.0
 11
-5.43338775634728
 21
5.356174468994131
 31
0.0
 11
-4.340320587158299
 21
5.678562164307132
 31
0.0
 11
-3.683624267578295
 21
6.604740142822134
 31
0.0
 11
-3.737171173095295
 21
7.740436553955144
 31
0.0
 11
-4.471698760986294
 21
8.609424591065144
 31
0.0
  0
SPLINE
  5
C0CA
330
1F
100
AcDbEntity
  8
AM_0
100
AcDbSpline
210
0.0
220
0.0
230
1.0
 70
     8
 71
     3
 72
    11
 73
     7
 74
     5
 42
0.0000000001
 43
0.0000000001
 44
0.0000000001
 40
0.0
 40
0.0
 40
0.0
 40
0.0
 40
0.1145021849347522
 40
0.2294955518634518
 40
0.344952161145076
 40
0.4605399218683348
 40
0.4605399218683348
 40
0.4605399218683348
 40
0.4605399218683348
 10
0.0000076293947008
 20
9.774936676026159
 30
0.0
 10
-0.0001963943974056
 20
9.81338531427737
 30
0.0
 10
-0.0006053171859919
 20
9.890447524565217
 30
0.0
 10
-0.0426704275958686
 20
9.999708708540039
 30
0.0
 10
-0.1130488241794786
 20
10.09431070368637
 30
0.0
 10
-0.1800805362827793
 20
10.13363537266887
 30
0.0
 10
-0.2136154174802868
 20
10.15330886840813
 30
0.0
 11
0.0000076293947008
 21
9.774936676026159
 31
0.0
 11
-0.0074691772463084
 21
9.889194488526159
 31
0.0
 11
-0.0472869873043058
 21
9.997074127197151
 31
0.0
 11
-0.118026733398312
 21
10.08832168579115
 31
0.0
 11
-0.2136154174802868
 21
10.15330886840813
 31
0.0
  0
SPLINE
  5
C0CB
330
1F
100
AcDbEntity
  8
AM_0
100
AcDbSpline
210
0.0
220
0.0
230
1.0
 70
     8
 71
     3
 72
    11
 73
     7
 74
     5
 42
0.0000000001
 43
0.0000000001
 44
0.0000000001
 40
0.0
 40
0.0
 40
0.0
 40
0.0
 40
0.214038446085958
 40
0.4274153256317389
 40
0.6402632142209067
 40
0.8529789624204957
 40
0.8529789624204957
 40
0.8529789624204957
 40
0.8529789624204957
 10
-4.471698760986294
 20
8.609424591065144
 30
0.0
 10
-4.534285672185152
 20
8.643885965124772
 30
0.0
 10
-4.659266046129755
 20
8.712702197370719
 30
0.0
 10
-4.860696253205487
 20
8.785310023389312
 30
0.0
 10
-5.068304866665271
 20
8.835976484242362
 30
0.0
 10
-5.20992182188833
 20
8.847215187438674
 30
0.0
 10
-5.280708312988305
 20
8.852832794190126
 30
0.0
 11
-4.471698760986294
 21
8.609424591065144
 31
0.0
 11
-4.661838531494307
 21
8.707706451416136
 31
0.0
 11
-4.861965179443298
 21
8.781726837158139
 31
0.0
 11
-5.069183349609299
 21
8.830356597901136
 31
0.0
 11
-5.280708312988305
 21
8.852832794190126
 31
0.0
  0
SPLINE
  5
C0CC
330
1F
100
AcDbEntity
  8
AM_0
100
AcDbSpline
210
0.0
220
0.0
230
1.0
 70
     8
 71
     3
 72
    11
 73
     7
 74
     5
 42
0.0000000001
 43
0.0000000001
 44
0.0000000001
 40
0.0
 40
0.0
 40
0.0
 40
0.0
 40
2.22486970031089
 40
4.445004521331114
 40
6.66407881075502
 40
8.888906955864769
 40
8.888906955864769
 40
8.888906955864769
 40
8.888906955864769
 10
-10.42568206787128
 20
4.02266311645513
 30
0.0
 10
-9.68445272904607
 20
3.99782462279774
 30
0.0
 10
-8.203571506221683
 20
3.948200495778198
 30
0.0
 10
-5.982306750617721
 20
3.920503287048327
 30
0.0
 10
-3.761029422217169
 20
3.897425169271313
 30
0.0
 10
-2.280354644714519
 20
3.852986280968772
 30
0.0
 10
-1.53905868530228
 20
3.830738067627146
 30
0.0
 11
-10.42568206787128
 21
4.02266311645513
 31
0.0
 11
-8.201812744140285
 21
3.955951690674131
 31
0.0
 11
-5.981948852539277
 21
3.921268463135122
 31
0.0
 11
-3.763092041015285
 21
3.890201568604139
 31
0.0
 11
-1.53905868530228
 21
3.830738067627146
 31
0.0
  0
SPLINE
  5
C0CD
330
1F
100
AcDbEntity
  8
AM_0
100
AcDbSpline
210
0.0
220
0.0
230
1.0
 70
     8
 71
     3
 72
    11
 73
     7
 74
     5
 42
0.0000000001
 43
0.0000000001
 44
0.0000000001
 40
0.0
 40
0.0
 40
0.0
 40
0.0
 40
0.2881808781409564
 40
0.5746973435964986
 40
0.8595767477318686
 40
1.143886415551229
 40
1.143886415551229
 40
1.143886415551229
 40
1.143886415551229
 10
-1.53905868530228
 20
3.830738067627146
 30
0.0
 10
-1.442108480185484
 20
3.837244722190948
 30
0.0
 10
-1.248768013943633
 20
3.850220451592704
 30
0.0
 10
-0.9926203072484661
 20
3.995403559455766
 30
0.0
 10
-0.7962098904204714
 20
4.214035269045826
 30
0.0
 10
-0.7465726482377887
 20
4.399646460482179
 30
0.0
 10
-0.7217788696292807
 20
4.49235916137715
 30
0.0
 11
-1.53905868530228
 21
3.830738067627146
 31
0.0
 11
-1.253761291504276
 21
3.871402740479135
 31
0.0
 11
-1.001968383789277
 21
4.008121490479137
 31
0.0
 11
-0.816371917724272
 21
4.224246978760146
 31
0.0
 11
-0.7217788696292807
 21
4.49235916137715
 31
0.0
  0
SPLINE
  5
C0CE
330
1F
100
AcDbEntity
  8
AM_0
100
AcDbSpline
210
0.0
220
0.0
230
1.0
 70
     8
 71
     3
 72
    11
 73
     7
 74
     5
 42
0.0000000001
 43
0.0000000001
 44
0.0000000001
 40
0.0
 40
0.0
 40
0.0
 40
0.0
 40
1.05120994739696
 40
2.102503987974428
 40
3.153881543930773
 40
4.205373361251933
 40
4.205373361251933
 40
4.205373361251933
 40
4.205373361251933
 10
-0.7217788696292807
 20
4.49235916137715
 30
0.0
 10
-0.6683946886504191
 20
4.838672044483341
 30
0.0
 10
-0.5616220561418147
 20
5.531325514535341
 30
0.0
 10
-0.4015260495533862
 20
6.57035776851701
 30
0.0
 10
-0.2414671011320395
 20
7.609490796748845
 30
0.0
 10
-0.1348071683324567
 20
8.302284860453614
 30
0.0
 10
-0.0814743041992998
 20
8.648700714111159
 30
0.0
 11
-0.7217788696292807
 21
4.49235916137715
 31
0.0
 11
-0.5616378784182911
 21
5.531299591065148
 31
0.0
 11
-0.4015388488772946
 21
6.570331573486155
 31
0.0
 11
-0.2414855957033006
 21
7.609455108643145
 31
0.0
 11
-0.0814743041992998
 21
8.648700714111159
 31
0.0
  0
SPLINE
  5
C0CF
330
1F
100
AcDbEntity
  8
AM_0
100
AcDbSpline
210
0.0
220
0.0
230
1.0
 70
     8
 71
     3
 72
    11
 73
     7
 74
     5
 42
0.0000000001
 43
0.0000000001
 44
0.0000000001
 40
0.0
 40
0.0
 40
0.0
 40
0.0
 40
2.194472902325186
 40
4.360438377205463
 40
6.530451756496978
 40
8.730817281319767
 40
8.730817281319767
 40
8.730817281319767
 40
8.730817281319767
 10
-9.094455718994298
 20
10.37474441528312
 30
0.0
 10
-8.363270322945799
 20
10.35285744340493
 30
0.0
 10
-6.910398037120874
 20
10.30936782362547
 30
0.0
 10
-4.733623802304989
 20
10.28873060831423
 30
0.0
 10
-2.554913460254607
 20
10.26301982451812
 30
0.0
 10
-1.098889725518533
 20
10.21427385319161
 30
0.0
 10
-0.3658218383792928
 20
10.18973159790115
 30
0.0
 11
-9.094455718994298
 21
10.37474441528312
 31
0.0
 11
-6.900753021240293
 21
10.31660842895512
 31
0.0
 11
-4.734977722168298
 21
10.28790664672913
 31
0.0
 11
-2.565208435058297
 21
10.25535964965812
 31
0.0
 11
-0.3658218383792928
 21
10.18973159790115
 31
0.0
  0
SPLINE
  5
C0D0
330
1F
100
AcDbEntity
  8
AM_0
100
AcDbSpline
210
0.0
220
0.0
230
1.0
 70
     8
 71
     3
 72
    11
 73
     7
 74
     5
 42
0.0000000001
 43
0.0000000001
 44
0.0000000001
 40
0.0
 40
0.0
 40
0.0
 40
0.0
 40
0.2876807661057046
 40
0.5764620685640063
 40
0.8645893510410548
 40
1.15098016912598
 40
1.15098016912598
 40
1.15098016912598
 40
1.15098016912598
 10
-9.094455718994298
 20
10.37474441528312
 30
0.0
 10
-9.191208571828155
 20
10.36811498243282
 30
0.0
 10
-9.385084410102239
 20
10.35483075552386
 30
0.0
 10
-9.642930468504063
 20
10.20969434051099
 30
0.0
 10
-9.843972498636347
 20
9.992411497641267
 30
0.0
 10
-9.898663405772904
 20
9.806449098474145
 30
0.0
 10
-9.925926208496306
 20
9.713748931885117
 30
0.0
 11
-9.094455718994298
 21
10.37474441528312
 31
0.0
 11
-9.379245758056288
 21
10.33406448364311
 31
0.0
 11
-9.633678436279286
 21
10.19746780395511
 31
0.0
 11
-9.824481964111301
 21
9.981571197510117
 31
0.0
 11
-9.925926208496306
 21
9.713748931885117
 31
0.0
  0
SPLINE
  5
C0D1
330
1F
100
AcDbEntity
  8
AM_0
100
AcDbSpline
210
0.0
220
0.0
230
1.0
 70
     8
 71
     3
 72
    11
 73
     7
 74
     5
 42
0.0000000001
 43
0.0000000001
 44
0.0000000001
 40
0.0
 40
0.0
 40
0.0
 40
0.0
 40
1.054483916140446
 40
2.109035615385248
 40
3.163670133941291
 40
4.218386816081999
 40
4.218386816081999
 40
4.218386816081999
 40
4.218386816081999
 10
-9.925926208496306
 20
9.713748931885117
 30
0.0
 10
-9.988278358621879
 20
9.36782886766411
 30
0.0
 10
-10.11298666692117
 20
8.675966503192269
 30
0.0
 10
-10.29987917562239
 20
7.638102805034926
 30
0.0
 10
-10.48666539351549
 20
6.600141136729655
 30
0.0
 10
-10.61107017849494
 20
5.908117249091744
 30
0.0
 10
-10.67327499389628
 20
5.562091827393127
 30
0.0
 11
-9.925926208496306
 21
9.713748931885117
 31
0.0
 11
-10.11295318603529
 21
8.675983428955133
 31
0.0
 11
-10.29985427856429
 21
7.638126373291123
 31
0.0
 11
-10.48662948608429
 21
6.60016250610412
 31
0.0
 11
-10.67327499389628
 21
5.562091827393127
 31
0.0
  0
SPLINE
  5
C0D2
330
1F
100
AcDbEntity
  8
AM_0
100
AcDbSpline
210
0.0
220
0.0
230
1.0
 70
     8
 71
     3
 72
    11
 73
     7
 74
     5
 42
0.0000000001
 43
0.0000000001
 44
0.0000000001
 40
0.0
 40
0.0
 40
0.0
 40
0.0
 40
0.1142162745223267
 40
0.2282820139702393
 40
0.3424831931811009
 40
0.4571499234840758
 40
0.4571499234840758
 40
0.4571499234840758
 40
0.4571499234840758
 10
-10.78319168090827
 20
4.437076568604134
 30
0.0
 10
-10.78395474080164
 20
4.398725711169975
 30
0.0
 10
-10.78547985488862
 20
4.322074542068462
 30
0.0
 10
-10.74601967017755
 20
4.212663730585515
 30
0.0
 10
-10.67739023840023
 20
4.117915581623113
 30
0.0
 10
-10.61110068622247
 20
4.078712167155984
 30
0.0
 10
-10.57788848876928
 20
4.059070587158127
 30
0.0
 11
-10.78319168090827
 21
4.437076568604134
 31
0.0
 11
-10.77851486206028
 21
4.322956085205129
 31
0.0
 11
-10.74119567871128
 21
4.215167999268127
 31
0.0
 11
-10.67238235473627
 21
4.124027252197117
 31
0.0
 11
-10.57788848876928
 21
4.059070587158127
 31
0.0
  0
SPLINE
  5
C0D3
330
1F
100
AcDbEntity
  8
AM_0
100
AcDbSpline
210
0.0
220
0.0
230
1.0
 70
     8
 71
     3
 72
    11
 73
     7
 74
     5
 42
0.0000000001
 43
0.0000000001
 44
0.0000000001
 40
0.0
 40
0.0
 40
0.0
 40
0.0
 40
0.0391559972007826
 40
0.0783027261018986
 40
0.1174498237543523
 40
0.156590206753595
 40
0.156590206753595
 40
0.156590206753595
 40
0.156590206753595
 10
-0.2136154174802868
 20
10.15330886840813
 30
0.0
 10
-0.2256312733433305
 20
10.15843596253616
 30
0.0
 10
-0.2496601408932802
 20
10.16868893719919
 30
0.0
 10
-0.2874033237597402
 20
10.17939738853246
 30
0.0
 10
-0.3258961726943111
 20
10.18692447417899
 30
0.0
 10
-0.3519494528118127
 20
10.18876542504737
 30
0.0
 10
-0.3649749755862957
 20
10.18968582153314
 30
0.0
 11
-0.2136154174802868
 21
10.15330886840813
 31
0.0
 11
-0.2499465942382982
 21
10.16791152954116
 31
0.0
 11
-0.2875289916992926
 21
10.17886734008814
 31
0.0
 11
-0.3259963989252868
 21
10.18613052368214
 31
0.0
 11
-0.3649749755862957
 21
10.18968582153314
 31
0.0
  0
SPLINE
  5
C0E7
330
1F
100
AcDbEntity
  8
AM_0
100
AcDbSpline
210
0.0
220
0.0
230
1.0
 70
     8
 71
     3
 72
    11
 73
     7
 74
     5
 42
0.0000000001
 43
0.0000000001
 44
0.0000000001
 40
0.0
 40
0.0
 40
0.0
 40
0.0
 40
2.216474094400395
 40
4.415750769747745
 40
6.617623775329801
 40
8.837092860807295
 40
8.837092860807295
 40
8.837092860807295
 40
8.837092860807295
 10
-1.471096038818244
 20
-8.87127304077086
 30
0.0
 10
-1.371070518830469
 20
-8.139229317001412
 30
0.0
 10
-1.171795567683377
 20
-6.680821729522516
 30
0.0
 10
-0.8295492662376913
 20
-4.501605295443043
 30
0.0
 10
-0.4919840962120892
 20
-2.320622452673366
 30
0.0
 10
-0.2975788096871694
 20
-0.8596743686950356
 30
0.0
 10
-0.1999893188472844
 20
-0.126293182372846
 30
0.0
 11
-1.471096038818244
 21
-8.87127304077086
 31
0.0
 11
-1.163688659668276
 21
-6.676219940184863
 31
0.0
 11
-0.8304862976072712
 21
-4.502330780028841
 31
0.0
 11
-0.5005760192872675
 21
-2.325313568114849
 31
0.0
 11
-0.1999893188472844
 21
-0.126293182372846
 31
0.0
  0
SPLINE
  5
C0EC
330
1F
100
AcDbEntity
  8
AM_0
100
AcDbSpline
210
0.0
220
0.0
230
1.0
 70
     8
 71
     3
 72
    11
 73
     7
 74
     5
 42
0.0000000001
 43
0.0000000001
 44
0.0000000001
 40
0.0
 40
0.0
 40
0.0
 40
0.0
 40
0.9589230336753805
 40
1.978810504048001
 40
3.015870471373055
 40
4.017081318369553
 40
4.017081318369553
 40
4.017081318369553
 40
4.017081318369553
 10
-5.651981353759271
 20
-4.502758026122871
 30
0.0
 10
-5.587961316877283
 20
-4.177550529356939
 30
0.0
 10
-5.455851108859792
 20
-3.506460162355254
 30
0.0
 10
-4.511091495284095
 20
-2.918743718977168
 30
0.0
 10
-3.383874930305406
 20
-3.042338573577815
 30
0.0
 10
-2.976670656361159
 20
-3.62019994751122
 30
0.0
 10
-2.776649475097265
 20
-3.904048919677856
 30
0.0
 11
-5.651981353759271
 21
-4.502758026122871
 31
0.0
 11
-5.345375061035265
 21
-3.594173431395865
 31
0.0
 11
-4.488491058349252
 21
-3.041072845458858
 31
0.0
 11
-3.459735870361253
 21
-3.172054290770856
 31
0.0
 11
-2.776649475097265
 21
-3.904048919677856
 31
0.0
  0
SPLINE
  5
C0ED
330
1F
100
AcDbEntity
  8
AM_0
100
AcDbSpline
210
0.0
220
0.0
230
1.0
 70
     8
 71
     3
 72
    11
 73
     7
 74
     5
 42
0.0000000001
 43
0.0000000001
 44
0.0000000001
 40
0.0
 40
0.0
 40
0.0
 40
0.0
 40
0.0914247337251348
 40
0.1830939540567801
 40
0.2750262587049756
 40
0.3672173973451761
 40
0.3672173973451761
 40
0.3672173973451761
 40
0.3672173973451761
 10
-15.10943984985326
 20
-2.747463226317885
 30
0.0
 10
-15.10832369487197
 20
-2.717005973248172
 30
0.0
 10
-15.10608840010503
 20
-2.656010018794452
 30
0.0
 10
-15.09907161838859
 20
-2.564584406043481
 30
0.0
 10
-15.08955757632248
 20
-2.473126057527235
 30
0.0
 10
-15.08066083252984
 20
-2.412393618117218
 30
0.0
 10
-15.07620620727526
 20
-2.381984710692885
 30
0.0
 11
-15.10943984985326
 21
-2.747463226317885
 31
0.0
 11
-15.10548400878926
 21
-2.656124114989888
 31
0.0
 11
-15.09866714477525
 21
-2.564708709716891
 31
0.0
 11
-15.08893203735326
 21
-2.473293304442885
 31
0.0
 11
-15.07620620727526
 21
-2.381984710692885
 31
0.0
  0
SPLINE
  5
C0EE
330
1F
100
AcDbEntity
  8
AM_0
100
AcDbSpline
210
0.0
220
0.0
230
1.0
 70
     8
 71
     3
 72
    11
 73
     7
 74
     5
 42
0.0000000001
 43
0.0000000001
 44
0.0000000001
 40
0.0
 40
0.0
 40
0.0
 40
0.0
 40
1.247656168459006
 40
2.48708192459477
 40
3.718805338223839
 40
4.958941589419392
 40
4.958941589419392
 40
4.958941589419392
 40
4.958941589419392
 10
-15.07620620727526
 20
-2.381984710692885
 30
0.0
 10
-14.96146010062557
 20
-1.970710552849703
 30
0.0
 10
-14.73272483286462
 20
-1.150875289030124
 30
0.0
 10
-13.43878402202008
 20
-0.4757685422256669
 30
0.0
 10
-12.20443944038158
 20
-1.287031522191504
 30
0.0
 10
-12.12981307189038
 20
-2.138460734702673
 30
0.0
 10
-12.09237289428725
 20
-2.565624237059874
 30
0.0
 11
-15.07620620727526
 21
-2.381984710692885
 31
0.0
 11
-14.57175445556628
 21
-1.240856170653878
 31
0.0
 11
-13.44564819335927
 21
-0.7231101989738732
 31
0.0
 11
-12.39284133911127
 21
-1.362438201903882
 31
0.0
 11
-12.09237289428725
 21
-2.565624237059874
 31
0.0
  0
SPLINE
  5
C0EF
330
1F
100
AcDbEntity
  8
AM_0
100
AcDbSpline
210
0.0
220
0.0
230
1.0
 70
     8
 71
     3
 72
    11
 73
     7
 74
     5
 42
0.0000000001
 43
0.0000000001
 44
0.0000000001
 40
0.0
 40
0.0
 40
0.0
 40
0.0
 40
0.2680834344250844
 40
0.536158560508812
 40
0.8042473020714865
 40
1.072322428155204
 40
1.072322428155204
 40
1.072322428155204
 40
1.072322428155204
 10
-0.1998901367182929
 20
-0.1254539489738401
 30
0.0
 10
-0.2620496036567327
 20
-0.1896537533365129
 30
0.0
 10
-0.3863666111107022
 20
-0.3180513724055756
 30
0.0
 10
-0.5728627657818235
 20
-0.5106322018719562
 30
0.0
 10
-0.7593407606032931
 20
-0.7032267607191112
 30
0.0
 10
-0.8836688384926858
 20
-0.8316161227460911
 30
0.0
 10
-0.9458312988282756
 20
-0.8958091735838436
 30
0.0
 11
-0.1998901367182929
 21
-0.1254539489738401
 31
0.0
 11
-0.3863716125482848
 21
-0.318050384520858
 31
0.0
 11
-0.5728569030762955
 21
-0.510631561278842
 31
0.0
 11
-0.7593460083002789
 21
-0.70322799682586
 31
0.0
 11
-0.9458312988282756
 21
-0.8958091735838436
 31
0.0
  0
SPLINE
  5
C0F0
330
1F
100
AcDbEntity
  8
AM_0
100
AcDbSpline
210
0.0
220
0.0
230
1.0
 70
     8
 71
     3
 72
    11
 73
     7
 74
     5
 42
0.0000000001
 43
0.0000000001
 44
0.0000000001
 40
0.0
 40
0.0
 40
0.0
 40
0.0
 40
0.0392662523527237
 40
0.0785372206250623
 40
0.1177908462243338
 40
0.157054922375863
 40
0.157054922375863
 40
0.157054922375863
 40
0.157054922375863
 10
-0.2107238769532938
 20
0.0303077697761598
 30
0.0
 10
-0.2076586336131444
 20
0.0175708713325304
 30
0.0
 10
-0.2015277787937865
 20
-0.0079044552700847
 30
0.0
 10
-0.1971987843064279
 20
-0.0470119803876852
 30
0.0
 10
-0.1961572467504038
 20
-0.086338004300331
 30
0.0
 10
-0.1986457296582634
 20
-0.1124141438549764
 30
0.0
 10
-0.1998901367182929
 20
-0.1254539489738401
 30
0.0
 11
-0.2107238769532938
 21
0.0303077697761598
 31
0.0
 11
-0.2023391723632937
 21
-0.0080528259278462
 31
0.0
 11
-0.197746276855282
 21
-0.047054290770843
 31
0.0
 11
-0.1969528198242876
 21
-0.0862998962398346
 31
0.0
 11
-0.1998901367182929
 21
-0.1254539489738401
 31
0.0
  0
SPLINE
  5
C0F1
330
1F
100
AcDbEntity
  8
AM_0
100
AcDbSpline
210
0.0
220
0.0
230
1.0
 70
     8
 71
     3
 72
    11
 73
     7
 74
     5
 42
0.0000000001
 43
0.0000000001
 44
0.0000000001
 40
0.0
 40
0.0
 40
0.0
 40
0.0
 40
0.1143551604979765
 40
0.2289204382476253
 40
0.3438978378617832
 40
0.4592748234396012
 40
0.4592748234396012
 40
0.4592748234396012
 40
0.4592748234396012
 10
-0.5490684509272793
 20
0.3000068664551493
 30
0.0
 10
-0.5111488894291313
 20
0.2939325937784474
 30
0.0
 10
-0.4352400926724919
 20
0.2817728874990726
 30
0.0
 10
-0.3341152135596688
 20
0.2233864166785471
 30
0.0
 10
-0.252270682302223
 20
0.1389448218667577
 30
0.0
 10
-0.2245888182540345
 20
0.0665619736233991
 30
0.0
 10
-0.2107238769532938
 20
0.0303077697761598
 30
0.0
 11
-0.5490684509272793
 21
0.3000068664551493
 31
0.0
 11
-0.437454223632272
 21
0.2751197814941413
 31
0.0
 11
-0.3374824523922647
 21
0.2191658020021532
 31
0.0
 11
-0.259086608886277
 21
0.1350593566901652
 31
0.0
 11
-0.2107238769532938
 21
0.0303077697761598
 31
0.0
  0
SPLINE
  5
C0F2
330
1F
100
AcDbEntity
  8
AM_0
100
AcDbSpline
210
0.0
220
0.0
230
1.0
 70
     8
 71
     3
 72
    11
 73
     7
 74
     5
 42
0.0000000001
 43
0.0000000001
 44
0.0000000001
 40
0.0
 40
0.0
 40
0.0
 40
0.0
 40
0.2629521711593246
 40
0.5259016886981466
 40
0.7888402444864015
 40
1.051789762025935
 40
1.051789762025935
 40
1.051789762025935
 40
1.051789762025935
 10
-1.280731201171287
 20
-0.4555931091308624
 30
0.0
 10
-1.219757948899963
 20
-0.3926255629181122
 30
0.0
 10
-1.097812059677854
 20
-0.2666911059388639
 30
0.0
 10
-0.9149033245053225
 20
-0.077785343582055
 30
0.0
 10
-0.7319780206372272
 20
0.1111031434734109
 30
0.0
 10
-0.6100391547393444
 20
0.237038083787407
 30
0.0
 10
-0.5490684509272793
 20
0.3000068664551493
 30
0.0
 11
-1.280731201171287
 21
-0.4555931091308624
 31
0.0
 11
-1.097812652587275
 21
-0.2666893005368558
 31
0.0
 11
-0.9148979187012976
 21
-0.0777854919428492
 31
0.0
 11
-0.7319831848142958
 21
0.111103057861157
 31
0.0
 11
-0.5490684509272793
 21
0.3000068664551493
 31
0.0
  0
SPLINE
  5
C0F3
330
1F
100
AcDbEntity
  8
AM_0
100
AcDbSpline
210
0.0
220
0.0
230
1.0
 70
     8
 71
     3
 72
    11
 73
     7
 74
     5
 42
0.0000000001
 43
0.0000000001
 44
0.0000000001
 40
0.0
 40
0.0
 40
0.0
 40
0.0
 40
0.0489450046770152
 40
0.0979168853307381
 40
0.1469368455069466
 40
0.1959964948243182
 40
0.1959964948243182
 40
0.1959964948243182
 40
0.1959964948243182
 10
-0.9458312988282756
 20
-0.8958091735838436
 30
0.0
 10
-0.9440421611829567
 20
-0.8795722372936353
 30
0.0
 10
-0.9404629034667992
 20
-0.8470894489203939
 30
0.0
 10
-0.9422864206259863
 20
-0.7980068458360521
 30
0.0
 10
-0.9491177904242631
 20
-0.7493004260776984
 30
0.0
 10
-0.9587891999706434
 20
-0.7180200311195299
 30
0.0
 10
-0.9636268615722746
 20
-0.7023735046388441
 30
0.0
 11
-0.9458312988282756
 21
-0.8958091735838436
 31
0.0
 11
-0.9416618347162938
 21
-0.8470420837398521
 31
0.0
 11
-0.9431190490722743
 21
-0.7980918884278494
 31
0.0
 11
-0.9503936767572813
 21
-0.7496147155758609
 31
0.0
 11
-0.9636268615722746
 21
-0.7023735046388441
 31
0.0
  0
SPLINE
  5
C0F4
330
1F
100
AcDbEntity
  8
AM_0
100
AcDbSpline
210
0.0
220
0.0
230
1.0
 70
     8
 71
     3
 72
    11
 73
     7
 74
     5
 42
0.0000000001
 43
0.0000000001
 44
0.0000000001
 40
0.0
 40
0.0
 40
0.0
 40
0.0
 40
0.0264706966855002
 40
0.0527875972438208
 40
0.0790904837139647
 40
0.1055090800501358
 40
0.1055090800501358
 40
0.1055090800501358
 40
0.1055090800501358
 10
-1.116939544677289
 20
-0.5101737976068558
 30
0.0
 10
-1.124544975042236
 20
-0.5056921068480995
 30
0.0
 10
-1.139711647825378
 20
-0.4967547641874441
 30
0.0
 10
-1.16356850394601
 20
-0.4854676230916819
 30
0.0
 10
-1.188059987668957
 20
-0.4756791886916526
 30
0.0
 10
-1.20491167958172
 20
-0.4706641268328293
 30
0.0
 10
-1.213356018066287
 20
-0.4681510925288449
 30
0.0
 11
-1.116939544677289
 21
-0.5101737976068558
 31
0.0
 11
-1.139945983886287
 21
-0.4970817565918562
 31
0.0
 11
-1.163681030273276
 21
-0.4857139587398532
 31
0.0
 11
-1.188152313232289
 21
-0.4760704040528507
 31
0.0
 11
-1.213356018066287
 21
-0.4681510925288449
 31
0.0
  0
SPLINE
  5
C0F5
330
1F
100
AcDbEntity
  8
AM_0
100
AcDbSpline
210
0.0
220
0.0
230
1.0
 70
     8
 71
     3
 72
    11
 73
     7
 74
     5
 42
0.0000000001
 43
0.0000000001
 44
0.0000000001
 40
0.0
 40
0.0
 40
0.0
 40
0.0
 40
0.0171755277592014
 40
0.0343125897913836
 40
0.0514496573438964
 40
0.0686139677013679
 40
0.0686139677013679
 40
0.0686139677013679
 40
0.0686139677013679
 10
-1.213356018066287
 20
-0.4681510925288449
 30
0.0
 10
-1.218892749439526
 20
-0.4666902678269619
 30
0.0
 10
-1.229953812310986
 20
-0.4637718900364466
 30
0.0
 10
-1.24676149502361
 20
-0.4603282552579125
 30
0.0
 10
-1.263678987074739
 20
-0.4574970332804803
 30
0.0
 10
-1.275044121004125
 20
-0.4562280864546145
 30
0.0
 10
-1.280731201171287
 20
-0.4555931091308624
 30
0.0
 11
-1.213356018066287
 21
-0.4681510925288449
 31
0.0
 11
-1.23000335693329
 21
-0.4639244079588451
 31
0.0
 11
-1.246780395507282
 21
-0.4604301452638454
 31
0.0
 11
-1.26369094848628
 21
-0.4576530456538452
 31
0.0
 11
-1.280731201171287
 21
-0.4555931091308624
 31
0.0
  0
SPLINE
  5
C0F6
330
1F
100
AcDbEntity
  8
AM_0
100
AcDbSpline
210
0.0
220
0.0
230
1.0
 70
     8
 71
     3
 72
    11
 73
     7
 74
     5
 42
0.0000000001
 43
0.0000000001
 44
0.0000000001
 40
0.0
 40
0.0
 40
0.0
 40
0.0
 40
0.0625435055628511
 40
0.1251479838754469
 40
0.187773002515402
 40
0.2503953870004195
 40
0.2503953870004195
 40
0.2503953870004195
 40
0.2503953870004195
 10
-0.9636268615722746
 20
-0.7023735046388441
 30
0.0
 10
-0.97143885177155
 20
-0.6829865406110702
 30
0.0
 10
-0.9870704479652044
 20
-0.6441937124875558
 30
0.0
 10
-1.022450103163951
 20
-0.5920966239514656
 30
0.0
 10
-1.065236903163817
 20
-0.5458146571643632
 30
0.0
 10
-1.099705572483372
 20
-0.522053917550463
 30
0.0
 10
-1.116939544677289
 20
-0.5101737976068558
 30
0.0
 11
-0.9636268615722746
 21
-0.7023735046388441
 31
0.0
 11
-0.9890480041502861
 21
-0.6452293395988438
 31
0.0
 11
-1.023677825927289
 21
-0.5930747985838442
 31
0.0
 11
-1.066722869873283
 21
-0.5475883483888447
 31
0.0
 11
-1.116939544677289
 21
-0.5101737976068558
 31
0.0
  0
SPLINE
  5
C108
330
1F
100
AcDbEntity
  8
AM_0
100
AcDbSpline
210
0.0
220
0.0
230
1.0
 70
     8
 71
     3
 72
    11
 73
     7
 74
     5
 42
0.0000000001
 43
0.0000000001
 44
0.0000000001
 40
0.0
 40
0.0
 40
0.0
 40
0.0
 40
0.0432090353453135
 40
0.0776403204297048
 40
0.1122221811358854
 40
0.1539062577234303
 40
0.1539062577234303
 40
0.1539062577234303
 40
0.1539062577234303
 10
-33.88346672058127
 20
-9.187191009520953
 30
0.0
 10
-33.89375558212929
 20
-9.197583052498767
 30
0.0
 10
-33.91224316235554
 20
-9.216256034671797
 30
0.0
 10
-33.92117206121112
 20
-9.254984404269125
 30
0.0
 10
-33.9066980400573
 20
-9.290973864145845
 30
0.0
 10
-33.88772040413743
 20
-9.308185429984241
 30
0.0
 10
-33.87734794616726
 20
-9.317592620848968
 30
0.0
 11
-33.88346672058127
 21
-9.187191009520953
 31
0.0
 11
-33.91052055358826
 21
-9.220882415770953
 31
0.0
 11
-33.91754722595224
 21
-9.25458908080996
 31
0.0
 11
-33.90577507019027
 21
-9.287105560302942
 31
0.0
 11
-33.87734794616726
 21
-9.317592620848968
 31
0.0
  0
SPLINE
  5
C109
330
1F
100
AcDbEntity
  8
AM_0
100
AcDbSpline
210
0.0
220
0.0
230
1.0
 70
     8
 71
     3
 72
    11
 73
     7
 74
     5
 42
0.0000000001
 43
0.0000000001
 44
0.0000000001
 40
0.0
 40
0.0
 40
0.0
 40
0.0
 40
0.2418366668729549
 40
0.4727052909165243
 40
0.6760005668995662
 40
0.8247995103669
 40
0.8247995103669
 40
0.8247995103669
 40
0.8247995103669
 10
-33.08534812927228
 20
-9.022029876708961
 30
0.0
 10
-33.16603468415653
 20
-9.024636262914498
 30
0.0
 10
-33.32374840843493
 20
-9.029730827628188
 30
0.0
 10
-33.54636155102329
 20
-9.061490996049437
 30
0.0
 10
-33.73931089088922
 20
-9.101051227691916
 30
0.0
 10
-33.84064274784446
 20
-9.161601703306418
 30
0.0
 10
-33.88346672058127
 20
-9.187191009520953
 30
0.0
 11
-33.08534812927228
 21
-9.022029876708961
 31
0.0
 11
-33.32687187194826
 21
-9.034328460692938
 31
0.0
 11
-33.55564689636226
 21
-9.065349578856947
 31
0.0
 11
-33.75227928161625
 21
-9.116970062255953
 31
0.0
 11
-33.88346672058127
 21
-9.187191009520953
 31
0.0
  0
SPLINE
  5
C10A
330
1F
100
AcDbEntity
  8
AM_0
100
AcDbSpline
210
0.0
220
0.0
230
1.0
 70
     8
 71
     3
 72
    11
 73
     7
 74
     5
 42
0.0000000001
 43
0.0000000001
 44
0.0000000001
 40
0.0
 40
0.0
 40
0.0
 40
0.0
 40
0.733030516706841
 40
1.570515059394334
 40
2.649331086095505
 40
4.04409176288719
 40
4.04409176288719
 40
4.04409176288719
 40
4.04409176288719
 10
-8.528636932373244
 20
-9.27003097534183
 30
0.0
 10
-8.354208794383007
 20
-9.08650222861736
 30
0.0
 10
-7.980497180402094
 20
-8.693292595466683
 30
0.0
 10
-7.982116073906612
 20
-7.763210582718201
 30
0.0
 10
-8.341063818703274
 20
-6.620228330141272
 30
0.0
 10
-9.197804157012406
 20
-6.385701276282921
 30
0.0
 10
-9.680889129638257
 20
-6.253459930419849
 30
0.0
 11
-8.528636932373244
 21
-9.27003097534183
 31
0.0
 11
-8.086975097656264
 21
-8.684993743895891
 31
0.0
 11
-8.021423339843256
 21
-7.850078582763873
 31
0.0
 11
-8.418769836425264
 21
-6.847103118895835
 31
0.0
 11
-9.680889129638257
 21
-6.253459930419849
 31
0.0
  0
SPLINE
  5
C10B
330
1F
100
AcDbEntity
  8
AM_0
100
AcDbSpline
210
0.0
220
0.0
230
1.0
 70
     8
 71
     3
 72
    11
 73
     7
 74
     5
 42
0.0000000001
 43
0.0000000001
 44
0.0000000001
 40
0.0
 40
0.0
 40
0.0
 40
0.0
 40
0.2887988261265106
 40
0.5771040824411469
 40
0.8639443587843199
 40
1.149362522052982
 40
1.149362522052982
 40
1.149362522052982
 40
1.149362522052982
 10
-1.471096038818244
 20
-8.87127304077086
 30
0.0
 10
-1.493586842625279
 20
-8.966001348844642
 30
0.0
 10
-1.538530012472989
 20
-9.155296070174898
 30
0.0
 10
-1.724129779105338
 20
-9.385557893105557
 30
0.0
 10
-1.971952010951726
 20
-9.546249793816585
 30
0.0
 10
-2.16394610434042
 20
-9.567189212746351
 30
0.0
 10
-2.259704589843234
 20
-9.577632904052853
 30
0.0
 11
-1.471096038818244
 21
-8.87127304077086
 31
0.0
 11
-1.558361053466254
 21
-9.146572113036883
 31
0.0
 11
-1.735015869140252
 21
-9.374416351317851
 31
0.0
 11
-1.979194641113249
 21
-9.524929046630861
 31
0.0
 11
-2.259704589843234
 21
-9.577632904052853
 31
0.0
  0
SPLINE
  5
C10C
330
1F
100
AcDbEntity
  8
AM_0
100
AcDbSpline
210
0.0
220
0.0
230
1.0
 70
     8
 71
     3
 72
    11
 73
     7
 74
     5
 42
0.0000000001
 43
0.0000000001
 44
0.0000000001
 40
0.0
 40
0.0
 40
0.0
 40
0.0
 40
0.1484890224106503
 40
0.2969893143866172
 40
0.4454783367972857
 40
0.5939673592079462
 40
0.5939673592079462
 40
0.5939673592079462
 40
0.5939673592079462
 10
-1.871547698974254
 20
-8.432598114013844
 30
0.0
 10
-1.838175868076687
 20
-8.469152302020528
 30
0.0
 10
-1.771429673528477
 20
-8.542263452311768
 30
0.0
 10
-1.671327114983131
 20
-8.651942909334421
 30
0.0
 10
-1.571208275528951
 20
-8.761607504577172
 30
0.0
 10
-1.504466784388479
 20
-8.83471786203963
 30
0.0
 10
-1.471096038818244
 20
-8.87127304077086
 30
0.0
 11
-1.871547698974254
 21
-8.432598114013844
 31
0.0
 11
-1.771434783935263
 21
-8.542263031005862
 31
0.0
 11
-1.671321868896271
 21
-8.651943206786825
 31
0.0
 11
-1.571208953857251
 21
-8.761608123778842
 31
0.0
 11
-1.471096038818244
 21
-8.87127304077086
 31
0.0
  0
SPLINE
  5
C10D
330
1F
100
AcDbEntity
  8
AM_0
100
AcDbSpline
210
0.0
220
0.0
230
1.0
 70
     8
 71
     3
 72
    11
 73
     7
 74
     5
 42
0.0000000001
 43
0.0000000001
 44
0.0000000001
 40
0.0
 40
0.0
 40
0.0
 40
0.0
 40
0.6349556395627874
 40
1.269904575745486
 40
1.904860215308077
 40
2.539812112704447
 40
2.539812112704447
 40
2.539812112704447
 40
2.539812112704447
 10
-6.471435546875251
 20
-9.577907562255882
 30
0.0
 10
-6.263808243966641
 20
-9.536829327837299
 30
0.0
 10
-5.84855583012102
 20
-9.454673292672984
 30
0.0
 10
-5.225670507663134
 20
-9.33146735956104
 30
0.0
 10
-4.602792264243601
 20
-9.208232070021482
 30
0.0
 10
-4.187538216323527
 20
-9.126079208757671
 30
0.0
 10
-3.979911804199245
 20
-9.085002899169877
 30
0.0
 11
-6.471435546875251
 21
-9.577907562255882
 31
0.0
 11
-5.848552703857249
 21
-9.454677581786844
 31
0.0
 11
-5.225673675537247
 21
-9.331462860106872
 31
0.0
 11
-4.602790832519244
 21
-9.208232879638858
 31
0.0
 11
-3.979911804199245
 21
-9.085002899169877
 31
0.0
  0
SPLINE
  5
C10E
330
1F
100
AcDbEntity
  8
AM_0
100
AcDbSpline
210
0.0
220
0.0
230
1.0
 70
     8
 71
     3
 72
    11
 73
     7
 74
     5
 42
0.0000000001
 43
0.0000000001
 44
0.0000000001
 40
0.0
 40
0.0
 40
0.0
 40
0.0
 40
1.05280306443073
 40
2.105693849095044
 40
3.158668550133593
 40
4.211730993078381
 40
4.211730993078381
 40
4.211730993078381
 40
4.211730993078381
 10
-2.259704589843234
 20
-9.577632904052853
 30
0.0
 10
-2.610638934959506
 20
-9.577716828067522
 30
0.0
 10
-3.312536865269104
 20
-9.577884683089461
 30
0.0
 10
-4.365426378112271
 20
-9.577999117559915
 30
0.0
 10
-5.418402356428239
 20
-9.578022000457865
 30
0.0
 10
-6.12041473429227
 20
-9.577945709382694
 30
0.0
 10
-6.471435546875251
 20
-9.577907562255882
 30
0.0
 11
-2.259704589843234
 21
-9.577632904052853
 31
0.0
 11
-3.312507629394242
 21
-9.577861785888853
 31
0.0
 11
-4.365398406982247
 21
-9.577983856200841
 31
0.0
 11
-5.418373107910237
 21
-9.577999114989854
 31
0.0
 11
-6.471435546875251
 21
-9.577907562255882
 31
0.0
  0
SPLINE
  5
C10F
330
1F
100
AcDbEntity
  8
AM_0
100
AcDbSpline
210
0.0
220
0.0
230
1.0
 70
    24
 71
     3
 72
    11
 73
     7
 74
     5
 42
0.0000000001
 43
0.0000000001
 44
0.0000000001
 40
0.0
 40
0.0
 40
0.0
 40
0.0
 40
0.1543945188105783
 40
0.308789037622581
 40
0.4631835564331081
 40
0.6175780752436796
 40
0.6175780752436796
 40
0.6175780752436796
 40
0.6175780752436796
 10
-2.259704589843234
 20
-9.577632904052853
 30
0.0
 10
-2.294401804605568
 20
-9.539623260498183
 30
0.0
 10
-2.363796234130556
 20
-9.463603973388488
 30
0.0
 10
-2.467887878417921
 20
-9.349575042724188
 30
0.0
 10
-2.571979522705262
 20
-9.235546112059868
 30
0.0
 10
-2.641373952229912
 20
-9.159526824950535
 30
0.0
 10
-2.676071166992243
 20
-9.121517181395864
 30
0.0
 11
-2.259704589843234
 21
-9.577632904052853
 31
0.0
 11
-2.363796234130245
 21
-9.463603973388847
 31
0.0
 11
-2.467887878418249
 21
-9.34957504272382
 31
0.0
 11
-2.571979522705245
 21
-9.235546112059873
 31
0.0
 11
-2.676071166992243
 21
-9.121517181395864
 31
0.0
  0
SPLINE
  5
C110
330
1F
100
AcDbEntity
  8
AM_0
100
AcDbSpline
210
0.0
220
0.0
230
1.0
 70
     8
 71
     3
 72
    11
 73
     7
 74
     5
 42
0.0000000001
 43
0.0000000001
 44
0.0000000001
 40
0.0
 40
0.0
 40
0.0
 40
0.0
 40
0.0841993441206989
 40
0.1683986882406879
 40
0.2526089944056642
 40
0.3368083385263421
 40
0.3368083385263421
 40
0.3368083385263421
 40
0.3368083385263421
 10
-7.194873809814252
 20
-9.07093429565387
 30
0.0
 10
-7.214398475063775
 20
-9.09109646199262
 30
0.0
 10
-7.253447805562658
 20
-9.131420794669949
 30
0.0
 10
-7.312028428027503
 20
-9.191905963425053
 30
0.0
 10
-7.370592710346946
 20
-9.252406954032517
 30
0.0
 10
-7.409646761391321
 20
-9.292731802158311
 30
0.0
 10
-7.42917251586925
 20
-9.312892913817876
 30
0.0
 11
-7.194873809814252
 21
-9.07093429565387
 31
0.0
 11
-7.253448486328236
 21
-9.131420135497902
 31
0.0
 11
-7.312023162841255
 21
-9.191905975341882
 31
0.0
 11
-7.37059783935524
 21
-9.252407073973898
 31
0.0
 11
-7.42917251586925
 21
-9.312892913817876
 31
0.0
  0
SPLINE
  5
C111
330
1F
100
AcDbEntity
  8
AM_0
100
AcDbSpline
210
0.0
220
0.0
230
1.0
 70
     8
 71
     3
 72
    11
 73
     7
 74
     5
 42
0.0000000001
 43
0.0000000001
 44
0.0000000001
 40
0.0
 40
0.0
 40
0.0
 40
0.0
 40
0.0330336995438449
 40
0.0660790416701165
 40
0.0991120577441927
 40
0.1321567826971473
 40
0.1321567826971473
 40
0.1321567826971473
 40
0.1321567826971473
 10
-2.36127471923825
 20
-9.069759368895862
 30
0.0
 10
-2.351041847954058
 20
-9.06568765819105
 30
0.0
 10
-2.330572498855098
 20
-9.057542801724851
 30
0.0
 10
-2.30059070013702
 20
-9.04363493703676
 30
0.0
 10
-2.271130201925333
 20
-9.028645922585857
 30
0.0
 10
-2.252085419099143
 20
-9.01757287481978
 30
0.0
 10
-2.242561340332243
 20
-9.012035369872824
 30
0.0
 11
-2.36127471923825
 21
-9.069759368895862
 31
0.0
 11
-2.330696105957243
 21
-9.057262420653847
 31
0.0
 11
-2.300674438476248
 21
-9.043453216552853
 31
0.0
 11
-2.271282196045247
 21
-9.028377532958819
 31
0.0
 11
-2.242561340332243
 21
-9.012035369872824
 31
0.0
  0
SPLINE
  5
C112
330
1F
100
AcDbEntity
  8
AM_0
100
AcDbSpline
210
0.0
220
0.0
230
1.0
 70
     8
 71
     3
 72
    11
 73
     7
 74
     5
 42
0.0000000001
 43
0.0000000001
 44
0.0000000001
 40
0.0
 40
0.0
 40
0.0
 40
0.0
 40
0.0271272475408368
 40
0.0542433932337469
 40
0.0813706847611758
 40
0.1084978861687246
 40
0.1084978861687246
 40
0.1084978861687246
 40
0.1084978861687246
 10
-2.468742370605239
 20
-9.10233688354487
 30
0.0
 10
-2.459941912373866
 20
-9.100254776958022
 30
0.0
 10
-2.442344597505745
 20
-9.096091415888126
 30
0.0
 10
-2.416243385024698
 20
-9.088689003551165
 30
0.0
 10
-2.390379350207162
 20
-9.08049529405717
 30
0.0
 10
-2.373399857822578
 20
-9.074263707035935
 30
0.0
 10
-2.364910125732249
 20
-9.071147918700832
 30
0.0
 11
-2.468742370605239
 21
-9.10233688354487
 31
0.0
 11
-2.442390441894244
 21
-9.095897674559871
 31
0.0
 11
-2.416286468505246
 21
-9.088558197020862
 31
0.0
 11
-2.390445709228243
 21
-9.080303192138847
 31
0.0
 11
-2.364910125732249
 21
-9.071147918700832
 31
0.0
  0
SPLINE
  5
C113
330
1F
100
AcDbEntity
  8
AM_0
100
AcDbSpline
210
0.0
220
0.0
230
1.0
 70
     8
 71
     3
 72
    11
 73
     7
 74
     5
 42
0.0000000001
 43
0.0000000001
 44
0.0000000001
 40
0.0
 40
0.0
 40
0.0
 40
0.0
 40
0.0855838288422231
 40
0.1711684371034324
 40
0.2567466577095916
 40
0.3422942788389624
 40
0.3422942788389624
 40
0.3422942788389624
 40
0.3422942788389624
 10
-1.981868743896271
 20
-8.753963470458817
 30
0.0
 10
-1.967724483700493
 20
-8.729151104611206
 30
0.0
 10
-1.939435834495994
 20
-8.679526146947722
 30
0.0
 10
-1.907909889303282
 20
-8.599717261605247
 30
0.0
 10
-1.883987429496456
 20
-8.517339261872022
 30
0.0
 10
-1.875693781478408
 20
-8.460841795811424
 30
0.0
 10
-1.871547698974254
 20
-8.432598114013844
 30
0.0
 11
-1.981868743896271
 21
-8.753963470458817
 31
0.0
 11
-1.941253662109261
 21
-8.678630828856856
 31
0.0
 11
-1.909175872802265
 21
-8.599285125731856
 31
0.0
 11
-1.885898590087251
 21
-8.516933441161826
 31
0.0
 11
-1.871547698974254
 21
-8.432598114013844
 31
0.0
  0
SPLINE
  5
C114
330
1F
100
AcDbEntity
  8
AM_0
100
AcDbSpline
210
0.0
220
0.0
230
1.0
 70
     8
 71
     3
 72
    11
 73
     7
 74
     5
 42
0.0000000001
 43
0.0000000001
 44
0.0000000001
 40
0.0
 40
0.0
 40
0.0
 40
0.0
 40
0.0642526880352696
 40
0.1285005710163032
 40
0.1927605512769119
 40
0.2570063829597036
 40
0.2570063829597036
 40
0.2570063829597036
 40
0.2570063829597036
 10
-2.156410217285256
 20
-8.620433807372824
 30
0.0
 10
-2.14603627704989
 20
-8.601671982772511
 30
0.0
 10
-2.125289172380873
 20
-8.564149736650691
 30
0.0
 10
-2.101820538472968
 20
-8.504176323215199
 30
0.0
 10
-2.083777360760332
 20
-8.44235575669132
 30
0.0
 10
-2.077295361040745
 20
-8.399970606678994
 30
0.0
 10
-2.074054718017253
 20
-8.37878036498984
 30
0.0
 11
-2.156410217285256
 21
-8.620433807372824
 31
0.0
 11
-2.126564025879261
 21
-8.563533782958819
 31
0.0
 11
-2.102725982666258
 21
-8.503871917723815
 31
0.0
 11
-2.085163116455264
 21
-8.442058563231856
 31
0.0
 11
-2.074054718017253
 21
-8.37878036498984
 31
0.0
  0
SPLINE
  5
C115
330
1F
100
AcDbEntity
  8
AM_0
100
AcDbSpline
210
0.0
220
0.0
230
1.0
 70
     8
 71
     3
 72
    11
 73
     7
 74
     5
 42
0.0000000001
 43
0.0000000001
 44
0.0000000001
 40
0.0
 40
0.0
 40
0.0
 40
0.0
 40
0.0521818150248011
 40
0.1043758546731795
 40
0.1565553840329673
 40
0.2087610178583896
 40
0.2087610178583896
 40
0.2087610178583896
 40
0.2087610178583896
 10
-2.676071166992243
 20
-9.121517181395864
 30
0.0
 10
-2.658673381573521
 20
-9.121838279860249
 30
0.0
 10
-2.6238737349603
 20
-9.122480552012692
 30
0.0
 10
-2.571749752267456
 20
-9.1191282005433
 30
0.0
 10
-2.519880997807086
 20
-9.112899627717951
 30
0.0
 10
-2.485791421360458
 20
-9.105858385223248
 30
0.0
 10
-2.468742370605239
 20
-9.10233688354487
 30
0.0
 11
-2.676071166992243
 21
-9.121517181395864
 31
0.0
 11
-2.623889923095247
 21
-9.121761322020864
 31
0.0
 11
-2.571788787841254
 21
-9.118648529052855
 31
0.0
 11
-2.520011901855239
 21
-9.112178802489841
 31
0.0
 11
-2.468742370605239
 21
-9.10233688354487
 31
0.0
  0
SPLINE
  5
C116
330
1F
100
AcDbEntity
  8
AM_0
100
AcDbSpline
210
0.0
220
0.0
230
1.0
 70
     8
 71
     3
 72
    11
 73
     7
 74
     5
 42
0.0000000001
 43
0.0000000001
 44
0.0000000001
 40
0.0
 40
0.0
 40
0.0
 40
0.0
 40
0.0636285319856677
 40
0.1272645732724494
 40
0.1908887434356202
 40
0.2545187218249187
 40
0.2545187218249187
 40
0.2545187218249187
 40
0.2545187218249187
 10
-2.156410217285256
 20
-8.620433807372824
 30
0.0
 10
-2.16776499637665
 20
-8.638375507654293
 30
0.0
 10
-2.190475894625801
 20
-8.674261025657722
 30
0.0
 10
-2.231733682086533
 20
-8.722915559555495
 30
0.0
 10
-2.277356497807028
 20
-8.767502399904081
 30
0.0
 10
-2.311539882352229
 20
-8.792696441236351
 30
0.0
 10
-2.328632354736242
 20
-8.80529403686484
 30
0.0
 11
-2.156410217285256
 21
-8.620433807372824
 31
0.0
 11
-2.191673278808266
 21
-8.673397064208819
 31
0.0
 11
-2.232463836670262
 21
-8.722240447997824
 31
0.0
 11
-2.278297424316249
 21
-8.766368865966859
 31
0.0
 11
-2.328632354736242
 21
-8.80529403686484
 31
0.0
  0
SPLINE
  5
C117
330
1F
100
AcDbEntity
  8
AM_0
100
AcDbSpline
210
0.0
220
0.0
230
1.0
 70
     8
 71
     3
 72
    11
 73
     7
 74
     5
 42
0.0000000001
 43
0.0000000001
 44
0.0000000001
 40
0.0
 40
0.0
 40
0.0
 40
0.0
 40
0.0925425574871733
 40
0.1850960378697318
 40
0.2776369939525234
 40
0.3701793960016972
 40
0.3701793960016972
 40
0.3701793960016972
 40
0.3701793960016972
 10
-2.242561340332243
 20
-9.012035369872824
 30
0.0
 10
-2.2166177243162
 20
-8.995269338386073
 30
0.0
 10
-2.164727430131831
 20
-8.961735296500242
 30
0.0
 10
-2.095452420337462
 20
-8.899929557712827
 30
0.0
 10
-2.032963673507168
 20
-8.831272106567677
 30
0.0
 10
-1.998900475806309
 20
-8.779733150044716
 30
0.0
 10
-1.981868743896271
 20
-8.753963470458817
 30
0.0
 11
-2.242561340332243
 21
-9.012035369872824
 31
0.0
 11
-2.166156768798244
 21
-8.959819793700836
 31
0.0
 11
-2.096580505371248
 21
-8.898784637450834
 31
0.0
 11
-2.034862518310248
 21
-8.829830169677851
 31
0.0
 11
-1.981868743896271
 21
-8.753963470458817
 31
0.0
  0
SPLINE
  5
C122
330
1F
100
AcDbEntity
  8
AM_0
100
AcDbSpline
210
0.0
220
0.0
230
1.0
 70
     8
 71
     3
 72
    11
 73
     7
 74
     5
 42
0.0000000001
 43
0.0000000001
 44
0.0000000001
 40
0.0
 40
0.0
 40
0.0
 40
0.0
 40
0.2627658125656576
 40
0.5255166070315056
 40
0.7882674014974102
 40
1.051018195963257
 40
1.051018195963257
 40
1.051018195963257
 40
1.051018195963257
 10
-8.901618957519263
 20
-8.387935638427883
 30
0.0
 10
-8.917114020573468
 20
-8.30172852384376
 30
0.0
 10
-8.948103261078074
 20
-8.129319221751217
 30
0.0
 10
-8.994590949046605
 20
-7.870708499686971
 30
0.0
 10
-9.041076612713931
 20
-7.612102500017083
 30
0.0
 10
-9.072067244928152
 20
-7.439698534348273
 30
0.0
 10
-9.087562561035262
 20
-7.353496551513878
 30
0.0
 11
-8.901618957519263
 21
-8.387935638427883
 31
0.0
 11
-8.948104858398256
 21
-8.129314422606832
 31
0.0
 11
-8.99459075927726
 21
-7.870708465575868
 31
0.0
 11
-9.041076660156269
 21
-7.612102508544845
 31
0.0
 11
-9.087562561035262
 21
-7.353496551513878
 31
0.0
  0
SPLINE
  5
C123
330
1F
100
AcDbEntity
  8
AM_0
100
AcDbSpline
210
0.0
220
0.0
230
1.0
 70
     8
 71
     3
 72
    11
 73
     7
 74
     5
 42
0.0000000001
 43
0.0000000001
 44
0.0000000001
 40
0.0
 40
0.0
 40
0.0
 40
0.0
 40
0.0155007936288024
 40
0.0309933425319785
 40
0.0465421838217872
 40
0.0621507858026401
 40
0.0621507858026401
 40
0.0621507858026401
 40
0.0621507858026401
 10
-9.409389495849259
 20
-7.443904876708852
 30
0.0
 10
-9.408832950021055
 20
-7.43876692967046
 30
0.0
 10
-9.40772015438611
 20
-7.428493768419142
 30
0.0
 10
-9.406980853021225
 20
-7.412989921048772
 30
0.0
 10
-9.406865309011239
 20
-7.397433003026355
 30
0.0
 10
-9.407410971586813
 20
-7.387059393536348
 30
0.0
 10
-9.407684326171271
 20
-7.38186264038084
 30
0.0
 11
-9.409389495849259
 21
-7.443904876708852
 31
0.0
 11
-9.407875061035262
 21
-7.428478240966835
 31
0.0
 11
-9.407085418701278
 21
-7.413005828856835
 31
0.0
 11
-9.407020568847267
 21
-7.397457122802887
 31
0.0
 11
-9.407684326171271
 21
-7.38186264038084
 31
0.0
  0
SPLINE
  5
C124
330
1F
100
AcDbEntity
  8
AM_0
100
AcDbSpline
210
0.0
220
0.0
230
1.0
 70
     8
 71
     3
 72
    11
 73
     7
 74
     5
 42
0.0000000001
 43
0.0000000001
 44
0.0000000001
 40
0.0
 40
0.0
 40
0.0
 40
0.0
 40
0.0234520439885114
 40
0.0468436858155363
 40
0.0703422519346381
 40
0.0940838885191464
 40
0.0940838885191464
 40
0.0940838885191464
 40
0.0940838885191464
 10
-9.43527603149427
 20
-7.53396224975584
 30
0.0
 10
-9.432098533398464
 20
-7.526814612252175
 30
0.0
 10
-9.425751721045891
 20
-7.512537746418687
 30
0.0
 10
-9.418481071844007
 20
-7.490210741091483
 30
0.0
 10
-9.412769089712597
 20
-7.467336918466464
 30
0.0
 10
-9.410519884834826
 20
-7.451742304217375
 30
0.0
 10
-9.409389495849259
 20
-7.443904876708852
 30
0.0
 11
-9.43527603149427
 21
-7.53396224975584
 31
0.0
 11
-9.426120758056262
 21
-7.512371063231835
 31
0.0
 11
-9.418754577636269
 21
-7.490169525145839
 31
0.0
 11
-9.413177490234266
 21
-7.467342376708852
 31
0.0
 11
-9.409389495849259
 21
-7.443904876708852
 31
0.0
  0
SPLINE
  5
C125
330
1F
100
AcDbEntity
  8
AM_0
100
AcDbSpline
210
0.0
220
0.0
230
1.0
 70
     8
 71
     3
 72
    11
 73
     7
 74
     5
 42
0.0000000001
 43
0.0000000001
 44
0.0000000001
 40
0.0
 40
0.0
 40
0.0
 40
0.0
 40
0.038013836273508
 40
0.0764410798811079
 40
0.1151981775074377
 40
0.15421102079404
 40
0.15421102079404
 40
0.15421102079404
 40
0.15421102079404
 10
-9.01361465454125
 20
-9.912853240966834
 30
0.0
 10
-9.025660812402488
 20
-9.916814537329274
 30
0.0
 10
-9.049884132267024
 20
-9.924780209867437
 30
0.0
 10
-9.087563437999994
 20
-9.932523858594228
 30
0.0
 10
-9.126034101185336
 20
-9.937491322724207
 30
0.0
 10
-9.151968290517929
 20
-9.938053437206058
 30
0.0
 10
-9.164978027343247
 20
-9.938335418700864
 30
0.0
 11
-9.01361465454125
 21
-9.912853240966834
 31
0.0
 11
-9.049945831298254
 21
-9.924037933348852
 31
0.0
 11
-9.087532043457255
 21
-9.932033538817885
 31
0.0
 11
-9.125995635986251
 21
-9.936794281005839
 31
0.0
 11
-9.164978027343247
 21
-9.938335418700864
 31
0.0
  0
SPLINE
  5
C126
330
1F
100
AcDbEntity
  8
AM_0
100
AcDbSpline
210
0.0
220
0.0
230
1.0
 70
     8
 71
     3
 72
    11
 73
     7
 74
     5
 42
0.0000000001
 43
0.0000000001
 44
0.0000000001
 40
0.0
 40
0.0
 40
0.0
 40
0.0
 40
0.1076668050110108
 40
0.2150120163220773
 40
0.3234798984422093
 40
0.4342256889580218
 40
0.4342256889580218
 40
0.4342256889580218
 40
0.4342256889580218
 10
-8.799987792968234
 20
-9.567607879638877
 30
0.0
 10
-8.800164494714199
 20
-9.603798058462196
 30
0.0
 10
-8.800517370409579
 20
-9.676070318413279
 30
0.0
 10
-8.842750891370346
 20
-9.777818581022934
 30
0.0
 10
-8.914044716385232
 20
-9.863622561557624
 30
0.0
 10
-8.980195544789495
 20
-9.896329724845411
 30
0.0
 10
-9.01361465454125
 20
-9.912853240966834
 30
0.0
 11
-8.799987792968234
 21
-9.567607879638877
 31
0.0
 11
-8.807468414306239
 21
-9.67501449584885
 31
0.0
 11
-8.847290039062238
 21
-9.774700164794841
 31
0.0
 11
-8.918025970459234
 21
-9.856929779052883
 31
0.0
 11
-9.01361465454125
 21
-9.912853240966834
 31
0.0
  0
SPLINE
  5
C127
330
1F
100
AcDbEntity
  8
AM_0
100
AcDbSpline
210
0.0
220
0.0
230
1.0
 70
     8
 71
     3
 72
    11
 73
     7
 74
     5
 42
0.0000000001
 43
0.0000000001
 44
0.0000000001
 40
0.0
 40
0.0
 40
0.0
 40
0.0
 40
0.5671590729229013
 40
1.134318145846069
 40
1.701491919947218
 40
2.268650992871376
 40
2.268650992871376
 40
2.268650992871376
 40
2.268650992871376
 10
-9.407684326171271
 20
-7.38186264038084
 30
0.0
 10
-9.357043065602461
 20
-7.564006838003805
 30
0.0
 10
-9.25576054446482
 20
-7.92829523324982
 30
0.0
 10
-9.103833340520141
 20
-8.474731960913359
 30
0.0
 10
-8.951914574997966
 20
-9.021171034671567
 30
0.0
 10
-8.850629616087145
 20
-9.385463838418592
 30
0.0
 10
-8.799987792968234
 20
-9.567607879638877
 30
0.0
 11
-9.407684326171271
 21
-7.38186264038084
 31
0.0
 11
-9.255760192871267
 21
-7.928295135497856
 31
0.0
 11
-9.103836059570271
 21
-8.474727630614873
 31
0.0
 11
-8.951911926269243
 21
-9.021175384520836
 31
0.0
 11
-8.799987792968234
 21
-9.567607879638877
 31
0.0
  0
SPLINE
  5
C128
330
1F
100
AcDbEntity
  8
AM_0
100
AcDbSpline
210
0.0
220
0.0
230
1.0
 70
     8
 71
     3
 72
    11
 73
     7
 74
     5
 42
0.0000000001
 43
0.0000000001
 44
0.0000000001
 40
0.0
 40
0.0
 40
0.0
 40
0.0
 40
0.0579458126163443
 40
0.1147329353220663
 40
0.1706726991786361
 40
0.2261462681508322
 40
0.2261462681508322
 40
0.2261462681508322
 40
0.2261462681508322
 10
-9.598613739013265
 20
-7.683116912841836
 30
0.0
 10
-9.581004057881097
 20
-7.675048912294387
 30
0.0
 10
-9.546136820454364
 20
-7.659074239696083
 30
0.0
 10
-9.500628054863021
 20
-7.624297222673313
 30
0.0
 10
-9.462049466191935
 20
-7.582947327193721
 30
0.0
 10
-9.444175579393448
 20
-7.55024499599017
 30
0.0
 10
-9.43527603149427
 20
-7.53396224975584
 30
0.0
 11
-9.598613739013265
 21
-7.683116912841836
 31
0.0
 11
-9.546875000000275
 21
-7.657024383544848
 31
0.0
 11
-9.501468658447256
 21
-7.622920989989875
 31
0.0
 11
-9.463878631591278
 21
-7.581493377684847
 31
0.0
 11
-9.43527603149427
 21
-7.53396224975584
 31
0.0
  0
SPLINE
  5
C129
330
1F
100
AcDbEntity
  8
AM_0
100
AcDbSpline
210
0.0
220
0.0
230
1.0
 70
     8
 71
     3
 72
    11
 73
     7
 74
     5
 42
0.0000000001
 43
0.0000000001
 44
0.0000000001
 40
0.0
 40
0.0
 40
0.0
 40
0.0
 40
0.0482690069681244
 40
0.0959705319629713
 40
0.1430140523651829
 40
0.1893487321671639
 40
0.1893487321671639
 40
0.1893487321671639
 40
0.1893487321671639
 10
-9.78453826904327
 20
-7.709926605223853
 30
0.0
 10
-9.768446241606284
 20
-7.710598251378657
 30
0.0
 10
-9.736451375117523
 20
-7.711933647377376
 30
0.0
 10
-9.688869335938356
 20
-7.70762691792739
 30
0.0
 10
-9.642500637026838
 20
-7.698897677088975
 30
0.0
 10
-9.61316848419403
 20
-7.688350479413432
 30
0.0
 10
-9.598613739013265
 20
-7.683116912841836
 30
0.0
 11
-9.78453826904327
 21
-7.709926605223853
 31
0.0
 11
-9.736278533935269
 21
-7.710872650145841
 31
0.0
 11
-9.688747406005269
 21
-7.706844329833854
 31
0.0
 11
-9.642612457275269
 21
-7.697643280028881
 31
0.0
 11
-9.598613739013265
 21
-7.683116912841836
 31
0.0
  0
SPLINE
  5
C12A
330
1F
100
AcDbEntity
  8
AM_0
100
AcDbSpline
210
0.0
220
0.0
230
1.0
 70
     8
 71
     3
 72
    11
 73
     7
 74
     5
 42
0.0000000001
 43
0.0000000001
 44
0.0000000001
 40
0.0
 40
0.0
 40
0.0
 40
0.0
 40
2.197728540774342
 40
4.375691534633197
 40
6.556339986375206
 40
8.758378964401355
 40
8.758378964401355
 40
8.758378964401355
 40
8.758378964401355
 10
-17.89445495605425
 20
-9.249660491942867
 30
0.0
 10
-17.16249812218802
 20
-9.285465737738089
 30
0.0
 10
-15.70516739992472
 20
-9.356754210365565
 30
0.0
 10
-13.53446702416914
 20
-9.615686113079142
 30
0.0
 10
-11.3600767352507
 20
-9.857871905822696
 30
0.0
 10
-9.899615646606237
 20
-9.911427118994302
 30
0.0
 10
-9.165821075439259
 20
-9.938335418700864
 30
0.0
 11
-17.89445495605425
 21
-9.249660491942867
 31
0.0
 11
-15.70075607299823
 21
-9.382686614989902
 31
0.0
 11
-13.53498077392523
 21
-9.612773895263899
 31
0.0
 11
-11.36520767211924
 21
-9.830287933348863
 31
0.0
 11
-9.165821075439259
 21
-9.938335418700864
 31
0.0
  0
SPLINE
  5
C12B
330
1F
100
AcDbEntity
  8
AM_0
100
AcDbSpline
210
0.0
220
0.0
230
1.0
 70
     8
 71
     3
 72
    11
 73
     7
 74
     5
 42
0.0000000001
 43
0.0000000001
 44
0.0000000001
 40
0.0
 40
0.0
 40
0.0
 40
0.0
 40
0.5782291540769318
 40
1.15645932999443
 40
1.734703185258448
 40
2.31293336117616
 40
2.31293336117616
 40
2.31293336117616
 40
2.31293336117616
 10
-9.164978027343247
 20
-9.938335418700864
 30
0.0
 10
-9.216606872962369
 20
-9.752635806025205
 30
0.0
 10
-9.319864655438575
 20
-9.381236252507461
 30
0.0
 10
-9.474762293585721
 20
-8.824135061151014
 30
0.0
 10
-9.629642479132391
 20
-8.267028663975828
 30
0.0
 10
-9.73290674622657
 20
-7.895625827095752
 30
0.0
 10
-9.78453826904327
 20
-7.709926605223853
 30
0.0
 11
-9.164978027343247
 21
-9.938335418700864
 31
0.0
 11
-9.319866180420241
 21
-9.381237030028879
 31
0.0
 11
-9.474758148193245
 21
-8.824138641356835
 31
0.0
 11
-9.629646301269263
 21
-8.267024993895839
 31
0.0
 11
-9.78453826904327
 21
-7.709926605223853
 31
0.0
  0
SPLINE
  5
C12C
330
1F
100
AcDbEntity
  8
AM_0
100
AcDbSpline
210
0.0
220
0.0
230
1.0
 70
     8
 71
     3
 72
    11
 73
     7
 74
     5
 42
0.0000000001
 43
0.0000000001
 44
0.0000000001
 40
0.0
 40
0.0
 40
0.0
 40
0.0
 40
0.0559018497938532
 40
0.1122685373927795
 40
0.1691375022668449
 40
0.2265046960471036
 40
0.2265046960471036
 40
0.2265046960471036
 40
0.2265046960471036
 10
-18.10451889038027
 20
-7.256267547606876
 30
0.0
 10
-18.09643862206143
 20
-7.273071893480585
 30
0.0
 10
-18.08021089598005
 20
-7.306820317549572
 30
0.0
 10
-18.0504452866492
 20
-7.354801699332552
 30
0.0
 10
-18.01707945373136
 20
-7.400953909275503
 30
0.0
 10
-17.9916310270225
 20
-7.429312691523412
 30
0.0
 10
-17.97885131835926
 20
-7.443553924559887
 30
0.0
 11
-18.10451889038027
 21
-7.256267547606876
 31
0.0
 11
-18.07940292358425
 21
-7.306209564208893
 31
0.0
 11
-18.04998397827127
 21
-7.354290008544887
 31
0.0
 11
-18.01640701293927
 21
-7.400188446044887
 31
0.0
 11
-17.97885131835926
 21
-7.443553924559887
 31
0.0
  0
SPLINE
  5
C12D
330
1F
100
AcDbEntity
  8
AM_0
100
AcDbSpline
210
0.0
220
0.0
230
1.0
 70
     8
 71
     3
 72
    11
 73
     7
 74
     5
 42
0.0000000001
 43
0.0000000001
 44
0.0000000001
 40
0.0
 40
0.0
 40
0.0
 40
0.0
 40
0.1810071837859602
 40
0.3620130996315389
 40
0.5430346746823363
 40
0.72404185846825
 40
0.72404185846825
 40
0.72404185846825
 40
0.72404185846825
 10
-18.72592544555625
 20
-8.691051483153922
 30
0.0
 10
-18.70587006905769
 20
-8.63414645755442
 30
0.0
 10
-18.66575945654682
 20
-8.520336804970424
 30
0.0
 10
-18.60559621842866
 20
-8.349616071035359
 30
0.0
 10
-18.54543595882993
 20
-8.17889428745738
 30
0.0
 10
-18.50532321419998
 20
-8.065079851872647
 30
0.0
 10
-18.48526763916025
 20
-8.008174896239916
 30
0.0
 11
-18.72592544555625
 21
-8.691051483153922
 31
0.0
 11
-18.66576004028326
 21
-8.520336151122901
 31
0.0
 11
-18.60559844970726
 21
-8.349620819091878
 31
0.0
 11
-18.54543304443326
 21
-8.17889022827088
 31
0.0
 11
-18.48526763916025
 21
-8.008174896239916
 31
0.0
  0
SPLINE
  5
C12E
330
1F
100
AcDbEntity
  8
AM_0
100
AcDbSpline
210
0.0
220
0.0
230
1.0
 70
     8
 71
     3
 72
    11
 73
     7
 74
     5
 42
0.0000000001
 43
0.0000000001
 44
0.0000000001
 40
0.0
 40
0.0
 40
0.0
 40
0.0
 40
0.2888061782314424
 40
0.5699558213135397
 40
0.8305177561982922
 40
1.066948861529847
 40
1.066948861529847
 40
1.066948861529847
 40
1.066948861529847
 10
-17.89445495605425
 20
-9.249660491942867
 30
0.0
 10
-17.99083486838907
 20
-9.239029648042416
 30
0.0
 10
-18.18103956701881
 20
-9.218049794343853
 30
0.0
 10
-18.43353502796828
 20
-9.096216135034094
 30
0.0
 10
-18.63748966574198
 20
-8.922669125879433
 30
0.0
 10
-18.69741674523698
 20
-8.765717166873642
 30
0.0
 10
-18.72592544555625
 20
-8.691051483153922
 30
0.0
 11
-17.89445495605425
 21
-9.249660491942867
 31
0.0
 11
-18.17924880981425
 21
-9.201686859130882
 31
0.0
 11
-18.43367767333924
 21
-9.082057952880882
 31
0.0
 11
-18.62448120117124
 21
-8.904613494872901
 31
0.0
 11
-18.72592544555625
 21
-8.691051483153922
 31
0.0
  0
SPLINE
  5
C12F
330
1F
100
AcDbEntity
  8
AM_0
100
AcDbSpline
210
0.0
220
0.0
230
1.0
 70
     8
 71
     3
 72
    11
 73
     7
 74
     5
 42
0.0000000001
 43
0.0000000001
 44
0.0000000001
 40
0.0
 40
0.0
 40
0.0
 40
0.0
 40
0.4115984943428447
 40
0.8231825974003347
 40
1.234767968405765
 40
1.646352071463252
 40
1.646352071463252
 40
1.646352071463252
 40
1.646352071463252
 10
-17.34724044799826
 20
-7.696910858153859
 30
0.0
 10
-17.39284101301058
 20
-7.826310590586976
 30
0.0
 10
-17.48404054863983
 20
-8.08510553107205
 30
0.0
 10
-17.62084506493938
 20
-8.47329400975104
 30
0.0
 10
-17.75765320809969
 20
-8.861476123937146
 30
0.0
 10
-17.84885442022921
 20
-9.120265835480989
 30
0.0
 10
-17.89445495605425
 20
-9.249660491942867
 30
0.0
 11
-17.34724044799826
 21
-7.696910858153859
 31
0.0
 11
-17.48404312133725
 21
-8.085109710692867
 31
0.0
 11
-17.62084579467726
 21
-8.473293304442867
 31
0.0
 11
-17.75765228271424
 21
-8.861476898192865
 31
0.0
 11
-17.89445495605425
 21
-9.249660491942867
 31
0.0
  0
SPLINE
  5
C130
330
1F
100
AcDbEntity
  8
AM_0
100
AcDbSpline
210
0.0
220
0.0
230
1.0
 70
     8
 71
     3
 72
    11
 73
     7
 74
     5
 42
0.0000000001
 43
0.0000000001
 44
0.0000000001
 40
0.0
 40
0.0
 40
0.0
 40
0.0
 40
0.0878950025217416
 40
0.1770828713719594
 40
0.2674234002334211
 40
0.358706734136954
 40
0.358706734136954
 40
0.358706734136954
 40
0.358706734136954
 10
-17.97885131835926
 20
-7.443553924559887
 30
0.0
 10
-17.95803310296937
 20
-7.464222004859111
 30
0.0
 10
-17.91609045262163
 20
-7.505862176656449
 30
0.0
 10
-17.84396078743208
 20
-7.558689691046971
 30
0.0
 10
-17.76611985914362
 20
-7.604854671279527
 30
0.0
 10
-17.71018706862387
 20
-7.628200853801736
 30
0.0
 10
-17.68207550048826
 20
-7.639934539794885
 30
0.0
 11
-17.97885131835926
 21
-7.443553924559887
 31
0.0
 11
-17.91496276855426
 21
-7.503917694091875
 31
0.0
 11
-17.84348678588826
 21
-7.557262420653861
 31
0.0
 11
-17.76546859741226
 21
-7.602809906005879
 31
0.0
 11
-17.68207550048826
 21
-7.639934539794885
 31
0.0
  0
SPLINE
  5
C131
330
1F
100
AcDbEntity
  8
AM_0
100
AcDbSpline
210
0.0
220
0.0
230
1.0
 70
     8
 71
     3
 72
    11
 73
     7
 74
     5
 42
0.0000000001
 43
0.0000000001
 44
0.0000000001
 40
0.0
 40
0.0
 40
0.0
 40
0.0
 40
0.0850555699448989
 40
0.1704952939986615
 40
0.2560957733045411
 40
0.3416330893081088
 40
0.3416330893081088
 40
0.3416330893081088
 40
0.3416330893081088
 10
-17.68207550048826
 20
-7.639934539794885
 30
0.0
 10
-17.65528465733303
 20
-7.649292696120077
 30
0.0
 10
-17.60158196998191
 20
-7.668051274952513
 30
0.0
 10
-17.51788177601541
 20
-7.685739572813183
 30
0.0
 10
-17.43286893080954
 20
-7.696475721294238
 30
0.0
 10
-17.37577625170617
 20
-7.696765848227202
 30
0.0
 10
-17.34724044799826
 20
-7.696910858153859
 30
0.0
 11
-17.68207550048826
 21
-7.639934539794885
 31
0.0
 11
-17.60120010375927
 21
-7.666271209716874
 31
0.0
 11
-17.51774215698226
 21
-7.684566497802867
 31
0.0
 11
-17.43275070190425
 21
-7.694759368895876
 31
0.0
 11
-17.34724044799826
 21
-7.696910858153859
 31
0.0
  0
SPLINE
  5
C132
330
1F
100
AcDbEntity
  8
AM_0
100
AcDbSpline
210
0.0
220
0.0
230
1.0
 70
     8
 71
     3
 72
    11
 73
     7
 74
     5
 42
0.0000000001
 43
0.0000000001
 44
0.0000000001
 40
0.0
 40
0.0
 40
0.0
 40
0.0
 40
0.055732934495545
 40
0.1114657415736932
 40
0.1671986122300536
 40
0.2229466126882723
 40
0.2229466126882723
 40
0.2229466126882723
 40
0.2229466126882723
 10
-17.31415939331026
 20
-7.430934906005878
 30
0.0
 10
-17.31447174562505
 20
-7.449509924889339
 30
0.0
 10
-17.3150964495405
 20
-7.486659920189799
 30
0.0
 10
-17.31601876876064
 20
-7.542385159130264
 30
0.0
 10
-17.31695435529786
 20
-7.598115199615049
 30
0.0
 10
-17.31756802963553
 20
-7.635270422625085
 30
0.0
 10
-17.31787490844725
 20
-7.653850555419884
 30
0.0
 11
-17.31415939331026
 21
-7.430934906005878
 31
0.0
 11
-17.31509399414027
 21
-7.4866600036619
 31
0.0
 11
-17.31602096557627
 21
-7.542385101317866
 31
0.0
 11
-17.31695175170925
 21
-7.598110198973889
 31
0.0
 11
-17.31787490844725
 21
-7.653850555419884
 31
0.0
  0
SPLINE
  5
C133
330
1F
100
AcDbEntity
  8
AM_0
100
AcDbSpline
210
0.0
220
0.0
230
1.0
 70
     8
 71
     3
 72
    11
 73
     7
 74
     5
 42
0.0000000001
 43
0.0000000001
 44
0.0000000001
 40
0.0
 40
0.0
 40
0.0
 40
0.0
 40
0.0629654226490091
 40
0.1253726616044653
 40
0.1870581201462349
 40
0.2479182397971839
 40
0.2479182397971839
 40
0.2479182397971839
 40
0.2479182397971839
 10
-17.56531143188427
 20
-7.385295867919885
 30
0.0
 10
-17.58478987572826
 20
-7.377429227385435
 30
0.0
 10
-17.6235740884897
 20
-7.361765683487901
 30
0.0
 10
-17.67818078656524
 20
-7.331413303167344
 30
0.0
 10
-17.72949194568421
 20
-7.29698953394867
 30
0.0
 10
-17.76019304944969
 20
-7.269984367386292
 30
0.0
 10
-17.77544021606427
 20
-7.256572723388861
 30
0.0
 11
-17.56531143188427
 21
-7.385295867919885
 31
0.0
 11
-17.62319564819326
 21
-7.360515594481873
 31
0.0
 11
-17.67793655395526
 21
-7.330547332763861
 31
0.0
 11
-17.72888565063427
 21
-7.295772552489913
 31
0.0
 11
-17.77544021606427
 21
-7.256572723388861
 31
0.0
  0
SPLINE
  5
C134
330
1F
100
AcDbEntity
  8
AM_0
100
AcDbSpline
210
0.0
220
0.0
230
1.0
 70
     8
 71
     3
 72
    11
 73
     7
 74
     5
 42
0.0000000001
 43
0.0000000001
 44
0.0000000001
 40
0.0
 40
0.0
 40
0.0
 40
0.0
 40
0.0639705382424066
 40
0.128170884574974
 40
0.1924157739960902
 40
0.256533618243792
 40
0.256533618243792
 40
0.256533618243792
 40
0.256533618243792
 10
-17.56531143188427
 20
-7.385295867919885
 30
0.0
 10
-17.54514130486438
 20
-7.392262631815106
 30
0.0
 10
-17.50472859155668
 20
-7.406221187043949
 30
0.0
 10
-17.44200015164739
 20
-7.420121217764121
 30
0.0
 10
-17.37834249015466
 20
-7.429169414240099
 30
0.0
 10
-17.33553963775544
 20
-7.430346797183242
 30
0.0
 10
-17.31415939331026
 20
-7.430934906005878
 30
0.0
 11
-17.56531143188427
 21
-7.385295867919885
 31
0.0
 11
-17.50445938110327
 21
-7.405025482177867
 31
0.0
 11
-17.44186782836927
 21
-7.419307708739911
 31
0.0
 11
-17.37820816040026
 21
-7.42795944213886
 31
0.0
 11
-17.31415939331026
 21
-7.430934906005878
 31
0.0
  0
ELLIPSE
  5
C140
330
1F
100
AcDbEntity
  8
AM_0
100
AcDbEllipse
 10
-4.646900177002268
 20
1.295322418213141
 30
0.0
 11
2.060211214678001
 21
-1.255874749124992
 31
0.0
210
0.0
220
0.0
230
1.0
 40
0.3139939277237999
 41
2.711838542133833
 42
5.853431430578186
  0
ELLIPSE
  5
C141
330
1F
100
AcDbEntity
  8
AM_0
100
AcDbEllipse
 10
-4.646900177002268
 20
1.295322418213141
 30
0.0
 11
2.060211214678001
 21
-1.255874749124992
 31
0.0
210
0.0
220
0.0
230
1.0
 40
0.3139939277237999
 41
5.853432642163822
 42
6.384814947464286
  0
ELLIPSE
  5
C142
330
1F
100
AcDbEntity
  8
AM_0
100
AcDbEllipse
 10
-4.646900177002268
 20
1.295322418213141
 30
0.0
 11
2.060211214678001
 21
-1.255874749124992
 31
0.0
210
0.0
220
0.0
230
1.0
 40
0.3139939277237999
 41
0.1016296402846999
 42
2.711838542133833
  0
ELLIPSE
  5
C143
330
1F
100
AcDbEntity
  8
AM_0
100
AcDbEllipse
 10
200.0230178833007
 20
0.0000038146976288
 30
0.0
 11
223.3116293075899
 21
8.447758420956528
 31
0.0
210
0.0
220
0.0
230
0.9999999999999998
 40
0.021799320832
 41
2.789975078722303
 42
3.232472614284607
  0
ELLIPSE
  5
C144
330
1F
100
AcDbEntity
  8
AM_0
100
AcDbEllipse
 10
5.043342590331706
 20
0.0000038146971497
 30
0.0
 11
16.72735839260102
 21
-8.658720264523958
 31
0.0
210
0.0
220
0.0
230
1.0
 40
0.2679494641808
 41
3.893706217748203
 42
4.379903251158856
  0
ELLIPSE
  5
C145
330
1F
100
AcDbEntity
  8
AM_0
100
AcDbEllipse
 10
25.34947967529272
 20
0.0000038146972156
 30
0.0
 11
177.8925657026279
 21
-9.643843142112576
 31
0.0
210
0.0
220
0.0
230
0.9999999999999998
 40
0.0080646796791
 41
1.764178888972518
 42
1.865055512618811
  0
ELLIPSE
  5
C146
330
1F
100
AcDbEntity
  8
AM_0
100
AcDbEllipse
 10
-25.93616104125928
 20
0.0000114440920772
 30
0.0
 11
8.702487512103017
 21
-9.715766515620977
 31
0.0
210
0.0
220
0.0
230
1.0
 40
0.0938073432395
 41
2.112712352825687
 42
2.796602356108016
  0
ELLIPSE
  5
C147
330
1F
100
AcDbEntity
  8
AM_0
100
AcDbEllipse
 10
47.18503570556072
 20
0.0000038146972459
 30
0.0
 11
257.92742207514
 21
-1.420826623159388
 31
0.0
210
0.0
220
0.0
230
0.9999999999999998
 40
0.037397804711
 41
1.808722847832241
 42
1.887347595910785
  0
ELLIPSE
  5
C150
330
1F
100
AcDbEntity
  8
AM_3
100
AcDbEllipse
 10
-6.612632751464277
 20
1.190715789795149
 30
0.0
 11
0.0664253026420057
 21
-1.248237644010998
 31
0.0
210
0.0
220
0.0
230
1.0
 40
0.1734101248623
 41
2.084621627941792
 42
3.141593157728791
  0
ELLIPSE
  5
C151
330
1F
100
AcDbEntity
  8
AM_0
100
AcDbEllipse
 10
-6.612632751464277
 20
1.190715789795149
 30
0.0
 11
0.0664253026420057
 21
-1.248237644010998
 31
0.0
210
0.0
220
0.0
230
1.0
 40
0.1734101248623
 41
3.141592149450793
 42
3.456203275866608
  0
ELLIPSE
  5
C152
330
1F
100
AcDbEntity
  8
AM_3
100
AcDbEllipse
 10
-6.612632751464277
 20
1.190715789795149
 30
0.0
 11
0.0797118778200066
 21
-1.497886715749998
 31
0.0
210
0.0
220
0.0
230
1.0
 40
0.1734084671942
 41
1.940712362165434
 42
2.870685251218573
  0
ELLIPSE
  5
C15A
330
1F
100
AcDbEntity
  8
AM_3
100
AcDbEllipse
 10
-6.612632751464277
 20
1.190715789795149
 30
0.0
 11
0.0797118778200066
 21
-1.497886715749998
 31
0.0
210
0.0
220
0.0
230
1.0
 40
0.1734084671942
 41
0.0
 42
6.283185307179584
  0
ELLIPSE
  5
C15B
330
1F
100
AcDbEntity
  8
AM_3
100
AcDbEllipse
 10
-6.612632751464277
 20
1.190715789795149
 30
0.0
 11
0.0664253026420057
 21
-1.248237644010998
 31
0.0
210
0.0
220
0.0
230
1.0
 40
0.1734101248623
 41
0.0
 42
6.283185307179584
  0
ELLIPSE
  5
C15E
330
1F
100
AcDbEntity
  8
AM_0
100
AcDbEllipse
 10
0.3308029174807163
 20
5.195667266846147
 30
0.0
 11
1.767097422532998
 21
-0.083022885579996
 31
0.0
210
0.0
220
0.0
230
0.9999999999999998
 40
0.9775361444284998
 41
3.927774494880472
 42
3.935420713066774
  0
ELLIPSE
  5
C15F
330
1F
100
AcDbEntity
  8
AM_0
100
AcDbEllipse
 10
-1.02372741699228
 20
5.217456817627149
 30
0.0
 11
1.128225335470999
 21
0.6643675503060063
 31
0.0
210
0.0
220
0.0
230
0.9999999999999998
 40
0.9866450118484999
 41
4.152520721907526
 42
4.229965899059209
  0
ELLIPSE
  5
C160
330
1F
100
AcDbEntity
  8
AM_0
100
AcDbEllipse
 10
-9.555721282959275
 20
5.417461395264112
 30
0.0
 11
1.755931888543995
 21
0.9957960919690018
 31
0.0
210
0.0
220
0.0
230
0.9999999999999998
 40
0.9871189065890002
 41
1.478215500407518
 42
1.578749354306148
  0
ELLIPSE
  5
C161
330
1F
100
AcDbEntity
  8
AM_0
100
AcDbEllipse
 10
-10.63489913940427
 20
5.46458053588912
 30
0.0
 11
0.2961310140549951
 21
1.988731283756997
 31
0.0
210
0.0
220
0.0
230
1.0
 40
0.1488280077659
 41
0.5536572734571135
 42
0.5913886581720505
  0
ELLIPSE
  5
C162
330
1F
100
AcDbEntity
  8
AM_0
100
AcDbEllipse
 10
-9.555721282959275
 20
5.417461395264112
 30
0.0
 11
1.755931888543995
 21
0.9957960919690018
 31
0.0
210
0.0
220
0.0
230
0.9999999999999998
 40
0.9871189065890002
 41
4.817427819199255
 42
4.941005504682006
  0
ELLIPSE
  5
C163
330
1F
100
AcDbEntity
  8
AM_0
100
AcDbEllipse
 10
-9.607543945312279
 20
5.419727325440121
 30
0.0
 11
1.755931894106995
 21
0.9957883491269999
 31
0.0
210
0.0
220
0.0
230
1.0
 40
0.9871240199779002
 41
4.147015732943151
 42
4.816028459614956
  0
ELLIPSE
  5
C164
330
1F
100
AcDbEntity
  8
AM_0
100
AcDbEllipse
 10
-9.607543945312279
 20
5.419727325440121
 30
0.0
 11
1.755931894106995
 21
0.9957883491269999
 31
0.0
210
0.0
220
0.0
230
1.0
 40
0.9871240199779002
 41
1.540893906093644
 42
4.147015669715796
  0
ELLIPSE
  5
C16A
330
1F
100
AcDbEntity
  8
AM_0
100
AcDbEllipse
 10
-5.387367248535269
 20
3.547840118408136
 30
0.0
 11
1.499397305310004
 21
-0.0425719390569945
 31
0.0
210
0.0
220
0.0
230
1.0
 40
0.1902212919492
 41
0.3750432283040826
 42
3.064751907112846
  0
ELLIPSE
  5
C16B
330
1F
100
AcDbEntity
  8
AM_0
100
AcDbEllipse
 10
-26.13856887817328
 20
8.155185699463082
 30
0.0
 11
4.065093742042003
 21
-1.055939042179989
 31
0.0
210
0.0
220
0.0
230
0.9999999999999998
 40
0.9886491167101
 41
4.123582157560436
 42
4.161287312566583
  0
ELLIPSE
  5
C16C
330
1F
100
AcDbEntity
  8
AM_0
100
AcDbEllipse
 10
-29.2341499328613
 20
5.515819549561066
 30
0.0
 11
0.5944900331330051
 21
0.5353469917879974
 31
0.0
210
0.0
220
0.0
230
1.0
 40
0.0834496448647
 41
4.555690425766246
 42
4.587192611028335
  0
ELLIPSE
  5
C17E
330
1F
100
AcDbEntity
  8
AM_0
100
AcDbEllipse
 10
-25.86240005493127
 20
0.0000038146970772
 30
0.0
 11
8.051698951616984
 21
9.286635575259019
 31
0.0
210
0.0
220
0.0
230
1.0
 40
0.368864701153
 41
3.152320307912942
 42
3.451138081717576
  0
ELLIPSE
  5
C17F
330
1F
100
AcDbEntity
  8
AM_0
100
AcDbEllipse
 10
38.38503265380071
 20
0.0000038146972334
 30
0.0
 11
257.9273930668799
 21
6.057086883652611
 31
0.0
210
0.0
220
0.0
230
0.9999999999999998
 40
0.0296215657915
 41
4.430923184466612
 42
4.473983553217218
  0
ELLIPSE
  5
C180
330
1F
100
AcDbEntity
  8
AM_0
100
AcDbEllipse
 10
-9.968688964843279
 20
0.0000038146971226
 30
0.0
 11
1.054218604417018
 21
-9.74870258466799
 31
0.0
210
0.0
220
0.0
230
1.0
 40
0.1507330707542
 41
0.0659227139301367
 42
0.2981677090718984
  0
ELLIPSE
  5
C181
330
1F
100
AcDbEntity
  8
AM_0
100
AcDbEllipse
 10
-6.848731994629286
 20
0.0000038146971371
 30
0.0
 11
1.243751583067973
 21
9.747055269844006
 31
0.0
210
0.0
220
0.0
230
1.0
 40
0.1928190451696
 41
3.218143596932068
 42
3.465556806534401
  0
ELLIPSE
  5
C182
330
1F
100
AcDbEntity
  8
AM_0
100
AcDbEllipse
 10
-0.5476074218752967
 20
0.0000038146971522
 30
0.0
 11
1.243751583067973
 21
9.747055269844006
 31
0.0
210
0.0
220
0.0
230
1.0
 40
0.1928190451696
 41
2.354496045230172
 42
2.790890051680451
  0
ELLIPSE
  5
C183
330
1F
100
AcDbEntity
  8
AM_0
100
AcDbEllipse
 10
38.60407257080072
 20
0.0000038146972344
 30
0.0
 11
124.00379553656
 21
-4.926627303501701
 31
0.0
210
0.0
220
0.0
230
1.0
 40
0.0678504348391
 41
4.266023796263543
 42
4.29272216238129
  0
ELLIPSE
  5
C184
330
1F
100
AcDbEntity
  8
AM_0
100
AcDbEllipse
 10
-15.94754791259728
 20
0.000003814697109
 30
0.0
 11
0.0155030710309757
 21
9.750000072378998
 31
0.0
210
0.0
220
0.0
230
1.0
 40
0.0900526796796
 41
4.117982981673915
 42
4.426874694792408
  0
ELLIPSE
  5
C185
330
1F
100
AcDbEntity
  8
AM_0
100
AcDbEllipse
 10
-12.93540191650428
 20
0.0000038146971088
 30
0.0
 11
0.0155030710309757
 21
9.750000072378998
 31
0.0
210
0.0
220
0.0
230
1.0
 40
0.0900526796796
 41
4.091300948433376
 42
4.446336194563474
  0
ELLIPSE
  5
C186
330
1F
100
AcDbEntity
  8
AM_0
100
AcDbEllipse
 10
-25.86240005493127
 20
0.0000038146970772
 30
0.0
 11
8.051698951616984
 21
9.286635575259019
 31
0.0
210
0.0
220
0.0
230
1.0
 40
0.368864701153
 41
3.451138081717576
 42
3.543868528302783
  0
ELLIPSE
  5
C187
330
1F
100
AcDbEntity
  8
AM_0
100
AcDbEllipse
 10
-13.80930709838826
 20
-3.989658355712878
 30
0.0
 11
1.235000624644001
 21
-0.1930618063739941
 31
0.0
210
0.0
220
0.0
230
1.0
 40
0.8616511081029999
 41
3.141592552130157
 42
6.283185307179585
  0
ELLIPSE
  5
C188
330
1F
100
AcDbEntity
  8
AM_0
100
AcDbEllipse
 10
-0.5476074218752967
 20
0.0000038146971522
 30
0.0
 11
1.243751583067973
 21
9.747055269844006
 31
0.0
210
0.0
220
0.0
230
1.0
 40
0.1928190451696
 41
1.740545364917365
 42
2.007385245271648
  0
ELLIPSE
  5
C18B
330
1F
100
AcDbEntity
  8
AM_0
100
AcDbEllipse
 10
-13.80930709838826
 20
-3.989658355712878
 30
0.0
 11
1.235000624644001
 21
-0.1930618063739941
 31
0.0
210
0.0
220
0.0
230
1.0
 40
0.8616511081029999
 41
1.704608516475471
 42
3.141592755049426
  0
ELLIPSE
  5
C18C
330
1F
100
AcDbEntity
  8
AM_0
100
AcDbEllipse
 10
-13.80930709838826
 20
-3.989658355712878
 30
0.0
 11
1.235000624644001
 21
-0.1930618063739941
 31
0.0
210
0.0
220
0.0
230
1.0
 40
0.8616511081029999
 41
0.0
 42
1.704608516475471
  0
ELLIPSE
  5
C18D
330
1F
100
AcDbEntity
  8
AM_0
100
AcDbEllipse
 10
-13.80930709838826
 20
-3.989650726317878
 30
0.0
 11
1.482002265266999
 21
-0.2316740426189946
 31
0.0
210
0.0
220
0.0
230
1.0
 40
0.8616464442837997
 41
0.177508697386113
 42
2.783272567454464
  0
ELLIPSE
  5
C191
330
1F
100
AcDbEntity
  8
AM_0
100
AcDbEllipse
 10
-13.92388534545925
 20
-8.643581390380861
 30
0.0
 11
0.3833810530560154
 21
-7.058624117274999
 31
0.0
210
0.0
220
0.0
230
1.0
 40
0.7072957213798002
 41
1.620267907140379
 42
1.714540696154453
  0
ELLIPSE
  5
C192
330
1F
100
AcDbEntity
  8
AM_0
100
AcDbEllipse
 10
-32.72434616088827
 20
-11.18434524536096
 30
0.0
 11
1.344147433976994
 21
1.820732229610999
 31
0.0
210
0.0
220
0.0
230
1.0
 40
0.1547751818238
 41
0.5278551185336191
 42
0.7462775999874886
  0
ELLIPSE
  5
C193
330
1F
100
AcDbEntity
  8
AM_0
100
AcDbEllipse
 10
-9.708763122558247
 20
-9.864467620848854
 30
0.0
 11
2.964004530533998
 21
-0.4633480852389981
 31
0.0
210
0.0
220
0.0
230
0.9999999999999998
 40
0.8616414374976001
 41
1.20447674820606
 42
1.748458439146113
  0
ELLIPSE
  5
C194
330
1F
100
AcDbEntity
  8
AM_0
100
AcDbEllipse
 10
-9.834560394287272
 20
-7.244121551513881
 30
0.0
 11
0.2258682237659998
 21
-0.0353088559480024
 31
0.0
210
0.0
220
0.0
230
1.0
 40
0.8616110272482998
 41
4.887631598332093
 42
5.423703279643733
  0
ELLIPSE
  5
C195
330
1F
100
AcDbEntity
  8
AM_0
100
AcDbEllipse
 10
-9.820480346679268
 20
-7.263370513915884
 30
0.0
 11
0.2003440939930031
 21
-0.0313186488990023
 31
0.0
210
0.0
220
0.0
230
1.0
 40
0.8615938344599001
 41
5.423671246107217
 42
5.997909345755211
  0
ELLIPSE
  5
C196
330
1F
100
AcDbEntity
  8
AM_0
100
AcDbEllipse
 10
-9.848842620849259
 20
-7.251178741454834
 30
0.0
 11
0.2311706563359977
 21
-0.036140469050998
 31
0.0
210
0.0
220
0.0
230
0.9999999999999998
 40
0.8616172254294999
 41
5.997921962748132
 42
6.218715734343287
  0
ELLIPSE
  5
C197
330
1F
100
AcDbEntity
  8
AM_0
100
AcDbEllipse
 10
-9.819087982177272
 20
-7.257549285888881
 30
0.0
 11
0.2010879535099975
 21
-0.0314331149699991
 31
0.0
210
0.0
220
0.0
230
0.9999999999999998
 40
0.8616311353574999
 41
6.218716059620143
 42
6.353595364048412
  0
ARC
  5
C266
330
1F
100
AcDbEntity
  8
AM_0
100
AcDbCircle
 10
-9.340576171875291
 20
5.408069610596114
 30
0.0
 40
1.998026251792899
100
AcDbArc
 50
121.9023767689253
 51
262.9610007911625
  0
LINE
  5
C267
330
1F
100
AcDbEntity
  8
AM_0
100
AcDbLine
 10
-10.67327499389628
 20
5.562088012695137
 30
0.0
 11
-10.78319168090827
 21
4.437088012695137
 31
0.0
  0
LINE
  5
C268
330
1F
100
AcDbEntity
  8
AM_0
100
AcDbLine
 10
-34.99999046325625
 20
-9.74999618530289
 30
0.0
 11
-34.99999046325629
 21
9.750003814697061
 31
0.0
  0
LINE
  5
C269
330
1F
100
AcDbEntity
  8
AM_0
100
AcDbLine
 10
-35.43300437927228
 20
-9.999996185302894
 30
0.0
 11
-35.43300437927233
 21
10.00000381469705
 31
0.0
  0
LINE
  5
C26A
330
1F
100
AcDbEntity
  8
AM_0
100
AcDbLine
 10
-29.26436996459928
 20
5.399482727051073
 30
0.0
 11
-33.0550880432123
 21
9.608955383301072
 31
0.0
  0
LINE
  5
C26B
330
1F
100
AcDbEntity
  8
AM_0
100
AcDbLine
 10
-14.4886703491213
 20
9.750003814697112
 30
0.0
 11
-34.99999046325629
 21
9.750003814697061
 31
0.0
  0
LINE
  5
C26F
330
1F
100
AcDbEntity
  8
AM_0
100
AcDbLine
 10
-0.0814743041992998
 20
8.648696899414149
 30
0.0
 11
0.0000076293947008
 21
9.774932861328153
 31
0.0
  0
LINE
  5
C270
330
1F
100
AcDbEntity
  8
AM_0
100
AcDbLine
 10
-0.3658218383792928
 20
10.18972015380914
 30
0.0
 11
-0.2136154174802868
 21
10.15330886840813
 31
0.0
  0
LINE
  5
C271
330
1F
100
AcDbEntity
  8
AM_0
100
AcDbLine
 10
-10.15070724487329
 20
9.560607910156132
 30
0.0
 11
-13.55112075805629
 21
9.70907211303712
 31
0.0
  0
LINE
  5
C274
330
1F
100
AcDbEntity
  8
AM_0
100
AcDbLine
 10
-9.955047607421306
 20
9.552066802979137
 30
0.0
 11
-10.15070724487329
 21
9.560607910156132
 31
0.0
  0
LINE
  5
C275
330
1F
100
AcDbEntity
  8
AM_0
100
AcDbLine
 10
-10.53755569458029
 20
7.182052612305122
 30
0.0
 11
-10.1507110595703
 21
9.560604095459121
 31
0.0
  0
LINE
  5
C276
330
1F
100
AcDbEntity
  8
AM_0
100
AcDbLine
 10
-13.55112075805629
 20
9.709068298340124
 30
0.0
 11
-14.4886703491213
 21
9.750000000000119
 31
0.0
  0
LINE
  5
C277
330
1F
100
AcDbEntity
  8
AM_0
100
AcDbLine
 10
-34.99999427795431
 20
9.750003814697061
 30
0.0
 11
-35.4330081939693
 21
10.00000381469705
 31
0.0
  0
LINE
  5
C278
330
1F
100
AcDbEntity
  8
AM_3
100
AcDbLine
 10
-34.99999046325625
 20
-1.571716308593936
 30
0.0
 11
-6.546207427978285
 21
-0.0575103759758654
 31
0.0
  0
LINE
  5
C279
330
1F
100
AcDbEntity
  8
AM_3
100
AcDbLine
 10
-34.99998855590825
 20
0.9318237304690732
 30
0.0
 11
-6.679058074951294
 21
2.438957214356149
 31
0.0
  0
LINE
  5
C27B
330
1F
100
AcDbEntity
  8
AM_0
100
AcDbLine
 10
-31.06200408935526
 20
-8.991580963134904
 30
0.0
 11
-31.70496368408224
 21
-9.50654220580995
 31
0.0
  0
LINE
  5
C27E
330
1F
100
AcDbEntity
  8
AM_0
100
AcDbLine
 10
-9.839618682861264
 20
-7.268863677977872
 30
0.0
 11
-18.21301651000927
 21
-7.255661010741868
 31
0.0
  0
LINE
  5
C27F
330
1F
100
AcDbEntity
  8
AM_0
100
AcDbLine
 10
-9.828964233398258
 20
-7.708351135253832
 30
0.0
 11
-17.32165908813427
 21
-7.696537017821886
 31
0.0
  0
LINE
  5
C280
330
1F
100
AcDbEntity
  8
AM_0
100
AcDbLine
 10
-17.31420135498025
 20
-7.430099487304876
 30
0.0
 11
-9.824592590332267
 21
-7.441909790038875
 31
0.0
  0
LINE
  5
C281
330
1F
100
AcDbEntity
  8
AM_0
100
AcDbLine
 10
-5.651981353759271
 20
-4.502758026122871
 30
0.0
 11
-5.651981353759278
 21
-6.708705902098891
 31
0.0
  0
LINE
  5
C282
330
1F
100
AcDbEntity
  8
AM_0
100
AcDbLine
 10
-1.260337829589286
 20
-0.1026115417478509
 30
0.0
 11
-2.361511230468237
 21
-9.070934295653847
 31
0.0
  0
LINE
  5
C283
330
1F
100
AcDbEntity
  8
AM_0
100
AcDbLine
 10
-0.9517211914062864
 20
-0.9401855468748594
 30
0.0
 11
-1.868549346923261
 21
-8.407135009764832
 31
0.0
  0
LINE
  5
C284
330
1F
100
AcDbEntity
  8
AM_0
100
AcDbLine
 10
-2.075004577636264
 20
-8.378658294677851
 30
0.0
 11
-1.158554077148274
 21
-0.9147834777828641
 31
0.0
  0
LINE
  5
C285
330
1F
100
AcDbEntity
  8
AM_0
100
AcDbLine
 10
-2.756904602050264
 20
-6.708709716796825
 30
0.0
 11
-2.651981353759266
 21
-5.854179382323857
 31
0.0
  0
LINE
  5
C286
330
1F
100
AcDbEntity
  8
AM_3
100
AcDbLine
 10
-6.692344665527282
 20
2.688602447510134
 30
0.0
 11
-6.355434417724278
 21
2.706531524658132
 31
0.0
  0
LINE
  5
C287
330
1F
100
AcDbEntity
  8
AM_0
100
AcDbLine
 10
-4.01095199584928
 20
3.22447586059614
 30
0.0
 11
-7.028572082519287
 21
3.28966140747114
 31
0.0
  0
LINE
  5
C288
330
1F
100
AcDbEntity
  8
AM_0
100
AcDbLine
 10
-0.966224670410277
 20
1.944629669190146
 30
0.0
 11
-8.756904602050283
 21
3.261013031006132
 31
0.0
  0
LINE
  5
C289
330
1F
100
AcDbEntity
  8
AM_3
100
AcDbLine
 10
-6.533752441406289
 20
-0.3072013854978754
 30
0.0
 11
-2.933795928955288
 21
-0.1156272888178586
 31
0.0
  0
LINE
  5
C28A
330
1F
100
AcDbEntity
  8
AM_0
100
AcDbLine
 10
-2.610103607177285
 20
-1.409999847411862
 30
0.0
 11
-0.9662284851072866
 21
1.896961212158143
 31
0.0
  0
LINE
  5
C28B
330
1F
100
AcDbEntity
  8
AM_0
100
AcDbLine
 10
-3.984275817871278
 20
3.70583724975614
 30
0.0
 11
-0.9662284851072804
 21
3.64284896850614
 31
0.0
  0
LINE
  5
C28C
330
1F
100
AcDbEntity
  8
AM_0
100
AcDbLine
 10
-0.9662322998042851
 20
2.488254547119137
 30
0.0
 11
-5.946098327636289
 21
2.786067962647125
 31
0.0
  0
LINE
  5
C28D
330
1F
100
AcDbEntity
  8
AM_0
100
AcDbLine
 10
-0.9662284851072817
 20
3.923130035401154
 30
0.0
 11
-0.9662284851072822
 21
4.022388458252148
 31
0.0
  0
LINE
  5
C28E
330
1F
100
AcDbEntity
  8
AM_0
100
AcDbLine
 10
-0.9662818908692823
 20
0.3339004516601545
 30
0.0
 11
-0.5490722656252841
 21
0.2999992370611439
 31
0.0
  0
LINE
  5
C28F
330
1F
100
AcDbEntity
  8
AM_0
100
AcDbLine
 10
-0.9662284851072923
 20
0.0272254943851476
 30
0.0
 11
-0.9662284851072866
 21
1.896961212158143
 31
0.0
  0
LINE
  5
C290
330
1F
100
AcDbEntity
  8
AM_0
100
AcDbLine
 10
-0.9662284851072895
 20
2.488254547119137
 30
0.0
 11
-0.966228485107287
 21
1.944629669190146
 31
0.0
  0
LINE
  5
C291
330
1F
100
AcDbEntity
  8
AM_0
100
AcDbLine
 10
-1.067424774170279
 20
3.921424865723134
 30
0.0
 11
-1.041164398193276
 21
3.979095458985138
 31
0.0
  0
LINE
  5
C292
330
1F
100
AcDbEntity
  8
AM_0
100
AcDbLine
 10
-0.9662284851072804
 20
3.642841339111154
 30
0.0
 11
-0.9662284851072817
 21
3.923130035401154
 31
0.0
  0
LINE
  5
C293
330
1F
100
AcDbEntity
  8
AM_0
100
AcDbLine
 10
-1.133235931396287
 20
3.922843933106146
 30
0.0
 11
-1.067424774170279
 21
3.921421051026154
 31
0.0
  0
LINE
  5
C294
330
1F
100
AcDbEntity
  8
AM_0
100
AcDbLine
 10
-0.9662284851072895
 20
2.488254547119137
 30
0.0
 11
-0.9662284851072804
 21
3.642841339111154
 31
0.0
  0
LINE
  5
C295
330
1F
100
AcDbEntity
  8
AM_0
100
AcDbLine
 10
-0.9662284851072866
 20
1.896961212158143
 30
0.0
 11
-0.966228485107287
 21
1.944629669190146
 31
0.0
  0
LINE
  5
C296
330
1F
100
AcDbEntity
  8
AM_0
100
AcDbLine
 10
-1.260330200195295
 20
-0.1026115417478509
 30
0.0
 11
-1.123832702636289
 21
-0.1073799133298532
 31
0.0
  0
LINE
  5
C297
330
1F
100
AcDbEntity
  8
AM_0
100
AcDbLine
 10
-1.12383651733428
 20
-0.1073646545408475
 30
0.0
 11
-0.9662322998042879
 21
0.027240753174139
 31
0.0
  0
LINE
  5
C298
330
1F
100
AcDbEntity
  8
AM_0
100
AcDbLine
 10
-3.932392120361272
 20
3.704750061035138
 30
0.0
 11
-3.921951293945285
 21
3.893119812012141
 31
0.0
  0
LINE
  5
C299
330
1F
100
AcDbEntity
  8
AM_0
100
AcDbLine
 10
-4.01095199584928
 20
3.22447586059614
 30
0.0
 11
-3.984275817871278
 21
3.705841064453135
 31
0.0
  0
ARC
  5
C29A
330
1F
100
AcDbEntity
  8
AM_0
100
AcDbCircle
 10
-1.385463714599275
 20
-0.8869285583488453
 30
0.0
 40
0.2286099642515
100
AcDbArc
 50
353.0001402795842
 51
23.62986406531307
  0
ARC
  5
C29B
330
1F
100
AcDbEntity
  8
AM_0
100
AcDbCircle
 10
-1.361797332763281
 20
-0.8765678405758624
 30
0.0
 40
0.20277556777
100
AcDbArc
 50
23.62960816059441
 51
56.24598808907568
  0
ARC
  5
C29C
330
1F
100
AcDbEntity
  8
AM_0
100
AcDbCircle
 10
-1.379131317138281
 20
-0.9025077819818568
 30
0.0
 40
0.23397795856
100
AcDbArc
 50
56.24622031550588
 51
69.11071769268258
  0
ARC
  5
C29D
330
1F
100
AcDbEntity
  8
AM_0
100
AcDbCircle
 10
-1.368274688720285
 20
-0.8740653991698541
 30
0.0
 40
0.2035309821367
100
AcDbArc
 50
69.11061523984631
 51
79.30454963268329
  0
LINE
  5
C29E
330
1F
100
AcDbEntity
  8
AM_0
100
AcDbLine
 10
-0.951725006103282
 20
-0.9401931762688505
 30
0.0
 11
-0.9458389282222807
 21
-0.8958129882808535
 31
0.0
  0
LINE
  5
C29F
330
1F
100
AcDbEntity
  8
AM_0
100
AcDbLine
 10
-1.280731201171287
 20
-0.455585479735848
 30
0.0
 11
-1.303367614746288
 21
-0.4531593322748538
 31
0.0
  0
LINE
  5
C2A0
330
1F
100
AcDbEntity
  8
AM_0
100
AcDbLine
 10
-1.213352203369292
 20
-0.4681549072258547
 30
0.0
 11
-1.295700073242281
 21
-0.6839179992668565
 31
0.0
  0
LINE
  5
C2A1
330
1F
100
AcDbEntity
  8
AM_0
100
AcDbLine
 10
-0.9517173767092765
 20
-0.9401931762688505
 30
0.0
 11
-1.158554077148274
 21
-0.9147949218748603
 31
0.0
  0
LINE
  5
C2A2
330
1F
100
AcDbEntity
  8
AM_0
100
AcDbLine
 10
-0.9636306762692845
 20
-0.7023696899408537
 30
0.0
 11
-1.176025390625292
 21
-0.7952957153318632
 31
0.0
  0
LINE
  5
C2A3
330
1F
100
AcDbEntity
  8
AM_0
100
AcDbLine
 10
-1.116935729980279
 20
-0.5101776123048604
 30
0.0
 11
-1.249118804931279
 21
-0.707973480223845
 31
0.0
  0
CIRCLE
  5
C2A4
330
1F
100
AcDbEntity
  8
AM_0
100
AcDbCircle
 10
-4.151981353759272
 20
-4.502758026122863
 30
0.0
 40
1.25
  0
ARC
  5
C2A5
330
1F
100
AcDbEntity
  8
AM_0
100
AcDbCircle
 10
-4.151981353759272
 20
-4.502758026122863
 30
0.0
 40
1.5
100
AcDbArc
 50
0.0000086514222347
 51
23.52488770023942
  0
LINE
  5
C2A6
330
1F
100
AcDbEntity
  8
AM_0
100
AcDbLine
 10
-2.651981353759273
 20
-4.502758026122856
 30
0.0
 11
-2.651981353759266
 21
-5.854183197020867
 31
0.0
  0
LINE
  5
C2A7
330
1F
100
AcDbEntity
  8
AM_0
100
AcDbLine
 10
-10.42567825317327
 20
4.022655487061138
 30
0.0
 11
-10.57788467407227
 21
4.059066772461131
 31
0.0
  0
LINE
  5
C2A8
330
1F
100
AcDbEntity
  8
AM_0
100
AcDbLine
 10
-6.941005706787281
 20
3.932476043701141
 30
0.0
 11
-6.955394744873275
 21
3.67280197143614
 31
0.0
  0
LINE
  5
C2A9
330
1F
100
AcDbEntity
  8
AM_0
100
AcDbLine
 10
-7.002025604248276
 20
3.768814086914145
 30
0.0
 11
-6.955394744873275
 21
3.672805786133136
 31
0.0
  0
LINE
  5
C2AA
330
1F
100
AcDbEntity
  8
AM_0
100
AcDbLine
 10
-6.88132476806628
 20
3.613063812256141
 30
0.0
 11
-7.028575897216296
 21
3.289665222168136
 31
0.0
  0
LINE
  5
C2AB
330
1F
100
AcDbEntity
  8
AM_0
100
AcDbLine
 10
-6.872280120849271
 20
3.931461334229138
 30
0.0
 11
-6.881320953369283
 21
3.613059997559131
 31
0.0
  0
LINE
  5
C2AC
330
1F
100
AcDbEntity
  8
AM_0
100
AcDbLine
 10
-7.00202178955027
 20
3.768810272217134
 30
0.0
 11
-7.028575897216296
 21
3.289657592774145
 31
0.0
  0
LINE
  5
C2AD
330
1F
100
AcDbEntity
  8
AM_0
100
AcDbLine
 10
-8.44781112670927
 20
3.798995971680133
 30
0.0
 11
-7.002025604248276
 21
3.768821716309131
 31
0.0
  0
LINE
  5
C2AE
330
1F
100
AcDbEntity
  8
AM_0
100
AcDbLine
 10
-12.31535720825225
 20
-3.992015838622887
 30
0.0
 11
-12.23046112060525
 21
-5.67599105834888
 31
0.0
  0
LINE
  5
C2AF
330
1F
100
AcDbEntity
  8
AM_0
100
AcDbLine
 10
-6.471439361572232
 20
-9.577915191649845
 30
0.0
 11
-7.575244903564249
 21
-9.488471984862911
 31
0.0
  0
LINE
  5
C2B0
330
1F
100
AcDbEntity
  8
AM_0
100
AcDbLine
 10
-7.399463653564252
 20
-9.07093429565387
 30
0.0
 11
-2.361507415771254
 21
-9.070934295653847
 31
0.0
  0
LINE
  5
C2B3
330
1F
100
AcDbEntity
  8
AM_0
100
AcDbLine
 10
-1.871551513671264
 20
-8.432598114013844
 30
0.0
 11
-1.868522644043269
 21
-8.407142639159816
 31
0.0
  0
LINE
  5
C2B4
330
1F
100
AcDbEntity
  8
AM_0
100
AcDbLine
 10
-2.074054718017253
 20
-8.378776550292856
 30
0.0
 11
-2.073055267334255
 21
-8.378898620604847
 31
0.0
  0
LINE
  5
C2B5
330
1F
100
AcDbEntity
  8
AM_0
100
AcDbLine
 10
-2.073055267334255
 20
-8.378910064696871
 30
0.0
 11
-1.901309967041258
 21
-8.399997711180846
 31
0.0
  0
LINE
  5
C2B6
330
1F
100
AcDbEntity
  8
AM_0
100
AcDbLine
 10
-1.901306152343254
 20
-8.400001525878852
 30
0.0
 11
-1.868545532226264
 21
-8.407142639159816
 31
0.0
  0
LINE
  5
C2B7
330
1F
100
AcDbEntity
  8
AM_0
100
AcDbLine
 10
-2.242565155029238
 20
-9.01202774047784
 30
0.0
 11
-2.332050323486242
 21
-8.831035614013847
 31
0.0
  0
LINE
  5
C2B8
330
1F
100
AcDbEntity
  8
AM_0
100
AcDbLine
 10
-1.981880187988266
 20
-8.753963470458817
 30
0.0
 11
-2.156410217285256
 21
-8.620429992675843
 31
0.0
  0
LINE
  5
C2B9
330
1F
100
AcDbEntity
  8
AM_0
100
AcDbLine
 10
-4.086326599121248
 20
-9.071933746337847
 30
0.0
 11
-3.979911804199245
 21
-9.084999084472837
 31
0.0
  0
LINE
  5
C2BA
330
1F
100
AcDbEntity
  8
AM_0
100
AcDbLine
 10
-3.979911804199245
 20
-9.085006713866858
 30
0.0
 11
-3.835765838623243
 21
-9.08691787719688
 31
0.0
  0
LINE
  5
C2BB
330
1F
100
AcDbEntity
  8
AM_0
100
AcDbLine
 10
-3.835758209228243
 20
-9.08691024780286
 30
0.0
 11
-2.709369659423244
 21
-9.120429992675845
 31
0.0
  0
LINE
  5
C2BC
330
1F
100
AcDbEntity
  8
AM_0
100
AcDbLine
 10
-2.709365844726248
 20
-9.120441436766846
 30
0.0
 11
-2.676067352295246
 21
-9.121532440184873
 31
0.0
  0
LINE
  5
C2BD
330
1F
100
AcDbEntity
  8
AM_0
100
AcDbLine
 10
-5.651981353759278
 20
-6.708705902098891
 30
0.0
 11
-2.756904602050264
 21
-6.70870590209882
 31
0.0
  0
LINE
  5
C2BE
330
1F
100
AcDbEntity
  8
AM_0
100
AcDbLine
 10
-3.835765838623243
 20
-9.086906433104854
 30
0.0
 11
-3.833801269531247
 21
-9.070926666259833
 31
0.0
  0
LINE
  5
C2BF
330
1F
100
AcDbEntity
  8
AM_0
100
AcDbLine
 10
-2.709373474121247
 20
-9.120441436766846
 30
0.0
 11
-2.703292846679244
 21
-9.070934295653849
 31
0.0
  0
LINE
  5
C2C0
330
1F
100
AcDbEntity
  8
AM_0
100
AcDbLine
 10
-2.468742370605239
 20
-9.102348327636837
 30
0.0
 11
-2.474193572998244
 21
-9.070941925048833
 31
0.0
  0
LINE
  5
C2C3
330
1F
100
AcDbEntity
  8
AM_0
100
AcDbLine
 10
-8.899646759033261
 20
-8.387603759764864
 30
0.0
 11
-8.881477355957258
 21
-8.500007629393827
 31
0.0
  0
LINE
  5
C2C4
330
1F
100
AcDbEntity
  8
AM_0
100
AcDbLine
 10
-9.066017150879268
 20
-7.358547210692885
 30
0.0
 11
-8.899642944336266
 21
-8.387603759764864
 31
0.0
  0
LINE
  5
C2C5
330
1F
100
AcDbEntity
  8
AM_0
100
AcDbLine
 10
-8.88147354125927
 20
-8.50001525878887
 30
0.0
 11
-8.799987792968234
 21
-9.567604064940873
 31
0.0
  0
LINE
  5
C2C6
330
1F
100
AcDbEntity
  8
AM_0
100
AcDbLine
 10
-8.88147354125927
 20
-8.50001525878887
 30
0.0
 11
-8.901622772216271
 21
-8.387935638427883
 31
0.0
  0
LINE
  5
C2C7
330
1F
100
AcDbEntity
  8
AM_0
100
AcDbLine
 10
-9.409534454345271
 20
-7.350013732909852
 30
0.0
 11
-9.412223815918272
 21
-7.296691894530833
 31
0.0
  0
LINE
  5
C2C8
330
1F
100
AcDbEntity
  8
AM_0
100
AcDbLine
 10
-9.407688140869272
 20
-7.381858825682837
 30
0.0
 11
-9.409534454345271
 21
-7.350021362304839
 31
0.0
  0
LINE
  5
C2C9
330
1F
100
AcDbEntity
  8
AM_0
100
AcDbLine
 10
-9.828968048095269
 20
-7.708358764647853
 30
0.0
 11
-9.78453826904327
 21
-7.709930419921858
 31
0.0
  0
LINE
  5
C2CA
330
1F
100
AcDbEntity
  8
AM_0
100
AcDbLine
 10
-7.429618835449243
 20
-9.316486358641867
 30
0.0
 11
-7.399467468261248
 21
-9.070941925048856
 31
0.0
  0
LINE
  5
C2CB
330
1F
100
AcDbEntity
  8
AM_0
100
AcDbLine
 10
-8.991977691650268
 20
-7.375473022460861
 30
0.0
 11
-8.949504852295264
 21
-8.072895050048863
 31
0.0
  0
LINE
  5
C2CC
330
1F
100
AcDbEntity
  8
AM_0
100
AcDbLine
 10
-8.942214965820273
 20
-8.117992401122855
 30
0.0
 11
-8.990695953369275
 21
-7.375801086425875
 31
0.0
  0
LINE
  5
C2CD
330
1F
100
AcDbEntity
  8
AM_0
100
AcDbLine
 10
-9.68089294433626
 20
-6.253471374511872
 30
0.0
 11
-9.839622497558272
 21
-7.268863677977872
 31
0.0
  0
LINE
  5
C2CE
330
1F
100
AcDbEntity
  8
AM_0
100
AcDbLine
 10
-8.274723052978265
 20
-7.645771026610848
 30
0.0
 11
-8.528636932373244
 21
-9.270042419432829
 31
0.0
  0
LINE
  5
C2CF
330
1F
100
AcDbEntity
  8
AM_0
100
AcDbLine
 10
-8.235469818115245
 20
-9.736858367919898
 30
0.0
 11
-7.945198059082239
 21
-9.736858367919897
 31
0.0
  0
LINE
  5
C2D0
330
1F
100
AcDbEntity
  8
AM_0
100
AcDbLine
 10
-8.834560394287247
 20
-9.749996185302883
 30
0.0
 11
-8.245964050293249
 21
-9.749996185302881
 31
0.0
  0
LINE
  5
C2D1
330
1F
100
AcDbEntity
  8
AM_0
100
AcDbLine
 10
-9.409538269043272
 20
-7.350021362304839
 30
0.0
 11
-9.566417694091279
 21
-7.280128479003831
 31
0.0
  0
LINE
  5
C2D2
330
1F
100
AcDbEntity
  8
AM_0
100
AcDbLine
 10
-9.409393310546271
 20
-7.44391250610287
 30
0.0
 11
-9.620185852050264
 21
-7.300136566161864
 31
0.0
  0
LINE
  5
C2D3
330
1F
100
AcDbEntity
  8
AM_0
100
AcDbLine
 10
-9.435272216796269
 20
-7.533973693847864
 30
0.0
 11
-9.636157989502258
 21
-7.342643737792838
 31
0.0
  0
LINE
  5
C2D4
330
1F
100
AcDbEntity
  8
AM_0
100
AcDbLine
 10
-9.598613739013265
 20
-7.683109283446849
 30
0.0
 11
-9.709972381591279
 21
-7.414505004882853
 31
0.0
  0
LINE
  5
C2D5
330
1F
100
AcDbEntity
  8
AM_0
100
AcDbLine
 10
-9.828964233398258
 20
-7.708358764647853
 30
0.0
 11
-9.824588775634273
 21
-7.441917419432838
 31
0.0
  0
LINE
  5
C2D6
330
1F
100
AcDbEntity
  8
AM_0
100
AcDbLine
 10
-18.66023635864225
 20
-8.327594757079875
 30
0.0
 11
-18.95981979370127
 21
-8.343685150145883
 31
0.0
  0
LINE
  5
C2D7
330
1F
100
AcDbEntity
  8
AM_0
100
AcDbLine
 10
-18.72592544555625
 20
-8.691062927245889
 30
0.0
 11
-18.80718612670925
 21
-8.335578918456885
 31
0.0
  0
LINE
  5
C2D8
330
1F
100
AcDbEntity
  8
AM_0
100
AcDbLine
 10
-17.34724044799826
 20
-7.696922302245885
 30
0.0
 11
-17.32167434692327
 21
-7.696640014647888
 31
0.0
  0
LINE
  5
C2D9
330
1F
100
AcDbEntity
  8
AM_0
100
AcDbLine
 10
-18.26789474487326
 20
-7.60666275024388
 30
0.0
 11
-18.66023635864225
 21
-8.327587127684889
 31
0.0
  0
LINE
  5
C2DA
330
1F
100
AcDbEntity
  8
AM_0
100
AcDbLine
 10
-18.21302032470727
 20
-7.255664825438907
 30
0.0
 11
-18.26789093017525
 21
-7.606658935546898
 31
0.0
  0
LINE
  5
C2DB
330
1F
100
AcDbEntity
  8
AM_0
100
AcDbLine
 10
-17.97884368896426
 20
-7.443546295165866
 30
0.0
 11
-17.79459762573227
 21
-7.256317138671895
 31
0.0
  0
LINE
  5
C2DC
330
1F
100
AcDbEntity
  8
AM_0
100
AcDbLine
 10
-17.31787872314426
 20
-7.653842926024897
 30
0.0
 11
-17.32166290283226
 21
-7.696537017821886
 31
0.0
  0
LINE
  5
C2DD
330
1F
100
AcDbEntity
  8
AM_0
100
AcDbLine
 10
-17.68207931518526
 20
-7.639926910399898
 30
0.0
 11
-17.56531906127925
 21
-7.385299682616865
 31
0.0
  0
LINE
  5
C2DE
330
1F
100
AcDbEntity
  8
AM_0
100
AcDbLine
 10
-17.32167434692327
 20
-7.696636199950907
 30
0.0
 11
-17.31787490844725
 21
-7.653850555419884
 31
0.0
  0
LINE
  5
C2DF
330
1F
100
AcDbEntity
  8
AM_0
100
AcDbLine
 10
-22.35111999511724
 20
-8.854534149169904
 30
0.0
 11
-18.95070648193326
 21
-8.671916961669891
 31
0.0
  0
LINE
  5
C2E0
330
1F
100
AcDbEntity
  8
AM_0
100
AcDbLine
 10
-18.95981979370127
 20
-8.343681335448904
 30
0.0
 11
-18.95070648193326
 21
-8.671920776366928
 31
0.0
  0
LINE
  5
C2E1
330
1F
100
AcDbEntity
  8
AM_0
100
AcDbLine
 10
-34.99999046325625
 20
-1.248805999755933
 30
0.0
 11
-34.99999046325625
 21
1.271381378174065
 31
0.0
  0
LINE
  5
C2E2
330
1F
100
AcDbEntity
  8
AM_0
100
AcDbLine
 10
-34.9999904632563
 20
3.000003814697061
 30
0.0
 11
-34.99999046325625
 21
-2.999996185302936
 31
0.0
  0
LINE
  5
C2E3
330
1F
100
AcDbEntity
  8
AM_0
100
AcDbLine
 10
-34.99999046325625
 20
0.9318122863770632
 30
0.0
 11
-34.99999046325625
 21
-1.571712493895932
 31
0.0
  0
LINE
  5
C2E4
330
1F
100
AcDbEntity
  8
AM_0
100
AcDbLine
 10
-35.43300437927228
 20
-10.00000762939389
 30
0.0
 11
-34.99999046325625
 21
-9.750007629393889
 31
0.0
  0
LINE
  5
C2E5
330
1F
100
AcDbEntity
  8
AM_0
100
AcDbLine
 10
-33.87735366821225
 20
-9.317584991454944
 30
0.0
 11
-33.60928916931125
 21
-9.076557159423922
 31
0.0
  0
LINE
  5
C2E6
330
1F
100
AcDbEntity
  8
AM_0
100
AcDbLine
 10
-34.99999046325625
 20
-9.74999618530289
 30
0.0
 11
-32.48798942565925
 21
-9.749996185302935
 31
0.0
  0
LINE
  5
C2E9
330
1F
100
AcDbEntity
  8
AM_0
100
AcDbLine
 10
-184.9999999999992
 20
-7.661495208740292
 30
0.0
 11
-184.9999999999992
 21
7.661502838134717
 31
0.0
  0
LINE
  5
C2EA
330
1F
100
AcDbEntity
  8
AM_0
100
AcDbLine
 10
-181.9999999999991
 20
-9.999996185303288
 30
0.0
 11
-181.9999999999993
 21
10.0000038146967
 31
0.0
  0
LINE
  5
C2EB
330
1F
100
AcDbEntity
  8
AM_0
100
AcDbLine
 10
-181.9999923705992
 20
10.0000038146967
 30
0.0
 11
-183.5176315307592
 21
9.593353271484716
 31
0.0
  0
ARC
  5
C2EC
330
1F
100
AcDbEntity
  8
AM_0
100
AcDbCircle
 10
-182.9999999999992
 20
7.661502838134712
 30
0.0
 40
2.000000238418599
100
AcDbArc
 50
104.9999944978371
 51
180.0000000000001
  0
LINE
  5
C2ED
330
1F
100
AcDbEntity
  8
AM_0
100
AcDbLine
 10
-181.9999923705992
 20
3.000003814696706
 30
0.0
 11
-184.9999923705992
 21
4.732055664062707
 31
0.0
  0
LINE
  5
C2EE
330
1F
100
AcDbEntity
  8
AM_0
100
AcDbLine
 10
-181.9999923705992
 20
-2.999996185303291
 30
0.0
 11
-184.9999999999992
 21
-4.732051849365278
 31
0.0
  0
LINE
  5
C2EF
330
1F
100
AcDbEntity
  8
AM_0
100
AcDbLine
 10
-183.5176315307591
 20
-9.593334197998268
 30
0.0
 11
-181.9999923705991
 21
-9.999984741211266
 31
0.0
  0
ARC
  5
C2F0
330
1F
100
AcDbEntity
  8
AM_0
100
AcDbCircle
 10
-182.9999999999992
 20
-7.661495208740283
 30
0.0
 40
2.0
100
AcDbArc
 50
180.0000000000001
 51
255.0000055021633
  0
DIMENSION
  5
C3D8
330
1F
100
AcDbEntity
  8
AM_5
100
AcDbDimension
  2
*D2
 10
-17.00000000000025
 20
24.43000511987317
 30
0.0
 11
-8.500000000000245
 21
27.03000511987315
 31
0.0
 70
    32
  1
17
 71
     5
 42
-1.0
 51
359.9999999999998
  3
AM_JIS$0
100
AcDbAlignedDimension
 13
-0.0000000000002779
 23
10.50000000000014
 33
0.0
 14
-17.00000000000027
 24
10.50000000000011
 34
0.0
 50
180.0
100
AcDbRotatedDimension
1001
GENIUS_GENDTOL_13
1000

1000
h7
1000

1040
0.0
1001
ACAD
1000
DSTYLE
1002
{
1070
   287
1070
     3
1070
    42
1040
1.5
1070
    43
1040
12.0
1070
    48
1040
0.1
1070
    78
1070
     8
1070
   140
1040
3.2
1070
   147
1040
1.0
1070
   176
1070
   256
1070
   177
1070
   256
1070
   271
1070
     0
1070
   272
1070
     3
1070
   275
1070
     0
1070
   284
1070
     0
1070
   289
1070
     3
1070
   340
1005
6B
1070
   371
1070
    -1
1070
   372
1070
    -1
1002
}
  0
DIMENSION
  5
C4AC
330
1F
100
AcDbEntity
  8
AM_5
100
AcDbDimension
  2
*D3
 10
16.45552925927774
 20
-10.49999999999985
 30
0.0
 11
13.85552925927775
 21
0.0000000000001476
 31
0.0
 70
    32
  1
%%c<>
 71
     5
 42
-1.0
 51
359.9999999999998
  3
AM_JIS$0
100
AcDbAlignedDimension
 13
-0.0000000000002779
 23
10.50000000000014
 33
0.0
 14
-0.0000000000002376
 24
-10.49999999999984
 34
0.0
 50
90.00000000000005
100
AcDbRotatedDimension
1001
GENIUS_GENDTOL_13
1000

1000
h7
1000

1040
0.0
1001
ACAD
1000
DSTYLE
1002
{
1070
   287
1070
     3
1070
    42
1040
1.5
1070
    43
1040
12.0
1070
    48
1040
0.1
1070
    78
1070
     8
1070
   140
1040
3.2
1070
   147
1040
1.0
1070
   176
1070
   256
1070
   177
1070
   256
1070
   271
1070
     0
1070
   272
1070
     3
1070
   275
1070
     0
1070
   284
1070
     0
1070
   289
1070
     3
1070
   340
1005
6B
1070
   371
1070
    -1
1070
   372
1070
    -1
1002
}
  0
DIMENSION
  5
C580
330
1F
100
AcDbEntity
  8
AM_5
100
AcDbDimension
  2
*D4
 10
-34.99999046325626
 20
-24.43000511987284
 30
0.0
 11
-17.49999523162825
 21
-21.83000511987284
 31
0.0
 70
    32
  1
<>
 71
     5
 42
-1.0
 51
359.9999999999998
  3
AM_JIS$0
100
AcDbAlignedDimension
 13
-0.0000000000002376
 23
-10.49999999999984
 33
0.0
 14
-34.99999046325626
 24
-9.750003814696922
 34
0.0
100
AcDbRotatedDimension
1001
GENIUS_GENDTOL_13
1000

1000
h7
1000

1040
0.0
1001
ACAD
1000
DSTYLE
1002
{
1070
   287
1070
     3
1070
    42
1040
1.5
1070
    43
1040
12.0
1070
    48
1040
0.1
1070
    78
1070
     8
1070
   140
1040
3.2
1070
   147
1040
1.0
1070
   176
1070
   256
1070
   177
1070
   256
1070
   271
1070
     0
1070
   272
1070
     3
1070
   275
1070
     0
1070
   284
1070
     0
1070
   289
1070
     3
1070
   340
1005
6B
1070
   371
1070
    -1
1070
   372
1070
    -1
1002
}
  0
DIMENSION
  5
C621
330
1F
100
AcDbEntity
  8
AM_5
100
AcDbDimension
  2
*D5
 10
-185.0000002384178
 20
-24.43000511987284
 30
0.0
 11
-109.999995350837
 21
-21.83000511987284
 31
0.0
 70
    32
  1
<>
 71
     5
 42
-1.0
 51
359.9999999999998
  3
AM_JIS$0
100
AcDbAlignedDimension
 13
-34.99999046325626
 23
-9.750003814696922
 33
0.0
 14
-185.0000002384178
 24
-7.661502838135263
 34
0.0
100
AcDbRotatedDimension
1001
GENIUS_GENDTOL_13
1000

1000
h7
1000

1040
0.0
1001
ACAD
1000
DSTYLE
1002
{
1070
   287
1070
     3
1070
    42
1040
1.5
1070
    43
1040
12.0
1070
    48
1040
0.1
1070
    78
1070
     8
1070
   140
1040
3.2
1070
   147
1040
1.0
1070
   176
1070
   256
1070
   177
1070
   256
1070
   271
1070
     0
1070
   272
1070
     3
1070
   275
1070
     0
1070
   284
1070
     0
1070
   289
1070
     3
1070
   340
1005
6B
1070
   371
1070
    -1
1070
   372
1070
    -1
1002
}
  0
DIMENSION
  5
C6BF
330
1F
100
AcDbEntity
  8
AM_5
100
AcDbDimension
  2
*D6
 10
-184.9999999999992
 20
-34.43000511987284
 30
0.0
 11
-92.49999999999976
 21
-31.83000511987284
 31
0.0
 70
    32
  1
<>
 71
     5
 42
-1.0
 51
359.9999999999998
  3
AM_JIS$0
100
AcDbAlignedDimension
 13
-0.0000000000002376
 23
-10.49999999999984
 33
0.0
 14
-184.9999999999992
 24
-7.661502838135263
 34
0.0
100
AcDbRotatedDimension
1001
GENIUS_GENDTOL_13
1000

1000
h7
1000

1040
0.0
1001
ACAD
1000
DSTYLE
1002
{
1070
   287
1070
     3
1070
    42
1040
1.5
1070
    43
1040
12.0
1070
    48
1040
0.1
1070
    78
1070
     8
1070
   140
1040
3.2
1070
   147
1040
1.0
1070
   176
1070
   256
1070
   177
1070
   256
1070
   271
1070
     0
1070
   272
1070
     3
1070
   275
1070
     0
1070
   284
1070
     0
1070
   289
1070
     3
1070
   340
1005
6B
1070
   371
1070
    -1
1070
   372
1070
    -1
1002
}
  0
DIMENSION
  5
C754
330
1F
100
AcDbEntity
  8
AM_5
100
AcDbDimension
  2
*D7
 10
-201.2789469228493
 20
-10.00000381469724
 30
0.0
 11
-203.8789469228492
 21
-0.00000953674329
 31
0.0
 70
    32
  1
%%c<>
 71
     5
 42
-1.0
 51
359.9999999999998
  3
AM_JIS$0
100
AcDbAlignedDimension
 13
-181.9999923705992
 23
9.999984741210724
 33
0.0
 14
-181.9999923705992
 24
-10.00000381469725
 34
0.0
 50
270.0000000000002
100
AcDbRotatedDimension
1001
GENIUS_GENDTOL_13
1000

1000
h7
1000

1040
0.0
1001
ACAD
1000
DSTYLE
1002
{
1070
   287
1070
     3
1070
   147
1040
1.0
1070
    44
1040
1.0
1070
    41
1040
2.5
1070
    40
1040
1.0
1070
    42
1040
1.5
1070
    43
1040
12.0
1070
    48
1040
0.1
1070
    78
1070
     8
1070
   140
1040
3.2
1070
   176
1070
   256
1070
   177
1070
   256
1070
   271
1070
     0
1070
   272
1070
     3
1070
   275
1070
     0
1070
   284
1070
     0
1070
   289
1070
     3
1070
   340
1005
6B
1070
   371
1070
    -1
1070
   372
1070
    -1
1002
}
  0
LINE
  5
CAE0
330
1F
100
AcDbEntity
  8
AM_11
100
AcDbLine
 10
-0.000000000000229
 20
-10.49999999999984
 30
0.0
 11
-0.0000000000002864
 21
10.50000000000014
 31
0.0
  0
LINE
  5
CAEC
330
1F
100
AcDbEntity
  8
AM_11
100
AcDbLine
 10
-17.00000000000022
 20
-10.49999999999988
 30
0.0
 11
-17.00000000000028
 21
10.5000000000001
 31
0.0
  0
LINE
  5
CAFE
330
1F
100
AcDbEntity
  8
AM_11
100
AcDbLine
 10
-17.00000000000028
 20
10.5000000000001
 30
0.0
 11
-0.0000000000002881
 21
10.50000000000015
 31
0.0
  0
LINE
  5
CB02
330
1F
100
AcDbEntity
  8
AM_11
100
AcDbLine
 10
-0.0000000000002291
 20
-10.49999999999983
 30
0.0
 11
-17.00000000000022
 21
-10.49999999999988
 31
0.0
  0
VIEWPORT
  5
110
102
{ACAD_XDICTIONARY
360
CCD1
102
}
330
101
100
AcDbEntity
 67
     1
  8
0
100
AcDbViewport
 10
420.5
 20
297.0
 30
0.0
 40
948.9782706766916
 41
628.452
 68
     1
 69
     1
 12
420.5
 22
297.0
 13
0.0
 23
0.0
 14
10.0
 24
10.0
 15
10.0
 25
10.0
 16
0.0
 26
0.0
 36
1.0
 17
0.0
 27
0.0
 37
0.0
 42
50.0
 43
0.0
 44
0.0
 45
628.452
 50
0.0
 51
0.0
 72
   100
 90
    32800
  1

281
     0
 71
     1
 74
     0
110
-0.0000000000002682
120
0.000000000000161
130
0.0
111
1.0
121
0.000000000000002
131
0.0
112
-0.000000000000002
122
1.0
132
0.0
 79
     0
146
0.0
1001
GENIUS_GENSCREG_15
1000
PF
1040
1.0
1000
DF
1040
1.0
1000
MIN
1011
-53.98913533834582
1021
-17.226
1031
0.0
1000
MAX
1011
894.9891353383458
1021
611.226
1031
0.0
1000
FLAGS
1070
     4
1001
GENIUS_GENODEF_13
1002
{
1000
HIER
1070
     0
1002
}
1002
{
1000
MANEDIT
1070
     0
1002
}
1002
{
1000
NOSEL
1070
     0
1002
}
1002
{
1000
BEHIND
1070
     0
1002
}
1002
{
1000
OTHER
1070
     0
1002
}
1002
{
1000
REACTOR
1002
}
1001
GENIUS_GENOBJ-N-SDF_13
1002
{
1000
OWNER
1000
GEN
1002
}
  0
ENDSEC
  0
SECTION
  2
OBJECTS
  0
DICTIONARY
  5
C
330
0
100
AcDbDictionary
281
     1
  3
ACAD_COLOR
350
CC02
  3
ACAD_GROUP
350
D
  3
ACAD_LAYOUT
350
1A
  3
ACAD_MATERIAL
350
CC01
  3
ACAD_MLINESTYLE
350
17
  3
ACAD_PLOTSETTINGS
350
19
  3
ACAD_PLOTSTYLENAME
350
E
  3
ACAD_TABLESTYLE
350
CC03
  3
ACDBHEADERROUNDTRIPXREC
350
CCD0
  3
ACDBVARIABLEDICTIONARY
350
34
  3
ACMDICTIONARY
350
43
  3
AMG
350
2B
  3
AMGSNAPSETTINGS
350
6E
  3
DWGPROPS
350
CCCF
  0
DICTIONARY
  5
74
330
1F
100
AcDbDictionary
280
     1
281
     1
  3
ACAD_INDEX
360
CB90
  3
ACAD_LAYOUTSELFREF
360
CBBE
  0
DICTIONARY
  5
CBC3
330
101
100
AcDbDictionary
280
     1
281
     1
  3
ACAD_LAYOUTSELFREF
360
CBC4
  0
DICTIONARY
  5
CCD1
330
110
100
AcDbDictionary
280
     1
281
     1
  3
ACAD_XREC_ROUNDTRIP
360
CCD2
  0
DICTIONARY
  5
CC02
102
{ACAD_REACTORS
330
C
102
}
330
C
100
AcDbDictionary
281
     1
  0
DICTIONARY
  5
D
102
{ACAD_REACTORS
330
C
102
}
330
C
100
AcDbDictionary
281
     1
  0
DICTIONARY
  5
1A
102
{ACAD_REACTORS
330
C
102
}
330
C
100
AcDbDictionary
281
     1
  3
Model
350
CC05
  3
レイアウト1
350
CC06
  0
DICTIONARY
  5
CC01
102
{ACAD_REACTORS
330
C
102
}
330
C
100
AcDbDictionary
281
     1
  0
DICTIONARY
  5
17
102
{ACAD_REACTORS
330
C
102
}
330
C
100
AcDbDictionary
281
     1
  3
STANDARD
350
18
  0
DICTIONARY
  5
19
102
{ACAD_REACTORS
330
C
102
}
330
C
100
AcDbDictionary
281
     1
  3
ASAMI
350
399D
  0
ACDBDICTIONARYWDFLT
  5
E
102
{ACAD_REACTORS
330
C
102
}
330
C
100
AcDbDictionary
281
     1
  3
Normal
350
F
100
AcDbDictionaryWithDefault
340
F
  0
DICTIONARY
  5
CC03
102
{ACAD_REACTORS
330
C
102
}
330
C
100
AcDbDictionary
281
     1
  3
Standard
350
CC04
  0
DICTIONARY
  5
CCD0
102
{ACAD_REACTORS
330
C
102
}
330
C
100
AcDbDictionary
281
     1
  0
DICTIONARY
  5
34
102
{ACAD_REACTORS
330
C
102
}
330
C
100
AcDbDictionary
281
     1
  3
CTABLESTYLE
350
CCCB
  3
DIMASSOC
350
CCCC
  3
INDEXCTL
350
35
  3
PROJECTNAME
350
CCCD
  3
SORTENTS
350
B5E
  0
DICTIONARY
  5
43
102
{ACAD_REACTORS
330
C
102
}
330
C
100
AcDbDictionary
281
     1
  3
ACMSTDDICTIONARY
350
260
  0
DICTIONARY
  5
2B
102
{ACAD_REACTORS
330
C
102
}
330
C
100
AcDbDictionary
281
     1
  0
DICTIONARY
  5
6E
102
{ACAD_REACTORS
330
C
102
}
330
C
100
AcDbDictionary
281
     1
  0
XRECORD
  5
CCCF
102
{ACAD_REACTORS
330
C
102
}
330
C
100
AcDbXrecord
280
     1
  1
DWGPROPS COOKIE
  2

  3

  4

  6

  7

  8
那須
  9

300
AmdtFileType=82
301
=
302
=
303
=
304
=
305
=
306
=
307
=
308
=
309
=
 40
0.9794129050925926
 41
2452802.716478762
 42
2453691.649528889
  1

 90
        1
  0
DICTIONARY
  5
CB90
102
{ACAD_REACTORS
330
74
102
}
330
74
100
AcDbDictionary
281
     1
  3
*A1
350
CB91
  0
XRECORD
  5
CBBE
102
{ACAD_REACTORS
330
74
102
}
330
74
100
AcDbXrecord
280
     1
340
1F
  0
XRECORD
  5
CBC4
102
{ACAD_REACTORS
330
CBC3
102
}
330
CBC3
100
AcDbXrecord
280
     1
340
101
  0
XRECORD
  5
CCD2
102
{ACAD_REACTORS
330
CCD1
102
}
330
CCD1
100
AcDbXrecord
280
     1
102
SHADEPLOT
 70
     0
  0
LAYOUT
  5
CC05
102
{ACAD_XDICTIONARY
360
CCD5
102
}
102
{ACAD_REACTORS
330
1A
102
}
330
1A
100
AcDbPlotSettings
  1

  2
SII LP-2150 (D-SCAN C2)
  4

  6

 40
0.0
 41
0.0
 42
0.0
 43
0.0
 44
0.0
 45
0.0
 46
0.0
 47
0.0
 48
0.0
 49
0.0
140
0.0
141
0.0
142
1.0
143
1.0
 70
  1712
 72
     0
 73
     0
 74
     0
  7
sei_cad.ctb
 75
     0
147
1.0
148
0.0
149
0.0
100
AcDbLayout
  1
Model
 70
     1
 71
     0
 10
0.0
 20
0.0
 11
12.0
 21
9.0
 12
0.0
 22
0.0
 32
0.0
 14
0.0
 24
0.0
 34
0.0
 15
0.0
 25
0.0
 35
0.0
146
0.0
 13
0.0
 23
0.0
 33
0.0
 16
1.0
 26
0.0
 36
0.0
 17
0.0
 27
1.0
 37
0.0
 76
     0
330
1F
  0
LAYOUT
  5
CC06
102
{ACAD_XDICTIONARY
360
CCD7
102
}
102
{ACAD_REACTORS
330
1A
102
}
330
1A
100
AcDbPlotSettings
  1

  2
SII LP-2150 (D-SCAN C2)
  4

  6

 40
0.0
 41
0.0
 42
0.0
 43
0.0
 44
0.0
 45
0.0
 46
0.0
 47
0.0
 48
0.0
 49
0.0
140
0.0
141
0.0
142
1.0
143
1.0
 70
   688
 72
     0
 73
     0
 74
     5
  7
sei_cad.ctb
 75
    16
147
1.0
148
0.0
149
0.0
100
AcDbLayout
  1
レイアウト1
 70
     0
 71
     1
 10
0.0
 20
0.0
 11
841.0
 21
594.0
 12
0.0
 22
0.0
 32
0.0
 14
1.000000000000000E+20
 24
1.000000000000000E+20
 34
1.000000000000000E+20
 15
-1.000000000000000E+20
 25
-1.000000000000000E+20
 35
-1.000000000000000E+20
146
0.0
 13
0.0
 23
0.0
 33
0.0
 16
1.0
 26
0.0
 36
0.0
 17
0.0
 27
1.0
 37
0.0
 76
     0
330
101
331
110
  0
MLINESTYLE
  5
18
102
{ACAD_REACTORS
330
17
102
}
330
17
100
AcDbMlineStyle
  2
STANDARD
 70
     0
  3

 62
   256
 51
90.0
 52
90.0
 71
     2
 49
0.5
 62
   256
  6
BYLAYER
 49
-0.5
 62
   256
  6
BYLAYER
  0
PLOTSETTINGS
  5
399D
102
{ACAD_XDICTIONARY
360
CCD3
102
}
102
{ACAD_REACTORS
330
19
102
}
330
19
100
AcDbPlotSettings
  1
asami
  2
RICOH imagio MF1540
  4
A4
  6

 40
5.831416606903076
 41
7.651742935180664
 42
4.90008544921875
 43
5.789077758789062
 44
296.9683227539062
 45
209.9733276367186
 46
0.0
 47
0.0
 48
-156.6707931774246
 49
-74.57609991074048
140
58.59973180214831
141
60.61068161925597
142
1.0
143
1.095343097833084
 70
  1712
 72
     1
 73
     1
 74
     4
  7
asami.ctb
 75
     0
147
0.9129559514076438
148
156.6707931774246
149
74.57609991074048
  0
ACDBPLACEHOLDER
  5
F
102
{ACAD_REACTORS
330
E
102
}
330
E
  0
TABLESTYLE
  5
CC04
102
{ACAD_REACTORS
330
CC03
102
}
330
CC03
100
AcDbTableStyle
  3
Standard
 70
     0
 71
     0
 40
1.5
 41
1.5
280
     0
281
     0
  7
STANDARD
140
4.5
170
     2
 62
     0
 63
     7
283
     0
274
    -2
284
     1
 64
     0
275
    -2
285
     1
 65
     0
276
    -2
286
     1
 66
     0
277
    -2
287
     1
 67
     0
278
    -2
288
     1
 68
     0
279
    -2
289
     1
 69
     0
  7
STANDARD
140
6.0
170
     5
 62
     0
 63
     7
283
     0
274
    -2
284
     1
 64
     0
275
    -2
285
     1
 65
     0
276
    -2
286
     1
 66
     0
277
    -2
287
     1
 67
     0
278
    -2
288
     1
 68
     0
279
    -2
289
     1
 69
     0
  7
STANDARD
140
4.5
170
     5
 62
     0
 63
     7
283
     0
274
    -2
284
     1
 64
     0
275
    -2
285
     1
 65
     0
276
    -2
286
     1
 66
     0
277
    -2
287
     1
 67
     0
278
    -2
288
     1
 68
     0
279
    -2
289
     1
 69
     0
  0
DICTIONARYVAR
  5
CCCB
102
{ACAD_REACTORS
330
34
102
}
330
34
100
DictionaryVariables
280
     0
  1
STANDARD
  0
DICTIONARYVAR
  5
CCCC
102
{ACAD_REACTORS
330
34
102
}
330
34
100
DictionaryVariables
280
     0
  1
1
  0
DICTIONARYVAR
  5
35
102
{ACAD_REACTORS
330
34
102
}
330
34
100
DictionaryVariables
280
     0
  1
1
  0
DICTIONARYVAR
  5
CCCD
102
{ACAD_REACTORS
330
34
102
}
330
34
100
DictionaryVariables
280
     0
  1

  0
DICTIONARYVAR
  5
B5E
102
{ACAD_REACTORS
330
34
102
}
330
34
100
DictionaryVariables
280
     0
  1
96
  0
DICTIONARY
  5
260
102
{ACAD_REACTORS
330
43
102
}
330
43
100
AcDbDictionary
281
     1
  0
LAYER_INDEX
  5
CB91
102
{ACAD_REACTORS
330
CB90
102
}
330
CB90
100
AcDbIndex
 40
2453691.649528889
100
AcDbLayerIndex
  8
0
360
CB92
 90
        0
  8
AM_0
360
CB93
 90
      226
  8
AM_5
360
CB94
 90
        6
  8
AM_7
360
CB95
 90
        1
  8
AM_6
360
CB96
 90
        1
  8
DEFPOINTS
360
CB97
 90
        0
  8
AM_3
360
CB98
 90
       10
  8
AM_11
360
CB99
 90
        4
  0
DICTIONARY
  5
CCD5
330
CC05
100
AcDbDictionary
280
     1
281
     1
  3
ACAD_XREC_ROUNDTRIP
360
CCD6
  0
DICTIONARY
  5
CCD7
330
CC06
100
AcDbDictionary
280
     1
281
     1
  3
ACAD_XREC_ROUNDTRIP
360
CCD8
  0
DICTIONARY
  5
CCD3
330
399D
100
AcDbDictionary
280
     1
281
     1
  3
ACAD_XREC_ROUNDTRIP
360
CCD4
  0
IDBUFFER
  5
CB92
330
0
100
AcDbIdBuffer
  0
IDBUFFER
  5
CB93
330
0
100
AcDbIdBuffer
330
C0A9
330
C0AA
330
C0BD
330
C0BE
330
C0BF
330
C0C7
330
C0C8
330
C0C9
330
C0CA
330
C0CB
330
C0CC
330
C0CD
330
C0CE
330
C0CF
330
C0D0
330
C0D1
330
C0D2
330
C0D3
330
C0E7
330
C0EC
330
C0ED
330
C0EE
330
C0EF
330
C0F0
330
C0F1
330
C0F2
330
C0F3
330
C0F4
330
C0F5
330
C0F6
330
C108
330
C109
330
C10A
330
C10B
330
C10C
330
C10D
330
C10E
330
C10F
330
C110
330
C111
330
C112
330
C113
330
C114
330
C115
330
C116
330
C117
330
C122
330
C123
330
C124
330
C125
330
C126
330
C127
330
C128
330
C129
330
C12A
330
C12B
330
C12C
330
C12D
330
C12E
330
C12F
330
C130
330
C131
330
C132
330
C133
330
C134
330
C140
330
C141
330
C142
330
C143
330
C144
330
C145
330
C146
330
C147
330
C151
330
C15E
330
C15F
330
C160
330
C161
330
C162
330
C163
330
C164
330
C16A
330
C16B
330
C16C
330
C17E
330
C17F
330
C180
330
C181
330
C182
330
C183
330
C184
330
C185
330
C186
330
C187
330
C188
330
C18B
330
C18C
330
C18D
330
C191
330
C192
330
C193
330
C194
330
C195
330
C196
330
C197
330
C266
330
C267
330
C268
330
C269
330
C26A
330
C26B
330
C26F
330
C270
330
C271
330
C274
330
C275
330
C276
330
C277
330
C27B
330
C27E
330
C27F
330
C280
330
C281
330
C282
330
C283
330
C284
330
C285
330
C287
330
C288
330
C28A
330
C28B
330
C28C
330
C28D
330
C28E
330
C28F
330
C290
330
C291
330
C292
330
C293
330
C294
330
C295
330
C296
330
C297
330
C298
330
C299
330
C29A
330
C29B
330
C29C
330
C29D
330
C29E
330
C29F
330
C2A0
330
C2A1
330
C2A2
330
C2A3
330
C2A4
330
C2A5
330
C2A6
330
C2A7
330
C2A8
330
C2A9
330
C2AA
330
C2AB
330
C2AC
330
C2AD
330
C2AE
330
C2AF
330
C2B0
330
C2B3
330
C2B4
330
C2B5
330
C2B6
330
C2B7
330
C2B8
330
C2B9
330
C2BA
330
C2BB
330
C2BC
330
C2BD
330
C2BE
330
C2BF
330
C2C0
330
C2C3
330
C2C4
330
C2C5
330
C2C6
330
C2C7
330
C2C8
330
C2C9
330
C2CA
330
C2CB
330
C2CC
330
C2CD
330
C2CE
330
C2CF
330
C2D0
330
C2D1
330
C2D2
330
C2D3
330
C2D4
330
C2D5
330
C2D6
330
C2D7
330
C2D8
330
C2D9
330
C2DA
330
C2DB
330
C2DC
330
C2DD
330
C2DE
330
C2DF
330
C2E0
330
C2E1
330
C2E2
330
C2E3
330
C2E4
330
C2E5
330
C2E6
330
C2E9
330
C2EA
330
C2EB
330
C2EC
330
C2ED
330
C2EE
330
C2EF
330
C2F0
  0
IDBUFFER
  5
CB94
330
0
100
AcDbIdBuffer
330
C3D8
330
C4AC
330
C580
330
C621
330
C6BF
330
C754
  0
IDBUFFER
  5
CB95
330
0
100
AcDbIdBuffer
330
C0AB
  0
IDBUFFER
  5
CB96
330
0
100
AcDbIdBuffer
330
388D
  0
IDBUFFER
  5
CB97
330
0
100
AcDbIdBuffer
  0
IDBUFFER
  5
CB98
330
0
100
AcDbIdBuffer
330
C0A7
330
C0A8
330
C150
330
C152
330
C15A
330
C15B
330
C278
330
C279
330
C286
330
C289
  0
IDBUFFER
  5
CB99
330
0
100
AcDbIdBuffer
330
CAE0
330
CAEC
330
CAFE
330
CB02
  0
XRECORD
  5
CCD6
102
{ACAD_REACTORS
330
CCD5
102
}
330
CCD5
100
AcDbXrecord
280
     1
102
SHADEPLOT
 70
     0
102
SHADEPLOTRESLEVEL
 70
     2
102
SHADEPLOTCUSTOMDPI
 70
   300
  0
XRECORD
  5
CCD8
102
{ACAD_REACTORS
330
CCD7
102
}
330
CCD7
100
AcDbXrecord
280
     1
102
SHADEPLOT
 70
     0
102
SHADEPLOTRESLEVEL
 70
     2
102
SHADEPLOTCUSTOMDPI
 70
   300
  0
XRECORD
  5
CCD4
102
{ACAD_REACTORS
330
CCD3
102
}
330
CCD3
100
AcDbXrecord
280
     1
102
SHADEPLOT
 70
     0
102
SHADEPLOTRESLEVEL
 70
     2
102
SHADEPLOTCUSTOMDPI
 70
   300
  0
ENDSEC
  0
EOF
