  0
SECTION
  2
HEADER
  9
$ACADVER
  1
AC1015
  9
$ACADMAINTVER
 70
    20
  9
$DWGCODEPAGE
  3
ANSI_932
  9
$INSBASE
 10
0.0
 20
0.0
 30
0.0
  9
$EXTMIN
 10
-238.2000154972018
 20
-59.00000000000012
 30
0.0
  9
$EXTMAX
 10
15.49999999999977
 20
30.70000381469771
 30
0.0
  9
$LIMMIN
 10
-245.4061337008428
 20
-100.5720665713414
  9
$LIMMAX
 10
56.54409727635878
 20
74.25911250114676
  9
$ORTHOMODE
 70
     0
  9
$REGENMODE
 70
     1
  9
$FILLMODE
 70
     1
  9
$QTEXTMODE
 70
     0
  9
$MIRRTEXT
 70
     0
  9
$LTSCALE
 40
1.0
  9
$ATTMODE
 70
     1
  9
$TEXTSIZE
 40
2.5
  9
$TRACEWID
 40
1.0
  9
$TEXTSTYLE
  7
STANDARD
  9
$CLAYER
  8
AM_0
  9
$CELTYPE
  6
BYLAYER
  9
$CECOLOR
 62
   256
  9
$CELTSCALE
 40
1.0
  9
$DISPSILH
 70
     0
  9
$DIMSCALE
 40
0.5
  9
$DIMASZ
 40
2.5
  9
$DIMEXO
 40
1.0
  9
$DIMDLI
 40
12.0
  9
$DIMRND
 40
0.0
  9
$DIMDLE
 40
0.0
  9
$DIMEXE
 40
1.0
  9
$DIMTP
 40
0.1
  9
$DIMTM
 40
0.1
  9
$DIMTXT
 40
3.2
  9
$DIMCEN
 40
0.0
  9
$DIMTSZ
 40
0.0
  9
$DIMTOL
 70
     0
  9
$DIMLIM
 70
     0
  9
$DIMTIH
 70
     0
  9
$DIMTOH
 70
     0
  9
$DIMSE1
 70
     0
  9
$DIMSE2
 70
     0
  9
$DIMTAD
 70
     3
  9
$DIMZIN
 70
     8
  9
$DIMBLK
  1
Open30
  9
$DIMASO
 70
     1
  9
$DIMSHO
 70
     1
  9
$DIMPOST
  1

  9
$DIMAPOST
  1
"
  9
$DIMALT
 70
     0
  9
$DIMALTD
 70
     2
  9
$DIMALTF
 40
0.0393701
  9
$DIMLFAC
 40
1.0
  9
$DIMTOFL
 70
     1
  9
$DIMTVP
 40
0.0
  9
$DIMTIX
 70
     0
  9
$DIMSOXD
 70
     0
  9
$DIMSAH
 70
     0
  9
$DIMBLK1
  1

  9
$DIMBLK2
  1

  9
$DIMSTYLE
  2
AM_JIS
  9
$DIMCLRD
 70
   256
  9
$DIMCLRE
 70
   256
  9
$DIMCLRT
 70
     2
  9
$DIMTFAC
 40
0.71
  9
$DIMGAP
 40
1.5
  9
$DIMJUST
 70
     0
  9
$DIMSD1
 70
     0
  9
$DIMSD2
 70
     0
  9
$DIMTOLJ
 70
     0
  9
$DIMTZIN
 70
     0
  9
$DIMALTZ
 70
     0
  9
$DIMALTTZ
 70
     0
  9
$DIMUPT
 70
     0
  9
$DIMDEC
 70
     3
  9
$DIMTDEC
 70
     3
  9
$DIMALTU
 70
     2
  9
$DIMALTTD
 70
     2
  9
$DIMTXSTY
  7
ASAMI
  9
$DIMAUNIT
 70
     0
  9
$DIMADEC
 70
     0
  9
$DIMALTRND
 40
0.0
  9
$DIMAZIN
 70
     2
  9
$DIMDSEP
 70
    46
  9
$DIMATFIT
 70
     3
  9
$DIMFRAC
 70
     0
  9
$DIMLDRBLK
  1
Open30
  9
$DIMLUNIT
 70
     2
  9
$DIMLWD
 70
    -1
  9
$DIMLWE
 70
    -1
  9
$DIMTMOVE
 70
     0
  9
$LUNITS
 70
     2
  9
$LUPREC
 70
     2
  9
$SKETCHINC
 40
1.0
  9
$FILLETRAD
 40
0.4
  9
$AUNITS
 70
     0
  9
$AUPREC
 70
     0
  9
$MENU
  1
.
  9
$ELEVATION
 40
0.0
  9
$PELEVATION
 40
0.0
  9
$THICKNESS
 40
0.0
  9
$LIMCHECK
 70
     1
  9
$CHAMFERA
 40
1.0
  9
$CHAMFERB
 40
1.0
  9
$CHAMFERC
 40
20.0
  9
$CHAMFERD
 40
0.0
  9
$SKPOLY
 70
     0
  9
$TDCREATE
 40
2452802.716478762
  9
$TDUCREATE
 40
2452802.341478762
  9
$TDUPDATE
 40
2453691.648598090
  9
$TDUUPDATE
 40
2453691.273598090
  9
$TDINDWG
 40
0.9327907755
  9
$TDUSRTIMER
 40
0.9327905903
  9
$USRTIMER
 70
     1
  9
$ANGBASE
 50
0.0
  9
$ANGDIR
 70
     0
  9
$PDMODE
 70
     0
  9
$PDSIZE
 40
0.0
  9
$PLINEWID
 40
0.0
  9
$SPLFRAME
 70
     0
  9
$SPLINETYPE
 70
     6
  9
$SPLINESEGS
 70
     8
  9
$HANDSEED
  5
A9F4
  9
$SURFTAB1
 70
     6
  9
$SURFTAB2
 70
     6
  9
$SURFTYPE
 70
     6
  9
$SURFU
 70
     6
  9
$SURFV
 70
     6
  9
$UCSBASE
  2

  9
$UCSNAME
  2

  9
$UCSORG
 10
-0.0000000000002682
 20
0.000000000000161
 30
0.0
  9
$UCSXDIR
 10
1.0
 20
0.000000000000002
 30
0.0
  9
$UCSYDIR
 10
-0.000000000000002
 20
1.0
 30
0.0
  9
$UCSORTHOREF
  2

  9
$UCSORTHOVIEW
 70
     0
  9
$UCSORGTOP
 10
0.0
 20
0.0
 30
0.0
  9
$UCSORGBOTTOM
 10
0.0
 20
0.0
 30
0.0
  9
$UCSORGLEFT
 10
0.0
 20
0.0
 30
0.0
  9
$UCSORGRIGHT
 10
0.0
 20
0.0
 30
0.0
  9
$UCSORGFRONT
 10
0.0
 20
0.0
 30
0.0
  9
$UCSORGBACK
 10
0.0
 20
0.0
 30
0.0
  9
$PUCSBASE
  2

  9
$PUCSNAME
  2

  9
$PUCSORG
 10
0.0
 20
0.0
 30
0.0
  9
$PUCSXDIR
 10
1.0
 20
0.0
 30
0.0
  9
$PUCSYDIR
 10
0.0
 20
1.0
 30
0.0
  9
$PUCSORTHOREF
  2

  9
$PUCSORTHOVIEW
 70
     0
  9
$PUCSORGTOP
 10
0.0
 20
0.0
 30
0.0
  9
$PUCSORGBOTTOM
 10
0.0
 20
0.0
 30
0.0
  9
$PUCSORGLEFT
 10
0.0
 20
0.0
 30
0.0
  9
$PUCSORGRIGHT
 10
0.0
 20
0.0
 30
0.0
  9
$PUCSORGFRONT
 10
0.0
 20
0.0
 30
0.0
  9
$PUCSORGBACK
 10
0.0
 20
0.0
 30
0.0
  9
$USERI1
 70
     0
  9
$USERI2
 70
     0
  9
$USERI3
 70
     0
  9
$USERI4
 70
     0
  9
$USERI5
 70
     0
  9
$USERR1
 40
0.0
  9
$USERR2
 40
0.0
  9
$USERR3
 40
0.0
  9
$USERR4
 40
0.0
  9
$USERR5
 40
0.0
  9
$WORLDVIEW
 70
     1
  9
$SHADEDGE
 70
     3
  9
$SHADEDIF
 70
    70
  9
$TILEMODE
 70
     1
  9
$MAXACTVP
 70
    64
  9
$PINSBASE
 10
0.0
 20
0.0
 30
0.0
  9
$PLIMCHECK
 70
     0
  9
$PEXTMIN
 10
1.000000000000000E+20
 20
1.000000000000000E+20
 30
1.000000000000000E+20
  9
$PEXTMAX
 10
-1.000000000000000E+20
 20
-1.000000000000000E+20
 30
-1.000000000000000E+20
  9
$PLIMMIN
 10
0.0
 20
0.0
  9
$PLIMMAX
 10
841.0
 20
594.0
  9
$UNITMODE
 70
     0
  9
$VISRETAIN
 70
     1
  9
$PLINEGEN
 70
     0
  9
$PSLTSCALE
 70
     0
  9
$TREEDEPTH
 70
  3020
  9
$CMLSTYLE
  2
STANDARD
  9
$CMLJUST
 70
     0
  9
$CMLSCALE
 40
20.0
  9
$PROXYGRAPHICS
 70
     1
  9
$MEASUREMENT
 70
     1
  9
$CELWEIGHT
370
    -1
  9
$ENDCAPS
280
     0
  9
$JOINSTYLE
280
     0
  9
$LWDISPLAY
290
     0
  9
$INSUNITS
 70
     4
  9
$HYPERLINKBASE
  1

  9
$STYLESHEET
  1
ASAMI.ctb
  9
$XEDIT
290
     1
  9
$CEPSNTYPE
380
     0
  9
$PSTYLEMODE
290
     1
  9
$FINGERPRINTGUID
  2
{AFB28963-8C59-40AE-9337-C84526B81ACE}
  9
$VERSIONGUID
  2
{1FE9F99F-F4FB-476F-BB84-96206719F80D}
  9
$EXTNAMES
290
     1
  9
$PSVPSCALE
 40
0.0
  9
$OLESTARTUP
290
     0
  0
ENDSEC
  0
SECTION
  2
CLASSES
  0
CLASS
  1
ACDBDICTIONARYWDFLT
  2
AcDbDictionaryWithDefault
  3
ObjectDBX Classes
 90
        0
280
     0
281
     0
  0
CLASS
  1
ACDBPLACEHOLDER
  2
AcDbPlaceHolder
  3
ObjectDBX Classes
 90
        0
280
     0
281
     0
  0
CLASS
  1
LAYOUT
  2
AcDbLayout
  3
ObjectDBX Classes
 90
        0
280
     0
281
     0
  0
CLASS
  1
AMGSETTINGSOBJ
  2
AmgSettingsObj
  3
"AcadM|Product Description: AutoCAD Mechanical 2000|Company: Autodesk"
 90
        0
280
     0
281
     0
  0
CLASS
  1
ACME_DOCUMENT
  2
AcMeDbDoc
  3
AcMeServices
 90
        0
280
     0
281
     0
  0
CLASS
  1
ACMESCOPE
  2
AcMeScope
  3
AcMeServices
 90
        0
280
     0
281
     0
  0
CLASS
  1
ACMECOMMANDHISTORY
  2
AcMeCommandHistory
  3
AcMeServices
 90
        0
280
     0
281
     0
  0
CLASS
  1
DICTIONARYVAR
  2
AcDbDictionaryVar
  3
ObjectDBX Classes
 90
        0
280
     0
281
     0
  0
CLASS
  1
ACIMSYSVARMAN
  2
AcImSysVarManager
  3
AcMeServices
 90
        0
280
     0
281
     0
  0
CLASS
  1
ACIMREALSYSVAR
  2
AcImRealSysVar
  3
AcMeServices
 90
        0
280
     0
281
     0
  0
CLASS
  1
ACIMINTSYSVAR
  2
AcImIntSysVar
  3
AcMeServices
 90
        0
280
     0
281
     0
  0
CLASS
  1
ACMEDRAWINGMAN
  2
AcMeDrawingMan
  3
AcMeServices
 90
        0
280
     0
281
     0
  0
CLASS
  1
ACMEVIEW
  2
AcMeView
  3
AcMeServices
 90
        0
280
     0
281
     0
  0
CLASS
  1
ACDBENTITYCACHE
  2
AcMeEntityCache
  3
AcMeServices
 90
        0
280
     0
281
     0
  0
CLASS
  1
GSMANAGER
  2
AcMeGSManager
  3
AcMeServices
 90
        0
280
     0
281
     0
  0
CLASS
  1
AMDTINTERNALREACTOR
  2
AmdtInternalReactor
  3
AcMeServices
 90
        0
280
     0
281
     0
  0
CLASS
  1
ACMESTATEMGR
  2
AcMeStateMgr
  3
AcMeServices
 90
        0
280
     0
281
     0
  0
CLASS
  1
ACME_DATABASE
  2
AcMeDbDatabase
  3
AcMeServices
 90
        0
280
     0
281
     0
  0
CLASS
  1
ACRFINSADJUSTERMGR
  2
AcRfInsAdjusterMgr
  3
AcMeServices
 90
        0
280
     0
281
     0
  0
CLASS
  1
ACMDATADICTIONARY
  2
AcmDataDictionary
  3
"AcmSymBB|Product Description: AutoCAD Mechanical 2004 DX|Company: Autodesk"
 90
        0
280
     0
281
     0
  0
CLASS
  1
ACMDATAENTRYBLOCK
  2
AcmDataEntryBlock
  3
"AcmSymBB|Product Description: AutoCAD Mechanical 2004 DX|Company: Autodesk"
 90
    32768
280
     0
281
     0
  0
CLASS
  1
AMGOBJPROPCFG
  2
AmgObjPropCfg
  3
"AmgLay|Product Description: AutoCAD Mechanical 2000|Company: Autodesk"
 90
        1
280
     0
281
     0
  0
CLASS
  1
ACAMGFILTERDAT
  2
AcAmgFilterDat
  3
"AcadM|Product Description: AutoCAD Mechanical 2000|Company: Autodesk"
 90
    32768
280
     0
281
     0
  0
CLASS
  1
LAYER_INDEX
  2
AcDbLayerIndex
  3
ObjectDBX Classes
 90
        0
280
     0
281
     0
  0
CLASS
  1
IDBUFFER
  2
AcDbIdBuffer
  3
ObjectDBX Classes
 90
        0
280
     0
281
     0
  0
CLASS
  1
ACIMSTRSYSVAR
  2
AcImStrSysVar
  3
AcMeServices
 90
        0
280
     0
281
     0
  0
CLASS
  1
ACMSTANDARDJIS
  2
AcmStandardJIS
  3
"Amdt_StdImp|Product Description: AutoCAD Mechanical 2004 DX|Company: Autodesk"
 90
        0
280
     0
281
     0
  0
CLASS
  1
ACMSURFSTANDARDJIS
  2
AcmSurfTextStdJIS
  3
"Amdt_StdImp|Product Description: AutoCAD Mechanical 2004 DX|Company: Autodesk"
 90
        0
280
     0
281
     0
  0
CLASS
  1
ACMFCFSTANDARDJIS
  2
AcmFCFStdJIS
  3
"Amdt_StdImp|Product Description: AutoCAD Mechanical 2004 DX|Company: Autodesk"
 90
    32768
280
     0
281
     0
  0
CLASS
  1
ACMWELDSTANDARDJIS
  2
AcmWeldingStdJIS
  3
"Amdt_StdImp|Product Description: AutoCAD Mechanical 2004 DX|Company: Autodesk"
 90
        0
280
     0
281
     0
  0
CLASS
  1
ACMIDSTANDARDJIS
  2
AcmIdStdJIS
  3
"Amdt_StdImp|Product Description: AutoCAD Mechanical 2004 DX|Company: Autodesk"
 90
        0
280
     0
281
     0
  0
CLASS
  1
ACMDATUMSTANDARDJIS
  2
AcmDatumStdJIS
  3
"Amdt_StdImp|Product Description: AutoCAD Mechanical 2004 DX|Company: Autodesk"
 90
        0
280
     0
281
     0
  0
CLASS
  1
ACMBOMSTANDARDJIS
  2
AcmBOMStdJIS
  3
"Amdt_StdImp|Product Description: AutoCAD Mechanical 2004 DX|Company: Autodesk"
 90
        0
280
     0
281
     0
  0
CLASS
  1
ACMSTANDARDANSI
  2
AcmStandardANSI
  3
"Amdt_StdImp|Product Description: AutoCAD Mechanical 2004 DX|Company: Autodesk"
 90
    32768
280
     0
281
     0
  0
CLASS
  1
ACMSURFSTANDARDANSI
  2
AcmSurfTextStdANSI
  3
"Amdt_StdImp|Product Description: AutoCAD Mechanical 2004 DX|Company: Autodesk"
 90
    32768
280
     0
281
     0
  0
CLASS
  1
ACMFCFSTANDARDANSI
  2
AcmFCFStdANSI
  3
"Amdt_StdImp|Product Description: AutoCAD Mechanical 2004 DX|Company: Autodesk"
 90
    32768
280
     0
281
     0
  0
CLASS
  1
ACMWELDSTANDARDANSI
  2
AcmWeldingStdANSI
  3
"Amdt_StdImp|Product Description: AutoCAD Mechanical 2004 DX|Company: Autodesk"
 90
    32768
280
     0
281
     0
  0
CLASS
  1
ACMIDSTANDARDANSI
  2
AcmIdStdANSI
  3
"Amdt_StdImp|Product Description: AutoCAD Mechanical 2004 DX|Company: Autodesk"
 90
    32768
280
     0
281
     0
  0
CLASS
  1
ACMDATUMSTANDARDANSI
  2
AcmDatumStdANSI
  3
"Amdt_StdImp|Product Description: AutoCAD Mechanical 2004 DX|Company: Autodesk"
 90
    32768
280
     0
281
     0
  0
CLASS
  1
ACMBOMSTANDARDANSI
  2
AcmBOMStdANSI
  3
"Amdt_StdImp|Product Description: AutoCAD Mechanical 2004 DX|Company: Autodesk"
 90
    32768
280
     0
281
     0
  0
CLASS
  1
ACMSTANDARDBSI
  2
AcmStandardBSI
  3
"Amdt_StdImp|Product Description: AutoCAD Mechanical 2004 DX|Company: Autodesk"
 90
    32768
280
     0
281
     0
  0
CLASS
  1
ACMSURFSTANDARDBSI
  2
AcmSurfTextStdBSI
  3
"Amdt_StdImp|Product Description: AutoCAD Mechanical 2004 DX|Company: Autodesk"
 90
    32768
280
     0
281
     0
  0
CLASS
  1
ACMFCFSTANDARDBSI
  2
AcmFCFStdBSI
  3
"Amdt_StdImp|Product Description: AutoCAD Mechanical 2004 DX|Company: Autodesk"
 90
    32768
280
     0
281
     0
  0
CLASS
  1
ACMWELDSTANDARDBSI
  2
AcmWeldingStdBSI
  3
"Amdt_StdImp|Product Description: AutoCAD Mechanical 2004 DX|Company: Autodesk"
 90
    32768
280
     0
281
     0
  0
CLASS
  1
ACMIDSTANDARDBSI
  2
AcmIdStdBSI
  3
"Amdt_StdImp|Product Description: AutoCAD Mechanical 2004 DX|Company: Autodesk"
 90
    32768
280
     0
281
     0
  0
CLASS
  1
ACMDATUMSTANDARDBSI
  2
AcmDatumStdBSI
  3
"Amdt_StdImp|Product Description: AutoCAD Mechanical 2004 DX|Company: Autodesk"
 90
    32768
280
     0
281
     0
  0
CLASS
  1
ACMBOMSTANDARDBSI
  2
AcmBOMStdBSI
  3
"Amdt_StdImp|Product Description: AutoCAD Mechanical 2004 DX|Company: Autodesk"
 90
    32768
280
     0
281
     0
  0
CLASS
  1
STDPART2D
  2
AmgStdPart
  3
"AmgStdPart|Product Description: AutoCAD Mechanical 2000|Company: Autodesk"
 90
    33791
280
     0
281
     1
  0
CLASS
  1
PLOTSETTINGS
  2
AcDbPlotSettings
  3
ObjectDBX Classes
 90
        0
280
     0
281
     0
  0
CLASS
  1
TABLESTYLE
  2
AcDbTableStyle
  3
ObjectDBX Classes
 90
     2047
280
     0
281
     0
  0
CLASS
  1
ACGREFMASTER
  2
AcGrefMaster
  3
AcAttribServices
 90
        0
280
     0
281
     0
  0
CLASS
  1
AM_DRAWING_MGR
  2
AcDmDwgMgr
  3
AcMechDwgViewMgmt
 90
        0
280
     0
281
     0
  0
CLASS
  1
AM_DWG_DOCUMENT
  2
AcDmDwgDocument
  3
AcMechDwgViewMgmt
 90
        0
280
     0
281
     0
  0
CLASS
  1
AM_DWG_SHEET
  2
AcDmSheet
  3
AcMechDwgViewMgmt
 90
        0
280
     0
281
     0
  0
CLASS
  1
AM_VIEWDIMPARMAP
  2
AcDmViewDimParMap
  3
AcMechDwgViewMgmt
 90
        0
280
     0
281
     0
  0
CLASS
  1
AM_DWGMGR_NAME
  2
AcDmDwgMgrName
  3
AcMechDwgViewMgmt
 90
        0
280
     0
281
     0
  0
CLASS
  1
ACGREFACADMASTER
  2
AcGrefacadMaster
  3
AcGrefServices
 90
        0
280
     0
281
     0
  0
CLASS
  1
AMDTMENUSTATEMGR
  2
AmdtMenuStateMgr
  3
McadcomServices
 90
        0
280
     0
281
     0
  0
CLASS
  1
AMDTMCOMMENUSTATE
  2
AmdtMcomMenuState
  3
McadcomServices
 90
        0
280
     0
281
     0
  0
CLASS
  1
AMIMASTER
  2
AmiMaster
  3
AmiServices
 90
        0
280
     0
281
     0
  0
CLASS
  1
MAPIAMMOUDLE
  2
MApiAmModule
  3
MApiAmServices
 90
        0
280
     0
281
     0
  0
CLASS
  1
AMDTADMENUSTATE
  2
AmdtAdMenuState
  3
DesignerServices
 90
        0
280
     0
281
     0
  0
CLASS
  1
ADAPPL
  2
AcAdAppl
  3
DesignerServices
 90
        0
280
     0
281
     0
  0
CLASS
  1
DEPMGR
  2
AcAdDepMgr
  3
DesignerServices
 90
        0
280
     0
281
     0
  0
CLASS
  1
PARAMMGR
  2
AcAdParamMgr
  3
DesignerServices
 90
        0
280
     0
281
     0
  0
CLASS
  1
PARAMSCOPE
  2
AcAdParamScope
  3
DesignerServices
 90
        0
280
     0
281
     0
  0
CLASS
  1
NAMEDAPPL
  2
AcAdNamedAppl
  3
DesignerServices
 90
        0
280
     0
281
     0
  0
CLASS
  1
AMDTDMMENUSTATE
  2
AmdtDmMenuState
  3
AcMechDwgViewMgmt
 90
        0
280
     0
281
     0
  0
CLASS
  1
AMDTAMMENUSTATE
  2
AmdtAmMenuState
  3
DesignerAssemblies
 90
        0
280
     0
281
     0
  0
CLASS
  1
ACAMPROJECT
  2
AcAmProject
  3
DesignerAssemblies
 90
        0
280
     0
281
     0
  0
CLASS
  1
ACAMGRCOMPDEF
  2
AcAmGrCompDef
  3
DesignerAssemblies
 90
        0
280
     0
281
     0
  0
CLASS
  1
ACCMCONTEXT
  2
AcCmContext
  3
DesignerAssemblies
 90
        0
280
     0
281
     0
  0
CLASS
  1
ACAMCOMPDEF
  2
AcAmCompDef
  3
DesignerAssemblies
 90
        0
280
     0
281
     0
  0
CLASS
  1
ACAMCOMPDEFMGR
  2
AcAmCompDefMgr
  3
DesignerAssemblies
 90
        0
280
     0
281
     0
  0
CLASS
  1
AMCONTEXTMGR
  2
AcAmContextMgr
  3
DesignerAssemblies
 90
        0
280
     0
281
     0
  0
CLASS
  1
ACAMCONTEXTMODELER
  2
AcAmContextModeler
  3
DesignerAssemblies
 90
        0
280
     0
281
     0
  0
CLASS
  1
CATALOGSTATE
  2
AcAmCatalogState
  3
DesignerAssemblies
 90
        0
280
     0
281
     0
  0
CLASS
  1
ACAMGRCOMPDEFSET
  2
AcAmGrCompDefSet
  3
DesignerAssemblies
 90
        0
280
     0
281
     0
  0
CLASS
  1
AMDTBROWSERDBTAB
  2
AmdtBrowserDbTab
  3
McadcomServices
 90
        0
280
     0
281
     0
  0
CLASS
  1
CBROWSERAPPOBJECT
  2
CBrowserAppObject
  3
McadcomServices
 90
        0
280
     0
281
     0
  0
CLASS
  1
DM_PLACEHOLDER
  2
AcDmSelsetPlaceholder
  3
AcMechDwgViewMgmt
 90
        0
280
     0
281
     0
  0
CLASS
  1
ACMSTANDARDISO
  2
AcmStandardISO
  3
"Amdt_StdImp|Product Description: AutoCAD Mechanical 2004 DX|Company: Autodesk"
 90
        0
280
     0
281
     0
  0
CLASS
  1
AMDTEDGESTANDARDISO
  2
AmdtEdgeStdISO
  3
"Amdt_StdImp|Product Description: AutoCAD Mechanical 2004 DX|Company: Autodesk"
 90
        0
280
     0
281
     0
  0
CLASS
  1
ACMSURFSTANDARDISO
  2
AcmSurfTextStdISO
  3
"Amdt_StdImp|Product Description: AutoCAD Mechanical 2004 DX|Company: Autodesk"
 90
        0
280
     0
281
     0
  0
CLASS
  1
ACMFCFSTANDARDISO
  2
AcmFCFStdISO
  3
"Amdt_StdImp|Product Description: AutoCAD Mechanical 2004 DX|Company: Autodesk"
 90
        0
280
     0
281
     0
  0
CLASS
  1
ACMWELDSTANDARDISO
  2
AcmWeldingStdISO
  3
"Amdt_StdImp|Product Description: AutoCAD Mechanical 2004 DX|Company: Autodesk"
 90
        0
280
     0
281
     0
  0
CLASS
  1
ACMIDSTANDARDISO
  2
AcmIdStdISO
  3
"Amdt_StdImp|Product Description: AutoCAD Mechanical 2004 DX|Company: Autodesk"
 90
        0
280
     0
281
     0
  0
CLASS
  1
ACMDATUMSTANDARDISO
  2
AcmDatumStdISO
  3
"Amdt_StdImp|Product Description: AutoCAD Mechanical 2004 DX|Company: Autodesk"
 90
        0
280
     0
281
     0
  0
CLASS
  1
ACMBOMSTANDARDISO
  2
AcmBOMStdISO
  3
"Amdt_StdImp|Product Description: AutoCAD Mechanical 2004 DX|Company: Autodesk"
 90
        0
280
     0
281
     0
  0
CLASS
  1
ACMDETAILSTANDARDISO
  2
AmdtDetailSymStdISO
  3
"Amdt_StdImp|Product Description: AutoCAD Mechanical 2004 DX|Company: Autodesk"
 90
        0
280
     0
281
     0
  0
CLASS
  1
ACMSECTIONSTANDARDISO
  2
AmdtSectionSymStdISO
  3
"Amdt_StdImp|Product Description: AutoCAD Mechanical 2004 DX|Company: Autodesk"
 90
        0
280
     0
281
     0
  0
CLASS
  1
ACMCENTERLINESTANDARDISO
  2
AmdtCenterLineStdISO
  3
"Amdt_StdImp|Product Description: AutoCAD Mechanical 2004 DX|Company: Autodesk"
 90
        0
280
     0
281
     0
  0
CLASS
  1
ACMNOTESTANDARDISO
  2
AmdtNoteStdISO
  3
"Amdt_StdImp|Product Description: AutoCAD Mechanical 2004 DX|Company: Autodesk"
 90
        0
280
     0
281
     0
  0
CLASS
  1
AMDTNOTETEMPLATEDB
  2
AmdtNoteTemplateDB
  3
AMDT_STDIMP_MODULE_NAME
 90
        0
280
     0
281
     0
  0
CLASS
  1
ACAMGLAYSTD
  2
AcAmgLayStd
  3
"AcAmgLayStd|Product Description: AutoCAD Mechanical 2000|Company: Autodesk"
 90
        0
280
     0
281
     0
  0
CLASS
  1
ACAMGDIMSTD
  2
AcAmgDimStd
  3
"AcAmgDimStd|Product Description: AutoCAD Mechanical 2000|Company: Autodesk"
 90
        0
280
     0
281
     0
  0
CLASS
  1
ACAMGHOLECHARTSTDISO
  2
AcAmgHoleChartStdISO
  3
ACMSYMBB_MODULE_NAME
 90
        0
280
     0
281
     0
  0
CLASS
  1
ACAMGTITLESTD
  2
AcAmgTitleStd
  3
"TITLEAPP"
 90
        0
280
     0
281
     0
  0
CLASS
  1
ACMTHREADLINESTANDARDISO
  2
AmdtThreadLineStdISO
  3
"Amdt_StdImp|Product Description: AutoCAD Mechanical 2004 DX|Company: Autodesk"
 90
        0
280
     0
281
     0
  0
CLASS
  1
ACMFCFSTANDARDJIS98
  2
AcmFCFStdJIS98
  3
"Amdt_StdImp|Product Description: AutoCAD Mechanical 2004 DX|Company: Autodesk"
 90
        0
280
     0
281
     0
  0
CLASS
  1
ACMDETAILSTANDARDJIS
  2
AmdtDetailSymStdJIS
  3
"Amdt_StdImp|Product Description: AutoCAD Mechanical 2004 DX|Company: Autodesk"
 90
        0
280
     0
281
     0
  0
CLASS
  1
ACMSECTIONSTANDARDJIS
  2
AmdtSectionSymStdJIS
  3
"Amdt_StdImp|Product Description: AutoCAD Mechanical 2004 DX|Company: Autodesk"
 90
        0
280
     0
281
     0
  0
CLASS
  1
ACMCENTERLINESTANDARDJIS
  2
AmdtCenterLineStdJIS
  3
"Amdt_StdImp|Product Description: AutoCAD Mechanical 2004 DX|Company: Autodesk"
 90
        0
280
     0
281
     0
  0
CLASS
  1
ACMTHREADLINESTANDARDJIS
  2
AmdtThreadLineStdJIS
  3
"Amdt_StdImp|Product Description: AutoCAD Mechanical 2004 DX|Company: Autodesk"
 90
        0
280
     0
281
     0
  0
CLASS
  1
ACMNOTESTANDARDJIS
  2
AmdtNoteStdJIS
  3
"Amdt_StdImp|Product Description: AutoCAD Mechanical 2004 DX|Company: Autodesk"
 90
        0
280
     0
281
     0
  0
CLASS
  1
ACAMGHOLECHARTSTDJIS
  2
AcAmgHoleChartStdJIS
  3
ACMSYMBB_MODULE_NAME
 90
        0
280
     0
281
     0
  0
ENDSEC
  0
SECTION
  2
TABLES
  0
TABLE
  2
VPORT
  5
8
330
0
100
AcDbSymbolTable
 70
     3
  0
VPORT
  5
A9E9
330
8
100
AcDbSymbolTableRecord
100
AcDbViewportTableRecord
  2
*Active
 70
     0
 10
0.0
 20
0.0
 11
1.0
 21
1.0
 12
-97.8658802361528
 22
-8.475020529555962
 13
0.0
 23
0.0
 14
2.5
 24
2.5
 15
10.0
 25
10.0
 16
0.0
 26
0.0
 36
1.0
 17
0.0
 27
0.0
 37
0.0
 40
179.612966117575
 41
1.732758620689655
 42
50.0
 43
0.0
 44
0.0
 50
0.0
 51
0.0
 71
     0
 72
   100
 73
     1
 74
     3
 75
     0
 76
     0
 77
     0
 78
     0
281
     0
 65
     1
110
-0.0000000000002682
120
0.000000000000161
130
0.0
111
1.0
121
0.000000000000002
131
0.0
112
-0.000000000000002
122
1.0
132
0.0
 79
     0
146
0.0
  0
ENDTAB
  0
TABLE
  2
LTYPE
  5
5
330
0
100
AcDbSymbolTable
 70
    17
  0
LTYPE
  5
14
330
5
100
AcDbSymbolTableRecord
100
AcDbLinetypeTableRecord
  2
BYBLOCK
 70
     0
  3

 72
    65
 73
     0
 40
0.0
  0
LTYPE
  5
15
330
5
100
AcDbSymbolTableRecord
100
AcDbLinetypeTableRecord
  2
BYLAYER
 70
     0
  3

 72
    65
 73
     0
 40
0.0
  0
LTYPE
  5
16
330
5
100
AcDbSymbolTableRecord
100
AcDbLinetypeTableRecord
  2
CONTINUOUS
 70
     0
  3
Solid line
 72
    65
 73
     0
 40
0.0
  0
LTYPE
  5
4B
330
5
100
AcDbSymbolTableRecord
100
AcDbLinetypeTableRecord
  2
AM_ISO02W050
 70
     0
  3
__ __ __ __ __ __ __ __ __ __ __ __ __ __ __
 72
    65
 73
     2
 40
7.5
 49
6.0
 74
     0
 49
-1.5
 74
     0
  0
LTYPE
  5
4C
330
5
100
AcDbSymbolTableRecord
100
AcDbLinetypeTableRecord
  2
AM_ISO08W050
 70
     0
  3
____ . ____ . ____ . ____ . ____ . ____ . ____
 72
    65
 73
     4
 40
18.0
 49
12.0
 74
     0
 49
-1.5
 74
     0
 49
3.0
 74
     0
 49
-1.5
 74
     0
  0
LTYPE
  5
4D
330
5
100
AcDbSymbolTableRecord
100
AcDbLinetypeTableRecord
  2
AM_ISO09W050
 70
     0
  3
_____ . . _____ . . _____ . . ____ .. ____
 72
    65
 73
     6
 40
22.5
 49
12.0
 74
     0
 49
-1.5
 74
     0
 49
3.0
 74
     0
 49
-1.5
 74
     0
 49
3.0
 74
     0
 49
-1.5
 74
     0
  0
LTYPE
  5
4E
330
5
100
AcDbSymbolTableRecord
100
AcDbLinetypeTableRecord
  2
Amconstr
 70
     0
  3
_______________________
 72
    65
 73
     2
 40
9999.0
 49
9999.0
 74
     0
 49
0.0
 74
     0
  0
LTYPE
  5
4F
330
5
100
AcDbSymbolTableRecord
100
AcDbLinetypeTableRecord
  2
AM_ISO02W050x2
 70
     0
  3
 _ _ _ _ _ _ _ _ _ _ _ _
 72
    65
 73
     2
 40
3.75
 49
3.0
 74
     0
 49
-0.75
 74
     0
  0
LTYPE
  5
50
330
5
100
AcDbSymbolTableRecord
100
AcDbLinetypeTableRecord
  2
AM_ISO08W050x2
 70
     0
  3
__ . __ . __ . __ . __ . __
 72
    65
 73
     4
 40
9.0
 49
6.0
 74
     0
 49
-0.75
 74
     0
 49
1.5
 74
     0
 49
-0.75
 74
     0
  0
LTYPE
  5
53
330
5
100
AcDbSymbolTableRecord
100
AcDbLinetypeTableRecord
  2
Amzigzag
 70
     0
  3
/\/-/\/-/\/-/\/-/\/-/\/
 72
    65
 73
     2
 40
11.0001
 49
0.0001
 74
     4
 75
   135
340
52
 46
0.04
 50
0.0
 44
0.0
 45
0.0
 49
-11.0
 74
     0
  0
LTYPE
  5
166
330
5
100
AcDbSymbolTableRecord
100
AcDbLinetypeTableRecord
  2
ACJISTGL
 70
     0
  3
_ _ _ _ _
 72
    65
 73
     2
 40
3.0
 49
2.0
 74
     0
 49
-1.0
 74
     0
  0
LTYPE
  5
26A
330
5
100
AcDbSymbolTableRecord
100
AcDbLinetypeTableRecord
  2
ACJISTGB
 70
     0
  3
__ . . __ . .
 72
    65
 73
     6
 40
9.0
 49
4.0
 74
     0
 49
-1.0
 74
     0
 49
1.0
 74
     0
 49
-1.0
 74
     0
 49
1.0
 74
     0
 49
-1.0
 74
     0
  0
LTYPE
  5
A95F
330
5
100
AcDbSymbolTableRecord
100
AcDbLinetypeTableRecord
  2
HIDDEN
 70
     0
  3
Hidden __ __ __ __ __ __ __ __ __ __ __ __ __ _
 72
    65
 73
     2
 40
9.524999999999998
 49
6.349999999999999
 74
     0
 49
-3.174999999999999
 74
     0
  0
LTYPE
  5
A960
330
5
100
AcDbSymbolTableRecord
100
AcDbLinetypeTableRecord
  2
PHANTOM2
 70
     0
  3
Phantom (.5x) ___ _ _ ___ _ _ ___ _ _ ___ _ _
 72
    65
 73
     6
 40
31.75
 49
15.875
 74
     0
 49
-3.174999999999999
 74
     0
 49
3.174999999999999
 74
     0
 49
-3.174999999999999
 74
     0
 49
3.174999999999999
 74
     0
 49
-3.174999999999999
 74
     0
  0
LTYPE
  5
A961
330
5
100
AcDbSymbolTableRecord
100
AcDbLinetypeTableRecord
  2
CENTER
 70
     0
  3
__ . __
 72
    65
 73
     4
 40
7.0
 49
4.0
 74
     0
 49
-1.0
 74
     0
 49
1.0
 74
     0
 49
-1.0
 74
     0
  0
LTYPE
  5
A992
330
5
100
AcDbSymbolTableRecord
100
AcDbLinetypeTableRecord
  2
ACISOWELD
 70
     0
  3
_ _ _ _ _
 72
    65
 73
     2
 40
2.0
 49
2.0
 74
     0
 49
-1.0
 74
     0
  0
LTYPE
  5
A995
330
5
100
AcDbSymbolTableRecord
100
AcDbLinetypeTableRecord
  2
ACISOTGB
 70
     0
  3
__ . . __ . .
 72
    65
 73
     6
 40
9.0
 49
4.0
 74
     0
 49
-1.0
 74
     0
 49
1.0
 74
     0
 49
-1.0
 74
     0
 49
1.0
 74
     0
 49
-1.0
 74
     0
  0
LTYPE
  5
A996
330
5
100
AcDbSymbolTableRecord
100
AcDbLinetypeTableRecord
  2
ACISOTGL
 70
     0
  3
_ _ _ _ _
 72
    65
 73
     2
 40
3.0
 49
2.0
 74
     0
 49
-1.0
 74
     0
  0
LTYPE
  5
A9BF
330
5
100
AcDbSymbolTableRecord
100
AcDbLinetypeTableRecord
  2
ACJISWELD
 70
     0
  3
_ _ _ _ _
 72
    65
 73
     2
 40
2.0
 49
2.0
 74
     0
 49
-1.0
 74
     0
  0
ENDTAB
  0
TABLE
  2
LAYER
  5
2
330
0
100
AcDbSymbolTable
 70
     7
  0
LAYER
  5
10
330
2
100
AcDbSymbolTableRecord
100
AcDbLayerTableRecord
  2
0
 70
     0
 62
     7
  6
CONTINUOUS
370
    -3
390
F
  0
LAYER
  5
3F9
330
2
100
AcDbSymbolTableRecord
100
AcDbLayerTableRecord
  2
AM_0
 70
     0
 62
     7
  6
CONTINUOUS
370
    -3
390
F
  0
LAYER
  5
BA4
330
2
100
AcDbSymbolTableRecord
100
AcDbLayerTableRecord
  2
AM_5
 70
     0
 62
     3
  6
CONTINUOUS
370
    -3
390
F
  0
LAYER
  5
BA6
330
2
100
AcDbSymbolTableRecord
100
AcDbLayerTableRecord
  2
AM_7
 70
     0
 62
     4
  6
AM_ISO08W050
370
    -3
390
F
  0
LAYER
  5
E64
330
2
100
AcDbSymbolTableRecord
100
AcDbLayerTableRecord
  2
AM_6
 70
     0
 62
     2
  6
CONTINUOUS
370
    -3
390
F
  0
LAYER
  5
F4D
330
2
100
AcDbSymbolTableRecord
100
AcDbLayerTableRecord
  2
DEFPOINTS
 70
     0
 62
     7
  6
CONTINUOUS
290
     0
370
    -3
390
F
  0
LAYER
  5
4E80
330
2
100
AcDbSymbolTableRecord
100
AcDbLayerTableRecord
  2
AM_11
 70
     0
 62
     3
  6
AM_ISO09W050
370
    -3
390
F
  0
ENDTAB
  0
TABLE
  2
STYLE
  5
3
330
0
100
AcDbSymbolTable
 70
     7
  0
STYLE
  5
11
330
3
100
AcDbSymbolTableRecord
100
AcDbTextStyleTableRecord
  2
STANDARD
 70
     0
 40
0.0
 41
1.0
 50
0.0
 71
     0
 42
2.5
  3
simplex.shx
  4
EXTFONT.SHX
  0
STYLE
  5
52
330
3
100
AcDbSymbolTableRecord
100
AcDbTextStyleTableRecord
  2

 70
     1
 40
0.0
 41
1.0
 50
0.0
 71
     0
 42
2.5
  3
ltypeshp.shx
  4

  0
STYLE
  5
6B
330
3
100
AcDbSymbolTableRecord
100
AcDbTextStyleTableRecord
  2
ASAMI
 70
     0
 40
0.0
 41
1.0
 50
0.0
 71
     0
 42
2.5
  3
simplex.shx
  4
EXTFONT.SHX
  0
STYLE
  5
262
330
3
100
AcDbSymbolTableRecord
100
AcDbTextStyleTableRecord
  2
ACJISTS
 70
     0
 40
1.0
 41
1.0
 50
0.0
 71
     0
 42
1.0
  3
isocp.shx
  4
extfont.shx
  0
STYLE
  5
269
330
3
100
AcDbSymbolTableRecord
100
AcDbTextStyleTableRecord
  2
ACJISGDT
 70
     0
 40
0.0
 41
1.0
 50
0.0
 71
     0
 42
1.0
  3
amgdt.shx
  4

  0
STYLE
  5
A98C
330
3
100
AcDbSymbolTableRecord
100
AcDbTextStyleTableRecord
  2
ACISOTS
 70
     0
 40
3.5
 41
1.0
 50
5.0
 71
     0
 42
3.799999999999999
  3
isocp.shx
  4
extfont.shx
  0
STYLE
  5
A990
330
3
100
AcDbSymbolTableRecord
100
AcDbTextStyleTableRecord
  2
ACISOGDT
 70
     0
 40
0.0
 41
1.0
 50
0.0
 71
     0
 42
2.5
  3
amgdt.shx
  4
extfont.shx
  0
ENDTAB
  0
TABLE
  2
VIEW
  5
6
330
0
100
AcDbSymbolTable
 70
     0
  0
ENDTAB
  0
TABLE
  2
UCS
  5
7
330
0
100
AcDbSymbolTable
 70
     0
  0
ENDTAB
  0
TABLE
  2
APPID
  5
9
330
0
100
AcDbSymbolTable
 70
    36
  0
APPID
  5
12
330
9
100
AcDbSymbolTableRecord
100
AcDbRegAppTableRecord
  2
ACAD
 70
     0
  0
APPID
  5
30
330
9
100
AcDbSymbolTableRecord
100
AcDbRegAppTableRecord
  2
MCAD_NO_VIS
 70
     0
  0
APPID
  5
31
330
9
100
AcDbSymbolTableRecord
100
AcDbRegAppTableRecord
  2
ACAD_TEMP_GRAPHIC
 70
     0
  0
APPID
  5
2C2
330
9
100
AcDbSymbolTableRecord
100
AcDbRegAppTableRecord
  2
GENIUS_GENDTOL_13
 70
     0
  0
APPID
  5
339
330
9
100
AcDbSymbolTableRecord
100
AcDbRegAppTableRecord
  2
GENIUS_GENODEF_13
 70
     0
  0
APPID
  5
33A
330
9
100
AcDbSymbolTableRecord
100
AcDbRegAppTableRecord
  2
GENIUS_GENOBJ-N-RSBK_13
 70
     0
  0
APPID
  5
33B
330
9
100
AcDbSymbolTableRecord
100
AcDbRegAppTableRecord
  2
GENIUS_GENOBJ-N-LIB_13
 70
     0
  0
APPID
  5
33C
330
9
100
AcDbSymbolTableRecord
100
AcDbRegAppTableRecord
  2
GENIUS_GENSCALE_13
 70
     0
  0
APPID
  5
378
330
9
100
AcDbSymbolTableRecord
100
AcDbRegAppTableRecord
  2
GENIUS_GENDIMSH_14
 70
     0
  0
APPID
  5
BB0
330
9
100
AcDbSymbolTableRecord
100
AcDbRegAppTableRecord
  2
GENIUS_GENOBJ-N-CEN_13
 70
     0
  0
APPID
  5
BB1
330
9
100
AcDbSymbolTableRecord
100
AcDbRegAppTableRecord
  2
GENIUS_GENFIL_13
 70
     0
  0
APPID
  5
BB2
330
9
100
AcDbSymbolTableRecord
100
AcDbRegAppTableRecord
  2
GENIUS_GENOBJ-N-CHA_13
 70
     0
  0
APPID
  5
1FAF
330
9
100
AcDbSymbolTableRecord
100
AcDbRegAppTableRecord
  2
GENIUS_GENOBJ-N-CRS_13
 70
     0
  0
APPID
  5
1FB0
330
9
100
AcDbSymbolTableRecord
100
AcDbRegAppTableRecord
  2
GENIUS_GENOENT_13
 70
     0
  0
APPID
  5
1FB1
330
9
100
AcDbSymbolTableRecord
100
AcDbRegAppTableRecord
  2
GENIUS_GENOREF_13
 70
     0
  0
APPID
  5
1FB2
330
9
100
AcDbSymbolTableRecord
100
AcDbRegAppTableRecord
  2
GENIUS_GENOLIS_13
 70
     0
  0
APPID
  5
1FB7
330
9
100
AcDbSymbolTableRecord
100
AcDbRegAppTableRecord
  2
GENIUS_GENOBJ-N-FIL_13
 70
     0
  0
APPID
  5
22A8
330
9
100
AcDbSymbolTableRecord
100
AcDbRegAppTableRecord
  2
GEVID1056506048
 70
     0
  0
APPID
  5
22A9
330
9
100
AcDbSymbolTableRecord
100
AcDbRegAppTableRecord
  2
GEVDC
 70
     0
  0
APPID
  5
22AC
330
9
100
AcDbSymbolTableRecord
100
AcDbRegAppTableRecord
  2
GENIUS_GENBH_13
 70
     0
  0
APPID
  5
22B8
330
9
100
AcDbSymbolTableRecord
100
AcDbRegAppTableRecord
  2
GENIUS_GENOBJ-NBEHI-BHF_13
 70
     0
  0
APPID
  5
22BA
330
9
100
AcDbSymbolTableRecord
100
AcDbRegAppTableRecord
  2
GENIUS_GENOBJ-NBEHI-BHB_13
 70
     0
  0
APPID
  5
35C9
330
9
100
AcDbSymbolTableRecord
100
AcDbRegAppTableRecord
  2
GENIUS_GENREC_14
 70
     0
  0
APPID
  5
35CA
330
9
100
AcDbSymbolTableRecord
100
AcDbRegAppTableRecord
  2
GENIUS_GENOBJ-N-REC_13
 70
     0
  0
APPID
  5
A925
330
9
100
AcDbSymbolTableRecord
100
AcDbRegAppTableRecord
  2
ACATTRIBSERVICES
 70
     0
  0
APPID
  5
A926
330
9
100
AcDbSymbolTableRecord
100
AcDbRegAppTableRecord
  2
AD_DRAW
 70
     0
  0
APPID
  5
A927
330
9
100
AcDbSymbolTableRecord
100
AcDbRegAppTableRecord
  2
DESIGNERASSEMBLIES
 70
     0
  0
APPID
  5
A928
330
9
100
AcDbSymbolTableRecord
100
AcDbRegAppTableRecord
  2
ACADM_DIM_EDIT
 70
     0
  0
APPID
  5
A929
330
9
100
AcDbSymbolTableRecord
100
AcDbRegAppTableRecord
  2
AMDT_DM_ADJ
 70
     0
  0
APPID
  5
A92A
330
9
100
AcDbSymbolTableRecord
100
AcDbRegAppTableRecord
  2
ACAD_DSTYLE_DIMTEXT_FILL
 70
     0
  0
APPID
  5
A92B
330
9
100
AcDbSymbolTableRecord
100
AcDbRegAppTableRecord
  2
ACAD_PSEXT
 70
     0
  0
APPID
  5
A92C
330
9
100
AcDbSymbolTableRecord
100
AcDbRegAppTableRecord
  2
ACAD_DIMASSOC_DIMLFAC
 70
     0
  0
APPID
  5
A92D
330
9
100
AcDbSymbolTableRecord
100
AcDbRegAppTableRecord
  2
ACAD_DIMASSOC_CALC_DIMLFAC
 70
     0
  0
APPID
  5
A92E
330
9
100
AcDbSymbolTableRecord
100
AcDbRegAppTableRecord
  2
ACAD_DIMASSOC_OVERRIDDEN_DIMLFAC
 70
     0
  0
APPID
  5
A9E3
330
9
100
AcDbSymbolTableRecord
100
AcDbRegAppTableRecord
  2
GENIUS_GENSCREG_15
 70
     0
  0
APPID
  5
A9E4
330
9
100
AcDbSymbolTableRecord
100
AcDbRegAppTableRecord
  2
GENIUS_GENOBJ-N-SDF_13
 70
     0
  0
ENDTAB
  0
TABLE
  2
DIMSTYLE
  5
A
330
0
100
AcDbSymbolTable
 70
    16
100
AcDbDimStyleTable
 71
     0
  0
DIMSTYLE
105
58
330
A
100
AcDbSymbolTableRecord
100
AcDbDimStyleTableRecord
  2
AM_JIS
 70
     0
  4
"
 41
2.699999999999999
 42
0.0
 43
7.0
 44
0.5
 47
0.1
 48
0.1000000001
 73
     0
 74
     0
 77
     3
 78
     8
 79
     2
140
3.5
141
0.0
143
0.0393701
146
0.71
147
1.0
172
     1
176
     3
177
     3
178
     2
179
     1
271
     2
272
     2
275
     1
283
     0
284
     8
340
11
341
59
342
59
371
    -1
372
    -1
  0
DIMSTYLE
105
5F
330
A
100
AcDbSymbolTableRecord
100
AcDbDimStyleTableRecord
  2
AM_JIS$3
 70
     0
  4
"
 41
2.699999999999999
 42
1.0
 43
10.0
 44
1.0
 47
0.1
 48
0.1000000001
 73
     0
 77
     3
 78
     8
 79
     2
140
3.799999999999999
141
0.0
143
0.0393701
146
0.71
147
1.5
176
   256
177
   256
178
     2
271
     2
272
     2
275
     1
283
     0
284
     8
288
     1
289
     0
340
11
341
59
342
59
371
    -1
372
    -1
  0
DIMSTYLE
105
60
330
A
100
AcDbSymbolTableRecord
100
AcDbDimStyleTableRecord
  2
AM_JIS$4
 70
     0
  4
"
 41
2.699999999999999
 42
1.0
 43
10.0
 44
1.0
 47
0.1
 48
0.1000000001
 73
     0
 77
     3
 78
     8
 79
     2
140
3.799999999999999
141
0.0
143
0.0393701
146
0.71
147
1.5
176
   256
177
   256
178
     2
271
     2
272
     2
275
     1
283
     0
284
     8
288
     1
289
     0
340
11
341
59
342
59
371
    -1
372
    -1
  0
DIMSTYLE
105
61
330
A
100
AcDbSymbolTableRecord
100
AcDbDimStyleTableRecord
  2
AM_JIS$6
 70
     0
  4
"
 41
2.699999999999999
 42
1.0
 43
10.0
 44
1.0
 47
0.1
 48
0.1000000001
 73
     0
 74
     0
 78
     8
 79
     2
140
3.799999999999999
141
0.0
143
0.0393701
146
0.71
147
1.5
172
     1
176
   256
177
   256
178
     2
271
     2
272
     2
275
     1
283
     0
284
     8
340
11
341
59
342
59
371
    -1
372
    -1
  0
DIMSTYLE
105
62
330
A
100
AcDbSymbolTableRecord
100
AcDbDimStyleTableRecord
  2
AM_JIS$7
 70
     0
  4
"
 41
2.699999999999999
 42
1.0
 43
10.0
 44
1.0
 47
0.1
 48
0.1000000001
 73
     0
 74
     0
 77
     3
 78
     8
 79
     2
140
3.5
141
0.0
143
0.0393701
146
0.71
147
1.5
172
     1
176
     3
177
   256
178
     2
271
     2
272
     2
275
     1
283
     0
284
     8
340
11
341
59
342
59
371
    -1
372
    -1
  0
DIMSTYLE
105
63
330
A
100
AcDbSymbolTableRecord
100
AcDbDimStyleTableRecord
  2
AM_JIS$SF
 70
     0
  4
"
 41
2.5
 42
1.0
 43
10.0
 44
1.0
 47
0.1
 48
0.1
 73
     0
 74
     0
 75
     1
 76
     1
 77
     3
 78
     8
 79
     2
140
3.5
141
0.0
143
0.0393701
146
0.71
147
1.5
172
     1
176
   256
177
   256
178
     2
271
     2
272
     3
274
     4
283
     0
284
     8
340
11
341
59
342
59
343
59
344
59
371
    -1
372
    -1
  0
DIMSTYLE
105
68
330
A
100
AcDbSymbolTableRecord
100
AcDbDimStyleTableRecord
  2
AM_JIS$SH
 70
     0
  4
"
 41
2.5
 42
1.0
 43
10.0
 44
1.0
 47
0.1
 48
0.1
 73
     0
 74
     0
 75
     1
 76
     1
 77
     3
 78
     8
 79
     2
140
3.5
141
0.0
143
0.0393701
144
2.0
146
0.71
147
1.5
172
     1
173
     1
176
   256
177
   256
178
     2
271
     2
272
     3
274
     4
283
     0
284
     8
340
11
341
59
342
59
343
64
344
59
371
    -1
372
    -1
  0
DIMSTYLE
105
B34
330
A
100
AcDbSymbolTableRecord
100
AcDbDimStyleTableRecord
  2
AM_JIS$2
 70
     0
  4
"
 41
2.699999999999999
 42
0.0
 43
7.0
 44
0.5
 47
0.1
 48
0.1000000001
 73
     0
 74
     0
 77
     3
 78
     8
 79
     2
140
3.5
141
0.0
143
0.0393701
146
0.71
147
1.0
172
     1
176
     3
177
     3
178
     2
179
     1
271
     2
272
     2
275
     1
283
     0
284
     8
340
11
341
59
342
59
371
    -1
372
    -1
  0
DIMSTYLE
105
3B48
102
{ACAD_REACTORS
330
A032
330
9F8B
330
9EFF
330
9E46
330
9DB1
330
A0C7
102
}
330
A
100
AcDbSymbolTableRecord
100
AcDbDimStyleTableRecord
  2
AM_JIS$0
 70
     0
  4
"
 41
2.699999999999999
 42
0.0
 43
7.0
 44
0.5
 47
0.1
 48
0.1000000001
 73
     0
 74
     0
 77
     3
 78
     8
 79
     2
140
3.5
141
0.0
143
0.0393701
146
0.71
147
1.0
172
     1
176
     3
177
     3
178
     2
179
     1
271
     2
272
     2
275
     1
283
     0
284
     8
340
11
341
59
342
59
371
    -1
372
    -1
  0
DIMSTYLE
105
A9AB
330
A
100
AcDbSymbolTableRecord
100
AcDbDimStyleTableRecord
  2
AM_ISO
 70
     0
  4
"
 41
2.5
 42
1.0
 43
10.0
 44
1.0
 47
0.1
 48
0.1
 73
     0
 74
     0
 77
     1
 78
     8
 79
     2
140
3.5
141
0.0
143
0.0393701
146
0.71
147
1.5
172
     1
176
   256
177
   256
178
     2
271
     2
272
     3
274
     4
283
     0
284
     8
340
11
371
    -1
372
    -1
  0
DIMSTYLE
105
A9AC
330
A
100
AcDbSymbolTableRecord
100
AcDbDimStyleTableRecord
  2
AM_ISO$3
 70
     0
  4
"
 41
2.5
 42
1.0
 43
10.0
 44
1.0
 47
0.1
 48
0.1
 73
     0
 77
     1
 78
     8
 79
     2
140
3.5
141
0.0
143
0.0393701
146
0.71
147
1.5
176
   256
177
   256
178
     2
271
     2
272
     3
274
     4
283
     0
284
     8
288
     1
289
     0
340
11
371
    -1
372
    -1
  0
DIMSTYLE
105
A9AD
330
A
100
AcDbSymbolTableRecord
100
AcDbDimStyleTableRecord
  2
AM_ISO$4
 70
     0
  4
"
 41
2.5
 42
1.0
 43
10.0
 44
1.0
 47
0.1
 48
0.1
 73
     0
 77
     1
 78
     8
 79
     2
140
3.5
141
0.0
143
0.0393701
146
0.71
147
1.5
176
   256
177
   256
178
     2
271
     2
272
     3
274
     4
283
     0
284
     8
288
     1
289
     0
340
11
371
    -1
372
    -1
  0
DIMSTYLE
105
A9AE
330
A
100
AcDbSymbolTableRecord
100
AcDbDimStyleTableRecord
  2
AM_ISO$6
 70
     0
  4
"
 41
2.5
 42
1.0
 43
10.0
 44
1.0
 47
0.1
 48
0.1
 73
     0
 74
     0
 78
     8
 79
     2
140
3.5
141
0.0
143
0.0393701
146
0.71
147
1.5
172
     1
176
   256
177
   256
178
     2
271
     2
272
     3
274
     4
283
     0
284
     8
340
11
371
    -1
372
    -1
  0
DIMSTYLE
105
A9AF
330
A
100
AcDbSymbolTableRecord
100
AcDbDimStyleTableRecord
  2
AM_ISO$7
 70
     0
  4
"
 41
2.5
 42
1.0
 43
10.0
 44
1.0
 47
0.1
 48
0.1
 73
     0
 74
     0
 77
     1
 78
     8
 79
     2
140
5.0
141
0.0
143
0.0393701
146
0.71
147
1.5
172
     1
176
   256
177
   256
178
     2
271
     2
272
     3
274
     4
283
     0
284
     8
340
11
371
    -1
372
    -1
  0
DIMSTYLE
105
A9B0
330
A
100
AcDbSymbolTableRecord
100
AcDbDimStyleTableRecord
  2
AM_ISO$SF
 70
     0
  4
"
 41
2.5
 42
1.0
 43
10.0
 44
1.0
 47
0.1
 48
0.1
 73
     0
 74
     0
 75
     1
 76
     1
 77
     1
 78
     8
 79
     2
140
3.5
141
0.0
143
0.0393701
146
0.71
147
1.5
172
     1
176
   256
177
   256
178
     2
271
     2
272
     3
274
     4
283
     0
284
     8
340
11
371
    -1
372
    -1
  0
DIMSTYLE
105
A9B1
330
A
100
AcDbSymbolTableRecord
100
AcDbDimStyleTableRecord
  2
AM_ISO$SH
 70
     0
  4
"
 41
2.5
 42
1.0
 43
10.0
 44
1.0
 47
0.1
 48
0.1
 73
     0
 74
     0
 75
     1
 76
     1
 77
     1
 78
     8
 79
     2
140
3.5
141
0.0
143
0.0393701
144
2.0
146
0.71
147
1.5
172
     1
173
     1
176
   256
177
   256
178
     2
271
     2
272
     3
274
     4
283
     0
284
     8
340
11
343
64
371
    -1
372
    -1
  0
ENDTAB
  0
TABLE
  2
BLOCK_RECORD
  5
1
330
0
100
AcDbSymbolTable
 70
     9
  0
BLOCK_RECORD
  5
1F
102
{ACAD_XDICTIONARY
360
74
102
}
330
1
100
AcDbSymbolTableRecord
100
AcDbBlockTableRecord
  2
*MODEL_SPACE
340
A920
  0
BLOCK_RECORD
  5
101
102
{ACAD_XDICTIONARY
360
A8DE
102
}
330
1
100
AcDbSymbolTableRecord
100
AcDbBlockTableRecord
  2
*PAPER_SPACE
340
A921
  0
BLOCK_RECORD
  5
59
330
1
100
AcDbSymbolTableRecord
100
AcDbBlockTableRecord
  2
_Open30
340
0
  0
BLOCK_RECORD
  5
64
330
1
100
AcDbSymbolTableRecord
100
AcDbBlockTableRecord
  2
GENAXEH
340
0
  0
BLOCK_RECORD
  5
9DB2
330
1
100
AcDbSymbolTableRecord
100
AcDbBlockTableRecord
  2
*D2
340
0
  0
BLOCK_RECORD
  5
9E47
330
1
100
AcDbSymbolTableRecord
100
AcDbBlockTableRecord
  2
*D3
340
0
  0
BLOCK_RECORD
  5
9F00
330
1
100
AcDbSymbolTableRecord
100
AcDbBlockTableRecord
  2
*D4
340
0
  0
BLOCK_RECORD
  5
9F8C
330
1
100
AcDbSymbolTableRecord
100
AcDbBlockTableRecord
  2
*D5
340
0
  0
BLOCK_RECORD
  5
A033
330
1
100
AcDbSymbolTableRecord
100
AcDbBlockTableRecord
  2
*D6
340
0
  0
BLOCK_RECORD
  5
A0C8
330
1
100
AcDbSymbolTableRecord
100
AcDbBlockTableRecord
  2
*D7
340
0
  0
ENDTAB
  0
ENDSEC
  0
SECTION
  2
BLOCKS
  0
BLOCK
  5
20
330
1F
100
AcDbEntity
  8
0
100
AcDbBlockBegin
  2
*MODEL_SPACE
 70
     0
 10
0.0
 20
0.0
 30
0.0
  3
*MODEL_SPACE
  1

  0
ENDBLK
  5
21
330
1F
100
AcDbEntity
  8
0
100
AcDbBlockEnd
  0
BLOCK
  5
103
330
101
100
AcDbEntity
 67
     1
  8
0
100
AcDbBlockBegin
  2
*PAPER_SPACE
 70
     0
 10
0.0
 20
0.0
 30
0.0
  3
*PAPER_SPACE
  1

  0
ENDBLK
  5
104
330
101
100
AcDbEntity
 67
     1
  8
0
100
AcDbBlockEnd
  0
BLOCK
  5
A9D3
330
59
100
AcDbEntity
  8
0
100
AcDbBlockBegin
  2
_Open30
 70
     0
 10
0.0
 20
0.0
 30
0.0
  3
_Open30
  1

  0
LINE
  5
A9D4
330
59
100
AcDbEntity
  8
0
  6
ByBlock
 62
     0
370
    -2
100
AcDbLine
 10
-1.0
 20
0.26794919
 30
0.0
 11
0.0
 21
0.0
 31
0.0
  0
LINE
  5
A9D5
330
59
100
AcDbEntity
  8
0
  6
ByBlock
 62
     0
370
    -2
100
AcDbLine
 10
0.0
 20
0.0
 30
0.0
 11
-1.0
 21
-0.26794919
 31
0.0
  0
LINE
  5
A9D6
330
59
100
AcDbEntity
  8
0
  6
ByBlock
 62
     0
370
    -2
100
AcDbLine
 10
0.0
 20
0.0
 30
0.0
 11
-1.0
 21
0.0
 31
0.0
  0
ENDBLK
  5
A9D7
330
59
100
AcDbEntity
  8
0
100
AcDbBlockEnd
  0
BLOCK
  5
A9B3
330
64
100
AcDbEntity
  8
0
100
AcDbBlockBegin
  2
GENAXEH
 70
     0
 10
0.0
 20
0.0
 30
0.0
  3
GENAXEH
  1

  0
LINE
  5
A9B4
330
64
100
AcDbEntity
  8
0
100
AcDbLine
 10
-1.0
 20
0.0
 30
0.0
 11
1.0
 21
0.0
 31
0.0
  0
ENDBLK
  5
A9B5
330
64
100
AcDbEntity
  8
0
100
AcDbBlockEnd
  0
BLOCK
  5
9DBC
330
9DB2
100
AcDbEntity
  8
0
100
AcDbBlockBegin
  2
*D2
 70
     1
 10
0.0
 20
0.0
 30
0.0
  3
*D2
  1

  0
LINE
  5
A8E0
330
9DB2
100
AcDbEntity
  8
AM_5
100
AcDbLine
 10
-0.0000000000003464
 20
14.00000000000013
 30
0.0
 11
-0.0000000000003738
 21
28.00000381469773
 31
0.0
  0
LINE
  5
A8E1
330
9DB2
100
AcDbEntity
  8
AM_5
100
AcDbLine
 10
-26.00000000000034
 20
14.00000263110931
 30
0.0
 11
-26.00000000000036
 21
28.00000381469768
 31
0.0
  0
LINE
  5
A8E2
330
9DB2
100
AcDbEntity
  8
AM_5
100
AcDbLine
 10
-2.500000000000371
 20
26.50000381469773
 30
0.0
 11
-23.50000000000036
 21
26.50000381469769
 31
0.0
  0
INSERT
  5
A8E3
330
9DB2
100
AcDbEntity
  8
AM_5
100
AcDbBlockReference
  2
_Open30
 10
-0.0000000000003709
 20
26.50000381469773
 30
0.0
 41
2.5
 42
2.5
 43
2.5
 50
0.0000000000001018
  0
INSERT
  5
A8E4
330
9DB2
100
AcDbEntity
  8
AM_5
100
AcDbBlockReference
  2
_Open30
 10
-26.00000000000036
 20
26.50000381469768
 30
0.0
 41
2.5
 42
2.5
 43
2.5
 50
180.0000000000001
  0
MTEXT
  5
A8E5
330
9DB2
100
AcDbEntity
  8
AM_5
 62
     2
100
AcDbMText
 10
-13.00000000000037
 20
29.10000381469771
 30
0.0
 40
3.2
 41
0.0
 71
     5
 72
     1
  1
26
  7
ASAMI
 73
     1
 44
1.0
1001
ACAD
1000
MTEXTBEGIN
1070
    73
1070
     1
1070
    44
1040
1.0
1070
    74
1070
     0
1000
MTEXTEND
  0
POINT
  5
A8E6
330
9DB2
100
AcDbEntity
  8
DEFPOINTS
 62
     0
100
AcDbPoint
 10
-0.0000000000003182
 20
12.50000000000013
 30
0.0
  0
POINT
  5
A8E7
330
9DB2
100
AcDbEntity
  8
DEFPOINTS
 62
     0
100
AcDbPoint
 10
-26.00000000000031
 20
12.50000263110937
 30
0.0
  0
POINT
  5
A8E8
330
9DB2
100
AcDbEntity
  8
DEFPOINTS
 62
     0
100
AcDbPoint
 10
-26.00000000000031
 20
26.50000381469773
 30
0.0
  0
ENDBLK
  5
9DBD
330
9DB2
100
AcDbEntity
  8
0
100
AcDbBlockEnd
  0
BLOCK
  5
9E51
330
9E47
100
AcDbEntity
  8
0
100
AcDbBlockBegin
  2
*D3
 70
     1
 10
0.0
 20
0.0
 30
0.0
  3
*D3
  1

  0
LINE
  5
A8E9
330
9E47
100
AcDbEntity
  8
AM_5
100
AcDbLine
 10
1.499999999999654
 20
12.50000000000015
 30
0.0
 11
15.49999999999972
 21
12.50000000000017
 31
0.0
  0
LINE
  5
A8EA
330
9E47
100
AcDbEntity
  8
AM_5
100
AcDbLine
 10
1.499999999999776
 20
-12.49999999999985
 30
0.0
 11
15.49999999999977
 21
-12.49999999999982
 31
0.0
  0
LINE
  5
A8EB
330
9E47
100
AcDbEntity
  8
AM_5
100
AcDbLine
 10
13.99999999999972
 20
10.00000000000017
 30
0.0
 11
13.99999999999976
 21
-9.999999999999824
 31
0.0
  0
INSERT
  5
A8EC
330
9E47
100
AcDbEntity
  8
AM_5
100
AcDbBlockReference
  2
_Open30
 10
13.99999999999972
 20
12.50000000000017
 30
0.0
 41
2.5
 42
2.5
 43
2.5
 50
90.0000000000001
  0
INSERT
  5
A8ED
330
9E47
100
AcDbEntity
  8
AM_5
100
AcDbBlockReference
  2
_Open30
 10
13.99999999999977
 20
-12.49999999999982
 30
0.0
 41
2.5
 42
2.5
 43
2.5
 50
270.0000000000001
  0
MTEXT
  5
A8EE
330
9E47
100
AcDbEntity
  8
AM_5
 62
     2
100
AcDbMText
 10
11.39999999999974
 20
0.0000000000001682
 30
0.0
 40
3.2
 41
0.0
 71
     5
 72
     1
  1
%%c25
  7
ASAMI
 11
-0.000000000000002
 21
1.0
 31
0.0
 73
     1
 44
1.0
1001
ACAD
1000
MTEXTBEGIN
1070
    73
1070
     1
1070
    44
1040
1.0
1070
    74
1070
     0
1000
MTEXTEND
  0
POINT
  5
A8EF
330
9E47
100
AcDbEntity
  8
DEFPOINTS
 62
     0
100
AcDbPoint
 10
-0.0000000000003182
 20
12.50000000000014
 30
0.0
  0
POINT
  5
A8F0
330
9E47
100
AcDbEntity
  8
DEFPOINTS
 62
     0
100
AcDbPoint
 10
-0.0000000000002503
 20
-12.49999999999985
 30
0.0
  0
POINT
  5
A8F1
330
9E47
100
AcDbEntity
  8
DEFPOINTS
 62
     0
100
AcDbPoint
 10
13.99999999999974
 20
-12.49999999999985
 30
0.0
  0
ENDBLK
  5
9E52
330
9E47
100
AcDbEntity
  8
0
100
AcDbBlockEnd
  0
BLOCK
  5
9F0A
330
9F00
100
AcDbEntity
  8
0
100
AcDbBlockBegin
  2
*D4
 70
     1
 10
0.0
 20
0.0
 30
0.0
  3
*D4
  1

  0
LINE
  5
A8F2
330
9F00
100
AcDbEntity
  8
AM_5
100
AcDbLine
 10
-0.0000000000002279
 20
-13.82733154296782
 30
0.0
 11
-0.0000000000002002
 21
-27.99999999999985
 31
0.0
  0
LINE
  5
A8F3
330
9F00
100
AcDbEntity
  8
AM_5
100
AcDbLine
 10
-75.00000381469823
 20
-12.84999275207514
 30
0.0
 11
-75.00000381469821
 21
-28.0
 31
0.0
  0
LINE
  5
A8F4
330
9F00
100
AcDbEntity
  8
AM_5
100
AcDbLine
 10
-2.500000000000201
 20
-26.49999999999986
 30
0.0
 11
-72.50000381469821
 21
-26.5
 31
0.0
  0
INSERT
  5
A8F5
330
9F00
100
AcDbEntity
  8
AM_5
100
AcDbBlockReference
  2
_Open30
 10
-0.0000000000002031
 20
-26.49999999999985
 30
0.0
 41
2.5
 42
2.5
 43
2.5
 50
0.0000000000001018
  0
INSERT
  5
A8F6
330
9F00
100
AcDbEntity
  8
AM_5
100
AcDbBlockReference
  2
_Open30
 10
-75.00000381469821
 20
-26.5
 30
0.0
 41
2.5
 42
2.5
 43
2.5
 50
180.0000000000001
  0
MTEXT
  5
A8F7
330
9F00
100
AcDbEntity
  8
AM_5
 62
     2
100
AcDbMText
 10
-37.50000190734921
 20
-23.89999999999993
 30
0.0
 40
3.2
 41
0.0
 71
     5
 72
     1
  1
75
  7
ASAMI
 73
     1
 44
1.0
1001
ACAD
1000
MTEXTBEGIN
1070
    73
1070
     1
1070
    44
1040
1.0
1070
    74
1070
     0
1000
MTEXTEND
  0
POINT
  5
A8F8
330
9F00
100
AcDbEntity
  8
DEFPOINTS
 62
     0
100
AcDbPoint
 10
-0.0000000000002558
 20
-12.32733154296782
 30
0.0
  0
POINT
  5
A8F9
330
9F00
100
AcDbEntity
  8
DEFPOINTS
 62
     0
100
AcDbPoint
 10
-75.00000381469826
 20
-11.34999275207499
 30
0.0
  0
POINT
  5
A8FA
330
9F00
100
AcDbEntity
  8
DEFPOINTS
 62
     0
100
AcDbPoint
 10
-75.00000381469826
 20
-26.49999999999985
 30
0.0
  0
ENDBLK
  5
9F0B
330
9F00
100
AcDbEntity
  8
0
100
AcDbBlockEnd
  0
BLOCK
  5
9F96
330
9F8C
100
AcDbEntity
  8
0
100
AcDbBlockBegin
  2
*D5
 70
     1
 10
0.0
 20
0.0
 30
0.0
  3
*D5
  1

  0
LINE
  5
A8FB
330
9F8C
100
AcDbEntity
  8
AM_5
100
AcDbLine
 10
-75.00000381469823
 20
-12.84999275207514
 30
0.0
 11
-75.00000381469821
 21
-28.0
 31
0.0
  0
LINE
  5
A8FC
330
9F8C
100
AcDbEntity
  8
AM_5
100
AcDbLine
 10
-220.0000152587832
 20
-11.66149330139171
 30
0.0
 11
-220.0000152587832
 21
-28.0000000000003
 31
0.0
  0
LINE
  5
A8FD
330
9F8C
100
AcDbEntity
  8
AM_5
100
AcDbLine
 10
-77.50000381469821
 20
-26.50000000000001
 30
0.0
 11
-217.5000152587831
 21
-26.50000000000029
 31
0.0
  0
INSERT
  5
A8FE
330
9F8C
100
AcDbEntity
  8
AM_5
100
AcDbBlockReference
  2
_Open30
 10
-75.00000381469821
 20
-26.5
 30
0.0
 41
2.5
 42
2.5
 43
2.5
 50
0.0000000000001018
  0
INSERT
  5
A8FF
330
9F8C
100
AcDbEntity
  8
AM_5
100
AcDbBlockReference
  2
_Open30
 10
-220.0000152587832
 20
-26.5000000000003
 30
0.0
 41
2.5
 42
2.5
 43
2.5
 50
180.0000000000001
  0
MTEXT
  5
A900
330
9F8C
100
AcDbEntity
  8
AM_5
 62
     2
100
AcDbMText
 10
-147.5000095367407
 20
-23.90000000000015
 30
0.0
 40
3.2
 41
0.0
 71
     5
 72
     1
  1
145
  7
ASAMI
 73
     1
 44
1.0
1001
ACAD
1000
MTEXTBEGIN
1070
    73
1070
     1
1070
    44
1040
1.0
1070
    74
1070
     0
1000
MTEXTEND
  0
POINT
  5
A901
330
9F8C
100
AcDbEntity
  8
DEFPOINTS
 62
     0
100
AcDbPoint
 10
-75.00000381469826
 20
-11.34999275207499
 30
0.0
  0
POINT
  5
A902
330
9F8C
100
AcDbEntity
  8
DEFPOINTS
 62
     0
100
AcDbPoint
 10
-220.0000152587832
 20
-10.16149330139127
 30
0.0
  0
POINT
  5
A903
330
9F8C
100
AcDbEntity
  8
DEFPOINTS
 62
     0
100
AcDbPoint
 10
-220.0000152587832
 20
-26.49999999999985
 30
0.0
  0
ENDBLK
  5
9F97
330
9F8C
100
AcDbEntity
  8
0
100
AcDbBlockEnd
  0
BLOCK
  5
A03D
330
A033
100
AcDbEntity
  8
0
100
AcDbBlockBegin
  2
*D6
 70
     1
 10
0.0
 20
0.0
 30
0.0
  3
*D6
  1

  0
LINE
  5
A904
330
A033
100
AcDbEntity
  8
AM_5
100
AcDbLine
 10
-0.0000000000002279
 20
-13.82733154296782
 30
0.0
 11
-0.0000000000001806
 21
-37.99999999999986
 31
0.0
  0
LINE
  5
A905
330
A033
100
AcDbEntity
  8
AM_5
100
AcDbLine
 10
-220.0000154972018
 20
-11.66149330139171
 30
0.0
 11
-220.0000154972018
 21
-38.0000000000003
 31
0.0
  0
LINE
  5
A906
330
A033
100
AcDbEntity
  8
AM_5
100
AcDbLine
 10
-2.500000000000182
 20
-36.49999999999987
 30
0.0
 11
-217.5000154972018
 21
-36.5000000000003
 31
0.0
  0
INSERT
  5
A907
330
A033
100
AcDbEntity
  8
AM_5
100
AcDbBlockReference
  2
_Open30
 10
-0.0000000000001835
 20
-36.49999999999987
 30
0.0
 41
2.5
 42
2.5
 43
2.5
 50
0.0000000000001018
  0
INSERT
  5
A908
330
A033
100
AcDbEntity
  8
AM_5
100
AcDbBlockReference
  2
_Open30
 10
-220.0000154972018
 20
-36.5000000000003
 30
0.0
 41
2.5
 42
2.5
 43
2.5
 50
180.0000000000001
  0
MTEXT
  5
A909
330
A033
100
AcDbEntity
  8
AM_5
 62
     2
100
AcDbMText
 10
-110.000007748601
 20
-33.90000000000007
 30
0.0
 40
3.2
 41
0.0
 71
     5
 72
     1
  1
220
  7
ASAMI
 73
     1
 44
1.0
1001
ACAD
1000
MTEXTBEGIN
1070
    73
1070
     1
1070
    44
1040
1.0
1070
    74
1070
     0
1000
MTEXTEND
  0
POINT
  5
A90A
330
A033
100
AcDbEntity
  8
DEFPOINTS
 62
     0
100
AcDbPoint
 10
-0.0000000000002558
 20
-12.32733154296782
 30
0.0
  0
POINT
  5
A90B
330
A033
100
AcDbEntity
  8
DEFPOINTS
 62
     0
100
AcDbPoint
 10
-220.0000154972018
 20
-10.16149330139127
 30
0.0
  0
POINT
  5
A90C
330
A033
100
AcDbEntity
  8
DEFPOINTS
 62
     0
100
AcDbPoint
 10
-220.0000154972018
 20
-36.49999999999987
 30
0.0
  0
ENDBLK
  5
A03E
330
A033
100
AcDbEntity
  8
0
100
AcDbBlockEnd
  0
BLOCK
  5
A0D2
330
A0C8
100
AcDbEntity
  8
0
100
AcDbBlockBegin
  2
*D7
 70
     1
 10
0.0
 20
0.0
 30
0.0
  3
*D7
  1

  0
LINE
  5
A90D
330
A0C8
100
AcDbEntity
  8
AM_5
100
AcDbLine
 10
-218.5000152587833
 20
12.50000381469725
 30
0.0
 11
-235.5000154972019
 21
12.50000381469721
 31
0.0
  0
LINE
  5
A90E
330
A0C8
100
AcDbEntity
  8
AM_5
100
AcDbLine
 10
-218.5000152587832
 20
-12.49999427795474
 30
0.0
 11
-235.5000154972018
 21
-12.49999427795477
 31
0.0
  0
LINE
  5
A90F
330
A0C8
100
AcDbEntity
  8
AM_5
100
AcDbLine
 10
-234.0000154972019
 20
10.00000381469722
 30
0.0
 11
-234.0000154972018
 21
-9.999994277954773
 31
0.0
  0
INSERT
  5
A910
330
A0C8
100
AcDbEntity
  8
AM_5
100
AcDbBlockReference
  2
_Open30
 10
-234.0000154972019
 20
12.50000381469722
 30
0.0
 41
2.5
 42
2.5
 43
2.5
 50
90.0000000000001
  0
INSERT
  5
A911
330
A0C8
100
AcDbEntity
  8
AM_5
100
AcDbBlockReference
  2
_Open30
 10
-234.0000154972018
 20
-12.49999427795477
 30
0.0
 41
2.5
 42
2.5
 43
2.5
 50
270.0000000000001
  0
MTEXT
  5
A912
330
A0C8
100
AcDbEntity
  8
AM_5
 62
     2
100
AcDbMText
 10
-236.6000154972018
 20
0.0000047683712286
 30
0.0
 40
3.2
 41
0.0
 71
     5
 72
     1
  1
%%c25
  7
ASAMI
 11
-0.000000000000002
 21
1.0
 31
0.0
 73
     1
 44
1.0
1001
ACAD
1000
MTEXTBEGIN
1070
    73
1070
     1
1070
    44
1040
1.0
1070
    74
1070
     0
1000
MTEXTEND
  0
POINT
  5
A913
330
A0C8
100
AcDbEntity
  8
DEFPOINTS
 62
     0
100
AcDbPoint
 10
-217.0000152587833
 20
12.50000381469773
 30
0.0
  0
POINT
  5
A914
330
A0C8
100
AcDbEntity
  8
DEFPOINTS
 62
     0
100
AcDbPoint
 10
-217.0000152587832
 20
-12.49999427795425
 30
0.0
  0
POINT
  5
A915
330
A0C8
100
AcDbEntity
  8
DEFPOINTS
 62
     0
100
AcDbPoint
 10
-234.0000154972019
 20
-12.49999427795425
 30
0.0
  0
ENDBLK
  5
A0D3
330
A0C8
100
AcDbEntity
  8
0
100
AcDbBlockEnd
  0
ENDSEC
  0
SECTION
  2
ENTITIES
  0
TEXT
  5
388D
330
1F
100
AcDbEntity
  8
AM_6
100
AcDbText
 10
-131.7857220343152
 20
-59.00000000000003
 30
0.0
 40
5.0
  1
WMM2025EL
 50
359.9999999999998
 51
359.9999999999998
 72
     4
 11
-110.0000077486009
 21
-56.50000000000009
 31
0.0
100
AcDbText
  0
SPLINE
  5
9AC2
330
1F
100
AcDbEntity
  8
AM_0
100
AcDbSpline
210
0.0
220
0.0
230
1.0
 70
     8
 71
     3
 72
    11
 73
     7
 74
     5
 42
0.0000000001
 43
0.0000000001
 44
0.0000000001
 40
0.0
 40
0.0
 40
0.0
 40
0.0
 40
0.0428955753148473
 40
0.0853149128545728
 40
0.1272828469095284
 40
0.1688334569229274
 40
0.1688334569229274
 40
0.1688334569229274
 40
0.1688334569229274
 10
-17.68546295166027
 20
-9.154453277587878
 30
0.0
 10
-17.69546301380036
 20
-9.144223925937685
 30
0.0
 10
-17.71535211480344
 20
-9.123878791545868
 30
0.0
 10
-17.74218010119477
 20
-9.090952068732727
 30
0.0
 10
-17.76667430762618
 20
-9.056797787240075
 30
0.0
 10
-17.78067704717123
 20
-9.032719497105635
 30
0.0
 10
-17.78764343261827
 20
-9.020740509033872
 30
0.0
 11
-17.68546295166027
 21
-9.154453277587878
 31
0.0
 11
-17.71498107910224
 21
-9.123329162597869
 31
0.0
 11
-17.74192810058625
 21
-9.090568542480882
 31
0.0
 11
-17.76618957519625
 21
-9.056324005126883
 31
0.0
 11
-17.78764343261827
 21
-9.020740509033872
 31
0.0
  0
SPLINE
  5
9AC3
330
1F
100
AcDbEntity
  8
AM_0
100
AcDbSpline
210
0.0
220
0.0
230
1.0
 70
     8
 71
     3
 72
    11
 73
     7
 74
     5
 42
0.0000000001
 43
0.0000000001
 44
0.0000000001
 40
0.0
 40
0.0
 40
0.0
 40
0.0
 40
0.0878976223894091
 40
0.1770847158993987
 40
0.2674299105202316
 40
0.3587097594691299
 40
0.3587097594691299
 40
0.3587097594691299
 40
0.3587097594691299
 10
-17.87886810302825
 20
-9.350994110107865
 30
0.0
 10
-17.85804962303767
 20
-9.371663014952591
 30
0.0
 10
-17.81610725287597
 20
-9.413304040533063
 30
0.0
 10
-17.74398221278692
 20
-9.466142190293181
 30
0.0
 10
-17.6661335922124
 20
-9.51229460612757
 30
0.0
 10
-17.61020199672258
 20
-9.535643843169204
 30
0.0
 10
-17.58209228515727
 20
-9.547378540038879
 30
0.0
 11
-17.87886810302825
 21
-9.350994110107865
 31
0.0
 11
-17.81497955322325
 21
-9.411361694335868
 31
0.0
 11
-17.74350738525425
 21
-9.464710235595877
 31
0.0
 11
-17.66548156738326
 21
-9.510253906249873
 31
0.0
 11
-17.58209228515727
 21
-9.547378540038879
 31
0.0
  0
SPLINE
  5
9AC4
330
1F
100
AcDbEntity
  8
AM_0
100
AcDbSpline
210
0.0
220
0.0
230
1.0
 70
     8
 71
     3
 72
    11
 73
     7
 74
     5
 42
0.0000000001
 43
0.0000000001
 44
0.0000000001
 40
0.0
 40
0.0
 40
0.0
 40
0.0
 40
0.411590236777982
 40
0.8231779376517421
 40
1.234765638524554
 40
1.646356937216592
 40
1.646356937216592
 40
1.646356937216592
 40
1.646356937216592
 10
-17.24725341796926
 20
-9.604358673095875
 30
0.0
 10
-17.29285746527256
 20
-9.733754259855157
 30
0.0
 10
-17.38406527890189
 20
-9.992544636137084
 30
0.0
 10
-17.52086582388102
 20
-10.38073369092829
 30
0.0
 10
-17.65766990749304
 20
-10.76892187393714
 30
0.0
 10
-17.74887099677744
 20
-11.02771499533642
 30
0.0
 10
-17.79447174072322
 20
-11.15711212158187
 30
0.0
 11
-17.24725341796926
 21
-9.604358673095875
 31
0.0
 11
-17.38406372070324
 21
-9.992546081542867
 31
0.0
 11
-17.52086639404325
 21
-10.38073348999087
 31
0.0
 11
-17.65766906738324
 21
-10.76892089843787
 31
0.0
 11
-17.79447174072322
 21
-11.15711212158187
 31
0.0
  0
SPLINE
  5
9AC5
330
1F
100
AcDbEntity
  8
AM_0
100
AcDbSpline
210
0.0
220
0.0
230
1.0
 70
     8
 71
     3
 72
    11
 73
     7
 74
     5
 42
0.0000000001
 43
0.0000000001
 44
0.0000000001
 40
0.0
 40
0.0
 40
0.0
 40
0.0
 40
2.202039165205263
 40
4.38264438472753
 40
6.560641383366778
 40
8.758373731844647
 40
8.758373731844647
 40
8.758373731844647
 40
8.758373731844647
 10
-9.065841674805238
 20
-11.84578323364285
 30
0.0
 10
-9.79963834174282
 20
-11.81889414264718
 30
0.0
 10
-11.26008913330992
 20
-11.76537769047652
 30
0.0
 10
-13.43444532069336
 20
-11.52288676104658
 30
0.0
 10
-15.60517699623019
 20
-11.26426993251474
 30
0.0
 10
-17.06251586980832
 20
-11.19293863102013
 30
0.0
 10
-17.79447174072322
 20
-11.15711212158187
 30
0.0
 11
-9.065841674805238
 21
-11.84578323364285
 31
0.0
 11
-11.26522827148523
 21
-11.73773193359384
 31
0.0
 11
-13.43494415283223
 21
-11.52008056640687
 31
0.0
 11
-15.60076904296922
 21
-11.29013824462886
 31
0.0
 11
-17.79447174072322
 21
-11.15711212158187
 31
0.0
  0
SPLINE
  5
9AC6
330
1F
100
AcDbEntity
  8
AM_0
100
AcDbSpline
210
0.0
220
0.0
230
1.0
 70
     8
 71
     3
 72
    11
 73
     7
 74
     5
 42
0.0000000001
 43
0.0000000001
 44
0.0000000001
 40
0.0
 40
0.0
 40
0.0
 40
0.0
 40
1.003139363415214
 40
2.006088779133103
 40
3.008851348040971
 40
4.011427735426518
 40
4.011427735426518
 40
4.011427735426518
 40
4.011427735426518
 10
-18.12179565429727
 20
6.447446823120121
 30
0.0
 10
-18.06841404633395
 20
6.777538092971668
 30
0.0
 10
-17.96166093838818
 20
7.437658128820463
 30
0.0
 10
-17.80156926299503
 20
8.427749164730593
 30
0.0
 10
-17.64150830233797
 20
9.417655071022574
 30
0.0
 10
-17.53482685848595
 20
10.07753350728434
 30
0.0
 10
-17.48149108886826
 20
10.40744209289512
 30
0.0
 11
-18.12179565429727
 21
6.447446823120121
 31
0.0
 11
-17.96165466308629
 21
7.437721252441127
 31
0.0
 11
-17.80155944824325
 21
8.427810668945122
 31
0.0
 11
-17.64150238037125
 21
9.417716979980124
 31
0.0
 11
-17.48149108886826
 21
10.40744209289512
 31
0.0
  0
SPLINE
  5
9AC7
330
1F
100
AcDbEntity
  8
AM_0
100
AcDbSpline
210
0.0
220
0.0
230
1.0
 70
     8
 71
     3
 72
    11
 73
     7
 74
     5
 42
0.0000000001
 43
0.0000000001
 44
0.0000000001
 40
0.0
 40
0.0
 40
0.0
 40
0.0
 40
2.202039352390976
 40
4.382644191163693
 40
6.56064897792757
 40
8.758381441855766
 40
8.758381441855766
 40
8.758381441855766
 40
8.758381441855766
 10
-17.76583862304729
 20
11.84577560424812
 30
0.0
 10
-18.49963522706029
 20
11.81888444683015
 30
0.0
 10
-19.96008570474194
 20
11.76536388884213
 30
0.0
 10
-22.13444515774724
 20
11.5228807034845
 30
0.0
 10
-24.30517897538435
 20
11.26426028439375
 30
0.0
 10
-25.76252043315272
 20
11.1929277455589
 30
0.0
 10
-26.49447631836028
 20
11.15710067749009
 30
0.0
 11
-17.76583862304729
 21
11.84577560424812
 31
0.0
 11
-19.96522521972731
 21
11.73772048950211
 31
0.0
 11
-22.1349411010753
 21
11.52007293701111
 31
0.0
 11
-24.3007736206063
 21
11.29012870788509
 31
0.0
 11
-26.49447631836028
 21
11.15710067749009
 31
0.0
  0
SPLINE
  5
9AC8
330
1F
100
AcDbEntity
  8
AM_0
100
AcDbSpline
210
0.0
220
0.0
230
1.0
 70
     8
 71
     3
 72
    11
 73
     7
 74
     5
 42
0.0000000001
 43
0.0000000001
 44
0.0000000001
 40
0.0
 40
0.0
 40
0.0
 40
0.0
 40
0.0380132751254313
 40
0.0764367875327492
 40
0.1151981396892554
 40
0.154207322151053
 40
0.154207322151053
 40
0.154207322151053
 40
0.154207322151053
 10
-17.61363220214928
 20
11.82028770446712
 30
0.0
 10
-17.62567841284526
 20
11.82424820755582
 30
0.0
 10
-17.64990083631454
 20
11.8322119552759
 30
0.0
 10
-17.687579831541
 20
11.83995636723092
 30
0.0
 10
-17.72604894786497
 20
11.84492746128777
 30
0.0
 10
-17.75198327460239
 20
11.84549228995073
 30
0.0
 10
-17.76499176025431
 20
11.84577560424812
 30
0.0
 11
-17.61363220214928
 21
11.82028770446712
 31
0.0
 11
-17.64996337890731
 21
11.83147048950212
 31
0.0
 11
-17.68754577636829
 21
11.8394660949701
 31
0.0
 11
-17.72601318359428
 21
11.84423065185511
 31
0.0
 11
-17.76499176025431
 21
11.84577560424812
 31
0.0
  0
ELLIPSE
  5
9AC9
330
1F
100
AcDbEntity
  8
AM_0
100
AcDbEllipse
 10
-18.76706695556729
 20
5.68982696533212
 30
0.0
 11
-1.482002295987995
 21
-0.2316723024220012
 31
0.0
210
0.0
220
0.0
230
0.9999999999999998
 40
0.8616437202175998
 41
3.635561320355388
 42
4.08196244100038
  0
ELLIPSE
  5
9ACA
330
1F
100
AcDbEntity
  8
AM_0
100
AcDbEllipse
 10
-18.77098846435627
 20
5.714899063110115
 30
0.0
 11
-1.482002295987994
 21
-0.2316723024210027
 31
0.0
210
0.0
220
0.0
230
0.9999999999999998
 40
0.8616457070378
 41
3.623408682040982
 42
4.076480036475728
  0
ELLIPSE
  5
9ACB
330
1F
100
AcDbEntity
  8
AM_0
100
AcDbEllipse
 10
37.49232482909673
 20
-0.0000038146977638
 30
0.0
 11
207.08521945103
 21
-11.22642402479157
 31
0.0
210
0.0
220
0.0
230
1.0
 40
0.0080646383594
 41
1.788517243512553
 42
1.89128035424264
  0
ELLIPSE
  5
9ACC
330
1F
100
AcDbEntity
  8
AM_0
100
AcDbEllipse
 10
1.219230651854729
 20
-0.0000038146978496
 30
0.0
 11
144.353159173602
 21
-5.73510038345371
 31
0.0
210
0.0
220
0.0
230
0.9999999999999998
 40
0.067850448922
 41
4.580573306963236
 42
4.639199668911034
  0
ELLIPSE
  5
9ACD
330
1F
100
AcDbEntity
  8
AM_0
100
AcDbEllipse
 10
-22.35583496093829
 20
10.21959114074709
 30
0.0
 11
0.0484811916760177
 21
-6.852701354349994
 31
0.0
210
0.0
220
0.0
230
1.0
 40
0.8749286435751999
 41
0.6195784017887087
 42
1.48597534335737
  0
ELLIPSE
  5
9ACE
330
1F
100
AcDbEntity
  8
AM_0
100
AcDbEllipse
 10
-18.9632644653323
 20
6.944911956787112
 30
0.0
 11
1.508911077867011
 21
-0.0410336281649967
 31
0.0
210
0.0
220
0.0
230
0.9999999999999998
 40
0.7869553051910999
 41
4.61512189708746
 42
6.344213445401432
  0
LINE
  5
9ACF
330
1F
100
AcDbEntity
  8
AM_0
100
AcDbLine
 10
-17.76583862304729
 20
11.84577369689911
 30
0.0
 11
-17.61362457275431
 21
11.82028579711912
 31
0.0
  0
LINE
  5
9AD0
330
1F
100
AcDbEntity
  8
AM_0
100
AcDbLine
 10
-17.87886810302825
 20
-9.350997924804875
 30
0.0
 11
-17.68546295166027
 21
-9.154457092284873
 31
0.0
  0
LINE
  5
9AD1
330
1F
100
AcDbEntity
  8
AM_7
100
AcDbLine
 10
-222.4111938476532
 20
-0.0000000000002842
 30
0.0
 11
1.551757812499729
 21
0.0000000000001563
 31
0.0
  0
SPLINE
  5
9AD4
330
1F
100
AcDbEntity
  8
AM_0
100
AcDbSpline
210
0.0
220
0.0
230
1.0
 70
     8
 71
     3
 72
    11
 73
     7
 74
     5
 42
0.0000000001
 43
0.0000000001
 44
0.0000000001
 40
0.0
 40
0.0
 40
0.0
 40
0.0
 40
0.0470062302661515
 40
0.094022416003463
 40
0.1410304714842727
 40
0.1880437694175915
 40
0.1880437694175915
 40
0.1880437694175915
 40
0.1880437694175915
 10
-1.559143066407252
 20
-8.710830688476839
 30
0.0
 10
-1.566469289626667
 20
-8.724691893749083
 30
0.0
 10
-1.581123287689688
 20
-8.752417239964623
 30
0.0
 10
-1.607279929764032
 20
-8.791557224980312
 30
0.0
 10
-1.636065352512296
 20
-8.82880963535195
 30
0.0
 10
-1.657689920667947
 20
-8.851520717734903
 30
0.0
 10
-1.668502807618246
 20
-8.86287689208984
 30
0.0
 11
-1.559143066407252
 21
-8.710830688476839
 31
0.0
 11
-1.581817626953246
 21
-8.752006530761857
 31
0.0
 11
-1.607719421387266
 21
-8.791244506835848
 31
0.0
 11
-1.636672973633246
 21
-8.828277587890848
 31
0.0
 11
-1.668502807618246
 21
-8.86287689208984
 31
0.0
  0
SPLINE
  5
9AD5
330
1F
100
AcDbEntity
  8
AM_0
100
AcDbSpline
210
0.0
220
0.0
230
1.0
 70
     8
 71
     3
 72
    11
 73
     7
 74
     5
 42
0.0000000001
 43
0.0000000001
 44
0.0000000001
 40
0.0
 40
0.0
 40
0.0
 40
0.0
 40
0.0442912814777415
 40
0.0885787805224224
 40
0.1328593146351022
 40
0.1771655316278808
 40
0.1771655316278808
 40
0.1771655316278808
 40
0.1771655316278808
 10
-1.892364501953245
 20
-9.005203247070848
 30
0.0
 10
-1.906321149425004
 20
-9.010040153785713
 30
0.0
 10
-1.934233252484182
 20
-9.019713554148232
 30
0.0
 10
-1.977289669470517
 20
-9.030288847693638
 30
0.0
 10
-2.020918220124035
 20
-9.038206039882314
 30
0.0
 10
-2.050350633018934
 20
-9.040765494791459
 30
0.0
 10
-2.065071105957265
 20
-9.042045593261859
 30
0.0
 11
-1.892364501953245
 21
-9.005203247070848
 31
0.0
 11
-1.934432983399239
 21
-9.019058227538845
 31
0.0
 11
-1.977386474610262
 21
-9.029846191406841
 31
0.0
 11
-2.020996093750262
 21
-9.03752517700185
 31
0.0
 11
-2.065071105957265
 21
-9.042045593261859
 31
0.0
  0
SPLINE
  5
9AD6
330
1F
100
AcDbEntity
  8
AM_0
100
AcDbSpline
210
0.0
220
0.0
230
1.0
 70
     8
 71
     3
 72
    11
 73
     7
 74
     5
 42
0.0000000001
 43
0.0000000001
 44
0.0000000001
 40
0.0
 40
0.0
 40
0.0
 40
0.0
 40
0.0642500268467737
 40
0.1285013166953347
 40
0.1927524819788374
 40
0.2570024508443007
 40
0.2570024508443007
 40
0.2570024508443007
 40
0.2570024508443007
 10
-1.559143066407252
 20
-8.710830688476839
 30
0.0
 10
-1.550099884993423
 20
-8.691393203183361
 30
0.0
 10
-1.532013344398457
 20
-8.652517850501956
 30
0.0
 10
-1.512799453829557
 20
-8.59105198938521
 30
0.0
 10
-1.499094782116847
 20
-8.528127671582831
 30
0.0
 10
-1.49559363558257
 20
-8.485394027759395
 30
0.0
 10
-1.493843078614256
 20
-8.46402740478484
 30
0.0
 11
-1.559143066407252
 21
-8.710830688476839
 31
0.0
 11
-1.533332824707267
 21
-8.651992797851839
 31
0.0
 11
-1.513717651368261
 21
-8.590808868408851
 31
0.0
 11
-1.500503540039255
 21
-8.527931213378844
 31
0.0
 11
-1.493843078614256
 21
-8.46402740478484
 31
0.0
  0
SPLINE
  5
9AD7
330
1F
100
AcDbEntity
  8
AM_0
100
AcDbSpline
210
0.0
220
0.0
230
1.0
 70
     8
 71
     3
 72
    11
 73
     7
 74
     5
 42
0.0000000001
 43
0.0000000001
 44
0.0000000001
 40
0.0
 40
0.0
 40
0.0
 40
0.0
 40
0.0611145694996809
 40
0.122243430998061
 40
0.1833679278754532
 40
0.2445022682771455
 40
0.2445022682771455
 40
0.2445022682771455
 40
0.2445022682771455
 10
-1.837097167969238
 20
-9.213356018066857
 30
0.0
 10
-1.817713203582631
 20
-9.207051828238444
 30
0.0
 10
-1.778940741756233
 20
-9.19444197431004
 30
0.0
 10
-1.722937081128799
 20
-9.1697534494226
 30
0.0
 10
-1.668729344063144
 20
-9.141315710761212
 30
0.0
 10
-1.634755582463505
 20
-9.118763658740151
 30
0.0
 10
-1.617767333985262
 20
-9.107486724853853
 30
0.0
 11
-1.837097167969238
 21
-9.213356018066857
 31
0.0
 11
-1.779304504395247
 21
-9.193481445312837
 31
0.0
 11
-1.723236083985262
 21
-9.169128417968845
 31
0.0
 11
-1.669273376465248
 21
-9.140419006347849
 31
0.0
 11
-1.617767333985262
 21
-9.107486724853853
 31
0.0
  0
SPLINE
  5
9AD8
330
1F
100
AcDbEntity
  8
AM_0
100
AcDbSpline
210
0.0
220
0.0
230
1.0
 70
     8
 71
     3
 72
    11
 73
     7
 74
     5
 42
0.0000000001
 43
0.0000000001
 44
0.0000000001
 40
0.0
 40
0.0
 40
0.0
 40
0.0
 40
0.0264701345740246
 40
0.0527834838512521
 40
0.0790881384296132
 40
0.1055077182386072
 40
0.1055077182386072
 40
0.1055077182386072
 40
0.1055077182386072
 10
-1.087944030762269
 20
-0.5478210449218427
 30
0.0
 10
-1.095843984128429
 20
-0.5438820620559257
 30
0.0
 10
-1.111597098634222
 20
-0.5360274273198588
 30
0.0
 10
-1.136183162452805
 20
-0.5264344424498362
 30
0.0
 10
-1.161296369182748
 20
-0.5183746274852036
 30
0.0
 10
-1.178457983842065
 20
-0.5145479646389378
 30
0.0
 10
-1.187057495118265
 20
-0.5126304626468503
 30
0.0
 11
-1.087944030762269
 21
-0.5478210449218427
 31
0.0
 11
-1.111808776856261
 21
-0.5363693237308486
 31
0.0
 11
-1.136276245118265
 21
-0.5266876220708488
 31
0.0
 11
-1.161361694336262
 21
-0.5187721252438529
 31
0.0
 11
-1.187057495118265
 21
-0.5126304626468503
 31
0.0
  0
SPLINE
  5
9AD9
330
1F
100
AcDbEntity
  8
AM_0
100
AcDbSpline
210
0.0
220
0.0
230
1.0
 70
     8
 71
     3
 72
    11
 73
     7
 74
     5
 42
0.0000000001
 43
0.0000000001
 44
0.0000000001
 40
0.0
 40
0.0
 40
0.0
 40
0.0
 40
0.0430564907403857
 40
0.0861311835441658
 40
0.1292495734132213
 40
0.1724003308611876
 40
0.1724003308611876
 40
0.1724003308611876
 40
0.1724003308611876
 10
-6.615165710450263
 20
-8.757534027099852
 30
0.0
 10
-6.615010233734053
 20
-8.771899431531842
 30
0.0
 10
-6.614699214574097
 20
-8.800636313347835
 30
0.0
 10
-6.608603547195637
 20
-8.843383258588952
 30
0.0
 10
-6.598645631893037
 20
-8.885449169122011
 30
0.0
 10
-6.588125095710973
 20
-8.91224740506585
 30
0.0
 10
-6.582862854004253
 20
-8.925651550292842
 30
0.0
 11
-6.615165710450263
 21
-8.757534027099852
 31
0.0
 11
-6.613761901856257
 21
-8.800567626952854
 31
0.0
 11
-6.607963562012265
 21
-8.843250274658844
 31
0.0
 11
-6.597679138184255
 21
-8.885124206542842
 31
0.0
 11
-6.582862854004253
 21
-8.925651550292842
 31
0.0
  0
SPLINE
  5
9ADA
330
1F
100
AcDbEntity
  8
AM_0
100
AcDbSpline
210
0.0
220
0.0
230
1.0
 70
     8
 71
     3
 72
    11
 73
     7
 74
     5
 42
0.0000000001
 43
0.0000000001
 44
0.0000000001
 40
0.0
 40
0.0
 40
0.0
 40
0.0
 40
0.0925377528784981
 40
0.1850864209648771
 40
0.2776408584629734
 40
0.3701730647539485
 40
0.3701730647539485
 40
0.3701730647539485
 40
0.3701730647539485
 10
-1.617767333985262
 20
-9.107486724853853
 30
0.0
 10
-1.593055424296837
 20
-9.088955782319331
 30
0.0
 10
-1.543628690048781
 20
-9.051891711449531
 30
0.0
 10
-1.478830863941688
 20
-8.985404323056394
 30
0.0
 10
-1.42129003981406
 20
-8.912550976166226
 30
0.0
 10
-1.390901819065153
 20
-8.858762193631452
 30
0.0
 10
-1.375709533692266
 20
-8.831871032714838
 30
0.0
 11
-1.617767333985262
 21
-9.107486724853853
 31
0.0
 11
-1.545188903809254
 21
-9.050079345702837
 31
0.0
 11
-1.480041503907251
 21
-8.984344482421841
 31
0.0
 11
-1.423278808594239
 21
-8.911239624023844
 31
0.0
 11
-1.375709533692266
 21
-8.831871032714838
 31
0.0
  0
SPLINE
  5
9ADB
330
1F
100
AcDbEntity
  8
AM_0
100
AcDbSpline
210
0.0
220
0.0
230
1.0
 70
     8
 71
     3
 72
    11
 73
     7
 74
     5
 42
0.0000000001
 43
0.0000000001
 44
0.0000000001
 40
0.0
 40
0.0
 40
0.0
 40
0.0
 40
0.0521816793543458
 40
0.1043760758707706
 40
0.1565504812246893
 40
0.2087575204498361
 40
0.2087575204498361
 40
0.2087575204498361
 40
0.2087575204498361
 10
-2.042579650879252
 20
-9.246955871581858
 30
0.0
 10
-2.025202152213605
 20
-9.24605938424839
 30
0.0
 10
-1.990442919823768
 20
-9.244266191099132
 30
0.0
 10
-1.938679939227144
 20
-9.23729647752696
 30
0.0
 10
-1.88737581102069
 20
-9.227451232862973
 30
0.0
 10
-1.853860208431756
 20
-9.218055402171422
 30
0.0
 10
-1.837097167969238
 20
-9.213356018066857
 30
0.0
 11
-2.042579650879252
 21
-9.246955871581858
 31
0.0
 11
-1.990509033203244
 21
-9.243553161620848
 31
0.0
 11
-1.938751220703244
 21
-9.236816406249854
 31
0.0
 11
-1.887557983399238
 21
-9.226745605468845
 31
0.0
 11
-1.837097167969238
 21
-9.213356018066857
 31
0.0
  0
SPLINE
  5
9ADC
330
1F
100
AcDbEntity
  8
AM_0
100
AcDbSpline
210
0.0
220
0.0
230
1.0
 70
     8
 71
     3
 72
    11
 73
     7
 74
     5
 42
0.0000000001
 43
0.0000000001
 44
0.0000000001
 40
0.0
 40
0.0
 40
0.0
 40
0.0
 40
0.0489483937624375
 40
0.0979236399518139
 40
0.1469370615665027
 40
0.1960003187973637
 40
0.1960003187973637
 40
0.1960003187973637
 40
0.1960003187973637
 10
-0.8903503417972833
 20
-0.9205818176268486
 30
0.0
 10
-0.8896994106016332
 20
-0.9042585437718008
 30
0.0
 10
-0.8883971911182808
 20
-0.8716030413343911
 30
0.0
 10
-0.8936345444107661
 20
-0.8227662606916647
 30
0.0
 10
-0.9038586174643759
 20
-0.7746575307570477
 30
0.0
 10
-0.9156844306729661
 20
-0.7441277699770397
 30
0.0
 10
-0.9216003417972698
 20
-0.7288551330568494
 30
0.0
 11
-0.8903503417972833
 21
-0.9205818176268486
 31
0.0
 11
-0.8895950317392582
 21
-0.8716392517088372
 31
0.0
 11
-0.8944625854502671
 21
-0.8229064941408475
 31
0.0
 11
-0.9051055908212616
 21
-0.775062561034839
 31
0.0
 11
-0.9216003417972698
 21
-0.7288551330568494
 31
0.0
  0
SPLINE
  5
9ADD
330
1F
100
AcDbEntity
  8
AM_0
100
AcDbSpline
210
0.0
220
0.0
230
1.0
 70
     8
 71
     3
 72
    11
 73
     7
 74
     5
 42
0.0000000001
 43
0.0000000001
 44
0.0000000001
 40
0.0
 40
0.0
 40
0.0
 40
0.0
 40
0.0625433902745197
 40
0.1251397804758213
 40
0.1877700656982781
 40
0.2503924562252576
 40
0.2503924562252576
 40
0.2503924562252576
 40
0.2503924562252576
 10
-0.9216003417972698
 20
-0.7288551330568494
 30
0.0
 10
-0.9307446785533349
 20
-0.7100599188973448
 30
0.0
 10
-0.949041101072617
 20
-0.6724535633161595
 30
0.0
 10
-0.9879658128739645
 20
-0.6229498138129097
 30
0.0
 10
-1.033881194038701
 20
-0.5797713264500884
 30
0.0
 10
-1.069923842445643
 20
-0.5584706912371499
 30
0.0
 10
-1.087944030762269
 20
-0.5478210449218427
 30
0.0
 11
-0.9216003417972698
 21
-0.7288551330568494
 31
0.0
 11
-0.9509429931642587
 21
-0.6736221313478509
 31
0.0
 11
-0.9891204833992592
 21
-0.6240158081058481
 31
0.0
 11
-1.035240173340267
 21
-0.5816421508788454
 31
0.0
 11
-1.087944030762269
 21
-0.5478210449218427
 31
0.0
  0
SPLINE
  5
9ADE
330
1F
100
AcDbEntity
  8
AM_0
100
AcDbSpline
210
0.0
220
0.0
230
1.0
 70
     8
 71
     3
 72
    11
 73
     7
 74
     5
 42
0.0000000001
 43
0.0000000001
 44
0.0000000001
 40
0.0
 40
0.0
 40
0.0
 40
0.0
 40
0.062546970018833
 40
0.1251403371962037
 40
0.1877650044981595
 40
0.2503894553493112
 40
0.2503894553493112
 40
0.2503894553493112
 40
0.2503894553493112
 10
-6.582862854004253
 20
-8.925651550292842
 30
0.0
 10
-6.573715808450955
 20
-8.944446775728813
 30
0.0
 10
-6.555414932092855
 20
-8.982051168843748
 30
0.0
 10
-6.516488955942195
 20
-9.031550946954748
 30
0.0
 10
-6.470580691813945
 20
-9.074733653444642
 30
0.0
 10
-6.434539653202563
 20
-9.096034989037502
 30
0.0
 10
-6.416519165039253
 20
-9.106685638427848
 30
0.0
 11
-6.582862854004253
 21
-8.925651550292842
 31
0.0
 11
-6.553512573243259
 21
-8.980884552001853
 31
0.0
 11
-6.51533508300826
 21
-9.03048706054686
 31
0.0
 11
-6.469223022461257
 21
-9.072860717773847
 31
0.0
 11
-6.416519165039253
 21
-9.106685638427848
 31
0.0
  0
SPLINE
  5
9ADF
330
1F
100
AcDbEntity
  8
AM_0
100
AcDbSpline
210
0.0
220
0.0
230
1.0
 70
     8
 71
     3
 72
    11
 73
     7
 74
     5
 42
0.0000000001
 43
0.0000000001
 44
0.0000000001
 40
0.0
 40
0.0
 40
0.0
 40
0.0
 40
0.0855894872057188
 40
0.1711748996185582
 40
0.256744441931581
 40
0.3423017921507185
 40
0.3423017921507185
 40
0.3423017921507185
 40
0.3423017921507185
 10
-1.375709533692266
 20
-8.831871032714838
 30
0.0
 10
-1.363330192961055
 20
-8.806130596450442
 30
0.0
 10
-1.338572100861313
 20
-8.754650949386949
 30
0.0
 10
-1.312685996663238
 20
-8.672839231303504
 30
0.0
 10
-1.294575317597312
 20
-8.588991133734582
 30
0.0
 10
-1.290238788686604
 20
-8.532052902659099
 30
0.0
 10
-1.288070678711258
 20
-8.503585815429852
 30
0.0
 11
-1.375709533692266
 21
-8.831871032714838
 31
0.0
 11
-1.34044647216826
 21
-8.753883361816855
 31
0.0
 11
-1.31398010253924
 21
-8.672492980956855
 31
0.0
 11
-1.296508789063261
 21
-8.588726043701848
 31
0.0
 11
-1.288070678711258
 21
-8.503585815429852
 31
0.0
  0
SPLINE
  5
9AE0
330
1F
100
AcDbEntity
  8
AM_0
100
AcDbSpline
210
0.0
220
0.0
230
1.0
 70
     8
 71
     3
 72
    11
 73
     7
 74
     5
 42
0.0000000001
 43
0.0000000001
 44
0.0000000001
 40
0.0
 40
0.0
 40
0.0
 40
0.0
 40
0.0264701345731281
 40
0.0527919816291617
 40
0.0790954885546446
 40
0.1055150683636392
 40
0.1055150683636392
 40
0.1055150683636392
 40
0.1055150683636392
 10
-6.416519165039253
 20
-9.106685638427848
 30
0.0
 10
-6.408619138109994
 20
-9.110624416368846
 30
0.0
 10
-6.392863340746473
 20
-9.118479906945522
 30
0.0
 10
-6.368275929210422
 20
-9.128076484386118
 30
0.0
 10
-6.343158434271051
 20
-9.136130918473579
 30
0.0
 10
-6.325997452576619
 20
-9.139958311218599
 30
0.0
 10
-6.317398071289253
 20
-9.141876220702856
 30
0.0
 11
-6.416519165039253
 21
-9.106685638427848
 31
0.0
 11
-6.392654418946256
 21
-9.118137359618843
 31
0.0
 11
-6.368179321289253
 21
-9.127822875976859
 31
0.0
 11
-6.343093872071256
 21
-9.135734558105852
 31
0.0
 11
-6.317398071289253
 21
-9.141876220702856
 31
0.0
  0
SPLINE
  5
9AE1
330
1F
100
AcDbEntity
  8
AM_0
100
AcDbSpline
210
0.0
220
0.0
230
1.0
 70
     8
 71
     3
 72
    11
 73
     7
 74
     5
 42
0.0000000001
 43
0.0000000001
 44
0.0000000001
 40
0.0
 40
0.0
 40
0.0
 40
0.0
 40
0.6349483975238161
 40
1.269904157863538
 40
1.90485991820326
 40
2.539809315318037
 40
2.539809315318037
 40
2.539809315318037
 40
2.539809315318037
 10
-5.796859741211253
 20
-9.966983795165869
 30
0.0
 10
-5.592605628731517
 20
-9.911524315127104
 30
0.0
 10
-5.184095035256063
 20
-9.800604711945439
 30
0.0
 10
-4.571327278378881
 20
-9.634227498912576
 30
0.0
 10
-3.958558786514396
 20
-9.46785172120647
 30
0.0
 10
-3.550048698342552
 20
-9.356928985470633
 30
0.0
 10
-3.345794677735261
 20
-9.301467895507844
 30
0.0
 11
-5.796859741211253
 21
-9.966983795165869
 31
0.0
 11
-5.18409729003925
 21
-9.800605773925861
 31
0.0
 11
-4.571327209473256
 21
-9.634227752685852
 31
0.0
 11
-3.958557128907264
 21
-9.467849731445843
 31
0.0
 11
-3.345794677735261
 21
-9.301467895507844
 31
0.0
  0
SPLINE
  5
9AE2
330
1F
100
AcDbEntity
  8
AM_0
100
AcDbSpline
210
0.0
220
0.0
230
1.0
 70
     8
 71
     3
 72
    11
 73
     7
 74
     5
 42
0.0000000001
 43
0.0000000001
 44
0.0000000001
 40
0.0
 40
0.0
 40
0.0
 40
0.0
 40
0.2629459221140977
 40
0.5258976819539476
 40
0.7888386919893299
 40
1.051782620931416
 40
1.051782620931416
 40
1.051782620931416
 40
1.051782620931416
 10
-6.249313354493258
 20
-9.149711608886846
 30
0.0
 10
-6.305745772607349
 20
-9.216776252359181
 30
0.0
 10
-6.418611861705241
 20
-9.35090702822216
 30
0.0
 10
-6.587903376467687
 20
-9.552106191389759
 30
0.0
 10
-6.757195665356296
 20
-9.753303834878595
 30
0.0
 10
-6.870053782511876
 20
-9.887435767269836
 30
0.0
 10
-6.926483154297261
 20
-9.954502105712849
 30
0.0
 11
-6.249313354493258
 21
-9.149711608886846
 31
0.0
 11
-6.418609619141256
 21
-9.350906372070852
 31
0.0
 11
-6.587905883789251
 21
-9.552108764648849
 31
0.0
 11
-6.757194519043257
 21
-9.753303527831848
 31
0.0
 11
-6.926483154297261
 21
-9.954502105712849
 31
0.0
  0
SPLINE
  5
9AE3
330
1F
100
AcDbEntity
  8
AM_0
100
AcDbSpline
210
0.0
220
0.0
230
1.0
 70
     8
 71
     3
 72
    11
 73
     7
 74
     5
 42
0.0000000001
 43
0.0000000001
 44
0.0000000001
 40
0.0
 40
0.0
 40
0.0
 40
0.0
 40
0.1143584247176758
 40
0.2289356425419826
 40
0.343908932510361
 40
0.4592886573007025
 40
0.4592886573007025
 40
0.4592886573007025
 40
0.4592886573007025
 10
-6.926483154297261
 20
-9.954502105712849
 30
0.0
 10
-6.964736441167662
 20
-9.951092491103233
 30
0.0
 10
-7.041316201956066
 20
-9.94426673853275
 30
0.0
 10
-7.146258976409693
 20
-9.89305201857811
 30
0.0
 10
-7.233815183106155
 20
-9.814543255043673
 30
0.0
 10
-7.266466960954371
 20
-9.744260323577428
 30
0.0
 10
-7.282821655274251
 20
-9.709056854247851
 30
0.0
 11
-6.926483154297261
 21
-9.954502105712849
 31
0.0
 11
-7.039566040039249
 21
-9.937469482421864
 31
0.0
 11
-7.143203735352261
 21
-9.888610839843851
 31
0.0
 11
-7.227279663086254
 21
-9.81018829345685
 31
0.0
 11
-7.282821655274251
 21
-9.709056854247851
 31
0.0
  0
SPLINE
  5
9AE4
330
1F
100
AcDbEntity
  8
AM_0
100
AcDbSpline
210
0.0
220
0.0
230
1.0
 70
     8
 71
     3
 72
    11
 73
     7
 74
     5
 42
0.0000000001
 43
0.0000000001
 44
0.0000000001
 40
0.0
 40
0.0
 40
0.0
 40
0.0
 40
0.0392618095804354
 40
0.0785284421624699
 40
0.1177883264171626
 40
0.1570534686329703
 40
0.1570534686329703
 40
0.1570534686329703
 40
0.1570534686329703
 10
-7.282821655274251
 20
-9.709056854247851
 30
0.0
 10
-7.286767864078618
 20
-9.696566327691517
 30
0.0
 10
-7.294660766447774
 20
-9.671583740216828
 30
0.0
 10
-7.301705916601158
 20
-9.632874020938817
 30
0.0
 10
-7.30549017141723
 20
-9.593715904331061
 30
0.0
 10
-7.304833001495077
 20
-9.567527162823996
 30
0.0
 10
-7.304504394532262
 20
-9.554431915283846
 30
0.0
 11
-7.282821655274251
 21
-9.709056854247851
 31
0.0
 11
-7.29386138916026
 21
-9.671379089355855
 31
0.0
 11
-7.301162719727262
 21
-9.632797241210855
 31
0.0
 11
-7.30469512939526
 21
-9.593696594238851
 31
0.0
 11
-7.304504394532262
 21
-9.554431915283846
 31
0.0
  0
SPLINE
  5
9AE5
330
1F
100
AcDbEntity
  8
AM_0
100
AcDbSpline
210
0.0
220
0.0
230
1.0
 70
     8
 71
     3
 72
    11
 73
     7
 74
     5
 42
0.0000000001
 43
0.0000000001
 44
0.0000000001
 40
0.0
 40
0.0
 40
0.0
 40
0.0
 40
0.260677637279187
 40
0.5213523556749085
 40
0.782029992954096
 40
1.042707630232635
 40
1.042707630232635
 40
1.042707630232635
 40
1.042707630232635
 10
-7.304504394532262
 20
-9.554431915283846
 30
0.0
 10
-7.248560800104036
 20
-9.487944106240673
 30
0.0
 10
-7.136674237664312
 20
-9.354969232637699
 30
0.0
 10
-6.968840255146102
 20
-9.155509768988618
 30
0.0
 10
-6.801010299629544
 20
-8.956046916920701
 30
0.0
 10
-6.689122573835307
 20
-8.823071750627413
 30
0.0
 10
-6.63317871093826
 20
-8.756584167480854
 30
0.0
 11
-7.304504394532262
 21
-9.554431915283846
 31
0.0
 11
-7.136672973633259
 21
-9.354969024658846
 31
0.0
 11
-6.968841552735261
 21
-9.155509948730854
 31
0.0
 11
-6.801010131836257
 21
-8.956047058105854
 31
0.0
 11
-6.63317871093826
 21
-8.756584167480854
 31
0.0
  0
SPLINE
  5
9AE6
330
1F
100
AcDbEntity
  8
AM_0
100
AcDbSpline
210
0.0
220
0.0
230
1.0
 70
     8
 71
     3
 72
    11
 73
     7
 74
     5
 42
0.0000000001
 43
0.0000000001
 44
0.0000000001
 40
0.0
 40
0.0
 40
0.0
 40
0.0
 40
0.2528158823839755
 40
0.5056415888043505
 40
0.7584623831391926
 40
1.011283177473253
 40
1.011283177473253
 40
1.011283177473253
 40
1.011283177473253
 10
-1.229064941407271
 20
-0.4738082885748408
 30
0.0
 10
-1.174810677743834
 20
-0.4093238853692689
 30
0.0
 10
-1.06630004217971
 20
-0.2803525731933831
 30
0.0
 10
-0.9035178165775372
 20
-0.0869092967690439
 30
0.0
 10
-0.7407460230207525
 20
0.1065448973264893
 30
0.0
 10
-0.6322302824137092
 20
0.2355119140176594
 30
0.0
 10
-0.5779724121102716
 20
0.2999954223631449
 30
0.0
 11
-1.229064941407271
 21
-0.4738082885748408
 31
0.0
 11
-1.066299438477271
 21
-0.2803573608398398
 31
0.0
 11
-0.9035186767582668
 21
-0.086906433105848
 31
0.0
 11
-0.7407455444342621
 21
0.106544494629153
 31
0.0
 11
-0.5779724121102716
 21
0.2999954223631449
 31
0.0
  0
SPLINE
  5
9AE7
330
1F
100
AcDbEntity
  8
AM_0
100
AcDbSpline
210
0.0
220
0.0
230
1.0
 70
     8
 71
     3
 72
    11
 73
     7
 74
     5
 42
0.0000000001
 43
0.0000000001
 44
0.0000000001
 40
0.0
 40
0.0
 40
0.0
 40
0.0
 40
0.1143584247176898
 40
0.2289287416271508
 40
0.3439020315962579
 40
0.4592854292511505
 40
0.4592854292511505
 40
0.4592854292511505
 40
0.4592854292511505
 10
-0.5779724121102716
 20
0.2999954223631449
 30
0.0
 10
-0.5397189826756717
 20
0.2965861936937948
 30
0.0
 10
-0.4631412448745026
 20
0.289761419470818
 30
0.0
 10
-0.3582024178925941
 20
0.2385431523726358
 30
0.0
 10
-0.2706486553003968
 20
0.1600350168819389
 30
0.0
 10
-0.2379915391839075
 20
0.0897534939982097
 30
0.0
 10
-0.2216339111332674
 20
0.0545501708981605
 30
0.0
 11
-0.5779724121102716
 21
0.2999954223631449
 31
0.0
 11
-0.4648895263682687
 21
0.2829627990721581
 31
0.0
 11
-0.3612594604502712
 21
0.2341041564941472
 31
0.0
 11
-0.2771835327152707
 21
0.1556816101071588
 31
0.0
 11
-0.2216339111332674
 21
0.0545501708981605
 31
0.0
  0
SPLINE
  5
9AE8
330
1F
100
AcDbEntity
  8
AM_0
100
AcDbSpline
210
0.0
220
0.0
230
1.0
 70
     8
 71
     3
 72
    11
 73
     7
 74
     5
 42
0.0000000001
 43
0.0000000001
 44
0.0000000001
 40
0.0
 40
0.0
 40
0.0
 40
0.0
 40
0.0392633260170486
 40
0.0785276299119076
 40
0.1177868284478047
 40
0.157051970663614
 40
0.157051970663614
 40
0.157051970663614
 40
0.157051970663614
 10
-0.2216339111332674
 20
0.0545501708981605
 30
0.0
 10
-0.2176920786049319
 20
0.0420579750397671
 30
0.0
 10
-0.2098083153744444
 20
0.0170732721969915
 30
0.0
 10
-0.2027434245415149
 20
-0.0216322478033594
 30
0.0
 10
-0.1989764610196713
 20
-0.060791418836102
 30
0.0
 10
-0.1996313379970445
 20
-0.0869796575748232
 30
0.0
 10
-0.1999588012702698
 20
-0.1000747680668537
 30
0.0
 11
-0.2216339111332674
 21
0.0545501708981605
 31
0.0
 11
-0.2106018066412645
 21
0.0168685913081463
 31
0.0
 11
-0.20329284668027
 21
-0.0217094421388351
 31
0.0
 11
-0.199768066407273
 21
-0.0608100891118467
 31
0.0
 11
-0.1999588012702698
 21
-0.1000747680668537
 31
0.0
  0
SPLINE
  5
9AE9
330
1F
100
AcDbEntity
  8
AM_0
100
AcDbSpline
210
0.0
220
0.0
230
1.0
 70
     8
 71
     3
 72
    11
 73
     7
 74
     5
 42
0.0000000001
 43
0.0000000001
 44
0.0000000001
 40
0.0
 40
0.0
 40
0.0
 40
0.0
 40
0.2680822042989265
 40
0.5361594966172856
 40
0.8042436942089159
 40
1.072320986526542
 40
1.072320986526542
 40
1.072320986526542
 40
1.072320986526542
 10
-0.1999588012702698
 20
-0.1000747680668537
 30
0.0
 10
-0.2574927860864322
 20
-0.168450067047591
 30
0.0
 10
-0.3725597015427959
 20
-0.3051994121913313
 30
0.0
 10
-0.5451480579572702
 20
-0.5103354793031653
 30
0.0
 10
-0.7177604451965515
 20
-0.7154491862795589
 30
0.0
 10
-0.8328208702217001
 20
-0.852204860940796
 30
0.0
 10
-0.8903503417972833
 20
-0.9205818176268486
 30
0.0
 11
-0.1999588012702698
 21
-0.1000747680668537
 31
0.0
 11
-0.3725585937502688
 21
-0.3052024841308527
 31
0.0
 11
-0.5451507568362624
 21
-0.5103302001958464
 31
0.0
 11
-0.7177581787112616
 21
-0.7154541015628357
 31
0.0
 11
-0.8903503417972833
 21
-0.9205818176268486
 31
0.0
  0
SPLINE
  5
9AEA
330
1F
100
AcDbEntity
  8
AM_0
100
AcDbSpline
210
0.0
220
0.0
230
1.0
 70
     8
 71
     3
 72
    11
 73
     7
 74
     5
 42
0.0000000001
 43
0.0000000001
 44
0.0000000001
 40
0.0
 40
0.0
 40
0.0
 40
0.0
 40
0.1543905337593078
 40
0.3087894849660778
 40
0.4631773875560553
 40
0.6175734454392266
 40
0.6175734454392266
 40
0.6175734454392266
 40
0.6175734454392266
 10
-1.595413208008243
 20
-9.672912597656841
 30
0.0
 10
-1.632674169644862
 20
-9.63741451690374
 30
0.0
 10
-1.707198124403965
 20
-9.566416420024802
 30
0.0
 10
-1.819000429076729
 20
-9.459939768461584
 30
0.0
 10
-1.930786957114434
 20
-9.353443884464045
 30
0.0
 10
-2.005314763506347
 20
-9.282452500860395
 30
0.0
 10
-2.042579650879252
 20
-9.246955871581858
 30
0.0
 11
-1.595413208008243
 21
-9.672912597656841
 31
0.0
 11
-1.70719909668026
 21
-9.566421508788845
 31
0.0
 11
-1.819000244141254
 21
-9.459934234618851
 31
0.0
 11
-1.930786132813244
 21
-9.35344696044984
 31
0.0
 11
-2.042579650879252
 21
-9.246955871581858
 31
0.0
  0
SPLINE
  5
9AEB
330
1F
100
AcDbEntity
  8
AM_0
100
AcDbSpline
210
0.0
220
0.0
230
1.0
 70
     8
 71
     3
 72
    11
 73
     7
 74
     5
 42
0.0000000001
 43
0.0000000001
 44
0.0000000001
 40
0.0
 40
0.0
 40
0.0
 40
0.0
 40
1.052796811087649
 40
2.105693237759352
 40
3.158666990668136
 40
4.211725423822532
 40
4.211725423822532
 40
4.211725423822532
 40
4.211725423822532
 10
-1.595413208008243
 20
-9.672912597656841
 30
0.0
 10
-1.945484888156761
 20
-9.697474303639973
 30
0.0
 10
-2.645661372219477
 20
-9.74660003963369
 30
0.0
 10
-3.69597817987907
 20
-9.820151708286633
 30
0.0
 10
-4.746387392690824
 20
-9.893632157681476
 30
0.0
 10
-5.446692905642946
 20
-9.942532593934499
 30
0.0
 10
-5.796859741211253
 20
-9.966983795165869
 30
0.0
 11
-1.595413208008243
 21
-9.672912597656841
 31
0.0
 11
-2.645629882813242
 21
-9.746574401855852
 31
0.0
 11
-3.695953369141253
 21
-9.820137023925855
 31
0.0
 11
-4.746360778809251
 21
-9.893608093261855
 31
0.0
 11
-5.796859741211253
 21
-9.966983795165869
 31
0.0
  0
SPLINE
  5
9AEC
330
1F
100
AcDbEntity
  8
AM_0
100
AcDbSpline
210
0.0
220
0.0
230
1.0
 70
     8
 71
     3
 72
    11
 73
     7
 74
     5
 42
0.0000000001
 43
0.0000000001
 44
0.0000000001
 40
0.0
 40
0.0
 40
0.0
 40
0.0
 40
0.148486960477833
 40
0.2969820762524305
 40
0.4454771920277239
 40
0.5939641525055467
 40
0.5939641525055467
 40
0.5939641525055467
 40
0.5939641525055467
 10
-1.288070678711258
 20
-8.503585815429852
 30
0.0
 10
-1.252233013160861
 20
-8.537724963673115
 30
0.0
 10
-1.180555713760648
 20
-8.606005135171994
 30
0.0
 10
-1.073036193847918
 20
-8.708423614501823
 30
0.0
 10
-0.9655166739362384
 20
-8.81084209383275
 30
0.0
 10
-0.8938393745357256
 20
-8.879122265331647
 30
0.0
 10
-0.8580017089852635
 20
-8.913261413574836
 30
0.0
 11
-1.288070678711258
 21
-8.503585815429852
 31
0.0
 11
-1.180557250977267
 21
-8.606002807617835
 31
0.0
 11
-1.07303619384826
 21
-8.708423614501846
 31
0.0
 11
-0.9655151367192411
 21
-8.810844421386853
 31
0.0
 11
-0.8580017089852635
 21
-8.913261413574836
 31
0.0
  0
SPLINE
  5
9AED
330
1F
100
AcDbEntity
  8
AM_0
100
AcDbSpline
210
0.0
220
0.0
230
1.0
 70
     8
 71
     3
 72
    11
 73
     7
 74
     5
 42
0.0000000001
 43
0.0000000001
 44
0.0000000001
 40
0.0
 40
0.0
 40
0.0
 40
0.0
 40
0.2887897171921374
 40
0.5771001351321568
 40
0.863937170711017
 40
1.149359724250961
 40
1.149359724250961
 40
1.149359724250961
 40
1.149359724250961
 10
-0.8580017089852635
 20
-8.913261413574836
 30
0.0
 10
-0.8738262675834288
 20
-9.009325912649629
 30
0.0
 10
-0.9054491210361092
 20
-9.201295474227137
 30
0.0
 10
-1.074546781857662
 20
-9.443932113619698
 30
0.0
 10
-1.310547888000679
 20
-9.621531271170903
 30
0.0
 10
-1.500614700487161
 20
-9.655813734709285
 30
0.0
 10
-1.595413208008243
 20
-9.672912597656841
 30
0.0
 11
-0.8580017089852635
 21
-8.913261413574836
 31
0.0
 11
-0.9258422851572509
 21
-9.193969726562833
 31
0.0
 11
-1.08618164062526
 21
-9.433582305908851
 31
0.0
 11
-1.31925964355526
 21
-9.600765228271848
 31
0.0
 11
-1.595413208008243
 21
-9.672912597656841
 31
0.0
  0
SPLINE
  5
9AEE
330
1F
100
AcDbEntity
  8
AM_0
100
AcDbSpline
210
0.0
220
0.0
230
1.0
 70
     8
 71
     3
 72
    11
 73
     7
 74
     5
 42
0.0000000001
 43
0.0000000001
 44
0.0000000001
 40
0.0
 40
0.0
 40
0.0
 40
0.0
 40
2.219456437418244
 40
4.421287674457241
 40
6.620608085653383
 40
8.837087539850717
 40
8.837087539850717
 40
8.837087539850717
 40
8.837087539850717
 10
-0.2000045776372726
 20
-0.1009216308598509
 30
0.0
 10
-0.2461945945342062
 20
-0.8393199277555414
 30
0.0
 10
-0.3382078230645844
 20
-2.31025273538601
 30
0.0
 10
-0.522885163898402
 20
-4.509460728267754
 30
0.0
 10
-0.7122102913423811
 20
-6.70725104000163
 30
0.0
 10
-0.8092788391795194
 20
-8.176022157934911
 30
0.0
 10
-0.8580017089852635
 20
-8.913261413574836
 30
0.0
 11
-0.2000045776372726
 21
-0.1009216308598509
 31
0.0
 11
-0.3464660644532722
 21
-2.315540313720837
 31
0.0
 11
-0.5237426757822697
 21
-4.510223388671838
 31
0.0
 11
-0.7044601440432551
 21
-6.702106475829842
 31
0.0
 11
-0.8580017089852635
 21
-8.913261413574836
 31
0.0
  0
SPLINE
  5
9AEF
330
1F
100
AcDbEntity
  8
AM_0
100
AcDbSpline
210
0.0
220
0.0
230
1.0
 70
     8
 71
     3
 72
    11
 73
     7
 74
     5
 42
0.0000000001
 43
0.0000000001
 44
0.0000000001
 40
0.0
 40
0.0
 40
0.0
 40
0.0
 40
0.2072859159135694
 40
0.4146373773464408
 40
0.6220600007925635
 40
0.8295460729434065
 40
0.8295460729434065
 40
0.8295460729434065
 40
0.8295460729434065
 10
-7.25346374511826
 20
-8.725608825683851
 30
0.0
 10
-7.257874633616956
 20
-8.794563210935018
 30
0.0
 10
-7.266697805373731
 20
-8.9324937853837
 30
0.0
 10
-7.279548604863655
 20
-9.139448606691718
 30
0.0
 10
-7.292183608509656
 20
-9.346483546009043
 30
0.0
 10
-7.300366531162842
 20
-9.484544179490058
 30
0.0
 10
-7.304458618164251
 20
-9.553585052490847
 30
0.0
 11
-7.25346374511826
 21
-8.725608825683851
 31
0.0
 11
-7.26663208007826
 21
-8.932476043701855
 31
0.0
 11
-7.279510498047264
 21
-9.139427185058851
 31
0.0
 11
-7.292121887207263
 21
-9.34646606445286
 31
0.0
 11
-7.304458618164251
 21
-9.553585052490847
 31
0.0
  0
SPLINE
  5
9B0C
330
1F
100
AcDbEntity
  8
AM_0
100
AcDbSpline
210
0.0
220
0.0
230
1.0
 70
     8
 71
     3
 72
    11
 73
     7
 74
     5
 42
0.0000000001
 43
0.0000000001
 44
0.0000000001
 40
0.0
 40
0.0
 40
0.0
 40
0.0
 40
0.0665570275907572
 40
0.1324727255847237
 40
0.197577987576529
 40
0.2617369331652142
 40
0.2617369331652142
 40
0.2617369331652142
 40
0.2617369331652142
 10
-17.46533203125026
 20
-9.292739868163879
 30
0.0
 10
-17.48590906464189
 20
-9.284388209408627
 30
0.0
 10
-17.52686485543526
 20
-9.26776536673505
 30
0.0
 10
-17.58428764453246
 20
-9.235219835423546
 30
0.0
 10
-17.63793200832853
 20
-9.198119223442281
 30
0.0
 10
-17.66969681840769
 20
-9.168937381472282
 30
0.0
 10
-17.68546295166027
 20
-9.154453277587878
 30
0.0
 11
-17.46533203125026
 21
-9.292739868163879
 31
0.0
 11
-17.52644348144625
 21
-9.266372680663879
 31
0.0
 11
-17.58399963378923
 21
-9.234245300292869
 31
0.0
 11
-17.63723754882824
 21
-9.196769714355882
 31
0.0
 11
-17.68546295166027
 21
-9.154453277587878
 31
0.0
  0
SPLINE
  5
9B0D
330
1F
100
AcDbEntity
  8
AM_0
100
AcDbSpline
210
0.0
220
0.0
230
1.0
 70
     8
 71
     3
 72
    11
 73
     7
 74
     5
 42
0.0000000001
 43
0.0000000001
 44
0.0000000001
 40
0.0
 40
0.0
 40
0.0
 40
0.0
 40
0.0639705382424045
 40
0.128169187745048
 40
0.1924161338165153
 40
0.2565336244661392
 40
0.2565336244661392
 40
0.2565336244661392
 40
0.2565336244661392
 10
-17.46533203125026
 20
-9.292739868163879
 30
0.0
 10
-17.4451621545151
 20
-9.299707943544783
 30
0.0
 10
-17.40475047768556
 20
-9.313668941626936
 30
0.0
 10
-17.34201817553912
 20
-9.327549325540637
 30
0.0
 10
-17.2783648221026
 20
-9.336628750045926
 30
0.0
 10
-17.23556054646021
 20
-9.337795913209575
 30
0.0
 10
-17.21417999267623
 20
-9.338378906249884
 30
0.0
 11
-17.46533203125026
 21
-9.292739868163879
 31
0.0
 11
-17.40447998046926
 21
-9.312469482421876
 31
0.0
 11
-17.34188842773525
 21
-9.326744079589872
 31
0.0
 11
-17.27822875976625
 21
-9.335411071777873
 31
0.0
 11
-17.21417999267623
 21
-9.338378906249884
 31
0.0
  0
SPLINE
  5
9B0E
330
1F
100
AcDbEntity
  8
AM_0
100
AcDbSpline
210
0.0
220
0.0
230
1.0
 70
     8
 71
     3
 72
    11
 73
     7
 74
     5
 42
0.0000000001
 43
0.0000000001
 44
0.0000000001
 40
0.0
 40
0.0
 40
0.0
 40
0.0
 40
0.0850519427346604
 40
0.1704916667884332
 40
0.2560921460943979
 40
0.3416371851055727
 40
0.3416371851055727
 40
0.3416371851055727
 40
0.3416371851055727
 10
-17.58209228515727
 20
-9.547378540038879
 30
0.0
 10
-17.5553027350361
 20
-9.556736737027771
 30
0.0
 10
-17.50160149193906
 20
-9.575495798272831
 30
0.0
 10
-17.41790235368623
 20
-9.593183761919613
 30
0.0
 10
-17.33288694950128
 20
-9.60391901397903
 30
0.0
 10
-17.27579176340673
 20
-9.604212151709605
 30
0.0
 10
-17.24725341796926
 20
-9.604358673095875
 30
0.0
 11
-17.58209228515727
 21
-9.547378540038879
 31
0.0
 11
-17.50122070312526
 21
-9.573715209960868
 31
0.0
 11
-17.41776275634825
 21
-9.592010498046876
 31
0.0
 11
-17.33277130127027
 21
-9.602203369140866
 31
0.0
 11
-17.24725341796926
 21
-9.604358673095875
 31
0.0
  0
SPLINE
  5
9B0F
330
1F
100
AcDbEntity
  8
AM_0
100
AcDbSpline
210
0.0
220
0.0
230
1.0
 70
     8
 71
     3
 72
    11
 73
     7
 74
     5
 42
0.0000000001
 43
0.0000000001
 44
0.0000000001
 40
0.0
 40
0.0
 40
0.0
 40
0.0
 40
0.0557328706573451
 40
0.1114657413136635
 40
0.167206113423142
 40
0.2229466124095784
 40
0.2229466124095784
 40
0.2229466124095784
 40
0.2229466124095784
 10
-17.21417999267623
 20
-9.338378906249884
 30
0.0
 10
-17.21449002473149
 20
-9.356953942627713
 30
0.0
 10
-17.215110088842
 20
-9.394104015383026
 30
0.0
 10
-17.21604436672624
 20
-9.449831555790044
 30
0.0
 10
-17.2169621254075
 20
-9.505561914095025
 30
0.0
 10
-17.21758438010859
 20
-9.542716994378794
 30
0.0
 10
-17.21789550781324
 20
-9.561294555663877
 30
0.0
 11
-17.21417999267623
 21
-9.338378906249884
 31
0.0
 11
-17.21511077880925
 21
-9.394104003906891
 31
0.0
 11
-17.21604156494226
 21
-9.449829101562871
 31
0.0
 11
-17.21696472168025
 21
-9.505561828613862
 31
0.0
 11
-17.21789550781324
 21
-9.561294555663877
 31
0.0
  0
SPLINE
  5
9B10
330
1F
100
AcDbEntity
  8
AM_0
100
AcDbSpline
210
0.0
220
0.0
230
1.0
 70
     8
 71
     3
 72
    11
 73
     7
 74
     5
 42
0.0000000001
 43
0.0000000001
 44
0.0000000001
 40
0.0
 40
0.0
 40
0.0
 40
0.0
 40
0.5782375264940497
 40
1.156475052989044
 40
1.734708904194171
 40
2.312946430688191
 40
2.312946430688191
 40
2.312946430688191
 40
2.312946430688191
 10
-9.064987182618233
 20
-11.84578704833987
 30
0.0
 10
-9.116617867843366
 20
-11.66008505046438
 30
0.0
 10
-9.219879238293716
 20
-11.28868105471311
 30
0.0
 10
-9.374770438390287
 20
-10.73157609477483
 30
0.0
 10
-9.529663748131738
 20
-10.17447172138232
 30
0.0
 10
-9.632924509129836
 20
-9.803068827750609
 30
0.0
 10
-9.684555053711255
 20
-9.61736679077188
 30
0.0
 11
-9.064987182618233
 21
-11.84578704833987
 31
0.0
 11
-9.219879150391232
 21
-11.28868103027386
 31
0.0
 11
-9.374771118164233
 21
-10.73157501220687
 31
0.0
 11
-9.529663085938254
 21
-10.17447280883786
 31
0.0
 11
-9.684555053711255
 21
-9.61736679077188
 31
0.0
  0
SPLINE
  5
9B11
330
1F
100
AcDbEntity
  8
AM_0
100
AcDbSpline
210
0.0
220
0.0
230
1.0
 70
     8
 71
     3
 72
    11
 73
     7
 74
     5
 42
0.0000000001
 43
0.0000000001
 44
0.0000000001
 40
0.0
 40
0.0
 40
0.0
 40
0.0
 40
0.0482727463220967
 40
0.0959742713169437
 40
0.1430177917201484
 40
0.1893524715211588
 40
0.1893524715211588
 40
0.1893524715211588
 40
0.1893524715211588
 10
-9.684555053711255
 20
-9.61736679077188
 30
0.0
 10
-9.668461747260158
 20
-9.618036856457338
 30
0.0
 10
-9.63646556976036
 20
-9.619369058803302
 30
0.0
 10
-9.588882310992509
 20
-9.615063568977324
 30
0.0
 10
-9.542513605757358
 20
-9.606333979518696
 30
0.0
 10
-9.513181453754095
 20
-9.595786827572332
 30
0.0
 10
-9.498626708985259
 20
-9.590553283691871
 30
0.0
 11
-9.684555053711255
 21
-9.61736679077188
 31
0.0
 11
-9.636291503907262
 21
-9.618309020995864
 31
0.0
 11
-9.588760375977262
 21
-9.614280700683876
 31
0.0
 11
-9.542625427246255
 21
-9.605079650878876
 31
0.0
 11
-9.498626708985259
 21
-9.590553283691871
 31
0.0
  0
SPLINE
  5
9B12
330
1F
100
AcDbEntity
  8
AM_0
100
AcDbSpline
210
0.0
220
0.0
230
1.0
 70
     8
 71
     3
 72
    11
 73
     7
 74
     5
 42
0.0000000001
 43
0.0000000001
 44
0.0000000001
 40
0.0
 40
0.0
 40
0.0
 40
0.0
 40
0.0579355368597965
 40
0.1147264832553271
 40
0.1706629002379927
 40
0.2261358046153416
 40
0.2261358046153416
 40
0.2261358046153416
 40
0.2261358046153416
 10
-9.498626708985259
 20
-9.590553283691871
 30
0.0
 10
-9.48101677019285
 20
-9.582492514905537
 30
0.0
 10
-9.446144799421544
 20
-9.566530228106874
 30
0.0
 10
-9.400657347872085
 20
-9.531731462749847
 30
0.0
 10
-9.362055996392784
 20
-9.490403375689851
 30
0.0
 10
-9.344191644806924
 20
-9.457695808993157
 30
0.0
 10
-9.335296630860259
 20
-9.44141006469786
 30
0.0
 11
-9.498626708985259
 21
-9.590553283691871
 31
0.0
 11
-9.44689178466826
 21
-9.564476013183876
 31
0.0
 11
-9.401489257813258
 21
-9.53036117553688
 31
0.0
 11
-9.363891601563258
 21
-9.48894500732487
 31
0.0
 11
-9.335296630860259
 21
-9.44141006469786
 31
0.0
  0
SPLINE
  5
9B13
330
1F
100
AcDbEntity
  8
AM_0
100
AcDbSpline
210
0.0
220
0.0
230
1.0
 70
     8
 71
     3
 72
    11
 73
     7
 74
     5
 42
0.0000000001
 43
0.0000000001
 44
0.0000000001
 40
0.0
 40
0.0
 40
0.0
 40
0.0
 40
0.5466365504172542
 40
1.093273100835455
 40
1.639913326550958
 40
2.186551920645846
 40
2.186551920645846
 40
2.186551920645846
 40
2.186551920645846
 10
-9.285705566407262
 20
-9.368400573730864
 30
0.0
 10
-9.236897857913119
 20
-9.543954233326552
 30
0.0
 10
-9.139282440924745
 20
-9.895061552518232
 30
0.0
 10
-8.9928577011124
 20
-10.42172335404738
 30
0.0
 10
-8.846437923538479
 20
-10.94838724227198
 30
0.0
 10
-8.748815644373488
 20
-11.29949463221333
 30
0.0
 10
-8.700004577637242
 20
-11.47504806518585
 30
0.0
 11
-9.285705566407262
 21
-9.368400573730864
 31
0.0
 11
-9.139282226563256
 21
-9.895061492919863
 31
0.0
 11
-8.992858886719247
 21
-10.42172241210984
 31
0.0
 11
-8.846435546875241
 21
-10.94838714599585
 31
0.0
 11
-8.700004577637242
 21
-11.47504806518585
 31
0.0
  0
SPLINE
  5
9B14
330
1F
100
AcDbEntity
  8
AM_0
100
AcDbSpline
210
0.0
220
0.0
230
1.0
 70
     8
 71
     3
 72
    11
 73
     7
 74
     5
 42
0.0000000001
 43
0.0000000001
 44
0.0000000001
 40
0.0
 40
0.0
 40
0.0
 40
0.0
 40
0.1076746810613114
 40
0.2150220198587861
 40
0.3234758467986554
 40
0.4342320751801722
 40
0.4342320751801722
 40
0.4342320751801722
 40
0.4342320751801722
 10
-8.700004577637242
 20
-11.47504806518585
 30
0.0
 10
-8.700183344737103
 20
-11.51124041399572
 30
0.0
 10
-8.700540335466193
 20
-11.58351508309923
 30
0.0
 10
-8.742761046321174
 20
-11.68526804959818
 30
0.0
 10
-8.814066794379188
 20
-11.77106149134433
 30
0.0
 10
-8.88021418155
 20
-11.80377080737175
 30
0.0
 10
-8.913635253907241
 20
-11.82029724121085
 30
0.0
 11
-8.700004577637242
 21
-11.47504806518585
 31
0.0
 11
-8.70748901367224
 21
-11.58246231079086
 31
0.0
 11
-8.74730682373123
 21
-11.68215179443385
 31
0.0
 11
-8.818038940430238
 21
-11.76436614990284
 31
0.0
 11
-8.913635253907241
 21
-11.82029724121085
 31
0.0
  0
SPLINE
  5
9B15
330
1F
100
AcDbEntity
  8
AM_0
100
AcDbSpline
210
0.0
220
0.0
230
1.0
 70
     8
 71
     3
 72
    11
 73
     7
 74
     5
 42
0.0000000001
 43
0.0000000001
 44
0.0000000001
 40
0.0
 40
0.0
 40
0.0
 40
0.0
 40
0.0380138362737817
 40
0.0764373486813315
 40
0.1151982321199096
 40
0.1541999424709688
 40
0.1541999424709688
 40
0.1541999424709688
 40
0.1541999424709688
 10
-8.913635253907241
 20
-11.82029724121085
 30
0.0
 10
-8.925681429896037
 20
-11.82425840896388
 30
0.0
 10
-8.949903603835572
 20
-11.83222343408111
 30
0.0
 10
-8.987582593664274
 20
-11.83996925576886
 30
0.0
 10
-9.026049869646106
 20
-11.84493250260445
 30
0.0
 10
-9.051981308832029
 20
-11.84550161225989
 30
0.0
 10
-9.064987182618233
 20
-11.84578704833987
 30
0.0
 11
-8.913635253907241
 21
-11.82029724121085
 31
0.0
 11
-8.949966430664229
 21
-11.83148193359386
 31
0.0
 11
-8.987548828125238
 21
-11.83947753906286
 31
0.0
 11
-9.026016235352241
 21
-11.84423828124984
 31
0.0
 11
-9.064987182618233
 21
-11.84578704833987
 31
0.0
  0
SPLINE
  5
9B16
330
1F
100
AcDbEntity
  8
AM_0
100
AcDbSpline
210
0.0
220
0.0
230
1.0
 70
     8
 71
     3
 72
    11
 73
     7
 74
     5
 42
0.0000000001
 43
0.0000000001
 44
0.0000000001
 40
0.0
 40
0.0
 40
0.0
 40
0.0
 40
0.0194438304135542
 40
0.0388436754180752
 40
0.0582901580081986
 40
0.0778649453796494
 40
0.0778649453796494
 40
0.0778649453796494
 40
0.0778649453796494
 10
-9.335296630860259
 20
-9.44141006469786
 30
0.0
 10
-9.332635953204336
 20
-9.43549703171884
 30
0.0
 10
-9.32732061681945
 20
-9.423684342095025
 30
0.0
 10
-9.320907873436363
 20
-9.40532265384421
 30
0.0
 10
-9.315552232568961
 20
-9.386580352374751
 30
0.0
 10
-9.313062376128344
 20
-9.373808198081084
 30
0.0
 10
-9.31181335449326
 20
-9.367401123046873
 30
0.0
 11
-9.335296630860259
 21
-9.44141006469786
 31
0.0
 11
-9.32757568359425
 21
-9.423564910888869
 31
0.0
 11
-9.32109069824326
 21
-9.40528106689487
 31
0.0
 11
-9.315834045410259
 21
-9.38655853271487
 31
0.0
 11
-9.31181335449326
 21
-9.367401123046873
 31
0.0
  0
SPLINE
  5
9B17
330
1F
100
AcDbEntity
  8
AM_0
100
AcDbSpline
210
0.0
220
0.0
230
1.0
 70
     8
 71
     3
 72
    11
 73
     7
 74
     5
 42
0.0000000001
 43
0.0000000001
 44
0.0000000001
 40
0.0
 40
0.0
 40
0.0
 40
0.0
 40
0.2719013752966173
 40
0.543806505119971
 40
0.8157092302719213
 40
1.087609255921767
 40
1.087609255921767
 40
1.087609255921767
 40
1.087609255921767
 10
-8.801635742188254
 20
-10.29537582397485
 30
0.0
 10
-8.817670525429891
 20
-10.20617173249985
 30
0.0
 10
-8.849740313328091
 20
-10.02776231778282
 30
0.0
 10
-8.897838860756909
 20
-9.760147271622486
 30
0.0
 10
-8.945957756393962
 20
-9.492536340323191
 30
0.0
 10
-8.978018686693591
 20
-9.314126605009192
 30
0.0
 10
-8.994049072266257
 20
-9.224922180175862
 30
0.0
 11
-8.801635742188254
 21
-10.29537582397485
 31
0.0
 11
-8.849739074707262
 21
-10.02776336669986
 31
0.0
 11
-8.89784240722726
 21
-9.760147094726869
 31
0.0
 11
-8.945953369141255
 21
-9.492534637451862
 31
0.0
 11
-8.994049072266257
 21
-9.224922180175862
 31
0.0
  0
SPLINE
  5
9B18
330
1F
100
AcDbEntity
  8
AM_0
100
AcDbSpline
210
0.0
220
0.0
230
1.0
 70
     8
 71
     3
 72
    11
 73
     7
 74
     5
 42
0.0000000001
 43
0.0000000001
 44
0.0000000001
 40
0.0
 40
0.0
 40
0.0
 40
0.0
 40
0.0504590108563489
 40
0.1012748432732234
 40
0.1524054370134245
 40
0.2038088556432235
 40
0.2038088556432235
 40
0.2038088556432235
 40
0.2038088556432235
 10
-14.20659637451225
 20
-6.599685668945869
 30
0.0
 10
-14.18986942374149
 20
-6.597909243325244
 30
0.0
 10
-14.15629723734707
 20
-6.594343830066799
 30
0.0
 10
-14.10560456330901
 20
-6.590875488289625
 30
0.0
 10
-14.05452737366766
 20
-6.588647984214608
 30
0.0
 10
-14.02034742355732
 20
-6.588423022066286
 30
0.0
 10
-14.00321197509825
 20
-6.58831024169986
 30
0.0
 11
-14.20659637451225
 21
-6.599685668945869
 31
0.0
 11
-14.15638732910225
 21
-6.594669342040863
 31
0.0
 11
-14.10569763183625
 21
-6.591091156005875
 31
0.0
 11
-14.05461120605525
 21
-6.588966369628866
 31
0.0
 11
-14.00321197509825
 21
-6.58831024169986
 31
0.0
  0
SPLINE
  5
9B2B
330
1F
100
AcDbEntity
  8
AM_0
100
AcDbSpline
210
0.0
220
0.0
230
1.0
 70
     8
 71
     3
 72
    11
 73
     7
 74
     5
 42
0.0000000001
 43
0.0000000001
 44
0.0000000001
 40
0.0
 40
0.0
 40
0.0
 40
0.0
 40
0.1076741510142519
 40
0.215019718529009
 40
0.323481413070887
 40
0.4342300931666502
 40
0.4342300931666502
 40
0.4342300931666502
 40
0.4342300931666502
 10
-17.40000915527429
 20
11.47503852844211
 30
0.0
 10
-17.40018467969814
 20
11.51123090107021
 30
0.0
 10
-17.40053519290726
 20
11.58350519998119
 30
0.0
 10
-17.44275944578348
 20
11.68526010152397
 30
0.0
 10
-17.51406835417924
 20
11.77104947688605
 30
0.0
 10
-17.58021422319172
 20
11.80376120326453
 30
0.0
 10
-17.61363220214928
 20
11.82028770446712
 30
0.0
 11
-17.40000915527429
 21
11.47503852844211
 31
0.0
 11
-17.40748596191428
 21
11.58245277404812
 31
0.0
 11
-17.44730377197328
 21
11.68214035034112
 31
0.0
 11
-17.51804351806731
 21
11.76435852050712
 31
0.0
 11
-17.61363220214928
 21
11.82028770446712
 31
0.0
  0
SPLINE
  5
9B2C
330
1F
100
AcDbEntity
  8
AM_0
100
AcDbSpline
210
0.0
220
0.0
230
1.0
 70
     8
 71
     3
 72
    11
 73
     7
 74
     5
 42
0.0000000001
 43
0.0000000001
 44
0.0000000001
 40
0.0
 40
0.0
 40
0.0
 40
0.0
 40
0.0391517307325883
 40
0.0783068517829884
 40
0.1174460986279825
 40
0.1565870018003054
 40
0.1565870018003054
 40
0.1565870018003054
 40
0.1565870018003054
 10
-0.2136306762703036
 20
12.10589599609315
 30
0.0
 10
-0.2256469664418636
 20
12.11101810439756
 30
0.0
 10
-0.2496805873275557
 20
12.1212627645519
 30
0.0
 10
-0.2874204465336139
 20
12.13197741126248
 30
0.0
 10
-0.3259144728558163
 20
12.13950040827814
 30
0.0
 10
-0.3519647968027926
 20
12.14134621275503
 30
0.0
 10
-0.3649902343752893
 20
12.14226913452114
 30
0.0
 11
-0.2136306762703036
 21
12.10589599609315
 31
0.0
 11
-0.2499618530282866
 21
12.12048721313414
 31
0.0
 11
-0.2875518798833007
 21
12.13144683837914
 31
0.0
 11
-0.3260116577153036
 21
12.13870811462415
 31
0.0
 11
-0.3649902343752893
 21
12.14226913452114
 31
0.0
  0
SPLINE
  5
9B2D
330
1F
100
AcDbEntity
  8
AM_0
100
AcDbSpline
210
0.0
220
0.0
230
1.0
 70
     8
 71
     3
 72
    11
 73
     7
 74
     5
 42
0.0000000001
 43
0.0000000001
 44
0.0000000001
 40
0.0
 40
0.0
 40
0.0
 40
0.0
 40
1.051202407051414
 40
2.10249891366773
 40
3.153885314507481
 40
4.205363935889273
 40
4.205363935889273
 40
4.205363935889273
 40
4.205363935889273
 10
-0.7217941284182783
 20
6.444944381714154
 30
0.0
 10
-0.6684103993300596
 20
6.791254791302606
 30
0.0
 10
-0.5616381624491151
 20
7.483906610845038
 30
0.0
 10
-0.4015340370879245
 20
8.52293888570953
 30
0.0
 10
-0.2414860539033458
 20
9.562072967155064
 30
0.0
 10
-0.1348232858489925
 20
10.25486512678801
 30
0.0
 10
-0.0814895629892751
 20
10.60127639770515
 30
0.0
 11
-0.7217941284182783
 21
6.444944381714154
 31
0.0
 11
-0.5616531372072882
 21
7.483877182007152
 31
0.0
 11
-0.401550292969281
 21
8.52291107177715
 31
0.0
 11
-0.2415008544933051
 21
9.562044143676168
 31
0.0
 11
-0.0814895629892751
 21
10.60127639770515
 31
0.0
  0
SPLINE
  5
9B2E
330
1F
100
AcDbEntity
  8
AM_0
100
AcDbSpline
210
0.0
220
0.0
230
1.0
 70
     8
 71
     3
 72
    11
 73
     7
 74
     5
 42
0.0000000001
 43
0.0000000001
 44
0.0000000001
 40
0.0
 40
0.0
 40
0.0
 40
0.0
 40
0.2881835782135047
 40
0.5747000436690471
 40
0.8595769625763757
 40
1.143896893012814
 40
1.143896893012814
 40
1.143896893012814
 40
1.143896893012814
 10
-1.539077758789283
 20
5.783321380615148
 30
0.0
 10
-1.442126238029812
 20
5.789824746131415
 30
0.0
 10
-1.248784051220788
 20
5.802793855854334
 30
0.0
 10
-0.992635388441826
 20
5.947978552497443
 30
0.0
 10
-0.7962275225193971
 20
6.166615067662426
 30
0.0
 10
-0.7465890685229449
 20
6.352228487798178
 30
0.0
 10
-0.7217941284182783
 20
6.444944381714154
 30
0.0
 11
-1.539077758789283
 21
5.783321380615148
 31
0.0
 11
-1.25377655029329
 21
5.823978424072151
 31
0.0
 11
-1.00198364257829
 21
5.960697174072153
 31
0.0
 11
-0.8163909912112886
 21
6.176822662353148
 31
0.0
 11
-0.7217941284182783
 21
6.444944381714154
 31
0.0
  0
SPLINE
  5
9B2F
330
1F
100
AcDbEntity
  8
AM_0
100
AcDbSpline
210
0.0
220
0.0
230
1.0
 70
     8
 71
     3
 72
    11
 73
     7
 74
     5
 42
0.0000000001
 43
0.0000000001
 44
0.0000000001
 40
0.0
 40
0.0
 40
0.0
 40
0.0
 40
2.224824229822274
 40
4.443875046235334
 40
6.664033408566682
 40
8.888903108876583
 40
8.888903108876583
 40
8.888903108876583
 40
8.888903108876583
 10
-1.539077758789283
 20
5.783321380615148
 30
0.0
 10
-2.280372369883781
 20
5.80557396211403
 30
0.0
 10
-3.761037934378608
 20
5.850021379717487
 30
0.0
 10
-5.982315224660536
 20
5.87301157584504
 30
0.0
 10
-8.203578649670967
 20
5.900797577465246
 30
0.0
 10
-9.684467896969787
 20
5.950410074027936
 30
0.0
 10
-10.42569732666029
 20
5.975242614746131
 30
0.0
 11
-1.539077758789283
 21
5.783321380615148
 31
0.0
 11
-3.763107299805292
 21
5.842781066894138
 31
0.0
 11
-5.981941223145292
 21
5.87380599975614
 31
0.0
 11
-8.201828002930291
 21
5.90853118896513
 31
0.0
 11
-10.42569732666029
 21
5.975242614746131
 31
0.0
  0
SPLINE
  5
9B30
330
1F
100
AcDbEntity
  8
AM_0
100
AcDbSpline
210
0.0
220
0.0
230
1.0
 70
     8
 71
     3
 72
    11
 73
     7
 74
     5
 42
0.0000000001
 43
0.0000000001
 44
0.0000000001
 40
0.0
 40
0.0
 40
0.0
 40
0.0
 40
0.1142258032676944
 40
0.2282819767560919
 40
0.342494587831387
 40
0.4571549331321823
 40
0.4571549331321823
 40
0.4571549331321823
 40
0.4571549331321823
 10
-10.78321075439529
 20
6.389663696289124
 30
0.0
 10
-10.78397515672168
 20
6.351309224459871
 30
0.0
 10
-10.78550282620715
 20
6.274657238690084
 30
0.0
 10
-10.74602800197728
 20
6.165248438784977
 30
0.0
 10
-10.67740809672421
 20
6.070495488856977
 30
0.0
 10
-10.61111509265592
 20
6.031293326212542
 30
0.0
 10
-10.57790374755928
 20
6.011653900146134
 30
0.0
 11
-10.78321075439529
 21
6.389663696289124
 31
0.0
 11
-10.77853393554729
 21
6.275533676147126
 31
0.0
 11
-10.74121093750028
 21
6.167757034301137
 31
0.0
 11
-10.67239379882828
 21
6.076604843139129
 31
0.0
 11
-10.57790374755928
 21
6.011653900146134
 31
0.0
  0
SPLINE
  5
9B31
330
1F
100
AcDbEntity
  8
AM_0
100
AcDbSpline
210
0.0
220
0.0
230
1.0
 70
     8
 71
     3
 72
    11
 73
     7
 74
     5
 42
0.0000000001
 43
0.0000000001
 44
0.0000000001
 40
0.0
 40
0.0
 40
0.0
 40
0.0
 40
1.054476407707458
 40
2.109034939489183
 40
3.163672686430646
 40
4.218387491325032
 40
4.218387491325032
 40
4.218387491325032
 40
4.218387491325032
 10
-9.925941467285301
 20
11.66632652282713
 30
0.0
 10
-9.988294512505877
 20
11.3204091629166
 30
0.0
 10
-10.11300545908803
 20
10.62854750257534
 30
0.0
 10
-10.29988602006921
 20
9.590680788692941
 30
0.0
 10
-10.48668694418747
 20
8.552718995377194
 30
0.0
 10
-10.611090178103
 20
7.86069437093034
 30
0.0
 10
-10.67329406738328
 20
7.514669418335137
 30
0.0
 11
-9.925941467285301
 21
11.66632652282713
 31
0.0
 11
-10.11296844482528
 21
10.62856864929213
 31
0.0
 11
-10.29986572265729
 21
9.590703964233137
 31
0.0
 11
-10.48664855957127
 21
8.552738189697132
 31
0.0
 11
-10.67329406738328
 21
7.514669418335137
 31
0.0
  0
SPLINE
  5
9B32
330
1F
100
AcDbEntity
  8
AM_0
100
AcDbSpline
210
0.0
220
0.0
230
1.0
 70
     8
 71
     3
 72
    11
 73
     7
 74
     5
 42
0.0000000001
 43
0.0000000001
 44
0.0000000001
 40
0.0
 40
0.0
 40
0.0
 40
0.0
 40
0.287688318839643
 40
0.5764732301620575
 40
0.864601941837231
 40
1.15099140871684
 40
1.15099140871684
 40
1.15099140871684
 40
1.15099140871684
 10
-9.094467163086298
 20
12.32733154296812
 30
0.0
 10
-9.191222981104486
 20
12.32070307805694
 30
0.0
 10
-9.385103424964315
 20
12.30742088226333
 30
0.0
 10
-9.642947982300116
 20
12.16227244869106
 30
0.0
 10
-9.843991996636205
 20
11.94499049634943
 30
0.0
 10
-9.898680163085339
 20
11.75902685745517
 30
0.0
 10
-9.925941467285301
 20
11.66632652282713
 30
0.0
 11
-9.094467163086298
 21
12.32733154296812
 31
0.0
 11
-9.3792648315433
 21
12.28665161132811
 31
0.0
 11
-9.633697509766298
 21
12.15004730224612
 31
0.0
 11
-9.824501037598299
 21
11.93414878845213
 31
0.0
 11
-9.925941467285301
 21
11.66632652282713
 31
0.0
  0
SPLINE
  5
9B33
330
1F
100
AcDbEntity
  8
AM_0
100
AcDbSpline
210
0.0
220
0.0
230
1.0
 70
     8
 71
     3
 72
    11
 73
     7
 74
     5
 42
0.0000000001
 43
0.0000000001
 44
0.0000000001
 40
0.0
 40
0.0
 40
0.0
 40
0.0
 40
2.200365979984966
 40
4.370325159151678
 40
6.536348507161608
 40
8.730813782769518
 40
8.730813782769518
 40
8.730813782769518
 40
8.730813782769518
 10
-0.3658370971682865
 20
12.14230728149414
 30
0.0
 10
-1.098904832096155
 20
12.16686357786477
 30
0.0
 10
-2.55491005779933
 20
12.21563682777879
 30
0.0
 10
-4.73362355371714
 20
12.24123141983583
 30
0.0
 10
-6.910394983465637
 20
12.26197618119915
 30
0.0
 10
-8.363284208746231
 20
12.30545189679795
 30
0.0
 10
-9.094467163086298
 20
12.32733154296812
 30
0.0
 11
-0.3658370971682865
 21
12.14230728149414
 31
0.0
 11
-2.565223693848286
 21
12.20795059204113
 31
0.0
 11
-4.734939575196298
 21
12.24044418334913
 31
0.0
 11
-6.900772094727305
 21
12.26919555664015
 31
0.0
 11
-9.094467163086298
 21
12.32733154296812
 31
0.0
  0
SPLINE
  5
9B34
330
1F
100
AcDbEntity
  8
AM_0
100
AcDbSpline
210
0.0
220
0.0
230
1.0
 70
     8
 71
     3
 72
    11
 73
     7
 74
     5
 42
0.0000000001
 43
0.0000000001
 44
0.0000000001
 40
0.0
 40
0.0
 40
0.0
 40
0.0
 40
0.2161134666354232
 40
0.4322204533551904
 40
0.6482846065788202
 40
0.8643617027341877
 40
0.8643617027341877
 40
0.8643617027341877
 40
0.8643617027341877
 10
-6.254165649414276
 20
7.552679061889146
 30
0.0
 10
-6.190815900469188
 20
7.518169617295606
 30
0.0
 10
-6.064118302048939
 20
7.449151762834838
 30
0.0
 10
-5.859856572112805
 20
7.376501522427131
 30
0.0
 10
-5.649091336006717
 20
7.325746558090811
 30
0.0
 10
-5.505285299001452
 20
7.314415734211059
 30
0.0
 10
-5.433380126953279
 20
7.308750152588145
 30
0.0
 11
-6.254165649414276
 21
7.552679061889146
 31
0.0
 11
-6.061744689942286
 21
7.45429611206013
 31
0.0
 11
-5.858757019043281
 21
7.380146026611125
 31
0.0
 11
-5.648269653321277
 21
7.331373214721138
 31
0.0
 11
-5.433380126953279
 21
7.308750152588145
 31
0.0
  0
SPLINE
  5
9B35
330
1F
100
AcDbEntity
  8
AM_0
100
AcDbSpline
210
0.0
220
0.0
230
1.0
 70
     8
 71
     3
 72
    11
 73
     7
 74
     5
 42
0.0000000001
 43
0.0000000001
 44
0.0000000001
 40
0.0
 40
0.0
 40
0.0
 40
0.0
 40
0.1144969735664385
 40
0.2294974979506189
 40
0.3449450629611754
 40
0.4605392583110547
 40
0.4605392583110547
 40
0.4605392583110547
 40
0.4605392583110547
 10
-0.0000000000002877
 20
11.72752189636214
 30
0.0
 10
-0.0002080034647079
 20
11.76596824723703
 30
0.0
 10
-0.0006249251803004
 20
11.84303003373044
 30
0.0
 10
-0.0426792880236614
 20
11.95229358097764
 30
0.0
 10
-0.1130715480632764
 20
12.04688612710702
 30
0.0
 10
-0.1800967877088674
 20
12.08621771918395
 30
0.0
 10
-0.2136306762703036
 20
12.10589599609315
 30
0.0
 11
-0.0000000000002877
 21
11.72752189636214
 31
0.0
 11
-0.0074844360353023
 21
11.84177398681615
 31
0.0
 11
-0.0473022460942944
 21
11.94966125488214
 31
0.0
 11
-0.1180419921883006
 21
12.04089736938414
 31
0.0
 11
-0.2136306762703036
 21
12.10589599609315
 31
0.0
  0
SPLINE
  5
9B36
330
1F
100
AcDbEntity
  8
AM_0
100
AcDbSpline
210
0.0
220
0.0
230
1.0
 70
     8
 71
     3
 72
    11
 73
     7
 74
     5
 42
0.0000000001
 43
0.0000000001
 44
0.0000000001
 40
0.0
 40
0.0
 40
0.0
 40
0.0
 40
1.129125201203451
 40
2.268742054291244
 40
3.404476467446983
 40
4.541970086274376
 40
4.541970086274376
 40
4.541970086274376
 40
4.541970086274376
 10
-5.280700683594275
 20
10.80541801452613
 30
0.0
 10
-5.666560654433963
 20
10.74405465828407
 30
0.0
 10
-6.441865945626249
 20
10.62075776724804
 30
0.0
 10
-7.14726927919454
 20
9.594942294061979
 30
0.0
 10
-7.131527354341339
 20
8.344995042559304
 30
0.0
 10
-6.546770394958637
 20
7.816920610856677
 30
0.0
 10
-6.254165649414276
 20
7.552679061889146
 30
0.0
 11
-5.280700683594275
 21
10.80541801452613
 31
0.0
 11
-6.362678527832285
 21
10.48254394531214
 31
0.0
 11
-7.027175903321286
 21
9.556709289550132
 31
0.0
 11
-6.988189697266282
 21
8.421644210815154
 31
0.0
 11
-6.254165649414276
 21
7.552679061889146
 31
0.0
  0
SPLINE
  5
9B37
330
1F
100
AcDbEntity
  8
AM_0
100
AcDbSpline
210
0.0
220
0.0
230
1.0
 70
     8
 71
     3
 72
    11
 73
     7
 74
     5
 42
0.0000000001
 43
0.0000000001
 44
0.0000000001
 40
0.0
 40
0.0
 40
0.0
 40
0.0
 40
1.341269561816693
 40
2.677333255844521
 40
4.018651374413837
 40
5.347262862769976
 40
5.347262862769976
 40
5.347262862769976
 40
5.347262862769976
 10
-5.433380126953279
 20
7.308750152588145
 30
0.0
 10
-4.97037452967515
 20
7.398569647294546
 30
0.0
 10
-4.046160398135566
 20
7.577860020420495
 30
0.0
 10
-3.427370986535263
 20
8.976588540410615
 30
0.0
 10
-3.935455372507271
 20
10.4102108955762
 30
0.0
 10
-4.833710560852632
 20
10.67410094012201
 30
0.0
 10
-5.280700683594275
 20
10.80541801452613
 30
0.0
 11
-5.433380126953279
 21
7.308750152588145
 31
0.0
 11
-4.172851562500285
 21
7.767086029052141
 31
0.0
 11
-3.61540222168029
 21
8.98130035400414
 31
0.0
 11
-4.078308105469273
 21
10.24020957946714
 31
0.0
 11
-5.280700683594275
 21
10.80541801452613
 31
0.0
  0
SPLINE
  5
9B38
330
1F
100
AcDbEntity
  8
AM_0
100
AcDbSpline
210
0.0
220
0.0
230
1.0
 70
     8
 71
     3
 72
    11
 73
     7
 74
     5
 42
0.0000000001
 43
0.0000000001
 44
0.0000000001
 40
0.0
 40
0.0
 40
0.0
 40
0.0
 40
0.03915881059595
 40
0.0783071412845582
 40
0.1174460343150864
 40
0.1565871110641706
 40
0.1565871110641706
 40
0.1565871110641706
 40
0.1565871110641706
 10
-10.57790374755928
 20
6.011653900146134
 30
0.0
 10
-10.56588471596086
 20
6.006532431683548
 30
0.0
 10
-10.54184986936677
 20
5.996290865395384
 30
0.0
 10
-10.50411249982572
 20
5.985567744679101
 30
0.0
 10
-10.46561948806348
 20
5.978051006270018
 30
0.0
 10
-10.43956953122215
 20
5.976202922188311
 30
0.0
 10
-10.42654418945328
 20
5.97527885437014
 30
0.0
 11
-10.57790374755928
 21
6.011653900146134
 31
0.0
 11
-10.54156494140729
 21
5.997062683105135
 31
0.0
 11
-10.50398254394628
 21
5.986101150512135
 31
0.0
 11
-10.46552276611428
 21
5.978841781616133
 31
0.0
 11
-10.42654418945328
 21
5.97527885437014
 31
0.0
  0
SPLINE
  5
9B55
330
1F
100
AcDbEntity
  8
AM_0
100
AcDbSpline
210
0.0
220
0.0
230
1.0
 70
     8
 71
     3
 72
    11
 73
     7
 74
     5
 42
0.0000000001
 43
0.0000000001
 44
0.0000000001
 40
0.0
 40
0.0
 40
0.0
 40
0.0
 40
0.0995761574756221
 40
0.1995525436699192
 40
0.2999293865964853
 40
0.4007168137725187
 40
0.4007168137725187
 40
0.4007168137725187
 40
0.4007168137725187
 10
-14.96142578125025
 20
-4.347637176513862
 30
0.0
 10
-14.95987689138583
 20
-4.314478754823657
 30
0.0
 10
-14.95677288616865
 20
-4.248028637043399
 30
0.0
 10
-14.9484715920534
 20
-4.148380141906256
 30
0.0
 10
-14.9376719409346
 20
-4.048563129360964
 30
0.0
 10
-14.92790006216967
 20
-3.982218463200084
 30
0.0
 10
-14.92300415039124
 20
-3.948978424072869
 30
0.0
 11
-14.96142578125025
 21
-4.347637176513862
 31
0.0
 11
-14.95617675781324
 21
-4.248199462890873
 31
0.0
 11
-14.94807434082124
 21
-4.148551940917876
 31
0.0
 11
-14.93704986572324
 21
-4.048782348632861
 31
0.0
 11
-14.92300415039124
 21
-3.948978424072869
 31
0.0
  0
SPLINE
  5
9B56
330
1F
100
AcDbEntity
  8
AM_0
100
AcDbSpline
210
0.0
220
0.0
230
1.0
 70
     8
 71
     3
 72
    11
 73
     7
 74
     5
 42
0.0000000001
 43
0.0000000001
 44
0.0000000001
 40
0.0
 40
0.0
 40
0.0
 40
0.0
 40
1.167602225821137
 40
2.263131977480384
 40
3.397336958658568
 40
4.591743547119747
 40
4.591743547119747
 40
4.591743547119747
 40
4.591743547119747
 10
-3.828559875489252
 20
-6.234657287597846
 30
0.0
 10
-4.22729074335801
 20
-6.13626696734537
 30
0.0
 10
-5.000140055843414
 20
-5.94555965700146
 30
0.0
 10
-5.4797727983446
 20
-4.760863032100218
 30
0.0
 10
-5.033223345828568
 20
-3.539467966727955
 30
0.0
 10
-4.236976159845726
 20
-3.33799705680943
 30
0.0
 10
-3.828559875489263
 20
-3.234657287597846
 30
0.0
 11
-3.828559875489252
 21
-6.234657287597846
 31
0.0
 11
-4.904083251953258
 21
-5.780185699462859
 31
0.0
 11
-5.328125000000265
 21
-4.770050048827852
 31
0.0
 11
-4.924217224121249
 21
-3.710201263427844
 31
0.0
 11
-3.828559875489263
 21
-3.234657287597846
 31
0.0
  0
SPLINE
  5
9B57
330
1F
100
AcDbEntity
  8
AM_0
100
AcDbSpline
210
0.0
220
0.0
230
1.0
 70
     8
 71
     3
 72
    11
 73
     7
 74
     5
 42
0.0000000001
 43
0.0000000001
 44
0.0000000001
 40
0.0
 40
0.0
 40
0.0
 40
0.0
 40
0.5952658976088335
 40
1.167189251766692
 40
1.693192899686563
 40
2.163816018190021
 40
2.163816018190021
 40
2.163816018190021
 40
2.163816018190021
 10
-7.177719116211258
 20
-8.728042602538852
 30
0.0
 10
-7.376861243076132
 20
-8.728971835316571
 30
0.0
 10
-7.767336408853867
 20
-8.730793862271076
 30
0.0
 10
-8.318043910424824
 20
-8.874351304083791
 30
0.0
 10
-8.7998425690607
 20
-9.085638372033658
 30
0.0
 10
-9.069962457946438
 20
-9.280372933584253
 30
0.0
 10
-9.197517395020259
 20
-9.372329711913859
 30
0.0
 11
-7.177719116211258
 21
-8.728042602538852
 31
0.0
 11
-7.772323608399255
 21
-8.756095886230857
 31
0.0
 11
-8.32759094238326
 21
-8.893115997314858
 31
0.0
 11
-8.806823730469252
 21
-9.109947204589868
 31
0.0
 11
-9.197517395020259
 21
-9.372329711913859
 31
0.0
  0
SPLINE
  5
9B58
330
1F
100
AcDbEntity
  8
AM_0
100
AcDbSpline
210
0.0
220
0.0
230
1.0
 70
     8
 71
     3
 72
    11
 73
     7
 74
     5
 42
0.0000000001
 43
0.0000000001
 44
0.0000000001
 40
0.0
 40
0.0
 40
0.0
 40
0.0
 40
1.299628116613119
 40
2.606058617014509
 40
3.900127603090637
 40
5.186991391709637
 40
5.186991391709637
 40
5.186991391709637
 40
5.186991391709637
 10
-14.92300415039124
 20
-3.948978424072869
 30
0.0
 10
-14.81558322427518
 20
-3.521827447548932
 30
0.0
 10
-14.60017912015192
 20
-2.665289743488358
 30
0.0
 10
-13.2552710831962
 20
-1.856589427224547
 30
0.0
 10
-12.00540540778906
 20
-2.827063040022919
 30
0.0
 10
-11.96293374794416
 20
-3.709268234465894
 30
0.0
 10
-11.94175720214924
 20
-4.149139404296869
 30
0.0
 11
-14.92300415039124
 21
-3.948978424072869
 31
0.0
 11
-14.43081665039127
 21
-2.746154785156865
 31
0.0
 11
-13.26631164550827
 21
-2.153964996337877
 31
0.0
 11
-12.20102691650426
 21
-2.888664245605863
 31
0.0
 11
-11.94175720214924
 21
-4.149139404296869
 31
0.0
  0
SPLINE
  5
9B59
330
1F
100
AcDbEntity
  8
AM_0
100
AcDbSpline
210
0.0
220
0.0
230
1.0
 70
     8
 71
     3
 72
    11
 73
     7
 74
     5
 42
0.0000000001
 43
0.0000000001
 44
0.0000000001
 40
0.0
 40
0.0
 40
0.0
 40
0.0
 40
0.1108237900487742
 40
0.2546756539468774
 40
0.4286997397381711
 40
0.6247842743251008
 40
0.6247842743251008
 40
0.6247842743251008
 40
0.6247842743251008
 10
-16.32485961914127
 20
10.46555328369112
 30
0.0
 10
-16.35060569613601
 20
10.43870524845199
 30
0.0
 10
-16.40977078146938
 20
10.37700783737533
 30
0.0
 10
-16.54125589621202
 20
10.31512108463978
 30
0.0
 10
-16.70427909302409
 20
10.26217676865867
 30
0.0
 10
-16.82674283397507
 20
10.2448461667874
 30
0.0
 10
-16.89162445068427
 20
10.23566436767511
 30
0.0
 11
-16.32485961914127
 21
10.46555328369112
 31
0.0
 11
-16.40568542480528
 21
10.38973045349112
 31
0.0
 11
-16.53268432617227
 21
10.32216835021912
 31
0.0
 11
-16.69840240478526
 21
10.2690467834471
 31
0.0
 11
-16.89162445068427
 21
10.23566436767511
 31
0.0
  0
SPLINE
  5
9B5A
330
1F
100
AcDbEntity
  8
AM_0
100
AcDbSpline
210
0.0
220
0.0
230
1.0
 70
     8
 71
     3
 72
    11
 73
     7
 74
     5
 42
0.0000000001
 43
0.0000000001
 44
0.0000000001
 40
0.0
 40
0.0
 40
0.0
 40
0.0
 40
0.112998689132761
 40
0.2268429797596815
 40
0.3415436750208059
 40
0.4568062163552801
 40
0.4568062163552801
 40
0.4568062163552801
 40
0.4568062163552801
 10
-17.2139892578133
 20
7.646242141723116
 30
0.0
 10
-17.21758951218097
 20
7.608720589859673
 30
0.0
 10
-17.22481696264896
 20
7.533396701633759
 30
0.0
 10
-17.24849067310506
 20
7.421841273878339
 30
0.0
 10
-17.28067538492845
 20
7.311651334914838
 30
0.0
 10
-17.3103667598332
 20
7.240919531688683
 30
0.0
 10
-17.3252487182623
 20
7.20546722412113
 30
0.0
 11
-17.2139892578133
 21
7.646242141723116
 31
0.0
 11
-17.2268981933603
 21
7.53398323059012
 31
0.0
 11
-17.2498092651373
 21
7.422468185424116
 31
0.0
 11
-17.28265380859427
 21
7.312570571899123
 31
0.0
 11
-17.3252487182623
 21
7.20546722412113
 31
0.0
  0
SPLINE
  5
9B5B
330
1F
100
AcDbEntity
  8
AM_0
100
AcDbSpline
210
0.0
220
0.0
230
1.0
 70
     8
 71
     3
 72
    11
 73
     7
 74
     5
 42
0.0000000001
 43
0.0000000001
 44
0.0000000001
 40
0.0
 40
0.0
 40
0.0
 40
0.0
 40
0.0171724519766358
 40
0.0343055667108996
 40
0.0514468484938448
 40
0.068612146934541
 40
0.068612146934541
 40
0.068612146934541
 40
0.068612146934541
 10
-6.317398071289253
 20
-9.141876220702856
 30
0.0
 10
-6.311773657262005
 20
-9.142945462045021
 30
0.0
 10
-6.30053771315315
 20
-9.14508149539912
 30
0.0
 10
-6.283532753148963
 20
-9.147351383108006
 30
0.0
 10
-6.26645872617899
 20
-9.148998068378269
 30
0.0
 10
-6.255031145051895
 20
-9.149473651071877
 30
0.0
 10
-6.249313354493258
 20
-9.149711608886846
 30
0.0
 11
-6.317398071289253
 21
-9.141876220702856
 31
0.0
 11
-6.300498962403258
 21
-9.144927978515852
 31
0.0
 11
-6.283523559571255
 21
-9.147247314452856
 31
0.0
 11
-6.266456604004252
 21
-9.148841857909859
 31
0.0
 11
-6.249313354493258
 21
-9.149711608886846
 31
0.0
  0
SPLINE
  5
9B5C
330
1F
100
AcDbEntity
  8
AM_0
100
AcDbSpline
210
0.0
220
0.0
230
1.0
 70
     8
 71
     3
 72
    11
 73
     7
 74
     5
 42
0.0000000001
 43
0.0000000001
 44
0.0000000001
 40
0.0
 40
0.0
 40
0.0
 40
0.0
 40
0.0110556962263653
 40
0.0221047375310419
 40
0.0331399044362854
 40
0.0441852818151964
 40
0.0441852818151964
 40
0.0441852818151964
 40
0.0441852818151964
 10
-1.187057495118265
 20
-0.5126304626468503
 30
0.0
 10
-1.190675082175763
 20
-0.5119262394071712
 30
0.0
 10
-1.197908078702114
 20
-0.5105182168315105
 30
0.0
 10
-1.208820847345069
 20
-0.5087919110077829
 30
0.0
 10
-1.219768399900991
 20
-0.5073277433688494
 30
0.0
 10
-1.227094115444665
 20
-0.5066108841653944
 30
0.0
 10
-1.230758666993265
 20
-0.5062522888188392
 30
0.0
 11
-1.187057495118265
 21
-0.5126304626468503
 31
0.0
 11
-1.197921752930267
 21
-0.5105819702148402
 31
0.0
 11
-1.208831787110268
 21
-0.5088348388678379
 31
0.0
 11
-1.219772338868265
 21
-0.507392883300849
 31
0.0
 11
-1.230758666993265
 21
-0.5062522888188392
 31
0.0
  0
SPLINE
  5
9B5E
330
1F
100
AcDbEntity
  8
AM_0
100
AcDbSpline
210
0.0
220
0.0
230
1.0
 70
     8
 71
     3
 72
    11
 73
     7
 74
     5
 42
0.0000000001
 43
0.0000000001
 44
0.0000000001
 40
0.0
 40
0.0
 40
0.0
 40
0.0
 40
0.0523072124011244
 40
0.1046220611390768
 40
0.1569369063652563
 40
0.2092441222091123
 40
0.2092441222091123
 40
0.2092441222091123
 40
0.2092441222091123
 10
-9.985214233399291
 20
11.33736801147414
 30
0.0
 10
-10.00264994373696
 20
11.33733724290663
 30
0.0
 10
-10.03752390985394
 20
11.33727570127972
 30
0.0
 10
-10.0898361179355
 20
11.33717645913291
 30
0.0
 10
-10.1421483361654
 20
11.33708212162777
 30
0.0
 10
-10.17702229830506
 20
11.33701840015908
 30
0.0
 10
-10.19445800781329
 20
11.33698654174813
 30
0.0
 11
-9.985214233399291
 21
11.33736801147414
 31
0.0
 11
-10.03752136230529
 21
11.33727455139113
 31
0.0
 11
-10.08983612060629
 21
11.33717727661113
 31
0.0
 11
-10.14215087890729
 21
11.33708190917912
 31
0.0
 11
-10.19445800781329
 21
11.33698654174813
 31
0.0
  0
ELLIPSE
  5
9B7D
330
1F
100
AcDbEntity
  8
AM_0
100
AcDbEllipse
 10
-9.734580993653262
 20
-9.151565551757871
 30
0.0
 11
0.2258682237659997
 21
-0.0353088559480024
 31
0.0
210
0.0
220
0.0
230
1.0
 40
0.8616465509931
 41
4.887642932243955
 42
4.929571642444278
  0
ELLIPSE
  5
9B7E
330
1F
100
AcDbEntity
  8
AM_0
100
AcDbEllipse
 10
-13.67012786865325
 20
-5.646385192870869
 30
0.0
 11
1.482002305885998
 21
-0.2316722391119979
 31
0.0
210
0.0
220
0.0
230
1.0
 40
0.8616449123097
 41
0.1775089206274341
 42
2.783190263598933
  0
ELLIPSE
  5
9B7F
330
1F
100
AcDbEntity
  8
AM_0
100
AcDbEllipse
 10
-13.67013549804726
 20
-5.646385192870869
 30
0.0
 11
1.235000547484005
 21
-0.1930599844569986
 31
0.0
210
0.0
220
0.0
230
1.0
 40
0.861647253822
 41
0.0
 42
1.704603584310477
  0
ELLIPSE
  5
9B80
330
1F
100
AcDbEntity
  8
AM_0
100
AcDbEllipse
 10
-13.67013549804726
 20
-5.646385192870869
 30
0.0
 11
1.235000547484005
 21
-0.1930599844569986
 31
0.0
210
0.0
220
0.0
230
1.0
 40
0.861647253822
 41
1.704603584310477
 42
3.141592755049881
  0
ELLIPSE
  5
9B81
330
1F
100
AcDbEntity
  8
AM_0
100
AcDbEllipse
 10
-13.67013549804726
 20
-5.646385192870869
 30
0.0
 11
1.235000547484005
 21
-0.1930599844569986
 31
0.0
210
0.0
220
0.0
230
1.0
 40
0.861647253822
 41
3.141592552129703
 42
6.283185307179585
  0
ELLIPSE
  5
9B82
330
1F
100
AcDbEntity
  8
AM_0
100
AcDbEllipse
 10
-17.33074951171927
 20
7.19162368774412
 30
0.0
 11
0.7980461133289934
 21
-0.0558786191109972
 31
0.0
210
0.0
220
0.0
230
1.0
 40
0.6213954743535
 41
4.718317819440417
 42
4.908513395887823
  0
ELLIPSE
  5
9B83
330
1F
100
AcDbEntity
  8
AM_0
100
AcDbEllipse
 10
-22.54945373535231
 20
7.040431976318105
 30
0.0
 11
5.190383923538006
 21
-0.3160976142639918
 31
0.0
210
0.0
220
0.0
230
1.0
 40
0.7834840306785999
 41
6.188779002551648
 42
6.27603027140416
  0
ELLIPSE
  5
9B84
330
1F
100
AcDbEntity
  8
AM_0
100
AcDbEllipse
 10
-5.197341918946285
 20
5.549724578857138
 30
0.0
 11
1.499397267345003
 21
-0.0425690758009948
 31
0.0
210
0.0
220
0.0
230
1.0
 40
0.1902207507571
 41
0.3340089423209977
 42
3.064751689354781
  0
ELLIPSE
  5
9B94
330
1F
100
AcDbEntity
  8
AM_0
100
AcDbEllipse
 10
-0.8279724121102701
 20
-0.0000076293948391
 30
0.0
 11
-0.6014593143229718
 21
-11.349824970732
 31
0.0
210
0.0
220
0.0
230
1.0
 40
0.1049568764609
 41
5.2995364994105
 42
5.633410730559607
  0
ELLIPSE
  5
9B95
330
1F
100
AcDbEntity
  8
AM_0
100
AcDbEllipse
 10
-0.8279724121102701
 20
-0.0000076293948391
 30
0.0
 11
-0.6014593143229718
 21
-11.349824970732
 31
0.0
210
0.0
220
0.0
230
1.0
 40
0.1049568764609
 41
4.664312975047113
 42
5.007078589691601
  0
ELLIPSE
  5
9B96
330
1F
100
AcDbEntity
  8
AM_0
100
AcDbEllipse
 10
-0.9537734985352688
 20
3.369323730468155
 30
0.0
 11
-0.0417861876299936
 21
-0.7990207699020005
 31
0.0
210
0.0
220
0.0
230
1.0
 40
0.1054622348609
 41
0.0
 42
0.0131655316933325
  0
ELLIPSE
  5
9B97
330
1F
100
AcDbEntity
  8
AM_0
100
AcDbEllipse
 10
-12.88656616211027
 20
-0.0000076293948723
 30
0.0
 11
-0.0180394077669687
 21
-11.35000035090099
 31
0.0
210
0.0
220
0.0
230
1.0
 40
0.0900527339203
 41
0.8927421603770735
 42
1.197034720367752
  0
ELLIPSE
  5
9B98
330
1F
100
AcDbEntity
  8
AM_0
100
AcDbEllipse
 10
-15.89871215820328
 20
-0.0000076293948699
 30
0.0
 11
-0.0180394077669829
 21
-11.35000035090099
 31
0.0
210
0.0
220
0.0
230
1.0
 40
0.0900527339203
 41
0.9154080324712767
 42
1.177847303896556
  0
ELLIPSE
  5
9B99
330
1F
100
AcDbEntity
  8
AM_0
100
AcDbEllipse
 10
39.49195861815672
 20
-0.0000267028807671
 30
0.0
 11
144.3528542384
 21
-5.735088268485702
 31
0.0
210
0.0
220
0.0
230
1.0
 40
0.067850354603
 41
4.327256238073188
 42
4.349559497530478
  0
ELLIPSE
  5
9B9A
330
1F
100
AcDbEntity
  8
AM_0
100
AcDbEllipse
 10
5.799011230467725
 20
-0.0000038146978316
 30
0.0
 11
19.58684811477902
 21
-10.94449932228596
 31
0.0
210
0.0
220
0.0
230
0.9999999999999998
 40
0.1535092965213
 41
4.078887568466313
 42
4.390677882106513
  0
ELLIPSE
  5
9B9B
330
1F
100
AcDbEntity
  8
AM_0
100
AcDbEllipse
 10
-9.708663940430259
 20
-9.348697662353869
 30
0.0
 11
1.33459095162
 21
-0.0596657694889986
 31
0.0
210
0.0
220
0.0
230
0.9999999999999998
 40
0.0006318411381
 41
4.711784670833877
 42
4.712391492487411
  0
ELLIPSE
  5
9B9C
330
1F
100
AcDbEntity
  8
AM_0
100
AcDbEllipse
 10
1.434669494628734
 20
0.1887550354001485
 30
0.0
 11
145.8094203389879
 21
-5.778786034594703
 31
0.0
210
0.0
220
0.0
230
1.0
 40
0.0685241305587
 41
4.638667478287492
 42
4.642125505529731
  0
ELLIPSE
  5
9B9D
330
1F
100
AcDbEntity
  8
AM_0
100
AcDbEllipse
 10
66.02990722655672
 20
0.0002250671382859
 30
0.0
 11
300.2507240215099
 21
-1.653970015597388
 31
0.0
210
0.0
220
0.0
230
1.0
 40
0.0373974560069
 41
1.827692203910054
 42
1.848669383232441
  0
ELLIPSE
  5
9B9E
330
1F
100
AcDbEntity
  8
AM_0
100
AcDbEllipse
 10
-7.532722473145269
 20
0.0494422912591473
 30
0.0
 11
-143.971073928852
 21
-5.723414347866287
 31
0.0
210
0.0
220
0.0
230
0.9999999999999998
 40
0.0676732330687
 41
4.775823128598084
 42
4.780009508180223
  0
ELLIPSE
  5
9B9F
330
1F
100
AcDbEntity
  8
AM_0
100
AcDbEllipse
 10
-0.9537734985352688
 20
3.36923217773415
 30
0.0
 11
-0.041786174469989
 21
-0.7989292121039994
 31
0.0
210
0.0
220
0.0
230
1.0
 40
0.1054745394713
 41
6.12828564321092
 42
6.283185307179585
  0
ELLIPSE
  5
9BA0
330
1F
100
AcDbEntity
  8
AM_0
100
AcDbEllipse
 10
-0.9569320678712632
 20
3.369419097900152
 30
0.0
 11
-0.0348510545069998
 21
-0.7993430866579983
 31
0.0
210
0.0
220
0.0
230
1.0
 40
0.078542239605
 41
6.232991209905311
 42
6.266548793298728
  0
ELLIPSE
  5
9BA1
330
1F
100
AcDbEntity
  8
AM_0
100
AcDbEllipse
 10
-0.9569320678712632
 20
3.369422912597148
 30
0.0
 11
-0.0348510422989945
 21
-0.7993449963510031
 31
0.0
210
0.0
220
0.0
230
1.0
 40
0.0785421548023
 41
4.860307810592056
 42
6.232991274080418
  0
ELLIPSE
  5
9BA2
330
1F
100
AcDbEntity
  8
AM_0
100
AcDbEllipse
 10
-9.935043334961276
 20
6.898984909057143
 30
0.0
 11
-1.755931805664002
 21
-0.9957904383450035
 31
0.0
210
0.0
220
0.0
230
1.0
 40
0.9871227268653001
 41
4.567164054083808
 42
7.288608888228329
  0
ELLIPSE
  5
9BA3
330
1F
100
AcDbEntity
  8
AM_0
100
AcDbEllipse
 10
-9.935043334961276
 20
6.898984909057143
 30
0.0
 11
-1.755931805664002
 21
-0.9957904383450035
 31
0.0
210
0.0
220
0.0
230
1.0
 40
0.9871227268653001
 41
1.005422869682009
 42
1.990630245997016
  0
ELLIPSE
  5
9BA4
330
1F
100
AcDbEntity
  8
AM_0
100
AcDbEllipse
 10
-9.879745483399274
 20
6.896568298340122
 30
0.0
 11
-1.755935600135996
 21
-0.9957895471230022
 31
0.0
210
0.0
220
0.0
230
1.0
 40
0.9871218593023003
 41
1.991146873821675
 42
2.102662573949923
  0
ELLIPSE
  5
9BA5
330
1F
100
AcDbEntity
  8
AM_0
100
AcDbEllipse
 10
-10.84997558593828
 20
6.938915252685125
 30
0.0
 11
-0.3318482178529893
 21
-1.987204553174996
 31
0.0
210
0.0
220
0.0
230
1.0
 40
0.1238775252335
 41
3.578117583072798
 42
3.614733686579651
  0
ELLIPSE
  5
9BA6
330
1F
100
AcDbEntity
  8
AM_0
100
AcDbEllipse
 10
-9.879745483399274
 20
6.89657020568813
 30
0.0
 11
-1.755935600829997
 21
-0.9957885792660057
 31
0.0
210
0.0
220
0.0
230
1.0
 40
0.9871225058572999
 41
4.483998510682501
 42
4.603549663083382
  0
ELLIPSE
  5
9BA7
330
1F
100
AcDbEntity
  8
AM_0
100
AcDbEllipse
 10
-19.22296142578228
 20
7.752094268798119
 30
0.0
 11
2.011882867139006
 21
-0.0547115431069963
 31
0.0
210
0.0
220
0.0
230
1.0
 40
0.7869546273868
 41
5.806408349559179
 42
5.965437696076344
  0
ELLIPSE
  5
9BA8
330
1F
100
AcDbEntity
  8
AM_0
100
AcDbEllipse
 10
-17.21485900878927
 20
8.84667396545411
 30
0.0
 11
-1.273590011409993
 21
-6.769842210016
 31
0.0
210
0.0
220
0.0
230
1.0
 40
0.0090303498625
 41
1.59975584287384
 42
1.780103288821398
  0
LINE
  5
9BAD
330
1F
100
AcDbEntity
  8
AM_0
100
AcDbLine
 10
-8.974700927735261
 20
-9.212402343749852
 30
0.0
 11
-8.799659729004247
 21
-10.29504776000985
 31
0.0
  0
LINE
  5
9BAF
330
1F
100
AcDbEntity
  8
AM_0
100
AcDbLine
 10
-17.58209228515727
 20
-9.547378540038879
 30
0.0
 11
-17.46532440185626
 21
-9.292743682861884
 31
0.0
  0
LINE
  5
9BB0
330
1F
100
AcDbEntity
  8
AM_0
100
AcDbLine
 10
-9.728973388672264
 20
-9.615795135497876
 30
0.0
 11
-9.724601745606255
 21
-9.349361419677876
 31
0.0
  0
LINE
  5
9BB1
330
1F
100
AcDbEntity
  8
AM_0
100
AcDbLine
 10
-9.498626708985259
 20
-9.590549468993868
 30
0.0
 11
-9.596473693848258
 21
-9.354553222656871
 31
0.0
  0
LINE
  5
9C5A
330
1F
100
AcDbEntity
  8
AM_0
100
AcDbLine
 10
-1.988937377930272
 20
0.6085929870601494
 30
0.0
 11
-1.113311767578277
 21
2.748012542724157
 31
0.0
  0
LINE
  5
9C5B
330
1F
100
AcDbEntity
  8
AM_0
100
AcDbLine
 10
-1.121025085450269
 20
-0.1204071044928375
 30
0.0
 11
-0.9934616088872973
 21
2.570442199707147
 31
0.0
  0
ARC
  5
9C5C
330
1F
100
AcDbEntity
  8
AM_0
100
AcDbCircle
 10
-5.252944946289282
 20
9.05253982543914
 30
0.0
 40
1.749987721443199
100
AcDbArc
 50
90.15912041261763
 51
264.9484492358471
  0
LINE
  5
9C5D
330
1F
100
AcDbEntity
  8
AM_0
100
AcDbLine
 10
-1.113311767578277
 20
2.748008728027147
 30
0.0
 11
-7.150032043457287
 21
4.055572509765148
 31
0.0
  0
LINE
  5
9C5E
330
1F
100
AcDbEntity
  8
AM_0
100
AcDbLine
 10
-3.797714233399282
 20
5.277339935302143
 30
0.0
 11
-6.815330505371285
 21
5.342523574829137
 31
0.0
  0
LINE
  5
9C5F
330
1F
100
AcDbEntity
  8
AM_0
100
AcDbLine
 10
-6.691291809082294
 20
5.61495399475114
 30
0.0
 11
-6.815338134766284
 21
5.342527389526147
 31
0.0
  0
LINE
  5
9C60
330
1F
100
AcDbEntity
  8
AM_0
100
AcDbLine
 10
-0.3658370971682865
 20
12.14230728149414
 30
0.0
 11
-0.2136306762703036
 21
12.10589408874514
 31
0.0
  0
LINE
  5
9C61
330
1F
100
AcDbEntity
  8
AM_0
100
AcDbLine
 10
-0.0814895629892751
 20
10.60127639770515
 30
0.0
 11
-0.0000000000002877
 21
11.72751998901314
 31
0.0
  0
ARC
  5
9C62
330
1F
100
AcDbEntity
  8
AM_0
100
AcDbCircle
 10
-5.183387756348288
 20
9.049600601196148
 30
0.0
 40
1.399902462959299
100
AcDbArc
 50
87.49995701399866
 51
88.60980811261411
  0
LINE
  5
9C63
330
1F
100
AcDbEntity
  8
AM_0
100
AcDbLine
 10
-0.9505920410162861
 20
5.555109024048153
 30
0.0
 11
-3.778778076172294
 21
5.619024276733148
 31
0.0
  0
LINE
  5
9C64
330
1F
100
AcDbEntity
  8
AM_0
100
AcDbLine
 10
-1.007583618164271
 20
2.57977676391616
 30
0.0
 11
-1.113304138184285
 21
2.748008728027147
 31
0.0
  0
LINE
  5
9C65
330
1F
100
AcDbEntity
  8
AM_0
100
AcDbLine
 10
-0.9505920410162861
 20
5.555110931396145
 30
0.0
 11
-1.02413940429727
 21
3.25529479980415
 31
0.0
  0
LINE
  5
9C66
330
1F
100
AcDbEntity
  8
AM_0
100
AcDbLine
 10
-0.9952697753912874
 20
5.881252288818163
 30
0.0
 11
-1.117980957032296
 21
5.883903503418141
 31
0.0
  0
LINE
  5
9C67
330
1F
100
AcDbEntity
  8
AM_0
100
AcDbLine
 10
-0.9952774047852932
 20
5.881252288818163
 30
0.0
 11
-1.005661010743274
 21
5.55635452270515
 31
0.0
  0
LINE
  5
9C68
330
1F
100
AcDbEntity
  8
AM_0
100
AcDbLine
 10
-0.9952621459962871
 20
5.881252288818163
 30
0.0
 11
-1.019126892090293
 21
5.947807312011152
 31
0.0
  0
ARC
  5
9C69
330
1F
100
AcDbEntity
  8
AM_0
100
AcDbCircle
 10
-5.183120727539282
 20
9.054262161255138
 30
0.0
 40
1.404765486717199
100
AcDbArc
 50
266.4146313034643
 51
266.7224679293537
  0
ARC
  5
9C6A
330
1F
100
AcDbEntity
  8
AM_0
100
AcDbCircle
 10
-5.183380126953287
 20
9.049758911132144
 30
0.0
 40
1.400257706642198
100
AcDbArc
 50
267.5000166644695
 51
268.5440588904322
  0
ARC
  5
9C6B
330
1F
100
AcDbEntity
  8
AM_0
100
AcDbCircle
 10
-5.183395385743287
 20
9.049484252929149
 30
0.0
 40
1.399981737136799
100
AcDbArc
 50
266.7225703821934
 51
267.4999347021986
  0
LINE
  5
9C6C
330
1F
100
AcDbEntity
  8
AM_0
100
AcDbLine
 10
-3.797714233399282
 20
5.277339935302143
 30
0.0
 11
-3.778778076172294
 21
5.619024276733148
 31
0.0
  0
LINE
  5
9C6D
330
1F
100
AcDbEntity
  8
AM_0
100
AcDbLine
 10
-6.683723449707295
 20
5.881507873535135
 30
0.0
 11
-6.691291809082294
 21
5.614952087402152
 31
0.0
  0
LINE
  5
9C6E
330
1F
100
AcDbEntity
  8
AM_0
100
AcDbLine
 10
-3.723411560059283
 20
5.61777496337914
 30
0.0
 11
-3.711006164551286
 21
5.841634750366146
 31
0.0
  0
ARC
  5
9C6F
330
1F
100
AcDbEntity
  8
AM_0
100
AcDbCircle
 10
-9.659774780274274
 20
6.886964797973118
 30
0.0
 40
1.998810648918198
100
AcDbArc
 50
113.5067902034186
 51
262.8506249341707
  0
LINE
  5
9C70
330
1F
100
AcDbEntity
  8
AM_0
100
AcDbLine
 10
-17.11709594726626
 20
9.02999687194811
 30
0.0
 11
-17.2139892578133
 21
7.646240234375109
 31
0.0
  0
LINE
  5
9C71
330
1F
100
AcDbEntity
  8
AM_0
100
AcDbLine
 10
-9.982925415039293
 20
11.34999465942313
 30
0.0
 11
-16.25905609130927
 21
11.34999465942311
 31
0.0
  0
LINE
  5
9C72
330
1F
100
AcDbEntity
  8
AM_0
100
AcDbLine
 10
-10.65271759033228
 20
8.758493423462134
 30
0.0
 11
-10.19669342041029
 21
11.28059005737313
 31
0.0
  0
LINE
  5
9C73
330
1F
100
AcDbEntity
  8
AM_0
100
AcDbLine
 10
-17.48149108886826
 20
10.40744209289512
 30
0.0
 11
-17.40000915527429
 21
11.47503852844211
 31
0.0
  0
LINE
  5
9C74
330
1F
100
AcDbEntity
  8
AM_0
100
AcDbLine
 10
-16.37759399414127
 20
9.682233810424122
 30
0.0
 11
-16.2721862792973
 21
11.25181770324712
 31
0.0
  0
LINE
  5
9C75
330
1F
100
AcDbEntity
  8
AM_0
100
AcDbLine
 10
-16.97810363769627
 20
9.771938323974106
 30
0.0
 11
-16.97135162353526
 21
9.868398666382114
 31
0.0
  0
LINE
  5
9C76
330
1F
100
AcDbEntity
  8
AM_0
100
AcDbLine
 10
-10.42569732666029
 20
5.975242614746131
 30
0.0
 11
-10.57790374755928
 21
6.011653900146134
 31
0.0
  0
LINE
  5
9C77
330
1F
100
AcDbEntity
  8
AM_0
100
AcDbLine
 10
-10.67328643798927
 20
7.514669418335137
 30
0.0
 11
-10.78321075439529
 21
6.389665603637133
 31
0.0
  0
LINE
  5
9C78
330
1F
100
AcDbEntity
  8
AM_0
100
AcDbLine
 10
-6.796234130860291
 20
5.687217712402152
 30
0.0
 11
-8.321998596192296
 21
5.72169876098613
 31
0.0
  0
LINE
  5
9C79
330
1F
100
AcDbEntity
  8
AM_0
100
AcDbLine
 10
-6.796241760254283
 20
5.687217712402152
 30
0.0
 11
-6.815338134766284
 21
5.342525482177146
 31
0.0
  0
LINE
  5
9C7A
330
1F
100
AcDbEntity
  8
AM_0
100
AcDbLine
 10
-6.729995727539284
 20
5.882120132446154
 30
0.0
 11
-6.746482849121286
 21
5.584629058838155
 31
0.0
  0
LINE
  5
9C7B
330
1F
100
AcDbEntity
  8
AM_0
100
AcDbLine
 10
-6.746482849121286
 20
5.584632873535135
 30
0.0
 11
-6.796234130860291
 21
5.687217712402152
 31
0.0
  0
LINE
  5
9C7C
330
1F
100
AcDbEntity
  8
AM_0
100
AcDbLine
 10
-17.3609619140633
 20
6.695409774780124
 30
0.0
 11
-17.3252487182623
 21
7.205469131469123
 31
0.0
  0
LINE
  5
9C7D
330
1F
100
AcDbEntity
  8
AM_0
100
AcDbLine
 10
-7.177719116211258
 20
-8.728046417236857
 30
0.0
 11
-2.027656555176242
 21
-8.997947692870848
 31
0.0
  0
CIRCLE
  5
9C7E
330
1F
100
AcDbEntity
  8
AM_0
100
AcDbCircle
 10
-3.828559875489257
 20
-4.734657287597846
 30
0.0
 40
1.25
  0
LINE
  5
9C7F
330
1F
100
AcDbEntity
  8
AM_0
100
AcDbLine
 10
-1.286857604981258
 20
-8.477973937988844
 30
0.0
 11
-0.8931350708012748
 21
-0.9652595520018486
 31
0.0
  0
LINE
  5
9C80
330
1F
100
AcDbEntity
  8
AM_0
100
AcDbLine
 10
-1.676765441895248
 20
-9.016334533691857
 30
0.0
 11
-1.212249755860269
 21
-0.1528930664068435
 31
0.0
  0
LINE
  5
9C81
330
1F
100
AcDbEntity
  8
AM_0
100
AcDbLine
 10
-1.952629089356265
 20
-3.234657287597853
 30
0.0
 11
-2.109848022461253
 21
-6.234657287597851
 31
0.0
  0
LINE
  5
9C82
330
1F
100
AcDbEntity
  8
AM_0
100
AcDbLine
 10
-1.494804382325264
 20
-8.463977813720839
 30
0.0
 11
-1.10124206543028
 21
-0.9543571472168496
 31
0.0
  0
ARC
  5
9C83
330
1F
100
AcDbEntity
  8
AM_0
100
AcDbCircle
 10
-1.322128295899271
 20
-0.9574966430668577
 30
0.0
 40
0.2339781373739
100
AcDbArc
 50
60.24627962179012
 51
70.20196335599989
  0
LINE
  5
9C84
330
1F
100
AcDbEntity
  8
AM_0
100
AcDbLine
 10
-1.187057495118265
 20
-0.5126304626468503
 30
0.0
 11
-1.24029541015727
 21
-0.6879577636718432
 31
0.0
  0
ARC
  5
9C85
330
1F
100
AcDbEntity
  8
AM_0
100
AcDbCircle
 10
-1.30664062500028
 20
-0.9304084777838536
 30
0.0
 40
0.2027761638165
100
AcDbArc
 50
27.62984505179553
 51
60.24629328216906
  0
ARC
  5
9C86
330
1F
100
AcDbEntity
  8
AM_0
100
AcDbCircle
 10
-1.329528808594271
 20
-0.9423904418948408
 30
0.0
 40
0.2286113202572
100
AcDbArc
 50
356.9998990575411
 51
27.6297867678138
  0
LINE
  5
9C87
330
1F
100
AcDbEntity
  8
AM_0
100
AcDbLine
 10
-0.8903503417972833
 20
-0.920585632324839
 30
0.0
 11
-0.8931274414072834
 21
-0.9652595520018486
 31
0.0
  0
LINE
  5
9C88
330
1F
100
AcDbEntity
  8
AM_0
100
AcDbLine
 10
-1.100868225098268
 20
0.3058700561521485
 30
0.0
 11
-0.5779724121102716
 21
0.2999954223631449
 31
0.0
  0
LINE
  5
9C89
330
1F
100
AcDbEntity
  8
AM_0
100
AcDbLine
 10
-1.13844299316426
 20
-0.1503143310548544
 30
0.0
 11
-1.21225738525426
 21
-0.1528930664068435
 31
0.0
  0
LINE
  5
9C8A
330
1F
100
AcDbEntity
  8
AM_0
100
AcDbLine
 10
-1.121017456055269
 20
-0.1204032897948471
 30
0.0
 11
-1.13844299316426
 21
-0.1503143310548544
 31
0.0
  0
LINE
  5
9C8B
330
1F
100
AcDbEntity
  8
AM_0
100
AcDbLine
 10
-1.087944030762269
 20
-0.5478210449218427
 30
0.0
 11
-1.206016540528264
 21
-0.7543640136718431
 31
0.0
  0
LINE
  5
9C8C
330
1F
100
AcDbEntity
  8
AM_0
100
AcDbLine
 10
-0.9216003417972698
 20
-0.728858947753845
 30
0.0
 11
-1.126991271973263
 21
-0.8363723754888457
 31
0.0
  0
LINE
  5
9C8D
330
1F
100
AcDbEntity
  8
AM_0
100
AcDbLine
 10
-0.8931274414072834
 20
-0.9652595520018486
 30
0.0
 11
-1.101226806641274
 21
-0.9543533325198399
 31
0.0
  0
LINE
  5
9C8E
330
1F
100
AcDbEntity
  8
AM_0
100
AcDbLine
 10
-1.952621459961251
 20
-3.234657287597853
 30
0.0
 11
-2.142532348633268
 21
-3.234657287597854
 31
0.0
  0
LINE
  5
9C8F
330
1F
100
AcDbEntity
  8
AM_0
100
AcDbLine
 10
-3.828559875489263
 20
-3.234657287597846
 30
0.0
 11
-2.142532348633268
 21
-3.234657287597854
 31
0.0
  0
ARC
  5
9C90
330
1F
100
AcDbEntity
  8
AM_0
100
AcDbCircle
 10
-6.191177368164254
 20
-8.726142883300866
 30
0.0
 40
0.2035305798054
100
AcDbArc
 50
253.1108229890569
 51
266.9999990059032
  0
ARC
  5
9C91
330
1F
100
AcDbEntity
  8
AM_0
100
AcDbCircle
 10
-6.182327270508261
 20
-8.697010040283856
 30
0.0
 40
0.2339781373739
100
AcDbArc
 50
240.2462778005581
 51
253.1107205362209
  0
ARC
  5
9C92
330
1F
100
AcDbEntity
  8
AM_0
100
AcDbCircle
 10
-6.197814941407265
 20
-8.724098205566859
 30
0.0
 40
0.2027761638165
100
AcDbArc
 50
207.6298483532016
 51
240.2462846307425
  0
ARC
  5
9C93
330
1F
100
AcDbEntity
  8
AM_0
100
AcDbCircle
 10
-6.17492675781326
 20
-8.712120056152855
 30
0.0
 40
0.2286106050014
100
AcDbArc
 50
194.4064313653306
 51
207.629790296597
  0
LINE
  5
9C94
330
1F
100
AcDbEntity
  8
AM_0
100
AcDbLine
 10
-2.075874328614253
 20
-9.24819183349585
 30
0.0
 11
-2.042579650879252
 21
-9.246955871581858
 31
0.0
  0
LINE
  5
9C95
330
1F
100
AcDbEntity
  8
AM_0
100
AcDbLine
 10
-3.345794677735261
 20
-9.301467895507844
 30
0.0
 11
-3.201866149903258
 21
-9.293323516845847
 31
0.0
  0
LINE
  5
9C96
330
1F
100
AcDbEntity
  8
AM_0
100
AcDbLine
 10
-6.213455200196255
 20
-9.15118026733387
 30
0.0
 11
-3.345794677735261
 21
-9.301467895507844
 31
0.0
  0
LINE
  5
9C97
330
1F
100
AcDbEntity
  8
AM_0
100
AcDbLine
 10
-1.286827087403261
 20
-8.477977752685854
 30
0.0
 11
-1.288078308106258
 21
-8.503585815429852
 31
0.0
  0
LINE
  5
9C98
330
1F
100
AcDbEntity
  8
AM_0
100
AcDbLine
 10
-3.201866149903258
 20
-9.293327331542844
 30
0.0
 11
-2.075881958008244
 21
-9.24819183349585
 31
0.0
  0
LINE
  5
9C99
330
1F
100
AcDbEntity
  8
AM_0
100
AcDbLine
 10
-6.249320983887264
 20
-9.149711608886846
 30
0.0
 11
-6.213455200196255
 21
-9.151187896728856
 31
0.0
  0
LINE
  5
9C9A
330
1F
100
AcDbEntity
  8
AM_0
100
AcDbLine
 10
-1.493843078614256
 20
-8.464031219482842
 30
0.0
 11
-1.320030212403261
 21
-8.473140716552842
 31
0.0
  0
LINE
  5
9C9B
330
1F
100
AcDbEntity
  8
AM_0
100
AcDbLine
 10
-1.320037841797267
 20
-8.473140716552842
 30
0.0
 11
-1.286857604981258
 21
-8.477977752685854
 31
0.0
  0
LINE
  5
9C9C
330
1F
100
AcDbEntity
  8
AM_0
100
AcDbLine
 10
-6.416511535645262
 20
-9.106689453124841
 30
0.0
 11
-6.298446655274255
 21
-8.900142669677848
 31
0.0
  0
LINE
  5
9C9D
330
1F
100
AcDbEntity
  8
AM_0
100
AcDbLine
 10
-3.201866149903258
 20
-9.293327331542844
 30
0.0
 11
-3.191062927246242
 21
-9.087184906005846
 31
0.0
  0
LINE
  5
9C9E
330
1F
100
AcDbEntity
  8
AM_0
100
AcDbLine
 10
-2.027656555176242
 20
-8.997947692870848
 30
0.0
 11
-1.676765441895248
 21
-9.016338348388838
 31
0.0
  0
LINE
  5
9C9F
330
1F
100
AcDbEntity
  8
AM_0
100
AcDbLine
 10
-2.109848022461253
 20
-6.234657287597851
 30
0.0
 11
-2.152923583985259
 21
-6.234657287597852
 31
0.0
  0
LINE
  5
9CA0
330
1F
100
AcDbEntity
  8
AM_0
100
AcDbLine
 10
-3.828559875489252
 20
-6.234657287597846
 30
0.0
 11
-2.152923583985259
 21
-6.234657287597852
 31
0.0
  0
LINE
  5
9CA1
330
1F
100
AcDbEntity
  8
AM_0
100
AcDbLine
 10
-6.213447570801256
 20
-9.15118026733387
 30
0.0
 11
-6.201828002930262
 21
-8.929393768310859
 31
0.0
  0
LINE
  5
9CA2
330
1F
100
AcDbEntity
  8
AM_0
100
AcDbLine
 10
-6.317405700684254
 20
-9.141876220702856
 30
0.0
 11
-6.250305175782264
 21
-8.920894622802848
 31
0.0
  0
LINE
  5
9CA3
330
1F
100
AcDbEntity
  8
AM_0
100
AcDbLine
 10
-2.065071105957265
 20
-9.04204940795884
 30
0.0
 11
-3.191055297852251
 21
-9.087184906005846
 31
0.0
  0
LINE
  5
9CA4
330
1F
100
AcDbEntity
  8
AM_0
100
AcDbLine
 10
-3.191055297852251
 20
-9.087184906005846
 30
0.0
 11
-6.201835632325262
 21
-8.929397583007867
 31
0.0
  0
LINE
  5
9CA5
330
1F
100
AcDbEntity
  8
AM_0
100
AcDbLine
 10
-1.617767333985262
 20
-9.107490539550848
 30
0.0
 11
-1.676292419434254
 21
-9.007366180419847
 31
0.0
  0
LINE
  5
9CA6
330
1F
100
AcDbEntity
  8
AM_0
100
AcDbLine
 10
-1.837089538575247
 20
-9.213356018066857
 30
0.0
 11
-1.888397216797251
 21
-9.005249023437837
 31
0.0
  0
LINE
  5
9CA7
330
1F
100
AcDbEntity
  8
AM_0
100
AcDbLine
 10
-6.582862854004253
 20
-8.925647735595861
 30
0.0
 11
-6.37747192382826
 21
-8.818138122558847
 31
0.0
  0
LINE
  5
9CA8
330
1F
100
AcDbEntity
  8
AM_0
100
AcDbLine
 10
-1.375709533692266
 20
-8.831874847411848
 30
0.0
 11
-1.559143066407252
 21
-8.710830688476839
 31
0.0
  0
LINE
  5
9CA9
330
1F
100
AcDbEntity
  8
AM_0
100
AcDbLine
 10
-2.075874328614253
 20
-9.24819183349585
 30
0.0
 11
-2.065071105957265
 21
-9.04204940795884
 31
0.0
  0
LINE
  5
9CAA
330
1F
100
AcDbEntity
  8
AM_0
100
AcDbLine
 10
-17.21421813964923
 20
-9.337547302245894
 30
0.0
 11
-9.724609375000259
 21
-9.349357604980866
 31
0.0
  0
LINE
  5
9CAB
330
1F
100
AcDbEntity
  8
AM_0
100
AcDbLine
 10
-9.335289001465259
 20
-9.44141006469786
 30
0.0
 11
-9.418136596680259
 21
-9.362510681152867
 31
0.0
  0
LINE
  5
9CAC
330
1F
100
AcDbEntity
  8
AM_0
100
AcDbLine
 10
-12.17618560791026
 20
-5.648742675781871
 30
0.0
 11
-11.94175720214924
 21
-4.149135589599859
 31
0.0
  0
LINE
  5
9CAD
330
1F
100
AcDbEntity
  8
AM_0
100
AcDbLine
 10
-12.17617797851625
 20
-5.648742675781871
 30
0.0
 11
-12.10192871093825
 21
-7.121498107909867
 31
0.0
  0
LINE
  5
9CBB
330
1F
100
AcDbEntity
  8
AM_0
100
AcDbLine
 10
-5.796859741211253
 20
-9.966983795165869
 30
0.0
 11
-6.926483154297261
 21
-9.954502105712849
 31
0.0
  0
LINE
  5
9CBC
330
1F
100
AcDbEntity
  8
AM_0
100
AcDbLine
 10
-17.22167968750026
 20
-9.60398483276387
 30
0.0
 11
-9.728988647461255
 21
-9.61579895019588
 31
0.0
  0
LINE
  5
9CBD
330
1F
100
AcDbEntity
  8
AM_0
100
AcDbLine
 10
-9.684555053711255
 20
-9.61736679077188
 30
0.0
 11
-9.728981018067262
 21
-9.615795135497876
 31
0.0
  0
LINE
  5
9CBE
330
1F
100
AcDbEntity
  8
AM_0
100
AcDbLine
 10
-8.781494140625257
 20
-10.40744781494185
 30
0.0
 11
-8.80164337158226
 21
-10.29537582397485
 31
0.0
  0
LINE
  5
9CBF
330
1F
100
AcDbEntity
  8
AM_0
100
AcDbLine
 10
-8.781486511231252
 20
-10.40744781494185
 30
0.0
 11
-8.700004577637242
 21
-11.47504425048885
 31
0.0
  0
LINE
  5
9CC0
330
1F
100
AcDbEntity
  8
AM_0
100
AcDbLine
 10
-8.799659729004247
 20
-10.29504776000985
 30
0.0
 11
-8.781486511231252
 21
-10.40745162963886
 31
0.0
  0
LINE
  5
9CC1
330
1F
100
AcDbEntity
  8
AM_0
100
AcDbLine
 10
-17.22168731689527
 20
-9.604080200195866
 30
0.0
 11
-17.24725341796926
 21
-9.604362487792867
 31
0.0
  0
LINE
  5
9CC2
330
1F
100
AcDbEntity
  8
AM_0
100
AcDbLine
 10
-17.22168731689527
 20
-9.604076385497862
 30
0.0
 11
-17.21788787841825
 21
-9.561290740966866
 31
0.0
  0
LINE
  5
9CC3
330
1F
100
AcDbEntity
  8
AM_0
100
AcDbLine
 10
-17.21789550781324
 20
-9.561290740966866
 30
0.0
 11
-17.22167968750026
 21
-9.603981018066875
 31
0.0
  0
SPLINE
  5
9CC4
330
1F
100
AcDbEntity
  8
AM_0
100
AcDbSpline
210
0.0
220
0.0
230
1.0
 70
     8
 71
     3
 72
    11
 73
     7
 74
     5
 42
0.0000000001
 43
0.0000000001
 44
0.0000000001
 40
0.0
 40
0.0
 40
0.0
 40
0.0
 40
0.0137697700046426
 40
0.0274722985176144
 40
0.0411270781162309
 40
0.0547269163231019
 40
0.0547269163231019
 40
0.0547269163231019
 40
0.0547269163231019
 10
-17.78764343261827
 20
-9.020740509033872
 30
0.0
 10
-17.7898384262189
 20
-9.016709094752499
 30
0.0
 10
-17.79421769467584
 20
-9.008665952670339
 30
0.0
 10
-17.80035961157047
 20
-8.996407593834348
 30
0.0
 10
-17.80621801482736
 20
-8.984073736103452
 30
0.0
 10
-17.80982350741354
 20
-8.975734225600934
 30
0.0
 10
-17.81162261962924
 20
-8.971572875976876
 30
0.0
 11
-17.78764343261827
 21
-9.020740509033872
 31
0.0
 11
-17.79415893554727
 21
-9.008609771728872
 31
0.0
 11
-17.80032348632824
 21
-8.996372222900875
 31
0.0
 11
-17.80615234375025
 21
-8.984024047851876
 31
0.0
 11
-17.81162261962924
 21
-8.971572875976876
 31
0.0
  0
SPLINE
  5
9CC5
330
1F
100
AcDbEntity
  8
AM_0
100
AcDbSpline
210
0.0
220
0.0
230
1.0
 70
     8
 71
     3
 72
    11
 73
     7
 74
     5
 42
0.0000000001
 43
0.0000000001
 44
0.0000000001
 40
0.0
 40
0.0
 40
0.0
 40
0.0
 40
0.2888049515954301
 40
0.5699580468270145
 40
0.8305147861015512
 40
1.066947528210108
 40
1.066947528210108
 40
1.066947528210108
 40
1.066947528210108
 10
-17.79447174072322
 20
-11.15711212158187
 30
0.0
 10
-17.89085013970918
 20
-11.14647466439615
 30
0.0
 10
-18.08105340228797
 20
-11.12548158831735
 30
0.0
 10
-18.33354859618914
 20
-11.00365408394646
 30
0.0
 10
-18.53750775575413
 20
-10.8301117002906
 30
0.0
 10
-18.59743626359074
 20
-10.67316142004832
 30
0.0
 10
-18.62594604492224
 20
-10.59849548339887
 30
0.0
 11
-17.79447174072322
 21
-11.15711212158187
 31
0.0
 11
-18.07926177978524
 21
-11.10912322998088
 31
0.0
 11
-18.33369445800824
 21
-10.98949432373088
 31
0.0
 11
-18.52449798584023
 21
-10.81205749511787
 31
0.0
 11
-18.62594604492224
 21
-10.59849548339887
 31
0.0
  0
SPLINE
  5
9CC6
330
1F
100
AcDbEntity
  8
AM_0
100
AcDbSpline
210
0.0
220
0.0
230
1.0
 70
     8
 71
     3
 72
    11
 73
     7
 74
     5
 42
0.0000000001
 43
0.0000000001
 44
0.0000000001
 40
0.0
 40
0.0
 40
0.0
 40
0.0
 40
0.3088347156835934
 40
0.6176632976897696
 40
0.9264944155745919
 40
1.235326595409424
 40
1.235326595409424
 40
1.235326595409424
 40
1.235326595409424
 10
-18.62594604492224
 20
-10.59849548339887
 30
0.0
 10
-18.59172750217069
 20
-10.50140405820431
 30
0.0
 10
-18.52329109627224
 20
-10.30722313612006
 30
0.0
 10
-18.42064929501361
 20
-10.01594742702667
 30
0.0
 10
-18.31799032368222
 20
-9.724678665229285
 30
0.0
 10
-18.2495616738034
 20
-9.530495009787822
 30
0.0
 10
-18.21534729003923
 20
-9.433403015136878
 30
0.0
 11
-18.62594604492224
 21
-10.59849548339887
 31
0.0
 11
-18.52329254150424
 21
-10.30722045898487
 31
0.0
 11
-18.42064666748126
 21
-10.01594924926787
 31
0.0
 11
-18.31799316406324
 21
-9.724678039550887
 31
0.0
 11
-18.21534729003923
 21
-9.433403015136878
 31
0.0
  0
SPLINE
  5
9CC7
330
1F
100
AcDbEntity
  8
AM_0
100
AcDbSpline
210
0.0
220
0.0
230
1.0
 70
     8
 71
     3
 72
    11
 73
     7
 74
     5
 42
0.0000000001
 43
0.0000000001
 44
0.0000000001
 40
0.0
 40
0.0
 40
0.0
 40
0.0
 40
0.0465179007978665
 40
0.0933036449438019
 40
0.1403693544538899
 40
0.1877668431760911
 40
0.1877668431760911
 40
0.1877668431760911
 40
0.1877668431760911
 10
-18.05697631836026
 20
-8.984031677245885
 30
0.0
 10
-18.05446941618731
 20
-8.999341005254505
 30
0.0
 10
-18.04944117746109
 20
-9.030047810169271
 30
0.0
 10
-18.03770927450421
 20
-9.075395842786633
 30
0.0
 10
-18.02314555515068
 20
-9.120222732525984
 30
0.0
 10
-18.01075601663686
 20
-9.149186452977259
 30
0.0
 10
-18.00453948974626
 20
-9.163719177245885
 30
0.0
 11
-18.05697631836026
 21
-8.984031677245885
 31
0.0
 11
-18.04876708984426
 21
-9.029819488525879
 31
0.0
 11
-18.03727722168025
 21
-9.075172424316878
 31
0.0
 11
-18.02252197265727
 21
-9.119865417480884
 31
0.0
 11
-18.00453948974626
 21
-9.163719177245885
 31
0.0
  0
SPLINE
  5
9CC8
330
1F
100
AcDbEntity
  8
AM_0
100
AcDbSpline
210
0.0
220
0.0
230
1.0
 70
     8
 71
     3
 72
    11
 73
     7
 74
     5
 42
0.0000000001
 43
0.0000000001
 44
0.0000000001
 40
0.0
 40
0.0
 40
0.0
 40
0.0
 40
0.0558950338924294
 40
0.1122682294598766
 40
0.1691279583102102
 40
0.226497649472446
 40
0.226497649472446
 40
0.226497649472446
 40
0.226497649472446
 10
-18.00453948974626
 20
-9.163719177245885
 30
0.0
 10
-17.99645834866152
 20
-9.180520464125875
 30
0.0
 10
-17.98022693527074
 20
-9.214266766781204
 30
0.0
 10
-17.95047201407778
 20
-9.262251100029532
 30
0.0
 10
-17.91709591456508
 20
-9.308396026850358
 30
0.0
 10
-17.89164857564644
 20
-9.3367525510237
 30
0.0
 10
-17.87886810302825
 20
-9.350994110107865
 30
0.0
 11
-18.00453948974626
 21
-9.163719177245885
 31
0.0
 11
-17.97942352295024
 21
-9.21365356445287
 31
0.0
 11
-17.95000457763726
 21
-9.261741638183865
 31
0.0
 11
-17.91642761230525
 21
-9.307628631591869
 31
0.0
 11
-17.87886810302825
 21
-9.350994110107865
 31
0.0
  0
SPLINE
  5
9CC9
330
1F
100
AcDbEntity
  8
AM_0
100
AcDbSpline
210
0.0
220
0.0
230
1.0
 70
     8
 71
     3
 72
    11
 73
     7
 74
     5
 42
0.0000000001
 43
0.0000000001
 44
0.0000000001
 40
0.0
 40
0.0
 40
0.0
 40
0.0
 40
0.2759296058451838
 40
0.5498548662773625
 40
0.8188858857346666
 40
1.081814102237738
 40
1.081814102237738
 40
1.081814102237738
 40
1.081814102237738
 10
-18.93907928466828
 20
5.798082351684118
 30
0.0
 10
-18.84649244911787
 20
5.805450621711329
 30
0.0
 10
-18.66199132635984
 20
5.820133638845707
 30
0.0
 10
-18.41585216662287
 20
5.951683145834254
 30
0.0
 10
-18.22021299674303
 20
6.146285753888149
 30
0.0
 10
-18.1607369073772
 20
6.315507060365044
 30
0.0
 10
-18.13134002685627
 20
6.399147033691127
 30
0.0
 11
-18.93907928466828
 21
5.798082351684118
 31
0.0
 11
-18.66616058349627
 21
5.838733673095109
 31
0.0
 11
-18.42237091064527
 21
5.963640213012117
 31
0.0
 11
-18.23654937744229
 21
6.158185958862111
 31
0.0
 11
-18.13134002685627
 21
6.399147033691127
 31
0.0
  0
SPLINE
  5
9CCA
330
1F
100
AcDbEntity
  8
AM_0
100
AcDbSpline
210
0.0
220
0.0
230
1.0
 70
     8
 71
     3
 72
    11
 73
     7
 74
     5
 42
0.0000000001
 43
0.0000000001
 44
0.0000000001
 40
0.0
 40
0.0
 40
0.0
 40
0.0
 40
2.224865689526009
 40
4.446391766282891
 40
6.668670187893255
 40
8.893069521058439
 40
8.893069521058439
 40
8.893069521058439
 40
8.893069521058439
 10
-18.93907928466828
 20
5.798082351684118
 30
0.0
 10
-19.68058474605583
 20
5.814253693735611
 30
0.0
 10
-21.16248263934835
 20
5.846572104004602
 30
0.0
 10
-23.38210743210713
 20
5.969784003589554
 30
0.0
 10
-25.60209174899657
 20
6.084812347566732
 30
0.0
 10
-27.08426083688767
 20
6.108291768802902
 30
0.0
 10
-27.82569885253929
 20
6.120037078857076
 30
0.0
 11
-18.93907928466828
 21
5.798082351684118
 31
0.0
 11
-21.16310882568428
 21
5.859073638916109
 31
0.0
 11
-23.38194274902429
 21
5.9684085845941
 31
0.0
 11
-25.60182952880929
 21
6.071481704712103
 31
0.0
 11
-27.82569885253929
 21
6.120037078857076
 31
0.0
  0
SPLINE
  5
9CCB
330
1F
100
AcDbEntity
  8
AM_0
100
AcDbSpline
210
0.0
220
0.0
230
1.0
 70
     8
 71
     3
 72
    11
 73
     7
 74
     5
 42
0.0000000001
 43
0.0000000001
 44
0.0000000001
 40
0.0
 40
0.0
 40
0.0
 40
0.0
 40
0.0577715079296621
 40
0.1156580683414272
 40
0.174975988323916
 40
0.2368873704188285
 40
0.2368873704188285
 40
0.2368873704188285
 40
0.2368873704188285
 10
-28.18321228027429
 20
6.437555313110089
 30
0.0
 10
-28.18436598285681
 20
6.418242264316772
 30
0.0
 10
-28.186675685631
 20
6.379577704618271
 30
0.0
 10
-28.1731155756153
 20
6.322121684488918
 30
0.0
 10
-28.14694357942995
 20
6.267668427173061
 30
0.0
 10
-28.11961067467452
 20
6.237642995742864
 30
0.0
 10
-28.10565185546926
 20
6.222309112548084
 30
0.0
 11
-28.18321228027429
 21
6.437555313110089
 31
0.0
 11
-28.18386077880929
 21
6.379787445068096
 31
0.0
 11
-28.17126464843831
 21
6.323287963867096
 31
0.0
 11
-28.1450195312503
 21
6.270092010498097
 31
0.0
 11
-28.10565185546926
 21
6.222309112548084
 31
0.0
  0
SPLINE
  5
9CCC
330
1F
100
AcDbEntity
  8
AM_0
100
AcDbSpline
210
0.0
220
0.0
230
1.0
 70
     8
 71
     3
 72
    11
 73
     7
 74
     5
 42
0.0000000001
 43
0.0000000001
 44
0.0000000001
 40
0.0
 40
0.0
 40
0.0
 40
0.0
 40
0.839378893345636
 40
1.679076459036644
 40
2.519087328132635
 40
3.3594152698236
 40
3.3594152698236
 40
3.3594152698236
 40
3.3594152698236
 10
-27.32594299316428
 20
10.5984878540041
 30
0.0
 10
-27.38829899460924
 20
10.32573185894828
 30
0.0
 10
-27.51303467111473
 20
9.780116316324956
 30
0.0
 10
-27.69992699699561
 20
8.961483143295824
 30
0.0
 10
-27.88671638641379
 20
8.142501999634639
 30
0.0
 10
-28.01109470109788
 20
7.596373314770171
 30
0.0
 10
-28.0732955932623
 20
7.323257446289086
 30
0.0
 11
-27.32594299316428
 21
10.5984878540041
 31
0.0
 11
-27.51296997070329
 21
9.780210494995083
 31
0.0
 11
-27.69987487793028
 21
8.961578369140084
 31
0.0
 11
-27.88665008545031
 21
8.142595291137094
 31
0.0
 11
-28.0732955932623
 21
7.323257446289086
 31
0.0
  0
SPLINE
  5
9CCD
330
1F
100
AcDbEntity
  8
AM_0
100
AcDbSpline
210
0.0
220
0.0
230
1.0
 70
     8
 71
     3
 72
    11
 73
     7
 74
     5
 42
0.0000000001
 43
0.0000000001
 44
0.0000000001
 40
0.0
 40
0.0
 40
0.0
 40
0.0
 40
0.2888043177558395
 40
0.5699574129874208
 40
0.8305167500524374
 40
1.066942772922047
 40
1.066942772922047
 40
1.066942772922047
 40
1.066942772922047
 10
-26.49447631836028
 20
11.15710067749009
 30
0.0
 10
-26.59085475307391
 20
11.14646476831069
 30
0.0
 10
-26.78105829207913
 20
11.12547472450608
 30
0.0
 10
-27.03355410497589
 20
11.00364631091406
 30
0.0
 10
-27.23751129166525
 20
10.83010279563986
 30
0.0
 10
-27.29743572429552
 20
10.67315236122615
 30
0.0
 10
-27.32594299316428
 20
10.5984878540041
 30
0.0
 11
-26.49447631836028
 21
11.15710067749009
 31
0.0
 11
-26.77926635742228
 21
11.10911560058609
 31
0.0
 11
-27.03369903564527
 21
10.98948669433609
 31
0.0
 11
-27.22450256347729
 21
10.8120460510251
 31
0.0
 11
-27.32594299316428
 21
10.5984878540041
 31
0.0
  0
SPLINE
  5
9CCE
330
1F
100
AcDbEntity
  8
AM_0
100
AcDbSpline
210
0.0
220
0.0
230
1.0
 70
     8
 71
     3
 72
    11
 73
     7
 74
     5
 42
0.0000000001
 43
0.0000000001
 44
0.0000000001
 40
0.0
 40
0.0
 40
0.0
 40
0.0
 40
0.9636075280558634
 40
1.924148669253251
 40
2.8458114250089
 40
3.72919734938412
 40
3.72919734938412
 40
3.72919734938412
 40
3.72919734938412
 10
-23.6541595458993
 20
7.437370300293108
 30
0.0
 10
-23.34394074807336
 20
7.331476499744304
 30
0.0
 10
-22.72449032906469
 20
7.120025873347435
 30
0.0
 10
-21.7615777639933
 20
7.394092799034327
 30
0.0
 10
-21.06073132835937
 20
8.102666198085637
 30
0.0
 10
-21.04102939957152
 20
8.723195102731557
 30
0.0
 10
-21.03138732910228
 20
9.026880264282121
 30
0.0
 11
-23.6541595458993
 21
7.437370300293108
 31
0.0
 11
-22.71557617187529
 21
7.219194412231106
 31
0.0
 11
-21.79006195068429
 21
7.476221084594105
 31
0.0
 11
-21.16515350341829
 21
8.153680801391127
 31
0.0
 11
-21.03138732910228
 21
9.026880264282121
 31
0.0
  0
SPLINE
  5
9CCF
330
1F
100
AcDbEntity
  8
AM_0
100
AcDbSpline
210
0.0
220
0.0
230
1.0
 70
     8
 71
     3
 72
    11
 73
     7
 74
     5
 42
0.0000000001
 43
0.0000000001
 44
0.0000000001
 40
0.0
 40
0.0
 40
0.0
 40
0.0
 40
0.2241402318754678
 40
0.4482804637502501
 40
0.6724193674465172
 40
0.8965595993220228
 40
0.8965595993220228
 40
0.8965595993220228
 40
0.8965595993220228
 10
-27.82654571533226
 20
6.120037078857076
 30
0.0
 10
-27.77292375906494
 20
6.06801035944011
 30
0.0
 10
-27.66567984653047
 20
5.963956920606338
 30
0.0
 10
-27.50481480613917
 20
5.807876544322825
 30
0.0
 10
-27.34394772309119
 20
5.651798273338221
 30
0.0
 10
-27.23670440065683
 20
5.547744862089995
 30
0.0
 10
-27.18308258056726
 20
5.495718002319093
 30
0.0
 11
-27.82654571533226
 21
6.120037078857076
 31
0.0
 11
-27.66567993164129
 21
5.963956832885084
 31
0.0
 11
-27.5048141479503
 21
5.807876586914089
 31
0.0
 11
-27.34394836425827
 21
5.651798248291099
 31
0.0
 11
-27.18308258056726
 21
5.495718002319093
 31
0.0
  0
SPLINE
  5
9CD0
330
1F
100
AcDbEntity
  8
AM_0
100
AcDbSpline
210
0.0
220
0.0
230
1.0
 70
     8
 71
     3
 72
    11
 73
     7
 74
     5
 42
0.0000000001
 43
0.0000000001
 44
0.0000000001
 40
0.0
 40
0.0
 40
0.0
 40
0.0
 40
0.0380132751251287
 40
0.076437184480853
 40
0.115198302231672
 40
0.1542074846944599
 40
0.1542074846944599
 40
0.1542074846944599
 40
0.1542074846944599
 10
-27.97790527343831
 20
6.145524978637093
 30
0.0
 10
-27.96585901248529
 20
6.141564734207255
 30
0.0
 10
-27.94163636216805
 20
6.133601465241972
 30
0.0
 10
-27.90395807413319
 20
6.125853119777672
 30
0.0
 10
-27.86548833489165
 20
6.120886026217397
 30
0.0
 10
-27.8395541626824
 20
6.120320662426046
 30
0.0
 10
-27.82654571533226
 20
6.120037078857076
 30
0.0
 11
-27.97790527343831
 21
6.145524978637093
 31
0.0
 11
-27.94157409668029
 21
6.134342193603083
 31
0.0
 11
-27.90399169921926
 21
6.126344680786099
 31
0.0
 11
-27.86552429199327
 21
6.121582031250081
 31
0.0
 11
-27.82654571533226
 21
6.120037078857076
 31
0.0
  0
SPLINE
  5
9CD1
330
1F
100
AcDbEntity
  8
AM_0
100
AcDbSpline
210
0.0
220
0.0
230
1.0
 70
     8
 71
     3
 72
    11
 73
     7
 74
     5
 42
0.0000000001
 43
0.0000000001
 44
0.0000000001
 40
0.0
 40
0.0
 40
0.0
 40
0.0
 40
0.0359488894059458
 40
0.0729826722513115
 40
0.1110749647568074
 40
0.1501337228963795
 40
0.1501337228963795
 40
0.1501337228963795
 40
0.1501337228963795
 10
-28.10565185546926
 20
6.222309112548084
 30
0.0
 10
-28.09673549425177
 20
6.214282625700549
 30
0.0
 10
-28.07863368695912
 20
6.197987422466085
 30
0.0
 10
-28.04773650358506
 20
6.177393554852121
 30
0.0
 10
-28.01413650644228
 20
6.15933433020617
 30
0.0
 10
-27.99008279082519
 20
6.150166377918631
 30
0.0
 10
-27.97790527343831
 20
6.145524978637093
 30
0.0
 11
-28.10565185546926
 21
6.222309112548084
 31
0.0
 11
-28.0783691406253
 21
6.198900222778086
 31
0.0
 11
-28.04773712158226
 21
6.178087234497093
 31
0.0
 11
-28.0140914917003
 21
6.160226821899096
 31
0.0
 11
-27.97790527343831
 21
6.145524978637093
 31
0.0
  0
SPLINE
  5
9CD2
330
1F
100
AcDbEntity
  8
AM_0
100
AcDbSpline
210
0.0
220
0.0
230
1.0
 70
     8
 71
     3
 72
    11
 73
     7
 74
     5
 42
0.0000000001
 43
0.0000000001
 44
0.0000000001
 40
0.0
 40
0.0
 40
0.0
 40
0.0
 40
0.3249884154833396
 40
0.6622727745434998
 40
1.016937629627477
 40
1.389082259741452
 40
1.389082259741452
 40
1.389082259741452
 40
1.389082259741452
 10
-24.4893951416023
 20
8.486324310302091
 30
0.0
 10
-24.46387660886775
 20
8.3803270370651
 30
0.0
 10
-24.41187404917263
 20
8.164322081515212
 30
0.0
 10
-24.2247631780899
 20
7.875407876530186
 30
0.0
 10
-23.9728644293561
 20
7.621097713784357
 30
0.0
 10
-23.76208426206079
 20
7.499586883663462
 30
0.0
 10
-23.6541595458993
 20
7.437370300293108
 30
0.0
 11
-24.4893951416023
 21
8.486324310302091
 31
0.0
 11
-24.39601898193429
 21
8.175039291382086
 31
0.0
 11
-24.21929168701231
 21
7.887762069702087
 31
0.0
 11
-23.96778106689528
 21
7.637702941894101
 31
0.0
 11
-23.6541595458993
 21
7.437370300293108
 31
0.0
  0
SPLINE
  5
9CD3
330
1F
100
AcDbEntity
  8
AM_0
100
AcDbSpline
210
0.0
220
0.0
230
1.0
 70
     8
 71
     3
 72
    11
 73
     7
 74
     5
 42
0.0000000001
 43
0.0000000001
 44
0.0000000001
 40
0.0
 40
0.0
 40
0.0
 40
0.0
 40
1.203475324383549
 40
2.497474258680631
 40
3.818382586791613
 40
4.953010870872315
 40
4.953010870872315
 40
4.953010870872315
 40
4.953010870872315
 10
-21.03138732910228
 20
9.026880264282121
 30
0.0
 10
-21.21310198634675
 20
9.415703009236013
 30
0.0
 10
-21.5901996049668
 20
10.22259516318133
 30
0.0
 10
-23.02523360307498
 20
10.33383517339827
 30
0.0
 10
-24.27102600574893
 20
9.726298219410942
 30
0.0
 10
-24.42038221181549
 20
8.878203098448505
 30
0.0
 10
-24.4893951416023
 20
8.486324310302091
 30
0.0
 11
-21.03138732910228
 21
9.026880264282121
 31
0.0
 11
-21.70691680908228
 21
10.02287864685011
 31
0.0
 11
-22.98722076416026
 21
10.2106418609621
 31
0.0
 11
-24.14005279541026
 21
9.565834045410097
 31
0.0
 11
-24.4893951416023
 21
8.486324310302091
 31
0.0
  0
SPLINE
  5
9CD4
330
1F
100
AcDbEntity
  8
AM_0
100
AcDbSpline
210
0.0
220
0.0
230
1.0
 70
     8
 71
     3
 72
    11
 73
     7
 74
     5
 42
0.0000000001
 43
0.0000000001
 44
0.0000000001
 40
0.0
 40
0.0
 40
0.0
 40
0.0
 40
0.0066633122794909
 40
0.0136224997983303
 40
0.0208963713062766
 40
0.0285172602818456
 40
0.0285172602818456
 40
0.0285172602818456
 40
0.0285172602818456
 10
-36.92561721801825
 20
10.93088340759208
 30
0.0
 10
-36.92455408605584
 20
10.92893212566194
 30
0.0
 10
-36.92238061521487
 20
10.92494291780481
 30
0.0
 10
-36.91851051930554
 20
10.91914281252472
 30
0.0
 10
-36.9141617340492
 20
10.9132932425982
 30
0.0
 10
-36.91092400585708
 20
10.90952726263207
 30
0.0
 10
-36.90926742553727
 20
10.90760040283209
 30
0.0
 11
-36.92561721801825
 21
10.93088340759208
 31
0.0
 11
-36.92234420776429
 21
10.92507934570307
 31
0.0
 11
-36.91852188110428
 21
10.91926383972108
 31
0.0
 11
-36.91416549682629
 21
10.91343879699707
 31
0.0
 11
-36.90926742553727
 21
10.90760040283209
 31
0.0
  0
SPLINE
  5
9CD5
330
1F
100
AcDbEntity
  8
AM_0
100
AcDbSpline
210
0.0
220
0.0
230
1.0
 70
     8
 71
     3
 72
    11
 73
     7
 74
     5
 42
0.0000000001
 43
0.0000000001
 44
0.0000000001
 40
0.0
 40
0.0
 40
0.0
 40
0.0
 40
1.959025489119656
 40
4.460713773574253
 40
7.246173265292366
 40
10.13093041491971
 40
10.13093041491971
 40
10.13093041491971
 40
10.13093041491971
 10
-36.18187332153429
 20
9.958166122436075
 30
0.0
 10
-35.78322185441956
 20
9.438697974832097
 30
0.0
 10
-34.87548987232406
 20
8.255865625881153
 30
0.0
 10
-32.97208639587307
 20
6.73376190034101
 30
0.0
 10
-30.49996053746447
 20
5.492353786573868
 30
0.0
 10
-28.61362364340673
 20
5.246483243144139
 30
0.0
 10
-27.65393829345726
 20
5.121395111084095
 30
0.0
 11
-36.18187332153429
 21
9.958166122436075
 31
0.0
 11
-34.93500137329129
 21
8.447175979614083
 31
0.0
 11
-32.99946975708032
 21
6.86219596862809
 31
0.0
 11
-30.48873138427829
 21
5.655971527099097
 31
0.0
 11
-27.65393829345726
 21
5.121395111084095
 31
0.0
  0
SPLINE
  5
9CD6
330
1F
100
AcDbEntity
  8
AM_0
100
AcDbSpline
210
0.0
220
0.0
230
1.0
 70
     8
 71
     3
 72
    11
 73
     7
 74
     5
 42
0.0000000001
 43
0.0000000001
 44
0.0000000001
 40
0.0
 40
0.0
 40
0.0
 40
0.0
 40
0.239669210155863
 40
0.4676201308803382
 40
0.6657125673970715
 40
0.8053877546607328
 40
0.8053877546607328
 40
0.8053877546607328
 40
0.8053877546607328
 10
-37.34949111938525
 20
-10.66642379760791
 30
0.0
 10
-37.42946000525355
 20
-10.66874280254825
 30
0.0
 10
-37.58548781062648
 20
-10.67326742793927
 30
0.0
 10
-37.80492240415416
 20
-10.70235171135458
 30
0.0
 10
-37.99290740497136
 20
-10.73723711493999
 30
0.0
 10
-38.0910117872804
 20
-10.79379327557582
 30
0.0
 10
-38.13158035278421
 20
-10.81718063354491
 30
0.0
 11
-37.34949111938525
 21
-10.66642379760791
 31
0.0
 11
-37.58890151977624
 21
-10.67755889892592
 31
0.0
 11
-37.81509017944424
 21
-10.7058486938479
 31
0.0
 11
-38.00745773315524
 21
-10.75312805175792
 31
0.0
 11
-38.13158035278421
 21
-10.81718063354491
 31
0.0
  0
SPLINE
  5
9CD7
330
1F
100
AcDbEntity
  8
AM_0
100
AcDbSpline
210
0.0
220
0.0
230
1.0
 70
     8
 71
     3
 72
    11
 73
     7
 74
     5
 42
0.0000000001
 43
0.0000000001
 44
0.0000000001
 40
0.0
 40
0.0
 40
0.0
 40
0.0
 40
0.0392203652134064
 40
0.0703439705759527
 40
0.1035561332154048
 40
0.1452513266364046
 40
0.1452513266364046
 40
0.1452513266364046
 40
0.1452513266364046
 10
-38.13158035278421
 20
-10.81718063354491
 30
0.0
 10
-38.14097223500763
 20
-10.8267037179315
 30
0.0
 10
-38.1578171135084
 20
-10.84378391502395
 30
0.0
 10
-38.16266990634007
 20
-10.88066597242723
 30
0.0
 10
-38.14420594013223
 20
-10.91286048590421
 30
0.0
 10
-38.12431246419326
 20
-10.9281011571482
 30
0.0
 10
-38.11323928833025
 20
-10.93658447265692
 30
0.0
 11
-38.13158035278421
 21
-10.81718063354491
 31
0.0
 11
-38.15554428100623
 21
-10.84822845458992
 31
0.0
 11
-38.15924453735425
 21
-10.87913131713892
 31
0.0
 11
-38.14433670044024
 21
-10.90880966186592
 31
0.0
 11
-38.11323928833025
 21
-10.93658447265692
 31
0.0
  0
SPLINE
  5
9CD8
330
1F
100
AcDbEntity
  8
AM_0
100
AcDbSpline
210
0.0
220
0.0
230
1.0
 70
     8
 71
     3
 72
    11
 73
     7
 74
     5
 42
0.0000000001
 43
0.0000000001
 44
0.0000000001
 40
0.0
 40
0.0
 40
0.0
 40
0.0
 40
0.0845394914926195
 40
0.1690714228864552
 40
0.253610846473145
 40
0.338150270059803
 40
0.338150270059803
 40
0.338150270059803
 40
0.338150270059803
 10
-18.55654144287126
 20
-10.05730056762688
 30
0.0
 10
-18.58471680646565
 20
-10.05780229858628
 30
0.0
 10
-18.64106501402098
 20
-10.05880571563688
 30
0.0
 10
-18.7255883899248
 20
-10.06032053777094
 30
0.0
 10
-18.81011201065725
 20
-10.06182035881207
 30
0.0
 10
-18.86646271123524
 20
-10.06282276934394
 30
0.0
 10
-18.89463806152423
 20
-10.06332397460987
 30
0.0
 11
-18.55654144287126
 21
-10.05730056762688
 31
0.0
 11
-18.64106750488326
 21
-10.05880737304687
 31
0.0
 11
-18.72558593750026
 21
-10.06031799316388
 31
0.0
 11
-18.81011199951226
 21
-10.06182098388687
 31
0.0
 11
-18.89463806152423
 21
-10.06332397460987
 31
0.0
  0
SPLINE
  5
9CD9
330
1F
100
AcDbEntity
  8
AM_0
100
AcDbSpline
210
0.0
220
0.0
230
1.0
 70
     8
 71
     3
 72
    11
 73
     7
 74
     5
 42
0.0000000001
 43
0.0000000001
 44
0.0000000001
 40
0.0
 40
0.0
 40
0.0
 40
0.0
 40
0.0364666431543173
 40
0.0729333202775372
 40
0.1093999634318903
 40
0.1458666065852313
 40
0.1458666065852313
 40
0.1458666065852313
 40
0.1458666065852313
 10
-27.44879913330129
 20
10.06072044372509
 30
0.0
 10
-27.46095276263072
 20
10.06093639425991
 30
0.0
 10
-27.48526003261077
 20
10.0613682955307
 30
0.0
 10
-27.52172086278028
 20
10.06202002892253
 30
0.0
 10
-27.5581817657284
 20
10.06266767643394
 30
0.0
 10
-27.58248901468308
 20
10.06310012228805
 30
0.0
 10
-27.59464263916026
 20
10.0633163452151
 30
0.0
 11
-27.44879913330129
 21
10.06072044372509
 31
0.0
 11
-27.48526000976627
 21
10.06136894226008
 31
0.0
 11
-27.52172088623126
 21
10.06201934814409
 31
0.0
 11
-27.55818176269627
 21
10.06266784667909
 31
0.0
 11
-27.59464263916026
 21
10.0633163452151
 31
0.0
  0
ELLIPSE
  5
9CDA
330
1F
100
AcDbEntity
  8
AM_0
100
AcDbEllipse
 10
-19.46843719482531
 20
7.321750640869112
 30
0.0
 11
1.996299704388007
 21
-0.1215763733009959
 31
0.0
210
0.0
220
0.0
230
0.9999999999999998
 40
0.7834854107377001
 41
4.744803391010194
 42
4.924632197705518
  0
ELLIPSE
  5
9CDB
330
1F
100
AcDbEntity
  8
AM_0
100
AcDbEllipse
 10
-27.0510559082033
 20
5.330711364746092
 30
0.0
 11
-1.976005448846996
 21
-0.308896052513003
 31
0.0
210
0.0
220
0.0
230
0.9999999999999998
 40
0.8616429061122
 41
5.160642956328871
 42
5.680502049375354
  0
ELLIPSE
  5
9CDC
330
1F
100
AcDbEntity
  8
AM_0
100
AcDbEllipse
 10
-28.90197753906328
 20
-0.0000076293948927
 30
0.0
 11
-9.373002961259974
 21
-10.81060159988601
 31
0.0
210
0.0
220
0.0
230
1.0
 40
0.3688642805768
 41
0.3095443419722901
 42
0.4598681933773864
  0
ELLIPSE
  5
9CDD
330
1F
100
AcDbEntity
  8
AM_0
100
AcDbEllipse
 10
-33.89035797119227
 20
-0.0000038146979167
 30
0.0
 11
4.69269424063002
 21
-11.26361808061998
 31
0.0
210
0.0
220
0.0
230
1.0
 40
0.2978319271366001
 41
2.745541538889874
 42
3.018148587522003
  0
ELLIPSE
  5
9CDE
330
1F
100
AcDbEntity
  8
AM_0
100
AcDbEllipse
 10
-31.84865570068429
 20
-0.0000038146979229
 30
0.0
 11
5.679435184209026
 21
-11.33872543876598
 31
0.0
210
0.0
220
0.0
230
1.0
 40
0.0890376232299
 41
2.597215809361308
 42
2.817389694552429
  0
ELLIPSE
  5
9CDF
330
1F
100
AcDbEntity
  8
AM_0
100
AcDbEllipse
 10
-19.74629211425828
 20
-0.0000076293948851
 30
0.0
 11
0.863452652940021
 21
-11.34941278888699
 31
0.0
210
0.0
220
0.0
230
1.0
 40
0.1336876952904
 41
0.5901362908154822
 42
0.6513993321967524
  0
ELLIPSE
  5
9CE0
330
1F
100
AcDbEntity
  8
AM_0
100
AcDbEllipse
 10
-19.93611907959028
 20
-0.0000076293948858
 30
0.0
 11
-0.3045199045489738
 21
-11.34961133799701
 31
0.0
210
0.0
220
0.0
230
1.0
 40
0.3084612597859
 41
0.4902198146935219
 42
0.608660785085641
  0
ELLIPSE
  5
9CE1
330
1F
100
AcDbEntity
  8
AM_0
100
AcDbEllipse
 10
-20.97031402587926
 20
-0.0000076293948899
 30
0.0
 11
1.870818589852015
 21
-11.34902754293699
 31
0.0
210
0.0
220
0.0
230
1.0
 40
0.0793048008108
 41
0.3994348000932031
 42
0.4678772503489656
  0
ELLIPSE
  5
9CE2
330
1F
100
AcDbEntity
  8
AM_0
100
AcDbEllipse
 10
57.33151245116672
 20
-0.000007629394724
 30
0.0
 11
-300.25388438698
 21
-7.051255936636599
 31
0.0
210
0.0
220
0.0
230
1.0
 40
0.0296215562176
 41
1.249300315175788
 42
1.313413609088873
  0
ELLIPSE
  5
9CE3
330
1F
100
AcDbEntity
  8
AM_0
100
AcDbEllipse
 10
-28.90197753906328
 20
-0.0000076293948927
 30
0.0
 11
-9.373002961259974
 21
-10.81060159988601
 31
0.0
210
0.0
220
0.0
230
1.0
 40
0.3688642805768
 41
0.0386696483673987
 42
0.3095443419722901
  0
ELLIPSE
  5
9CE4
330
1F
100
AcDbEntity
  8
AM_0
100
AcDbEllipse
 10
-29.67031860351627
 20
-0.0000076293948957
 30
0.0
 11
-1.870819571054978
 21
-11.349031247371
 31
0.0
210
0.0
220
0.0
230
1.0
 40
0.0793053756242
 41
2.674023171790707
 42
2.740795700978646
  0
ELLIPSE
  5
9CE5
330
1F
100
AcDbEntity
  8
AM_0
100
AcDbEllipse
 10
48.63159179686672
 20
-0.0000114440917396
 30
0.0
 11
300.2540396375499
 21
-7.051144346617385
 31
0.0
210
0.0
220
0.0
230
1.0
 40
0.029621566571
 41
1.828258155287745
 42
1.859399937718652
  0
ELLIPSE
  5
9CE6
330
1F
100
AcDbEntity
  8
AM_0
100
AcDbEllipse
 10
-27.3239784240733
 20
7.076625823974095
 30
0.0
 11
2.011882841050002
 21
-0.0547125024479941
 31
0.0
210
0.0
220
0.0
230
0.9999999999999998
 40
0.7869550420017
 41
1.942613335141831
 42
3.285488647092513
  0
ELLIPSE
  5
9CE7
330
1F
100
AcDbEntity
  8
AM_0
100
AcDbEllipse
 10
-27.3239784240733
 20
7.076625823974095
 30
0.0
 11
2.011882841050002
 21
-0.0547125024479941
 31
0.0
210
0.0
220
0.0
230
0.9999999999999998
 40
0.7869550420017
 41
3.285489027835251
 42
5.554079108789625
  0
ELLIPSE
  5
9CE8
330
1F
100
AcDbEntity
  8
AM_0
100
AcDbEllipse
 10
-28.21717071533229
 20
12.79029083251909
 30
0.0
 11
-0.2569422338409796
 21
-11.14034023713799
 31
0.0
210
0.0
220
0.0
230
1.0
 40
0.0290449207718
 41
1.143609391754432
 42
1.182505178242985
  0
ELLIPSE
  5
9CE9
330
1F
100
AcDbEntity
  8
AM_0
100
AcDbEllipse
 10
-27.26418685913126
 20
6.694107055664089
 30
0.0
 11
2.01188286713799
 21
-0.0547115431079947
 31
0.0
210
0.0
220
0.0
230
0.9999999999999998
 40
0.7869545681561
 41
1.898794694971924
 42
1.981816958250204
  0
LINE
  5
9CEA
330
1F
100
AcDbEntity
  8
AM_0
100
AcDbLine
 10
-217.0000152587832
 20
-12.50000381469827
 30
0.0
 11
-76.99186515808122
 21
-12.50000381469799
 31
0.0
  0
LINE
  5
9CEB
330
1F
100
AcDbEntity
  8
AM_0
100
AcDbLine
 10
-76.99186515808128
 20
12.49999618530199
 30
0.0
 11
-217.0000152587832
 21
12.49999618530171
 31
0.0
  0
LINE
  5
9CED
330
1F
100
AcDbEntity
  8
AM_0
100
AcDbLine
 10
-76.99186515808122
 20
-12.50000381469799
 30
0.0
 11
-76.99186515808126
 21
-0.000003814698001
 31
0.0
  0
LINE
  5
9CEE
330
1F
100
AcDbEntity
  8
AM_0
100
AcDbLine
 10
-75.00000572204624
 20
-11.35000610351598
 30
0.0
 11
-75.00000572204628
 21
-0.0000038146980073
 31
0.0
  0
LINE
  5
9CEF
330
1F
100
AcDbEntity
  8
AM_0
100
AcDbLine
 10
-38.13423538208031
 20
11.34999465942306
 30
0.0
 11
-75.0000057220463
 21
11.349994659423
 31
0.0
  0
LINE
  5
9CF0
330
1F
100
AcDbEntity
  8
AM_0
100
AcDbLine
 10
-28.01475524902428
 20
8.571592330932087
 30
0.0
 11
-27.59669494628929
 21
10.39590835571309
 31
0.0
  0
LINE
  5
9CF1
330
1F
100
AcDbEntity
  8
AM_0
100
AcDbLine
 10
-28.0291557312013
 20
8.167177200317095
 30
0.0
 11
-27.59463882446328
 21
10.0633163452151
 31
0.0
  0
LINE
  5
9CF2
330
1F
100
AcDbEntity
  8
AM_0
100
AcDbLine
 10
-21.19771575927828
 20
5.516204833984112
 30
0.0
 11
-24.21533966064528
 21
5.625511169433093
 31
0.0
  0
LINE
  5
9CF3
330
1F
100
AcDbEntity
  8
AM_0
100
AcDbLine
 10
-18.94874572753929
 20
5.757310867309118
 30
0.0
 11
-18.93907165527429
 21
5.798080444336111
 31
0.0
  0
LINE
  5
9CF4
330
1F
100
AcDbEntity
  8
AM_0
100
AcDbLine
 10
-18.13134002685627
 20
6.399145126342125
 30
0.0
 11
-18.12178802490328
 21
6.447446823120121
 31
0.0
  0
LINE
  5
9CF5
330
1F
100
AcDbEntity
  8
AM_0
100
AcDbLine
 10
-18.25199127197328
 20
5.890567779541121
 30
0.0
 11
-18.14183044433628
 21
6.354932785034113
 31
0.0
  0
LINE
  5
9CF6
330
1F
100
AcDbEntity
  8
AM_0
100
AcDbLine
 10
-21.19771575927828
 20
5.516204833984112
 30
0.0
 11
-21.17683410644628
 21
5.814367294311105
 31
0.0
  0
LINE
  5
9CF7
330
1F
100
AcDbEntity
  8
AM_0
100
AcDbLine
 10
-21.17683410644628
 20
5.814369201660109
 30
0.0
 11
-19.49945068359426
 21
5.754581451416116
 31
0.0
  0
LINE
  5
9CF8
330
1F
100
AcDbEntity
  8
AM_0
100
AcDbLine
 10
-27.82569503784229
 20
6.120037078857076
 30
0.0
 11
-27.97790145874126
 21
6.145524978637093
 31
0.0
  0
LINE
  5
9CF9
330
1F
100
AcDbEntity
  8
AM_0
100
AcDbLine
 10
-28.0732955932623
 20
7.323257446289086
 30
0.0
 11
-28.18321228027429
 21
6.437557220459091
 31
0.0
  0
LINE
  5
9CFA
330
1F
100
AcDbEntity
  8
AM_0
100
AcDbLine
 10
-28.08445358276431
 20
6.201744079590095
 30
0.0
 11
-27.35465621948328
 21
5.493659973144088
 31
0.0
  0
LINE
  5
9CFB
330
1F
100
AcDbEntity
  8
AM_0
100
AcDbLine
 10
-25.85230255127028
 20
5.981021881103107
 30
0.0
 11
-24.1945800781253
 21
5.921934127807102
 31
0.0
  0
LINE
  5
9CFC
330
1F
100
AcDbEntity
  8
AM_0
100
AcDbLine
 10
-24.1945800781253
 20
5.921934127807102
 30
0.0
 11
-24.21533966064528
 21
5.625513076782095
 31
0.0
  0
LINE
  5
9CFD
330
1F
100
AcDbEntity
  8
AM_0
100
AcDbLine
 10
-24.1945800781253
 20
5.921934127807102
 30
0.0
 11
-24.16028594970729
 21
5.623517990112101
 31
0.0
  0
LINE
  5
9CFE
330
1F
100
AcDbEntity
  8
AM_0
100
AcDbLine
 10
-24.11814117431729
 20
5.777151107788097
 30
0.0
 11
-24.1289749145513
 21
5.622383117675095
 31
0.0
  0
LINE
  5
9CFF
330
1F
100
AcDbEntity
  8
AM_0
100
AcDbLine
 10
-24.11814117431729
 20
5.777149200439093
 30
0.0
 11
-24.07740020752028
 21
5.620864868164087
 31
0.0
  0
LINE
  5
9D00
330
1F
100
AcDbEntity
  8
AM_0
100
AcDbLine
 10
-24.17819213867228
 20
5.77932548522909
 30
0.0
 11
-24.11814117431729
 21
5.777151107788097
 31
0.0
  0
LINE
  5
9D01
330
1F
100
AcDbEntity
  8
AM_0
100
AcDbLine
 10
-18.18099975586025
 20
-9.335952758788881
 30
0.0
 11
-18.05697631836026
 21
-8.984031677245885
 31
0.0
  0
LINE
  5
9D02
330
1F
100
AcDbEntity
  8
AM_0
100
AcDbLine
 10
-18.06065368652423
 20
-8.959445953368875
 30
0.0
 11
-18.05697631836026
 21
-8.984035491943874
 31
0.0
  0
LINE
  5
9D03
330
1F
100
AcDbEntity
  8
AM_0
100
AcDbLine
 10
-18.00453948974626
 20
-9.163719177245885
 30
0.0
 11
-17.78764343261827
 21
-9.020736694335868
 31
0.0
  0
LINE
  5
9D04
330
1F
100
AcDbEntity
  8
AM_0
100
AcDbLine
 10
-76.99186515808126
 20
-0.000003814698001
 30
0.0
 11
-76.99186515808128
 21
12.49999618530199
 31
0.0
  0
LINE
  5
9D05
330
1F
100
AcDbEntity
  8
AM_0
100
AcDbLine
 10
-75.00000572204628
 20
-0.0000038146980073
 30
0.0
 11
-75.0000057220463
 21
11.349994659423
 31
0.0
  0
LINE
  5
9D06
330
1F
100
AcDbEntity
  8
AM_0
100
AcDbLine
 10
-75.00000381469828
 20
11.34999275207499
 30
0.0
 11
-76.99186515808128
 21
12.49999427795398
 31
0.0
  0
LINE
  5
9D07
330
1F
100
AcDbEntity
  8
AM_0
100
AcDbLine
 10
-75.00000572204624
 20
-11.35000610351598
 30
0.0
 11
-36.61484909057623
 21
-11.3500061035159
 31
0.0
  0
LINE
  5
9D08
330
1F
100
AcDbEntity
  8
AM_0
100
AcDbLine
 10
-18.62593841552824
 20
-10.59849548339887
 30
0.0
 11
-18.74883270263726
 21
-10.06085205078187
 31
0.0
  0
LINE
  5
9D09
330
1F
100
AcDbEntity
  8
AM_0
100
AcDbLine
 10
-38.11323928833025
 20
-10.93658447265692
 30
0.0
 11
-37.86808776855525
 21
-10.71615600585991
 31
0.0
  0
LINE
  5
9D0A
330
1F
100
AcDbEntity
  8
AM_0
100
AcDbLine
 10
-34.78761672973724
 20
-10.6311683654789
 30
0.0
 11
-35.53158569336023
 21
-11.2220306396489
 31
0.0
  0
LINE
  5
9D0B
330
1F
100
AcDbEntity
  8
AM_0
100
AcDbLine
 10
-76.99186801910421
 20
-12.49999999999999
 30
0.0
 11
-75.00000572204624
 21
-11.35000228881899
 31
0.0
  0
LINE
  5
9D0C
330
1F
100
AcDbEntity
  8
AM_0
100
AcDbLine
 10
-217.0000152587832
 20
-12.50000381469827
 30
0.0
 11
-217.0000152587832
 21
-0.0000038146982817
 31
0.0
  0
LINE
  5
9D0D
330
1F
100
AcDbEntity
  8
AM_0
100
AcDbLine
 10
-220.0000152587833
 20
-10.16150283813527
 30
0.0
 11
-220.0000152587832
 21
-0.0000038146982935
 31
0.0
  0
LINE
  5
9D0F
330
1F
100
AcDbEntity
  8
AM_0
100
AcDbLine
 10
-217.0000152587832
 20
-0.0000038146982817
 30
0.0
 11
-217.0000152587832
 21
12.49999618530171
 31
0.0
  0
LINE
  5
9D10
330
1F
100
AcDbEntity
  8
AM_0
100
AcDbLine
 10
-220.0000152587832
 20
-0.0000038146982935
 30
0.0
 11
-220.0000152587832
 21
10.16149330139071
 31
0.0
  0
ARC
  5
9D11
330
1F
100
AcDbEntity
  8
AM_0
100
AcDbCircle
 10
-218.0000152587832
 20
10.1614933013907
 30
0.0
 40
2.000000238418599
100
AcDbArc
 50
104.999994497837
 51
180.0
  0
LINE
  5
9D12
330
1F
100
AcDbEntity
  8
AM_0
100
AcDbLine
 10
-217.0000152587832
 20
12.4999942779537
 30
0.0
 11
-218.5176467895432
 21
12.0933475494377
 31
0.0
  0
ARC
  5
9D13
330
1F
100
AcDbEntity
  8
AM_0
100
AcDbCircle
 10
-218.0000152587833
 20
-10.16150283813528
 30
0.0
 40
2.0
100
AcDbArc
 50
180.0
 51
255.0000055021631
  0
LINE
  5
9D14
330
1F
100
AcDbEntity
  8
AM_0
100
AcDbLine
 10
-218.5176544189433
 20
-12.09336090087928
 30
0.0
 11
-217.0000228881831
 21
-12.50000762939527
 31
0.0
  0
LINE
  5
9D9F
330
1F
100
AcDbEntity
  8
AM_11
100
AcDbLine
 10
-0.0000000000003137
 20
12.50000000000014
 30
0.0
 11
-26.00000000000029
 21
12.50000000000009
 31
0.0
  0
LINE
  5
9DA0
330
1F
100
AcDbEntity
  8
AM_11
100
AcDbLine
 10
-0.000000000000269
 20
-12.49999999999983
 30
0.0
 11
-0.0000000000002995
 21
12.50000000000014
 31
0.0
  0
LINE
  5
9DA1
330
1F
100
AcDbEntity
  8
AM_11
100
AcDbLine
 10
-0.0000000000002548
 20
-12.49999999999984
 30
0.0
 11
-26.00000000000026
 21
-12.50000259124385
 31
0.0
  0
DIMENSION
  5
9DB1
330
1F
100
AcDbEntity
  8
AM_5
100
AcDbDimension
  2
*D2
 10
-26.00000000000031
 20
26.50000381469773
 30
0.0
 11
-13.00000000000031
 21
29.10000381469773
 31
0.0
 70
    32
  1
<>
 71
     5
 42
-1.0
 51
359.9999999999998
  3
AM_JIS$0
100
AcDbAlignedDimension
 13
-0.0000000000003182
 23
12.50000000000013
 33
0.0
 14
-26.00000000000031
 24
12.50000263110937
 34
0.0
100
AcDbRotatedDimension
1001
GENIUS_GENDTOL_13
1000

1000
h7
1000

1040
0.0
1001
ACAD
1000
DSTYLE
1002
{
1070
   287
1070
     3
1070
    42
1040
1.5
1070
    43
1040
12.0
1070
    44
1040
1.5
1070
    48
1040
0.1
1070
    78
1070
     8
1070
   140
1040
3.2
1070
   147
1040
1.0
1070
   176
1070
   256
1070
   177
1070
   256
1070
   271
1070
     1
1070
   272
1070
     3
1070
   275
1070
     0
1070
   284
1070
     0
1070
   289
1070
     3
1070
   340
1005
6B
1070
   371
1070
    -1
1070
   372
1070
    -1
1002
}
  0
DIMENSION
  5
9E46
330
1F
100
AcDbEntity
  8
AM_5
100
AcDbDimension
  2
*D3
 10
13.99999999999974
 20
-12.49999999999985
 30
0.0
 11
11.39999999999974
 21
0.0000000000001451
 31
0.0
 70
    32
  1
%%c<>
 71
     5
 42
-1.0
 51
359.9999999999998
  3
AM_JIS$0
100
AcDbAlignedDimension
 13
-0.0000000000003182
 23
12.50000000000014
 33
0.0
 14
-0.0000000000002503
 24
-12.49999999999985
 34
0.0
 50
270.0
100
AcDbRotatedDimension
1001
GENIUS_GENDTOL_13
1000

1000
h7
1000

1040
0.0
1001
ACAD
1000
DSTYLE
1002
{
1070
   287
1070
     3
1070
    42
1040
1.5
1070
    43
1040
12.0
1070
    44
1040
1.5
1070
    48
1040
0.1
1070
    78
1070
     8
1070
   140
1040
3.2
1070
   147
1040
1.0
1070
   176
1070
   256
1070
   177
1070
   256
1070
   271
1070
     1
1070
   272
1070
     3
1070
   275
1070
     0
1070
   284
1070
     0
1070
   289
1070
     3
1070
   340
1005
6B
1070
   371
1070
    -1
1070
   372
1070
    -1
1002
}
  0
DIMENSION
  5
9EFF
330
1F
100
AcDbEntity
  8
AM_5
100
AcDbDimension
  2
*D4
 10
-75.00000381469826
 20
-26.49999999999985
 30
0.0
 11
-37.50000190734926
 21
-23.89999999999985
 31
0.0
 70
    32
  1
<>
 71
     5
 42
-1.0
 51
359.9999999999998
  3
AM_JIS$0
100
AcDbAlignedDimension
 13
-0.0000000000002558
 23
-12.32733154296782
 33
0.0
 14
-75.00000381469826
 24
-11.34999275207499
 34
0.0
100
AcDbRotatedDimension
1001
GENIUS_GENDTOL_13
1000

1000
h7
1000

1040
0.0
1001
ACAD
1000
DSTYLE
1002
{
1070
   287
1070
     3
1070
    42
1040
1.5
1070
    43
1040
12.0
1070
    44
1040
1.5
1070
    48
1040
0.1
1070
    78
1070
     8
1070
   140
1040
3.2
1070
   147
1040
1.0
1070
   176
1070
   256
1070
   177
1070
   256
1070
   271
1070
     1
1070
   272
1070
     3
1070
   275
1070
     0
1070
   284
1070
     0
1070
   289
1070
     3
1070
   340
1005
6B
1070
   371
1070
    -1
1070
   372
1070
    -1
1002
}
  0
DIMENSION
  5
9F8B
330
1F
100
AcDbEntity
  8
AM_5
100
AcDbDimension
  2
*D5
 10
-220.0000152587832
 20
-26.49999999999985
 30
0.0
 11
-147.5000095367407
 21
-23.89999999999985
 31
0.0
 70
    32
  1
<>
 71
     5
 42
-1.0
 51
359.9999999999998
  3
AM_JIS$0
100
AcDbAlignedDimension
 13
-75.00000381469826
 23
-11.34999275207499
 33
0.0
 14
-220.0000152587832
 24
-10.16149330139127
 34
0.0
100
AcDbRotatedDimension
1001
GENIUS_GENDTOL_13
1000

1000
h7
1000

1040
0.0
1001
ACAD
1000
DSTYLE
1002
{
1070
   287
1070
     3
1070
    42
1040
1.5
1070
    43
1040
12.0
1070
    44
1040
1.5
1070
    48
1040
0.1
1070
    78
1070
     8
1070
   140
1040
3.2
1070
   147
1040
1.0
1070
   176
1070
   256
1070
   177
1070
   256
1070
   271
1070
     1
1070
   272
1070
     3
1070
   275
1070
     0
1070
   284
1070
     0
1070
   289
1070
     3
1070
   340
1005
6B
1070
   371
1070
    -1
1070
   372
1070
    -1
1002
}
  0
DIMENSION
  5
A032
330
1F
100
AcDbEntity
  8
AM_5
100
AcDbDimension
  2
*D6
 10
-220.0000154972018
 20
-36.49999999999987
 30
0.0
 11
-110.000007748601
 21
-33.89999999999985
 31
0.0
 70
    32
  1
<>
 71
     5
 42
-1.0
 51
359.9999999999998
  3
AM_JIS$0
100
AcDbAlignedDimension
 13
-0.0000000000002558
 23
-12.32733154296782
 33
0.0
 14
-220.0000154972018
 24
-10.16149330139127
 34
0.0
100
AcDbRotatedDimension
1001
GENIUS_GENDTOL_13
1000

1000
h7
1000

1040
0.0
1001
ACAD
1000
DSTYLE
1002
{
1070
   287
1070
     3
1070
   147
1040
1.0
1070
    44
1040
1.5
1070
    41
1040
2.5
1070
    40
1040
1.0
1070
    42
1040
1.5
1070
    43
1040
12.0
1070
    48
1040
0.1
1070
    78
1070
     8
1070
   140
1040
3.2
1070
   176
1070
   256
1070
   177
1070
   256
1070
   271
1070
     1
1070
   272
1070
     3
1070
   275
1070
     0
1070
   284
1070
     0
1070
   289
1070
     3
1070
   340
1005
6B
1070
   371
1070
    -1
1070
   372
1070
    -1
1002
}
  0
DIMENSION
  5
A0C7
330
1F
100
AcDbEntity
  8
AM_5
100
AcDbDimension
  2
*D7
 10
-234.0000154972019
 20
-12.49999427795425
 30
0.0
 11
-236.6000154972018
 21
0.0000047683717068
 31
0.0
 70
    32
  1
%%c<>
 71
     5
 42
-1.0
 51
359.9999999999998
  3
AM_JIS$0
100
AcDbAlignedDimension
 13
-217.0000152587833
 23
12.50000381469773
 33
0.0
 14
-217.0000152587832
 24
-12.49999427795425
 34
0.0
 50
270.0
100
AcDbRotatedDimension
1001
GENIUS_GENDTOL_13
1000

1000
h7
1000

1040
0.0
1001
ACAD
1000
DSTYLE
1002
{
1070
   287
1070
     3
1070
    42
1040
1.5
1070
    43
1040
12.0
1070
    44
1040
1.5
1070
    48
1040
0.1
1070
    78
1070
     8
1070
   140
1040
3.2
1070
   147
1040
1.0
1070
   176
1070
   256
1070
   177
1070
   256
1070
   271
1070
     1
1070
   272
1070
     3
1070
   275
1070
     0
1070
   284
1070
     0
1070
   289
1070
     3
1070
   340
1005
6B
1070
   371
1070
    -1
1070
   372
1070
    -1
1002
}
  0
LINE
  5
A586
330
1F
100
AcDbEntity
  8
AM_11
100
AcDbLine
 10
-26.00000000000026
 20
-12.50000259124385
 30
0.0
 11
-26.00000000000029
 21
12.50000000000009
 31
0.0
  0
VIEWPORT
  5
110
102
{ACAD_XDICTIONARY
360
A9EC
102
}
330
101
100
AcDbEntity
 67
     1
  8
0
100
AcDbViewport
 10
420.5
 20
297.0
 30
0.0
 40
948.9782706766916
 41
628.452
 68
     1
 69
     1
 12
420.5
 22
297.0
 13
0.0
 23
0.0
 14
10.0
 24
10.0
 15
10.0
 25
10.0
 16
0.0
 26
0.0
 36
1.0
 17
0.0
 27
0.0
 37
0.0
 42
50.0
 43
0.0
 44
0.0
 45
628.452
 50
0.0
 51
0.0
 72
   100
 90
    32800
  1

281
     0
 71
     1
 74
     0
110
-0.0000000000002682
120
0.000000000000161
130
0.0
111
1.0
121
0.000000000000002
131
0.0
112
-0.000000000000002
122
1.0
132
0.0
 79
     0
146
0.0
1001
GENIUS_GENSCREG_15
1000
PF
1040
1.0
1000
DF
1040
1.0
1000
MIN
1011
-53.98913533834582
1021
-17.226
1031
0.0
1000
MAX
1011
894.9891353383458
1021
611.226
1031
0.0
1000
FLAGS
1070
     4
1001
GENIUS_GENOBJ-N-SDF_13
1002
{
1000
OWNER
1000
GEN
1002
}
1001
GENIUS_GENODEF_13
1002
{
1000
HIER
1070
     0
1002
}
1002
{
1000
MANEDIT
1070
     0
1002
}
1002
{
1000
NOSEL
1070
     0
1002
}
1002
{
1000
BEHIND
1070
     0
1002
}
1002
{
1000
OTHER
1070
     0
1002
}
1002
{
1000
REACTOR
1002
}
  0
ENDSEC
  0
SECTION
  2
OBJECTS
  0
DICTIONARY
  5
C
330
0
100
AcDbDictionary
281
     1
  3
ACAD_COLOR
350
A91D
  3
ACAD_GROUP
350
D
  3
ACAD_LAYOUT
350
1A
  3
ACAD_MATERIAL
350
A91C
  3
ACAD_MLINESTYLE
350
17
  3
ACAD_PLOTSETTINGS
350
19
  3
ACAD_PLOTSTYLENAME
350
E
  3
ACAD_TABLESTYLE
350
A91E
  3
ACDBHEADERROUNDTRIPXREC
350
A9EB
  3
ACDBVARIABLEDICTIONARY
350
34
  3
ACMDICTIONARY
350
43
  3
AMG
350
2B
  3
AMGSNAPSETTINGS
350
6E
  3
DWGPROPS
350
A9EA
  0
DICTIONARY
  5
74
330
1F
100
AcDbDictionary
280
     1
281
     1
  3
ACAD_INDEX
360
A8AC
  3
ACAD_LAYOUTSELFREF
360
A8D9
  0
DICTIONARY
  5
A8DE
330
101
100
AcDbDictionary
280
     1
281
     1
  3
ACAD_LAYOUTSELFREF
360
A8DF
  0
DICTIONARY
  5
A9EC
330
110
100
AcDbDictionary
280
     1
281
     1
  3
ACAD_XREC_ROUNDTRIP
360
A9ED
  0
DICTIONARY
  5
A91D
102
{ACAD_REACTORS
330
C
102
}
330
C
100
AcDbDictionary
281
     1
  0
DICTIONARY
  5
D
102
{ACAD_REACTORS
330
C
102
}
330
C
100
AcDbDictionary
281
     1
  0
DICTIONARY
  5
1A
102
{ACAD_REACTORS
330
C
102
}
330
C
100
AcDbDictionary
281
     1
  3
Model
350
A920
  3
レイアウト1
350
A921
  0
DICTIONARY
  5
A91C
102
{ACAD_REACTORS
330
C
102
}
330
C
100
AcDbDictionary
281
     1
  0
DICTIONARY
  5
17
102
{ACAD_REACTORS
330
C
102
}
330
C
100
AcDbDictionary
281
     1
  3
STANDARD
350
18
  0
DICTIONARY
  5
19
102
{ACAD_REACTORS
330
C
102
}
330
C
100
AcDbDictionary
281
     1
  3
ASAMI
350
399D
  0
ACDBDICTIONARYWDFLT
  5
E
102
{ACAD_REACTORS
330
C
102
}
330
C
100
AcDbDictionary
281
     1
  3
Normal
350
F
100
AcDbDictionaryWithDefault
340
F
  0
DICTIONARY
  5
A91E
102
{ACAD_REACTORS
330
C
102
}
330
C
100
AcDbDictionary
281
     1
  3
Standard
350
A91F
  0
DICTIONARY
  5
A9EB
102
{ACAD_REACTORS
330
C
102
}
330
C
100
AcDbDictionary
281
     1
  0
DICTIONARY
  5
34
102
{ACAD_REACTORS
330
C
102
}
330
C
100
AcDbDictionary
281
     1
  3
CTABLESTYLE
350
A9E6
  3
DIMASSOC
350
A9E7
  3
INDEXCTL
350
35
  3
PROJECTNAME
350
A9E8
  3
SORTENTS
350
B5E
  0
DICTIONARY
  5
43
102
{ACAD_REACTORS
330
C
102
}
330
C
100
AcDbDictionary
281
     1
  3
ACMSTDDICTIONARY
350
260
  0
DICTIONARY
  5
2B
102
{ACAD_REACTORS
330
C
102
}
330
C
100
AcDbDictionary
281
     1
  0
DICTIONARY
  5
6E
102
{ACAD_REACTORS
330
C
102
}
330
C
100
AcDbDictionary
281
     1
  0
XRECORD
  5
A9EA
102
{ACAD_REACTORS
330
C
102
}
330
C
100
AcDbXrecord
280
     1
  1
DWGPROPS COOKIE
  2

  3

  4

  6

  7

  8
那須
  9

300
AmdtFileType=82
301
=
302
=
303
=
304
=
305
=
306
=
307
=
308
=
309
=
 40
0.932789699074074
 41
2452802.716478762
 42
2453691.64859809
  1

 90
        1
  0
DICTIONARY
  5
A8AC
102
{ACAD_REACTORS
330
74
102
}
330
74
100
AcDbDictionary
281
     1
  3
*A1
350
A8AD
  0
XRECORD
  5
A8D9
102
{ACAD_REACTORS
330
74
102
}
330
74
100
AcDbXrecord
280
     1
340
1F
  0
XRECORD
  5
A8DF
102
{ACAD_REACTORS
330
A8DE
102
}
330
A8DE
100
AcDbXrecord
280
     1
340
101
  0
XRECORD
  5
A9ED
102
{ACAD_REACTORS
330
A9EC
102
}
330
A9EC
100
AcDbXrecord
280
     1
102
SHADEPLOT
 70
     0
  0
LAYOUT
  5
A920
102
{ACAD_XDICTIONARY
360
A9F0
102
}
102
{ACAD_REACTORS
330
1A
102
}
330
1A
100
AcDbPlotSettings
  1

  2
SII LP-2150 (D-SCAN C2)
  4

  6

 40
0.0
 41
0.0
 42
0.0
 43
0.0
 44
0.0
 45
0.0
 46
0.0
 47
0.0
 48
0.0
 49
0.0
140
0.0
141
0.0
142
1.0
143
1.0
 70
  1712
 72
     0
 73
     0
 74
     0
  7
sei_cad.ctb
 75
     0
147
1.0
148
0.0
149
0.0
100
AcDbLayout
  1
Model
 70
     1
 71
     0
 10
0.0
 20
0.0
 11
12.0
 21
9.0
 12
0.0
 22
0.0
 32
0.0
 14
0.0
 24
0.0
 34
0.0
 15
0.0
 25
0.0
 35
0.0
146
0.0
 13
0.0
 23
0.0
 33
0.0
 16
1.0
 26
0.0
 36
0.0
 17
0.0
 27
1.0
 37
0.0
 76
     0
330
1F
  0
LAYOUT
  5
A921
102
{ACAD_XDICTIONARY
360
A9F2
102
}
102
{ACAD_REACTORS
330
1A
102
}
330
1A
100
AcDbPlotSettings
  1

  2
SII LP-2150 (D-SCAN C2)
  4

  6

 40
0.0
 41
0.0
 42
0.0
 43
0.0
 44
0.0
 45
0.0
 46
0.0
 47
0.0
 48
0.0
 49
0.0
140
0.0
141
0.0
142
1.0
143
1.0
 70
   688
 72
     0
 73
     0
 74
     5
  7
sei_cad.ctb
 75
    16
147
1.0
148
0.0
149
0.0
100
AcDbLayout
  1
レイアウト1
 70
     0
 71
     1
 10
0.0
 20
0.0
 11
841.0
 21
594.0
 12
0.0
 22
0.0
 32
0.0
 14
1.000000000000000E+20
 24
1.000000000000000E+20
 34
1.000000000000000E+20
 15
-1.000000000000000E+20
 25
-1.000000000000000E+20
 35
-1.000000000000000E+20
146
0.0
 13
0.0
 23
0.0
 33
0.0
 16
1.0
 26
0.0
 36
0.0
 17
0.0
 27
1.0
 37
0.0
 76
     0
330
101
331
110
  0
MLINESTYLE
  5
18
102
{ACAD_REACTORS
330
17
102
}
330
17
100
AcDbMlineStyle
  2
STANDARD
 70
     0
  3

 62
   256
 51
90.0
 52
90.0
 71
     2
 49
0.5
 62
   256
  6
BYLAYER
 49
-0.5
 62
   256
  6
BYLAYER
  0
PLOTSETTINGS
  5
399D
102
{ACAD_XDICTIONARY
360
A9EE
102
}
102
{ACAD_REACTORS
330
19
102
}
330
19
100
AcDbPlotSettings
  1
asami
  2
RICOH imagio MF1540
  4
A4
  6

 40
5.831416606903076
 41
7.651742935180664
 42
4.90008544921875
 43
5.789077758789062
 44
296.9683227539062
 45
209.9733276367186
 46
0.0
 47
0.0
 48
-156.6707931774246
 49
-74.57609991074048
140
58.59973180214831
141
60.61068161925597
142
1.0
143
1.095343097833084
 70
  1712
 72
     1
 73
     1
 74
     4
  7
asami.ctb
 75
     0
147
0.9129559514076438
148
156.6707931774246
149
74.57609991074048
  0
ACDBPLACEHOLDER
  5
F
102
{ACAD_REACTORS
330
E
102
}
330
E
  0
TABLESTYLE
  5
A91F
102
{ACAD_REACTORS
330
A91E
102
}
330
A91E
100
AcDbTableStyle
  3
Standard
 70
     0
 71
     0
 40
1.5
 41
1.5
280
     0
281
     0
  7
STANDARD
140
4.5
170
     2
 62
     0
 63
     7
283
     0
274
    -2
284
     1
 64
     0
275
    -2
285
     1
 65
     0
276
    -2
286
     1
 66
     0
277
    -2
287
     1
 67
     0
278
    -2
288
     1
 68
     0
279
    -2
289
     1
 69
     0
  7
STANDARD
140
6.0
170
     5
 62
     0
 63
     7
283
     0
274
    -2
284
     1
 64
     0
275
    -2
285
     1
 65
     0
276
    -2
286
     1
 66
     0
277
    -2
287
     1
 67
     0
278
    -2
288
     1
 68
     0
279
    -2
289
     1
 69
     0
  7
STANDARD
140
4.5
170
     5
 62
     0
 63
     7
283
     0
274
    -2
284
     1
 64
     0
275
    -2
285
     1
 65
     0
276
    -2
286
     1
 66
     0
277
    -2
287
     1
 67
     0
278
    -2
288
     1
 68
     0
279
    -2
289
     1
 69
     0
  0
DICTIONARYVAR
  5
A9E6
102
{ACAD_REACTORS
330
34
102
}
330
34
100
DictionaryVariables
280
     0
  1
STANDARD
  0
DICTIONARYVAR
  5
A9E7
102
{ACAD_REACTORS
330
34
102
}
330
34
100
DictionaryVariables
280
     0
  1
1
  0
DICTIONARYVAR
  5
35
102
{ACAD_REACTORS
330
34
102
}
330
34
100
DictionaryVariables
280
     0
  1
1
  0
DICTIONARYVAR
  5
A9E8
102
{ACAD_REACTORS
330
34
102
}
330
34
100
DictionaryVariables
280
     0
  1

  0
DICTIONARYVAR
  5
B5E
102
{ACAD_REACTORS
330
34
102
}
330
34
100
DictionaryVariables
280
     0
  1
96
  0
DICTIONARY
  5
260
102
{ACAD_REACTORS
330
43
102
}
330
43
100
AcDbDictionary
281
     1
  0
LAYER_INDEX
  5
A8AD
102
{ACAD_REACTORS
330
A8AC
102
}
330
A8AC
100
AcDbIndex
 40
2453691.64859809
100
AcDbLayerIndex
  8
0
360
A8AE
 90
        0
  8
AM_0
360
A8AF
 90
      284
  8
AM_5
360
A8B0
 90
        6
  8
AM_7
360
A8B1
 90
        1
  8
AM_6
360
A8B2
 90
        1
  8
DEFPOINTS
360
A8B3
 90
        0
  8
AM_11
360
A8B4
 90
        4
  0
DICTIONARY
  5
A9F0
330
A920
100
AcDbDictionary
280
     1
281
     1
  3
ACAD_XREC_ROUNDTRIP
360
A9F1
  0
DICTIONARY
  5
A9F2
330
A921
100
AcDbDictionary
280
     1
281
     1
  3
ACAD_XREC_ROUNDTRIP
360
A9F3
  0
DICTIONARY
  5
A9EE
330
399D
100
AcDbDictionary
280
     1
281
     1
  3
ACAD_XREC_ROUNDTRIP
360
A9EF
  0
IDBUFFER
  5
A8AE
330
0
100
AcDbIdBuffer
  0
IDBUFFER
  5
A8AF
330
0
100
AcDbIdBuffer
330
9AC2
330
9AC3
330
9AC4
330
9AC5
330
9AC6
330
9AC7
330
9AC8
330
9AC9
330
9ACA
330
9ACB
330
9ACC
330
9ACD
330
9ACE
330
9ACF
330
9AD0
330
9AD4
330
9AD5
330
9AD6
330
9AD7
330
9AD8
330
9AD9
330
9ADA
330
9ADB
330
9ADC
330
9ADD
330
9ADE
330
9ADF
330
9AE0
330
9AE1
330
9AE2
330
9AE3
330
9AE4
330
9AE5
330
9AE6
330
9AE7
330
9AE8
330
9AE9
330
9AEA
330
9AEB
330
9AEC
330
9AED
330
9AEE
330
9AEF
330
9B0C
330
9B0D
330
9B0E
330
9B0F
330
9B10
330
9B11
330
9B12
330
9B13
330
9B14
330
9B15
330
9B16
330
9B17
330
9B18
330
9B2B
330
9B2C
330
9B2D
330
9B2E
330
9B2F
330
9B30
330
9B31
330
9B32
330
9B33
330
9B34
330
9B35
330
9B36
330
9B37
330
9B38
330
9B55
330
9B56
330
9B57
330
9B58
330
9B59
330
9B5A
330
9B5B
330
9B5C
330
9B5E
330
9B7D
330
9B7E
330
9B7F
330
9B80
330
9B81
330
9B82
330
9B83
330
9B84
330
9B94
330
9B95
330
9B96
330
9B97
330
9B98
330
9B99
330
9B9A
330
9B9B
330
9B9C
330
9B9D
330
9B9E
330
9B9F
330
9BA0
330
9BA1
330
9BA2
330
9BA3
330
9BA4
330
9BA5
330
9BA6
330
9BA7
330
9BA8
330
9BAD
330
9BAF
330
9BB0
330
9BB1
330
9C5A
330
9C5B
330
9C5C
330
9C5D
330
9C5E
330
9C5F
330
9C60
330
9C61
330
9C62
330
9C63
330
9C64
330
9C65
330
9C66
330
9C67
330
9C68
330
9C69
330
9C6A
330
9C6B
330
9C6C
330
9C6D
330
9C6E
330
9C6F
330
9C70
330
9C71
330
9C72
330
9C73
330
9C74
330
9C75
330
9C76
330
9C77
330
9C78
330
9C79
330
9C7A
330
9C7B
330
9C7C
330
9C7D
330
9C7E
330
9C7F
330
9C80
330
9C81
330
9C82
330
9C83
330
9C84
330
9C85
330
9C86
330
9C87
330
9C88
330
9C89
330
9C8A
330
9C8B
330
9C8C
330
9C8D
330
9C8E
330
9C8F
330
9C90
330
9C91
330
9C92
330
9C93
330
9C94
330
9C95
330
9C96
330
9C97
330
9C98
330
9C99
330
9C9A
330
9C9B
330
9C9C
330
9C9D
330
9C9E
330
9C9F
330
9CA0
330
9CA1
330
9CA2
330
9CA3
330
9CA4
330
9CA5
330
9CA6
330
9CA7
330
9CA8
330
9CA9
330
9CAA
330
9CAB
330
9CAC
330
9CAD
330
9CBB
330
9CBC
330
9CBD
330
9CBE
330
9CBF
330
9CC0
330
9CC1
330
9CC2
330
9CC3
330
9CC4
330
9CC5
330
9CC6
330
9CC7
330
9CC8
330
9CC9
330
9CCA
330
9CCB
330
9CCC
330
9CCD
330
9CCE
330
9CCF
330
9CD0
330
9CD1
330
9CD2
330
9CD3
330
9CD4
330
9CD5
330
9CD6
330
9CD7
330
9CD8
330
9CD9
330
9CDA
330
9CDB
330
9CDC
330
9CDD
330
9CDE
330
9CDF
330
9CE0
330
9CE1
330
9CE2
330
9CE3
330
9CE4
330
9CE5
330
9CE6
330
9CE7
330
9CE8
330
9CE9
330
9CEA
330
9CEB
330
9CED
330
9CEE
330
9CEF
330
9CF0
330
9CF1
330
9CF2
330
9CF3
330
9CF4
330
9CF5
330
9CF6
330
9CF7
330
9CF8
330
9CF9
330
9CFA
330
9CFB
330
9CFC
330
9CFD
330
9CFE
330
9CFF
330
9D00
330
9D01
330
9D02
330
9D03
330
9D04
330
9D05
330
9D06
330
9D07
330
9D08
330
9D09
330
9D0A
330
9D0B
330
9D0C
330
9D0D
330
9D0F
330
9D10
330
9D11
330
9D12
330
9D13
330
9D14
  0
IDBUFFER
  5
A8B0
330
0
100
AcDbIdBuffer
330
9DB1
330
9E46
330
9EFF
330
9F8B
330
A032
330
A0C7
  0
IDBUFFER
  5
A8B1
330
0
100
AcDbIdBuffer
330
9AD1
  0
IDBUFFER
  5
A8B2
330
0
100
AcDbIdBuffer
330
388D
  0
IDBUFFER
  5
A8B3
330
0
100
AcDbIdBuffer
  0
IDBUFFER
  5
A8B4
330
0
100
AcDbIdBuffer
330
9D9F
330
9DA0
330
9DA1
330
A586
  0
XRECORD
  5
A9F1
102
{ACAD_REACTORS
330
A9F0
102
}
330
A9F0
100
AcDbXrecord
280
     1
102
SHADEPLOT
 70
     0
102
SHADEPLOTRESLEVEL
 70
     2
102
SHADEPLOTCUSTOMDPI
 70
   300
  0
XRECORD
  5
A9F3
102
{ACAD_REACTORS
330
A9F2
102
}
330
A9F2
100
AcDbXrecord
280
     1
102
SHADEPLOT
 70
     0
102
SHADEPLOTRESLEVEL
 70
     2
102
SHADEPLOTCUSTOMDPI
 70
   300
  0
XRECORD
  5
A9EF
102
{ACAD_REACTORS
330
A9EE
102
}
330
A9EE
100
AcDbXrecord
280
     1
102
SHADEPLOT
 70
     0
102
SHADEPLOTRESLEVEL
 70
     2
102
SHADEPLOTCUSTOMDPI
 70
   300
  0
ENDSEC
  0
EOF
