  0
SECTION
  2
HEADER
  9
$ACADVER
  1
AC1015
  9
$ACADMAINTVER
 70
    20
  9
$DWGCODEPAGE
  3
ANSI_932
  9
$INSBASE
 10
0.0
 20
0.0
 30
0.0
  9
$EXTMIN
 10
-241.1111795888642
 20
-53.75988849753392
 30
0.0
  9
$EXTMAX
 10
16.55177407128877
 20
31.20000862939503
 30
0.0
  9
$LIMMIN
 10
-243.6548618359192
 20
-100.9944960197079
  9
$LIMMAX
 10
53.17069025975
 20
74.05200934077583
  9
$ORTHOMODE
 70
     0
  9
$REGENMODE
 70
     1
  9
$FILLMODE
 70
     1
  9
$QTEXTMODE
 70
     0
  9
$MIRRTEXT
 70
     0
  9
$LTSCALE
 40
1.0
  9
$ATTMODE
 70
     1
  9
$TEXTSIZE
 40
2.5
  9
$TRACEWID
 40
1.0
  9
$TEXTSTYLE
  7
STANDARD
  9
$CLAYER
  8
AM_0
  9
$CELTYPE
  6
BYLAYER
  9
$CECOLOR
 62
   256
  9
$CELTSCALE
 40
1.0
  9
$DISPSILH
 70
     0
  9
$DIMSCALE
 40
0.5
  9
$DIMASZ
 40
2.5
  9
$DIMEXO
 40
1.0
  9
$DIMDLI
 40
12.0
  9
$DIMRND
 40
0.0
  9
$DIMDLE
 40
0.0
  9
$DIMEXE
 40
1.0
  9
$DIMTP
 40
0.1
  9
$DIMTM
 40
0.1
  9
$DIMTXT
 40
3.2
  9
$DIMCEN
 40
0.0
  9
$DIMTSZ
 40
0.0
  9
$DIMTOL
 70
     0
  9
$DIMLIM
 70
     0
  9
$DIMTIH
 70
     0
  9
$DIMTOH
 70
     0
  9
$DIMSE1
 70
     0
  9
$DIMSE2
 70
     0
  9
$DIMTAD
 70
     3
  9
$DIMZIN
 70
     8
  9
$DIMBLK
  1
Open30
  9
$DIMASO
 70
     1
  9
$DIMSHO
 70
     1
  9
$DIMPOST
  1

  9
$DIMAPOST
  1
"
  9
$DIMALT
 70
     0
  9
$DIMALTD
 70
     2
  9
$DIMALTF
 40
0.0393701
  9
$DIMLFAC
 40
1.0
  9
$DIMTOFL
 70
     1
  9
$DIMTVP
 40
0.0
  9
$DIMTIX
 70
     0
  9
$DIMSOXD
 70
     0
  9
$DIMSAH
 70
     0
  9
$DIMBLK1
  1

  9
$DIMBLK2
  1

  9
$DIMSTYLE
  2
AM_JIS
  9
$DIMCLRD
 70
   256
  9
$DIMCLRE
 70
   256
  9
$DIMCLRT
 70
     2
  9
$DIMTFAC
 40
0.71
  9
$DIMGAP
 40
1.5
  9
$DIMJUST
 70
     0
  9
$DIMSD1
 70
     0
  9
$DIMSD2
 70
     0
  9
$DIMTOLJ
 70
     0
  9
$DIMTZIN
 70
     0
  9
$DIMALTZ
 70
     0
  9
$DIMALTTZ
 70
     0
  9
$DIMUPT
 70
     0
  9
$DIMDEC
 70
     3
  9
$DIMTDEC
 70
     3
  9
$DIMALTU
 70
     2
  9
$DIMALTTD
 70
     2
  9
$DIMTXSTY
  7
ASAMI
  9
$DIMAUNIT
 70
     0
  9
$DIMADEC
 70
     0
  9
$DIMALTRND
 40
0.0
  9
$DIMAZIN
 70
     2
  9
$DIMDSEP
 70
    46
  9
$DIMATFIT
 70
     3
  9
$DIMFRAC
 70
     0
  9
$DIMLDRBLK
  1
Open30
  9
$DIMLUNIT
 70
     2
  9
$DIMLWD
 70
    -1
  9
$DIMLWE
 70
    -1
  9
$DIMTMOVE
 70
     0
  9
$LUNITS
 70
     2
  9
$LUPREC
 70
     2
  9
$SKETCHINC
 40
1.0
  9
$FILLETRAD
 40
0.4
  9
$AUNITS
 70
     0
  9
$AUPREC
 70
     0
  9
$MENU
  1
.
  9
$ELEVATION
 40
0.0
  9
$PELEVATION
 40
0.0
  9
$THICKNESS
 40
0.0
  9
$LIMCHECK
 70
     1
  9
$CHAMFERA
 40
1.0
  9
$CHAMFERB
 40
1.0
  9
$CHAMFERC
 40
20.0
  9
$CHAMFERD
 40
0.0
  9
$SKPOLY
 70
     0
  9
$TDCREATE
 40
2452802.716478762
  9
$TDUCREATE
 40
2452802.341478762
  9
$TDUPDATE
 40
2453691.649317129
  9
$TDUUPDATE
 40
2453691.274317129
  9
$TDINDWG
 40
0.9310027315
  9
$TDUSRTIMER
 40
0.9310025579
  9
$USRTIMER
 70
     1
  9
$ANGBASE
 50
0.0
  9
$ANGDIR
 70
     0
  9
$PDMODE
 70
     0
  9
$PDSIZE
 40
0.0
  9
$PLINEWID
 40
0.0
  9
$SPLFRAME
 70
     0
  9
$SPLINETYPE
 70
     6
  9
$SPLINESEGS
 70
     8
  9
$HANDSEED
  5
B11B
  9
$SURFTAB1
 70
     6
  9
$SURFTAB2
 70
     6
  9
$SURFTYPE
 70
     6
  9
$SURFU
 70
     6
  9
$SURFV
 70
     6
  9
$UCSBASE
  2

  9
$UCSNAME
  2

  9
$UCSORG
 10
-0.0000000000002682
 20
0.000000000000161
 30
0.0
  9
$UCSXDIR
 10
1.0
 20
0.000000000000002
 30
0.0
  9
$UCSYDIR
 10
-0.000000000000002
 20
1.0
 30
0.0
  9
$UCSORTHOREF
  2

  9
$UCSORTHOVIEW
 70
     0
  9
$UCSORGTOP
 10
0.0
 20
0.0
 30
0.0
  9
$UCSORGBOTTOM
 10
0.0
 20
0.0
 30
0.0
  9
$UCSORGLEFT
 10
0.0
 20
0.0
 30
0.0
  9
$UCSORGRIGHT
 10
0.0
 20
0.0
 30
0.0
  9
$UCSORGFRONT
 10
0.0
 20
0.0
 30
0.0
  9
$UCSORGBACK
 10
0.0
 20
0.0
 30
0.0
  9
$PUCSBASE
  2

  9
$PUCSNAME
  2

  9
$PUCSORG
 10
0.0
 20
0.0
 30
0.0
  9
$PUCSXDIR
 10
1.0
 20
0.0
 30
0.0
  9
$PUCSYDIR
 10
0.0
 20
1.0
 30
0.0
  9
$PUCSORTHOREF
  2

  9
$PUCSORTHOVIEW
 70
     0
  9
$PUCSORGTOP
 10
0.0
 20
0.0
 30
0.0
  9
$PUCSORGBOTTOM
 10
0.0
 20
0.0
 30
0.0
  9
$PUCSORGLEFT
 10
0.0
 20
0.0
 30
0.0
  9
$PUCSORGRIGHT
 10
0.0
 20
0.0
 30
0.0
  9
$PUCSORGFRONT
 10
0.0
 20
0.0
 30
0.0
  9
$PUCSORGBACK
 10
0.0
 20
0.0
 30
0.0
  9
$USERI1
 70
     0
  9
$USERI2
 70
     0
  9
$USERI3
 70
     0
  9
$USERI4
 70
     0
  9
$USERI5
 70
     0
  9
$USERR1
 40
0.0
  9
$USERR2
 40
0.0
  9
$USERR3
 40
0.0
  9
$USERR4
 40
0.0
  9
$USERR5
 40
0.0
  9
$WORLDVIEW
 70
     1
  9
$SHADEDGE
 70
     3
  9
$SHADEDIF
 70
    70
  9
$TILEMODE
 70
     1
  9
$MAXACTVP
 70
    64
  9
$PINSBASE
 10
0.0
 20
0.0
 30
0.0
  9
$PLIMCHECK
 70
     0
  9
$PEXTMIN
 10
1.000000000000000E+20
 20
1.000000000000000E+20
 30
1.000000000000000E+20
  9
$PEXTMAX
 10
-1.000000000000000E+20
 20
-1.000000000000000E+20
 30
-1.000000000000000E+20
  9
$PLIMMIN
 10
0.0
 20
0.0
  9
$PLIMMAX
 10
841.0
 20
594.0
  9
$UNITMODE
 70
     0
  9
$VISRETAIN
 70
     1
  9
$PLINEGEN
 70
     0
  9
$PSLTSCALE
 70
     0
  9
$TREEDEPTH
 70
  3020
  9
$CMLSTYLE
  2
STANDARD
  9
$CMLJUST
 70
     0
  9
$CMLSCALE
 40
20.0
  9
$PROXYGRAPHICS
 70
     1
  9
$MEASUREMENT
 70
     1
  9
$CELWEIGHT
370
    -1
  9
$ENDCAPS
280
     0
  9
$JOINSTYLE
280
     0
  9
$LWDISPLAY
290
     0
  9
$INSUNITS
 70
     4
  9
$HYPERLINKBASE
  1

  9
$STYLESHEET
  1
asami.ctb
  9
$XEDIT
290
     1
  9
$CEPSNTYPE
380
     0
  9
$PSTYLEMODE
290
     1
  9
$FINGERPRINTGUID
  2
{AFB28963-8C59-40AE-9337-C84526B81ACE}
  9
$VERSIONGUID
  2
{B36E39A9-B7B9-4549-AEDE-8257286C10E8}
  9
$EXTNAMES
290
     1
  9
$PSVPSCALE
 40
0.0
  9
$OLESTARTUP
290
     0
  0
ENDSEC
  0
SECTION
  2
CLASSES
  0
CLASS
  1
ACDBDICTIONARYWDFLT
  2
AcDbDictionaryWithDefault
  3
ObjectDBX Classes
 90
        0
280
     0
281
     0
  0
CLASS
  1
ACDBPLACEHOLDER
  2
AcDbPlaceHolder
  3
ObjectDBX Classes
 90
        0
280
     0
281
     0
  0
CLASS
  1
LAYOUT
  2
AcDbLayout
  3
ObjectDBX Classes
 90
        0
280
     0
281
     0
  0
CLASS
  1
AMGSETTINGSOBJ
  2
AmgSettingsObj
  3
"AcadM|Product Description: AutoCAD Mechanical 2000|Company: Autodesk"
 90
        0
280
     0
281
     0
  0
CLASS
  1
ACME_DOCUMENT
  2
AcMeDbDoc
  3
AcMeServices
 90
        0
280
     0
281
     0
  0
CLASS
  1
ACMESCOPE
  2
AcMeScope
  3
AcMeServices
 90
        0
280
     0
281
     0
  0
CLASS
  1
ACMECOMMANDHISTORY
  2
AcMeCommandHistory
  3
AcMeServices
 90
        0
280
     0
281
     0
  0
CLASS
  1
DICTIONARYVAR
  2
AcDbDictionaryVar
  3
ObjectDBX Classes
 90
        0
280
     0
281
     0
  0
CLASS
  1
ACIMSYSVARMAN
  2
AcImSysVarManager
  3
AcMeServices
 90
        0
280
     0
281
     0
  0
CLASS
  1
ACIMREALSYSVAR
  2
AcImRealSysVar
  3
AcMeServices
 90
        0
280
     0
281
     0
  0
CLASS
  1
ACIMINTSYSVAR
  2
AcImIntSysVar
  3
AcMeServices
 90
        0
280
     0
281
     0
  0
CLASS
  1
ACMEDRAWINGMAN
  2
AcMeDrawingMan
  3
AcMeServices
 90
        0
280
     0
281
     0
  0
CLASS
  1
ACMEVIEW
  2
AcMeView
  3
AcMeServices
 90
        0
280
     0
281
     0
  0
CLASS
  1
ACDBENTITYCACHE
  2
AcMeEntityCache
  3
AcMeServices
 90
        0
280
     0
281
     0
  0
CLASS
  1
GSMANAGER
  2
AcMeGSManager
  3
AcMeServices
 90
        0
280
     0
281
     0
  0
CLASS
  1
AMDTINTERNALREACTOR
  2
AmdtInternalReactor
  3
AcMeServices
 90
        0
280
     0
281
     0
  0
CLASS
  1
ACMESTATEMGR
  2
AcMeStateMgr
  3
AcMeServices
 90
        0
280
     0
281
     0
  0
CLASS
  1
ACME_DATABASE
  2
AcMeDbDatabase
  3
AcMeServices
 90
        0
280
     0
281
     0
  0
CLASS
  1
ACRFINSADJUSTERMGR
  2
AcRfInsAdjusterMgr
  3
AcMeServices
 90
        0
280
     0
281
     0
  0
CLASS
  1
ACMDATADICTIONARY
  2
AcmDataDictionary
  3
"AcmSymBB|Product Description: AutoCAD Mechanical 2004 DX|Company: Autodesk"
 90
        0
280
     0
281
     0
  0
CLASS
  1
ACMDATAENTRYBLOCK
  2
AcmDataEntryBlock
  3
"AcmSymBB|Product Description: AutoCAD Mechanical 2004 DX|Company: Autodesk"
 90
    32768
280
     0
281
     0
  0
CLASS
  1
AMGOBJPROPCFG
  2
AmgObjPropCfg
  3
"AmgLay|Product Description: AutoCAD Mechanical 2000|Company: Autodesk"
 90
        1
280
     0
281
     0
  0
CLASS
  1
ACAMGFILTERDAT
  2
AcAmgFilterDat
  3
"AcadM|Product Description: AutoCAD Mechanical 2000|Company: Autodesk"
 90
    32768
280
     0
281
     0
  0
CLASS
  1
LAYER_INDEX
  2
AcDbLayerIndex
  3
ObjectDBX Classes
 90
        0
280
     0
281
     0
  0
CLASS
  1
IDBUFFER
  2
AcDbIdBuffer
  3
ObjectDBX Classes
 90
        0
280
     0
281
     0
  0
CLASS
  1
ACIMSTRSYSVAR
  2
AcImStrSysVar
  3
AcMeServices
 90
        0
280
     0
281
     0
  0
CLASS
  1
ACMSTANDARDJIS
  2
AcmStandardJIS
  3
"Amdt_StdImp|Product Description: AutoCAD Mechanical 2004 DX|Company: Autodesk"
 90
        0
280
     0
281
     0
  0
CLASS
  1
ACMSURFSTANDARDJIS
  2
AcmSurfTextStdJIS
  3
"Amdt_StdImp|Product Description: AutoCAD Mechanical 2004 DX|Company: Autodesk"
 90
        0
280
     0
281
     0
  0
CLASS
  1
ACMFCFSTANDARDJIS
  2
AcmFCFStdJIS
  3
"Amdt_StdImp|Product Description: AutoCAD Mechanical 2004 DX|Company: Autodesk"
 90
    32768
280
     0
281
     0
  0
CLASS
  1
ACMWELDSTANDARDJIS
  2
AcmWeldingStdJIS
  3
"Amdt_StdImp|Product Description: AutoCAD Mechanical 2004 DX|Company: Autodesk"
 90
        0
280
     0
281
     0
  0
CLASS
  1
ACMIDSTANDARDJIS
  2
AcmIdStdJIS
  3
"Amdt_StdImp|Product Description: AutoCAD Mechanical 2004 DX|Company: Autodesk"
 90
        0
280
     0
281
     0
  0
CLASS
  1
ACMDATUMSTANDARDJIS
  2
AcmDatumStdJIS
  3
"Amdt_StdImp|Product Description: AutoCAD Mechanical 2004 DX|Company: Autodesk"
 90
        0
280
     0
281
     0
  0
CLASS
  1
ACMBOMSTANDARDJIS
  2
AcmBOMStdJIS
  3
"Amdt_StdImp|Product Description: AutoCAD Mechanical 2004 DX|Company: Autodesk"
 90
        0
280
     0
281
     0
  0
CLASS
  1
ACMSTANDARDANSI
  2
AcmStandardANSI
  3
"Amdt_StdImp|Product Description: AutoCAD Mechanical 2004 DX|Company: Autodesk"
 90
    32768
280
     0
281
     0
  0
CLASS
  1
ACMSURFSTANDARDANSI
  2
AcmSurfTextStdANSI
  3
"Amdt_StdImp|Product Description: AutoCAD Mechanical 2004 DX|Company: Autodesk"
 90
    32768
280
     0
281
     0
  0
CLASS
  1
ACMFCFSTANDARDANSI
  2
AcmFCFStdANSI
  3
"Amdt_StdImp|Product Description: AutoCAD Mechanical 2004 DX|Company: Autodesk"
 90
    32768
280
     0
281
     0
  0
CLASS
  1
ACMWELDSTANDARDANSI
  2
AcmWeldingStdANSI
  3
"Amdt_StdImp|Product Description: AutoCAD Mechanical 2004 DX|Company: Autodesk"
 90
    32768
280
     0
281
     0
  0
CLASS
  1
ACMIDSTANDARDANSI
  2
AcmIdStdANSI
  3
"Amdt_StdImp|Product Description: AutoCAD Mechanical 2004 DX|Company: Autodesk"
 90
    32768
280
     0
281
     0
  0
CLASS
  1
ACMDATUMSTANDARDANSI
  2
AcmDatumStdANSI
  3
"Amdt_StdImp|Product Description: AutoCAD Mechanical 2004 DX|Company: Autodesk"
 90
    32768
280
     0
281
     0
  0
CLASS
  1
ACMBOMSTANDARDANSI
  2
AcmBOMStdANSI
  3
"Amdt_StdImp|Product Description: AutoCAD Mechanical 2004 DX|Company: Autodesk"
 90
    32768
280
     0
281
     0
  0
CLASS
  1
ACMSTANDARDBSI
  2
AcmStandardBSI
  3
"Amdt_StdImp|Product Description: AutoCAD Mechanical 2004 DX|Company: Autodesk"
 90
    32768
280
     0
281
     0
  0
CLASS
  1
ACMSURFSTANDARDBSI
  2
AcmSurfTextStdBSI
  3
"Amdt_StdImp|Product Description: AutoCAD Mechanical 2004 DX|Company: Autodesk"
 90
    32768
280
     0
281
     0
  0
CLASS
  1
ACMFCFSTANDARDBSI
  2
AcmFCFStdBSI
  3
"Amdt_StdImp|Product Description: AutoCAD Mechanical 2004 DX|Company: Autodesk"
 90
    32768
280
     0
281
     0
  0
CLASS
  1
ACMWELDSTANDARDBSI
  2
AcmWeldingStdBSI
  3
"Amdt_StdImp|Product Description: AutoCAD Mechanical 2004 DX|Company: Autodesk"
 90
    32768
280
     0
281
     0
  0
CLASS
  1
ACMIDSTANDARDBSI
  2
AcmIdStdBSI
  3
"Amdt_StdImp|Product Description: AutoCAD Mechanical 2004 DX|Company: Autodesk"
 90
    32768
280
     0
281
     0
  0
CLASS
  1
ACMDATUMSTANDARDBSI
  2
AcmDatumStdBSI
  3
"Amdt_StdImp|Product Description: AutoCAD Mechanical 2004 DX|Company: Autodesk"
 90
    32768
280
     0
281
     0
  0
CLASS
  1
ACMBOMSTANDARDBSI
  2
AcmBOMStdBSI
  3
"Amdt_StdImp|Product Description: AutoCAD Mechanical 2004 DX|Company: Autodesk"
 90
    32768
280
     0
281
     0
  0
CLASS
  1
STDPART2D
  2
AmgStdPart
  3
"AmgStdPart|Product Description: AutoCAD Mechanical 2000|Company: Autodesk"
 90
    33791
280
     0
281
     1
  0
CLASS
  1
PLOTSETTINGS
  2
AcDbPlotSettings
  3
ObjectDBX Classes
 90
        0
280
     0
281
     0
  0
CLASS
  1
TABLESTYLE
  2
AcDbTableStyle
  3
ObjectDBX Classes
 90
     2047
280
     0
281
     0
  0
CLASS
  1
ACGREFMASTER
  2
AcGrefMaster
  3
AcAttribServices
 90
        0
280
     0
281
     0
  0
CLASS
  1
AM_DRAWING_MGR
  2
AcDmDwgMgr
  3
AcMechDwgViewMgmt
 90
        0
280
     0
281
     0
  0
CLASS
  1
AM_DWG_DOCUMENT
  2
AcDmDwgDocument
  3
AcMechDwgViewMgmt
 90
        0
280
     0
281
     0
  0
CLASS
  1
AM_DWG_SHEET
  2
AcDmSheet
  3
AcMechDwgViewMgmt
 90
        0
280
     0
281
     0
  0
CLASS
  1
AM_VIEWDIMPARMAP
  2
AcDmViewDimParMap
  3
AcMechDwgViewMgmt
 90
        0
280
     0
281
     0
  0
CLASS
  1
AM_DWGMGR_NAME
  2
AcDmDwgMgrName
  3
AcMechDwgViewMgmt
 90
        0
280
     0
281
     0
  0
CLASS
  1
ACGREFACADMASTER
  2
AcGrefacadMaster
  3
AcGrefServices
 90
        0
280
     0
281
     0
  0
CLASS
  1
AMDTMENUSTATEMGR
  2
AmdtMenuStateMgr
  3
McadcomServices
 90
        0
280
     0
281
     0
  0
CLASS
  1
AMDTMCOMMENUSTATE
  2
AmdtMcomMenuState
  3
McadcomServices
 90
        0
280
     0
281
     0
  0
CLASS
  1
AMIMASTER
  2
AmiMaster
  3
AmiServices
 90
        0
280
     0
281
     0
  0
CLASS
  1
MAPIAMMOUDLE
  2
MApiAmModule
  3
MApiAmServices
 90
        0
280
     0
281
     0
  0
CLASS
  1
AMDTADMENUSTATE
  2
AmdtAdMenuState
  3
DesignerServices
 90
        0
280
     0
281
     0
  0
CLASS
  1
ADAPPL
  2
AcAdAppl
  3
DesignerServices
 90
        0
280
     0
281
     0
  0
CLASS
  1
DEPMGR
  2
AcAdDepMgr
  3
DesignerServices
 90
        0
280
     0
281
     0
  0
CLASS
  1
PARAMMGR
  2
AcAdParamMgr
  3
DesignerServices
 90
        0
280
     0
281
     0
  0
CLASS
  1
PARAMSCOPE
  2
AcAdParamScope
  3
DesignerServices
 90
        0
280
     0
281
     0
  0
CLASS
  1
NAMEDAPPL
  2
AcAdNamedAppl
  3
DesignerServices
 90
        0
280
     0
281
     0
  0
CLASS
  1
AMDTDMMENUSTATE
  2
AmdtDmMenuState
  3
AcMechDwgViewMgmt
 90
        0
280
     0
281
     0
  0
CLASS
  1
AMDTAMMENUSTATE
  2
AmdtAmMenuState
  3
DesignerAssemblies
 90
        0
280
     0
281
     0
  0
CLASS
  1
ACAMPROJECT
  2
AcAmProject
  3
DesignerAssemblies
 90
        0
280
     0
281
     0
  0
CLASS
  1
ACAMGRCOMPDEF
  2
AcAmGrCompDef
  3
DesignerAssemblies
 90
        0
280
     0
281
     0
  0
CLASS
  1
ACCMCONTEXT
  2
AcCmContext
  3
DesignerAssemblies
 90
        0
280
     0
281
     0
  0
CLASS
  1
ACAMCOMPDEF
  2
AcAmCompDef
  3
DesignerAssemblies
 90
        0
280
     0
281
     0
  0
CLASS
  1
ACAMCOMPDEFMGR
  2
AcAmCompDefMgr
  3
DesignerAssemblies
 90
        0
280
     0
281
     0
  0
CLASS
  1
AMCONTEXTMGR
  2
AcAmContextMgr
  3
DesignerAssemblies
 90
        0
280
     0
281
     0
  0
CLASS
  1
ACAMCONTEXTMODELER
  2
AcAmContextModeler
  3
DesignerAssemblies
 90
        0
280
     0
281
     0
  0
CLASS
  1
CATALOGSTATE
  2
AcAmCatalogState
  3
DesignerAssemblies
 90
        0
280
     0
281
     0
  0
CLASS
  1
ACAMGRCOMPDEFSET
  2
AcAmGrCompDefSet
  3
DesignerAssemblies
 90
        0
280
     0
281
     0
  0
CLASS
  1
AMDTBROWSERDBTAB
  2
AmdtBrowserDbTab
  3
McadcomServices
 90
        0
280
     0
281
     0
  0
CLASS
  1
CBROWSERAPPOBJECT
  2
CBrowserAppObject
  3
McadcomServices
 90
        0
280
     0
281
     0
  0
CLASS
  1
DM_PLACEHOLDER
  2
AcDmSelsetPlaceholder
  3
AcMechDwgViewMgmt
 90
        0
280
     0
281
     0
  0
CLASS
  1
ACMSTANDARDISO
  2
AcmStandardISO
  3
"Amdt_StdImp|Product Description: AutoCAD Mechanical 2004 DX|Company: Autodesk"
 90
        0
280
     0
281
     0
  0
CLASS
  1
AMDTEDGESTANDARDISO
  2
AmdtEdgeStdISO
  3
"Amdt_StdImp|Product Description: AutoCAD Mechanical 2004 DX|Company: Autodesk"
 90
        0
280
     0
281
     0
  0
CLASS
  1
ACMSURFSTANDARDISO
  2
AcmSurfTextStdISO
  3
"Amdt_StdImp|Product Description: AutoCAD Mechanical 2004 DX|Company: Autodesk"
 90
        0
280
     0
281
     0
  0
CLASS
  1
ACMFCFSTANDARDISO
  2
AcmFCFStdISO
  3
"Amdt_StdImp|Product Description: AutoCAD Mechanical 2004 DX|Company: Autodesk"
 90
        0
280
     0
281
     0
  0
CLASS
  1
ACMWELDSTANDARDISO
  2
AcmWeldingStdISO
  3
"Amdt_StdImp|Product Description: AutoCAD Mechanical 2004 DX|Company: Autodesk"
 90
        0
280
     0
281
     0
  0
CLASS
  1
ACMIDSTANDARDISO
  2
AcmIdStdISO
  3
"Amdt_StdImp|Product Description: AutoCAD Mechanical 2004 DX|Company: Autodesk"
 90
        0
280
     0
281
     0
  0
CLASS
  1
ACMDATUMSTANDARDISO
  2
AcmDatumStdISO
  3
"Amdt_StdImp|Product Description: AutoCAD Mechanical 2004 DX|Company: Autodesk"
 90
        0
280
     0
281
     0
  0
CLASS
  1
ACMBOMSTANDARDISO
  2
AcmBOMStdISO
  3
"Amdt_StdImp|Product Description: AutoCAD Mechanical 2004 DX|Company: Autodesk"
 90
        0
280
     0
281
     0
  0
CLASS
  1
ACMDETAILSTANDARDISO
  2
AmdtDetailSymStdISO
  3
"Amdt_StdImp|Product Description: AutoCAD Mechanical 2004 DX|Company: Autodesk"
 90
        0
280
     0
281
     0
  0
CLASS
  1
ACMSECTIONSTANDARDISO
  2
AmdtSectionSymStdISO
  3
"Amdt_StdImp|Product Description: AutoCAD Mechanical 2004 DX|Company: Autodesk"
 90
        0
280
     0
281
     0
  0
CLASS
  1
ACMCENTERLINESTANDARDISO
  2
AmdtCenterLineStdISO
  3
"Amdt_StdImp|Product Description: AutoCAD Mechanical 2004 DX|Company: Autodesk"
 90
        0
280
     0
281
     0
  0
CLASS
  1
ACMNOTESTANDARDISO
  2
AmdtNoteStdISO
  3
"Amdt_StdImp|Product Description: AutoCAD Mechanical 2004 DX|Company: Autodesk"
 90
        0
280
     0
281
     0
  0
CLASS
  1
AMDTNOTETEMPLATEDB
  2
AmdtNoteTemplateDB
  3
AMDT_STDIMP_MODULE_NAME
 90
        0
280
     0
281
     0
  0
CLASS
  1
ACAMGLAYSTD
  2
AcAmgLayStd
  3
"AcAmgLayStd|Product Description: AutoCAD Mechanical 2000|Company: Autodesk"
 90
        0
280
     0
281
     0
  0
CLASS
  1
ACAMGDIMSTD
  2
AcAmgDimStd
  3
"AcAmgDimStd|Product Description: AutoCAD Mechanical 2000|Company: Autodesk"
 90
        0
280
     0
281
     0
  0
CLASS
  1
ACAMGHOLECHARTSTDISO
  2
AcAmgHoleChartStdISO
  3
ACMSYMBB_MODULE_NAME
 90
        0
280
     0
281
     0
  0
CLASS
  1
ACAMGTITLESTD
  2
AcAmgTitleStd
  3
"TITLEAPP"
 90
        0
280
     0
281
     0
  0
CLASS
  1
ACMTHREADLINESTANDARDISO
  2
AmdtThreadLineStdISO
  3
"Amdt_StdImp|Product Description: AutoCAD Mechanical 2004 DX|Company: Autodesk"
 90
        0
280
     0
281
     0
  0
CLASS
  1
ACMFCFSTANDARDJIS98
  2
AcmFCFStdJIS98
  3
"Amdt_StdImp|Product Description: AutoCAD Mechanical 2004 DX|Company: Autodesk"
 90
        0
280
     0
281
     0
  0
CLASS
  1
ACMDETAILSTANDARDJIS
  2
AmdtDetailSymStdJIS
  3
"Amdt_StdImp|Product Description: AutoCAD Mechanical 2004 DX|Company: Autodesk"
 90
        0
280
     0
281
     0
  0
CLASS
  1
ACMSECTIONSTANDARDJIS
  2
AmdtSectionSymStdJIS
  3
"Amdt_StdImp|Product Description: AutoCAD Mechanical 2004 DX|Company: Autodesk"
 90
        0
280
     0
281
     0
  0
CLASS
  1
ACMCENTERLINESTANDARDJIS
  2
AmdtCenterLineStdJIS
  3
"Amdt_StdImp|Product Description: AutoCAD Mechanical 2004 DX|Company: Autodesk"
 90
        0
280
     0
281
     0
  0
CLASS
  1
ACMTHREADLINESTANDARDJIS
  2
AmdtThreadLineStdJIS
  3
"Amdt_StdImp|Product Description: AutoCAD Mechanical 2004 DX|Company: Autodesk"
 90
        0
280
     0
281
     0
  0
CLASS
  1
ACMNOTESTANDARDJIS
  2
AmdtNoteStdJIS
  3
"Amdt_StdImp|Product Description: AutoCAD Mechanical 2004 DX|Company: Autodesk"
 90
        0
280
     0
281
     0
  0
CLASS
  1
ACAMGHOLECHARTSTDJIS
  2
AcAmgHoleChartStdJIS
  3
ACMSYMBB_MODULE_NAME
 90
        0
280
     0
281
     0
  0
ENDSEC
  0
SECTION
  2
TABLES
  0
TABLE
  2
VPORT
  5
8
330
0
100
AcDbSymbolTable
 70
     3
  0
VPORT
  5
B110
330
8
100
AcDbSymbolTableRecord
100
AcDbViewportTableRecord
  2
*Active
 70
     0
 10
0.0
 20
0.0
 11
1.0
 21
1.0
 12
-90.58079849268356
 22
-6.155857552896208
 13
0.0
 23
0.0
 14
2.5
 24
2.5
 15
10.0
 25
10.0
 16
0.0
 26
0.0
 36
1.0
 17
0.0
 27
0.0
 37
0.0
 40
218.026948447148
 41
1.732758620689655
 42
50.0
 43
0.0
 44
0.0
 50
0.0
 51
0.0
 71
     0
 72
   100
 73
     1
 74
     3
 75
     0
 76
     0
 77
     0
 78
     0
281
     0
 65
     1
110
-0.0000000000002682
120
0.000000000000161
130
0.0
111
1.0
121
0.000000000000002
131
0.0
112
-0.000000000000002
122
1.0
132
0.0
 79
     0
146
0.0
  0
ENDTAB
  0
TABLE
  2
LTYPE
  5
5
330
0
100
AcDbSymbolTable
 70
    17
  0
LTYPE
  5
14
330
5
100
AcDbSymbolTableRecord
100
AcDbLinetypeTableRecord
  2
BYBLOCK
 70
     0
  3

 72
    65
 73
     0
 40
0.0
  0
LTYPE
  5
15
330
5
100
AcDbSymbolTableRecord
100
AcDbLinetypeTableRecord
  2
BYLAYER
 70
     0
  3

 72
    65
 73
     0
 40
0.0
  0
LTYPE
  5
16
330
5
100
AcDbSymbolTableRecord
100
AcDbLinetypeTableRecord
  2
CONTINUOUS
 70
     0
  3
Solid line
 72
    65
 73
     0
 40
0.0
  0
LTYPE
  5
4B
330
5
100
AcDbSymbolTableRecord
100
AcDbLinetypeTableRecord
  2
AM_ISO02W050
 70
     0
  3
__ __ __ __ __ __ __ __ __ __ __ __ __ __ __
 72
    65
 73
     2
 40
7.5
 49
6.0
 74
     0
 49
-1.5
 74
     0
  0
LTYPE
  5
4C
330
5
100
AcDbSymbolTableRecord
100
AcDbLinetypeTableRecord
  2
AM_ISO08W050
 70
     0
  3
____ . ____ . ____ . ____ . ____ . ____ . ____
 72
    65
 73
     4
 40
18.0
 49
12.0
 74
     0
 49
-1.5
 74
     0
 49
3.0
 74
     0
 49
-1.5
 74
     0
  0
LTYPE
  5
4D
330
5
100
AcDbSymbolTableRecord
100
AcDbLinetypeTableRecord
  2
AM_ISO09W050
 70
     0
  3
_____ . . _____ . . _____ . . ____ .. ____
 72
    65
 73
     6
 40
22.5
 49
12.0
 74
     0
 49
-1.5
 74
     0
 49
3.0
 74
     0
 49
-1.5
 74
     0
 49
3.0
 74
     0
 49
-1.5
 74
     0
  0
LTYPE
  5
4E
330
5
100
AcDbSymbolTableRecord
100
AcDbLinetypeTableRecord
  2
Amconstr
 70
     0
  3
_______________________
 72
    65
 73
     2
 40
9999.0
 49
9999.0
 74
     0
 49
0.0
 74
     0
  0
LTYPE
  5
4F
330
5
100
AcDbSymbolTableRecord
100
AcDbLinetypeTableRecord
  2
AM_ISO02W050x2
 70
     0
  3
 _ _ _ _ _ _ _ _ _ _ _ _
 72
    65
 73
     2
 40
3.75
 49
3.0
 74
     0
 49
-0.75
 74
     0
  0
LTYPE
  5
50
330
5
100
AcDbSymbolTableRecord
100
AcDbLinetypeTableRecord
  2
AM_ISO08W050x2
 70
     0
  3
__ . __ . __ . __ . __ . __
 72
    65
 73
     4
 40
9.0
 49
6.0
 74
     0
 49
-0.75
 74
     0
 49
1.5
 74
     0
 49
-0.75
 74
     0
  0
LTYPE
  5
53
330
5
100
AcDbSymbolTableRecord
100
AcDbLinetypeTableRecord
  2
Amzigzag
 70
     0
  3
/\/-/\/-/\/-/\/-/\/-/\/
 72
    65
 73
     2
 40
11.0001
 49
0.0001
 74
     4
 75
   135
340
52
 46
0.04
 50
0.0
 44
0.0
 45
0.0
 49
-11.0
 74
     0
  0
LTYPE
  5
166
330
5
100
AcDbSymbolTableRecord
100
AcDbLinetypeTableRecord
  2
ACJISTGL
 70
     0
  3
_ _ _ _ _
 72
    65
 73
     2
 40
3.0
 49
2.0
 74
     0
 49
-1.0
 74
     0
  0
LTYPE
  5
26A
330
5
100
AcDbSymbolTableRecord
100
AcDbLinetypeTableRecord
  2
ACJISTGB
 70
     0
  3
__ . . __ . .
 72
    65
 73
     6
 40
9.0
 49
4.0
 74
     0
 49
-1.0
 74
     0
 49
1.0
 74
     0
 49
-1.0
 74
     0
 49
1.0
 74
     0
 49
-1.0
 74
     0
  0
LTYPE
  5
B086
330
5
100
AcDbSymbolTableRecord
100
AcDbLinetypeTableRecord
  2
HIDDEN
 70
     0
  3
Hidden __ __ __ __ __ __ __ __ __ __ __ __ __ _
 72
    65
 73
     2
 40
9.524999999999998
 49
6.349999999999999
 74
     0
 49
-3.174999999999999
 74
     0
  0
LTYPE
  5
B087
330
5
100
AcDbSymbolTableRecord
100
AcDbLinetypeTableRecord
  2
PHANTOM2
 70
     0
  3
Phantom (.5x) ___ _ _ ___ _ _ ___ _ _ ___ _ _
 72
    65
 73
     6
 40
31.75
 49
15.875
 74
     0
 49
-3.174999999999999
 74
     0
 49
3.174999999999999
 74
     0
 49
-3.174999999999999
 74
     0
 49
3.174999999999999
 74
     0
 49
-3.174999999999999
 74
     0
  0
LTYPE
  5
B088
330
5
100
AcDbSymbolTableRecord
100
AcDbLinetypeTableRecord
  2
CENTER
 70
     0
  3
__ . __
 72
    65
 73
     4
 40
7.0
 49
4.0
 74
     0
 49
-1.0
 74
     0
 49
1.0
 74
     0
 49
-1.0
 74
     0
  0
LTYPE
  5
B0B9
330
5
100
AcDbSymbolTableRecord
100
AcDbLinetypeTableRecord
  2
ACISOWELD
 70
     0
  3
_ _ _ _ _
 72
    65
 73
     2
 40
2.0
 49
2.0
 74
     0
 49
-1.0
 74
     0
  0
LTYPE
  5
B0BC
330
5
100
AcDbSymbolTableRecord
100
AcDbLinetypeTableRecord
  2
ACISOTGB
 70
     0
  3
__ . . __ . .
 72
    65
 73
     6
 40
9.0
 49
4.0
 74
     0
 49
-1.0
 74
     0
 49
1.0
 74
     0
 49
-1.0
 74
     0
 49
1.0
 74
     0
 49
-1.0
 74
     0
  0
LTYPE
  5
B0BD
330
5
100
AcDbSymbolTableRecord
100
AcDbLinetypeTableRecord
  2
ACISOTGL
 70
     0
  3
_ _ _ _ _
 72
    65
 73
     2
 40
3.0
 49
2.0
 74
     0
 49
-1.0
 74
     0
  0
LTYPE
  5
B0E6
330
5
100
AcDbSymbolTableRecord
100
AcDbLinetypeTableRecord
  2
ACJISWELD
 70
     0
  3
_ _ _ _ _
 72
    65
 73
     2
 40
2.0
 49
2.0
 74
     0
 49
-1.0
 74
     0
  0
ENDTAB
  0
TABLE
  2
LAYER
  5
2
330
0
100
AcDbSymbolTable
 70
     8
  0
LAYER
  5
10
330
2
100
AcDbSymbolTableRecord
100
AcDbLayerTableRecord
  2
0
 70
     0
 62
     7
  6
CONTINUOUS
370
    -3
390
F
  0
LAYER
  5
3F9
330
2
100
AcDbSymbolTableRecord
100
AcDbLayerTableRecord
  2
AM_0
 70
     0
 62
     7
  6
CONTINUOUS
370
    -3
390
F
  0
LAYER
  5
BA4
330
2
100
AcDbSymbolTableRecord
100
AcDbLayerTableRecord
  2
AM_5
 70
     0
 62
     3
  6
CONTINUOUS
370
    -3
390
F
  0
LAYER
  5
BA6
330
2
100
AcDbSymbolTableRecord
100
AcDbLayerTableRecord
  2
AM_7
 70
     0
 62
     4
  6
AM_ISO08W050
370
    -3
390
F
  0
LAYER
  5
E64
330
2
100
AcDbSymbolTableRecord
100
AcDbLayerTableRecord
  2
AM_6
 70
     0
 62
     2
  6
CONTINUOUS
370
    -3
390
F
  0
LAYER
  5
F4D
330
2
100
AcDbSymbolTableRecord
100
AcDbLayerTableRecord
  2
DEFPOINTS
 70
     0
 62
     7
  6
CONTINUOUS
290
     0
370
    -3
390
F
  0
LAYER
  5
2382
330
2
100
AcDbSymbolTableRecord
100
AcDbLayerTableRecord
  2
AM_3
 70
     0
 62
     6
  6
ACJISTGL
370
    -3
390
F
  0
LAYER
  5
4E80
330
2
100
AcDbSymbolTableRecord
100
AcDbLayerTableRecord
  2
AM_11
 70
     0
 62
     3
  6
AM_ISO09W050
370
    -3
390
F
  0
ENDTAB
  0
TABLE
  2
STYLE
  5
3
330
0
100
AcDbSymbolTable
 70
     7
  0
STYLE
  5
11
330
3
100
AcDbSymbolTableRecord
100
AcDbTextStyleTableRecord
  2
STANDARD
 70
     0
 40
0.0
 41
1.0
 50
0.0
 71
     0
 42
2.5
  3
simplex.shx
  4
EXTFONT.SHX
  0
STYLE
  5
52
330
3
100
AcDbSymbolTableRecord
100
AcDbTextStyleTableRecord
  2

 70
     1
 40
0.0
 41
1.0
 50
0.0
 71
     0
 42
2.5
  3
ltypeshp.shx
  4

  0
STYLE
  5
6B
330
3
100
AcDbSymbolTableRecord
100
AcDbTextStyleTableRecord
  2
ASAMI
 70
     0
 40
0.0
 41
1.0
 50
0.0
 71
     0
 42
2.5
  3
simplex.shx
  4
EXTFONT.SHX
  0
STYLE
  5
262
330
3
100
AcDbSymbolTableRecord
100
AcDbTextStyleTableRecord
  2
ACJISTS
 70
     0
 40
1.0
 41
1.0
 50
0.0
 71
     0
 42
1.0
  3
isocp.shx
  4
extfont.shx
  0
STYLE
  5
269
330
3
100
AcDbSymbolTableRecord
100
AcDbTextStyleTableRecord
  2
ACJISGDT
 70
     0
 40
0.0
 41
1.0
 50
0.0
 71
     0
 42
1.0
  3
amgdt.shx
  4

  0
STYLE
  5
B0B3
330
3
100
AcDbSymbolTableRecord
100
AcDbTextStyleTableRecord
  2
ACISOTS
 70
     0
 40
3.5
 41
1.0
 50
5.0
 71
     0
 42
3.799999999999999
  3
isocp.shx
  4
extfont.shx
  0
STYLE
  5
B0B7
330
3
100
AcDbSymbolTableRecord
100
AcDbTextStyleTableRecord
  2
ACISOGDT
 70
     0
 40
0.0
 41
1.0
 50
0.0
 71
     0
 42
2.5
  3
amgdt.shx
  4
extfont.shx
  0
ENDTAB
  0
TABLE
  2
VIEW
  5
6
330
0
100
AcDbSymbolTable
 70
     0
  0
ENDTAB
  0
TABLE
  2
UCS
  5
7
330
0
100
AcDbSymbolTable
 70
     0
  0
ENDTAB
  0
TABLE
  2
APPID
  5
9
330
0
100
AcDbSymbolTable
 70
    36
  0
APPID
  5
12
330
9
100
AcDbSymbolTableRecord
100
AcDbRegAppTableRecord
  2
ACAD
 70
     0
  0
APPID
  5
30
330
9
100
AcDbSymbolTableRecord
100
AcDbRegAppTableRecord
  2
MCAD_NO_VIS
 70
     0
  0
APPID
  5
31
330
9
100
AcDbSymbolTableRecord
100
AcDbRegAppTableRecord
  2
ACAD_TEMP_GRAPHIC
 70
     0
  0
APPID
  5
2C2
330
9
100
AcDbSymbolTableRecord
100
AcDbRegAppTableRecord
  2
GENIUS_GENDTOL_13
 70
     0
  0
APPID
  5
339
330
9
100
AcDbSymbolTableRecord
100
AcDbRegAppTableRecord
  2
GENIUS_GENODEF_13
 70
     0
  0
APPID
  5
33A
330
9
100
AcDbSymbolTableRecord
100
AcDbRegAppTableRecord
  2
GENIUS_GENOBJ-N-RSBK_13
 70
     0
  0
APPID
  5
33B
330
9
100
AcDbSymbolTableRecord
100
AcDbRegAppTableRecord
  2
GENIUS_GENOBJ-N-LIB_13
 70
     0
  0
APPID
  5
33C
330
9
100
AcDbSymbolTableRecord
100
AcDbRegAppTableRecord
  2
GENIUS_GENSCALE_13
 70
     0
  0
APPID
  5
378
330
9
100
AcDbSymbolTableRecord
100
AcDbRegAppTableRecord
  2
GENIUS_GENDIMSH_14
 70
     0
  0
APPID
  5
BB0
330
9
100
AcDbSymbolTableRecord
100
AcDbRegAppTableRecord
  2
GENIUS_GENOBJ-N-CEN_13
 70
     0
  0
APPID
  5
BB1
330
9
100
AcDbSymbolTableRecord
100
AcDbRegAppTableRecord
  2
GENIUS_GENFIL_13
 70
     0
  0
APPID
  5
BB2
330
9
100
AcDbSymbolTableRecord
100
AcDbRegAppTableRecord
  2
GENIUS_GENOBJ-N-CHA_13
 70
     0
  0
APPID
  5
1FAF
330
9
100
AcDbSymbolTableRecord
100
AcDbRegAppTableRecord
  2
GENIUS_GENOBJ-N-CRS_13
 70
     0
  0
APPID
  5
1FB0
330
9
100
AcDbSymbolTableRecord
100
AcDbRegAppTableRecord
  2
GENIUS_GENOENT_13
 70
     0
  0
APPID
  5
1FB1
330
9
100
AcDbSymbolTableRecord
100
AcDbRegAppTableRecord
  2
GENIUS_GENOREF_13
 70
     0
  0
APPID
  5
1FB2
330
9
100
AcDbSymbolTableRecord
100
AcDbRegAppTableRecord
  2
GENIUS_GENOLIS_13
 70
     0
  0
APPID
  5
1FB7
330
9
100
AcDbSymbolTableRecord
100
AcDbRegAppTableRecord
  2
GENIUS_GENOBJ-N-FIL_13
 70
     0
  0
APPID
  5
22A8
330
9
100
AcDbSymbolTableRecord
100
AcDbRegAppTableRecord
  2
GEVID1056506048
 70
     0
  0
APPID
  5
22A9
330
9
100
AcDbSymbolTableRecord
100
AcDbRegAppTableRecord
  2
GEVDC
 70
     0
  0
APPID
  5
22AC
330
9
100
AcDbSymbolTableRecord
100
AcDbRegAppTableRecord
  2
GENIUS_GENBH_13
 70
     0
  0
APPID
  5
22B8
330
9
100
AcDbSymbolTableRecord
100
AcDbRegAppTableRecord
  2
GENIUS_GENOBJ-NBEHI-BHF_13
 70
     0
  0
APPID
  5
22BA
330
9
100
AcDbSymbolTableRecord
100
AcDbRegAppTableRecord
  2
GENIUS_GENOBJ-NBEHI-BHB_13
 70
     0
  0
APPID
  5
35C9
330
9
100
AcDbSymbolTableRecord
100
AcDbRegAppTableRecord
  2
GENIUS_GENREC_14
 70
     0
  0
APPID
  5
35CA
330
9
100
AcDbSymbolTableRecord
100
AcDbRegAppTableRecord
  2
GENIUS_GENOBJ-N-REC_13
 70
     0
  0
APPID
  5
B04C
330
9
100
AcDbSymbolTableRecord
100
AcDbRegAppTableRecord
  2
ACATTRIBSERVICES
 70
     0
  0
APPID
  5
B04D
330
9
100
AcDbSymbolTableRecord
100
AcDbRegAppTableRecord
  2
AD_DRAW
 70
     0
  0
APPID
  5
B04E
330
9
100
AcDbSymbolTableRecord
100
AcDbRegAppTableRecord
  2
DESIGNERASSEMBLIES
 70
     0
  0
APPID
  5
B04F
330
9
100
AcDbSymbolTableRecord
100
AcDbRegAppTableRecord
  2
ACADM_DIM_EDIT
 70
     0
  0
APPID
  5
B050
330
9
100
AcDbSymbolTableRecord
100
AcDbRegAppTableRecord
  2
AMDT_DM_ADJ
 70
     0
  0
APPID
  5
B051
330
9
100
AcDbSymbolTableRecord
100
AcDbRegAppTableRecord
  2
ACAD_DSTYLE_DIMTEXT_FILL
 70
     0
  0
APPID
  5
B052
330
9
100
AcDbSymbolTableRecord
100
AcDbRegAppTableRecord
  2
ACAD_PSEXT
 70
     0
  0
APPID
  5
B053
330
9
100
AcDbSymbolTableRecord
100
AcDbRegAppTableRecord
  2
ACAD_DIMASSOC_DIMLFAC
 70
     0
  0
APPID
  5
B054
330
9
100
AcDbSymbolTableRecord
100
AcDbRegAppTableRecord
  2
ACAD_DIMASSOC_CALC_DIMLFAC
 70
     0
  0
APPID
  5
B055
330
9
100
AcDbSymbolTableRecord
100
AcDbRegAppTableRecord
  2
ACAD_DIMASSOC_OVERRIDDEN_DIMLFAC
 70
     0
  0
APPID
  5
B10A
330
9
100
AcDbSymbolTableRecord
100
AcDbRegAppTableRecord
  2
GENIUS_GENSCREG_15
 70
     0
  0
APPID
  5
B10B
330
9
100
AcDbSymbolTableRecord
100
AcDbRegAppTableRecord
  2
GENIUS_GENOBJ-N-SDF_13
 70
     0
  0
ENDTAB
  0
TABLE
  2
DIMSTYLE
  5
A
330
0
100
AcDbSymbolTable
 70
    16
100
AcDbDimStyleTable
 71
     0
  0
DIMSTYLE
105
58
330
A
100
AcDbSymbolTableRecord
100
AcDbDimStyleTableRecord
  2
AM_JIS
 70
     0
  4
"
 41
2.699999999999999
 42
0.0
 43
7.0
 44
0.5
 47
0.1
 48
0.1000000001
 73
     0
 74
     0
 77
     3
 78
     8
 79
     2
140
3.5
141
0.0
143
0.0393701
146
0.71
147
1.0
172
     1
176
     3
177
     3
178
     2
179
     1
271
     2
272
     2
275
     1
283
     0
284
     8
340
11
341
59
342
59
371
    -1
372
    -1
  0
DIMSTYLE
105
5F
330
A
100
AcDbSymbolTableRecord
100
AcDbDimStyleTableRecord
  2
AM_JIS$3
 70
     0
  4
"
 41
2.699999999999999
 42
1.0
 43
10.0
 44
1.0
 47
0.1
 48
0.1000000001
 73
     0
 77
     3
 78
     8
 79
     2
140
3.799999999999999
141
0.0
143
0.0393701
146
0.71
147
1.5
176
   256
177
   256
178
     2
271
     2
272
     2
275
     1
283
     0
284
     8
288
     1
289
     0
340
11
341
59
342
59
371
    -1
372
    -1
  0
DIMSTYLE
105
60
330
A
100
AcDbSymbolTableRecord
100
AcDbDimStyleTableRecord
  2
AM_JIS$4
 70
     0
  4
"
 41
2.699999999999999
 42
1.0
 43
10.0
 44
1.0
 47
0.1
 48
0.1000000001
 73
     0
 77
     3
 78
     8
 79
     2
140
3.799999999999999
141
0.0
143
0.0393701
146
0.71
147
1.5
176
   256
177
   256
178
     2
271
     2
272
     2
275
     1
283
     0
284
     8
288
     1
289
     0
340
11
341
59
342
59
371
    -1
372
    -1
  0
DIMSTYLE
105
61
330
A
100
AcDbSymbolTableRecord
100
AcDbDimStyleTableRecord
  2
AM_JIS$6
 70
     0
  4
"
 41
2.699999999999999
 42
1.0
 43
10.0
 44
1.0
 47
0.1
 48
0.1000000001
 73
     0
 74
     0
 78
     8
 79
     2
140
3.799999999999999
141
0.0
143
0.0393701
146
0.71
147
1.5
172
     1
176
   256
177
   256
178
     2
271
     2
272
     2
275
     1
283
     0
284
     8
340
11
341
59
342
59
371
    -1
372
    -1
  0
DIMSTYLE
105
62
330
A
100
AcDbSymbolTableRecord
100
AcDbDimStyleTableRecord
  2
AM_JIS$7
 70
     0
  4
"
 41
2.699999999999999
 42
1.0
 43
10.0
 44
1.0
 47
0.1
 48
0.1000000001
 73
     0
 74
     0
 77
     3
 78
     8
 79
     2
140
3.5
141
0.0
143
0.0393701
146
0.71
147
1.5
172
     1
176
     3
177
   256
178
     2
271
     2
272
     2
275
     1
283
     0
284
     8
340
11
341
59
342
59
371
    -1
372
    -1
  0
DIMSTYLE
105
63
330
A
100
AcDbSymbolTableRecord
100
AcDbDimStyleTableRecord
  2
AM_JIS$SF
 70
     0
  4
"
 41
2.5
 42
1.0
 43
10.0
 44
1.0
 47
0.1
 48
0.1
 73
     0
 74
     0
 75
     1
 76
     1
 77
     3
 78
     8
 79
     2
140
3.5
141
0.0
143
0.0393701
146
0.71
147
1.5
172
     1
176
   256
177
   256
178
     2
271
     2
272
     3
274
     4
283
     0
284
     8
340
11
341
59
342
59
343
59
344
59
371
    -1
372
    -1
  0
DIMSTYLE
105
68
330
A
100
AcDbSymbolTableRecord
100
AcDbDimStyleTableRecord
  2
AM_JIS$SH
 70
     0
  4
"
 41
2.5
 42
1.0
 43
10.0
 44
1.0
 47
0.1
 48
0.1
 73
     0
 74
     0
 75
     1
 76
     1
 77
     3
 78
     8
 79
     2
140
3.5
141
0.0
143
0.0393701
144
2.0
146
0.71
147
1.5
172
     1
173
     1
176
   256
177
   256
178
     2
271
     2
272
     3
274
     4
283
     0
284
     8
340
11
341
59
342
59
343
64
344
59
371
    -1
372
    -1
  0
DIMSTYLE
105
B34
330
A
100
AcDbSymbolTableRecord
100
AcDbDimStyleTableRecord
  2
AM_JIS$2
 70
     0
  4
"
 41
2.699999999999999
 42
0.0
 43
7.0
 44
0.5
 47
0.1
 48
0.1000000001
 73
     0
 74
     0
 77
     3
 78
     8
 79
     2
140
3.5
141
0.0
143
0.0393701
146
0.71
147
1.0
172
     1
176
     3
177
     3
178
     2
179
     1
271
     2
272
     2
275
     1
283
     0
284
     8
340
11
341
59
342
59
371
    -1
372
    -1
  0
DIMSTYLE
105
3B48
102
{ACAD_REACTORS
330
A8BD
330
A97F
330
AA57
330
AAE3
330
AB8D
330
AC26
102
}
330
A
100
AcDbSymbolTableRecord
100
AcDbDimStyleTableRecord
  2
AM_JIS$0
 70
     0
  4
"
 41
2.699999999999999
 42
0.0
 43
7.0
 44
0.5
 47
0.1
 48
0.1000000001
 73
     0
 74
     0
 77
     3
 78
     8
 79
     2
140
3.5
141
0.0
143
0.0393701
146
0.71
147
1.0
172
     1
176
     3
177
     3
178
     2
179
     1
271
     2
272
     2
275
     1
283
     0
284
     8
340
11
341
59
342
59
371
    -1
372
    -1
  0
DIMSTYLE
105
B0D2
330
A
100
AcDbSymbolTableRecord
100
AcDbDimStyleTableRecord
  2
AM_ISO
 70
     0
  4
"
 41
2.5
 42
1.0
 43
10.0
 44
1.0
 47
0.1
 48
0.1
 73
     0
 74
     0
 77
     1
 78
     8
 79
     2
140
3.5
141
0.0
143
0.0393701
146
0.71
147
1.5
172
     1
176
   256
177
   256
178
     2
271
     2
272
     3
274
     4
283
     0
284
     8
340
11
371
    -1
372
    -1
  0
DIMSTYLE
105
B0D3
330
A
100
AcDbSymbolTableRecord
100
AcDbDimStyleTableRecord
  2
AM_ISO$3
 70
     0
  4
"
 41
2.5
 42
1.0
 43
10.0
 44
1.0
 47
0.1
 48
0.1
 73
     0
 77
     1
 78
     8
 79
     2
140
3.5
141
0.0
143
0.0393701
146
0.71
147
1.5
176
   256
177
   256
178
     2
271
     2
272
     3
274
     4
283
     0
284
     8
288
     1
289
     0
340
11
371
    -1
372
    -1
  0
DIMSTYLE
105
B0D4
330
A
100
AcDbSymbolTableRecord
100
AcDbDimStyleTableRecord
  2
AM_ISO$4
 70
     0
  4
"
 41
2.5
 42
1.0
 43
10.0
 44
1.0
 47
0.1
 48
0.1
 73
     0
 77
     1
 78
     8
 79
     2
140
3.5
141
0.0
143
0.0393701
146
0.71
147
1.5
176
   256
177
   256
178
     2
271
     2
272
     3
274
     4
283
     0
284
     8
288
     1
289
     0
340
11
371
    -1
372
    -1
  0
DIMSTYLE
105
B0D5
330
A
100
AcDbSymbolTableRecord
100
AcDbDimStyleTableRecord
  2
AM_ISO$6
 70
     0
  4
"
 41
2.5
 42
1.0
 43
10.0
 44
1.0
 47
0.1
 48
0.1
 73
     0
 74
     0
 78
     8
 79
     2
140
3.5
141
0.0
143
0.0393701
146
0.71
147
1.5
172
     1
176
   256
177
   256
178
     2
271
     2
272
     3
274
     4
283
     0
284
     8
340
11
371
    -1
372
    -1
  0
DIMSTYLE
105
B0D6
330
A
100
AcDbSymbolTableRecord
100
AcDbDimStyleTableRecord
  2
AM_ISO$7
 70
     0
  4
"
 41
2.5
 42
1.0
 43
10.0
 44
1.0
 47
0.1
 48
0.1
 73
     0
 74
     0
 77
     1
 78
     8
 79
     2
140
5.0
141
0.0
143
0.0393701
146
0.71
147
1.5
172
     1
176
   256
177
   256
178
     2
271
     2
272
     3
274
     4
283
     0
284
     8
340
11
371
    -1
372
    -1
  0
DIMSTYLE
105
B0D7
330
A
100
AcDbSymbolTableRecord
100
AcDbDimStyleTableRecord
  2
AM_ISO$SF
 70
     0
  4
"
 41
2.5
 42
1.0
 43
10.0
 44
1.0
 47
0.1
 48
0.1
 73
     0
 74
     0
 75
     1
 76
     1
 77
     1
 78
     8
 79
     2
140
3.5
141
0.0
143
0.0393701
146
0.71
147
1.5
172
     1
176
   256
177
   256
178
     2
271
     2
272
     3
274
     4
283
     0
284
     8
340
11
371
    -1
372
    -1
  0
DIMSTYLE
105
B0D8
330
A
100
AcDbSymbolTableRecord
100
AcDbDimStyleTableRecord
  2
AM_ISO$SH
 70
     0
  4
"
 41
2.5
 42
1.0
 43
10.0
 44
1.0
 47
0.1
 48
0.1
 73
     0
 74
     0
 75
     1
 76
     1
 77
     1
 78
     8
 79
     2
140
3.5
141
0.0
143
0.0393701
144
2.0
146
0.71
147
1.5
172
     1
173
     1
176
   256
177
   256
178
     2
271
     2
272
     3
274
     4
283
     0
284
     8
340
11
343
64
371
    -1
372
    -1
  0
ENDTAB
  0
TABLE
  2
BLOCK_RECORD
  5
1
330
0
100
AcDbSymbolTable
 70
     9
  0
BLOCK_RECORD
  5
1F
102
{ACAD_XDICTIONARY
360
74
102
}
330
1
100
AcDbSymbolTableRecord
100
AcDbBlockTableRecord
  2
*MODEL_SPACE
340
B047
  0
BLOCK_RECORD
  5
101
102
{ACAD_XDICTIONARY
360
B005
102
}
330
1
100
AcDbSymbolTableRecord
100
AcDbBlockTableRecord
  2
*PAPER_SPACE
340
B048
  0
BLOCK_RECORD
  5
59
330
1
100
AcDbSymbolTableRecord
100
AcDbBlockTableRecord
  2
_Open30
340
0
  0
BLOCK_RECORD
  5
64
330
1
100
AcDbSymbolTableRecord
100
AcDbBlockTableRecord
  2
GENAXEH
340
0
  0
BLOCK_RECORD
  5
A8BE
330
1
100
AcDbSymbolTableRecord
100
AcDbBlockTableRecord
  2
*D2
340
0
  0
BLOCK_RECORD
  5
A980
330
1
100
AcDbSymbolTableRecord
100
AcDbBlockTableRecord
  2
*D3
340
0
  0
BLOCK_RECORD
  5
AA58
330
1
100
AcDbSymbolTableRecord
100
AcDbBlockTableRecord
  2
*D4
340
0
  0
BLOCK_RECORD
  5
AAE4
330
1
100
AcDbSymbolTableRecord
100
AcDbBlockTableRecord
  2
*D5
340
0
  0
BLOCK_RECORD
  5
AB8E
330
1
100
AcDbSymbolTableRecord
100
AcDbBlockTableRecord
  2
*D6
340
0
  0
BLOCK_RECORD
  5
AC27
330
1
100
AcDbSymbolTableRecord
100
AcDbBlockTableRecord
  2
*D7
340
0
  0
ENDTAB
  0
ENDSEC
  0
SECTION
  2
BLOCKS
  0
BLOCK
  5
20
330
1F
100
AcDbEntity
  8
0
100
AcDbBlockBegin
  2
*MODEL_SPACE
 70
     0
 10
0.0
 20
0.0
 30
0.0
  3
*MODEL_SPACE
  1

  0
ENDBLK
  5
21
330
1F
100
AcDbEntity
  8
0
100
AcDbBlockEnd
  0
BLOCK
  5
103
330
101
100
AcDbEntity
 67
     1
  8
0
100
AcDbBlockBegin
  2
*PAPER_SPACE
 70
     0
 10
0.0
 20
0.0
 30
0.0
  3
*PAPER_SPACE
  1

  0
ENDBLK
  5
104
330
101
100
AcDbEntity
 67
     1
  8
0
100
AcDbBlockEnd
  0
BLOCK
  5
B0FA
330
59
100
AcDbEntity
  8
0
100
AcDbBlockBegin
  2
_Open30
 70
     0
 10
0.0
 20
0.0
 30
0.0
  3
_Open30
  1

  0
LINE
  5
B0FB
330
59
100
AcDbEntity
  8
0
  6
ByBlock
 62
     0
370
    -2
100
AcDbLine
 10
-1.0
 20
0.26794919
 30
0.0
 11
0.0
 21
0.0
 31
0.0
  0
LINE
  5
B0FC
330
59
100
AcDbEntity
  8
0
  6
ByBlock
 62
     0
370
    -2
100
AcDbLine
 10
0.0
 20
0.0
 30
0.0
 11
-1.0
 21
-0.26794919
 31
0.0
  0
LINE
  5
B0FD
330
59
100
AcDbEntity
  8
0
  6
ByBlock
 62
     0
370
    -2
100
AcDbLine
 10
0.0
 20
0.0
 30
0.0
 11
-1.0
 21
0.0
 31
0.0
  0
ENDBLK
  5
B0FE
330
59
100
AcDbEntity
  8
0
100
AcDbBlockEnd
  0
BLOCK
  5
B0DA
330
64
100
AcDbEntity
  8
0
100
AcDbBlockBegin
  2
GENAXEH
 70
     0
 10
0.0
 20
0.0
 30
0.0
  3
GENAXEH
  1

  0
LINE
  5
B0DB
330
64
100
AcDbEntity
  8
0
100
AcDbLine
 10
-1.0
 20
0.0
 30
0.0
 11
1.0
 21
0.0
 31
0.0
  0
ENDBLK
  5
B0DC
330
64
100
AcDbEntity
  8
0
100
AcDbBlockEnd
  0
BLOCK
  5
A8C8
330
A8BE
100
AcDbEntity
  8
0
100
AcDbBlockBegin
  2
*D2
 70
     1
 10
0.0
 20
0.0
 30
0.0
  3
*D2
  1

  0
LINE
  5
B007
330
A8BE
100
AcDbEntity
  8
AM_5
100
AcDbLine
 10
-26.4000000000003
 20
13.36420769859006
 30
0.0
 11
-26.40000000000031
 21
27.50000862939502
 31
0.0
  0
LINE
  5
B008
330
A8BE
100
AcDbEntity
  8
AM_5
100
AcDbLine
 10
-0.0000000000003087
 20
13.02000427246119
 30
0.0
 11
-0.0000000000003114
 21
27.50000862939503
 31
0.0
  0
LINE
  5
B009
330
A8BE
100
AcDbEntity
  8
AM_5
100
AcDbLine
 10
-23.90000000000031
 20
26.50000862939503
 30
0.0
 11
-2.500000000000311
 21
26.50000862939503
 31
0.0
  0
INSERT
  5
B00A
330
A8BE
100
AcDbEntity
  8
AM_5
100
AcDbBlockReference
  2
_Open30
 10
-26.40000000000031
 20
26.50000862939503
 30
0.0
 41
2.5
 42
2.5
 43
2.5
 50
180.0
  0
INSERT
  5
B00B
330
A8BE
100
AcDbEntity
  8
AM_5
100
AcDbBlockReference
  2
_Open30
 10
-0.0000000000003112
 20
26.50000862939503
 30
0.0
 41
2.5
 42
2.5
 43
2.5
  0
MTEXT
  5
B00C
330
A8BE
100
AcDbEntity
  8
AM_5
 62
     2
100
AcDbMText
 10
-13.20000000000031
 20
29.60000862939503
 30
0.0
 40
3.2
 41
0.0
 71
     5
 72
     1
  1
26
  7
ASAMI
 73
     1
 44
1.0
1001
ACAD
1000
MTEXTBEGIN
1070
    73
1070
     1
1070
    44
1040
1.0
1070
    74
1070
     0
1000
MTEXTEND
  0
POINT
  5
B00D
330
A8BE
100
AcDbEntity
  8
DEFPOINTS
 62
     0
100
AcDbPoint
 10
-26.40000000000028
 20
12.36420769859012
 30
0.0
  0
POINT
  5
B00E
330
A8BE
100
AcDbEntity
  8
DEFPOINTS
 62
     0
100
AcDbPoint
 10
-0.0000000000002842
 20
12.02000427246119
 30
0.0
  0
POINT
  5
B00F
330
A8BE
100
AcDbEntity
  8
DEFPOINTS
 62
     0
100
AcDbPoint
 10
-0.0000000000002576
 20
26.50000862939503
 30
0.0
  0
ENDBLK
  5
A8C9
330
A8BE
100
AcDbEntity
  8
0
100
AcDbBlockEnd
  0
BLOCK
  5
A98A
330
A980
100
AcDbEntity
  8
0
100
AcDbBlockBegin
  2
*D3
 70
     1
 10
0.0
 20
0.0
 30
0.0
  3
*D3
  1

  0
LINE
  5
B010
330
A980
100
AcDbEntity
  8
AM_5
100
AcDbLine
 10
0.6340026855456821
 20
12.43000030517618
 30
0.0
 11
16.55177407128872
 21
12.43000030517621
 31
0.0
  0
LINE
  5
B011
330
A980
100
AcDbEntity
  8
AM_5
100
AcDbLine
 10
0.6349945068357946
 20
-12.43000411987281
 30
0.0
 11
16.55177407128877
 21
-12.43000411987278
 31
0.0
  0
LINE
  5
B012
330
A980
100
AcDbEntity
  8
AM_5
100
AcDbLine
 10
15.55177407128873
 20
9.930000305176207
 30
0.0
 11
15.55177407128877
 21
-9.930004119872792
 31
0.0
  0
INSERT
  5
B013
330
A980
100
AcDbEntity
  8
AM_5
100
AcDbBlockReference
  2
_Open30
 10
15.55177407128872
 20
12.4300003051762
 30
0.0
 41
2.5
 42
2.5
 43
2.5
 50
90.0000000000001
  0
INSERT
  5
B014
330
A980
100
AcDbEntity
  8
AM_5
100
AcDbBlockReference
  2
_Open30
 10
15.55177407128877
 20
-12.43000411987279
 30
0.0
 41
2.5
 42
2.5
 43
2.5
 50
270.0000000000001
  0
MTEXT
  5
B015
330
A980
100
AcDbEntity
  8
AM_5
 62
     2
100
AcDbMText
 10
12.45177407128875
 20
-0.0000019073482974
 30
0.0
 40
3.2
 41
0.0
 71
     5
 72
     1
  1
%%c25
  7
ASAMI
 11
-0.000000000000002
 21
1.0
 31
0.0
 73
     1
 44
1.0
1001
ACAD
1000
MTEXTBEGIN
1070
    73
1070
     1
1070
    44
1040
1.0
1070
    74
1070
     0
1000
MTEXTEND
  0
POINT
  5
B016
330
A980
100
AcDbEntity
  8
DEFPOINTS
 62
     0
100
AcDbPoint
 10
-0.3659973144542903
 20
12.43000030517618
 30
0.0
  0
POINT
  5
B017
330
A980
100
AcDbEntity
  8
DEFPOINTS
 62
     0
100
AcDbPoint
 10
-0.365005493164233
 20
-12.43000411987281
 30
0.0
  0
POINT
  5
B018
330
A980
100
AcDbEntity
  8
DEFPOINTS
 62
     0
100
AcDbPoint
 10
15.55177407128874
 20
-12.43000411987282
 30
0.0
  0
ENDBLK
  5
A98B
330
A980
100
AcDbEntity
  8
0
100
AcDbBlockEnd
  0
BLOCK
  5
AA62
330
AA58
100
AcDbEntity
  8
0
100
AcDbBlockBegin
  2
*D4
 70
     1
 10
0.0
 20
0.0
 30
0.0
  3
*D4
  1

  0
LINE
  5
B019
330
AA58
100
AcDbEntity
  8
AM_5
100
AcDbLine
 10
-0.0000000000002011
 20
-13.0200080871578
 30
0.0
 11
-0.0000000000001727
 21
-27.49999718530222
 31
0.0
  0
LINE
  5
B01A
330
AA58
100
AcDbEntity
  8
AM_5
100
AcDbLine
 10
-75.0000000000002
 20
-12.34999465942309
 30
0.0
 11
-75.00000000000017
 21
-27.49999718530237
 31
0.0
  0
LINE
  5
B01B
330
AA58
100
AcDbEntity
  8
AM_5
100
AcDbLine
 10
-2.500000000000173
 20
-26.49999718530222
 30
0.0
 11
-72.50000000000017
 21
-26.49999718530236
 31
0.0
  0
INSERT
  5
B01C
330
AA58
100
AcDbEntity
  8
AM_5
100
AcDbBlockReference
  2
_Open30
 10
-0.0000000000001747
 20
-26.49999718530222
 30
0.0
 41
2.5
 42
2.5
 43
2.5
 50
0.0000000000001018
  0
INSERT
  5
B01D
330
AA58
100
AcDbEntity
  8
AM_5
100
AcDbBlockReference
  2
_Open30
 10
-75.00000000000017
 20
-26.49999718530237
 30
0.0
 41
2.5
 42
2.5
 43
2.5
 50
180.0000000000001
  0
MTEXT
  5
B01E
330
AA58
100
AcDbEntity
  8
AM_5
 62
     2
100
AcDbMText
 10
-37.50000000000017
 20
-23.39999718530229
 30
0.0
 40
3.2
 41
0.0
 71
     5
 72
     1
  1
75
  7
ASAMI
 73
     1
 44
1.0
1001
ACAD
1000
MTEXTBEGIN
1070
    73
1070
     1
1070
    44
1040
1.0
1070
    74
1070
     0
1000
MTEXTEND
  0
POINT
  5
B01F
330
AA58
100
AcDbEntity
  8
DEFPOINTS
 62
     0
100
AcDbPoint
 10
-0.0000000000002274
 20
-12.0200080871578
 30
0.0
  0
POINT
  5
B020
330
AA58
100
AcDbEntity
  8
DEFPOINTS
 62
     0
100
AcDbPoint
 10
-75.00000000000024
 20
-11.34999465942294
 30
0.0
  0
POINT
  5
B021
330
AA58
100
AcDbEntity
  8
DEFPOINTS
 62
     0
100
AcDbPoint
 10
-75.00000000000024
 20
-26.49999718530222
 30
0.0
  0
ENDBLK
  5
AA63
330
AA58
100
AcDbEntity
  8
0
100
AcDbBlockEnd
  0
BLOCK
  5
AAEE
330
AAE4
100
AcDbEntity
  8
0
100
AcDbBlockBegin
  2
*D5
 70
     1
 10
0.0
 20
0.0
 30
0.0
  3
*D5
  1

  0
LINE
  5
B022
330
AAE4
100
AcDbEntity
  8
AM_5
100
AcDbLine
 10
-74.99999809265219
 20
-12.34999465942309
 30
0.0
 11
-74.99999809265216
 21
-27.49999618530209
 31
0.0
  0
LINE
  5
B023
330
AAE4
100
AcDbEntity
  8
AM_5
100
AcDbLine
 10
-220.0000002384128
 20
-11.16149520874067
 30
0.0
 11
-220.0000002384128
 21
-27.49999618530237
 31
0.0
  0
LINE
  5
B024
330
AAE4
100
AcDbEntity
  8
AM_5
100
AcDbLine
 10
-77.49999809265216
 20
-26.49999618530209
 30
0.0
 11
-217.5000002384128
 21
-26.49999618530237
 31
0.0
  0
INSERT
  5
B025
330
AAE4
100
AcDbEntity
  8
AM_5
100
AcDbBlockReference
  2
_Open30
 10
-74.99999809265216
 20
-26.49999618530209
 30
0.0
 41
2.5
 42
2.5
 43
2.5
 50
0.0000000000001018
  0
INSERT
  5
B026
330
AAE4
100
AcDbEntity
  8
AM_5
100
AcDbBlockReference
  2
_Open30
 10
-220.0000002384128
 20
-26.49999618530238
 30
0.0
 41
2.5
 42
2.5
 43
2.5
 50
180.0000000000001
  0
MTEXT
  5
B027
330
AAE4
100
AcDbEntity
  8
AM_5
 62
     2
100
AcDbMText
 10
-147.4999991655325
 20
-23.39999618530223
 30
0.0
 40
3.2
 41
0.0
 71
     5
 72
     1
  1
145
  7
ASAMI
 73
     1
 44
1.0
1001
ACAD
1000
MTEXTBEGIN
1070
    73
1070
     1
1070
    44
1040
1.0
1070
    74
1070
     0
1000
MTEXTEND
  0
POINT
  5
B028
330
AAE4
100
AcDbEntity
  8
DEFPOINTS
 62
     0
100
AcDbPoint
 10
-74.99999809265222
 20
-11.34999465942294
 30
0.0
  0
POINT
  5
B029
330
AAE4
100
AcDbEntity
  8
DEFPOINTS
 62
     0
100
AcDbPoint
 10
-220.0000002384129
 20
-10.16149520874023
 30
0.0
  0
POINT
  5
B02A
330
AAE4
100
AcDbEntity
  8
DEFPOINTS
 62
     0
100
AcDbPoint
 10
-220.0000002384129
 20
-26.49999618530193
 30
0.0
  0
ENDBLK
  5
AAEF
330
AAE4
100
AcDbEntity
  8
0
100
AcDbBlockEnd
  0
BLOCK
  5
AB98
330
AB8E
100
AcDbEntity
  8
0
100
AcDbBlockBegin
  2
*D6
 70
     1
 10
0.0
 20
0.0
 30
0.0
  3
*D6
  1

  0
LINE
  5
B02B
330
AB8E
100
AcDbEntity
  8
AM_5
100
AcDbLine
 10
-0.0000000000002011
 20
-13.0200080871578
 30
0.0
 11
-0.0000000000001531
 21
-37.49999618530194
 31
0.0
  0
LINE
  5
B02C
330
AB8E
100
AcDbEntity
  8
AM_5
100
AcDbLine
 10
-220.0000002384128
 20
-11.16149520874067
 30
0.0
 11
-220.0000002384128
 21
-37.49999618530238
 31
0.0
  0
LINE
  5
B02D
330
AB8E
100
AcDbEntity
  8
AM_5
100
AcDbLine
 10
-2.500000000000154
 20
-36.49999618530194
 30
0.0
 11
-217.5000002384128
 21
-36.49999618530237
 31
0.0
  0
INSERT
  5
B02E
330
AB8E
100
AcDbEntity
  8
AM_5
100
AcDbBlockReference
  2
_Open30
 10
-0.0000000000001551
 20
-36.49999618530193
 30
0.0
 41
2.5
 42
2.5
 43
2.5
 50
0.0000000000001018
  0
INSERT
  5
B02F
330
AB8E
100
AcDbEntity
  8
AM_5
100
AcDbBlockReference
  2
_Open30
 10
-220.0000002384128
 20
-36.49999618530238
 30
0.0
 41
2.5
 42
2.5
 43
2.5
 50
180.0000000000001
  0
MTEXT
  5
B030
330
AB8E
100
AcDbEntity
  8
AM_5
 62
     2
100
AcDbMText
 10
-110.0000001192064
 20
-33.39999618530216
 30
0.0
 40
3.2
 41
0.0
 71
     5
 72
     1
  1
220
  7
ASAMI
 73
     1
 44
1.0
1001
ACAD
1000
MTEXTBEGIN
1070
    73
1070
     1
1070
    44
1040
1.0
1070
    74
1070
     0
1000
MTEXTEND
  0
POINT
  5
B031
330
AB8E
100
AcDbEntity
  8
DEFPOINTS
 62
     0
100
AcDbPoint
 10
-0.0000000000002274
 20
-12.0200080871578
 30
0.0
  0
POINT
  5
B032
330
AB8E
100
AcDbEntity
  8
DEFPOINTS
 62
     0
100
AcDbPoint
 10
-220.0000002384129
 20
-10.16149520874023
 30
0.0
  0
POINT
  5
B033
330
AB8E
100
AcDbEntity
  8
DEFPOINTS
 62
     0
100
AcDbPoint
 10
-220.0000002384129
 20
-36.49999618530193
 30
0.0
  0
ENDBLK
  5
AB99
330
AB8E
100
AcDbEntity
  8
0
100
AcDbBlockEnd
  0
BLOCK
  5
AC31
330
AC27
100
AcDbEntity
  8
0
100
AcDbBlockBegin
  2
*D7
 70
     1
 10
0.0
 20
0.0
 30
0.0
  3
*D7
  1

  0
LINE
  5
B034
330
AC27
100
AcDbEntity
  8
AM_5
100
AcDbLine
 10
-217.9999923706043
 20
12.50000762939427
 30
0.0
 11
-237.4111795888642
 21
12.50000762939423
 31
0.0
  0
LINE
  5
B035
330
AC27
100
AcDbEntity
  8
AM_5
100
AcDbLine
 10
-217.9999999999942
 20
-12.4999961853027
 30
0.0
 11
-237.4111795888642
 21
-12.49999618530274
 31
0.0
  0
LINE
  5
B036
330
AC27
100
AcDbEntity
  8
AM_5
100
AcDbLine
 10
-236.4111795888642
 20
10.00000762939424
 30
0.0
 11
-236.4111795888641
 21
-9.999996185302739
 31
0.0
  0
INSERT
  5
B037
330
AC27
100
AcDbEntity
  8
AM_5
100
AcDbBlockReference
  2
_Open30
 10
-236.4111795888642
 20
12.50000762939424
 30
0.0
 41
2.5
 42
2.5
 43
2.5
 50
90.0000000000001
  0
INSERT
  5
B038
330
AC27
100
AcDbEntity
  8
AM_5
100
AcDbBlockReference
  2
_Open30
 10
-236.4111795888641
 20
-12.49999618530274
 30
0.0
 41
2.5
 42
2.5
 43
2.5
 50
270.0000000000001
  0
MTEXT
  5
B039
330
AC27
100
AcDbEntity
  8
AM_5
 62
     2
100
AcDbMText
 10
-239.5111795888642
 20
0.0000057220457525
 30
0.0
 40
3.2
 41
0.0
 71
     5
 72
     1
  1
%%c25
  7
ASAMI
 11
-0.000000000000002
 21
1.0
 31
0.0
 73
     1
 44
1.0
1001
ACAD
1000
MTEXTBEGIN
1070
    73
1070
     1
1070
    44
1040
1.0
1070
    74
1070
     0
1000
MTEXTEND
  0
POINT
  5
B03A
330
AC27
100
AcDbEntity
  8
DEFPOINTS
 62
     0
100
AcDbPoint
 10
-216.9999923706042
 20
12.50000762939476
 30
0.0
  0
POINT
  5
B03B
330
AC27
100
AcDbEntity
  8
DEFPOINTS
 62
     0
100
AcDbPoint
 10
-216.9999999999942
 20
-12.49999618530222
 30
0.0
  0
POINT
  5
B03C
330
AC27
100
AcDbEntity
  8
DEFPOINTS
 62
     0
100
AcDbPoint
 10
-236.4111795888642
 20
-12.49999618530221
 30
0.0
  0
ENDBLK
  5
AC32
330
AC27
100
AcDbEntity
  8
0
100
AcDbBlockEnd
  0
ENDSEC
  0
SECTION
  2
ENTITIES
  0
TEXT
  5
388D
330
1F
100
AcDbEntity
  8
AM_6
100
AcDbText
 10
-133.7816633501893
 20
-53.75988849753381
 30
0.0
 40
5.0
  1
WMM2025ELH
 50
359.9999999999998
 51
359.9999999999998
 72
     4
 11
-109.7340443025703
 21
-51.25988849753388
 31
0.0
100
AcDbText
  0
LINE
  5
A523
330
1F
100
AcDbEntity
  8
AM_3
100
AcDbLine
 10
-216.9999999999942
 20
2.999999999999791
 30
0.0
 11
-35.00000000000026
 21
3.000000000000097
 31
0.0
  0
LINE
  5
A524
330
1F
100
AcDbEntity
  8
AM_3
100
AcDbLine
 10
-216.9999999999942
 20
-3.000000000000207
 30
0.0
 11
-35.00000000000023
 21
-2.999999999999902
 31
0.0
  0
LINE
  5
A525
330
1F
100
AcDbEntity
  8
AM_0
100
AcDbLine
 10
-76.99185943603629
 20
12.499996185302
 30
0.0
 11
-216.9999999999943
 21
12.49999618530178
 31
0.0
  0
LINE
  5
A526
330
1F
100
AcDbEntity
  8
AM_0
100
AcDbLine
 10
-216.9999999999943
 20
-12.50000762939519
 30
0.0
 11
-76.99185943603623
 21
-12.50000762939498
 31
0.0
  0
LINE
  5
A527
330
1F
100
AcDbEntity
  8
AM_7
100
AcDbLine
 10
-222.4111785888642
 20
-0.0000000000002274
 30
0.0
 11
1.551773071288748
 21
0.0000000000001705
 31
0.0
  0
SPLINE
  5
A537
330
1F
100
AcDbEntity
  8
AM_0
100
AcDbSpline
210
0.0
220
0.0
230
1.0
 70
     8
 71
     3
 72
    11
 73
     7
 74
     5
 42
0.0000000001
 43
0.0000000001
 44
0.0000000001
 40
0.0
 40
0.0
 40
0.0
 40
0.0
 40
2.219456437418244
 40
4.421288288737756
 40
6.620608073042133
 40
8.837087527239395
 40
8.837087527239395
 40
8.837087527239395
 40
8.837087527239395
 10
-0.1999969482432529
 20
-0.1009216308598644
 30
0.0
 10
-0.2461858697632098
 20
-0.8393200166206138
 30
0.0
 10
-0.3381969290220086
 20
-2.310253205642542
 30
0.0
 10
-0.522890535650636
 20
-4.509459874758198
 30
0.0
 10
-0.712199402534588
 20
-6.707251517249823
 30
0.0
 10
-0.8092701158971998
 20
-8.176022247744425
 30
0.0
 10
-0.8579940795902384
 20
-8.913261413574852
 30
0.0
 11
-0.1999969482432529
 21
-0.1009216308598644
 31
0.0
 11
-0.3464584350592535
 21
-2.315540313720851
 31
0.0
 11
-0.523742675782243
 21
-4.510223388671852
 31
0.0
 11
-0.704452514649252
 21
-6.702106475829858
 31
0.0
 11
-0.8579940795902384
 21
-8.913261413574852
 31
0.0
  0
SPLINE
  5
A538
330
1F
100
AcDbEntity
  8
AM_0
100
AcDbSpline
210
0.0
220
0.0
230
1.0
 70
     8
 71
     3
 72
    11
 73
     7
 74
     5
 42
0.0000000001
 43
0.0000000001
 44
0.0000000001
 40
0.0
 40
0.0
 40
0.0
 40
0.0
 40
0.0034137512476362
 40
0.0068198807435804
 40
0.0102336319921785
 40
0.0136472148576178
 40
0.0136472148576178
 40
0.0136472148576178
 40
0.0136472148576178
 10
-9.702140808106243
 20
-9.349830627441869
 30
0.0
 10
-9.703277588620947
 20
-9.349779780793852
 30
0.0
 10
-9.705548611604033
 20
-9.349678201021179
 30
0.0
 10
-9.708956401991875
 20
-9.349525487453844
 30
0.0
 10
-9.712364097010327
 20
-9.349371876883131
 30
0.0
 10
-9.714637741783976
 20
-9.349273351868976
 30
0.0
 10
-9.715774536133245
 20
-9.349224090576864
 30
0.0
 11
-9.702140808106243
 21
-9.349830627441869
 31
0.0
 11
-9.705551147461243
 21
-9.349678039550877
 31
0.0
 11
-9.708953857422239
 21
-9.34952545165988
 31
0.0
 11
-9.712364196778246
 21
-9.349372863769881
 31
0.0
 11
-9.715774536133245
 21
-9.349224090576864
 31
0.0
  0
SPLINE
  5
A53A
330
1F
100
AcDbEntity
  8
AM_0
100
AcDbSpline
210
0.0
220
0.0
230
1.0
 70
     8
 71
     3
 72
    11
 73
     7
 74
     5
 42
0.0000000001
 43
0.0000000001
 44
0.0000000001
 40
0.0
 40
0.0
 40
0.0
 40
0.0
 40
0.0845394914926193
 40
0.1690789829842337
 40
0.2536108462949355
 40
0.3381502698806131
 40
0.3381502698806131
 40
0.3381502698806131
 40
0.3381502698806131
 10
-18.55653381347723
 20
-10.05730056762691
 30
0.0
 10
-18.58470916700495
 20
-10.05780286284651
 30
0.0
 10
-18.64105987406005
 20
-10.0588074532857
 30
0.0
 10
-18.72558340089237
 20
-10.06031381220287
 30
0.0
 10
-18.8101068708028
 20
-10.06182209630327
 30
0.0
 10
-18.86645507178911
 20
-10.06282333358375
 30
0.0
 10
-18.89463043212923
 20
-10.0633239746099
 30
0.0
 11
-18.55653381347723
 21
-10.05730056762691
 31
0.0
 11
-18.64105987548924
 21
-10.05880737304689
 31
0.0
 11
-18.72558593750023
 21
-10.06031417846689
 31
0.0
 11
-18.81010437011824
 21
-10.0618209838869
 31
0.0
 11
-18.89463043212923
 21
-10.0633239746099
 31
0.0
  0
SPLINE
  5
A53B
330
1F
100
AcDbEntity
  8
AM_0
100
AcDbSpline
210
0.0
220
0.0
230
1.0
 70
     8
 71
     3
 72
    11
 73
     7
 74
     5
 42
0.0000000001
 43
0.0000000001
 44
0.0000000001
 40
0.0
 40
0.0
 40
0.0
 40
0.0
 40
1.959025489119787
 40
4.460711356720903
 40
7.246175112869478
 40
10.13093226249581
 40
10.13093226249581
 40
10.13093226249581
 40
10.13093226249581
 10
-36.18186950683627
 20
9.958164215088071
 30
0.0
 10
-35.78321819745883
 20
9.438695875002331
 30
0.0
 10
-34.87548706634904
 20
8.255863728638297
 30
0.0
 10
-32.97207993484063
 20
6.733763550105337
 30
0.0
 10
-30.49995449638342
 20
5.492353830889046
 30
0.0
 10
-28.61361607121741
 20
5.246483195734177
 30
0.0
 10
-27.65393066406327
 20
5.121395111084106
 30
0.0
 11
-36.18186950683627
 21
9.958164215088071
 31
0.0
 11
-34.93499755859425
 21
8.447174072265099
 31
0.0
 11
-32.99946594238326
 21
6.86219787597607
 31
0.0
 11
-30.48872375488327
 21
5.655971527099097
 31
0.0
 11
-27.65393066406327
 21
5.121395111084106
 31
0.0
  0
SPLINE
  5
A53C
330
1F
100
AcDbEntity
  8
AM_0
100
AcDbSpline
210
0.0
220
0.0
230
1.0
 70
     8
 71
     3
 72
    11
 73
     7
 74
     5
 42
0.0000000001
 43
0.0000000001
 44
0.0000000001
 40
0.0
 40
0.0
 40
0.0
 40
0.0
 40
0.0066616509545838
 40
0.0136192446593834
 40
0.0208961714024454
 40
0.0285205059664754
 40
0.0285205059664754
 40
0.0285205059664754
 40
0.0285205059664754
 10
-36.92561340332126
 20
10.93088150024408
 30
0.0
 10
-36.92455036009415
 20
10.92893077951468
 30
0.0
 10
-36.92237704811903
 20
10.92494267760767
 30
0.0
 10
-36.91850458971578
 20
10.91914437990326
 30
0.0
 10
-36.91415997260123
 20
10.91328951369622
 30
0.0
 10
-36.91091585626061
 20
10.90952602046494
 30
0.0
 10
-36.90925598144627
 20
10.90760040283208
 30
0.0
 11
-36.92561340332126
 21
10.93088150024408
 31
0.0
 11
-36.92234039306725
 21
10.92507934570307
 31
0.0
 11
-36.91851806640727
 21
10.91926574707008
 31
0.0
 11
-36.91416168212926
 21
10.91343688964806
 31
0.0
 11
-36.90925598144627
 21
10.90760040283208
 31
0.0
  0
SPLINE
  5
A53E
330
1F
100
AcDbEntity
  8
AM_0
100
AcDbSpline
210
0.0
220
0.0
230
1.0
 70
     8
 71
     3
 72
    11
 73
     7
 74
     5
 42
0.0000000001
 43
0.0000000001
 44
0.0000000001
 40
0.0
 40
0.0
 40
0.0
 40
0.0
 40
0.0523148384112369
 40
0.1046220613492277
 40
0.1569369065753983
 40
0.2092517518015847
 40
0.2092517518015847
 40
0.2092517518015847
 40
0.2092517518015847
 10
-9.985206604004273
 20
11.33736801147411
 30
0.0
 10
-10.00264485818511
 20
11.33733826759393
 30
0.0
 10
-10.0375188280594
 20
11.33727878416339
 30
0.0
 10
-10.08983102894001
 20
11.33717563197671
 30
0.0
 10
-10.14214325026975
 20
11.33708231920441
 30
0.0
 10
-10.17701975529876
 20
11.33701846756688
 30
0.0
 10
-10.19445800781327
 20
11.33698654174811
 30
0.0
 11
-9.985206604004273
 21
11.33736801147411
 31
0.0
 11
-10.03752136230526
 21
11.3372764587401
 31
0.0
 11
-10.08982849121127
 21
11.33717727661111
 31
0.0
 11
-10.14214324951226
 21
11.3370819091791
 31
0.0
 11
-10.19445800781327
 21
11.33698654174811
 31
0.0
  0
SPLINE
  5
A541
330
1F
100
AcDbEntity
  8
AM_0
100
AcDbSpline
210
0.0
220
0.0
230
1.0
 70
     8
 71
     3
 72
    11
 73
     7
 74
     5
 42
0.0000000001
 43
0.0000000001
 44
0.0000000001
 40
0.0
 40
0.0
 40
0.0
 40
0.0
 40
0.0364667111908359
 40
0.0729333543451715
 40
0.1093999974995102
 40
0.1458666406538671
 40
0.1458666406538671
 40
0.1458666406538671
 40
0.1458666406538671
 10
-27.44879150390727
 20
10.0607185363771
 30
0.0
 10
-27.46094512332144
 20
10.0609363146113
 30
0.0
 10
-27.48525233947462
 20
10.0613718706734
 30
0.0
 10
-27.5217132616953
 20
10.06201907575303
 30
0.0
 10
-27.55817413208652
 20
10.06266791477661
 30
0.0
 10
-27.58248138387301
 20
10.06310020173561
 30
0.0
 10
-27.59463500976627
 20
10.0633163452151
 30
0.0
 11
-27.44879150390727
 21
10.0607185363771
 31
0.0
 11
-27.48525238037127
 21
10.06137084960909
 31
0.0
 11
-27.52171325683626
 21
10.06201934814411
 31
0.0
 11
-27.55817413330126
 21
10.0626678466791
 31
0.0
 11
-27.59463500976627
 21
10.0633163452151
 31
0.0
  0
SPLINE
  5
A543
330
1F
100
AcDbEntity
  8
AM_0
100
AcDbSpline
210
0.0
220
0.0
230
1.0
 70
     8
 71
     3
 72
    11
 73
     7
 74
     5
 42
0.0000000001
 43
0.0000000001
 44
0.0000000001
 40
0.0
 40
0.0
 40
0.0
 40
0.0
 40
1.203474198966397
 40
2.497472579744616
 40
3.818379976774988
 40
4.953008260855352
 40
4.953008260855352
 40
4.953008260855352
 40
4.953008260855352
 10
-21.03138732910227
 20
9.026878356933114
 30
0.0
 10
-21.21309885531074
 20
9.415703131070893
 30
0.0
 10
-21.59019007547897
 20
10.22259970813794
 30
0.0
 10
-23.02522633891681
 20
10.33383092442857
 30
0.0
 10
-24.27101855345094
 20
9.726298731286057
 30
0.0
 10
-24.42037462049191
 20
8.878203361851122
 30
0.0
 10
-24.48938751220727
 20
8.4863243103021
 30
0.0
 11
-21.03138732910227
 21
9.026878356933114
 31
0.0
 11
-21.70690917968828
 21
10.0228805541991
 31
0.0
 11
-22.98721313476626
 21
10.2106399536131
 31
0.0
 11
-24.14004516601629
 21
9.565834045410094
 31
0.0
 11
-24.48938751220727
 21
8.4863243103021
 31
0.0
  0
SPLINE
  5
A544
330
1F
100
AcDbEntity
  8
AM_0
100
AcDbSpline
210
0.0
220
0.0
230
1.0
 70
     8
 71
     3
 72
    11
 73
     7
 74
     5
 42
0.0000000001
 43
0.0000000001
 44
0.0000000001
 40
0.0
 40
0.0
 40
0.0
 40
0.0
 40
0.8393807527450077
 40
1.679076458936644
 40
2.519089187634361
 40
3.35941526962026
 40
3.35941526962026
 40
3.35941526962026
 40
3.35941526962026
 10
-27.32593536377028
 20
10.59848785400411
 30
0.0
 10
-27.38829126676883
 20
10.32573120068387
 30
0.0
 10
-27.5130264700222
 20
9.780115549966792
 30
0.0
 10
-27.69991999798503
 20
8.961482015574503
 30
0.0
 10
-27.88670818615608
 20
8.142501233712941
 30
0.0
 10
-28.01108697315401
 20
7.596372656517652
 30
0.0
 10
-28.07328796386826
 20
7.323257446289098
 30
0.0
 11
-27.32593536377028
 21
10.59848785400411
 31
0.0
 11
-27.51296234130927
 21
9.780208587646097
 31
0.0
 11
-27.69986724853628
 21
8.961578369140125
 31
0.0
 11
-27.88664245605527
 21
8.142593383789098
 31
0.0
 11
-28.07328796386826
 21
7.323257446289098
 31
0.0
  0
SPLINE
  5
A545
330
1F
100
AcDbEntity
  8
AM_0
100
AcDbSpline
210
0.0
220
0.0
230
1.0
 70
     8
 71
     3
 72
    11
 73
     7
 74
     5
 42
0.0000000001
 43
0.0000000001
 44
0.0000000001
 40
0.0
 40
0.0
 40
0.0
 40
0.0
 40
1.003137480528369
 40
2.006086896246407
 40
3.00884946515413
 40
4.011423969640752
 40
4.011423969640752
 40
4.011423969640752
 40
4.011423969640752
 10
-18.12178802490326
 20
6.447448730468112
 30
0.0
 10
-18.0684063918934
 20
6.777539360486544
 30
0.0
 10
-17.96165313368107
 20
7.437658736252378
 30
0.0
 10
-17.80156163358588
 20
8.427749164729069
 30
0.0
 10
-17.64150084827002
 20
9.417654463585201
 30
0.0
 10
-17.53481925413621
 20
10.07753223976801
 30
0.0
 10
-17.48148345947327
 20
10.40744018554711
 30
0.0
 11
-18.12178802490326
 21
6.447448730468112
 31
0.0
 11
-17.96164703369225
 21
7.437721252441109
 31
0.0
 11
-17.80155181884827
 21
8.427810668945101
 31
0.0
 11
-17.64149475097727
 21
9.417716979980117
 31
0.0
 11
-17.48148345947327
 21
10.40744018554711
 31
0.0
  0
SPLINE
  5
A546
330
1F
100
AcDbEntity
  8
AM_0
100
AcDbSpline
210
0.0
220
0.0
230
1.0
 70
     8
 71
     3
 72
    11
 73
     7
 74
     5
 42
0.0000000001
 43
0.0000000001
 44
0.0000000001
 40
0.0
 40
0.0
 40
0.0
 40
0.0
 40
1.051202407051415
 40
2.10249586670562
 40
3.153881543855828
 40
4.205362050371139
 40
4.205362050371139
 40
4.205362050371139
 40
4.205362050371139
 10
-0.7217864990242563
 20
6.44494628906215
 30
0.0
 10
-0.6684017276856906
 20
6.791256538069545
 30
0.0
 10
-0.5616275609491515
 20
7.483907032638123
 30
0.0
 10
-0.4015392628407
 20
8.522940474316563
 30
0.0
 10
-0.2414749491779547
 20
9.562071404345326
 30
0.0
 10
-0.1348145420829085
 20
10.2548643193522
 30
0.0
 10
-0.0814819335942709
 20
10.60127639770512
 30
0.0
 11
-0.7217864990242563
 21
6.44494628906215
 31
0.0
 11
-0.5616455078132657
 21
7.483879089355149
 31
0.0
 11
-0.4015502929692777
 21
8.522911071777135
 31
0.0
 11
-0.2414932250982871
 21
9.562042236328148
 31
0.0
 11
-0.0814819335942709
 21
10.60127639770512
 31
0.0
  0
SPLINE
  5
A548
330
1F
100
AcDbEntity
  8
AM_0
100
AcDbSpline
210
0.0
220
0.0
230
1.0
 70
     8
 71
     3
 72
    11
 73
     7
 74
     5
 42
0.0000000001
 43
0.0000000001
 44
0.0000000001
 40
0.0
 40
0.0
 40
0.0
 40
0.0
 40
1.129124655797267
 40
2.268741508884498
 40
3.40447375394726
 40
4.541980133460819
 40
4.541980133460819
 40
4.541980133460819
 40
4.541980133460819
 10
-5.280693054200265
 20
10.80541610717713
 30
0.0
 10
-5.666553286231981
 20
10.74405347595568
 30
0.0
 10
-6.441859290350748
 20
10.62075801178198
 30
0.0
 10
-7.14725833167555
 20
9.594943220856738
 30
0.0
 10
-7.131530486940477
 20
8.344990530797103
 30
0.0
 10
-6.546762548854625
 20
7.81691898997133
 30
0.0
 10
-6.254150390625254
 20
7.55267715454113
 30
0.0
 11
-5.280693054200265
 21
10.80541610717713
 31
0.0
 11
-6.362670898438273
 21
10.48254394531215
 31
0.0
 11
-7.027168273926283
 21
9.556709289550125
 31
0.0
 11
-6.988189697266279
 21
8.421646118164117
 31
0.0
 11
-6.254150390625254
 21
7.55267715454113
 31
0.0
  0
SPLINE
  5
A549
330
1F
100
AcDbEntity
  8
AM_0
100
AcDbSpline
210
0.0
220
0.0
230
1.0
 70
     8
 71
     3
 72
    11
 73
     7
 74
     5
 42
0.0000000001
 43
0.0000000001
 44
0.0000000001
 40
0.0
 40
0.0
 40
0.0
 40
0.0
 40
1.054480161923163
 40
2.109036291568232
 40
3.163674564523216
 40
4.218391246664127
 40
4.218391246664127
 40
4.218391246664127
 40
4.218391246664127
 10
-9.925933837891276
 20
11.66632843017511
 30
0.0
 10
-9.988285685032252
 20
11.32040958296795
 30
0.0
 10
-10.11299387131694
 20
10.62854696758523
 30
0.0
 10
-10.2998918517541
 20
9.590682754116201
 30
0.0
 10
-10.4866761318734
 20
8.552717964861242
 30
0.0
 10
-10.61108146114755
 20
7.860692903622982
 30
0.0
 10
-10.67328643798926
 20
7.514667510986114
 30
0.0
 11
-9.925933837891276
 21
11.66632843017511
 31
0.0
 11
-10.11296081543026
 21
10.62856674194311
 31
0.0
 11
-10.29986572265727
 21
9.59070587158213
 31
0.0
 11
-10.48664093017627
 21
8.552738189697137
 31
0.0
 11
-10.67328643798926
 21
7.514667510986114
 31
0.0
  0
SPLINE
  5
A54A
330
1F
100
AcDbEntity
  8
AM_0
100
AcDbSpline
210
0.0
220
0.0
230
1.0
 70
     8
 71
     3
 72
    11
 73
     7
 74
     5
 42
0.0000000001
 43
0.0000000001
 44
0.0000000001
 40
0.0
 40
0.0
 40
0.0
 40
0.0
 40
1.34126956181762
 40
2.677336439095399
 40
4.01865540052512
 40
5.347259984287943
 40
5.347259984287943
 40
5.347259984287943
 40
5.347259984287943
 10
-5.433380126954259
 20
7.308750152588148
 30
0.0
 10
-4.970375524380966
 20
7.398569960100492
 30
0.0
 10
-4.046162279536662
 20
7.577861170794523
 30
0.0
 10
-3.42735829486567
 20
8.976587760006456
 30
0.0
 10
-3.935457210106219
 20
10.41020540368393
 30
0.0
 10
-4.833706950548086
 20
10.67409809833012
 30
0.0
 10
-5.280693054200265
 20
10.80541610717713
 30
0.0
 11
-5.433380126954259
 21
7.308750152588148
 31
0.0
 11
-4.172851562500269
 21
7.767086029052117
 31
0.0
 11
-3.615394592286282
 21
8.981300354004115
 31
0.0
 11
-4.078308105469269
 21
10.24020767211911
 31
0.0
 11
-5.280693054200265
 21
10.80541610717713
 31
0.0
  0
SPLINE
  5
A54C
330
1F
100
AcDbEntity
  8
AM_0
100
AcDbSpline
210
0.0
220
0.0
230
1.0
 70
     8
 71
     3
 72
    11
 73
     7
 74
     5
 42
0.0000000001
 43
0.0000000001
 44
0.0000000001
 40
0.0
 40
0.0
 40
0.0
 40
0.0
 40
2.200365979984966
 40
4.370332787690259
 40
6.536348506977335
 40
8.730821409302521
 40
8.730821409302521
 40
8.730821409302521
 40
8.730821409302521
 10
-0.3658294677742764
 20
12.14230728149413
 30
0.0
 10
-1.098897202519879
 20
12.16686359138894
 30
0.0
 10
-2.554904969363475
 20
12.21563695329971
 30
0.0
 10
-4.733618469793314
 20
12.24123126349449
 30
0.0
 10
-6.910392436014664
 20
12.26197638332732
 30
0.0
 10
-8.363281665244803
 20
12.30545191387569
 30
0.0
 10
-9.09446716308628
 20
12.32733154296811
 30
0.0
 11
-0.3658294677742764
 21
12.14230728149413
 31
0.0
 11
-2.565216064454276
 21
12.20795059204114
 31
0.0
 11
-4.734939575196279
 21
12.24044418334916
 31
0.0
 11
-6.900764465332273
 21
12.26919555664013
 31
0.0
 11
-9.09446716308628
 21
12.32733154296811
 31
0.0
  0
SPLINE
  5
A54D
330
1F
100
AcDbEntity
  8
AM_0
100
AcDbSpline
210
0.0
220
0.0
230
1.0
 70
     8
 71
     3
 72
    11
 73
     7
 74
     5
 42
0.0000000001
 43
0.0000000001
 44
0.0000000001
 40
0.0
 40
0.0
 40
0.0
 40
0.0
 40
0.1076746810612937
 40
0.2150156475074354
 40
0.3234773420486382
 40
0.4342269853868577
 40
0.4342269853868577
 40
0.4342269853868577
 40
0.4342269853868577
 10
-17.40000152587927
 20
11.47504043579111
 30
0.0
 10
-17.40018087787802
 20
11.51123249959891
 30
0.0
 10
-17.40053902601241
 20
11.58350445766334
 30
0.0
 10
-17.44274992723846
 20
11.68526237431797
 30
0.0
 10
-17.51406190246263
 20
11.77104908223998
 30
0.0
 10
-17.58020689353684
 20
11.8037622907122
 30
0.0
 10
-17.61362457275427
 20
11.8202896118161
 30
0.0
 11
-17.40000152587927
 21
11.47504043579111
 31
0.0
 11
-17.40748596191427
 21
11.5824546813961
 31
0.0
 11
-17.44729614257927
 21
11.6821403503411
 31
0.0
 11
-17.51803588867227
 21
11.76435852050711
 31
0.0
 11
-17.61362457275427
 21
11.8202896118161
 31
0.0
  0
SPLINE
  5
A54E
330
1F
100
AcDbEntity
  8
AM_0
100
AcDbSpline
210
0.0
220
0.0
230
1.0
 70
     8
 71
     3
 72
    11
 73
     7
 74
     5
 42
0.0000000001
 43
0.0000000001
 44
0.0000000001
 40
0.0
 40
0.0
 40
0.0
 40
0.0
 40
0.0391517307326101
 40
0.0782995274065866
 40
0.1174466250598465
 40
0.1565949525416268
 40
0.1565949525416268
 40
0.1565949525416268
 40
0.1565949525416268
 10
-0.2136230468752704
 20
12.10589599609315
 30
0.0
 10
-0.2256393904990663
 20
12.1110179324368
 30
0.0
 10
-0.2496708703159907
 20
12.12126129045983
 30
0.0
 10
-0.2874099385806788
 20
12.13197899924661
 30
0.0
 10
-0.3259066528051989
 20
12.13950308260631
 30
0.0
 10
-0.3519622374288676
 20
12.14134710756116
 30
0.0
 10
-0.3649902343752705
 20
12.14226913452113
 30
0.0
 11
-0.2136230468752704
 21
12.10589599609315
 31
0.0
 11
-0.2499542236332819
 21
12.12048721313412
 31
0.0
 11
-0.2875366210942763
 21
12.13144683837912
 31
0.0
 11
-0.3260040283212793
 21
12.13871002197213
 31
0.0
 11
-0.3649902343752705
 21
12.14226913452113
 31
0.0
  0
SPLINE
  5
A54F
330
1F
100
AcDbEntity
  8
AM_0
100
AcDbSpline
210
0.0
220
0.0
230
1.0
 70
     8
 71
     3
 72
    11
 73
     7
 74
     5
 42
0.0000000001
 43
0.0000000001
 44
0.0000000001
 40
0.0
 40
0.0
 40
0.0
 40
0.0
 40
0.1108224850976063
 40
0.2546761406626366
 40
0.4286923789787295
 40
0.6247769135646668
 40
0.6247769135646668
 40
0.6247769135646668
 40
0.6247769135646668
 10
-16.32485961914126
 20
10.46555328369111
 30
0.0
 10
-16.35060591675868
 20
10.43870622236406
 30
0.0
 10
-16.40977231884558
 20
10.377010204982
 30
0.0
 10
-16.54125213044009
 20
10.31511911048062
 30
0.0
 10
-16.70427421635972
 20
10.26217651584544
 30
0.0
 10
-16.82673525864556
 20
10.24484620649378
 30
0.0
 10
-16.89161682128926
 20
10.23566436767511
 30
0.0
 11
-16.32485961914126
 21
10.46555328369111
 31
0.0
 11
-16.40568542480525
 21
10.38973236084012
 31
0.0
 11
-16.53268432617226
 21
10.32216644287111
 31
0.0
 11
-16.69839477539126
 21
10.26904678344711
 31
0.0
 11
-16.89161682128926
 21
10.23566436767511
 31
0.0
  0
SPLINE
  5
A550
330
1F
100
AcDbEntity
  8
AM_0
100
AcDbSpline
210
0.0
220
0.0
230
1.0
 70
     8
 71
     3
 72
    11
 73
     7
 74
     5
 42
0.0000000001
 43
0.0000000001
 44
0.0000000001
 40
0.0
 40
0.0
 40
0.0
 40
0.0
 40
0.1144945718235959
 40
0.2294977380337984
 40
0.3449406283395323
 40
0.460534823689401
 40
0.460534823689401
 40
0.460534823689401
 40
0.460534823689401
 10
-0.0000000000002691
 20
11.72752380371115
 30
0.0
 10
-0.0002040098934027
 20
11.76596992492401
 30
0.0
 10
-0.00061293590854
 20
11.84303294820966
 30
0.0
 10
-0.042682797991558
 20
11.95228918879119
 30
0.0
 10
-0.1130627728704283
 20
12.04688854437382
 30
0.0
 10
-0.1800883239730735
 20
12.08621825990801
 30
0.0
 10
-0.2136230468752704
 20
12.10589599609315
 30
0.0
 11
-0.0000000000002691
 21
11.72752380371115
 31
0.0
 11
-0.0074768066412782
 21
11.84177398681613
 31
0.0
 11
-0.0473022460942757
 21
11.94966125488214
 31
0.0
 11
-0.1180343627932816
 21
12.04089736938413
 31
0.0
 11
-0.2136230468752704
 21
12.10589599609315
 31
0.0
  0
SPLINE
  5
A551
330
1F
100
AcDbEntity
  8
AM_0
100
AcDbSpline
210
0.0
220
0.0
230
1.0
 70
     8
 71
     3
 72
    11
 73
     7
 74
     5
 42
0.0000000001
 43
0.0000000001
 44
0.0000000001
 40
0.0
 40
0.0
 40
0.0
 40
0.0
 40
0.0380200060291278
 40
0.0764435184364717
 40
0.1151972990674682
 40
0.1542064815292465
 40
0.1542064815292465
 40
0.1542064815292465
 40
0.1542064815292465
 10
-17.61362457275427
 20
11.8202896118161
 30
0.0
 10
-17.62567341355634
 20
11.8242492159217
 30
0.0
 10
-17.64989896952508
 20
11.83221044741691
 30
0.0
 10
-17.68757729437281
 20
11.83995589706415
 30
0.0
 10
-17.72604382119876
 20
11.84492783252429
 30
0.0
 10
-17.75197563780321
 20
11.84549239559672
 30
0.0
 10
-17.76498413086026
 20
11.84577560424808
 30
0.0
 11
-17.61362457275427
 21
11.8202896118161
 31
0.0
 11
-17.64996337890727
 21
11.83147048950211
 31
0.0
 11
-17.68754577636828
 21
11.83946609497012
 31
0.0
 11
-17.72600555420026
 21
11.84423065185511
 31
0.0
 11
-17.76498413086026
 21
11.84577560424808
 31
0.0
  0
SPLINE
  5
A552
330
1F
100
AcDbEntity
  8
AM_0
100
AcDbSpline
210
0.0
220
0.0
230
1.0
 70
     8
 71
     3
 72
    11
 73
     7
 74
     5
 42
0.0000000001
 43
0.0000000001
 44
0.0000000001
 40
0.0
 40
0.0
 40
0.0
 40
0.0
 40
0.2888043177568271
 40
0.5699574129875114
 40
0.8305167500525334
 40
1.066942772922579
 40
1.066942772922579
 40
1.066942772922579
 40
1.066942772922579
 10
-26.49446868896526
 20
11.1571006774901
 30
0.0
 10
-26.59084712367925
 20
11.1464647683108
 30
0.0
 10
-26.78105066268458
 20
11.12547472450645
 30
0.0
 10
-27.03354647558115
 20
11.00364631091384
 30
0.0
 10
-27.2375036622701
 20
10.83010279563967
 30
0.0
 10
-27.29742809490113
 20
10.67315236122614
 30
0.0
 10
-27.32593536377028
 20
10.59848785400411
 30
0.0
 11
-26.49446868896526
 21
11.1571006774901
 31
0.0
 11
-26.77925872802826
 21
11.10911560058612
 31
0.0
 11
-27.03369140625027
 21
10.98948669433612
 31
0.0
 11
-27.22449493408227
 21
10.81204605102511
 31
0.0
 11
-27.32593536377028
 21
10.59848785400411
 31
0.0
  0
SPLINE
  5
A553
330
1F
100
AcDbEntity
  8
AM_0
100
AcDbSpline
210
0.0
220
0.0
230
1.0
 70
     8
 71
     3
 72
    11
 73
     7
 74
     5
 42
0.0000000001
 43
0.0000000001
 44
0.0000000001
 40
0.0
 40
0.0
 40
0.0
 40
0.0
 40
2.202039352389958
 40
4.38264419116268
 40
6.560648776557818
 40
8.758381355938054
 40
8.758381355938054
 40
8.758381355938054
 40
8.758381355938054
 10
-17.76583099365327
 20
11.84577560424808
 30
0.0
 10
-18.49962760440469
 20
11.81888451517574
 30
0.0
 10
-19.96007809549793
 20
11.76536409321371
 30
0.0
 10
-22.13443738196501
 20
11.52287990311694
 30
0.0
 10
-24.30517155042914
 20
11.26426333379003
 30
0.0
 10
-25.76251283694622
 20
11.19292876679601
 30
0.0
 10
-26.49446868896526
 20
11.1571006774901
 30
0.0
 11
-17.76583099365327
 21
11.84577560424808
 31
0.0
 11
-19.96521759033227
 21
11.73772048950212
 31
0.0
 11
-22.13493347168026
 21
11.52007293701108
 31
0.0
 11
-24.30076599121127
 21
11.29013061523408
 31
0.0
 11
-26.49446868896526
 21
11.1571006774901
 31
0.0
  0
SPLINE
  5
A554
330
1F
100
AcDbEntity
  8
AM_0
100
AcDbSpline
210
0.0
220
0.0
230
1.0
 70
     8
 71
     3
 72
    11
 73
     7
 74
     5
 42
0.0000000001
 43
0.0000000001
 44
0.0000000001
 40
0.0
 40
0.0
 40
0.0
 40
0.0
 40
0.2876807661067014
 40
0.5764656774282377
 40
0.8645929599066985
 40
1.150982426786317
 40
1.150982426786317
 40
1.150982426786317
 40
1.150982426786317
 10
-9.09446716308628
 20
12.32733154296811
 30
0.0
 10
-9.191220379264253
 20
12.32070273800011
 30
0.0
 10
-9.385098159354383
 20
12.30741968610152
 30
0.0
 10
-9.642939615331675
 20
12.16227242451489
 30
0.0
 10
-9.843984875827098
 20
11.94499225452247
 30
0.0
 10
-9.898672657620723
 20
11.75902886907105
 30
0.0
 10
-9.925933837891276
 20
11.66632843017511
 30
0.0
 11
-9.09446716308628
 21
12.32733154296811
 31
0.0
 11
-9.379257202149277
 21
12.28665161132811
 31
0.0
 11
-9.63368988037128
 21
12.15004730224613
 31
0.0
 11
-9.824493408204274
 21
11.93415069580011
 31
0.0
 11
-9.925933837891276
 21
11.66632843017511
 31
0.0
  0
SPLINE
  5
A569
330
1F
100
AcDbEntity
  8
AM_0
100
AcDbSpline
210
0.0
220
0.0
230
1.0
 70
     8
 71
     3
 72
    11
 73
     7
 74
     5
 42
0.0000000001
 43
0.0000000001
 44
0.0000000001
 40
0.0
 40
0.0
 40
0.0
 40
0.0
 40
0.9636153911740983
 40
1.924157553136526
 40
2.845820308891491
 40
3.729201307307705
 40
3.729201307307705
 40
3.729201307307705
 40
3.729201307307705
 10
-23.65415954589925
 20
7.437370300293106
 30
0.0
 10
-23.34393807256935
 20
7.331475061633626
 30
0.0
 10
-22.72448450580392
 20
7.120022312773348
 30
0.0
 10
-21.76157139816061
 20
7.394095725749315
 30
0.0
 10
-21.06072260413417
 20
8.102666157295717
 30
0.0
 10
-21.04102651447339
 20
8.723194389257105
 30
0.0
 10
-21.03138732910227
 20
9.026878356933114
 30
0.0
 11
-23.65415954589925
 21
7.437370300293106
 31
0.0
 11
-22.71556854248126
 21
7.219192504882101
 31
0.0
 11
-21.79005432128926
 21
7.476222991943106
 31
0.0
 11
-21.16514587402427
 21
8.153682708740124
 31
0.0
 11
-21.03138732910227
 21
9.026878356933114
 31
0.0
  0
SPLINE
  5
A56A
330
1F
100
AcDbEntity
  8
AM_0
100
AcDbSpline
210
0.0
220
0.0
230
1.0
 70
     8
 71
     3
 72
    11
 73
     7
 74
     5
 42
0.0000000001
 43
0.0000000001
 44
0.0000000001
 40
0.0
 40
0.0
 40
0.0
 40
0.0
 40
0.1143578566162679
 40
0.228936701176436
 40
0.3439099911448149
 40
0.4592897159351441
 40
0.4592897159351441
 40
0.4592897159351441
 40
0.4592897159351441
 10
-0.577972412110243
 20
0.2999954223631315
 30
0.0
 10
-0.5397189187641784
 20
0.2965877296974506
 30
0.0
 10
-0.4631380100776046
 20
0.2897657592566969
 30
0.0
 10
-0.358197596379631
 20
0.2385442675293278
 30
0.0
 10
-0.2706402341122889
 20
0.160036933182651
 30
0.0
 10
-0.2379885556649874
 20
0.0897537608656012
 30
0.0
 10
-0.2216339111332532
 20
0.0545501708981469
 30
0.0
 11
-0.577972412110243
 21
0.2999954223631315
 31
0.0
 11
-0.4648895263682544
 21
0.2829666137691262
 31
0.0
 11
-0.3612518310552426
 21
0.2341041564941338
 31
0.0
 11
-0.2771759033212509
 21
0.1556816101071311
 31
0.0
 11
-0.2216339111332532
 21
0.0545501708981469
 31
0.0
  0
SPLINE
  5
A56B
330
1F
100
AcDbEntity
  8
AM_0
100
AcDbSpline
210
0.0
220
0.0
230
1.0
 70
     8
 71
     3
 72
    11
 73
     7
 74
     5
 42
0.0000000001
 43
0.0000000001
 44
0.0000000001
 40
0.0
 40
0.0
 40
0.0
 40
0.0
 40
0.0577734151584953
 40
0.1156599755702651
 40
0.1749778955522987
 40
0.2368892776471901
 40
0.2368892776471901
 40
0.2368892776471901
 40
0.2368892776471901
 10
-28.18320465087925
 20
6.437557220459105
 30
0.0
 10
-28.18435839690586
 20
6.418243533099567
 30
0.0
 10
-28.18666814849116
 20
6.37957833385442
 30
0.0
 10
-28.17310796143395
 20
6.322121683676157
 30
0.0
 10
-28.14693594599761
 20
6.267668427388647
 30
0.0
 10
-28.11960304391538
 20
6.237642995815788
 30
0.0
 10
-28.10564422607527
 20
6.222309112548097
 30
0.0
 11
-28.18320465087925
 21
6.437557220459105
 31
0.0
 11
-28.18385314941425
 21
6.37978744506811
 31
0.0
 11
-28.17125701904326
 21
6.323287963867109
 31
0.0
 11
-28.14501190185627
 21
6.270092010498111
 31
0.0
 11
-28.10564422607527
 21
6.222309112548097
 31
0.0
  0
SPLINE
  5
A56C
330
1F
100
AcDbEntity
  8
AM_0
100
AcDbSpline
210
0.0
220
0.0
230
1.0
 70
     8
 71
     3
 72
    11
 73
     7
 74
     5
 42
0.0000000001
 43
0.0000000001
 44
0.0000000001
 40
0.0
 40
0.0
 40
0.0
 40
0.0
 40
2.224831856491118
 40
4.443875044254887
 40
6.664041035047967
 40
8.888903109394323
 40
8.888903109394323
 40
8.888903109394323
 40
8.888903109394323
 10
-1.539070129395261
 20
5.783321380615138
 30
0.0
 10
-2.280367284069104
 20
5.805573942081968
 30
0.0
 10
-3.761032852759642
 20
5.85002116728898
 30
0.0
 10
-5.982312678388359
 20
5.873011760154121
 30
0.0
 10
-8.203573569096322
 20
5.900797342687464
 30
0.0
 10
-9.684462811220463
 20
5.950410052446915
 30
0.0
 10
-10.42568969726627
 20
5.975242614746135
 30
0.0
 11
-1.539070129395261
 21
5.783321380615138
 31
0.0
 11
-3.763107299805262
 21
5.842781066894115
 31
0.0
 11
-5.981933593750261
 21
5.873805999756143
 31
0.0
 11
-8.201828002930261
 21
5.908531188965121
 31
0.0
 11
-10.42568969726627
 21
5.975242614746135
 31
0.0
  0
SPLINE
  5
A56D
330
1F
100
AcDbEntity
  8
AM_0
100
AcDbSpline
210
0.0
220
0.0
230
1.0
 70
     8
 71
     3
 72
    11
 73
     7
 74
     5
 42
0.0000000001
 43
0.0000000001
 44
0.0000000001
 40
0.0
 40
0.0
 40
0.0
 40
0.0
 40
0.2241389036962633
 40
0.4482804637593856
 40
0.6724193674549126
 40
0.8965664031775776
 40
0.8965664031775776
 40
0.8965664031775776
 40
0.8965664031775776
 10
-27.82653808593827
 20
6.120037078857118
 30
0.0
 10
-27.77291595310138
 20
6.068011177205677
 30
0.0
 10
-27.66567105192857
 20
5.963958757321387
 30
0.0
 10
-27.50480770686751
 20
5.807876633736102
 30
0.0
 10
-27.34393909941628
 20
5.651796041184817
 30
0.0
 10
-27.23669189615528
 20
5.547743372889452
 30
0.0
 10
-27.18306732177826
 20
5.495716094970116
 30
0.0
 11
-27.82653808593827
 21
6.120037078857118
 31
0.0
 11
-27.66567230224627
 21
5.963958740234099
 31
0.0
 11
-27.50480651855526
 21
5.8078765869141
 31
0.0
 11
-27.34394073486426
 21
5.651798248291111
 31
0.0
 11
-27.18306732177826
 21
5.495716094970116
 31
0.0
  0
SPLINE
  5
A56E
330
1F
100
AcDbEntity
  8
AM_0
100
AcDbSpline
210
0.0
220
0.0
230
1.0
 70
     8
 71
     3
 72
    11
 73
     7
 74
     5
 42
0.0000000001
 43
0.0000000001
 44
0.0000000001
 40
0.0
 40
0.0
 40
0.0
 40
0.0
 40
0.2881835782135044
 40
0.5746933389202602
 40
0.8595752283123959
 40
1.143896957432548
 40
1.143896957432548
 40
1.143896957432548
 40
1.143896957432548
 10
-1.539070129395261
 20
5.783321380615138
 30
0.0
 10
-1.442118234109765
 20
5.789824166468813
 30
0.0
 10
-1.248777556054231
 20
5.802791968928965
 30
0.0
 10
-0.9926345907947183
 20
5.947983519931699
 30
0.0
 10
-0.7962184013765938
 20
6.166612487391881
 30
0.0
 10
-0.7465808501671029
 20
6.352229244415508
 30
0.0
 10
-0.7217864990242563
 20
6.44494628906215
 30
0.0
 11
-1.539070129395261
 21
5.783321380615138
 31
0.0
 11
-1.253768920899267
 21
5.82397842407214
 31
0.0
 11
-1.001983642579268
 21
5.960697174072141
 31
0.0
 11
-0.8163833618172665
 21
6.176822662353138
 31
0.0
 11
-0.7217864990242563
 21
6.44494628906215
 31
0.0
  0
SPLINE
  5
A56F
330
1F
100
AcDbEntity
  8
AM_0
100
AcDbSpline
210
0.0
220
0.0
230
1.0
 70
     8
 71
     3
 72
    11
 73
     7
 74
     5
 42
0.0000000001
 43
0.0000000001
 44
0.0000000001
 40
0.0
 40
0.0
 40
0.0
 40
0.0
 40
0.3249902424079161
 40
0.6622706039473057
 40
1.016939524690676
 40
1.389077725223705
 40
1.389077725223705
 40
1.389077725223705
 40
1.389077725223705
 10
-24.48938751220727
 20
8.4863243103021
 30
0.0
 10
-24.46386839202192
 20
8.380326848314158
 30
0.0
 10
-24.41186509797796
 20
8.164323430342232
 30
0.0
 10
-24.22476528417096
 20
7.875400788233581
 30
0.0
 10
-23.97285666888292
 20
7.621102855867979
 30
0.0
 10
-23.76208063306211
 20
7.499588047849818
 30
0.0
 10
-23.65415954589925
 20
7.437370300293106
 30
0.0
 11
-24.48938751220727
 21
8.4863243103021
 31
0.0
 11
-24.39601135253928
 21
8.17503738403308
 31
0.0
 11
-24.21929168701227
 21
7.88776016235311
 31
0.0
 11
-23.96777343750027
 21
7.637702941894098
 31
0.0
 11
-23.65415954589925
 21
7.437370300293106
 31
0.0
  0
SPLINE
  5
A570
330
1F
100
AcDbEntity
  8
AM_0
100
AcDbSpline
210
0.0
220
0.0
230
1.0
 70
     8
 71
     3
 72
    11
 73
     7
 74
     5
 42
0.0000000001
 43
0.0000000001
 44
0.0000000001
 40
0.0
 40
0.0
 40
0.0
 40
0.0
 40
0.0391517307316841
 40
0.0782995274053784
 40
0.1174459174756866
 40
0.1565869942238667
 40
0.1565869942238667
 40
0.1565869942238667
 40
0.1565869942238667
 10
-10.57789611816426
 20
6.011653900146128
 30
0.0
 10
-10.56587975150862
 20
6.00653209891562
 30
0.0
 10
-10.54184822563013
 20
5.996289011105238
 30
0.0
 10
-10.50410973016781
 20
5.985569340474267
 30
0.0
 10
-10.46561431893517
 20
5.978053437721802
 30
0.0
 10
-10.43956189029714
 20
5.976204945233992
 30
0.0
 10
-10.42653656005926
 20
5.975280761718111
 30
0.0
 11
-10.57789611816426
 21
6.011653900146128
 31
0.0
 11
-10.54156494140726
 21
5.997062683105113
 31
0.0
 11
-10.50398254394627
 21
5.986103057861114
 31
0.0
 11
-10.46551513671926
 21
5.978843688965113
 31
0.0
 11
-10.42653656005926
 21
5.975280761718111
 31
0.0
  0
SPLINE
  5
A571
330
1F
100
AcDbEntity
  8
AM_0
100
AcDbSpline
210
0.0
220
0.0
230
1.0
 70
     8
 71
     3
 72
    11
 73
     7
 74
     5
 42
0.0000000001
 43
0.0000000001
 44
0.0000000001
 40
0.0
 40
0.0
 40
0.0
 40
0.0
 40
0.0359501314462946
 40
0.0729817705660952
 40
0.1110740630720536
 40
0.1501342572358383
 40
0.1501342572358383
 40
0.1501342572358383
 40
0.1501342572358383
 10
-28.10564422607527
 20
6.222309112548097
 30
0.0
 10
-28.0967281464861
 20
6.214281610659821
 30
0.0
 10
-28.07862775995768
 20
6.197985111107261
 30
0.0
 10
-28.04772762263068
 20
6.177395925177654
 30
0.0
 10
-28.01412828617252
 20
6.159336612302932
 30
0.0
 10
-27.990075109584
 20
6.150165934617093
 30
0.0
 10
-27.97789764404326
 20
6.145523071289098
 30
0.0
 11
-28.10564422607527
 21
6.222309112548097
 31
0.0
 11
-28.07836151123127
 21
6.198898315429098
 31
0.0
 11
-28.04772949218827
 21
6.178089141845114
 31
0.0
 11
-28.01408386230527
 21
6.160228729248112
 31
0.0
 11
-27.97789764404326
 21
6.145523071289098
 31
0.0
  0
SPLINE
  5
A572
330
1F
100
AcDbEntity
  8
AM_0
100
AcDbSpline
210
0.0
220
0.0
230
1.0
 70
     8
 71
     3
 72
    11
 73
     7
 74
     5
 42
0.0000000001
 43
0.0000000001
 44
0.0000000001
 40
0.0
 40
0.0
 40
0.0
 40
0.0
 40
0.0392618095807287
 40
0.0785284421625645
 40
0.1177883264182462
 40
0.1570534686340698
 40
0.1570534686340698
 40
0.1570534686340698
 40
0.1570534686340698
 10
-0.2216339111332532
 20
0.0545501708981469
 30
0.0
 10
-0.2176877023283624
 20
0.0420596443418545
 30
0.0
 10
-0.2097947999582085
 20
0.0170770568674037
 30
0.0
 10
-0.2027496498066626
 20
-0.0216326624113604
 30
0.0
 10
-0.198965394990205
 20
-0.0607907790192945
 30
0.0
 10
-0.1996225649124075
 20
-0.0869795205267071
 30
0.0
 10
-0.1999511718752413
 20
-0.1000747680668673
 30
0.0
 11
-0.2216339111332532
 21
0.0545501708981469
 31
0.0
 11
-0.2105941772462502
 21
0.0168724060061373
 31
0.0
 11
-0.2032928466802416
 21
-0.0217094421388488
 31
0.0
 11
-0.1997604370122443
 21
-0.060810089111846
 31
0.0
 11
-0.1999511718752413
 21
-0.1000747680668673
 31
0.0
  0
SPLINE
  5
A573
330
1F
100
AcDbEntity
  8
AM_0
100
AcDbSpline
210
0.0
220
0.0
230
1.0
 70
     8
 71
     3
 72
    11
 73
     7
 74
     5
 42
0.0000000001
 43
0.0000000001
 44
0.0000000001
 40
0.0
 40
0.0
 40
0.0
 40
0.0
 40
0.2161058053624398
 40
0.4322127920812564
 40
0.6482848083305969
 40
0.864346529861706
 40
0.864346529861706
 40
0.864346529861706
 40
0.864346529861706
 10
-6.254150390625254
 20
7.55267715454113
 30
0.0
 10
-6.190803219723651
 20
7.518168275205644
 30
0.0
 10
-6.064108531629036
 20
7.44915032788965
 30
0.0
 10
-5.85984634987039
 20
7.37650100157476
 30
0.0
 10
-5.649083741416315
 20
7.32574579850802
 30
0.0
 10
-5.505280189831363
 20
7.314415277919142
 30
0.0
 10
-5.433380126954259
 20
7.308750152588148
 30
0.0
 11
-6.254150390625254
 21
7.55267715454113
 31
0.0
 11
-6.061737060547256
 21
7.45429611206015
 31
0.0
 11
-5.858749389649259
 21
7.380146026611159
 31
0.0
 11
-5.648254394532255
 21
7.331371307373133
 31
0.0
 11
-5.433380126954259
 21
7.308750152588148
 31
0.0
  0
SPLINE
  5
A574
330
1F
100
AcDbEntity
  8
AM_0
100
AcDbSpline
210
0.0
220
0.0
230
1.0
 70
     8
 71
     3
 72
    11
 73
     7
 74
     5
 42
0.0000000001
 43
0.0000000001
 44
0.0000000001
 40
0.0
 40
0.0
 40
0.0
 40
0.0
 40
0.1142238975180696
 40
0.2282811794001424
 40
0.3424907460181448
 40
0.4571584590790165
 40
0.4571584590790165
 40
0.4571584590790165
 40
0.4571584590790165
 10
-10.78320312500024
 20
6.389663696289103
 30
0.0
 10
-10.78396648928522
 20
6.3513102211259
 30
0.0
 10
-10.78549210435417
 20
6.274659216085863
 30
0.0
 10
-10.74603206213409
 20
6.165246392516014
 30
0.0
 10
-10.67740472706786
 20
6.070495075681274
 30
0.0
 10
-10.61110988886092
 20
6.031293781893844
 30
0.0
 10
-10.57789611816426
 20
6.011653900146128
 30
0.0
 11
-10.78320312500024
 21
6.389663696289103
 31
0.0
 11
-10.77852630615327
 21
6.275535583496106
 31
0.0
 11
-10.74121093750026
 21
6.167755126953109
 31
0.0
 11
-10.67239379882926
 21
6.076606750488094
 31
0.0
 11
-10.57789611816426
 21
6.011653900146128
 31
0.0
  0
SPLINE
  5
A575
330
1F
100
AcDbEntity
  8
AM_0
100
AcDbSpline
210
0.0
220
0.0
230
1.0
 70
     8
 71
     3
 72
    11
 73
     7
 74
     5
 42
0.0000000001
 43
0.0000000001
 44
0.0000000001
 40
0.0
 40
0.0
 40
0.0
 40
0.0
 40
0.1129978178072031
 40
0.2268421084343417
 40
0.3415391487437975
 40
0.4568034624121717
 40
0.4568034624121717
 40
0.4568034624121717
 40
0.4568034624121717
 10
-17.21398925781327
 20
7.646240234375103
 30
0.0
 10
-17.21758634435856
 20
7.60871861813415
 30
0.0
 10
-17.22480746342074
 20
7.53339430917728
 30
0.0
 10
-17.24848288866294
 20
7.421840484074841
 30
0.0
 10
-17.28066876744405
 20
7.311651704018335
 30
0.0
 10
-17.31035923471009
 20
7.240920211383141
 30
0.0
 10
-17.32524108886825
 20
7.205467224121111
 30
0.0
 11
-17.21398925781327
 21
7.646240234375103
 31
0.0
 11
-17.22689056396525
 21
7.53398132324212
 31
0.0
 11
-17.24980163574327
 21
7.422466278076104
 31
0.0
 11
-17.28264617920024
 21
7.312572479248092
 31
0.0
 11
-17.32524108886825
 21
7.205467224121111
 31
0.0
  0
SPLINE
  5
A576
330
1F
100
AcDbEntity
  8
AM_0
100
AcDbSpline
210
0.0
220
0.0
230
1.0
 70
     8
 71
     3
 72
    11
 73
     7
 74
     5
 42
0.0000000001
 43
0.0000000001
 44
0.0000000001
 40
0.0
 40
0.0
 40
0.0
 40
0.0
 40
0.0489485120840913
 40
0.0979237582734663
 40
0.1469409035712962
 40
0.1960005681646299
 40
0.1960005681646299
 40
0.1960005681646299
 40
0.1960005681646299
 10
-0.8903503417972411
 20
-0.9205818176268479
 30
0.0
 10
-0.8896961491985971
 20
-0.9042585453077728
 30
0.0
 10
-0.8883874067023214
 20
-0.8716030854225152
 30
0.0
 10
-0.89362802583294
 20
-0.8227651226254527
 30
0.0
 10
-0.9038495578556963
 20
-0.7746558758546954
 30
0.0
 10
-0.9156766184232878
 20
-0.7441264591346489
 30
0.0
 10
-0.9215927124032507
 20
-0.7288551330568768
 30
0.0
 11
-0.8903503417972411
 21
-0.9205818176268479
 31
0.0
 11
-0.8895874023442441
 21
-0.8716392517088509
 31
0.0
 11
-0.8944549560552388
 21
-0.822906494140861
 31
0.0
 11
-0.9050979614262473
 21
-0.7750587463378427
 31
0.0
 11
-0.9215927124032507
 21
-0.7288551330568768
 31
0.0
  0
SPLINE
  5
A577
330
1F
100
AcDbEntity
  8
AM_0
100
AcDbSpline
210
0.0
220
0.0
230
1.0
 70
     8
 71
     3
 72
    11
 73
     7
 74
     5
 42
0.0000000001
 43
0.0000000001
 44
0.0000000001
 40
0.0
 40
0.0
 40
0.0
 40
0.0
 40
0.2680871164080186
 40
0.5361614898022717
 40
0.8042436941025997
 40
1.072325898401526
 40
1.072325898401526
 40
1.072325898401526
 40
1.072325898401526
 10
-0.1999511718752413
 20
-0.1000747680668673
 30
0.0
 10
-0.2574876706645265
 20
-0.1684500915731981
 30
0.0
 10
-0.3725579333545058
 20
-0.3051974884942464
 30
0.0
 10
-0.5451511942156917
 20
-0.5103294288851967
 30
0.0
 10
-0.717750860124614
 20
-0.7154538400418426
 30
0.0
 10
-0.8328171812397988
 20
-0.852205825098632
 30
0.0
 10
-0.8903503417972411
 20
-0.9205818176268479
 30
0.0
 11
-0.1999511718752413
 21
-0.1000747680668673
 31
0.0
 11
-0.3725585937502405
 21
-0.3052024841308662
 31
0.0
 11
-0.5451507568362485
 21
-0.5103263854978554
 31
0.0
 11
-0.7177505493172422
 21
-0.7154541015628493
 31
0.0
 11
-0.8903503417972411
 21
-0.9205818176268479
 31
0.0
  0
SPLINE
  5
A578
330
1F
100
AcDbEntity
  8
AM_0
100
AcDbSpline
210
0.0
220
0.0
230
1.0
 70
     8
 71
     3
 72
    11
 73
     7
 74
     5
 42
0.0000000001
 43
0.0000000001
 44
0.0000000001
 40
0.0
 40
0.0
 40
0.0
 40
0.0
 40
0.0625469700188345
 40
0.1251433602201248
 40
0.1877680275221008
 40
0.2503904180490809
 40
0.2503904180490809
 40
0.2503904180490809
 40
0.2503904180490809
 10
-0.9215927124032507
 20
-0.7288551330568768
 30
0.0
 10
-0.9307399720062988
 20
-0.710060061872552
 30
0.0
 10
-0.9490417187285867
 20
-0.6724550689708239
 30
0.0
 10
-0.98796538415056
 20
-0.6229523447182644
 30
0.0
 10
-1.033874037093462
 20
-0.5797690505128985
 30
0.0
 10
-1.069915831669161
 20
-0.5584702510604186
 30
0.0
 10
-1.08793640136825
 20
-0.5478210449218562
 30
0.0
 11
-0.9215927124032507
 21
-0.7288551330568768
 31
0.0
 11
-0.9509429931642447
 21
-0.6736221313478641
 31
0.0
 11
-0.9891204833992453
 21
-0.6240158081058759
 31
0.0
 11
-1.035232543946247
 21
-0.5816421508788587
 31
0.0
 11
-1.08793640136825
 21
-0.5478210449218562
 31
0.0
  0
SPLINE
  5
A579
330
1F
100
AcDbEntity
  8
AM_0
100
AcDbSpline
210
0.0
220
0.0
230
1.0
 70
     8
 71
     3
 72
    11
 73
     7
 74
     5
 42
0.0000000001
 43
0.0000000001
 44
0.0000000001
 40
0.0
 40
0.0
 40
0.0
 40
0.0
 40
2.224865741812859
 40
4.44639191244291
 40
6.668670334053233
 40
8.893069625585633
 40
8.893069625585633
 40
8.893069625585633
 40
8.893069625585633
 10
-18.93907165527426
 20
5.79808044433609
 30
0.0
 10
-19.68057712237264
 20
5.814252388095163
 30
0.0
 10
-21.16247504096434
 20
5.846572001178979
 30
0.0
 10
-23.38209974466521
 20
5.969786317136274
 30
0.0
 10
-25.60208410204934
 20
6.084814628331701
 30
0.0
 10
-27.08425320626346
 20
6.10829252937285
 30
0.0
 10
-27.82569122314527
 20
6.120037078857118
 30
0.0
 11
-18.93907165527426
 21
5.79808044433609
 31
0.0
 11
-21.16310119628926
 21
5.859073638916132
 31
0.0
 11
-23.38193511962926
 21
5.9684104919431
 31
0.0
 11
-25.60182189941426
 21
6.071483612060081
 31
0.0
 11
-27.82569122314527
 21
6.120037078857118
 31
0.0
  0
SPLINE
  5
A57A
330
1F
100
AcDbEntity
  8
AM_0
100
AcDbSpline
210
0.0
220
0.0
230
1.0
 70
     8
 71
     3
 72
    11
 73
     7
 74
     5
 42
0.0000000001
 43
0.0000000001
 44
0.0000000001
 40
0.0
 40
0.0
 40
0.0
 40
0.0
 40
0.0380127140622367
 40
0.076436226469777
 40
0.1151975786271778
 40
0.1542067610889326
 40
0.1542067610889326
 40
0.1542067610889326
 40
0.1542067610889326
 10
-27.97789764404326
 20
6.145523071289098
 30
0.0
 10
-27.96585138433343
 20
6.141563363764596
 30
0.0
 10
-27.94162868258717
 20
6.133601156683002
 30
0.0
 10
-27.90395005353742
 20
6.125856189688566
 30
0.0
 10
-27.86548088849836
 20
6.120885253715125
 30
0.0
 10
-27.83954656830671
 20
6.120320403809623
 30
0.0
 10
-27.82653808593827
 20
6.120037078857118
 30
0.0
 11
-27.97789764404326
 21
6.145523071289098
 31
0.0
 11
-27.94156646728627
 21
6.134342193603097
 31
0.0
 11
-27.90398406982527
 21
6.126346588134092
 31
0.0
 11
-27.86551666259825
 21
6.121582031250123
 31
0.0
 11
-27.82653808593827
 21
6.120037078857118
 31
0.0
  0
SPLINE
  5
A57B
330
1F
100
AcDbEntity
  8
AM_0
100
AcDbSpline
210
0.0
220
0.0
230
1.0
 70
     8
 71
     3
 72
    11
 73
     7
 74
     5
 42
0.0000000001
 43
0.0000000001
 44
0.0000000001
 40
0.0
 40
0.0
 40
0.0
 40
0.0
 40
0.2759298868516107
 40
0.5498542775627796
 40
0.818888055573905
 40
1.081814524084382
 40
1.081814524084382
 40
1.081814524084382
 40
1.081814524084382
 10
-18.93907165527426
 20
5.79808044433609
 30
0.0
 10
-18.84648498396432
 20
5.805449722247288
 30
0.0
 10
-18.66198457392921
 20
5.82013471715036
 30
0.0
 10
-18.41584252634896
 20
5.951680599023831
 30
0.0
 10
-18.22020702464454
 20
6.146287237109718
 30
0.0
 10
-18.16072965800617
 20
6.315508029432823
 30
0.0
 10
-18.13133239746125
 20
6.399147033691108
 30
0.0
 11
-18.93907165527426
 21
5.79808044433609
 31
0.0
 11
-18.66615295410226
 21
5.838733673095091
 31
0.0
 11
-18.42236328125026
 21
5.963638305664105
 31
0.0
 11
-18.23654174804726
 21
6.158187866211092
 31
0.0
 11
-18.13133239746125
 21
6.399147033691108
 31
0.0
  0
SPLINE
  5
A57C
330
1F
100
AcDbEntity
  8
AM_0
100
AcDbSpline
210
0.0
220
0.0
230
1.0
 70
     8
 71
     3
 72
    11
 73
     7
 74
     5
 42
0.0000000001
 43
0.0000000001
 44
0.0000000001
 40
0.0
 40
0.0
 40
0.0
 40
0.0
 40
0.0264701345731214
 40
0.0527919816291561
 40
0.0790954885546387
 40
0.1055150683636327
 40
0.1055150683636327
 40
0.1055150683636327
 40
0.1055150683636327
 10
-1.08793640136825
 20
-0.5478210449218562
 30
0.0
 10
-1.09583642829751
 20
-0.5438822669808655
 30
0.0
 10
-1.111592225661035
 20
-0.5360267764042047
 30
0.0
 10
-1.136179637197078
 20
-0.5264301989635934
 30
0.0
 10
-1.161297132136454
 20
-0.518375764876139
 30
0.0
 10
-1.178458113830884
 20
-0.514548372131121
 30
0.0
 10
-1.187057495118251
 20
-0.5126304626468638
 30
0.0
 11
-1.08793640136825
 21
-0.5478210449218562
 31
0.0
 11
-1.111801147461247
 21
-0.5363693237308764
 31
0.0
 11
-1.136276245118251
 21
-0.5266838073728576
 31
0.0
 11
-1.161361694336248
 21
-0.5187721252438661
 31
0.0
 11
-1.187057495118251
 21
-0.5126304626468638
 31
0.0
  0
SPLINE
  5
A57D
330
1F
100
AcDbEntity
  8
AM_0
100
AcDbSpline
210
0.0
220
0.0
230
1.0
 70
     8
 71
     3
 72
    11
 73
     7
 74
     5
 42
0.0000000001
 43
0.0000000001
 44
0.0000000001
 40
0.0
 40
0.0
 40
0.0
 40
0.0
 40
0.0110564036809919
 40
0.0221048424282092
 40
0.0331400093334693
 40
0.0441853867123788
 40
0.0441853867123788
 40
0.0441853867123788
 40
0.0441853867123788
 10
-1.187057495118251
 20
-0.5126304626468638
 30
0.0
 10
-1.19067495224013
 20
-0.5119242150245303
 30
0.0
 10
-1.197907260500314
 20
-0.5105122285542987
 30
0.0
 10
-1.208821307814054
 20
-0.508793471039653
 30
0.0
 10
-1.219768334524177
 20
-0.5073273464739991
 30
0.0
 10
-1.227094093645669
 20
-0.5066107518263411
 30
0.0
 10
-1.230758666993251
 20
-0.5062522888188524
 30
0.0
 11
-1.187057495118251
 21
-0.5126304626468638
 31
0.0
 11
-1.197921752930239
 21
-0.5105781555178722
 31
0.0
 11
-1.208831787110239
 21
-0.5088348388678511
 31
0.0
 11
-1.219772338868251
 21
-0.507392883300848
 31
0.0
 11
-1.230758666993251
 21
-0.5062522888188524
 31
0.0
  0
SPLINE
  5
A57E
330
1F
100
AcDbEntity
  8
AM_0
100
AcDbSpline
210
0.0
220
0.0
230
1.0
 70
     8
 71
     3
 72
    11
 73
     7
 74
     5
 42
0.0000000001
 43
0.0000000001
 44
0.0000000001
 40
0.0
 40
0.0
 40
0.0
 40
0.0
 40
0.2528207943354825
 40
0.5056415886695325
 40
0.7584672950906795
 40
1.011283177473253
 40
1.011283177473253
 40
1.011283177473253
 40
1.011283177473253
 10
-1.229064941407242
 20
-0.473808288574854
 30
0.0
 10
-1.17480707110353
 20
-0.4093247802289801
 30
0.0
 10
-1.066291330496413
 20
-0.2803577635375976
 30
0.0
 10
-0.9035195369383048
 20
-0.0869035694425677
 30
0.0
 10
-0.7407373113374625
 20
0.1065397069822713
 30
0.0
 10
-0.6322266757734102
 20
0.2355110191579436
 30
0.0
 10
-0.577972412110243
 20
0.2999954223631315
 30
0.0
 11
-1.229064941407242
 21
-0.473808288574854
 31
0.0
 11
-1.066291809082243
 21
-0.2803573608398531
 31
0.0
 11
-0.9035186767582526
 21
-0.0869064331058755
 31
0.0
 11
-0.7407379150392477
 21
0.1065444946291254
 31
0.0
 11
-0.577972412110243
 21
0.2999954223631315
 31
0.0
  0
SPLINE
  5
A5A2
330
1F
100
AcDbEntity
  8
AM_0
100
AcDbSpline
210
0.0
220
0.0
230
1.0
 70
     8
 71
     3
 72
    11
 73
     7
 74
     5
 42
0.0000000001
 43
0.0000000001
 44
0.0000000001
 40
0.0
 40
0.0
 40
0.0
 40
0.0
 40
0.0392203652139985
 40
0.0703439705765405
 40
0.1035561332159687
 40
0.1452513266369868
 40
0.1452513266369868
 40
0.1452513266369868
 40
0.1452513266369868
 10
-38.13157653808622
 20
-10.81718063354492
 30
0.0
 10
-38.14096842031005
 20
-10.82670371793144
 30
0.0
 10
-38.15781329881147
 20
-10.84378391502365
 30
0.0
 10
-38.162666091643
 20
-10.88066597242724
 30
0.0
 10
-38.14420212543524
 20
-10.91286048590421
 30
0.0
 10
-38.12430864949628
 20
-10.92810115714821
 30
0.0
 10
-38.11323547363325
 20
-10.93658447265693
 30
0.0
 11
-38.13157653808622
 21
-10.81718063354492
 31
0.0
 11
-38.15554046630922
 21
-10.84822845458992
 31
0.0
 11
-38.15924072265723
 21
-10.87913131713892
 31
0.0
 11
-38.14433288574324
 21
-10.90880966186591
 31
0.0
 11
-38.11323547363325
 21
-10.93658447265693
 31
0.0
  0
SPLINE
  5
A5A3
330
1F
100
AcDbEntity
  8
AM_0
100
AcDbSpline
210
0.0
220
0.0
230
1.0
 70
     8
 71
     3
 72
    11
 73
     7
 74
     5
 42
0.0000000001
 43
0.0000000001
 44
0.0000000001
 40
0.0
 40
0.0
 40
0.0
 40
0.0
 40
0.2396615889998064
 40
0.4676200801383446
 40
0.6657125166550757
 40
0.8053877039187474
 40
0.8053877039187474
 40
0.8053877039187474
 40
0.8053877039187474
 10
-37.34948730468825
 20
-10.66642379760793
 30
0.0
 10
-37.42945362166555
 20
-10.66874303975879
 30
0.0
 10
-37.58548135939923
 20
-10.67326827137797
 30
0.0
 10
-37.80491611208466
 20
-10.70235099705568
 30
0.0
 10
-37.99290358430989
 20
-10.7372371535384
 30
0.0
 10
-38.09100797083782
 20
-10.79379328686773
 30
0.0
 10
-38.13157653808622
 20
-10.81718063354492
 30
0.0
 11
-37.34948730468825
 21
-10.66642379760793
 31
0.0
 11
-37.58889007568422
 21
-10.67755889892591
 31
0.0
 11
-37.81508636474625
 21
-10.70584869384791
 31
0.0
 11
-38.00745391845724
 21
-10.75312805175792
 31
0.0
 11
-38.13157653808622
 21
-10.81718063354492
 31
0.0
  0
SPLINE
  5
A5A4
330
1F
100
AcDbEntity
  8
AM_0
100
AcDbSpline
210
0.0
220
0.0
230
1.0
 70
     8
 71
     3
 72
    11
 73
     7
 74
     5
 42
0.0000000001
 43
0.0000000001
 44
0.0000000001
 40
0.0
 40
0.0
 40
0.0
 40
0.0
 40
0.0137697700051149
 40
0.0274757325558471
 40
0.0411272571147818
 40
0.0547270953216514
 40
0.0547270953216514
 40
0.0547270953216514
 40
0.0547270953216514
 10
-17.78763580322325
 20
-9.020740509033895
 30
0.0
 10
-17.78982991163974
 20
-9.01670865462338
 30
0.0
 10
-17.7942079612388
 20
-9.008663628929687
 30
0.0
 10
-17.80036303561096
 20
-8.996411744125321
 30
0.0
 10
-17.80620818315008
 20
-8.984071480627809
 30
0.0
 10
-17.80981500149994
 20
-8.975733806304949
 30
0.0
 10
-17.81161499023524
 20
-8.971572875976915
 30
0.0
 11
-17.78763580322325
 21
-9.020740509033895
 31
0.0
 11
-17.79415130615325
 21
-9.008609771728895
 31
0.0
 11
-17.80032348632923
 21
-8.996372222900914
 31
0.0
 11
-17.80614471435625
 21
-8.984024047851915
 31
0.0
 11
-17.81161499023524
 21
-8.971572875976915
 31
0.0
  0
SPLINE
  5
A5A8
330
1F
100
AcDbEntity
  8
AM_0
100
AcDbSpline
210
0.0
220
0.0
230
1.0
 70
     8
 71
     3
 72
    11
 73
     7
 74
     5
 42
0.0000000001
 43
0.0000000001
 44
0.0000000001
 40
0.0
 40
0.0
 40
0.0
 40
0.0
 40
0.0194408021193975
 40
0.0388406471239219
 40
0.0582891934317263
 40
0.0778639808033804
 40
0.0778639808033804
 40
0.0778639808033804
 40
0.0778639808033804
 10
-9.335289001465236
 20
-9.441410064697873
 30
0.0
 10
-9.332631249848232
 20
-9.435496834660488
 30
0.0
 10
-9.327321345860468
 20
-9.423682832345459
 30
0.0
 10
-9.320909723329014
 20
-9.405321488825439
 30
0.0
 10
-9.31554244720723
 20
-9.386581653832426
 30
0.0
 10
-9.313053982541287
 20
-9.373808407189581
 30
0.0
 10
-9.311805725098246
 20
-9.367401123046885
 30
0.0
 11
-9.335289001465236
 21
-9.441410064697873
 31
0.0
 11
-9.327575683594242
 21
-9.423564910888881
 31
0.0
 11
-9.321090698243246
 21
-9.405281066894881
 31
0.0
 11
-9.315826416016243
 21
-9.386558532714881
 31
0.0
 11
-9.311805725098246
 21
-9.367401123046885
 31
0.0
  0
SPLINE
  5
A5A9
330
1F
100
AcDbEntity
  8
AM_0
100
AcDbSpline
210
0.0
220
0.0
230
1.0
 70
     8
 71
     3
 72
    11
 73
     7
 74
     5
 42
0.0000000001
 43
0.0000000001
 44
0.0000000001
 40
0.0
 40
0.0
 40
0.0
 40
0.0
 40
0.0442997212956562
 40
0.0885872203403134
 40
0.1328602406752661
 40
0.1771664576680458
 40
0.1771664576680458
 40
0.1771664576680458
 40
0.1771664576680458
 10
-1.892356872559243
 20
-9.005199432372858
 30
0.0
 10
-1.906316004159023
 20
-9.010037810834468
 30
0.0
 10
-1.934230416047443
 20
-9.019713232853669
 30
0.0
 10
-1.977287328506837
 20
-9.030287772221479
 30
0.0
 10
-2.020912994854799
 20
-9.038206778892861
 30
0.0
 10
-2.050342972856407
 20
-9.040765668808903
 30
0.0
 10
-2.065063476563249
 20
-9.042045593261869
 30
0.0
 11
-1.892356872559243
 21
-9.005199432372858
 31
0.0
 11
-1.934432983399243
 21
-9.019058227538847
 31
0.0
 11
-1.977386474610237
 21
-9.029846191406857
 31
0.0
 11
-2.020988464356246
 21
-9.037525177001851
 31
0.0
 11
-2.065063476563249
 21
-9.042045593261869
 31
0.0
  0
SPLINE
  5
A5AB
330
1F
100
AcDbEntity
  8
AM_0
100
AcDbSpline
210
0.0
220
0.0
230
1.0
 70
     8
 71
     3
 72
    11
 73
     7
 74
     5
 42
0.0000000001
 43
0.0000000001
 44
0.0000000001
 40
0.0
 40
0.0
 40
0.0
 40
0.0
 40
0.5952506557744432
 40
1.167181417140733
 40
1.693185065060609
 40
2.163808183563232
 40
2.163808183563232
 40
2.163808183563232
 40
2.163808183563232
 10
-7.177719116211246
 20
-8.728042602538865
 30
0.0
 10
-7.376856057148703
 20
-8.728972486900577
 30
0.0
 10
-7.767328431557179
 20
-8.730795825920113
 30
0.0
 10
-8.318034105107567
 20
-8.874349892435903
 30
0.0
 10
-8.799834918642607
 20
-9.085638459671249
 30
0.0
 10
-9.069954821808307
 20
-9.280372961694238
 30
0.0
 10
-9.197509765625236
 20
-9.372329711913872
 30
0.0
 11
-7.177719116211246
 21
-8.728042602538865
 31
0.0
 11
-7.772308349610238
 21
-8.756095886230871
 31
0.0
 11
-8.327583312989244
 21
-8.893115997314856
 31
0.0
 11
-8.806816101075236
 21
-9.109947204589879
 31
0.0
 11
-9.197509765625236
 21
-9.372329711913872
 31
0.0
  0
SPLINE
  5
A5AE
330
1F
100
AcDbEntity
  8
AM_0
100
AcDbSpline
210
0.0
220
0.0
230
1.0
 70
     8
 71
     3
 72
    11
 73
     7
 74
     5
 42
0.0000000001
 43
0.0000000001
 44
0.0000000001
 40
0.0
 40
0.0
 40
0.0
 40
0.0
 40
1.167602225822067
 40
2.263131977481324
 40
3.397336958659496
 40
4.591743547121589
 40
4.591743547121589
 40
4.591743547121589
 40
4.591743547121589
 10
-3.828552246094252
 20
-6.234657287597873
 30
0.0
 10
-4.227283113963403
 20
-6.13626696734548
 30
0.0
 10
-5.000132426449271
 20
-5.945559657001801
 30
0.0
 10
-5.479765168950598
 20
-4.760863032100211
 30
0.0
 10
-5.033215716434437
 20
-3.539467966727593
 30
0.0
 10
-4.236968530451114
 20
-3.337997056809351
 30
0.0
 10
-3.82855224609425
 20
-3.234657287597874
 30
0.0
 11
-3.828552246094252
 21
-6.234657287597873
 31
0.0
 11
-4.904075622559255
 21
-5.780185699462855
 31
0.0
 11
-5.328117370606261
 21
-4.770050048827836
 31
0.0
 11
-4.924209594727244
 21
-3.710201263427841
 31
0.0
 11
-3.82855224609425
 21
-3.234657287597874
 31
0.0
  0
SPLINE
  5
A5AF
330
1F
100
AcDbEntity
  8
AM_0
100
AcDbSpline
210
0.0
220
0.0
230
1.0
 70
     8
 71
     3
 72
    11
 73
     7
 74
     5
 42
0.0000000001
 43
0.0000000001
 44
0.0000000001
 40
0.0
 40
0.0
 40
0.0
 40
0.0
 40
0.2606825493579032
 40
0.521360186636443
 40
0.7820349050328116
 40
1.042712542311349
 40
1.042712542311349
 40
1.042712542311349
 40
1.042712542311349
 10
-7.304496765137238
 20
-9.554431915283858
 30
0.0
 10
-7.248549960276173
 20
-9.48794466772915
 30
0.0
 10
-7.136657404767862
 20
-9.354971425448656
 30
0.0
 10
-6.96882791058358
 20
-9.15550604531694
 30
0.0
 10
-6.800993529253383
 20
-8.95604691724286
 30
0.0
 10
-6.689107019989343
 20
-8.823071998895963
 30
0.0
 10
-6.633163452149244
 20
-8.756584167480866
 30
0.0
 11
-7.304496765137238
 21
-9.554431915283858
 31
0.0
 11
-7.136657714844242
 21
-9.354969024658856
 31
0.0
 11
-6.968826293946244
 21
-9.155506134033856
 31
0.0
 11
-6.80099487304724
 21
-8.956047058105868
 31
0.0
 11
-6.633163452149244
 21
-8.756584167480866
 31
0.0
  0
SPLINE
  5
A5B1
330
1F
100
AcDbEntity
  8
AM_0
100
AcDbSpline
210
0.0
220
0.0
230
1.0
 70
     8
 71
     3
 72
    11
 73
     7
 74
     5
 42
0.0000000001
 43
0.0000000001
 44
0.0000000001
 40
0.0
 40
0.0
 40
0.0
 40
0.0
 40
2.202046972593998
 40
4.382652192117271
 40
6.560656777512495
 40
8.758381741488459
 40
8.758381741488459
 40
8.758381741488459
 40
8.758381741488459
 10
-9.065826416016234
 20
-11.84578704833987
 30
0.0
 10
-9.799625618412692
 20
-11.81889647323247
 30
0.0
 10
-11.26007887984713
 20
-11.76537716169711
 30
0.0
 10
-13.43444017144423
 20
-11.52288616879364
 30
0.0
 10
-15.60517211840925
 20
-11.26427168196318
 30
0.0
 10
-17.06251082002654
 20
-11.1929365953678
 30
0.0
 10
-17.79446411132923
 20
-11.15710830688488
 30
0.0
 11
-9.065826416016234
 21
-11.84578704833987
 31
0.0
 11
-11.26522064209023
 21
-11.73773193359387
 31
0.0
 11
-13.43493652343824
 21
-11.52008056640687
 31
0.0
 11
-15.60076904296923
 21
-11.29013824462888
 31
0.0
 11
-17.79446411132923
 21
-11.15710830688488
 31
0.0
  0
SPLINE
  5
A5B2
330
1F
100
AcDbEntity
  8
AM_0
100
AcDbSpline
210
0.0
220
0.0
230
1.0
 70
     8
 71
     3
 72
    11
 73
     7
 74
     5
 42
0.0000000001
 43
0.0000000001
 44
0.0000000001
 40
0.0
 40
0.0
 40
0.0
 40
0.0
 40
0.0264701345740304
 40
0.0527848876656512
 40
0.0790883945911439
 40
0.1055079744001293
 40
0.1055079744001293
 40
0.1055079744001293
 40
0.1055079744001293
 10
-6.416511535645237
 20
-9.106685638427848
 30
0.0
 10
-6.408611398736551
 20
-9.110624136654536
 30
0.0
 10
-6.3928574992578
 20
-9.118478013856616
 30
0.0
 10
-6.368274061995812
 20
-9.128078186535432
 30
0.0
 10
-6.343158337045283
 20
-9.136130672432518
 30
0.0
 10
-6.325997420120489
 20
-9.139958229084614
 30
0.0
 10
-6.317398071289242
 20
-9.141876220702839
 30
0.0
 11
-6.416511535645237
 21
-9.106685638427848
 31
0.0
 11
-6.392646789551244
 21
-9.118137359618854
 31
0.0
 11
-6.368179321289242
 21
-9.127822875976846
 31
0.0
 11
-6.343093872071244
 21
-9.135734558105866
 31
0.0
 11
-6.317398071289242
 21
-9.141876220702839
 31
0.0
  0
SPLINE
  5
A5B3
330
1F
100
AcDbEntity
  8
AM_0
100
AcDbSpline
210
0.0
220
0.0
230
1.0
 70
     8
 71
     3
 72
    11
 73
     7
 74
     5
 42
0.0000000001
 43
0.0000000001
 44
0.0000000001
 40
0.0
 40
0.0
 40
0.0
 40
0.0
 40
0.0850603783841546
 40
0.1704926500226044
 40
0.256093129329583
 40
0.3416305413678673
 40
0.3416305413678673
 40
0.3416305413678673
 40
0.3416305413678673
 10
-17.58208465576223
 20
-9.547374725341892
 30
0.0
 10
-17.55529259004318
 20
-9.556734234358161
 30
0.0
 10
-17.50159132077075
 20
-9.57549417318523
 30
0.0
 10
-17.41789237313646
 20
-9.5931846479175
 30
0.0
 10
-17.33288182078514
 20
-9.603918579798722
 30
0.0
 10
-17.27578920570296
 20
-9.604212011375029
 30
0.0
 10
-17.24725341796923
 20
-9.60435867309588
 30
0.0
 11
-17.58208465576223
 21
-9.547374725341892
 31
0.0
 11
-17.50120544433623
 21
-9.573715209960891
 31
0.0
 11
-17.41775512695423
 21
-9.592010498046885
 31
0.0
 11
-17.33276367187523
 21
-9.602203369140889
 31
0.0
 11
-17.24725341796923
 21
-9.60435867309588
 31
0.0
  0
SPLINE
  5
A5B4
330
1F
100
AcDbEntity
  8
AM_0
100
AcDbSpline
210
0.0
220
0.0
230
1.0
 70
     8
 71
     3
 72
    11
 73
     7
 74
     5
 42
0.0000000001
 43
0.0000000001
 44
0.0000000001
 40
0.0
 40
0.0
 40
0.0
 40
0.0
 40
0.0171799599839855
 40
0.0343130747182481
 40
0.0514543565002046
 40
0.0686118424009623
 40
0.0686118424009623
 40
0.0686118424009623
 40
0.0686118424009623
 10
-6.317398071289242
 20
-9.141876220702839
 30
0.0
 10
-6.311771099200306
 20
-9.142945397271349
 30
0.0
 10
-6.300532498301051
 20
-9.145080835043989
 30
0.0
 10
-6.283525129511739
 20
-9.147351233960364
 30
0.0
 10
-6.266453734038175
 20
-9.148998744840799
 30
0.0
 10
-6.255028613570527
 20
-9.149471369977785
 30
0.0
 10
-6.249313354493248
 20
-9.149707794189851
 30
0.0
 11
-6.317398071289242
 21
-9.141876220702839
 31
0.0
 11
-6.300491333008247
 21
-9.14492797851585
 31
0.0
 11
-6.283515930176243
 21
-9.147247314452839
 31
0.0
 11
-6.266448974610236
 21
-9.14884185790987
 31
0.0
 11
-6.249313354493248
 21
-9.149707794189851
 31
0.0
  0
SPLINE
  5
A5B5
330
1F
100
AcDbEntity
  8
AM_0
100
AcDbSpline
210
0.0
220
0.0
230
1.0
 70
     8
 71
     3
 72
    11
 73
     7
 74
     5
 42
0.0000000001
 43
0.0000000001
 44
0.0000000001
 40
0.0
 40
0.0
 40
0.0
 40
0.0
 40
0.043052678071632
 40
0.0861311508558109
 40
0.1292495407251056
 40
0.1724002981727303
 40
0.1724002981727303
 40
0.1724002981727303
 40
0.1724002981727303
 10
-6.615158081055238
 20
-8.757534027099865
 30
0.0
 10
-6.615002480158739
 20
-8.771898147804758
 30
0.0
 10
-6.614691185138547
 20
-8.800634995377537
 30
0.0
 10
-6.6085963477776
 20
-8.843382047459398
 30
0.0
 10
-6.598637967713008
 20
-8.885449164561894
 30
0.0
 10
-6.588117454718696
 20
-8.912247403545499
 30
0.0
 10
-6.582855224610237
 20
-8.925651550292855
 30
0.0
 11
-6.615158081055238
 21
-8.757534027099865
 31
0.0
 11
-6.613754272461246
 21
-8.800563812255859
 31
0.0
 11
-6.60795593261825
 21
-8.843250274658855
 31
0.0
 11
-6.597671508789243
 21
-8.885124206542855
 31
0.0
 11
-6.582855224610237
 21
-8.925651550292855
 31
0.0
  0
SPLINE
  5
A5B8
330
1F
100
AcDbEntity
  8
AM_0
100
AcDbSpline
210
0.0
220
0.0
230
1.0
 70
     8
 71
     3
 72
    11
 73
     7
 74
     5
 42
0.0000000001
 43
0.0000000001
 44
0.0000000001
 40
0.0
 40
0.0
 40
0.0
 40
0.0
 40
0.0579440667368545
 40
0.1147327216919065
 40
0.170666835640599
 40
0.2261404046133101
 40
0.2261404046133101
 40
0.2261404046133101
 40
0.2261404046133101
 10
-9.498626708985234
 20
-9.590553283691869
 30
0.0
 10
-9.481014593095853
 20
-9.582490906331187
 30
0.0
 10
-9.446141549063257
 20
-9.566526916401056
 30
0.0
 10
-9.400646335512197
 20
-9.531734655986374
 30
0.0
 10
-9.362059623136726
 20
-9.490395480980559
 30
0.0
 10
-9.344187915578595
 20
-9.457693474835153
 30
0.0
 10
-9.335289001465236
 20
-9.441410064697873
 30
0.0
 11
-9.498626708985234
 21
-9.590553283691869
 31
0.0
 11
-9.446884155274242
 21
-9.564472198486877
 31
0.0
 11
-9.401481628418245
 21
-9.53036117553689
 31
0.0
 11
-9.363891601563246
 21
-9.488941192626878
 31
0.0
 11
-9.335289001465236
 21
-9.441410064697873
 31
0.0
  0
SPLINE
  5
A5BD
330
1F
100
AcDbEntity
  8
AM_0
100
AcDbSpline
210
0.0
220
0.0
230
1.0
 70
     8
 71
     3
 72
    11
 73
     7
 74
     5
 42
0.0000000001
 43
0.0000000001
 44
0.0000000001
 40
0.0
 40
0.0
 40
0.0
 40
0.0
 40
0.1543960578831798
 40
0.3087894846918603
 40
0.463182911500594
 40
0.6175734452598727
 40
0.6175734452598727
 40
0.6175734452598727
 40
0.6175734452598727
 10
-1.595405578614241
 20
-9.672912597656855
 30
0.0
 10
-1.632669947481202
 20
-9.637415424046135
 30
0.0
 10
-1.707198050190292
 20
-9.56642168173462
 30
0.0
 10
-1.818992355483114
 20
-9.459933962455707
 30
0.0
 10
-1.930786883036831
 20
-9.353449146165031
 30
0.0
 10
-2.005310541410712
 20
-9.282453408052541
 30
0.0
 10
-2.042572021485236
 20
-9.246955871581871
 30
0.0
 11
-1.595405578614241
 21
-9.672912597656855
 31
0.0
 11
-1.707199096680236
 21
-9.566421508788845
 31
0.0
 11
-1.818992614746244
 21
-9.459934234618867
 31
0.0
 11
-1.930786132813247
 21
-9.353446960449854
 31
0.0
 11
-2.042572021485236
 21
-9.246955871581871
 31
0.0
  0
SPLINE
  5
A5BE
330
1F
100
AcDbEntity
  8
AM_0
100
AcDbSpline
210
0.0
220
0.0
230
1.0
 70
     8
 71
     3
 72
    11
 73
     7
 74
     5
 42
0.0000000001
 43
0.0000000001
 44
0.0000000001
 40
0.0
 40
0.0
 40
0.0
 40
0.0
 40
0.3088008614344583
 40
0.6176078565785888
 40
0.9264123158353916
 40
1.235213177269545
 40
1.235213177269545
 40
1.235213177269545
 40
1.235213177269545
 10
-18.62593841552824
 20
-10.5984954833989
 30
0.0
 10
-18.5917263351713
 20
-10.50141374575375
 30
0.0
 10
-18.52330149490309
 20
-10.30724834212948
 30
0.0
 10
-18.4206521540799
 20
-10.01600430644921
 30
0.0
 10
-18.31801735573775
 20
-9.724755145691604
 30
0.0
 10
-18.24959085745327
 20
-9.530591222640374
 30
0.0
 10
-18.21537780761825
 20
-9.433509826659884
 30
0.0
 11
-18.62593841552824
 21
-10.5984954833989
 31
0.0
 11
-18.52330017089923
 21
-10.30725097656291
 31
0.0
 11
-18.42065429687523
 21
-10.0160026550299
 31
0.0
 11
-18.31801605224624
 21
-9.724754333495909
 31
0.0
 11
-18.21537780761825
 21
-9.433509826659884
 31
0.0
  0
SPLINE
  5
A5C0
330
1F
100
AcDbEntity
  8
AM_0
100
AcDbSpline
210
0.0
220
0.0
230
1.0
 70
     8
 71
     3
 72
    11
 73
     7
 74
     5
 42
0.0000000001
 43
0.0000000001
 44
0.0000000001
 40
0.0
 40
0.0
 40
0.0
 40
0.0
 40
0.634948397523807
 40
1.269911520685743
 40
1.904859918209552
 40
2.539816678129616
 40
2.539816678129616
 40
2.539816678129616
 40
2.539816678129616
 10
-5.796859741211242
 20
-9.966983795165841
 30
0.0
 10
-5.592605706681093
 20
-9.911524028038183
 30
0.0
 10
-5.184092900588601
 20
-9.800603207567377
 30
0.0
 10
-4.57132397443635
 20
-9.634230300975358
 30
0.0
 10
-3.958554414309443
 20
-9.467849091372189
 30
0.0
 10
-3.550043733685173
 20
-9.356928537601996
 30
0.0
 10
-3.345787048340237
 20
-9.301467895507887
 30
0.0
 11
-5.796859741211242
 21
-9.966983795165841
 31
0.0
 11
-5.184097290039241
 21
-9.800605773925861
 31
0.0
 11
-4.571319580079242
 21
-9.634227752685852
 31
0.0
 11
-3.958557128907239
 21
-9.467849731445872
 31
0.0
 11
-3.345787048340237
 21
-9.301467895507887
 31
0.0
  0
SPLINE
  5
A5C3
330
1F
100
AcDbEntity
  8
AM_0
100
AcDbSpline
210
0.0
220
0.0
230
1.0
 70
     8
 71
     3
 72
    11
 73
     7
 74
     5
 42
0.0000000001
 43
0.0000000001
 44
0.0000000001
 40
0.0
 40
0.0
 40
0.0
 40
0.0
 40
0.0995799668691429
 40
0.1995525509150449
 40
0.2999340236593572
 40
0.4007176733644658
 40
0.4007176733644658
 40
0.4007176733644658
 40
0.4007176733644658
 10
-14.96142578125023
 20
-4.347637176513872
 30
0.0
 10
-14.95987675453647
 20
-4.314477501060569
 30
0.0
 10
-14.95677259371089
 20
-4.248027410422185
 30
0.0
 10
-14.94847369359848
 20
-4.148377079393863
 30
0.0
 10
-14.93766240854694
 20
-4.048562340520357
 30
0.0
 10
-14.92789166152944
 20
-3.982217276080436
 30
0.0
 10
-14.92299652099625
 20
-3.948978424072892
 30
0.0
 11
-14.96142578125023
 21
-4.347637176513872
 31
0.0
 11
-14.95617675781324
 21
-4.248195648193871
 31
0.0
 11
-14.94807434082124
 21
-4.148551940917884
 31
0.0
 11
-14.93704223632924
 21
-4.048778533935889
 31
0.0
 11
-14.92299652099625
 21
-3.948978424072892
 31
0.0
  0
SPLINE
  5
A5C9
330
1F
100
AcDbEntity
  8
AM_0
100
AcDbSpline
210
0.0
220
0.0
230
1.0
 70
     8
 71
     3
 72
    11
 73
     7
 74
     5
 42
0.0000000001
 43
0.0000000001
 44
0.0000000001
 40
0.0
 40
0.0
 40
0.0
 40
0.0
 40
0.546636550417248
 40
1.093275144512134
 40
1.639917413890821
 40
2.186553964308767
 40
2.186553964308767
 40
2.186553964308767
 40
2.186553964308767
 10
-9.285705566407239
 20
-9.368400573730877
 30
0.0
 10
-9.236898405920607
 20
-9.543954385689119
 30
0.0
 10
-9.139283902474907
 20
-9.895062665938228
 30
0.0
 10
-8.992850577539385
 20
-10.42172349467069
 30
0.0
 10
-8.846419362262956
 20
-10.94838490996353
 30
0.0
 10
-8.748804249374355
 20
-11.29949429233154
 30
0.0
 10
-8.69999694824324
 20
-11.47504806518586
 30
0.0
 11
-9.285705566407239
 21
-9.368400573730877
 31
0.0
 11
-9.139282226563244
 21
-9.895061492919872
 31
0.0
 11
-8.992851257325231
 21
-10.42172241210987
 31
0.0
 11
-8.846420288086237
 21
-10.94838714599586
 31
0.0
 11
-8.69999694824324
 21
-11.47504806518586
 31
0.0
  0
SPLINE
  5
A5CB
330
1F
100
AcDbEntity
  8
AM_0
100
AcDbSpline
210
0.0
220
0.0
230
1.0
 70
     8
 71
     3
 72
    11
 73
     7
 74
     5
 42
0.0000000001
 43
0.0000000001
 44
0.0000000001
 40
0.0
 40
0.0
 40
0.0
 40
0.0
 40
0.0521740661998426
 40
0.1043684627162694
 40
0.1565503540120221
 40
0.2087573932362102
 40
0.2087573932362102
 40
0.2087573932362102
 40
0.2087573932362102
 10
-2.042572021485236
 20
-9.246955871581871
 30
0.0
 10
-2.025197064038931
 20
-9.24605933620209
 30
0.0
 10
-1.990440378763805
 20
-9.244265916095633
 30
0.0
 10
-1.938677573629525
 20
-9.237295599811439
 30
0.0
 10
-1.88737050186997
 20
-9.227452336287432
 30
0.0
 10
-1.853852551232889
 20
-9.218055545388425
 30
0.0
 10
-1.837089538575237
 20
-9.213356018066873
 30
0.0
 11
-2.042572021485236
 21
-9.246955871581871
 31
0.0
 11
-1.990509033204243
 21
-9.243553161620878
 31
0.0
 11
-1.938751220704243
 21
-9.236816406249868
 31
0.0
 11
-1.887550354004241
 21
-9.226745605468874
 31
0.0
 11
-1.837089538575237
 21
-9.213356018066873
 31
0.0
  0
SPLINE
  5
A5CD
330
1F
100
AcDbEntity
  8
AM_0
100
AcDbSpline
210
0.0
220
0.0
230
1.0
 70
     8
 71
     3
 72
    11
 73
     7
 74
     5
 42
0.0000000001
 43
0.0000000001
 44
0.0000000001
 40
0.0
 40
0.0
 40
0.0
 40
0.0
 40
0.04700991095977
 40
0.0940187101576023
 40
0.1410344701634819
 40
0.1880426030345291
 40
0.1880426030345291
 40
0.1880426030345291
 40
0.1880426030345291
 10
-1.55913543701224
 20
-8.710830688476857
 30
0.0
 10
-1.566465187726524
 20
-8.724691281831896
 30
0.0
 10
-1.58112451580999
 20
-8.752412140745564
 30
0.0
 10
-1.607272223874515
 20
-8.791559637877517
 30
0.0
 10
-1.636065068083839
 20
-8.828804334133366
 30
0.0
 10
-1.657685726126317
 20
-8.851519986995565
 30
0.0
 10
-1.668495178223249
 20
-8.862876892089852
 30
0.0
 11
-1.55913543701224
 21
-8.710830688476857
 31
0.0
 11
-1.581817626954244
 21
-8.752006530761871
 31
0.0
 11
-1.607711791993249
 21
-8.791240692138851
 31
0.0
 11
-1.636672973633249
 21
-8.828277587890863
 31
0.0
 11
-1.668495178223249
 21
-8.862876892089852
 31
0.0
  0
SPLINE
  5
A5CF
330
1F
100
AcDbEntity
  8
AM_0
100
AcDbSpline
210
0.0
220
0.0
230
1.0
 70
     8
 71
     3
 72
    11
 73
     7
 74
     5
 42
0.0000000001
 43
0.0000000001
 44
0.0000000001
 40
0.0
 40
0.0
 40
0.0
 40
0.0
 40
1.052804421784093
 40
2.105693237704706
 40
3.158666990613486
 40
4.21173303461968
 40
4.21173303461968
 40
4.21173303461968
 40
4.21173303461968
 10
-1.595405578614241
 20
-9.672912597656855
 30
0.0
 10
-1.945479809211962
 20
-9.697474199233274
 30
0.0
 10
-2.645656332801329
 20
-9.74659937127522
 30
0.0
 10
-3.695973067883086
 20
-9.820152075537018
 30
0.0
 10
-4.746382288141623
 20
-9.893632419644681
 30
0.0
 10
-5.446690360530043
 20
-9.942532622355512
 30
0.0
 10
-5.796859741211242
 20
-9.966983795165841
 30
0.0
 11
-1.595405578614241
 21
-9.672912597656855
 31
0.0
 11
-2.645629882813246
 21
-9.746574401855879
 31
0.0
 11
-3.695945739746243
 21
-9.820137023925884
 31
0.0
 11
-4.74635314941424
 21
-9.893608093261851
 31
0.0
 11
-5.796859741211242
 21
-9.966983795165841
 31
0.0
  0
SPLINE
  5
A5D0
330
1F
100
AcDbEntity
  8
AM_0
100
AcDbSpline
210
0.0
220
0.0
230
1.0
 70
     8
 71
     3
 72
    11
 73
     7
 74
     5
 42
0.0000000001
 43
0.0000000001
 44
0.0000000001
 40
0.0
 40
0.0
 40
0.0
 40
0.0
 40
0.5782375264940497
 40
1.156475052989053
 40
1.734708904194167
 40
2.312944387055973
 40
2.312944387055973
 40
2.312944387055973
 40
2.312944387055973
 10
-9.064987182618237
 20
-11.84578704833987
 30
0.0
 10
-9.116617909998176
 20
-11.66008506218438
 30
0.0
 10
-9.219879364758135
 20
-11.2886810898731
 30
0.0
 10
-9.374769932533975
 20
-10.73157595413527
 30
0.0
 10
-9.529665462604452
 20
-10.17447290509316
 30
0.0
 10
-9.632920055185847
 20
-9.803069003549603
 30
0.0
 10
-9.684547424317239
 20
-9.617366790771891
 30
0.0
 11
-9.064987182618237
 21
-11.84578704833987
 31
0.0
 11
-9.219879150391236
 21
-11.28868103027386
 31
0.0
 11
-9.374771118164238
 21
-10.73157501220687
 31
0.0
 11
-9.529663085938244
 21
-10.17447280883787
 31
0.0
 11
-9.684547424317239
 21
-9.617366790771891
 31
0.0
  0
SPLINE
  5
A5D2
330
1F
100
AcDbEntity
  8
AM_0
100
AcDbSpline
210
0.0
220
0.0
230
1.0
 70
     8
 71
     3
 72
    11
 73
     7
 74
     5
 42
0.0000000001
 43
0.0000000001
 44
0.0000000001
 40
0.0
 40
0.0
 40
0.0
 40
0.0
 40
0.0878950025203619
 40
0.1770843778985327
 40
0.2674229835434744
 40
0.3587082511280281
 40
0.3587082511280281
 40
0.3587082511280281
 40
0.3587082511280281
 10
-17.87886047363325
 20
-9.350994110107887
 30
0.0
 10
-17.85804166197618
 20
-9.371661384501335
 30
0.0
 10
-17.81609745348691
 20
-9.413300286872082
 30
0.0
 10
-17.74397697686023
 20
-9.466140001674236
 30
0.0
 10
-17.66613119233846
 20
-9.512298871966702
 30
0.0
 10
-17.61019734762015
 20
-9.535642217403317
 30
0.0
 10
-17.58208465576223
 20
-9.547374725341892
 30
0.0
 11
-17.87886047363325
 21
-9.350994110107887
 31
0.0
 11
-17.81497192382923
 21
-9.411357879638911
 31
0.0
 11
-17.74349975586024
 21
-9.464710235595882
 31
0.0
 11
-17.66548156738324
 21
-9.510253906249896
 31
0.0
 11
-17.58208465576223
 21
-9.547374725341892
 31
0.0
  0
SPLINE
  5
A5D3
330
1F
100
AcDbEntity
  8
AM_0
100
AcDbSpline
210
0.0
220
0.0
230
1.0
 70
     8
 71
     3
 72
    11
 73
     7
 74
     5
 42
0.0000000001
 43
0.0000000001
 44
0.0000000001
 40
0.0
 40
0.0
 40
0.0
 40
0.0
 40
0.0557328706563157
 40
0.1114695554786557
 40
0.1672062403000029
 40
0.222950426583343
 40
0.222950426583343
 40
0.222950426583343
 40
0.222950426583343
 10
-17.21417236328224
 20
-9.338375091552885
 30
0.0
 10
-17.21448267715762
 20
-9.3569501232424
 30
0.0
 10
-17.21510332614523
 20
-9.39410145783273
 30
0.0
 10
-17.21603337720549
 20
-9.449829110849456
 30
0.0
 10
-17.21696684140742
 20
-9.505560479492713
 30
0.0
 10
-17.21758085230919
 20
-9.542715696891512
 30
0.0
 10
-17.21788787841824
 20
-9.5612945556639
 30
0.0
 11
-17.21417236328224
 21
-9.338375091552885
 31
0.0
 11
-17.21510314941423
 21
-9.394100189208879
 31
0.0
 11
-17.21603393554724
 21
-9.449829101562876
 31
0.0
 11
-17.21696472168023
 21
-9.50555801391588
 31
0.0
 11
-17.21788787841824
 21
-9.5612945556639
 31
0.0
  0
SPLINE
  5
A5D5
330
1F
100
AcDbEntity
  8
AM_0
100
AcDbSpline
210
0.0
220
0.0
230
1.0
 70
     8
 71
     3
 72
    11
 73
     7
 74
     5
 42
0.0000000001
 43
0.0000000001
 44
0.0000000001
 40
0.0
 40
0.0
 40
0.0
 40
0.0
 40
0.0665570275898537
 40
0.1324745849561938
 40
0.1975838902967995
 40
0.2617371014086362
 40
0.2617371014086362
 40
0.2617371014086362
 40
0.2617371014086362
 10
-17.46532440185623
 20
-9.292739868163902
 30
0.0
 10
-17.48590177569975
 20
-9.284388754302799
 30
0.0
 10
-17.5268588189771
 20
-9.267766762865788
 30
0.0
 10
-17.58427824794275
 20
-9.235212109067429
 30
0.0
 10
-17.63793193820208
 20
-9.198124571823459
 30
0.0
 10
-17.66969250024027
 20
-9.168938416898454
 30
0.0
 10
-17.68545532226623
 20
-9.154453277587901
 30
0.0
 11
-17.46532440185623
 21
-9.292739868163902
 31
0.0
 11
-17.52643585205124
 21
-9.266372680663902
 31
0.0
 11
-17.58399200439524
 21
-9.234241485595882
 31
0.0
 11
-17.63723754882924
 21
-9.196769714355877
 31
0.0
 11
-17.68545532226623
 21
-9.154453277587901
 31
0.0
  0
SPLINE
  5
A5D6
330
1F
100
AcDbEntity
  8
AM_0
100
AcDbSpline
210
0.0
220
0.0
230
1.0
 70
     8
 71
     3
 72
    11
 73
     7
 74
     5
 42
0.0000000001
 43
0.0000000001
 44
0.0000000001
 40
0.0
 40
0.0
 40
0.0
 40
0.0
 40
0.0925461032302083
 40
0.1850920618774941
 40
0.2776418205414134
 40
0.3701779492094094
 40
0.3701779492094094
 40
0.3701779492094094
 40
0.3701779492094094
 10
-1.617767333985237
 20
-9.107486724853865
 30
0.0
 10
-1.59305310312829
 20
-9.088954374650166
 30
0.0
 10
-1.543624680024941
 20
-9.051889703195486
 30
0.0
 10
-1.478820958698112
 20
-8.985406960974568
 30
0.0
 10
-1.421291730032318
 20
-8.912546283882424
 30
0.0
 10
-1.390897766790271
 20
-8.858761462839702
 30
0.0
 10
-1.37570190429724
 20
-8.831871032714852
 30
0.0
 11
-1.617767333985237
 21
-9.107486724853865
 31
0.0
 11
-1.545181274414242
 21
-9.050075531005868
 31
0.0
 11
-1.480033874512239
 21
-8.984344482421857
 31
0.0
 11
-1.423278808594243
 21
-8.911239624023844
 31
0.0
 11
-1.37570190429724
 21
-8.831871032714852
 31
0.0
  0
SPLINE
  5
A5D8
330
1F
100
AcDbEntity
  8
AM_0
100
AcDbSpline
210
0.0
220
0.0
230
1.0
 70
     8
 71
     3
 72
    11
 73
     7
 74
     5
 42
0.0000000001
 43
0.0000000001
 44
0.0000000001
 40
0.0
 40
0.0
 40
0.0
 40
0.0
 40
0.2719051298233452
 40
0.5438078549752814
 40
0.8157078806241642
 40
1.087610605777081
 40
1.087610605777081
 40
1.087610605777081
 40
1.087610605777081
 10
-8.801628112793244
 20
-10.29537582397486
 30
0.0
 10
-8.817661397851249
 20
-10.20617019162358
 30
0.0
 10
-8.849727826172284
 20
-10.02775971583676
 30
0.0
 10
-8.897848102367767
 20
-9.760149032691353
 30
0.0
 10
-8.945933110659028
 20
-9.492532824499297
 30
0.0
 10
-8.978010365318688
 20
-9.314126023494816
 30
0.0
 10
-8.994049072266244
 20
-9.224922180175875
 30
0.0
 11
-8.801628112793244
 21
-10.29537582397486
 31
0.0
 11
-8.849731445313246
 21
-10.02775955200188
 31
0.0
 11
-8.897842407227237
 21
-9.760147094726884
 31
0.0
 11
-8.945938110352239
 21
-9.492534637451862
 31
0.0
 11
-8.994049072266244
 21
-9.224922180175875
 31
0.0
  0
SPLINE
  5
A5DA
330
1F
100
AcDbEntity
  8
AM_0
100
AcDbSpline
210
0.0
220
0.0
230
1.0
 70
     8
 71
     3
 72
    11
 73
     7
 74
     5
 42
0.0000000001
 43
0.0000000001
 44
0.0000000001
 40
0.0
 40
0.0
 40
0.0
 40
0.0
 40
0.1076746810613148
 40
0.2150220198584393
 40
0.3234808227405489
 40
0.4342238811694043
 40
0.4342238811694043
 40
0.4342238811694043
 40
0.4342238811694043
 10
-8.69999694824324
 20
-11.47504806518586
 30
0.0
 10
-8.700175848390534
 20
-11.51124028263672
 30
0.0
 10
-8.700533104810014
 20
-11.58351468942145
 30
0.0
 10
-8.742752470246623
 20
-11.68527119073111
 30
0.0
 10
-8.814064795922213
 20
-11.77105448170991
 30
0.0
 10
-8.880205183791076
 20
-11.80376934983762
 30
0.0
 10
-8.913619995118239
 20
-11.82029724121085
 30
0.0
 11
-8.69999694824324
 21
-11.47504806518586
 31
0.0
 11
-8.707481384278239
 21
-11.58246231079087
 31
0.0
 11
-8.747299194336235
 21
-11.68215179443388
 31
0.0
 11
-8.818038940430225
 21
-11.76436614990285
 31
0.0
 11
-8.913619995118239
 21
-11.82029724121085
 31
0.0
  0
SPLINE
  5
A5DB
330
1F
100
AcDbEntity
  8
AM_0
100
AcDbSpline
210
0.0
220
0.0
230
1.0
 70
     8
 71
     3
 72
    11
 73
     7
 74
     5
 42
0.0000000001
 43
0.0000000001
 44
0.0000000001
 40
0.0
 40
0.0
 40
0.0
 40
0.0
 40
1.299628116613139
 40
2.606051816451728
 40
3.900127083094345
 40
5.186990871713545
 40
5.186990871713545
 40
5.186990871713545
 40
5.186990871713545
 10
-14.92299652099625
 20
-3.948978424072892
 30
0.0
 10
-14.81557546438722
 20
-3.521827495968223
 30
0.0
 10
-14.60017166069707
 20
-2.665292124151875
 30
0.0
 10
-13.25526843556152
 20
-1.856589952186882
 30
0.0
 10
-12.00539734743716
 20
-2.827060480063175
 30
0.0
 10
-11.96292594077807
 20
-3.709268097002977
 30
0.0
 10
-11.94174957275424
 20
-4.149139404296865
 30
0.0
 11
-14.92299652099625
 21
-3.948978424072892
 31
0.0
 11
-14.43080902099625
 21
-2.746154785156874
 31
0.0
 11
-13.26631164550825
 21
-2.153964996337857
 31
0.0
 11
-12.20101928711024
 21
-2.888664245605858
 31
0.0
 11
-11.94174957275424
 21
-4.149139404296865
 31
0.0
  0
SPLINE
  5
A5E0
330
1F
100
AcDbEntity
  8
AM_0
100
AcDbSpline
210
0.0
220
0.0
230
1.0
 70
     8
 71
     3
 72
    11
 73
     7
 74
     5
 42
0.0000000001
 43
0.0000000001
 44
0.0000000001
 40
0.0
 40
0.0
 40
0.0
 40
0.0
 40
0.14849248470873
 40
0.2969876004825865
 40
0.4454745609611709
 40
0.5939696767364433
 40
0.5939696767364433
 40
0.5939696767364433
 40
0.5939696767364433
 10
-1.288070678711247
 20
-8.503585815429868
 30
0.0
 10
-1.252230207562877
 20
-8.537724688135103
 30
0.0
 10
-1.180548630226499
 20
-8.606003038435423
 30
0.0
 10
-1.07303005298371
 20
-8.708421235842711
 30
0.0
 10
-0.9655137194497012
 20
-8.810843060160676
 30
0.0
 10
-0.8938346156597091
 20
-8.879121337450021
 30
0.0
 10
-0.8579940795902384
 20
-8.913261413574852
 30
0.0
 11
-1.288070678711247
 21
-8.503585815429868
 31
0.0
 11
-1.180549621582241
 21
-8.60600280761785
 31
0.0
 11
-1.073028564454244
 21
-8.708423614501848
 31
0.0
 11
-0.9655151367192445
 21
-8.810840606689861
 31
0.0
 11
-0.8579940795902384
 21
-8.913261413574852
 31
0.0
  0
SPLINE
  5
A5E2
330
1F
100
AcDbEntity
  8
AM_0
100
AcDbSpline
210
0.0
220
0.0
230
1.0
 70
     8
 71
     3
 72
    11
 73
     7
 74
     5
 42
0.0000000001
 43
0.0000000001
 44
0.0000000001
 40
0.0
 40
0.0
 40
0.0
 40
0.0
 40
0.1143584247176907
 40
0.2289287416271508
 40
0.343896452605517
 40
0.4592835235129732
 40
0.4592835235129732
 40
0.4592835235129732
 40
0.4592835235129732
 10
-6.926483154297236
 20
-9.954502105712863
 30
0.0
 10
-6.964736432510742
 20
-9.95109273251195
 30
0.0
 10
-7.041313867589526
 20
-9.944267668958046
 30
0.0
 10
-7.1462532684627
 20
-9.893052408332797
 30
0.0
 10
-7.233798284767849
 20
-9.814537058011611
 30
0.0
 10
-7.266460711167988
 20
-9.744259568795417
 30
0.0
 10
-7.282821655274241
 20
-9.709056854247878
 30
0.0
 11
-6.926483154297236
 21
-9.954502105712863
 31
0.0
 11
-7.03956604003924
 21
-9.937469482421876
 31
0.0
 11
-7.143196105957236
 21
-9.888610839843865
 31
0.0
 11
-7.227264404297237
 21
-9.81018829345686
 31
0.0
 11
-7.282821655274241
 21
-9.709056854247878
 31
0.0
  0
SPLINE
  5
A5E3
330
1F
100
AcDbEntity
  8
AM_0
100
AcDbSpline
210
0.0
220
0.0
230
1.0
 70
     8
 71
     3
 72
    11
 73
     7
 74
     5
 42
0.0000000001
 43
0.0000000001
 44
0.0000000001
 40
0.0
 40
0.0
 40
0.0
 40
0.0
 40
0.0465192477983759
 40
0.0933049919442915
 40
0.1403646876166718
 40
0.1877686007298039
 40
0.1877686007298039
 40
0.1877686007298039
 40
0.1877686007298039
 10
-18.05697631836024
 20
-8.984031677245907
 30
0.0
 10
-18.05446641819564
 20
-8.999340955448188
 30
0.0
 10
-18.04943223931869
 20
-9.030047214619186
 30
0.0
 10
-18.03770033904263
 20
-9.07539319282956
 30
0.0
 10
-18.02314731285134
 20
-9.120223989976958
 30
0.0
 10
-18.0107520669296
 20
-9.149185603595343
 30
0.0
 10
-18.00453186035223
 20
-9.163719177245907
 30
0.0
 11
-18.05697631836024
 21
-8.984031677245907
 31
0.0
 11
-18.04875946045024
 21
-9.029819488525914
 31
0.0
 11
-18.03726959228625
 21
-9.0751724243169
 31
0.0
 11
-18.02252197265724
 21
-9.119861602783895
 31
0.0
 11
-18.00453186035223
 21
-9.163719177245907
 31
0.0
  0
SPLINE
  5
A5E5
330
1F
100
AcDbEntity
  8
AM_0
100
AcDbSpline
210
0.0
220
0.0
230
1.0
 70
     8
 71
     3
 72
    11
 73
     7
 74
     5
 42
0.0000000001
 43
0.0000000001
 44
0.0000000001
 40
0.0
 40
0.0
 40
0.0
 40
0.0
 40
0.2629488409655018
 40
0.5258927699075814
 40
0.7888366988489063
 40
1.051785539814411
 40
1.051785539814411
 40
1.051785539814411
 40
1.051785539814411
 10
-6.249313354493248
 20
-9.149707794189851
 30
0.0
 10
-6.305745814957211
 20
-9.216773673600073
 30
0.0
 10
-6.41860968169693
 20
-9.35090417959442
 30
0.0
 10
-6.587898254394893
 20
-9.552104949951811
 30
0.0
 10
-6.757186827093931
 20
-9.753305720308301
 30
0.0
 10
-6.870050693833344
 20
-9.887436226302579
 30
0.0
 10
-6.926483154297236
 20
-9.954502105712863
 30
0.0
 11
-6.249313354493248
 21
-9.149707794189851
 31
0.0
 11
-6.418609619141244
 21
-9.35090637207085
 31
0.0
 11
-6.587898254395235
 21
-9.552104949951853
 31
0.0
 11
-6.757186889649241
 21
-9.75330352783186
 31
0.0
 11
-6.926483154297236
 21
-9.954502105712863
 31
0.0
  0
SPLINE
  5
A5E6
330
1F
100
AcDbEntity
  8
AM_0
100
AcDbSpline
210
0.0
220
0.0
230
1.0
 70
     8
 71
     3
 72
    11
 73
     7
 74
     5
 42
0.0000000001
 43
0.0000000001
 44
0.0000000001
 40
0.0
 40
0.0
 40
0.0
 40
0.0
 40
0.0611158101537182
 40
0.1222361541134516
 40
0.1833673865747254
 40
0.2444952993051392
 40
0.2444952993051392
 40
0.2444952993051392
 40
0.2444952993051392
 10
-1.837089538575237
 20
-9.213356018066873
 30
0.0
 10
-1.817705620570952
 20
-9.207050358256928
 30
0.0
 10
-1.778936346588741
 20
-9.194438570858922
 30
0.0
 10
-1.722933120214451
 20
-9.169750242476037
 30
0.0
 10
-1.668724368181625
 20
-9.1413198319064
 30
0.0
 10
-1.634752704570552
 20
-9.118764223052156
 30
0.0
 10
-1.617767333985237
 20
-9.107486724853865
 30
0.0
 11
-1.837089538575237
 21
-9.213356018066873
 31
0.0
 11
-1.779296875000237
 21
-9.19347763061587
 31
0.0
 11
-1.723236083985237
 21
-9.169128417968872
 31
0.0
 11
-1.669265747071245
 21
-9.140419006347864
 31
0.0
 11
-1.617767333985237
 21
-9.107486724853865
 31
0.0
  0
SPLINE
  5
A5E7
330
1F
100
AcDbEntity
  8
AM_0
100
AcDbSpline
210
0.0
220
0.0
230
1.0
 70
     8
 71
     3
 72
    11
 73
     7
 74
     5
 42
0.0000000001
 43
0.0000000001
 44
0.0000000001
 40
0.0
 40
0.0
 40
0.0
 40
0.0
 40
0.0639705382423967
 40
0.1281766261743619
 40
0.1924235722458412
 40
0.2565332651985958
 40
0.2565332651985958
 40
0.2565332651985958
 40
0.2565332651985958
 10
-17.46532440185623
 20
-9.292739868163902
 30
0.0
 10
-17.44515456177852
 20
-9.299708126882251
 30
0.0
 10
-17.40474061306605
 20
-9.313670302555115
 30
0.0
 10
-17.34200521349789
 20
-9.327548048726104
 30
0.0
 10
-17.27835222709023
 20
-9.336629553327423
 30
0.0
 10
-17.23555039506689
 20
-9.337793660408422
 30
0.0
 10
-17.21417236328224
 20
-9.338375091552885
 30
0.0
 11
-17.46532440185623
 21
-9.292739868163902
 31
0.0
 11
-17.40447235107524
 21
-9.312469482421885
 31
0.0
 11
-17.34187316894624
 21
-9.326744079589882
 31
0.0
 11
-17.27821350097723
 21
-9.335411071777894
 31
0.0
 11
-17.21417236328224
 21
-9.338375091552885
 31
0.0
  0
SPLINE
  5
A5E9
330
1F
100
AcDbEntity
  8
AM_0
100
AcDbSpline
210
0.0
220
0.0
230
1.0
 70
     8
 71
     3
 72
    11
 73
     7
 74
     5
 42
0.0000000001
 43
0.0000000001
 44
0.0000000001
 40
0.0
 40
0.0
 40
0.0
 40
0.0
 40
0.0855894872053015
 40
0.1711725406175227
 40
0.2567473752750341
 40
0.3423001772478982
 40
0.3423001772478982
 40
0.3423001772478982
 40
0.3423001772478982
 10
-1.37570190429724
 20
-8.831871032714852
 30
0.0
 10
-1.363321529916701
 20
-8.806130900002937
 30
0.0
 10
-1.338561711792898
 20
-8.754652569474309
 30
0.0
 10
-1.312690659596426
 20
-8.672835427333216
 30
0.0
 10
-1.294563398948356
 20
-8.588991415056618
 30
0.0
 10
-1.290234733018359
 20
-8.532051904984653
 30
0.0
 10
-1.288070678711247
 20
-8.503585815429868
 30
0.0
 11
-1.37570190429724
 21
-8.831871032714852
 31
0.0
 11
-1.340438842774243
 21
-8.753883361816871
 31
0.0
 11
-1.313980102539243
 21
-8.672492980956871
 31
0.0
 11
-1.29650115966825
 21
-8.58872222900386
 31
0.0
 11
-1.288070678711247
 21
-8.503585815429868
 31
0.0
  0
SPLINE
  5
A5EA
330
1F
100
AcDbEntity
  8
AM_0
100
AcDbSpline
210
0.0
220
0.0
230
1.0
 70
     8
 71
     3
 72
    11
 73
     7
 74
     5
 42
0.0000000001
 43
0.0000000001
 44
0.0000000001
 40
0.0
 40
0.0
 40
0.0
 40
0.0
 40
0.2888043177558406
 40
0.5699643173126974
 40
0.8305180675435854
 40
1.066947363965091
 40
1.066947363965091
 40
1.066947363965091
 40
1.066947363965091
 10
-17.79446411132923
 20
-11.15710830688488
 30
0.0
 10
-17.89084217056662
 20
-11.14647180379307
 30
0.0
 10
-18.08104727263717
 20
-11.12548033361552
 30
0.0
 10
-18.33354850041818
 20
-11.00365902545344
 30
0.0
 10
-18.53749767331187
 20
-10.83010578650204
 30
0.0
 10
-18.59742787482808
 20
-10.67315943134548
 30
0.0
 10
-18.62593841552824
 20
-10.5984954833989
 30
0.0
 11
-17.79446411132923
 21
-11.15710830688488
 31
0.0
 11
-18.07925415039123
 21
-11.1091232299809
 31
0.0
 11
-18.33369445800824
 21
-10.9894943237309
 31
0.0
 11
-18.52449035644623
 21
-10.8120536804199
 31
0.0
 11
-18.62593841552824
 21
-10.5984954833989
 31
0.0
  0
SPLINE
  5
A5EB
330
1F
100
AcDbEntity
  8
AM_0
100
AcDbSpline
210
0.0
220
0.0
230
1.0
 70
     8
 71
     3
 72
    11
 73
     7
 74
     5
 42
0.0000000001
 43
0.0000000001
 44
0.0000000001
 40
0.0
 40
0.0
 40
0.0
 40
0.0
 40
0.0428955753141786
 40
0.0853197598609479
 40
0.127283283858621
 40
0.1688338938720123
 40
0.1688338938720123
 40
0.1688338938720123
 40
0.1688338938720123
 10
-17.68545532226623
 20
-9.154453277587901
 30
0.0
 10
-17.69545469180076
 20
-9.14422337364968
 30
0.0
 10
-17.71534354516611
 20
-9.123875984880164
 30
0.0
 10
-17.742181670048
 20
-9.090957142771214
 30
0.0
 10
-17.76666535968727
 20
-9.056795011933605
 30
0.0
 10
-17.78066873406265
 20
-9.032718997463213
 30
0.0
 10
-17.78763580322325
 20
-9.020740509033895
 30
0.0
 11
-17.68545532226623
 21
-9.154453277587901
 31
0.0
 11
-17.71497344970724
 21
-9.123329162597894
 31
0.0
 11
-17.74192810058623
 21
-9.090568542480905
 31
0.0
 11
-17.76618194580125
 21
-9.056324005126908
 31
0.0
 11
-17.78763580322325
 21
-9.020740509033895
 31
0.0
  0
SPLINE
  5
A5EC
330
1F
100
AcDbEntity
  8
AM_0
100
AcDbSpline
210
0.0
220
0.0
230
1.0
 70
     8
 71
     3
 72
    11
 73
     7
 74
     5
 42
0.0000000001
 43
0.0000000001
 44
0.0000000001
 40
0.0
 40
0.0
 40
0.0
 40
0.0
 40
0.064250026846374
 40
0.1285026206665376
 40
0.1927537859490389
 40
0.2570007520659207
 40
0.2570007520659207
 40
0.2570007520659207
 40
0.2570007520659207
 10
-1.55913543701224
 20
-8.710830688476857
 30
0.0
 10
-1.550091399184607
 20
-8.691393487482447
 30
0.0
 10
-1.532002962193959
 20
-8.652518308921411
 30
0.0
 10
-1.512801868739305
 20
-8.591047735325481
 30
0.0
 10
-1.499096367507232
 20
-8.528124850914835
 30
0.0
 10
-1.495589050443594
 20
-8.485392754683539
 30
0.0
 10
-1.493835449219244
 20
-8.464027404784852
 30
0.0
 11
-1.55913543701224
 21
-8.710830688476857
 31
0.0
 11
-1.53332519531325
 21
-8.651992797851857
 31
0.0
 11
-1.51371765136825
 21
-8.590805053710862
 31
0.0
 11
-1.500503540039244
 21
-8.527927398681878
 31
0.0
 11
-1.493835449219244
 21
-8.464027404784852
 31
0.0
  0
SPLINE
  5
A5EF
330
1F
100
AcDbEntity
  8
AM_0
100
AcDbSpline
210
0.0
220
0.0
230
1.0
 70
     8
 71
     3
 72
    11
 73
     7
 74
     5
 42
0.0000000001
 43
0.0000000001
 44
0.0000000001
 40
0.0
 40
0.0
 40
0.0
 40
0.0
 40
0.0380211280244843
 40
0.0764446404320363
 40
0.115205523869615
 40
0.1542148575990843
 40
0.1542148575990843
 40
0.1542148575990843
 40
0.1542148575990843
 10
-8.913619995118239
 20
-11.82029724121085
 30
0.0
 10
-8.925668754860781
 20
-11.82425828414126
 30
0.0
 10
-8.949893788520421
 20
-11.83222229042629
 30
0.0
 10
-8.987574910032709
 20
-11.83996943035973
 30
0.0
 10
-9.026044779479505
 20
-11.84493279206616
 30
0.0
 10
-9.051978764717977
 20
-11.84550169043418
 30
0.0
 10
-9.064987182618237
 20
-11.84578704833987
 30
0.0
 11
-8.913619995118239
 21
-11.82029724121085
 31
0.0
 11
-8.949958801270225
 21
-11.83148193359386
 31
0.0
 11
-8.987541198731234
 21
-11.83947753906287
 31
0.0
 11
-9.02600860595723
 21
-11.84423828124986
 31
0.0
 11
-9.064987182618237
 21
-11.84578704833987
 31
0.0
  0
SPLINE
  5
A5F2
330
1F
100
AcDbEntity
  8
AM_0
100
AcDbSpline
210
0.0
220
0.0
230
1.0
 70
     8
 71
     3
 72
    11
 73
     7
 74
     5
 42
0.0000000001
 43
0.0000000001
 44
0.0000000001
 40
0.0
 40
0.0
 40
0.0
 40
0.0
 40
0.2072854313778265
 40
0.4146373668055343
 40
0.6220557188728538
 40
0.829545598971875
 40
0.829545598971875
 40
0.829545598971875
 40
0.829545598971875
 10
-7.25346374511825
 20
-8.725608825683881
 30
0.0
 10
-7.257870335139958
 20
-8.794563320851322
 30
0.0
 10
-7.266684928963782
 20
-8.93249443407808
 30
0.0
 10
-7.279554381000069
 20
-9.139446665048151
 30
0.0
 10
-7.292172884818438
 20
-9.34648261920852
 30
0.0
 10
-7.300357817106315
 20
-9.484542974433196
 30
0.0
 10
-7.304450988770235
 20
-9.553585052490861
 30
0.0
 11
-7.25346374511825
 21
-8.725608825683881
 31
0.0
 11
-7.266624450684243
 21
-8.932476043701857
 31
0.0
 11
-7.279510498047239
 21
-9.139427185058881
 31
0.0
 11
-7.292114257813247
 21
-9.346462249755862
 31
0.0
 11
-7.304450988770235
 21
-9.553585052490861
 31
0.0
  0
SPLINE
  5
A5F3
330
1F
100
AcDbEntity
  8
AM_0
100
AcDbSpline
210
0.0
220
0.0
230
1.0
 70
     8
 71
     3
 72
    11
 73
     7
 74
     5
 42
0.0000000001
 43
0.0000000001
 44
0.0000000001
 40
0.0
 40
0.0
 40
0.0
 40
0.0
 40
0.0482651183818215
 40
0.0959666433766685
 40
0.1430176458477779
 40
0.1893450809522164
 40
0.1893450809522164
 40
0.1893450809522164
 40
0.1893450809522164
 10
-9.684547424317239
 20
-9.617366790771891
 30
0.0
 10
-9.668456646748504
 20
-9.618036857137518
 30
0.0
 10
-9.636462984153991
 20
-9.619369165481609
 30
0.0
 10
-9.588880006680865
 20
-9.615062495373145
 30
0.0
 10
-9.542510404757143
 20
-9.606336384205008
 30
0.0
 10
-9.513178846479648
 20
-9.595787069149437
 30
0.0
 10
-9.498626708985234
 20
-9.590553283691869
 30
0.0
 11
-9.684547424317239
 21
-9.617366790771891
 31
0.0
 11
-9.636291503907239
 21
-9.618309020995877
 31
0.0
 11
-9.588760375977239
 21
-9.614280700683888
 31
0.0
 11
-9.542617797852239
 21
-9.60507965087886
 31
0.0
 11
-9.498626708985234
 21
-9.590553283691869
 31
0.0
  0
SPLINE
  5
A5F5
330
1F
100
AcDbEntity
  8
AM_0
100
AcDbSpline
210
0.0
220
0.0
230
1.0
 70
     8
 71
     3
 72
    11
 73
     7
 74
     5
 42
0.0000000001
 43
0.0000000001
 44
0.0000000001
 40
0.0
 40
0.0
 40
0.0
 40
0.0
 40
0.2887915095345249
 40
0.577097684575433
 40
0.863940919680791
 40
1.149356091594947
 40
1.149356091594947
 40
1.149356091594947
 40
1.149356091594947
 10
-0.8579940795902384
 20
-8.913261413574852
 30
0.0
 10
-0.8738223744262914
 20
-9.009325304845917
 30
0.0
 10
-0.9054523635329189
 20
-9.201291645245587
 30
0.0
 10
-1.074538215605305
 20
-9.443937381652814
 30
0.0
 10
-1.31054543469426
 20
-9.621527340947046
 30
0.0
 10
-1.500610298748565
 20
-9.655812698303632
 30
0.0
 10
-1.595405578614241
 20
-9.672912597656855
 30
0.0
 11
-0.8579940795902384
 21
-8.913261413574852
 31
0.0
 11
-0.9258422851572404
 21
-9.193969726562849
 31
0.0
 11
-1.086174011231244
 21
-9.433582305908862
 31
0.0
 11
-1.319259643555235
 21
-9.600765228271862
 31
0.0
 11
-1.595405578614241
 21
-9.672912597656855
 31
0.0
  0
SPLINE
  5
A5F8
330
1F
100
AcDbEntity
  8
AM_0
100
AcDbSpline
210
0.0
220
0.0
230
1.0
 70
     8
 71
     3
 72
    11
 73
     7
 74
     5
 42
0.0000000001
 43
0.0000000001
 44
0.0000000001
 40
0.0
 40
0.0
 40
0.0
 40
0.0
 40
0.0392596650110499
 40
0.0785277169361735
 40
0.1177869154710939
 40
0.1570520576868908
 40
0.1570520576868908
 40
0.1570520576868908
 40
0.1570520576868908
 10
-7.282821655274241
 20
-9.709056854247878
 30
0.0
 10
-7.286763608508501
 20
-9.696565959130644
 30
0.0
 10
-7.294648357083624
 20
-9.671581500507034
 30
0.0
 10
-7.301711651782381
 20
-9.632875603751067
 30
0.0
 10
-7.305479197950241
 20
-9.593715283975628
 30
0.0
 10
-7.304824259266157
 20
-9.567527032263329
 30
0.0
 10
-7.304496765137238
 20
-9.554431915283858
 30
0.0
 11
-7.282821655274241
 21
-9.709056854247878
 31
0.0
 11
-7.293853759766242
 21
-9.67137908935587
 31
0.0
 11
-7.301162719727238
 21
-9.632797241210884
 31
0.0
 11
-7.304687500000235
 21
-9.593696594238853
 31
0.0
 11
-7.304496765137238
 21
-9.554431915283858
 31
0.0
  0
SPLINE
  5
A5F9
330
1F
100
AcDbEntity
  8
AM_0
100
AcDbSpline
210
0.0
220
0.0
230
1.0
 70
     8
 71
     3
 72
    11
 73
     7
 74
     5
 42
0.0000000001
 43
0.0000000001
 44
0.0000000001
 40
0.0
 40
0.0
 40
0.0
 40
0.0
 40
0.0625433902745318
 40
0.1251367574519022
 40
0.1877670426743476
 40
0.2503914935254916
 40
0.2503914935254916
 40
0.2503914935254916
 40
0.2503914935254916
 10
-6.582855224610237
 20
-8.925651550292855
 30
0.0
 10
-6.57371110189589
 20
-8.944446918696209
 30
0.0
 10
-6.55541554962101
 20
-8.982052674424924
 30
0.0
 10
-6.516488527092407
 20
-9.031553477741828
 30
0.0
 10
-6.470573534779543
 20
-9.074731377383553
 30
0.0
 10
-6.434531642412343
 20
-9.096034548847315
 30
0.0
 10
-6.416511535645237
 20
-9.106685638427848
 30
0.0
 11
-6.582855224610237
 21
-8.925651550292855
 31
0.0
 11
-6.553512573243249
 21
-8.980884552001867
 31
0.0
 11
-6.515335083008248
 21
-9.030487060546875
 31
0.0
 11
-6.469215393067241
 21
-9.072860717773862
 31
0.0
 11
-6.416511535645237
 21
-9.106685638427848
 31
0.0
  0
SPLINE
  5
A5FA
330
1F
100
AcDbEntity
  8
AM_0
100
AcDbSpline
210
0.0
220
0.0
230
1.0
 70
     8
 71
     3
 72
    11
 73
     7
 74
     5
 42
0.0000000001
 43
0.0000000001
 44
0.0000000001
 40
0.0
 40
0.0
 40
0.0
 40
0.0
 40
0.0558950338928843
 40
0.1122682294598037
 40
0.1691279583101288
 40
0.2264976494730178
 40
0.2264976494730178
 40
0.2264976494730178
 40
0.2264976494730178
 10
-18.00453186035223
 20
-9.163719177245907
 30
0.0
 10
-17.99645071926702
 20
-9.180520464125825
 30
0.0
 10
-17.98021930587545
 20
-9.214266766780712
 30
0.0
 10
-17.95046438468394
 20
-9.26225110002985
 30
0.0
 10
-17.91708828517102
 20
-9.308396026850642
 30
0.0
 10
-17.8916409462518
 20
-9.336752551023755
 30
0.0
 10
-17.87886047363325
 20
-9.350994110107887
 30
0.0
 11
-18.00453186035223
 21
-9.163719177245907
 31
0.0
 11
-17.97941589355524
 21
-9.213653564452908
 31
0.0
 11
-17.94999694824325
 21
-9.26174163818389
 31
0.0
 11
-17.91641998291125
 21
-9.307628631591894
 31
0.0
 11
-17.87886047363325
 21
-9.350994110107887
 31
0.0
  0
SPLINE
  5
A5FB
330
1F
100
AcDbEntity
  8
AM_0
100
AcDbSpline
210
0.0
220
0.0
230
1.0
 70
     8
 71
     3
 72
    11
 73
     7
 74
     5
 42
0.0000000001
 43
0.0000000001
 44
0.0000000001
 40
0.0
 40
0.0
 40
0.0
 40
0.0
 40
0.4115851650931086
 40
0.8231754018723828
 40
1.234763102745178
 40
1.646350803617998
 40
1.646350803617998
 40
1.646350803617998
 40
1.646350803617998
 10
-17.24725341796923
 20
-9.60435867309588
 30
0.0
 10
-17.29285039250221
 20
-9.733754959935673
 30
0.0
 10
-17.3840449034289
 20
-9.992549128078353
 30
0.0
 10
-17.52086139219295
 20
-10.38073166773092
 30
0.0
 10
-17.65766071086523
 20
-10.76892115469132
 30
0.0
 10
-17.74886297784123
 20
-11.02771258948703
 30
0.0
 10
-17.79446411132923
 20
-11.15710830688488
 30
0.0
 11
-17.24725341796923
 21
-9.60435867309588
 31
0.0
 11
-17.38404846191423
 21
-9.992546081542894
 31
0.0
 11
-17.52085876464923
 21
-10.38073348999089
 31
0.0
 11
-17.65766143798923
 21
-10.76892089843787
 31
0.0
 11
-17.79446411132923
 21
-11.15710830688488
 31
0.0
  0
ELLIPSE
  5
A5FC
330
1F
100
AcDbEntity
  8
AM_0
100
AcDbEllipse
 10
-28.90197753906325
 20
-0.0000038146978855
 30
0.0
 11
9.373001309277986
 21
10.810604294401
 31
0.0
210
0.0
220
0.0
230
1.0
 40
0.368864655907
 41
3.451137522768893
 42
3.601461452410998
  0
ELLIPSE
  5
A5FD
330
1F
100
AcDbEntity
  8
AM_0
100
AcDbEllipse
 10
-19.74628448486424
 20
-0.0000076293948628
 30
0.0
 11
0.8634567118070222
 21
-11.34941248009099
 31
0.0
210
0.0
220
0.0
230
1.0
 40
0.1336880304359
 41
0.5901354031983247
 42
0.6513984439748282
  0
ELLIPSE
  5
A5FE
330
1F
100
AcDbEntity
  8
AM_0
100
AcDbEllipse
 10
-20.97030639648524
 20
0.0000000000001189
 30
0.0
 11
1.870819210309012
 21
-11.34903130683899
 31
0.0
210
0.0
220
0.0
230
1.0
 40
0.0793053756242
 41
0.399433320812315
 42
0.4678757570505928
  0
ELLIPSE
  5
A5FF
330
1F
100
AcDbEntity
  8
AM_0
100
AcDbEllipse
 10
1.219230651854758
 20
-0.0000038146978353
 30
0.0
 11
144.3531439268509
 21
-5.735099777705765
 31
0.0
210
0.0
220
0.0
230
1.0
 40
0.0678504296831
 41
4.580573190708683
 42
4.639214197900169
  0
ELLIPSE
  5
A600
330
1F
100
AcDbEntity
  8
AM_0
100
AcDbEllipse
 10
-0.8279724121102416
 20
-0.0000076293948524
 30
0.0
 11
0.6014670715789762
 21
11.34982455965
 31
0.0
210
0.0
220
0.0
230
1.0
 40
0.1049568974378
 41
2.157944155334218
 42
2.491820063353747
  0
ELLIPSE
  5
A601
330
1F
100
AcDbEntity
  8
AM_0
100
AcDbEllipse
 10
57.33152770995575
 20
-0.0000038146977496
 30
0.0
 11
300.2539192819999
 21
7.051069894605491
 31
0.0
210
0.0
220
0.0
230
1.0
 40
0.0296215595585
 41
4.390890258513187
 42
4.455004869452254
  0
ELLIPSE
  5
A602
330
1F
100
AcDbEntity
  8
AM_0
100
AcDbEllipse
 10
-19.93611145019625
 20
-0.0000076293948635
 30
0.0
 11
0.3045154848469833
 21
11.34961145658099
 31
0.0
210
0.0
220
0.0
230
1.0
 40
0.3084615957731999
 41
3.63181418361745
 42
3.750252353954501
  0
ELLIPSE
  5
A603
330
1F
100
AcDbEntity
  8
AM_0
100
AcDbEllipse
 10
48.63151550292575
 20
0.0000000000002241
 30
0.0
 11
300.25391760088
 21
-7.051141480717514
 31
0.0
210
0.0
220
0.0
230
1.0
 40
0.0296215563831
 41
1.828258070599129
 42
1.859399843878376
  0
ELLIPSE
  5
A604
330
1F
100
AcDbEntity
  8
AM_0
100
AcDbEllipse
 10
1.218482971190751
 20
-0.0006484985348449
 30
0.0
 11
144.348152766795
 21
-5.735039359089763
 31
0.0
210
0.0
220
0.0
230
0.9999999999999998
 40
0.0678481388997
 41
4.639372076709233
 42
4.64286660662545
  0
ELLIPSE
  5
A605
330
1F
100
AcDbEntity
  8
AM_0
100
AcDbEllipse
 10
-12.88656616211024
 20
-0.000003814697857
 30
0.0
 11
0.0180512211859806
 21
11.34999842476799
 31
0.0
210
0.0
220
0.0
230
1.0
 40
0.0900524129572
 41
4.034334421405562
 42
4.338627450655612
  0
ELLIPSE
  5
A606
330
1F
100
AcDbEntity
  8
AM_0
100
AcDbEllipse
 10
-0.8279724121102416
 20
-0.0000076293948524
 30
0.0
 11
0.6014670715789762
 21
11.34982455965
 31
0.0
210
0.0
220
0.0
230
1.0
 40
0.1049568974378
 41
1.522720051031975
 42
1.865486177582629
  0
ELLIPSE
  5
A607
330
1F
100
AcDbEntity
  8
AM_0
100
AcDbEllipse
 10
-15.89871215820424
 20
-0.0000038146978961
 30
0.0
 11
0.0180471621099755
 21
11.349998431223
 31
0.0
210
0.0
220
0.0
230
1.0
 40
0.0900527490534
 41
4.057003853154084
 42
4.319439596540426
  0
ELLIPSE
  5
A608
330
1F
100
AcDbEntity
  8
AM_0
100
AcDbEllipse
 10
-28.90197753906325
 20
-0.0000038146978855
 30
0.0
 11
9.373001309277986
 21
10.810604294401
 31
0.0
210
0.0
220
0.0
230
1.0
 40
0.368864655907
 41
3.180260924021296
 42
3.451137522768893
  0
ELLIPSE
  5
A609
330
1F
100
AcDbEntity
  8
AM_0
100
AcDbEllipse
 10
39.49214172362575
 20
-0.000003814697813
 30
0.0
 11
144.35314392685
 21
-5.735099777705766
 31
0.0
210
0.0
220
0.0
230
1.0
 40
0.0678504494871
 41
4.327255241356383
 42
4.349558576730312
  0
ELLIPSE
  5
A60A
330
1F
100
AcDbEntity
  8
AM_0
100
AcDbEllipse
 10
-31.84864807128924
 20
-0.000003814697896
 30
0.0
 11
5.679435611311027
 21
-11.33872629145499
 31
0.0
210
0.0
220
0.0
230
1.0
 40
0.0890377575369
 41
2.597216477632529
 42
2.817390150034707
  0
ELLIPSE
  5
A60B
330
1F
100
AcDbEntity
  8
AM_0
100
AcDbEllipse
 10
-33.89035034179725
 20
-0.0000038146979032
 30
0.0
 11
4.692695950123012
 21
-11.26361840153499
 31
0.0
210
0.0
220
0.0
230
0.9999999999999996
 40
0.2978320406334
 41
2.74554167452099
 42
3.018148634087201
  0
ELLIPSE
  5
A60C
330
1F
100
AcDbEntity
  8
AM_0
100
AcDbEllipse
 10
66.03157043456572
 20
-0.0000076293947285
 30
0.0
 11
300.25408090417
 21
-1.653988507420504
 31
0.0
210
0.0
220
0.0
230
1.0
 40
0.0373977811233
 41
1.827694760181556
 42
1.848671676488862
  0
ELLIPSE
  5
A60D
330
1F
100
AcDbEntity
  8
AM_0
100
AcDbEllipse
 10
-17.21485137939527
 20
8.846672058105117
 30
0.0
 11
1.273582268488983
 21
6.769842211058001
 31
0.0
210
0.0
220
0.0
230
1.0
 40
0.009030454488
 41
4.741348856290097
 42
4.921693614208715
  0
ELLIPSE
  5
A611
330
1F
100
AcDbEntity
  8
AM_0
100
AcDbEllipse
 10
-29.67030334472724
 20
0.000000000000088
 30
0.0
 11
1.870818589851981
 21
11.349027542937
 31
0.0
210
0.0
220
0.0
230
1.0
 40
0.0793054019258
 41
5.815611967214223
 42
5.882383471506723
  0
ELLIPSE
  5
A612
330
1F
100
AcDbEntity
  8
AM_0
100
AcDbEllipse
 10
-28.21716308593829
 20
12.79032516479509
 30
0.0
 11
0.2569430231969777
 21
11.14038982318498
 31
0.0
210
0.0
220
0.0
230
1.0
 40
0.0290454761725
 41
4.285198118273046
 42
4.324093579961099
  0
ELLIPSE
  5
A613
330
1F
100
AcDbEntity
  8
AM_0
100
AcDbEllipse
 10
-22.35583496093827
 20
10.2195930480951
 30
0.0
 11
0.0484770936550205
 21
-6.852699475944
 31
0.0
210
0.0
220
0.0
230
1.0
 40
0.8749283304358998
 41
0.6195786337271649
 42
1.485975269040714
  0
ELLIPSE
  5
A615
330
1F
100
AcDbEntity
  8
AM_0
100
AcDbEllipse
 10
37.49232482909575
 20
-0.0000038146977917
 30
0.0
 11
207.0851889782
 21
-11.22642237280966
 31
0.0
210
0.0
220
0.0
230
1.0
 40
0.0080646372469
 41
1.788517214418578
 42
1.891280312998173
  0
ELLIPSE
  5
A61B
330
1F
100
AcDbEntity
  8
AM_0
100
AcDbEllipse
 10
-9.879737854004257
 20
6.896568298340115
 30
0.0
 11
1.755927920881005
 21
0.9957905221820013
 31
0.0
210
0.0
220
0.0
230
1.0
 40
0.9871234732801999
 41
1.342399835741742
 42
1.461950986742284
  0
ELLIPSE
  5
A61C
330
1F
100
AcDbEntity
  8
AM_0
100
AcDbEllipse
 10
-18.77098083496127
 20
5.714897155761106
 30
0.0
 11
1.482002305885003
 21
0.2316722391120034
 31
0.0
210
0.0
220
0.0
230
1.0
 40
0.8616424486525996
 41
0.4818179058773869
 42
0.9348883520629339
  0
ELLIPSE
  5
A61D
330
1F
100
AcDbEntity
  8
AM_0
100
AcDbEllipse
 10
-9.93504333496126
 20
6.898986816406122
 30
0.0
 11
1.755935627143001
 21
0.9957904661310015
 31
0.0
210
0.0
220
0.0
230
1.0
 40
0.9871220395070999
 41
1.425574530017216
 42
4.147017525787065
  0
ELLIPSE
  5
A61E
330
1F
100
AcDbEntity
  8
AM_0
100
AcDbEllipse
 10
-0.9569244384772567
 20
3.369422912597134
 30
0.0
 11
0.034851112178997
 21
0.7993449933049988
 31
0.0
210
0.0
220
0.0
230
1.0
 40
0.0785516809893
 41
1.718715764005982
 42
3.091397387116211
  0
ELLIPSE
  5
A61F
330
1F
100
AcDbEntity
  8
AM_0
100
AcDbEllipse
 10
-27.32397460937525
 20
7.076625823974109
 30
0.0
 11
2.011879079938998
 21
-0.0547104800689947
 31
0.0
210
0.0
220
0.0
230
1.0
 40
0.7869555858923001
 41
3.28548892975095
 42
5.554078948622434
  0
ELLIPSE
  5
A620
330
1F
100
AcDbEntity
  8
AM_3
100
AcDbEllipse
 10
-2.358474731446249
 20
-0.000003814697848
 30
0.0
 11
0.0000000546399994
 21
-1.25
 31
0.0
210
0.0
220
0.0
230
1.0
 40
0.2425415039063
 41
2.474351301504539
 42
3.141593014034522
  0
ELLIPSE
  5
A621
330
1F
100
AcDbEntity
  8
AM_0
100
AcDbEllipse
 10
-0.1739044189462504
 20
-0.0000038146978402
 30
0.0
 11
2.254509064613005
 21
-1.451217658668996
 31
0.0
210
0.0
220
0.0
230
1.0
 40
0.1682968676417
 41
2.413082462213119
 42
2.886471320342068
  0
ELLIPSE
  5
A622
330
1F
100
AcDbEntity
  8
AM_0
100
AcDbEllipse
 10
-0.9537734985362623
 20
3.369232177734138
 30
0.0
 11
0.0417862399300036
 21
0.7989272987250047
 31
0.0
210
0.0
220
0.0
230
1.0
 40
0.1054746605542
 41
3.141593482441066
 42
3.154757501798278
  0
ELLIPSE
  5
A623
330
1F
100
AcDbEntity
  8
AM_0
100
AcDbEllipse
 10
-17.33073425293024
 20
7.191619873047121
 30
0.0
 11
0.798049924878001
 21
-0.0558796508050024
 31
0.0
210
0.0
220
0.0
230
1.0
 40
0.6213957060128
 41
4.718313376834026
 42
4.908510325219474
  0
ELLIPSE
  5
A624
330
1F
100
AcDbEntity
  8
AM_0
100
AcDbEllipse
 10
-19.46842193603625
 20
7.321754455566132
 30
0.0
 11
1.996299704388008
 21
-0.1215763733010003
 31
0.0
210
0.0
220
0.0
230
1.0
 40
0.7834844570626
 41
4.744803258121971
 42
4.924632427076581
  0
ELLIPSE
  5
A625
330
1F
100
AcDbEntity
  8
AM_0
100
AcDbEllipse
 10
-2.358474731446249
 20
-0.000003814697848
 30
0.0
 11
0.0000000546399954
 21
1.25
 31
0.0
210
0.0
220
0.0
230
1.0
 40
0.242529296875
 41
0.0
 42
0.0832335949497975
  0
ELLIPSE
  5
A626
330
1F
100
AcDbEntity
  8
AM_0
100
AcDbEllipse
 10
-1.832244873047244
 20
-0.0000038146978461
 30
0.0
 11
0.077453637389991
 21
1.499977148438993
 31
0.0
210
0.0
220
0.0
230
1.0
 40
0.1054297144232
 41
1.053240779812536
 42
3.141593482794415
  0
ELLIPSE
  5
A627
330
1F
100
AcDbEntity
  8
AM_0
100
AcDbEllipse
 10
-1.832244873047244
 20
-0.0000038146978461
 30
0.0
 11
0.077453637389991
 21
1.499977148438993
 31
0.0
210
0.0
220
0.0
230
1.0
 40
0.1054297144232
 41
3.141593482794415
 42
5.810076931494773
  0
ELLIPSE
  5
A628
330
1F
100
AcDbEntity
  8
AM_0
100
AcDbEllipse
 10
-9.879737854004257
 20
6.896568298340115
 30
0.0
 11
1.755927920881005
 21
0.9957905221820013
 31
0.0
210
0.0
220
0.0
230
1.0
 40
0.9871234732801999
 41
5.132735204134299
 42
5.244251235020088
  0
ELLIPSE
  5
A629
330
1F
100
AcDbEntity
  8
AM_3
100
AcDbEllipse
 10
-2.358474731446249
 20
-0.000003814697848
 30
0.0
 11
0.0000000655670103
 21
-1.499999999999999
 31
0.0
210
0.0
220
0.0
230
1.0
 40
0.2425384521484001
 41
0.0
 42
6.283185307179584
  0
ELLIPSE
  5
A62A
330
1F
100
AcDbEntity
  8
AM_0
100
AcDbEllipse
 10
5.799018859862754
 20
-0.0000038146978474
 30
0.0
 11
19.58684644973302
 21
-10.94449839191196
 31
0.0
210
0.0
220
0.0
230
1.0
 40
0.1535091926843
 41
4.078887891190018
 42
4.390678273227242
  0
ELLIPSE
  5
A62B
330
1F
100
AcDbEntity
  8
AM_0
100
AcDbEllipse
 10
-0.9537734985362623
 20
3.369232177734138
 30
0.0
 11
0.0417861490750072
 21
0.7989292134320039
 31
0.0
210
0.0
220
0.0
230
1.0
 40
0.1054745394713
 41
2.986695023288294
 42
3.141593482442017
  0
ELLIPSE
  5
A62C
330
1F
100
AcDbEntity
  8
AM_0
100
AcDbEllipse
 10
-5.197334289551268
 20
5.549728393554151
 30
0.0
 11
1.499397236896996
 21
-0.0425701482529964
 31
0.0
210
0.0
220
0.0
230
1.0
 40
0.1902199758975
 41
0.3340101337223725
 42
3.064751377574383
  0
ELLIPSE
  5
A62D
330
1F
100
AcDbEntity
  8
AM_0
100
AcDbEllipse
 10
-18.96325683593826
 20
6.94491195678712
 30
0.0
 11
1.508911167682
 21
-0.0410347106630031
 31
0.0
210
0.0
220
0.0
230
1.0
 40
0.7869533476582001
 41
4.615122514938076
 42
6.344213450290826
  0
ELLIPSE
  5
A62E
330
1F
100
AcDbEntity
  8
AM_0
100
AcDbEllipse
 10
-0.1739044189462504
 20
-0.0000038146978402
 30
0.0
 11
2.254509064613005
 21
-1.451217658668996
 31
0.0
210
0.0
220
0.0
230
1.0
 40
0.1682968676417
 41
2.886471320342068
 42
3.935003454130769
  0
ELLIPSE
  5
A62F
330
1F
100
AcDbEntity
  8
AM_0
100
AcDbEllipse
 10
-22.54944610595724
 20
7.040431976318103
 30
0.0
 11
5.190383923536997
 21
-0.3160976142639868
 31
0.0
210
0.0
220
0.0
230
1.0
 40
0.7834838472797
 41
6.188778980583971
 42
6.276030269729358
  0
ELLIPSE
  5
A630
330
1F
100
AcDbEntity
  8
AM_0
100
AcDbEllipse
 10
-27.26417541503926
 20
6.694107055664101
 30
0.0
 11
2.011879027762005
 21
-0.054712398746997
 31
0.0
210
0.0
220
0.0
230
1.0
 40
0.7869565335853003
 41
1.898794059486453
 42
1.981816224712725
  0
ELLIPSE
  5
A631
330
1F
100
AcDbEntity
  8
AM_0
100
AcDbEllipse
 10
-19.22296142578227
 20
7.752094268798128
 30
0.0
 11
2.011886719559
 21
-0.0547102077929974
 31
0.0
210
0.0
220
0.0
230
1.0
 40
0.7869527211955
 41
5.80640781476044
 42
5.965437414742201
  0
ELLIPSE
  5
A632
330
1F
100
AcDbEntity
  8
AM_0
100
AcDbEllipse
 10
-10.84996795654325
 20
6.938934326172115
 30
0.0
 11
0.3318404348640025
 21
1.987184581506
 31
0.0
210
0.0
220
0.0
230
1.0
 40
0.1238788892401
 41
0.4365173027836555
 42
0.4731384678766194
  0
ELLIPSE
  5
A633
330
1F
100
AcDbEntity
  8
AM_0
100
AcDbEllipse
 10
-9.93504333496126
 20
6.898986816406122
 30
0.0
 11
1.755935627143001
 21
0.9957904661310015
 31
0.0
210
0.0
220
0.0
230
1.0
 40
0.9871220395070999
 41
4.147017589014464
 42
5.132224090172083
  0
ELLIPSE
  5
A634
330
1F
100
AcDbEntity
  8
AM_0
100
AcDbEllipse
 10
-7.483032226563253
 20
0.0021514892571266
 30
0.0
 11
144.336500140319
 21
5.734679793672229
 31
0.0
210
0.0
220
0.0
230
1.0
 40
0.0678427342685
 41
1.634402572040178
 42
1.638578459413985
  0
ELLIPSE
  5
A635
330
1F
100
AcDbEntity
  8
AM_0
100
AcDbEllipse
 10
-18.76705932617226
 20
5.689826965332101
 30
0.0
 11
1.482002265266998
 21
0.2316740426190004
 31
0.0
210
0.0
220
0.0
230
1.0
 40
0.8616435832630997
 41
0.4939672972016328
 42
0.9403657463876031
  0
ELLIPSE
  5
A636
330
1F
100
AcDbEntity
  8
AM_0
100
AcDbEllipse
 10
-0.9569244384772567
 20
3.369422912597134
 30
0.0
 11
0.034851112178997
 21
0.7993449933049988
 31
0.0
210
0.0
220
0.0
230
1.0
 40
0.0785516809893
 41
3.091397387116211
 42
3.124962497781671
  0
ELLIPSE
  5
A637
330
1F
100
AcDbEntity
  8
AM_3
100
AcDbEllipse
 10
-2.358474731446249
 20
-0.000003814697848
 30
0.0
 11
0.0000000546399994
 21
-1.25
 31
0.0
210
0.0
220
0.0
230
1.0
 40
0.2425415039063
 41
0.0
 42
6.283185307179584
  0
ELLIPSE
  5
A638
330
1F
100
AcDbEntity
  8
AM_0
100
AcDbEllipse
 10
-27.05104827880927
 20
5.330711364746106
 30
0.0
 11
1.975997946120002
 21
0.3088969650070046
 31
0.0
210
0.0
220
0.0
230
1.0
 40
0.8616446680416999
 41
2.019049978140449
 42
2.53890879405452
  0
ELLIPSE
  5
A639
330
1F
100
AcDbEntity
  8
AM_3
100
AcDbEllipse
 10
-2.358474731446249
 20
-0.000003814697848
 30
0.0
 11
0.0000000655670103
 21
-1.499999999999999
 31
0.0
210
0.0
220
0.0
230
1.0
 40
0.2425384521484001
 41
2.191485552799536
 42
3.081218610103712
  0
ELLIPSE
  5
A63A
330
1F
100
AcDbEntity
  8
AM_0
100
AcDbEllipse
 10
-27.32397460937525
 20
7.076625823974109
 30
0.0
 11
2.011879079938998
 21
-0.0547104800689947
 31
0.0
210
0.0
220
0.0
230
1.0
 40
0.7869555858923001
 41
1.942611337743663
 42
3.285488849599921
  0
ELLIPSE
  5
A656
330
1F
100
AcDbEntity
  8
AM_0
100
AcDbEllipse
 10
-13.67012786865326
 20
-5.646385192870863
 30
0.0
 11
1.482002305885004
 21
-0.2316722391119986
 31
0.0
210
0.0
220
0.0
230
1.0
 40
0.8616457070377999
 41
0.17750876032191
 42
2.783190298645099
  0
ELLIPSE
  5
A657
330
1F
100
AcDbEntity
  8
AM_0
100
AcDbEllipse
 10
-9.734573364258247
 20
-9.15156173706087
 30
0.0
 11
0.2258682237659998
 21
-0.0353088559479954
 31
0.0
210
0.0
220
0.0
230
1.0
 40
0.8616465509931
 41
4.887625805330004
 42
4.929547950308201
  0
ELLIPSE
  5
A65A
330
1F
100
AcDbEntity
  8
AM_0
100
AcDbEllipse
 10
-13.67012023925826
 20
-5.646385192870863
 30
0.0
 11
1.235000547484005
 21
-0.1930599844569991
 31
0.0
210
0.0
220
0.0
230
1.0
 40
0.8616463001472
 41
1.704609432301468
 42
3.141592755049993
  0
ELLIPSE
  5
A65C
330
1F
100
AcDbEntity
  8
AM_0
100
AcDbEllipse
 10
-13.67012023925826
 20
-5.646385192870863
 30
0.0
 11
1.235000547484005
 21
-0.1930599844569991
 31
0.0
210
0.0
220
0.0
230
1.0
 40
0.8616463001472
 41
3.141592552129591
 42
6.283185307179585
  0
ELLIPSE
  5
A65E
330
1F
100
AcDbEntity
  8
AM_0
100
AcDbEllipse
 10
-13.67012023925826
 20
-5.646385192870863
 30
0.0
 11
1.235000547484005
 21
-0.1930599844569991
 31
0.0
210
0.0
220
0.0
230
1.0
 40
0.8616463001472
 41
0.0
 42
1.704609432301468
  0
LINE
  5
A669
330
1F
100
AcDbEntity
  8
AM_3
100
AcDbLine
 10
-35.00000000000025
 20
1.249996185302091
 30
0.0
 11
-2.358474731446268
 21
1.249996185302151
 31
0.0
  0
LINE
  5
A66A
330
1F
100
AcDbEntity
  8
AM_3
100
AcDbLine
 10
-35.00000000000023
 20
-1.250003814697906
 30
0.0
 11
-2.358474731446259
 21
-1.250003814697848
 31
0.0
  0
LINE
  5
A66B
330
1F
100
AcDbEntity
  8
AM_0
100
AcDbLine
 10
-25.85228729248127
 20
5.981021881103076
 30
0.0
 11
-24.19456481933627
 21
5.921932220459091
 31
0.0
  0
ARC
  5
A66E
330
1F
100
AcDbEntity
  8
AM_0
100
AcDbCircle
 10
-9.659774780274258
 20
6.88696670532214
 30
0.0
 40
1.998810648918198
100
AcDbArc
 50
113.5067902034185
 51
262.8505976134182
  0
LINE
  5
A671
330
1F
100
AcDbEntity
  8
AM_0
100
AcDbLine
 10
-0.9505844116212697
 20
5.555114746093144
 30
0.0
 11
-1.024131774903264
 21
3.255298614502143
 31
0.0
  0
LINE
  5
A672
330
1F
100
AcDbEntity
  8
AM_0
100
AcDbLine
 10
-6.796234130860262
 20
5.687221527099151
 30
0.0
 11
-6.815330505371268
 21
5.342525482177135
 31
0.0
  0
LINE
  5
A673
330
1F
100
AcDbEntity
  8
AM_0
100
AcDbLine
 10
-21.19770812988327
 20
5.516204833984123
 30
0.0
 11
-24.21533203125026
 21
5.625511169433103
 31
0.0
  0
LINE
  5
A674
330
1F
100
AcDbEntity
  8
AM_0
100
AcDbLine
 10
-6.691284179688272
 20
5.614952087402143
 30
0.0
 11
-6.815330505371268
 21
5.342525482177135
 31
0.0
  0
LINE
  5
A675
330
1F
100
AcDbEntity
  8
AM_0
100
AcDbLine
 10
-21.19770812988327
 20
5.516204833984123
 30
0.0
 11
-21.17682647705126
 21
5.814369201660102
 31
0.0
  0
LINE
  5
A676
330
1F
100
AcDbEntity
  8
AM_0
100
AcDbLine
 10
-3.797706604004265
 20
5.277343750000123
 30
0.0
 11
-3.778770446778272
 21
5.619026184082124
 31
0.0
  0
LINE
  5
A6C6
330
1F
100
AcDbEntity
  8
AM_0
100
AcDbLine
 10
-6.796226501465261
 20
5.687217712402143
 30
0.0
 11
-8.321998596192264
 21
5.721698760986122
 31
0.0
  0
LINE
  5
A6C8
330
1F
100
AcDbEntity
  8
AM_0
100
AcDbLine
 10
-0.0814819335942709
 20
10.60127639770512
 30
0.0
 11
-0.0000000000002691
 21
11.72752380371115
 31
0.0
  0
LINE
  5
A6CA
330
1F
100
AcDbEntity
  8
AM_0
100
AcDbLine
 10
-0.3658294677742764
 20
12.14230728149413
 30
0.0
 11
-0.2136230468752704
 21
12.10589599609315
 31
0.0
  0
LINE
  5
A6CB
330
1F
100
AcDbEntity
  8
AM_0
100
AcDbLine
 10
-0.9505920410162699
 20
5.555110931396133
 30
0.0
 11
-3.778770446778272
 21
5.619026184082124
 31
0.0
  0
LINE
  5
A6CC
330
1F
100
AcDbEntity
  8
AM_0
100
AcDbLine
 10
-1.019126892090262
 20
5.947811126709145
 30
0.0
 11
-0.9952545166022655
 21
5.881252288818121
 31
0.0
  0
LINE
  5
A6CD
330
1F
100
AcDbEntity
  8
AM_0
100
AcDbLine
 10
-3.723403930664267
 20
5.617774963379114
 30
0.0
 11
-3.710998535157264
 21
5.841636657715109
 31
0.0
  0
LINE
  5
A6CE
330
1F
100
AcDbEntity
  8
AM_0
100
AcDbLine
 10
-1.005653381348272
 20
5.556354522705125
 30
0.0
 11
-0.995262145996271
 21
5.881252288818121
 31
0.0
  0
LINE
  5
A6CF
330
1F
100
AcDbEntity
  8
AM_0
100
AcDbLine
 10
-0.995269775391271
 20
5.881252288818121
 30
0.0
 11
-1.117980957032265
 21
5.88390350341813
 31
0.0
  0
LINE
  5
A6D0
330
1F
100
AcDbEntity
  8
AM_0
100
AcDbLine
 10
-6.729988098145263
 20
5.882122039795147
 30
0.0
 11
-6.746475219727264
 21
5.584632873535154
 31
0.0
  0
LINE
  5
A6D1
330
1F
100
AcDbEntity
  8
AM_0
100
AcDbLine
 10
-6.683715820313274
 20
5.881504058838143
 30
0.0
 11
-6.691284179688272
 21
5.614955902099151
 31
0.0
  0
LINE
  5
A6D2
330
1F
100
AcDbEntity
  8
AM_0
100
AcDbLine
 10
-6.746475219727264
 20
5.584632873535154
 30
0.0
 11
-6.796226501465261
 21
5.687217712402143
 31
0.0
  0
LINE
  5
A6D3
330
1F
100
AcDbEntity
  8
AM_0
100
AcDbLine
 10
-9.982925415039273
 20
11.34999465942313
 30
0.0
 11
-16.25904846191427
 21
11.34999465942311
 31
0.0
  0
LINE
  5
A6D6
330
1F
100
AcDbEntity
  8
AM_0
100
AcDbLine
 10
-10.67328643798926
 20
7.514667510986114
 30
0.0
 11
-10.78320312500024
 21
6.389667510986114
 31
0.0
  0
LINE
  5
A6D7
330
1F
100
AcDbEntity
  8
AM_0
100
AcDbLine
 10
-10.42568969726627
 20
5.975242614746135
 30
0.0
 11
-10.57789611816426
 21
6.011653900146128
 31
0.0
  0
LINE
  5
A6D8
330
1F
100
AcDbEntity
  8
AM_0
100
AcDbLine
 10
-10.65270996093828
 20
8.758495330810106
 30
0.0
 11
-10.19668579101627
 21
11.28059005737311
 31
0.0
  0
LINE
  5
A6D9
330
1F
100
AcDbEntity
  8
AM_0
100
AcDbLine
 10
-16.37759399414128
 20
9.682239532470127
 30
0.0
 11
-16.27218627929727
 21
11.25181961059513
 31
0.0
  0
LINE
  5
A6DA
330
1F
100
AcDbEntity
  8
AM_0
100
AcDbLine
 10
-17.48148345947327
 20
10.40744400024409
 30
0.0
 11
-17.40000152587927
 21
11.47504043579111
 31
0.0
  0
LINE
  5
A6DD
330
1F
100
AcDbEntity
  8
AM_0
100
AcDbLine
 10
-17.76583099365327
 20
11.84577560424808
 30
0.0
 11
-17.61362457275427
 21
11.8202896118161
 31
0.0
  0
LINE
  5
A6DE
330
1F
100
AcDbEntity
  8
AM_0
100
AcDbLine
 10
-21.17682647705126
 20
5.814369201660102
 30
0.0
 11
-19.49945068359426
 21
5.754581451416139
 31
0.0
  0
LINE
  5
A6DF
330
1F
100
AcDbEntity
  8
AM_0
100
AcDbLine
 10
-18.25198364257926
 20
5.890567779541115
 30
0.0
 11
-18.14182281494225
 21
6.354934692382117
 31
0.0
  0
LINE
  5
A6E0
330
1F
100
AcDbEntity
  8
AM_0
100
AcDbLine
 10
-18.94874572753926
 20
5.7573127746581
 30
0.0
 11
-18.93907165527426
 21
5.79808044433609
 31
0.0
  0
LINE
  5
A6E1
330
1F
100
AcDbEntity
  8
AM_0
100
AcDbLine
 10
-18.13133239746125
 20
6.399147033691108
 30
0.0
 11
-18.12178802490326
 21
6.447448730468112
 31
0.0
  0
LINE
  5
A6E2
330
1F
100
AcDbEntity
  8
AM_0
100
AcDbLine
 10
-16.97809600830128
 20
9.771938323974113
 30
0.0
 11
-16.97134399414128
 21
9.868396759033107
 31
0.0
  0
LINE
  5
A6E3
330
1F
100
AcDbEntity
  8
AM_0
100
AcDbLine
 10
-17.11710357666128
 20
9.02999877929712
 30
0.0
 11
-17.21398925781327
 21
7.646240234375103
 31
0.0
  0
LINE
  5
A6E4
330
1F
100
AcDbEntity
  8
AM_0
100
AcDbLine
 10
-17.36095428466826
 20
6.695411682129123
 30
0.0
 11
-17.32524108886825
 21
7.205471038818122
 31
0.0
  0
LINE
  5
A6E5
330
1F
100
AcDbEntity
  8
AM_0
100
AcDbLine
 10
-24.17817687988327
 20
5.779323577881108
 30
0.0
 11
-24.11812591552827
 21
5.777149200439106
 31
0.0
  0
LINE
  5
A6E6
330
1F
100
AcDbEntity
  8
AM_0
100
AcDbLine
 10
-24.19457244873127
 20
5.921932220459091
 30
0.0
 11
-24.16027832031327
 21
5.623516082763096
 31
0.0
  0
LINE
  5
A6E7
330
1F
100
AcDbEntity
  8
AM_0
100
AcDbLine
 10
-24.19458007812526
 20
5.921936035156102
 30
0.0
 11
-24.21533966064526
 21
5.625511169433103
 31
0.0
  0
LINE
  5
A6E8
330
1F
100
AcDbEntity
  8
AM_0
100
AcDbLine
 10
-24.11813354492226
 20
5.777149200439106
 30
0.0
 11
-24.12896728515726
 21
5.622383117675092
 31
0.0
  0
LINE
  5
A6E9
330
1F
100
AcDbEntity
  8
AM_0
100
AcDbLine
 10
-24.11813354492226
 20
5.777149200439106
 30
0.0
 11
-24.07739257812526
 21
5.620861053466109
 31
0.0
  0
LINE
  5
A765
330
1F
100
AcDbEntity
  8
AM_0
100
AcDbLine
 10
-1.676757812500238
 20
-9.016338348388853
 30
0.0
 11
-1.21224212646524
 21
-0.1528930664068567
 31
0.0
  0
LINE
  5
A766
330
1F
100
AcDbEntity
  8
AM_0
100
AcDbLine
 10
-1.49479675293024
 20
-8.463981628417865
 30
0.0
 11
-1.101234436036246
 21
-0.9543533325198531
 31
0.0
  0
LINE
  5
A767
330
1F
100
AcDbEntity
  8
AM_0
100
AcDbLine
 10
-1.286857604981247
 20
-8.47797393798886
 30
0.0
 11
-0.8931274414072412
 21
-0.9652595520018481
 31
0.0
  0
LINE
  5
A768
330
1F
100
AcDbEntity
  8
AM_0
100
AcDbLine
 10
-1.952621459961252
 20
-3.234657287597868
 30
0.0
 11
-2.109848022461255
 21
-6.234657287597867
 31
0.0
  0
LINE
  5
A769
330
1F
100
AcDbEntity
  8
AM_0
100
AcDbLine
 10
-1.024131774903264
 20
3.255298614502143
 30
0.0
 11
-4.382606506348265
 21
3.456150054931136
 31
0.0
  0
LINE
  5
A76A
330
1F
100
AcDbEntity
  8
AM_0
100
AcDbLine
 10
-3.797706604004265
 20
5.277339935302117
 30
0.0
 11
-6.815330505371268
 21
5.342525482177135
 31
0.0
  0
LINE
  5
A76B
330
1F
100
AcDbEntity
  8
AM_0
100
AcDbLine
 10
-1.113304138184256
 20
2.748012542724144
 30
0.0
 11
-7.150024414063267
 21
4.055572509765138
 31
0.0
  0
LINE
  5
A76C
330
1F
100
AcDbEntity
  8
AM_0
100
AcDbLine
 10
-2.358474731446269
 20
1.499996185302151
 30
0.0
 11
-2.293312072754265
 21
1.499996185302151
 31
0.0
  0
LINE
  5
A76D
330
1F
100
AcDbEntity
  8
AM_0
100
AcDbLine
 10
-1.100868225098253
 20
0.3058700561521353
 30
0.0
 11
-0.5779647827152428
 21
0.2999954223631315
 31
0.0
  0
LINE
  5
A76E
330
1F
100
AcDbEntity
  8
AM_0
100
AcDbLine
 10
-1.121009826661249
 20
-0.1204071044928508
 30
0.0
 11
-0.9934463500982763
 21
2.57043838500913
 31
0.0
  0
LINE
  5
A76F
330
1F
100
AcDbEntity
  8
AM_0
100
AcDbLine
 10
-1.691734313965259
 20
1.334720611572139
 30
0.0
 11
-1.113296508789256
 21
2.748008728027134
 31
0.0
  0
LINE
  5
A770
330
1F
100
AcDbEntity
  8
AM_0
100
AcDbLine
 10
-1.121009826661249
 20
-0.1204032897948746
 30
0.0
 11
-1.13843536377024
 21
-0.1503143310548677
 31
0.0
  0
LINE
  5
A771
330
1F
100
AcDbEntity
  8
AM_0
100
AcDbLine
 10
-1.13843536377024
 20
-0.1503143310548677
 30
0.0
 11
-1.21224212646524
 21
-0.1528930664068567
 31
0.0
  0
LINE
  5
A772
330
1F
100
AcDbEntity
  8
AM_0
100
AcDbLine
 10
-1.00758361816427
 20
2.579776763916147
 30
0.0
 11
-1.113304138184256
 21
2.748008728027134
 31
0.0
  0
LINE
  5
A773
330
1F
100
AcDbEntity
  8
AM_0
100
AcDbLine
 10
-1.988922119141266
 20
0.6085891723631266
 30
0.0
 11
-1.931343078614263
 21
0.7492866516111453
 31
0.0
  0
CIRCLE
  5
A774
330
1F
100
AcDbEntity
  8
AM_0
100
AcDbCircle
 10
-3.828552246094258
 20
-4.734657287597873
 30
0.0
 40
1.25
  0
ARC
  5
A775
330
1F
100
AcDbEntity
  8
AM_0
100
AcDbCircle
 10
-1.322128295899243
 20
-0.9574966430668711
 30
0.0
 40
0.2339781373739
100
AcDbArc
 50
60.24627962179009
 51
70.20219558242787
  0
ARC
  5
A776
330
1F
100
AcDbEntity
  8
AM_0
100
AcDbCircle
 10
-1.306640625000237
 20
-0.9304084777838669
 30
0.0
 40
0.2027761638165
100
AcDbArc
 50
27.62984505179551
 51
60.2462932821691
  0
ARC
  5
A777
330
1F
100
AcDbEntity
  8
AM_0
100
AcDbCircle
 10
-1.329528808594243
 20
-0.9423904418948541
 30
0.0
 40
0.2286113202572
100
AcDbArc
 50
356.9998990575411
 51
27.62978676781368
  0
LINE
  5
A778
330
1F
100
AcDbEntity
  8
AM_3
100
AcDbLine
 10
-2.358474731446258
 20
-1.500003814697848
 30
0.0
 11
-1.908843994141258
 21
-1.500003814697846
 31
0.0
  0
LINE
  5
A779
330
1F
100
AcDbEntity
  8
AM_0
100
AcDbLine
 10
-0.89034271240325
 20
-0.9205780029298667
 30
0.0
 11
-0.8931198120122411
 21
-0.9652595520018481
 31
0.0
  0
LINE
  5
A77A
330
1F
100
AcDbEntity
  8
AM_0
100
AcDbLine
 10
-0.8931274414072412
 20
-0.9652595520018481
 30
0.0
 11
-1.101234436036246
 21
-0.9543533325198531
 31
0.0
  0
LINE
  5
A77B
330
1F
100
AcDbEntity
  8
AM_0
100
AcDbLine
 10
-0.9215927124032507
 20
-0.7288551330568768
 30
0.0
 11
-1.126991271973249
 21
-0.8363685607908546
 31
0.0
  0
LINE
  5
A77C
330
1F
100
AcDbEntity
  8
AM_0
100
AcDbLine
 10
-1.08793640136825
 20
-0.5478210449218562
 30
0.0
 11
-1.20600891113325
 21
-0.7543678283688663
 31
0.0
  0
LINE
  5
A77D
330
1F
100
AcDbEntity
  8
AM_0
100
AcDbLine
 10
-1.187049865723251
 20
-0.5126304626468638
 30
0.0
 11
-1.24028015136825
 21
-0.6879577636718567
 31
0.0
  0
LINE
  5
A77E
330
1F
100
AcDbEntity
  8
AM_0
100
AcDbLine
 10
-3.82855224609425
 20
-3.234657287597874
 30
0.0
 11
-2.142517089844249
 21
-3.234657287597868
 31
0.0
  0
LINE
  5
A77F
330
1F
100
AcDbEntity
  8
AM_0
100
AcDbLine
 10
-1.952621459961252
 20
-3.234657287597868
 30
0.0
 11
-2.142517089844249
 21
-3.234657287597868
 31
0.0
  0
LINE
  5
A781
330
1F
100
AcDbEntity
  8
AM_0
100
AcDbLine
 10
-6.213447570801243
 20
-9.151180267333868
 30
0.0
 11
-3.345794677735237
 21
-9.301467895507887
 31
0.0
  0
LINE
  5
A782
330
1F
100
AcDbEntity
  8
AM_0
100
AcDbLine
 10
-7.177719116211246
 20
-8.728042602538865
 30
0.0
 11
-2.027648925782241
 21
-8.997947692870878
 31
0.0
  0
LINE
  5
A783
330
1F
100
AcDbEntity
  8
AM_0
100
AcDbLine
 10
-3.19105529785224
 20
-9.087181091308865
 30
0.0
 11
-6.201820373536245
 21
-8.929393768310857
 31
0.0
  0
LINE
  5
A784
330
1F
100
AcDbEntity
  8
AM_0
100
AcDbLine
 10
-3.201858520508248
 20
-9.293323516845861
 30
0.0
 11
-2.075866699219242
 21
-9.248188018798867
 31
0.0
  0
LINE
  5
A785
330
1F
100
AcDbEntity
  8
AM_0
100
AcDbLine
 10
-3.345787048340237
 20
-9.30147171020487
 30
0.0
 11
-3.201850891114243
 21
-9.293327331542871
 31
0.0
  0
LINE
  5
A786
330
1F
100
AcDbEntity
  8
AM_0
100
AcDbLine
 10
-2.075866699219242
 20
-9.248184204101859
 30
0.0
 11
-2.042579650879241
 21
-9.246952056884865
 31
0.0
  0
LINE
  5
A787
330
1F
100
AcDbEntity
  8
AM_0
100
AcDbLine
 10
-1.28682708740325
 20
-8.47797775268587
 30
0.0
 11
-1.288078308106247
 21
-8.503582000732858
 31
0.0
  0
LINE
  5
A788
330
1F
100
AcDbEntity
  8
AM_0
100
AcDbLine
 10
-1.32003021240325
 20
-8.473136901855875
 30
0.0
 11
-1.286849975586247
 21
-8.47797393798886
 31
0.0
  0
LINE
  5
A789
330
1F
100
AcDbEntity
  8
AM_0
100
AcDbLine
 10
-2.02764129638724
 20
-8.997947692870878
 30
0.0
 11
-1.676757812500238
 21
-9.016338348388853
 31
0.0
  0
LINE
  5
A78A
330
1F
100
AcDbEntity
  8
AM_0
100
AcDbLine
 10
-1.837089538575237
 20
-9.213356018066873
 30
0.0
 11
-1.88839721679724
 21
-9.00524520874087
 31
0.0
  0
LINE
  5
A78B
330
1F
100
AcDbEntity
  8
AM_0
100
AcDbLine
 10
-3.828552246094252
 20
-6.234657287597873
 30
0.0
 11
-2.152923583985247
 21
-6.234657287597868
 31
0.0
  0
LINE
  5
A78C
330
1F
100
AcDbEntity
  8
AM_0
100
AcDbLine
 10
-2.109848022461255
 20
-6.234657287597867
 30
0.0
 11
-2.152923583985247
 21
-6.234657287597868
 31
0.0
  0
LINE
  5
A78D
330
1F
100
AcDbEntity
  8
AM_0
100
AcDbLine
 10
-3.201858520508248
 20
-9.293323516845861
 30
0.0
 11
-3.19105529785224
 21
-9.087181091308865
 31
0.0
  0
LINE
  5
A78E
330
1F
100
AcDbEntity
  8
AM_0
100
AcDbLine
 10
-1.37570190429724
 20
-8.831871032714852
 30
0.0
 11
-1.55913543701224
 21
-8.710826873779875
 31
0.0
  0
LINE
  5
A78F
330
1F
100
AcDbEntity
  8
AM_0
100
AcDbLine
 10
-2.065063476563249
 20
-9.042049407958854
 30
0.0
 11
-3.191047668457239
 21
-9.087184906005873
 31
0.0
  0
LINE
  5
A790
330
1F
100
AcDbEntity
  8
AM_0
100
AcDbLine
 10
-1.492835998536247
 20
-8.464080810546857
 30
0.0
 11
-1.320037841797241
 21
-8.473136901855875
 31
0.0
  0
LINE
  5
A791
330
1F
100
AcDbEntity
  8
AM_0
100
AcDbLine
 10
-2.075866699219242
 20
-9.248188018798867
 30
0.0
 11
-2.065063476563249
 21
-9.042045593261869
 31
0.0
  0
LINE
  5
A792
330
1F
100
AcDbEntity
  8
AM_0
100
AcDbLine
 10
-1.617759704590237
 20
-9.107486724853865
 30
0.0
 11
-1.676292419434243
 21
-9.007362365722864
 31
0.0
  0
ARC
  5
A793
330
1F
100
AcDbEntity
  8
AM_0
100
AcDbCircle
 10
-6.191169738770238
 20
-8.726142883300862
 30
0.0
 40
0.2035308778286
100
AcDbArc
 50
253.110556611679
 51
266.9999990059033
  0
ARC
  5
A794
330
1F
100
AcDbEntity
  8
AM_0
100
AcDbCircle
 10
-6.182327270508249
 20
-8.697010040283855
 30
0.0
 40
0.2339781373739
100
AcDbArc
 50
240.2462778005581
 51
253.1104883097874
  0
ARC
  5
A795
330
1F
100
AcDbEntity
  8
AM_0
100
AcDbCircle
 10
-6.197814941407242
 20
-8.724098205566859
 30
0.0
 40
0.2027761638165
100
AcDbArc
 50
207.6298483532016
 51
240.2462846307425
  0
ARC
  5
A796
330
1F
100
AcDbEntity
  8
AM_0
100
AcDbCircle
 10
-6.17491912841825
 20
-8.712116241454847
 30
0.0
 40
0.2286115735769
100
AcDbArc
 50
194.4063681860827
 51
207.6297902965968
  0
LINE
  5
A797
330
1F
100
AcDbEntity
  8
AM_0
100
AcDbLine
 10
-6.249313354493248
 20
-9.149707794189851
 30
0.0
 11
-6.213447570801243
 21
-9.151180267333868
 31
0.0
  0
LINE
  5
A798
330
1F
100
AcDbEntity
  8
AM_0
100
AcDbLine
 10
-5.796859741211242
 20
-9.966983795165841
 30
0.0
 11
-6.926483154297236
 21
-9.954502105712863
 31
0.0
  0
LINE
  5
A799
330
1F
100
AcDbEntity
  8
AM_0
100
AcDbLine
 10
-6.582855224610237
 20
-8.925651550292855
 30
0.0
 11
-6.377456665039244
 21
-8.818138122558849
 31
0.0
  0
LINE
  5
A79A
330
1F
100
AcDbEntity
  8
AM_0
100
AcDbLine
 10
-6.213447570801243
 20
-9.151184082031871
 30
0.0
 11
-6.201820373536245
 21
-8.929393768310857
 31
0.0
  0
LINE
  5
A79B
330
1F
100
AcDbEntity
  8
AM_0
100
AcDbLine
 10
-6.317398071289242
 20
-9.141876220702839
 30
0.0
 11
-6.250305175782241
 21
-8.920894622802848
 31
0.0
  0
LINE
  5
A79C
330
1F
100
AcDbEntity
  8
AM_0
100
AcDbLine
 10
-6.416511535645237
 20
-9.106681823730866
 30
0.0
 11
-6.298446655274243
 21
-8.900138854980866
 31
0.0
  0
LINE
  5
A79E
330
1F
100
AcDbEntity
  8
AM_0
100
AcDbLine
 10
-12.17617034912126
 20
-5.648742675781867
 30
0.0
 11
-12.10192108154323
 21
-7.121498107909863
 31
0.0
  0
LINE
  5
A79F
330
1F
100
AcDbEntity
  8
AM_0
100
AcDbLine
 10
-17.22167205810623
 20
-9.603981018066896
 30
0.0
 11
-9.728973388672239
 21
-9.615798950195891
 31
0.0
  0
LINE
  5
A7A0
330
1F
100
AcDbEntity
  8
AM_0
100
AcDbLine
 10
-17.21421051025424
 20
-9.337547302245875
 30
0.0
 11
-9.724594116211243
 21
-9.349357604980877
 31
0.0
  0
LINE
  5
A7A1
330
1F
100
AcDbEntity
  8
AM_0
100
AcDbLine
 10
-8.974693298340238
 20
-9.212402343749866
 30
0.0
 11
-8.799659729004238
 21
-10.29504776000988
 31
0.0
  0
LINE
  5
A7A2
330
1F
100
AcDbEntity
  8
AM_0
100
AcDbLine
 10
-9.684547424317239
 20
-9.617366790771891
 30
0.0
 11
-9.728973388672239
 21
-9.615798950195891
 31
0.0
  0
LINE
  5
A7A3
330
1F
100
AcDbEntity
  8
AM_0
100
AcDbLine
 10
-8.781486511231239
 20
-10.40745162963887
 30
0.0
 11
-8.801628112793244
 21
-10.29537582397486
 31
0.0
  0
LINE
  5
A7A4
330
1F
100
AcDbEntity
  8
AM_0
100
AcDbLine
 10
-8.799659729004238
 20
-10.29504394531287
 30
0.0
 11
-8.781486511231239
 21
-10.40744781494186
 31
0.0
  0
LINE
  5
A7A5
330
1F
100
AcDbEntity
  8
AM_0
100
AcDbLine
 10
-8.781478881836239
 20
-10.40745162963887
 30
0.0
 11
-8.69999694824324
 21
-11.47504806518586
 31
0.0
  0
LINE
  5
A7A6
330
1F
100
AcDbEntity
  8
AM_0
100
AcDbLine
 10
-9.728973388672239
 20
-9.615795135497885
 30
0.0
 11
-9.724601745606243
 21
-9.349357604980877
 31
0.0
  0
LINE
  5
A7A7
330
1F
100
AcDbEntity
  8
AM_0
100
AcDbLine
 10
-9.335289001465236
 20
-9.441410064697873
 30
0.0
 11
-9.418128967286243
 21
-9.362506866454861
 31
0.0
  0
LINE
  5
A7A8
330
1F
100
AcDbEntity
  8
AM_0
100
AcDbLine
 10
-9.498626708985234
 20
-9.590553283691869
 30
0.0
 11
-9.596466064454242
 21
-9.354553222656884
 31
0.0
  0
LINE
  5
A7AB
330
1F
100
AcDbEntity
  8
AM_0
100
AcDbLine
 10
-17.22168731689523
 20
-9.604072570800903
 30
0.0
 11
-17.24725341796923
 21
-9.60435867309588
 31
0.0
  0
LINE
  5
A7AC
330
1F
100
AcDbEntity
  8
AM_0
100
AcDbLine
 10
-18.62593841552824
 20
-10.59849166870189
 30
0.0
 11
-18.74883270263723
 21
-10.06085205078189
 31
0.0
  0
LINE
  5
A7AD
330
1F
100
AcDbEntity
  8
AM_0
100
AcDbLine
 10
-18.18099975586024
 20
-9.335952758788904
 30
0.0
 11
-18.05697631836024
 21
-8.984035491943883
 31
0.0
  0
LINE
  5
A7AE
330
1F
100
AcDbEntity
  8
AM_0
100
AcDbLine
 10
-18.06064605712924
 20
-8.959445953368895
 30
0.0
 11
-18.05696868896523
 21
-8.984035491943883
 31
0.0
  0
LINE
  5
A7AF
330
1F
100
AcDbEntity
  8
AM_0
100
AcDbLine
 10
-18.00453186035223
 20
-9.163722991943883
 30
0.0
 11
-17.78763580322325
 21
-9.020744323730907
 31
0.0
  0
LINE
  5
A7B0
330
1F
100
AcDbEntity
  8
AM_0
100
AcDbLine
 10
-17.21788787841824
 20
-9.5612945556639
 30
0.0
 11
-17.22167205810623
 21
-9.603981018066896
 31
0.0
  0
LINE
  5
A7B1
330
1F
100
AcDbEntity
  8
AM_0
100
AcDbLine
 10
-17.58208465576223
 20
-9.547374725341892
 30
0.0
 11
-17.46532440185623
 21
-9.292739868163902
 31
0.0
  0
LINE
  5
A7B2
330
1F
100
AcDbEntity
  8
AM_0
100
AcDbLine
 10
-17.87886047363325
 20
-9.350994110107887
 30
0.0
 11
-17.68545532226623
 21
-9.154453277587901
 31
0.0
  0
LINE
  5
A7B3
330
1F
100
AcDbEntity
  8
AM_0
100
AcDbLine
 10
-17.22168731689523
 20
-9.604072570800903
 30
0.0
 11
-17.21788787841824
 21
-9.561290740966891
 31
0.0
  0
LINE
  5
A7B6
330
1F
100
AcDbEntity
  8
AM_0
100
AcDbLine
 10
-28.08445358276427
 20
6.201751708984098
 30
0.0
 11
-27.35465240478627
 21
5.493667602539102
 31
0.0
  0
LINE
  5
A7B7
330
1F
100
AcDbEntity
  8
AM_0
100
AcDbLine
 10
-75.00000000000027
 20
-0.0000038146979924
 30
0.0
 11
-75.00000000000028
 21
11.34999465942301
 31
0.0
  0
LINE
  5
A7B8
330
1F
100
AcDbEntity
  8
AM_0
100
AcDbLine
 10
-76.99185943603628
 20
-0.0000038146979995
 30
0.0
 11
-76.99185943603629
 21
12.499996185302
 31
0.0
  0
LINE
  5
A7B9
330
1F
100
AcDbEntity
  8
AM_0
100
AcDbLine
 10
-38.13423156738326
 20
11.34999465942309
 30
0.0
 11
-75.00000000000028
 21
11.34999465942301
 31
0.0
  0
LINE
  5
A7BA
330
1F
100
AcDbEntity
  8
AM_0
100
AcDbLine
 10
-28.07329177856526
 20
7.323261260986107
 30
0.0
 11
-28.18320846557724
 21
6.437557220459105
 31
0.0
  0
LINE
  5
A7BB
330
1F
100
AcDbEntity
  8
AM_0
100
AcDbLine
 10
-27.82568740844826
 20
6.120037078857118
 30
0.0
 11
-27.97789382934628
 21
6.145526885986107
 31
0.0
  0
LINE
  5
A7BC
330
1F
100
AcDbEntity
  8
AM_0
100
AcDbLine
 10
-28.01475143432726
 20
8.571594238281116
 30
0.0
 11
-27.59669113159225
 21
10.3959083557131
 31
0.0
  0
LINE
  5
A7BD
330
1F
100
AcDbEntity
  8
AM_0
100
AcDbLine
 10
-28.02914810180728
 20
8.167175292968103
 30
0.0
 11
-27.59463882446326
 21
10.06332015991212
 31
0.0
  0
LINE
  5
A7BE
330
1F
100
AcDbEntity
  8
AM_0
100
AcDbLine
 10
-74.99999809265228
 20
11.34999465942301
 30
0.0
 11
-76.99185943603629
 21
12.499996185302
 31
0.0
  0
LINE
  5
A7BF
330
1F
100
AcDbEntity
  8
AM_0
100
AcDbLine
 10
-75.00000000000023
 20
-11.35000610351598
 30
0.0
 11
-36.61483764648523
 21
-11.35000610351589
 31
0.0
  0
LINE
  5
A7C0
330
1F
100
AcDbEntity
  8
AM_3
100
AcDbLine
 10
-35.00000000000026
 20
3.000000000000097
 30
0.0
 11
-35.00000000000023
 21
-2.999999999999902
 31
0.0
  0
LINE
  5
A7C1
330
1F
100
AcDbEntity
  8
AM_0
100
AcDbLine
 10
-34.78761672973725
 20
-10.63116073608391
 30
0.0
 11
-35.53158569336023
 21
-11.22202301025389
 31
0.0
  0
LINE
  5
A7C2
330
1F
100
AcDbEntity
  8
AM_0
100
AcDbLine
 10
-38.11323165893624
 20
-10.93658447265693
 30
0.0
 11
-37.86807632446324
 21
-10.71615600585991
 31
0.0
  0
LINE
  5
A7C3
330
1F
100
AcDbEntity
  8
AM_0
100
AcDbLine
 10
-76.99185943603623
 20
-12.50000762939498
 30
0.0
 11
-76.99185943603628
 21
-0.0000038146979995
 31
0.0
  0
LINE
  5
A7C4
330
1F
100
AcDbEntity
  8
AM_0
100
AcDbLine
 10
-75.00000000000023
 20
-11.35000610351598
 30
0.0
 11
-75.00000000000027
 21
-0.0000038146979924
 31
0.0
  0
LINE
  5
A7C5
330
1F
100
AcDbEntity
  8
AM_0
100
AcDbLine
 10
-76.99186134338425
 20
-12.49999999999999
 30
0.0
 11
-75.00000000000023
 21
-11.35000228881897
 31
0.0
  0
LINE
  5
A7C8
330
1F
100
AcDbEntity
  8
AM_0
100
AcDbLine
 10
-216.9999999999942
 20
-0.0000038146982128
 30
0.0
 11
-216.9999999999943
 21
12.49999618530178
 31
0.0
  0
LINE
  5
A7C9
330
1F
100
AcDbEntity
  8
AM_0
100
AcDbLine
 10
-219.9999999999942
 20
-0.0000038146982234
 30
0.0
 11
-219.9999999999942
 21
10.16149520873978
 31
0.0
  0
ARC
  5
A7CA
330
1F
100
AcDbEntity
  8
AM_0
100
AcDbCircle
 10
-217.9999999999942
 20
10.16149520873979
 30
0.0
 40
2.000000238418599
100
AcDbArc
 50
104.9999944978371
 51
180.0
  0
LINE
  5
A7CB
330
1F
100
AcDbEntity
  8
AM_0
100
AcDbLine
 10
-216.9999999999943
 20
12.49999618530178
 30
0.0
 11
-218.5176467895443
 21
12.0933456420898
 31
0.0
  0
LINE
  5
A7CC
330
1F
100
AcDbEntity
  8
AM_0
100
AcDbLine
 10
-216.9999999999943
 20
-12.50000762939519
 30
0.0
 11
-216.9999999999942
 21
-0.0000038146982128
 31
0.0
  0
LINE
  5
A7CD
330
1F
100
AcDbEntity
  8
AM_0
100
AcDbLine
 10
-219.9999999999943
 20
-10.1615028381352
 30
0.0
 11
-219.9999999999942
 21
-0.0000038146982234
 31
0.0
  0
LINE
  5
A7CE
330
1F
100
AcDbEntity
  8
AM_0
100
AcDbLine
 10
-216.9999923706042
 20
2.999999999999791
 30
0.0
 11
-219.9999999999942
 21
4.732051849364787
 31
0.0
  0
LINE
  5
A7CF
330
1F
100
AcDbEntity
  8
AM_0
100
AcDbLine
 10
-216.9999999999942
 20
-3.000003814698212
 30
0.0
 11
-219.9999999999942
 21
-4.732051849366219
 31
0.0
  0
ARC
  5
A7D0
330
1F
100
AcDbEntity
  8
AM_0
100
AcDbCircle
 10
-217.9999999999943
 20
-10.1615028381352
 30
0.0
 40
2.0
100
AcDbArc
 50
180.0
 51
255.0000055021632
  0
LINE
  5
A7D1
330
1F
100
AcDbEntity
  8
AM_0
100
AcDbLine
 10
-218.5176391601542
 20
-12.09335327148521
 30
0.0
 11
-216.9999923706041
 21
-12.50000762939519
 31
0.0
  0
DIMENSION
  5
A8BD
330
1F
100
AcDbEntity
  8
AM_5
100
AcDbDimension
  2
*D2
 10
-0.0000000000002576
 20
26.50000862939503
 30
0.0
 11
-13.20000000000025
 21
29.60000862939506
 31
0.0
 70
    32
  1
<>
 71
     5
 42
-1.0
 51
359.9999999999998
  3
AM_JIS$0
100
AcDbAlignedDimension
 13
-26.40000000000028
 23
12.36420769859012
 33
0.0
 14
-0.0000000000002842
 24
12.02000427246119
 34
0.0
 50
180.0
100
AcDbRotatedDimension
1001
GENIUS_GENDTOL_13
1000

1000
h7
1000

1040
0.0
1001
ACAD
1000
DSTYLE
1002
{
1070
   287
1070
     3
1070
   147
1040
3.0
1070
    44
1040
2.0
1070
    41
1040
5.0
1070
    40
1040
0.5
1070
    42
1040
2.0
1070
    43
1040
12.0
1070
    48
1040
0.1
1070
    78
1070
     8
1070
   140
1040
6.4
1070
   176
1070
   256
1070
   177
1070
   256
1070
   271
1070
     0
1070
   272
1070
     3
1070
   275
1070
     0
1070
   284
1070
     0
1070
   289
1070
     3
1070
   340
1005
6B
1070
   371
1070
    -1
1070
   372
1070
    -1
1002
}
  0
DIMENSION
  5
A97F
330
1F
100
AcDbEntity
  8
AM_5
100
AcDbDimension
  2
*D3
 10
15.55177407128874
 20
-12.43000411987282
 30
0.0
 11
12.45177407128875
 21
-0.0000019073483225
 31
0.0
 70
    32
  1
%%c<>
 71
     5
 42
-1.0
 51
359.9999999999998
  3
AM_JIS$0
100
AcDbAlignedDimension
 13
-0.3659973144542903
 23
12.43000030517618
 33
0.0
 14
-0.365005493164233
 24
-12.43000411987281
 34
0.0
 50
90.0
100
AcDbRotatedDimension
1001
GENIUS_GENDTOL_13
1000

1000
h7
1000

1040
0.0
1001
ACAD
1000
DSTYLE
1002
{
1070
   287
1070
     3
1070
   147
1040
3.0
1070
    44
1040
2.0
1070
    41
1040
5.0
1070
    40
1040
0.5
1070
    42
1040
2.0
1070
    43
1040
12.0
1070
    48
1040
0.1
1070
    78
1070
     8
1070
   140
1040
6.4
1070
   176
1070
   256
1070
   177
1070
   256
1070
   271
1070
     0
1070
   272
1070
     3
1070
   275
1070
     0
1070
   284
1070
     0
1070
   289
1070
     3
1070
   340
1005
6B
1070
   371
1070
    -1
1070
   372
1070
    -1
1002
}
  0
DIMENSION
  5
AA57
330
1F
100
AcDbEntity
  8
AM_5
100
AcDbDimension
  2
*D4
 10
-75.00000000000024
 20
-26.49999718530222
 30
0.0
 11
-37.50000000000023
 21
-23.39999718530222
 31
0.0
 70
    32
  1
<>
 71
     5
 42
-1.0
 51
359.9999999999998
  3
AM_JIS$0
100
AcDbAlignedDimension
 13
-0.0000000000002274
 23
-12.0200080871578
 33
0.0
 14
-75.00000000000024
 24
-11.34999465942294
 34
0.0
100
AcDbRotatedDimension
1001
GENIUS_GENDTOL_13
1000

1000
h7
1000

1040
0.0
1001
ACAD
1000
DSTYLE
1002
{
1070
   287
1070
     3
1070
   147
1040
3.0
1070
    44
1040
2.0
1070
    41
1040
5.0
1070
    40
1040
0.5
1070
    42
1040
2.0
1070
    43
1040
12.0
1070
    48
1040
0.1
1070
    78
1070
     8
1070
   140
1040
6.4
1070
   176
1070
   256
1070
   177
1070
   256
1070
   271
1070
     1
1070
   272
1070
     3
1070
   275
1070
     0
1070
   284
1070
     0
1070
   289
1070
     3
1070
   340
1005
6B
1070
   371
1070
    -1
1070
   372
1070
    -1
1002
}
  0
DIMENSION
  5
AAE3
330
1F
100
AcDbEntity
  8
AM_5
100
AcDbDimension
  2
*D5
 10
-220.0000002384129
 20
-26.49999618530193
 30
0.0
 11
-147.4999991655325
 21
-23.39999618530193
 31
0.0
 70
    32
  1
<>
 71
     5
 42
-1.0
 51
359.9999999999998
  3
AM_JIS$0
100
AcDbAlignedDimension
 13
-74.99999809265222
 23
-11.34999465942294
 33
0.0
 14
-220.0000002384129
 24
-10.16149520874023
 34
0.0
100
AcDbRotatedDimension
1001
GENIUS_GENDTOL_13
1000

1000
h7
1000

1040
0.0
1001
ACAD
1000
DSTYLE
1002
{
1070
   287
1070
     3
1070
   147
1040
3.0
1070
    44
1040
2.0
1070
    41
1040
5.0
1070
    40
1040
0.5
1070
    42
1040
2.0
1070
    43
1040
12.0
1070
    48
1040
0.1
1070
    78
1070
     8
1070
   140
1040
6.4
1070
   176
1070
   256
1070
   177
1070
   256
1070
   271
1070
     1
1070
   272
1070
     3
1070
   275
1070
     0
1070
   284
1070
     0
1070
   289
1070
     3
1070
   340
1005
6B
1070
   371
1070
    -1
1070
   372
1070
    -1
1002
}
  0
DIMENSION
  5
AB8D
330
1F
100
AcDbEntity
  8
AM_5
100
AcDbDimension
  2
*D6
 10
-220.0000002384129
 20
-36.49999618530193
 30
0.0
 11
-110.0000001192065
 21
-33.39999618530193
 31
0.0
 70
    32
  1
<>
 71
     5
 42
-1.0
 51
359.9999999999998
  3
AM_JIS$0
100
AcDbAlignedDimension
 13
-0.0000000000002274
 23
-12.0200080871578
 33
0.0
 14
-220.0000002384129
 24
-10.16149520874023
 34
0.0
100
AcDbRotatedDimension
1001
GENIUS_GENDTOL_13
1000

1000
h7
1000

1040
0.0
1001
ACAD
1000
DSTYLE
1002
{
1070
   287
1070
     3
1070
   147
1040
3.0
1070
    44
1040
2.0
1070
    41
1040
5.0
1070
    40
1040
0.5
1070
    42
1040
2.0
1070
    43
1040
12.0
1070
    48
1040
0.1
1070
    78
1070
     8
1070
   140
1040
6.4
1070
   176
1070
   256
1070
   177
1070
   256
1070
   271
1070
     1
1070
   272
1070
     3
1070
   275
1070
     0
1070
   284
1070
     0
1070
   289
1070
     3
1070
   340
1005
6B
1070
   371
1070
    -1
1070
   372
1070
    -1
1002
}
  0
DIMENSION
  5
AC26
330
1F
100
AcDbEntity
  8
AM_5
100
AcDbDimension
  2
*D7
 10
-236.4111795888642
 20
-12.49999618530221
 30
0.0
 11
-239.5111795888642
 21
0.0000057220462366
 31
0.0
 70
    32
  1
%%c<>
 71
     5
 42
-1.0
 51
359.9999999999998
  3
AM_JIS$0
100
AcDbAlignedDimension
 13
-216.9999923706042
 23
12.50000762939476
 33
0.0
 14
-216.9999999999942
 24
-12.49999618530222
 34
0.0
 50
270.0
100
AcDbRotatedDimension
1001
GENIUS_GENDTOL_13
1000

1000
h7
1000

1040
0.0
1001
ACAD
1000
DSTYLE
1002
{
1070
   287
1070
     3
1070
   147
1040
3.0
1070
    44
1040
2.0
1070
    41
1040
5.0
1070
    40
1040
0.5
1070
    42
1040
2.0
1070
    43
1040
12.0
1070
    48
1040
0.1
1070
    78
1070
     8
1070
   140
1040
6.4
1070
   176
1070
   256
1070
   177
1070
   256
1070
   271
1070
     1
1070
   272
1070
     3
1070
   275
1070
     0
1070
   284
1070
     0
1070
   289
1070
     3
1070
   340
1005
6B
1070
   371
1070
    -1
1070
   372
1070
    -1
1002
}
  0
LINE
  5
AF87
330
1F
100
AcDbEntity
  8
AM_11
100
AcDbLine
 10
-0.000000000000205
 20
-12.49999999999983
 30
0.0
 11
-0.000000000000246
 21
12.50000000000017
 31
0.0
  0
LINE
  5
AF94
330
1F
100
AcDbEntity
  8
AM_11
100
AcDbLine
 10
-26.00000000000019
 20
-12.49999999999986
 30
0.0
 11
-26.00000000000024
 21
12.50000000000012
 31
0.0
  0
LINE
  5
AF9C
330
1F
100
AcDbEntity
  8
AM_11
100
AcDbLine
 10
-26.00000000000024
 20
12.50000000000012
 30
0.0
 11
-0.0000000000002469
 21
12.50000000000017
 31
0.0
  0
LINE
  5
AFA0
330
1F
100
AcDbEntity
  8
AM_11
100
AcDbLine
 10
-0.000000000000205
 20
-12.49999999999982
 30
0.0
 11
-26.00000000000019
 21
-12.49999999999986
 31
0.0
  0
VIEWPORT
  5
110
102
{ACAD_XDICTIONARY
360
B113
102
}
330
101
100
AcDbEntity
 67
     1
  8
0
100
AcDbViewport
 10
420.5
 20
297.0
 30
0.0
 40
948.9782706766916
 41
628.452
 68
     1
 69
     1
 12
420.5
 22
297.0
 13
0.0
 23
0.0
 14
10.0
 24
10.0
 15
10.0
 25
10.0
 16
0.0
 26
0.0
 36
1.0
 17
0.0
 27
0.0
 37
0.0
 42
50.0
 43
0.0
 44
0.0
 45
628.452
 50
0.0
 51
0.0
 72
   100
 90
    32800
  1

281
     0
 71
     1
 74
     0
110
-0.0000000000002682
120
0.000000000000161
130
0.0
111
1.0
121
0.000000000000002
131
0.0
112
-0.000000000000002
122
1.0
132
0.0
 79
     0
146
0.0
1001
GENIUS_GENSCREG_15
1000
PF
1040
1.0
1000
DF
1040
1.0
1000
MIN
1011
-53.98913533834582
1021
-17.226
1031
0.0
1000
MAX
1011
894.9891353383458
1021
611.226
1031
0.0
1000
FLAGS
1070
     4
1001
GENIUS_GENODEF_13
1002
{
1000
HIER
1070
     0
1002
}
1002
{
1000
MANEDIT
1070
     0
1002
}
1002
{
1000
NOSEL
1070
     0
1002
}
1002
{
1000
BEHIND
1070
     0
1002
}
1002
{
1000
OTHER
1070
     0
1002
}
1002
{
1000
REACTOR
1002
}
1001
GENIUS_GENOBJ-N-SDF_13
1002
{
1000
OWNER
1000
GEN
1002
}
  0
ENDSEC
  0
SECTION
  2
OBJECTS
  0
DICTIONARY
  5
C
330
0
100
AcDbDictionary
281
     1
  3
ACAD_COLOR
350
B044
  3
ACAD_GROUP
350
D
  3
ACAD_LAYOUT
350
1A
  3
ACAD_MATERIAL
350
B043
  3
ACAD_MLINESTYLE
350
17
  3
ACAD_PLOTSETTINGS
350
19
  3
ACAD_PLOTSTYLENAME
350
E
  3
ACAD_TABLESTYLE
350
B045
  3
ACDBHEADERROUNDTRIPXREC
350
B112
  3
ACDBVARIABLEDICTIONARY
350
34
  3
ACMDICTIONARY
350
43
  3
AMG
350
2B
  3
AMGSNAPSETTINGS
350
6E
  3
DWGPROPS
350
B111
  0
DICTIONARY
  5
74
330
1F
100
AcDbDictionary
280
     1
281
     1
  3
ACAD_INDEX
360
AFD2
  3
ACAD_LAYOUTSELFREF
360
B000
  0
DICTIONARY
  5
B005
330
101
100
AcDbDictionary
280
     1
281
     1
  3
ACAD_LAYOUTSELFREF
360
B006
  0
DICTIONARY
  5
B113
330
110
100
AcDbDictionary
280
     1
281
     1
  3
ACAD_XREC_ROUNDTRIP
360
B114
  0
DICTIONARY
  5
B044
102
{ACAD_REACTORS
330
C
102
}
330
C
100
AcDbDictionary
281
     1
  0
DICTIONARY
  5
D
102
{ACAD_REACTORS
330
C
102
}
330
C
100
AcDbDictionary
281
     1
  0
DICTIONARY
  5
1A
102
{ACAD_REACTORS
330
C
102
}
330
C
100
AcDbDictionary
281
     1
  3
Model
350
B047
  3
レイアウト1
350
B048
  0
DICTIONARY
  5
B043
102
{ACAD_REACTORS
330
C
102
}
330
C
100
AcDbDictionary
281
     1
  0
DICTIONARY
  5
17
102
{ACAD_REACTORS
330
C
102
}
330
C
100
AcDbDictionary
281
     1
  3
STANDARD
350
18
  0
DICTIONARY
  5
19
102
{ACAD_REACTORS
330
C
102
}
330
C
100
AcDbDictionary
281
     1
  3
ASAMI
350
399D
  0
ACDBDICTIONARYWDFLT
  5
E
102
{ACAD_REACTORS
330
C
102
}
330
C
100
AcDbDictionary
281
     1
  3
Normal
350
F
100
AcDbDictionaryWithDefault
340
F
  0
DICTIONARY
  5
B045
102
{ACAD_REACTORS
330
C
102
}
330
C
100
AcDbDictionary
281
     1
  3
Standard
350
B046
  0
DICTIONARY
  5
B112
102
{ACAD_REACTORS
330
C
102
}
330
C
100
AcDbDictionary
281
     1
  0
DICTIONARY
  5
34
102
{ACAD_REACTORS
330
C
102
}
330
C
100
AcDbDictionary
281
     1
  3
CTABLESTYLE
350
B10D
  3
DIMASSOC
350
B10E
  3
INDEXCTL
350
35
  3
PROJECTNAME
350
B10F
  3
SORTENTS
350
B5E
  0
DICTIONARY
  5
43
102
{ACAD_REACTORS
330
C
102
}
330
C
100
AcDbDictionary
281
     1
  3
ACMSTDDICTIONARY
350
260
  0
DICTIONARY
  5
2B
102
{ACAD_REACTORS
330
C
102
}
330
C
100
AcDbDictionary
281
     1
  0
DICTIONARY
  5
6E
102
{ACAD_REACTORS
330
C
102
}
330
C
100
AcDbDictionary
281
     1
  0
XRECORD
  5
B111
102
{ACAD_REACTORS
330
C
102
}
330
C
100
AcDbXrecord
280
     1
  1
DWGPROPS COOKIE
  2

  3

  4

  6

  7

  8
那須
  9

300
AmdtFileType=82
301
=
302
=
303
=
304
=
305
=
306
=
307
=
308
=
309
=
 40
0.9310014699074073
 41
2452802.716478762
 42
2453691.649317129
  1

 90
        1
  0
DICTIONARY
  5
AFD2
102
{ACAD_REACTORS
330
74
102
}
330
74
100
AcDbDictionary
281
     1
  3
*A1
350
AFD3
  0
XRECORD
  5
B000
102
{ACAD_REACTORS
330
74
102
}
330
74
100
AcDbXrecord
280
     1
340
1F
  0
XRECORD
  5
B006
102
{ACAD_REACTORS
330
B005
102
}
330
B005
100
AcDbXrecord
280
     1
340
101
  0
XRECORD
  5
B114
102
{ACAD_REACTORS
330
B113
102
}
330
B113
100
AcDbXrecord
280
     1
102
SHADEPLOT
 70
     0
  0
LAYOUT
  5
B047
102
{ACAD_XDICTIONARY
360
B117
102
}
102
{ACAD_REACTORS
330
1A
102
}
330
1A
100
AcDbPlotSettings
  1

  2
SII LP-2150 (D-SCAN C2)
  4

  6

 40
0.0
 41
0.0
 42
0.0
 43
0.0
 44
0.0
 45
0.0
 46
0.0
 47
0.0
 48
0.0
 49
0.0
140
0.0
141
0.0
142
1.0
143
1.0
 70
  1712
 72
     0
 73
     0
 74
     0
  7
sei_cad.ctb
 75
     0
147
1.0
148
0.0
149
0.0
100
AcDbLayout
  1
Model
 70
     1
 71
     0
 10
0.0
 20
0.0
 11
12.0
 21
9.0
 12
0.0
 22
0.0
 32
0.0
 14
0.0
 24
0.0
 34
0.0
 15
0.0
 25
0.0
 35
0.0
146
0.0
 13
0.0
 23
0.0
 33
0.0
 16
1.0
 26
0.0
 36
0.0
 17
0.0
 27
1.0
 37
0.0
 76
     0
330
1F
  0
LAYOUT
  5
B048
102
{ACAD_XDICTIONARY
360
B119
102
}
102
{ACAD_REACTORS
330
1A
102
}
330
1A
100
AcDbPlotSettings
  1

  2
SII LP-2150 (D-SCAN C2)
  4

  6

 40
0.0
 41
0.0
 42
0.0
 43
0.0
 44
0.0
 45
0.0
 46
0.0
 47
0.0
 48
0.0
 49
0.0
140
0.0
141
0.0
142
1.0
143
1.0
 70
   688
 72
     0
 73
     0
 74
     5
  7
sei_cad.ctb
 75
    16
147
1.0
148
0.0
149
0.0
100
AcDbLayout
  1
レイアウト1
 70
     0
 71
     1
 10
0.0
 20
0.0
 11
841.0
 21
594.0
 12
0.0
 22
0.0
 32
0.0
 14
1.000000000000000E+20
 24
1.000000000000000E+20
 34
1.000000000000000E+20
 15
-1.000000000000000E+20
 25
-1.000000000000000E+20
 35
-1.000000000000000E+20
146
0.0
 13
0.0
 23
0.0
 33
0.0
 16
1.0
 26
0.0
 36
0.0
 17
0.0
 27
1.0
 37
0.0
 76
     0
330
101
331
110
  0
MLINESTYLE
  5
18
102
{ACAD_REACTORS
330
17
102
}
330
17
100
AcDbMlineStyle
  2
STANDARD
 70
     0
  3

 62
   256
 51
90.0
 52
90.0
 71
     2
 49
0.5
 62
   256
  6
BYLAYER
 49
-0.5
 62
   256
  6
BYLAYER
  0
PLOTSETTINGS
  5
399D
102
{ACAD_XDICTIONARY
360
B115
102
}
102
{ACAD_REACTORS
330
19
102
}
330
19
100
AcDbPlotSettings
  1
asami
  2
RICOH imagio MF1540
  4
A4
  6

 40
5.831416606903076
 41
7.651742935180664
 42
4.90008544921875
 43
5.789077758789062
 44
296.9683227539062
 45
209.9733276367186
 46
0.0
 47
0.0
 48
-156.6707931774246
 49
-74.57609991074048
140
58.59973180214831
141
60.61068161925597
142
1.0
143
1.095343097833084
 70
  1712
 72
     1
 73
     1
 74
     4
  7
asami.ctb
 75
     0
147
0.9129559514076438
148
156.6707931774246
149
74.57609991074048
  0
ACDBPLACEHOLDER
  5
F
102
{ACAD_REACTORS
330
E
102
}
330
E
  0
TABLESTYLE
  5
B046
102
{ACAD_REACTORS
330
B045
102
}
330
B045
100
AcDbTableStyle
  3
Standard
 70
     0
 71
     0
 40
1.5
 41
1.5
280
     0
281
     0
  7
STANDARD
140
4.5
170
     2
 62
     0
 63
     7
283
     0
274
    -2
284
     1
 64
     0
275
    -2
285
     1
 65
     0
276
    -2
286
     1
 66
     0
277
    -2
287
     1
 67
     0
278
    -2
288
     1
 68
     0
279
    -2
289
     1
 69
     0
  7
STANDARD
140
6.0
170
     5
 62
     0
 63
     7
283
     0
274
    -2
284
     1
 64
     0
275
    -2
285
     1
 65
     0
276
    -2
286
     1
 66
     0
277
    -2
287
     1
 67
     0
278
    -2
288
     1
 68
     0
279
    -2
289
     1
 69
     0
  7
STANDARD
140
4.5
170
     5
 62
     0
 63
     7
283
     0
274
    -2
284
     1
 64
     0
275
    -2
285
     1
 65
     0
276
    -2
286
     1
 66
     0
277
    -2
287
     1
 67
     0
278
    -2
288
     1
 68
     0
279
    -2
289
     1
 69
     0
  0
DICTIONARYVAR
  5
B10D
102
{ACAD_REACTORS
330
34
102
}
330
34
100
DictionaryVariables
280
     0
  1
STANDARD
  0
DICTIONARYVAR
  5
B10E
102
{ACAD_REACTORS
330
34
102
}
330
34
100
DictionaryVariables
280
     0
  1
1
  0
DICTIONARYVAR
  5
35
102
{ACAD_REACTORS
330
34
102
}
330
34
100
DictionaryVariables
280
     0
  1
1
  0
DICTIONARYVAR
  5
B10F
102
{ACAD_REACTORS
330
34
102
}
330
34
100
DictionaryVariables
280
     0
  1

  0
DICTIONARYVAR
  5
B5E
102
{ACAD_REACTORS
330
34
102
}
330
34
100
DictionaryVariables
280
     0
  1
96
  0
DICTIONARY
  5
260
102
{ACAD_REACTORS
330
43
102
}
330
43
100
AcDbDictionary
281
     1
  0
LAYER_INDEX
  5
AFD3
102
{ACAD_REACTORS
330
AFD2
102
}
330
AFD2
100
AcDbIndex
 40
2453691.649317129
100
AcDbLayerIndex
  8
0
360
AFD4
 90
        0
  8
AM_0
360
AFD5
 90
      287
  8
AM_5
360
AFD6
 90
        6
  8
AM_7
360
AFD7
 90
        1
  8
AM_6
360
AFD8
 90
        1
  8
DEFPOINTS
360
AFD9
 90
        0
  8
AM_3
360
AFDA
 90
       10
  8
AM_11
360
AFDB
 90
        4
  0
DICTIONARY
  5
B117
330
B047
100
AcDbDictionary
280
     1
281
     1
  3
ACAD_XREC_ROUNDTRIP
360
B118
  0
DICTIONARY
  5
B119
330
B048
100
AcDbDictionary
280
     1
281
     1
  3
ACAD_XREC_ROUNDTRIP
360
B11A
  0
DICTIONARY
  5
B115
330
399D
100
AcDbDictionary
280
     1
281
     1
  3
ACAD_XREC_ROUNDTRIP
360
B116
  0
IDBUFFER
  5
AFD4
330
0
100
AcDbIdBuffer
  0
IDBUFFER
  5
AFD5
330
0
100
AcDbIdBuffer
330
A525
330
A526
330
A537
330
A538
330
A53A
330
A53B
330
A53C
330
A53E
330
A541
330
A543
330
A544
330
A545
330
A546
330
A548
330
A549
330
A54A
330
A54C
330
A54D
330
A54E
330
A54F
330
A550
330
A551
330
A552
330
A553
330
A554
330
A569
330
A56A
330
A56B
330
A56C
330
A56D
330
A56E
330
A56F
330
A570
330
A571
330
A572
330
A573
330
A574
330
A575
330
A576
330
A577
330
A578
330
A579
330
A57A
330
A57B
330
A57C
330
A57D
330
A57E
330
A5A2
330
A5A3
330
A5A4
330
A5A8
330
A5A9
330
A5AB
330
A5AE
330
A5AF
330
A5B1
330
A5B2
330
A5B3
330
A5B4
330
A5B5
330
A5B8
330
A5BD
330
A5BE
330
A5C0
330
A5C3
330
A5C9
330
A5CB
330
A5CD
330
A5CF
330
A5D0
330
A5D2
330
A5D3
330
A5D5
330
A5D6
330
A5D8
330
A5DA
330
A5DB
330
A5E0
330
A5E2
330
A5E3
330
A5E5
330
A5E6
330
A5E7
330
A5E9
330
A5EA
330
A5EB
330
A5EC
330
A5EF
330
A5F2
330
A5F3
330
A5F5
330
A5F8
330
A5F9
330
A5FA
330
A5FB
330
A5FC
330
A5FD
330
A5FE
330
A5FF
330
A600
330
A601
330
A602
330
A603
330
A604
330
A605
330
A606
330
A607
330
A608
330
A609
330
A60A
330
A60B
330
A60C
330
A60D
330
A611
330
A612
330
A613
330
A615
330
A61B
330
A61C
330
A61D
330
A61E
330
A61F
330
A621
330
A622
330
A623
330
A624
330
A625
330
A626
330
A627
330
A628
330
A62A
330
A62B
330
A62C
330
A62D
330
A62E
330
A62F
330
A630
330
A631
330
A632
330
A633
330
A634
330
A635
330
A636
330
A638
330
A63A
330
A656
330
A657
330
A65A
330
A65C
330
A65E
330
A66B
330
A66E
330
A671
330
A672
330
A673
330
A674
330
A675
330
A676
330
A6C6
330
A6C8
330
A6CA
330
A6CB
330
A6CC
330
A6CD
330
A6CE
330
A6CF
330
A6D0
330
A6D1
330
A6D2
330
A6D3
330
A6D6
330
A6D7
330
A6D8
330
A6D9
330
A6DA
330
A6DD
330
A6DE
330
A6DF
330
A6E0
330
A6E1
330
A6E2
330
A6E3
330
A6E4
330
A6E5
330
A6E6
330
A6E7
330
A6E8
330
A6E9
330
A765
330
A766
330
A767
330
A768
330
A769
330
A76A
330
A76B
330
A76C
330
A76D
330
A76E
330
A76F
330
A770
330
A771
330
A772
330
A773
330
A774
330
A775
330
A776
330
A777
330
A779
330
A77A
330
A77B
330
A77C
330
A77D
330
A77E
330
A77F
330
A781
330
A782
330
A783
330
A784
330
A785
330
A786
330
A787
330
A788
330
A789
330
A78A
330
A78B
330
A78C
330
A78D
330
A78E
330
A78F
330
A790
330
A791
330
A792
330
A793
330
A794
330
A795
330
A796
330
A797
330
A798
330
A799
330
A79A
330
A79B
330
A79C
330
A79E
330
A79F
330
A7A0
330
A7A1
330
A7A2
330
A7A3
330
A7A4
330
A7A5
330
A7A6
330
A7A7
330
A7A8
330
A7AB
330
A7AC
330
A7AD
330
A7AE
330
A7AF
330
A7B0
330
A7B1
330
A7B2
330
A7B3
330
A7B6
330
A7B7
330
A7B8
330
A7B9
330
A7BA
330
A7BB
330
A7BC
330
A7BD
330
A7BE
330
A7BF
330
A7C1
330
A7C2
330
A7C3
330
A7C4
330
A7C5
330
A7C8
330
A7C9
330
A7CA
330
A7CB
330
A7CC
330
A7CD
330
A7CE
330
A7CF
330
A7D0
330
A7D1
  0
IDBUFFER
  5
AFD6
330
0
100
AcDbIdBuffer
330
A8BD
330
A97F
330
AA57
330
AAE3
330
AB8D
330
AC26
  0
IDBUFFER
  5
AFD7
330
0
100
AcDbIdBuffer
330
A527
  0
IDBUFFER
  5
AFD8
330
0
100
AcDbIdBuffer
330
388D
  0
IDBUFFER
  5
AFD9
330
0
100
AcDbIdBuffer
  0
IDBUFFER
  5
AFDA
330
0
100
AcDbIdBuffer
330
A523
330
A524
330
A620
330
A629
330
A637
330
A639
330
A669
330
A66A
330
A778
330
A7C0
  0
IDBUFFER
  5
AFDB
330
0
100
AcDbIdBuffer
330
AF87
330
AF94
330
AF9C
330
AFA0
  0
XRECORD
  5
B118
102
{ACAD_REACTORS
330
B117
102
}
330
B117
100
AcDbXrecord
280
     1
102
SHADEPLOT
 70
     0
102
SHADEPLOTRESLEVEL
 70
     2
102
SHADEPLOTCUSTOMDPI
 70
   300
  0
XRECORD
  5
B11A
102
{ACAD_REACTORS
330
B119
102
}
330
B119
100
AcDbXrecord
280
     1
102
SHADEPLOT
 70
     0
102
SHADEPLOTRESLEVEL
 70
     2
102
SHADEPLOTCUSTOMDPI
 70
   300
  0
XRECORD
  5
B116
102
{ACAD_REACTORS
330
B115
102
}
330
B115
100
AcDbXrecord
280
     1
102
SHADEPLOT
 70
     0
102
SHADEPLOTRESLEVEL
 70
     2
102
SHADEPLOTCUSTOMDPI
 70
   300
  0
ENDSEC
  0
EOF
