  0
SECTION
  2
HEADER
  9
$ACADVER
  1
AC1015
  9
$ACADMAINTVER
 70
    20
  9
$DWGCODEPAGE
  3
ANSI_932
  9
$INSBASE
 10
0.0
 20
0.0
 30
0.0
  9
$EXTMIN
 10
-162.9162332997952
 20
-59.31549172265607
 30
0.0
  9
$EXTMAX
 10
16.55177407128879
 20
31.51549172265618
 30
0.0
  9
$LIMMIN
 10
-179.8132874940167
 20
-74.89291178125154
  9
$LIMMAX
 10
66.74774636143945
 20
45.61604826583521
  9
$ORTHOMODE
 70
     0
  9
$REGENMODE
 70
     1
  9
$FILLMODE
 70
     1
  9
$QTEXTMODE
 70
     0
  9
$MIRRTEXT
 70
     0
  9
$LTSCALE
 40
1.0
  9
$ATTMODE
 70
     1
  9
$TEXTSIZE
 40
2.5
  9
$TRACEWID
 40
1.0
  9
$TEXTSTYLE
  7
STANDARD
  9
$CLAYER
  8
AM_0
  9
$CELTYPE
  6
BYLAYER
  9
$CECOLOR
 62
   256
  9
$CELTSCALE
 40
1.0
  9
$DISPSILH
 70
     0
  9
$DIMSCALE
 40
0.5
  9
$DIMASZ
 40
2.5
  9
$DIMEXO
 40
1.0
  9
$DIMDLI
 40
12.0
  9
$DIMRND
 40
0.0
  9
$DIMDLE
 40
0.0
  9
$DIMEXE
 40
1.0
  9
$DIMTP
 40
0.1
  9
$DIMTM
 40
0.1
  9
$DIMTXT
 40
3.2
  9
$DIMCEN
 40
0.0
  9
$DIMTSZ
 40
0.0
  9
$DIMTOL
 70
     0
  9
$DIMLIM
 70
     0
  9
$DIMTIH
 70
     0
  9
$DIMTOH
 70
     0
  9
$DIMSE1
 70
     0
  9
$DIMSE2
 70
     0
  9
$DIMTAD
 70
     3
  9
$DIMZIN
 70
     8
  9
$DIMBLK
  1
Open30
  9
$DIMASO
 70
     1
  9
$DIMSHO
 70
     1
  9
$DIMPOST
  1

  9
$DIMAPOST
  1
"
  9
$DIMALT
 70
     0
  9
$DIMALTD
 70
     2
  9
$DIMALTF
 40
0.0393701
  9
$DIMLFAC
 40
1.0
  9
$DIMTOFL
 70
     1
  9
$DIMTVP
 40
0.0
  9
$DIMTIX
 70
     0
  9
$DIMSOXD
 70
     0
  9
$DIMSAH
 70
     0
  9
$DIMBLK1
  1

  9
$DIMBLK2
  1

  9
$DIMSTYLE
  2
AM_JIS
  9
$DIMCLRD
 70
   256
  9
$DIMCLRE
 70
   256
  9
$DIMCLRT
 70
     2
  9
$DIMTFAC
 40
0.71
  9
$DIMGAP
 40
1.5
  9
$DIMJUST
 70
     0
  9
$DIMSD1
 70
     0
  9
$DIMSD2
 70
     0
  9
$DIMTOLJ
 70
     0
  9
$DIMTZIN
 70
     0
  9
$DIMALTZ
 70
     0
  9
$DIMALTTZ
 70
     0
  9
$DIMUPT
 70
     0
  9
$DIMDEC
 70
     3
  9
$DIMTDEC
 70
     3
  9
$DIMALTU
 70
     2
  9
$DIMALTTD
 70
     2
  9
$DIMTXSTY
  7
ASAMI
  9
$DIMAUNIT
 70
     0
  9
$DIMADEC
 70
     0
  9
$DIMALTRND
 40
0.0
  9
$DIMAZIN
 70
     2
  9
$DIMDSEP
 70
    46
  9
$DIMATFIT
 70
     3
  9
$DIMFRAC
 70
     0
  9
$DIMLDRBLK
  1
Open30
  9
$DIMLUNIT
 70
     2
  9
$DIMLWD
 70
    -1
  9
$DIMLWE
 70
    -1
  9
$DIMTMOVE
 70
     0
  9
$LUNITS
 70
     2
  9
$LUPREC
 70
     2
  9
$SKETCHINC
 40
1.0
  9
$FILLETRAD
 40
0.4
  9
$AUNITS
 70
     0
  9
$AUPREC
 70
     0
  9
$MENU
  1
.
  9
$ELEVATION
 40
0.0
  9
$PELEVATION
 40
0.0
  9
$THICKNESS
 40
0.0
  9
$LIMCHECK
 70
     1
  9
$CHAMFERA
 40
1.0
  9
$CHAMFERB
 40
1.0
  9
$CHAMFERC
 40
20.0
  9
$CHAMFERD
 40
0.0
  9
$SKPOLY
 70
     0
  9
$TDCREATE
 40
2452802.716478762
  9
$TDUCREATE
 40
2452802.341478762
  9
$TDUPDATE
 40
2453691.646634467
  9
$TDUUPDATE
 40
2453691.271634468
  9
$TDINDWG
 40
0.9497680787
  9
$TDUSRTIMER
 40
0.9497678935
  9
$USRTIMER
 70
     1
  9
$ANGBASE
 50
0.0
  9
$ANGDIR
 70
     0
  9
$PDMODE
 70
     0
  9
$PDSIZE
 40
0.0
  9
$PLINEWID
 40
0.0
  9
$SPLFRAME
 70
     0
  9
$SPLINETYPE
 70
     6
  9
$SPLINESEGS
 70
     8
  9
$HANDSEED
  5
A51B
  9
$SURFTAB1
 70
     6
  9
$SURFTAB2
 70
     6
  9
$SURFTYPE
 70
     6
  9
$SURFU
 70
     6
  9
$SURFV
 70
     6
  9
$UCSBASE
  2

  9
$UCSNAME
  2

  9
$UCSORG
 10
-0.0000000000002682
 20
0.000000000000161
 30
0.0
  9
$UCSXDIR
 10
1.0
 20
0.000000000000002
 30
0.0
  9
$UCSYDIR
 10
-0.000000000000002
 20
1.0
 30
0.0
  9
$UCSORTHOREF
  2

  9
$UCSORTHOVIEW
 70
     0
  9
$UCSORGTOP
 10
0.0
 20
0.0
 30
0.0
  9
$UCSORGBOTTOM
 10
0.0
 20
0.0
 30
0.0
  9
$UCSORGLEFT
 10
0.0
 20
0.0
 30
0.0
  9
$UCSORGRIGHT
 10
0.0
 20
0.0
 30
0.0
  9
$UCSORGFRONT
 10
0.0
 20
0.0
 30
0.0
  9
$UCSORGBACK
 10
0.0
 20
0.0
 30
0.0
  9
$PUCSBASE
  2

  9
$PUCSNAME
  2

  9
$PUCSORG
 10
0.0
 20
0.0
 30
0.0
  9
$PUCSXDIR
 10
1.0
 20
0.0
 30
0.0
  9
$PUCSYDIR
 10
0.0
 20
1.0
 30
0.0
  9
$PUCSORTHOREF
  2

  9
$PUCSORTHOVIEW
 70
     0
  9
$PUCSORGTOP
 10
0.0
 20
0.0
 30
0.0
  9
$PUCSORGBOTTOM
 10
0.0
 20
0.0
 30
0.0
  9
$PUCSORGLEFT
 10
0.0
 20
0.0
 30
0.0
  9
$PUCSORGRIGHT
 10
0.0
 20
0.0
 30
0.0
  9
$PUCSORGFRONT
 10
0.0
 20
0.0
 30
0.0
  9
$PUCSORGBACK
 10
0.0
 20
0.0
 30
0.0
  9
$USERI1
 70
     0
  9
$USERI2
 70
     0
  9
$USERI3
 70
     0
  9
$USERI4
 70
     0
  9
$USERI5
 70
     0
  9
$USERR1
 40
0.0
  9
$USERR2
 40
0.0
  9
$USERR3
 40
0.0
  9
$USERR4
 40
0.0
  9
$USERR5
 40
0.0
  9
$WORLDVIEW
 70
     1
  9
$SHADEDGE
 70
     3
  9
$SHADEDIF
 70
    70
  9
$TILEMODE
 70
     1
  9
$MAXACTVP
 70
    64
  9
$PINSBASE
 10
0.0
 20
0.0
 30
0.0
  9
$PLIMCHECK
 70
     0
  9
$PEXTMIN
 10
1.000000000000000E+20
 20
1.000000000000000E+20
 30
1.000000000000000E+20
  9
$PEXTMAX
 10
-1.000000000000000E+20
 20
-1.000000000000000E+20
 30
-1.000000000000000E+20
  9
$PLIMMIN
 10
0.0
 20
0.0
  9
$PLIMMAX
 10
841.0
 20
594.0
  9
$UNITMODE
 70
     0
  9
$VISRETAIN
 70
     1
  9
$PLINEGEN
 70
     0
  9
$PSLTSCALE
 70
     0
  9
$TREEDEPTH
 70
  3020
  9
$CMLSTYLE
  2
STANDARD
  9
$CMLJUST
 70
     0
  9
$CMLSCALE
 40
20.0
  9
$PROXYGRAPHICS
 70
     1
  9
$MEASUREMENT
 70
     1
  9
$CELWEIGHT
370
    -1
  9
$ENDCAPS
280
     0
  9
$JOINSTYLE
280
     0
  9
$LWDISPLAY
290
     0
  9
$INSUNITS
 70
     4
  9
$HYPERLINKBASE
  1

  9
$STYLESHEET
  1
ASAMI.ctb
  9
$XEDIT
290
     1
  9
$CEPSNTYPE
380
     0
  9
$PSTYLEMODE
290
     1
  9
$FINGERPRINTGUID
  2
{AFB28963-8C59-40AE-9337-C84526B81ACE}
  9
$VERSIONGUID
  2
{4C6AA9D3-1940-4A8F-A136-00053C90B7DB}
  9
$EXTNAMES
290
     1
  9
$PSVPSCALE
 40
0.0
  9
$OLESTARTUP
290
     0
  0
ENDSEC
  0
SECTION
  2
CLASSES
  0
CLASS
  1
ACDBDICTIONARYWDFLT
  2
AcDbDictionaryWithDefault
  3
ObjectDBX Classes
 90
        0
280
     0
281
     0
  0
CLASS
  1
ACDBPLACEHOLDER
  2
AcDbPlaceHolder
  3
ObjectDBX Classes
 90
        0
280
     0
281
     0
  0
CLASS
  1
LAYOUT
  2
AcDbLayout
  3
ObjectDBX Classes
 90
        0
280
     0
281
     0
  0
CLASS
  1
AMGSETTINGSOBJ
  2
AmgSettingsObj
  3
"AcadM|Product Description: AutoCAD Mechanical 2000|Company: Autodesk"
 90
        0
280
     0
281
     0
  0
CLASS
  1
ACME_DOCUMENT
  2
AcMeDbDoc
  3
AcMeServices
 90
        0
280
     0
281
     0
  0
CLASS
  1
ACMESCOPE
  2
AcMeScope
  3
AcMeServices
 90
        0
280
     0
281
     0
  0
CLASS
  1
ACMECOMMANDHISTORY
  2
AcMeCommandHistory
  3
AcMeServices
 90
        0
280
     0
281
     0
  0
CLASS
  1
DICTIONARYVAR
  2
AcDbDictionaryVar
  3
ObjectDBX Classes
 90
        0
280
     0
281
     0
  0
CLASS
  1
ACIMSYSVARMAN
  2
AcImSysVarManager
  3
AcMeServices
 90
        0
280
     0
281
     0
  0
CLASS
  1
ACIMREALSYSVAR
  2
AcImRealSysVar
  3
AcMeServices
 90
        0
280
     0
281
     0
  0
CLASS
  1
ACIMINTSYSVAR
  2
AcImIntSysVar
  3
AcMeServices
 90
        0
280
     0
281
     0
  0
CLASS
  1
ACMEDRAWINGMAN
  2
AcMeDrawingMan
  3
AcMeServices
 90
        0
280
     0
281
     0
  0
CLASS
  1
ACMEVIEW
  2
AcMeView
  3
AcMeServices
 90
        0
280
     0
281
     0
  0
CLASS
  1
ACDBENTITYCACHE
  2
AcMeEntityCache
  3
AcMeServices
 90
        0
280
     0
281
     0
  0
CLASS
  1
GSMANAGER
  2
AcMeGSManager
  3
AcMeServices
 90
        0
280
     0
281
     0
  0
CLASS
  1
AMDTINTERNALREACTOR
  2
AmdtInternalReactor
  3
AcMeServices
 90
        0
280
     0
281
     0
  0
CLASS
  1
ACMESTATEMGR
  2
AcMeStateMgr
  3
AcMeServices
 90
        0
280
     0
281
     0
  0
CLASS
  1
ACME_DATABASE
  2
AcMeDbDatabase
  3
AcMeServices
 90
        0
280
     0
281
     0
  0
CLASS
  1
ACRFINSADJUSTERMGR
  2
AcRfInsAdjusterMgr
  3
AcMeServices
 90
        0
280
     0
281
     0
  0
CLASS
  1
ACMDATADICTIONARY
  2
AcmDataDictionary
  3
"AcmSymBB|Product Description: AutoCAD Mechanical 2004 DX|Company: Autodesk"
 90
        0
280
     0
281
     0
  0
CLASS
  1
ACMDATAENTRYBLOCK
  2
AcmDataEntryBlock
  3
"AcmSymBB|Product Description: AutoCAD Mechanical 2004 DX|Company: Autodesk"
 90
    32768
280
     0
281
     0
  0
CLASS
  1
AMGOBJPROPCFG
  2
AmgObjPropCfg
  3
"AmgLay|Product Description: AutoCAD Mechanical 2000|Company: Autodesk"
 90
        1
280
     0
281
     0
  0
CLASS
  1
ACAMGFILTERDAT
  2
AcAmgFilterDat
  3
"AcadM|Product Description: AutoCAD Mechanical 2000|Company: Autodesk"
 90
    32768
280
     0
281
     0
  0
CLASS
  1
LAYER_INDEX
  2
AcDbLayerIndex
  3
ObjectDBX Classes
 90
        0
280
     0
281
     0
  0
CLASS
  1
IDBUFFER
  2
AcDbIdBuffer
  3
ObjectDBX Classes
 90
        0
280
     0
281
     0
  0
CLASS
  1
ACIMSTRSYSVAR
  2
AcImStrSysVar
  3
AcMeServices
 90
        0
280
     0
281
     0
  0
CLASS
  1
ACMSTANDARDJIS
  2
AcmStandardJIS
  3
"Amdt_StdImp|Product Description: AutoCAD Mechanical 2004 DX|Company: Autodesk"
 90
        0
280
     0
281
     0
  0
CLASS
  1
ACMSURFSTANDARDJIS
  2
AcmSurfTextStdJIS
  3
"Amdt_StdImp|Product Description: AutoCAD Mechanical 2004 DX|Company: Autodesk"
 90
        0
280
     0
281
     0
  0
CLASS
  1
ACMFCFSTANDARDJIS
  2
AcmFCFStdJIS
  3
"Amdt_StdImp|Product Description: AutoCAD Mechanical 2004 DX|Company: Autodesk"
 90
    32768
280
     0
281
     0
  0
CLASS
  1
ACMWELDSTANDARDJIS
  2
AcmWeldingStdJIS
  3
"Amdt_StdImp|Product Description: AutoCAD Mechanical 2004 DX|Company: Autodesk"
 90
        0
280
     0
281
     0
  0
CLASS
  1
ACMIDSTANDARDJIS
  2
AcmIdStdJIS
  3
"Amdt_StdImp|Product Description: AutoCAD Mechanical 2004 DX|Company: Autodesk"
 90
        0
280
     0
281
     0
  0
CLASS
  1
ACMDATUMSTANDARDJIS
  2
AcmDatumStdJIS
  3
"Amdt_StdImp|Product Description: AutoCAD Mechanical 2004 DX|Company: Autodesk"
 90
        0
280
     0
281
     0
  0
CLASS
  1
ACMBOMSTANDARDJIS
  2
AcmBOMStdJIS
  3
"Amdt_StdImp|Product Description: AutoCAD Mechanical 2004 DX|Company: Autodesk"
 90
        0
280
     0
281
     0
  0
CLASS
  1
ACMSTANDARDANSI
  2
AcmStandardANSI
  3
"Amdt_StdImp|Product Description: AutoCAD Mechanical 2004 DX|Company: Autodesk"
 90
    32768
280
     0
281
     0
  0
CLASS
  1
ACMSURFSTANDARDANSI
  2
AcmSurfTextStdANSI
  3
"Amdt_StdImp|Product Description: AutoCAD Mechanical 2004 DX|Company: Autodesk"
 90
    32768
280
     0
281
     0
  0
CLASS
  1
ACMFCFSTANDARDANSI
  2
AcmFCFStdANSI
  3
"Amdt_StdImp|Product Description: AutoCAD Mechanical 2004 DX|Company: Autodesk"
 90
    32768
280
     0
281
     0
  0
CLASS
  1
ACMWELDSTANDARDANSI
  2
AcmWeldingStdANSI
  3
"Amdt_StdImp|Product Description: AutoCAD Mechanical 2004 DX|Company: Autodesk"
 90
    32768
280
     0
281
     0
  0
CLASS
  1
ACMIDSTANDARDANSI
  2
AcmIdStdANSI
  3
"Amdt_StdImp|Product Description: AutoCAD Mechanical 2004 DX|Company: Autodesk"
 90
    32768
280
     0
281
     0
  0
CLASS
  1
ACMDATUMSTANDARDANSI
  2
AcmDatumStdANSI
  3
"Amdt_StdImp|Product Description: AutoCAD Mechanical 2004 DX|Company: Autodesk"
 90
    32768
280
     0
281
     0
  0
CLASS
  1
ACMBOMSTANDARDANSI
  2
AcmBOMStdANSI
  3
"Amdt_StdImp|Product Description: AutoCAD Mechanical 2004 DX|Company: Autodesk"
 90
    32768
280
     0
281
     0
  0
CLASS
  1
ACMSTANDARDBSI
  2
AcmStandardBSI
  3
"Amdt_StdImp|Product Description: AutoCAD Mechanical 2004 DX|Company: Autodesk"
 90
    32768
280
     0
281
     0
  0
CLASS
  1
ACMSURFSTANDARDBSI
  2
AcmSurfTextStdBSI
  3
"Amdt_StdImp|Product Description: AutoCAD Mechanical 2004 DX|Company: Autodesk"
 90
    32768
280
     0
281
     0
  0
CLASS
  1
ACMFCFSTANDARDBSI
  2
AcmFCFStdBSI
  3
"Amdt_StdImp|Product Description: AutoCAD Mechanical 2004 DX|Company: Autodesk"
 90
    32768
280
     0
281
     0
  0
CLASS
  1
ACMWELDSTANDARDBSI
  2
AcmWeldingStdBSI
  3
"Amdt_StdImp|Product Description: AutoCAD Mechanical 2004 DX|Company: Autodesk"
 90
    32768
280
     0
281
     0
  0
CLASS
  1
ACMIDSTANDARDBSI
  2
AcmIdStdBSI
  3
"Amdt_StdImp|Product Description: AutoCAD Mechanical 2004 DX|Company: Autodesk"
 90
    32768
280
     0
281
     0
  0
CLASS
  1
ACMDATUMSTANDARDBSI
  2
AcmDatumStdBSI
  3
"Amdt_StdImp|Product Description: AutoCAD Mechanical 2004 DX|Company: Autodesk"
 90
    32768
280
     0
281
     0
  0
CLASS
  1
ACMBOMSTANDARDBSI
  2
AcmBOMStdBSI
  3
"Amdt_StdImp|Product Description: AutoCAD Mechanical 2004 DX|Company: Autodesk"
 90
    32768
280
     0
281
     0
  0
CLASS
  1
STDPART2D
  2
AmgStdPart
  3
"AmgStdPart|Product Description: AutoCAD Mechanical 2000|Company: Autodesk"
 90
    33791
280
     0
281
     1
  0
CLASS
  1
PLOTSETTINGS
  2
AcDbPlotSettings
  3
ObjectDBX Classes
 90
        0
280
     0
281
     0
  0
CLASS
  1
TABLESTYLE
  2
AcDbTableStyle
  3
ObjectDBX Classes
 90
     2047
280
     0
281
     0
  0
CLASS
  1
ACGREFMASTER
  2
AcGrefMaster
  3
AcAttribServices
 90
        0
280
     0
281
     0
  0
CLASS
  1
AM_DRAWING_MGR
  2
AcDmDwgMgr
  3
AcMechDwgViewMgmt
 90
        0
280
     0
281
     0
  0
CLASS
  1
AM_DWG_DOCUMENT
  2
AcDmDwgDocument
  3
AcMechDwgViewMgmt
 90
        0
280
     0
281
     0
  0
CLASS
  1
AM_DWG_SHEET
  2
AcDmSheet
  3
AcMechDwgViewMgmt
 90
        0
280
     0
281
     0
  0
CLASS
  1
AM_VIEWDIMPARMAP
  2
AcDmViewDimParMap
  3
AcMechDwgViewMgmt
 90
        0
280
     0
281
     0
  0
CLASS
  1
AM_DWGMGR_NAME
  2
AcDmDwgMgrName
  3
AcMechDwgViewMgmt
 90
        0
280
     0
281
     0
  0
CLASS
  1
ACGREFACADMASTER
  2
AcGrefacadMaster
  3
AcGrefServices
 90
        0
280
     0
281
     0
  0
CLASS
  1
AMDTMENUSTATEMGR
  2
AmdtMenuStateMgr
  3
McadcomServices
 90
        0
280
     0
281
     0
  0
CLASS
  1
AMDTMCOMMENUSTATE
  2
AmdtMcomMenuState
  3
McadcomServices
 90
        0
280
     0
281
     0
  0
CLASS
  1
AMIMASTER
  2
AmiMaster
  3
AmiServices
 90
        0
280
     0
281
     0
  0
CLASS
  1
MAPIAMMOUDLE
  2
MApiAmModule
  3
MApiAmServices
 90
        0
280
     0
281
     0
  0
CLASS
  1
AMDTADMENUSTATE
  2
AmdtAdMenuState
  3
DesignerServices
 90
        0
280
     0
281
     0
  0
CLASS
  1
ADAPPL
  2
AcAdAppl
  3
DesignerServices
 90
        0
280
     0
281
     0
  0
CLASS
  1
DEPMGR
  2
AcAdDepMgr
  3
DesignerServices
 90
        0
280
     0
281
     0
  0
CLASS
  1
PARAMMGR
  2
AcAdParamMgr
  3
DesignerServices
 90
        0
280
     0
281
     0
  0
CLASS
  1
PARAMSCOPE
  2
AcAdParamScope
  3
DesignerServices
 90
        0
280
     0
281
     0
  0
CLASS
  1
NAMEDAPPL
  2
AcAdNamedAppl
  3
DesignerServices
 90
        0
280
     0
281
     0
  0
CLASS
  1
AMDTDMMENUSTATE
  2
AmdtDmMenuState
  3
AcMechDwgViewMgmt
 90
        0
280
     0
281
     0
  0
CLASS
  1
AMDTAMMENUSTATE
  2
AmdtAmMenuState
  3
DesignerAssemblies
 90
        0
280
     0
281
     0
  0
CLASS
  1
ACAMPROJECT
  2
AcAmProject
  3
DesignerAssemblies
 90
        0
280
     0
281
     0
  0
CLASS
  1
ACAMGRCOMPDEF
  2
AcAmGrCompDef
  3
DesignerAssemblies
 90
        0
280
     0
281
     0
  0
CLASS
  1
ACCMCONTEXT
  2
AcCmContext
  3
DesignerAssemblies
 90
        0
280
     0
281
     0
  0
CLASS
  1
ACAMCOMPDEF
  2
AcAmCompDef
  3
DesignerAssemblies
 90
        0
280
     0
281
     0
  0
CLASS
  1
ACAMCOMPDEFMGR
  2
AcAmCompDefMgr
  3
DesignerAssemblies
 90
        0
280
     0
281
     0
  0
CLASS
  1
AMCONTEXTMGR
  2
AcAmContextMgr
  3
DesignerAssemblies
 90
        0
280
     0
281
     0
  0
CLASS
  1
ACAMCONTEXTMODELER
  2
AcAmContextModeler
  3
DesignerAssemblies
 90
        0
280
     0
281
     0
  0
CLASS
  1
CATALOGSTATE
  2
AcAmCatalogState
  3
DesignerAssemblies
 90
        0
280
     0
281
     0
  0
CLASS
  1
ACAMGRCOMPDEFSET
  2
AcAmGrCompDefSet
  3
DesignerAssemblies
 90
        0
280
     0
281
     0
  0
CLASS
  1
AMDTBROWSERDBTAB
  2
AmdtBrowserDbTab
  3
McadcomServices
 90
        0
280
     0
281
     0
  0
CLASS
  1
CBROWSERAPPOBJECT
  2
CBrowserAppObject
  3
McadcomServices
 90
        0
280
     0
281
     0
  0
CLASS
  1
DM_PLACEHOLDER
  2
AcDmSelsetPlaceholder
  3
AcMechDwgViewMgmt
 90
        0
280
     0
281
     0
  0
CLASS
  1
ACMSTANDARDISO
  2
AcmStandardISO
  3
"Amdt_StdImp|Product Description: AutoCAD Mechanical 2004 DX|Company: Autodesk"
 90
        0
280
     0
281
     0
  0
CLASS
  1
AMDTEDGESTANDARDISO
  2
AmdtEdgeStdISO
  3
"Amdt_StdImp|Product Description: AutoCAD Mechanical 2004 DX|Company: Autodesk"
 90
        0
280
     0
281
     0
  0
CLASS
  1
ACMSURFSTANDARDISO
  2
AcmSurfTextStdISO
  3
"Amdt_StdImp|Product Description: AutoCAD Mechanical 2004 DX|Company: Autodesk"
 90
        0
280
     0
281
     0
  0
CLASS
  1
ACMFCFSTANDARDISO
  2
AcmFCFStdISO
  3
"Amdt_StdImp|Product Description: AutoCAD Mechanical 2004 DX|Company: Autodesk"
 90
        0
280
     0
281
     0
  0
CLASS
  1
ACMWELDSTANDARDISO
  2
AcmWeldingStdISO
  3
"Amdt_StdImp|Product Description: AutoCAD Mechanical 2004 DX|Company: Autodesk"
 90
        0
280
     0
281
     0
  0
CLASS
  1
ACMIDSTANDARDISO
  2
AcmIdStdISO
  3
"Amdt_StdImp|Product Description: AutoCAD Mechanical 2004 DX|Company: Autodesk"
 90
        0
280
     0
281
     0
  0
CLASS
  1
ACMDATUMSTANDARDISO
  2
AcmDatumStdISO
  3
"Amdt_StdImp|Product Description: AutoCAD Mechanical 2004 DX|Company: Autodesk"
 90
        0
280
     0
281
     0
  0
CLASS
  1
ACMBOMSTANDARDISO
  2
AcmBOMStdISO
  3
"Amdt_StdImp|Product Description: AutoCAD Mechanical 2004 DX|Company: Autodesk"
 90
        0
280
     0
281
     0
  0
CLASS
  1
ACMDETAILSTANDARDISO
  2
AmdtDetailSymStdISO
  3
"Amdt_StdImp|Product Description: AutoCAD Mechanical 2004 DX|Company: Autodesk"
 90
        0
280
     0
281
     0
  0
CLASS
  1
ACMSECTIONSTANDARDISO
  2
AmdtSectionSymStdISO
  3
"Amdt_StdImp|Product Description: AutoCAD Mechanical 2004 DX|Company: Autodesk"
 90
        0
280
     0
281
     0
  0
CLASS
  1
ACMCENTERLINESTANDARDISO
  2
AmdtCenterLineStdISO
  3
"Amdt_StdImp|Product Description: AutoCAD Mechanical 2004 DX|Company: Autodesk"
 90
        0
280
     0
281
     0
  0
CLASS
  1
ACMNOTESTANDARDISO
  2
AmdtNoteStdISO
  3
"Amdt_StdImp|Product Description: AutoCAD Mechanical 2004 DX|Company: Autodesk"
 90
        0
280
     0
281
     0
  0
CLASS
  1
AMDTNOTETEMPLATEDB
  2
AmdtNoteTemplateDB
  3
AMDT_STDIMP_MODULE_NAME
 90
        0
280
     0
281
     0
  0
CLASS
  1
ACAMGLAYSTD
  2
AcAmgLayStd
  3
"AcAmgLayStd|Product Description: AutoCAD Mechanical 2000|Company: Autodesk"
 90
        0
280
     0
281
     0
  0
CLASS
  1
ACAMGDIMSTD
  2
AcAmgDimStd
  3
"AcAmgDimStd|Product Description: AutoCAD Mechanical 2000|Company: Autodesk"
 90
        0
280
     0
281
     0
  0
CLASS
  1
ACAMGHOLECHARTSTDISO
  2
AcAmgHoleChartStdISO
  3
ACMSYMBB_MODULE_NAME
 90
        0
280
     0
281
     0
  0
CLASS
  1
ACAMGTITLESTD
  2
AcAmgTitleStd
  3
"TITLEAPP"
 90
        0
280
     0
281
     0
  0
CLASS
  1
ACMTHREADLINESTANDARDISO
  2
AmdtThreadLineStdISO
  3
"Amdt_StdImp|Product Description: AutoCAD Mechanical 2004 DX|Company: Autodesk"
 90
        0
280
     0
281
     0
  0
CLASS
  1
ACMFCFSTANDARDJIS98
  2
AcmFCFStdJIS98
  3
"Amdt_StdImp|Product Description: AutoCAD Mechanical 2004 DX|Company: Autodesk"
 90
        0
280
     0
281
     0
  0
CLASS
  1
ACMDETAILSTANDARDJIS
  2
AmdtDetailSymStdJIS
  3
"Amdt_StdImp|Product Description: AutoCAD Mechanical 2004 DX|Company: Autodesk"
 90
        0
280
     0
281
     0
  0
CLASS
  1
ACMSECTIONSTANDARDJIS
  2
AmdtSectionSymStdJIS
  3
"Amdt_StdImp|Product Description: AutoCAD Mechanical 2004 DX|Company: Autodesk"
 90
        0
280
     0
281
     0
  0
CLASS
  1
ACMCENTERLINESTANDARDJIS
  2
AmdtCenterLineStdJIS
  3
"Amdt_StdImp|Product Description: AutoCAD Mechanical 2004 DX|Company: Autodesk"
 90
        0
280
     0
281
     0
  0
CLASS
  1
ACMTHREADLINESTANDARDJIS
  2
AmdtThreadLineStdJIS
  3
"Amdt_StdImp|Product Description: AutoCAD Mechanical 2004 DX|Company: Autodesk"
 90
        0
280
     0
281
     0
  0
CLASS
  1
ACMNOTESTANDARDJIS
  2
AmdtNoteStdJIS
  3
"Amdt_StdImp|Product Description: AutoCAD Mechanical 2004 DX|Company: Autodesk"
 90
        0
280
     0
281
     0
  0
CLASS
  1
ACAMGHOLECHARTSTDJIS
  2
AcAmgHoleChartStdJIS
  3
ACMSYMBB_MODULE_NAME
 90
        0
280
     0
281
     0
  0
ENDSEC
  0
SECTION
  2
TABLES
  0
TABLE
  2
VPORT
  5
8
330
0
100
AcDbSymbolTable
 70
     3
  0
VPORT
  5
A510
330
8
100
AcDbSymbolTableRecord
100
AcDbViewportTableRecord
  2
*Active
 70
     0
 10
0.0
 20
0.0
 11
1.0
 21
1.0
 12
-49.85582969584979
 22
-12.44989466647131
 13
0.0
 23
0.0
 14
2.5
 24
2.5
 15
10.0
 25
10.0
 16
0.0
 26
0.0
 36
1.0
 17
0.0
 27
0.0
 37
0.0
 40
163.1204552705762
 41
1.732758620689655
 42
50.0
 43
0.0
 44
0.0
 50
0.0
 51
0.0
 71
     0
 72
   100
 73
     1
 74
     3
 75
     0
 76
     0
 77
     0
 78
     0
281
     0
 65
     1
110
-0.0000000000002682
120
0.000000000000161
130
0.0
111
1.0
121
0.000000000000002
131
0.0
112
-0.000000000000002
122
1.0
132
0.0
 79
     0
146
0.0
  0
ENDTAB
  0
TABLE
  2
LTYPE
  5
5
330
0
100
AcDbSymbolTable
 70
    17
  0
LTYPE
  5
14
330
5
100
AcDbSymbolTableRecord
100
AcDbLinetypeTableRecord
  2
BYBLOCK
 70
     0
  3

 72
    65
 73
     0
 40
0.0
  0
LTYPE
  5
15
330
5
100
AcDbSymbolTableRecord
100
AcDbLinetypeTableRecord
  2
BYLAYER
 70
     0
  3

 72
    65
 73
     0
 40
0.0
  0
LTYPE
  5
16
330
5
100
AcDbSymbolTableRecord
100
AcDbLinetypeTableRecord
  2
CONTINUOUS
 70
     0
  3
Solid line
 72
    65
 73
     0
 40
0.0
  0
LTYPE
  5
4B
330
5
100
AcDbSymbolTableRecord
100
AcDbLinetypeTableRecord
  2
AM_ISO02W050
 70
     0
  3
__ __ __ __ __ __ __ __ __ __ __ __ __ __ __
 72
    65
 73
     2
 40
7.5
 49
6.0
 74
     0
 49
-1.5
 74
     0
  0
LTYPE
  5
4C
330
5
100
AcDbSymbolTableRecord
100
AcDbLinetypeTableRecord
  2
AM_ISO08W050
 70
     0
  3
____ . ____ . ____ . ____ . ____ . ____ . ____
 72
    65
 73
     4
 40
18.0
 49
12.0
 74
     0
 49
-1.5
 74
     0
 49
3.0
 74
     0
 49
-1.5
 74
     0
  0
LTYPE
  5
4D
330
5
100
AcDbSymbolTableRecord
100
AcDbLinetypeTableRecord
  2
AM_ISO09W050
 70
     0
  3
_____ . . _____ . . _____ . . ____ .. ____
 72
    65
 73
     6
 40
22.5
 49
12.0
 74
     0
 49
-1.5
 74
     0
 49
3.0
 74
     0
 49
-1.5
 74
     0
 49
3.0
 74
     0
 49
-1.5
 74
     0
  0
LTYPE
  5
4E
330
5
100
AcDbSymbolTableRecord
100
AcDbLinetypeTableRecord
  2
Amconstr
 70
     0
  3
_______________________
 72
    65
 73
     2
 40
9999.0
 49
9999.0
 74
     0
 49
0.0
 74
     0
  0
LTYPE
  5
4F
330
5
100
AcDbSymbolTableRecord
100
AcDbLinetypeTableRecord
  2
AM_ISO02W050x2
 70
     0
  3
 _ _ _ _ _ _ _ _ _ _ _ _
 72
    65
 73
     2
 40
3.75
 49
3.0
 74
     0
 49
-0.75
 74
     0
  0
LTYPE
  5
50
330
5
100
AcDbSymbolTableRecord
100
AcDbLinetypeTableRecord
  2
AM_ISO08W050x2
 70
     0
  3
__ . __ . __ . __ . __ . __
 72
    65
 73
     4
 40
9.0
 49
6.0
 74
     0
 49
-0.75
 74
     0
 49
1.5
 74
     0
 49
-0.75
 74
     0
  0
LTYPE
  5
53
330
5
100
AcDbSymbolTableRecord
100
AcDbLinetypeTableRecord
  2
Amzigzag
 70
     0
  3
/\/-/\/-/\/-/\/-/\/-/\/
 72
    65
 73
     2
 40
11.0001
 49
0.0001
 74
     4
 75
   135
340
52
 46
0.04
 50
0.0
 44
0.0
 45
0.0
 49
-11.0
 74
     0
  0
LTYPE
  5
166
330
5
100
AcDbSymbolTableRecord
100
AcDbLinetypeTableRecord
  2
ACJISTGL
 70
     0
  3
_ _ _ _ _
 72
    65
 73
     2
 40
3.0
 49
2.0
 74
     0
 49
-1.0
 74
     0
  0
LTYPE
  5
26A
330
5
100
AcDbSymbolTableRecord
100
AcDbLinetypeTableRecord
  2
ACJISTGB
 70
     0
  3
__ . . __ . .
 72
    65
 73
     6
 40
9.0
 49
4.0
 74
     0
 49
-1.0
 74
     0
 49
1.0
 74
     0
 49
-1.0
 74
     0
 49
1.0
 74
     0
 49
-1.0
 74
     0
  0
LTYPE
  5
A486
330
5
100
AcDbSymbolTableRecord
100
AcDbLinetypeTableRecord
  2
HIDDEN
 70
     0
  3
Hidden __ __ __ __ __ __ __ __ __ __ __ __ __ _
 72
    65
 73
     2
 40
9.524999999999998
 49
6.349999999999999
 74
     0
 49
-3.174999999999999
 74
     0
  0
LTYPE
  5
A487
330
5
100
AcDbSymbolTableRecord
100
AcDbLinetypeTableRecord
  2
PHANTOM2
 70
     0
  3
Phantom (.5x) ___ _ _ ___ _ _ ___ _ _ ___ _ _
 72
    65
 73
     6
 40
31.75
 49
15.875
 74
     0
 49
-3.174999999999999
 74
     0
 49
3.174999999999999
 74
     0
 49
-3.174999999999999
 74
     0
 49
3.174999999999999
 74
     0
 49
-3.174999999999999
 74
     0
  0
LTYPE
  5
A488
330
5
100
AcDbSymbolTableRecord
100
AcDbLinetypeTableRecord
  2
CENTER
 70
     0
  3
__ . __
 72
    65
 73
     4
 40
7.0
 49
4.0
 74
     0
 49
-1.0
 74
     0
 49
1.0
 74
     0
 49
-1.0
 74
     0
  0
LTYPE
  5
A4B9
330
5
100
AcDbSymbolTableRecord
100
AcDbLinetypeTableRecord
  2
ACISOWELD
 70
     0
  3
_ _ _ _ _
 72
    65
 73
     2
 40
2.0
 49
2.0
 74
     0
 49
-1.0
 74
     0
  0
LTYPE
  5
A4BC
330
5
100
AcDbSymbolTableRecord
100
AcDbLinetypeTableRecord
  2
ACISOTGB
 70
     0
  3
__ . . __ . .
 72
    65
 73
     6
 40
9.0
 49
4.0
 74
     0
 49
-1.0
 74
     0
 49
1.0
 74
     0
 49
-1.0
 74
     0
 49
1.0
 74
     0
 49
-1.0
 74
     0
  0
LTYPE
  5
A4BD
330
5
100
AcDbSymbolTableRecord
100
AcDbLinetypeTableRecord
  2
ACISOTGL
 70
     0
  3
_ _ _ _ _
 72
    65
 73
     2
 40
3.0
 49
2.0
 74
     0
 49
-1.0
 74
     0
  0
LTYPE
  5
A4E6
330
5
100
AcDbSymbolTableRecord
100
AcDbLinetypeTableRecord
  2
ACJISWELD
 70
     0
  3
_ _ _ _ _
 72
    65
 73
     2
 40
2.0
 49
2.0
 74
     0
 49
-1.0
 74
     0
  0
ENDTAB
  0
TABLE
  2
LAYER
  5
2
330
0
100
AcDbSymbolTable
 70
     7
  0
LAYER
  5
10
330
2
100
AcDbSymbolTableRecord
100
AcDbLayerTableRecord
  2
0
 70
     0
 62
     7
  6
CONTINUOUS
370
    -3
390
F
  0
LAYER
  5
3F9
330
2
100
AcDbSymbolTableRecord
100
AcDbLayerTableRecord
  2
AM_0
 70
     0
 62
     7
  6
CONTINUOUS
370
    -3
390
F
  0
LAYER
  5
BA4
330
2
100
AcDbSymbolTableRecord
100
AcDbLayerTableRecord
  2
AM_5
 70
     0
 62
     3
  6
CONTINUOUS
370
    -3
390
F
  0
LAYER
  5
BA6
330
2
100
AcDbSymbolTableRecord
100
AcDbLayerTableRecord
  2
AM_7
 70
     0
 62
     4
  6
AM_ISO08W050
370
    -3
390
F
  0
LAYER
  5
E64
330
2
100
AcDbSymbolTableRecord
100
AcDbLayerTableRecord
  2
AM_6
 70
     0
 62
     2
  6
CONTINUOUS
370
    -3
390
F
  0
LAYER
  5
F4D
330
2
100
AcDbSymbolTableRecord
100
AcDbLayerTableRecord
  2
DEFPOINTS
 70
     0
 62
     7
  6
CONTINUOUS
290
     0
370
    -3
390
F
  0
LAYER
  5
4E80
330
2
100
AcDbSymbolTableRecord
100
AcDbLayerTableRecord
  2
AM_11
 70
     0
 62
     3
  6
AM_ISO09W050
370
    -3
390
F
  0
ENDTAB
  0
TABLE
  2
STYLE
  5
3
330
0
100
AcDbSymbolTable
 70
     7
  0
STYLE
  5
11
330
3
100
AcDbSymbolTableRecord
100
AcDbTextStyleTableRecord
  2
STANDARD
 70
     0
 40
0.0
 41
1.0
 50
0.0
 71
     0
 42
2.5
  3
simplex.shx
  4
EXTFONT.SHX
  0
STYLE
  5
52
330
3
100
AcDbSymbolTableRecord
100
AcDbTextStyleTableRecord
  2

 70
     1
 40
0.0
 41
1.0
 50
0.0
 71
     0
 42
2.5
  3
ltypeshp.shx
  4

  0
STYLE
  5
6B
330
3
100
AcDbSymbolTableRecord
100
AcDbTextStyleTableRecord
  2
ASAMI
 70
     0
 40
0.0
 41
1.0
 50
0.0
 71
     0
 42
2.5
  3
simplex.shx
  4
EXTFONT.SHX
  0
STYLE
  5
262
330
3
100
AcDbSymbolTableRecord
100
AcDbTextStyleTableRecord
  2
ACJISTS
 70
     0
 40
1.0
 41
1.0
 50
0.0
 71
     0
 42
1.0
  3
isocp.shx
  4
extfont.shx
  0
STYLE
  5
269
330
3
100
AcDbSymbolTableRecord
100
AcDbTextStyleTableRecord
  2
ACJISGDT
 70
     0
 40
0.0
 41
1.0
 50
0.0
 71
     0
 42
1.0
  3
amgdt.shx
  4

  0
STYLE
  5
A4B3
330
3
100
AcDbSymbolTableRecord
100
AcDbTextStyleTableRecord
  2
ACISOTS
 70
     0
 40
3.5
 41
1.0
 50
5.0
 71
     0
 42
3.799999999999999
  3
isocp.shx
  4
extfont.shx
  0
STYLE
  5
A4B7
330
3
100
AcDbSymbolTableRecord
100
AcDbTextStyleTableRecord
  2
ACISOGDT
 70
     0
 40
0.0
 41
1.0
 50
0.0
 71
     0
 42
2.5
  3
amgdt.shx
  4
extfont.shx
  0
ENDTAB
  0
TABLE
  2
VIEW
  5
6
330
0
100
AcDbSymbolTable
 70
     0
  0
ENDTAB
  0
TABLE
  2
UCS
  5
7
330
0
100
AcDbSymbolTable
 70
     0
  0
ENDTAB
  0
TABLE
  2
APPID
  5
9
330
0
100
AcDbSymbolTable
 70
    36
  0
APPID
  5
12
330
9
100
AcDbSymbolTableRecord
100
AcDbRegAppTableRecord
  2
ACAD
 70
     0
  0
APPID
  5
30
330
9
100
AcDbSymbolTableRecord
100
AcDbRegAppTableRecord
  2
MCAD_NO_VIS
 70
     0
  0
APPID
  5
31
330
9
100
AcDbSymbolTableRecord
100
AcDbRegAppTableRecord
  2
ACAD_TEMP_GRAPHIC
 70
     0
  0
APPID
  5
2C2
330
9
100
AcDbSymbolTableRecord
100
AcDbRegAppTableRecord
  2
GENIUS_GENDTOL_13
 70
     0
  0
APPID
  5
339
330
9
100
AcDbSymbolTableRecord
100
AcDbRegAppTableRecord
  2
GENIUS_GENODEF_13
 70
     0
  0
APPID
  5
33A
330
9
100
AcDbSymbolTableRecord
100
AcDbRegAppTableRecord
  2
GENIUS_GENOBJ-N-RSBK_13
 70
     0
  0
APPID
  5
33B
330
9
100
AcDbSymbolTableRecord
100
AcDbRegAppTableRecord
  2
GENIUS_GENOBJ-N-LIB_13
 70
     0
  0
APPID
  5
33C
330
9
100
AcDbSymbolTableRecord
100
AcDbRegAppTableRecord
  2
GENIUS_GENSCALE_13
 70
     0
  0
APPID
  5
378
330
9
100
AcDbSymbolTableRecord
100
AcDbRegAppTableRecord
  2
GENIUS_GENDIMSH_14
 70
     0
  0
APPID
  5
BB0
330
9
100
AcDbSymbolTableRecord
100
AcDbRegAppTableRecord
  2
GENIUS_GENOBJ-N-CEN_13
 70
     0
  0
APPID
  5
BB1
330
9
100
AcDbSymbolTableRecord
100
AcDbRegAppTableRecord
  2
GENIUS_GENFIL_13
 70
     0
  0
APPID
  5
BB2
330
9
100
AcDbSymbolTableRecord
100
AcDbRegAppTableRecord
  2
GENIUS_GENOBJ-N-CHA_13
 70
     0
  0
APPID
  5
1FAF
330
9
100
AcDbSymbolTableRecord
100
AcDbRegAppTableRecord
  2
GENIUS_GENOBJ-N-CRS_13
 70
     0
  0
APPID
  5
1FB0
330
9
100
AcDbSymbolTableRecord
100
AcDbRegAppTableRecord
  2
GENIUS_GENOENT_13
 70
     0
  0
APPID
  5
1FB1
330
9
100
AcDbSymbolTableRecord
100
AcDbRegAppTableRecord
  2
GENIUS_GENOREF_13
 70
     0
  0
APPID
  5
1FB2
330
9
100
AcDbSymbolTableRecord
100
AcDbRegAppTableRecord
  2
GENIUS_GENOLIS_13
 70
     0
  0
APPID
  5
1FB7
330
9
100
AcDbSymbolTableRecord
100
AcDbRegAppTableRecord
  2
GENIUS_GENOBJ-N-FIL_13
 70
     0
  0
APPID
  5
22A8
330
9
100
AcDbSymbolTableRecord
100
AcDbRegAppTableRecord
  2
GEVID1056506048
 70
     0
  0
APPID
  5
22A9
330
9
100
AcDbSymbolTableRecord
100
AcDbRegAppTableRecord
  2
GEVDC
 70
     0
  0
APPID
  5
22AC
330
9
100
AcDbSymbolTableRecord
100
AcDbRegAppTableRecord
  2
GENIUS_GENBH_13
 70
     0
  0
APPID
  5
22B8
330
9
100
AcDbSymbolTableRecord
100
AcDbRegAppTableRecord
  2
GENIUS_GENOBJ-NBEHI-BHF_13
 70
     0
  0
APPID
  5
22BA
330
9
100
AcDbSymbolTableRecord
100
AcDbRegAppTableRecord
  2
GENIUS_GENOBJ-NBEHI-BHB_13
 70
     0
  0
APPID
  5
35C9
330
9
100
AcDbSymbolTableRecord
100
AcDbRegAppTableRecord
  2
GENIUS_GENREC_14
 70
     0
  0
APPID
  5
35CA
330
9
100
AcDbSymbolTableRecord
100
AcDbRegAppTableRecord
  2
GENIUS_GENOBJ-N-REC_13
 70
     0
  0
APPID
  5
A44C
330
9
100
AcDbSymbolTableRecord
100
AcDbRegAppTableRecord
  2
ACATTRIBSERVICES
 70
     0
  0
APPID
  5
A44D
330
9
100
AcDbSymbolTableRecord
100
AcDbRegAppTableRecord
  2
AD_DRAW
 70
     0
  0
APPID
  5
A44E
330
9
100
AcDbSymbolTableRecord
100
AcDbRegAppTableRecord
  2
DESIGNERASSEMBLIES
 70
     0
  0
APPID
  5
A44F
330
9
100
AcDbSymbolTableRecord
100
AcDbRegAppTableRecord
  2
ACADM_DIM_EDIT
 70
     0
  0
APPID
  5
A450
330
9
100
AcDbSymbolTableRecord
100
AcDbRegAppTableRecord
  2
AMDT_DM_ADJ
 70
     0
  0
APPID
  5
A451
330
9
100
AcDbSymbolTableRecord
100
AcDbRegAppTableRecord
  2
ACAD_DSTYLE_DIMTEXT_FILL
 70
     0
  0
APPID
  5
A452
330
9
100
AcDbSymbolTableRecord
100
AcDbRegAppTableRecord
  2
ACAD_PSEXT
 70
     0
  0
APPID
  5
A453
330
9
100
AcDbSymbolTableRecord
100
AcDbRegAppTableRecord
  2
ACAD_DIMASSOC_DIMLFAC
 70
     0
  0
APPID
  5
A454
330
9
100
AcDbSymbolTableRecord
100
AcDbRegAppTableRecord
  2
ACAD_DIMASSOC_CALC_DIMLFAC
 70
     0
  0
APPID
  5
A455
330
9
100
AcDbSymbolTableRecord
100
AcDbRegAppTableRecord
  2
ACAD_DIMASSOC_OVERRIDDEN_DIMLFAC
 70
     0
  0
APPID
  5
A50A
330
9
100
AcDbSymbolTableRecord
100
AcDbRegAppTableRecord
  2
GENIUS_GENSCREG_15
 70
     0
  0
APPID
  5
A50B
330
9
100
AcDbSymbolTableRecord
100
AcDbRegAppTableRecord
  2
GENIUS_GENOBJ-N-SDF_13
 70
     0
  0
ENDTAB
  0
TABLE
  2
DIMSTYLE
  5
A
330
0
100
AcDbSymbolTable
 70
    16
100
AcDbDimStyleTable
 71
     0
  0
DIMSTYLE
105
58
330
A
100
AcDbSymbolTableRecord
100
AcDbDimStyleTableRecord
  2
AM_JIS
 70
     0
  4
"
 41
2.699999999999999
 42
0.0
 43
7.0
 44
0.5
 47
0.1
 48
0.1000000001
 73
     0
 74
     0
 77
     3
 78
     8
 79
     2
140
3.5
141
0.0
143
0.0393701
146
0.71
147
1.0
172
     1
176
     3
177
     3
178
     2
179
     1
271
     2
272
     2
275
     1
283
     0
284
     8
340
11
341
59
342
59
371
    -1
372
    -1
  0
DIMSTYLE
105
5F
330
A
100
AcDbSymbolTableRecord
100
AcDbDimStyleTableRecord
  2
AM_JIS$3
 70
     0
  4
"
 41
2.699999999999999
 42
1.0
 43
10.0
 44
1.0
 47
0.1
 48
0.1000000001
 73
     0
 77
     3
 78
     8
 79
     2
140
3.799999999999999
141
0.0
143
0.0393701
146
0.71
147
1.5
176
   256
177
   256
178
     2
271
     2
272
     2
275
     1
283
     0
284
     8
288
     1
289
     0
340
11
341
59
342
59
371
    -1
372
    -1
  0
DIMSTYLE
105
60
330
A
100
AcDbSymbolTableRecord
100
AcDbDimStyleTableRecord
  2
AM_JIS$4
 70
     0
  4
"
 41
2.699999999999999
 42
1.0
 43
10.0
 44
1.0
 47
0.1
 48
0.1000000001
 73
     0
 77
     3
 78
     8
 79
     2
140
3.799999999999999
141
0.0
143
0.0393701
146
0.71
147
1.5
176
   256
177
   256
178
     2
271
     2
272
     2
275
     1
283
     0
284
     8
288
     1
289
     0
340
11
341
59
342
59
371
    -1
372
    -1
  0
DIMSTYLE
105
61
330
A
100
AcDbSymbolTableRecord
100
AcDbDimStyleTableRecord
  2
AM_JIS$6
 70
     0
  4
"
 41
2.699999999999999
 42
1.0
 43
10.0
 44
1.0
 47
0.1
 48
0.1000000001
 73
     0
 74
     0
 78
     8
 79
     2
140
3.799999999999999
141
0.0
143
0.0393701
146
0.71
147
1.5
172
     1
176
   256
177
   256
178
     2
271
     2
272
     2
275
     1
283
     0
284
     8
340
11
341
59
342
59
371
    -1
372
    -1
  0
DIMSTYLE
105
62
330
A
100
AcDbSymbolTableRecord
100
AcDbDimStyleTableRecord
  2
AM_JIS$7
 70
     0
  4
"
 41
2.699999999999999
 42
1.0
 43
10.0
 44
1.0
 47
0.1
 48
0.1000000001
 73
     0
 74
     0
 77
     3
 78
     8
 79
     2
140
3.5
141
0.0
143
0.0393701
146
0.71
147
1.5
172
     1
176
     3
177
   256
178
     2
271
     2
272
     2
275
     1
283
     0
284
     8
340
11
341
59
342
59
371
    -1
372
    -1
  0
DIMSTYLE
105
63
330
A
100
AcDbSymbolTableRecord
100
AcDbDimStyleTableRecord
  2
AM_JIS$SF
 70
     0
  4
"
 41
2.5
 42
1.0
 43
10.0
 44
1.0
 47
0.1
 48
0.1
 73
     0
 74
     0
 75
     1
 76
     1
 77
     3
 78
     8
 79
     2
140
3.5
141
0.0
143
0.0393701
146
0.71
147
1.5
172
     1
176
   256
177
   256
178
     2
271
     2
272
     3
274
     4
283
     0
284
     8
340
11
341
59
342
59
343
59
344
59
371
    -1
372
    -1
  0
DIMSTYLE
105
68
330
A
100
AcDbSymbolTableRecord
100
AcDbDimStyleTableRecord
  2
AM_JIS$SH
 70
     0
  4
"
 41
2.5
 42
1.0
 43
10.0
 44
1.0
 47
0.1
 48
0.1
 73
     0
 74
     0
 75
     1
 76
     1
 77
     3
 78
     8
 79
     2
140
3.5
141
0.0
143
0.0393701
144
2.0
146
0.71
147
1.5
172
     1
173
     1
176
   256
177
   256
178
     2
271
     2
272
     3
274
     4
283
     0
284
     8
340
11
341
59
342
59
343
64
344
59
371
    -1
372
    -1
  0
DIMSTYLE
105
B34
330
A
100
AcDbSymbolTableRecord
100
AcDbDimStyleTableRecord
  2
AM_JIS$2
 70
     0
  4
"
 41
2.699999999999999
 42
0.0
 43
7.0
 44
0.5
 47
0.1
 48
0.1000000001
 73
     0
 74
     0
 77
     3
 78
     8
 79
     2
140
3.5
141
0.0
143
0.0393701
146
0.71
147
1.0
172
     1
176
     3
177
     3
178
     2
179
     1
271
     2
272
     2
275
     1
283
     0
284
     8
340
11
341
59
342
59
371
    -1
372
    -1
  0
DIMSTYLE
105
3B48
102
{ACAD_REACTORS
330
A090
330
9FE9
330
9F5D
330
9EAD
330
9E21
330
A125
102
}
330
A
100
AcDbSymbolTableRecord
100
AcDbDimStyleTableRecord
  2
AM_JIS$0
 70
     0
  4
"
 41
2.699999999999999
 42
0.0
 43
7.0
 44
0.5
 47
0.1
 48
0.1000000001
 73
     0
 74
     0
 77
     3
 78
     8
 79
     2
140
3.5
141
0.0
143
0.0393701
146
0.71
147
1.0
172
     1
176
     3
177
     3
178
     2
179
     1
271
     2
272
     2
275
     1
283
     0
284
     8
340
11
341
59
342
59
371
    -1
372
    -1
  0
DIMSTYLE
105
A4D2
330
A
100
AcDbSymbolTableRecord
100
AcDbDimStyleTableRecord
  2
AM_ISO
 70
     0
  4
"
 41
2.5
 42
1.0
 43
10.0
 44
1.0
 47
0.1
 48
0.1
 73
     0
 74
     0
 77
     1
 78
     8
 79
     2
140
3.5
141
0.0
143
0.0393701
146
0.71
147
1.5
172
     1
176
   256
177
   256
178
     2
271
     2
272
     3
274
     4
283
     0
284
     8
340
11
371
    -1
372
    -1
  0
DIMSTYLE
105
A4D3
330
A
100
AcDbSymbolTableRecord
100
AcDbDimStyleTableRecord
  2
AM_ISO$3
 70
     0
  4
"
 41
2.5
 42
1.0
 43
10.0
 44
1.0
 47
0.1
 48
0.1
 73
     0
 77
     1
 78
     8
 79
     2
140
3.5
141
0.0
143
0.0393701
146
0.71
147
1.5
176
   256
177
   256
178
     2
271
     2
272
     3
274
     4
283
     0
284
     8
288
     1
289
     0
340
11
371
    -1
372
    -1
  0
DIMSTYLE
105
A4D4
330
A
100
AcDbSymbolTableRecord
100
AcDbDimStyleTableRecord
  2
AM_ISO$4
 70
     0
  4
"
 41
2.5
 42
1.0
 43
10.0
 44
1.0
 47
0.1
 48
0.1
 73
     0
 77
     1
 78
     8
 79
     2
140
3.5
141
0.0
143
0.0393701
146
0.71
147
1.5
176
   256
177
   256
178
     2
271
     2
272
     3
274
     4
283
     0
284
     8
288
     1
289
     0
340
11
371
    -1
372
    -1
  0
DIMSTYLE
105
A4D5
330
A
100
AcDbSymbolTableRecord
100
AcDbDimStyleTableRecord
  2
AM_ISO$6
 70
     0
  4
"
 41
2.5
 42
1.0
 43
10.0
 44
1.0
 47
0.1
 48
0.1
 73
     0
 74
     0
 78
     8
 79
     2
140
3.5
141
0.0
143
0.0393701
146
0.71
147
1.5
172
     1
176
   256
177
   256
178
     2
271
     2
272
     3
274
     4
283
     0
284
     8
340
11
371
    -1
372
    -1
  0
DIMSTYLE
105
A4D6
330
A
100
AcDbSymbolTableRecord
100
AcDbDimStyleTableRecord
  2
AM_ISO$7
 70
     0
  4
"
 41
2.5
 42
1.0
 43
10.0
 44
1.0
 47
0.1
 48
0.1
 73
     0
 74
     0
 77
     1
 78
     8
 79
     2
140
5.0
141
0.0
143
0.0393701
146
0.71
147
1.5
172
     1
176
   256
177
   256
178
     2
271
     2
272
     3
274
     4
283
     0
284
     8
340
11
371
    -1
372
    -1
  0
DIMSTYLE
105
A4D7
330
A
100
AcDbSymbolTableRecord
100
AcDbDimStyleTableRecord
  2
AM_ISO$SF
 70
     0
  4
"
 41
2.5
 42
1.0
 43
10.0
 44
1.0
 47
0.1
 48
0.1
 73
     0
 74
     0
 75
     1
 76
     1
 77
     1
 78
     8
 79
     2
140
3.5
141
0.0
143
0.0393701
146
0.71
147
1.5
172
     1
176
   256
177
   256
178
     2
271
     2
272
     3
274
     4
283
     0
284
     8
340
11
371
    -1
372
    -1
  0
DIMSTYLE
105
A4D8
330
A
100
AcDbSymbolTableRecord
100
AcDbDimStyleTableRecord
  2
AM_ISO$SH
 70
     0
  4
"
 41
2.5
 42
1.0
 43
10.0
 44
1.0
 47
0.1
 48
0.1
 73
     0
 74
     0
 75
     1
 76
     1
 77
     1
 78
     8
 79
     2
140
3.5
141
0.0
143
0.0393701
144
2.0
146
0.71
147
1.5
172
     1
173
     1
176
   256
177
   256
178
     2
271
     2
272
     3
274
     4
283
     0
284
     8
340
11
343
64
371
    -1
372
    -1
  0
ENDTAB
  0
TABLE
  2
BLOCK_RECORD
  5
1
330
0
100
AcDbSymbolTable
 70
     9
  0
BLOCK_RECORD
  5
1F
102
{ACAD_XDICTIONARY
360
74
102
}
330
1
100
AcDbSymbolTableRecord
100
AcDbBlockTableRecord
  2
*MODEL_SPACE
340
A447
  0
BLOCK_RECORD
  5
101
102
{ACAD_XDICTIONARY
360
A405
102
}
330
1
100
AcDbSymbolTableRecord
100
AcDbBlockTableRecord
  2
*PAPER_SPACE
340
A448
  0
BLOCK_RECORD
  5
59
330
1
100
AcDbSymbolTableRecord
100
AcDbBlockTableRecord
  2
_Open30
340
0
  0
BLOCK_RECORD
  5
64
330
1
100
AcDbSymbolTableRecord
100
AcDbBlockTableRecord
  2
GENAXEH
340
0
  0
BLOCK_RECORD
  5
9E22
330
1
100
AcDbSymbolTableRecord
100
AcDbBlockTableRecord
  2
*D2
340
0
  0
BLOCK_RECORD
  5
9EAE
330
1
100
AcDbSymbolTableRecord
100
AcDbBlockTableRecord
  2
*D3
340
0
  0
BLOCK_RECORD
  5
9F5E
330
1
100
AcDbSymbolTableRecord
100
AcDbBlockTableRecord
  2
*D4
340
0
  0
BLOCK_RECORD
  5
9FEA
330
1
100
AcDbSymbolTableRecord
100
AcDbBlockTableRecord
  2
*D5
340
0
  0
BLOCK_RECORD
  5
A091
330
1
100
AcDbSymbolTableRecord
100
AcDbBlockTableRecord
  2
*D6
340
0
  0
BLOCK_RECORD
  5
A126
330
1
100
AcDbSymbolTableRecord
100
AcDbBlockTableRecord
  2
*D7
340
0
  0
ENDTAB
  0
ENDSEC
  0
SECTION
  2
BLOCKS
  0
BLOCK
  5
20
330
1F
100
AcDbEntity
  8
0
100
AcDbBlockBegin
  2
*MODEL_SPACE
 70
     0
 10
0.0
 20
0.0
 30
0.0
  3
*MODEL_SPACE
  1

  0
ENDBLK
  5
21
330
1F
100
AcDbEntity
  8
0
100
AcDbBlockEnd
  0
BLOCK
  5
103
330
101
100
AcDbEntity
 67
     1
  8
0
100
AcDbBlockBegin
  2
*PAPER_SPACE
 70
     0
 10
0.0
 20
0.0
 30
0.0
  3
*PAPER_SPACE
  1

  0
ENDBLK
  5
104
330
101
100
AcDbEntity
 67
     1
  8
0
100
AcDbBlockEnd
  0
BLOCK
  5
A4FA
330
59
100
AcDbEntity
  8
0
100
AcDbBlockBegin
  2
_Open30
 70
     0
 10
0.0
 20
0.0
 30
0.0
  3
_Open30
  1

  0
LINE
  5
A4FB
330
59
100
AcDbEntity
  8
0
  6
ByBlock
 62
     0
370
    -2
100
AcDbLine
 10
-1.0
 20
0.26794919
 30
0.0
 11
0.0
 21
0.0
 31
0.0
  0
LINE
  5
A4FC
330
59
100
AcDbEntity
  8
0
  6
ByBlock
 62
     0
370
    -2
100
AcDbLine
 10
0.0
 20
0.0
 30
0.0
 11
-1.0
 21
-0.26794919
 31
0.0
  0
LINE
  5
A4FD
330
59
100
AcDbEntity
  8
0
  6
ByBlock
 62
     0
370
    -2
100
AcDbLine
 10
0.0
 20
0.0
 30
0.0
 11
-1.0
 21
0.0
 31
0.0
  0
ENDBLK
  5
A4FE
330
59
100
AcDbEntity
  8
0
100
AcDbBlockEnd
  0
BLOCK
  5
A4DA
330
64
100
AcDbEntity
  8
0
100
AcDbBlockBegin
  2
GENAXEH
 70
     0
 10
0.0
 20
0.0
 30
0.0
  3
GENAXEH
  1

  0
LINE
  5
A4DB
330
64
100
AcDbEntity
  8
0
100
AcDbLine
 10
-1.0
 20
0.0
 30
0.0
 11
1.0
 21
0.0
 31
0.0
  0
ENDBLK
  5
A4DC
330
64
100
AcDbEntity
  8
0
100
AcDbBlockEnd
  0
BLOCK
  5
9E2C
330
9E22
100
AcDbEntity
  8
0
100
AcDbBlockBegin
  2
*D2
 70
     1
 10
0.0
 20
0.0
 30
0.0
  3
*D2
  1

  0
LINE
  5
A407
330
9E22
100
AcDbEntity
  8
AM_5
100
AcDbLine
 10
-26.40000000000032
 20
13.81549072265608
 30
0.0
 11
-26.40000000000032
 21
27.81549172265616
 31
0.0
  0
LINE
  5
A408
330
9E22
100
AcDbEntity
  8
AM_5
100
AcDbLine
 10
-0.0000000000003281
 20
13.81549072265618
 30
0.0
 11
-0.0000000000003306
 21
27.81549172265617
 31
0.0
  0
LINE
  5
A409
330
9E22
100
AcDbEntity
  8
AM_5
100
AcDbLine
 10
-23.90000000000032
 20
26.81549172265616
 30
0.0
 11
-2.50000000000033
 21
26.81549172265617
 31
0.0
  0
INSERT
  5
A40A
330
9E22
100
AcDbEntity
  8
AM_5
100
AcDbBlockReference
  2
_Open30
 10
-26.40000000000032
 20
26.81549172265616
 30
0.0
 41
2.5
 42
2.5
 43
2.5
 50
180.0
  0
INSERT
  5
A40B
330
9E22
100
AcDbEntity
  8
AM_5
100
AcDbBlockReference
  2
_Open30
 10
-0.0000000000003305
 20
26.81549172265617
 30
0.0
 41
2.5
 42
2.5
 43
2.5
  0
MTEXT
  5
A40C
330
9E22
100
AcDbEntity
  8
AM_5
 62
     2
100
AcDbMText
 10
-13.20000000000032
 20
29.91549172265618
 30
0.0
 40
3.2
 41
0.0
 71
     5
 72
     1
  1
26
  7
ASAMI
 73
     1
 44
1.0
1001
ACAD
1000
MTEXTBEGIN
1070
    73
1070
     1
1070
    44
1040
1.0
1070
    74
1070
     0
1000
MTEXTEND
  0
POINT
  5
A40D
330
9E22
100
AcDbEntity
  8
DEFPOINTS
 62
     0
100
AcDbPoint
 10
-26.40000000000029
 20
12.81549072265613
 30
0.0
  0
POINT
  5
A40E
330
9E22
100
AcDbEntity
  8
DEFPOINTS
 62
     0
100
AcDbPoint
 10
-0.000000000000302
 20
12.81549072265617
 30
0.0
  0
POINT
  5
A40F
330
9E22
100
AcDbEntity
  8
DEFPOINTS
 62
     0
100
AcDbPoint
 10
-0.0000000000002763
 20
26.81549172265617
 30
0.0
  0
ENDBLK
  5
9E2D
330
9E22
100
AcDbEntity
  8
0
100
AcDbBlockEnd
  0
BLOCK
  5
9EB8
330
9EAE
100
AcDbEntity
  8
0
100
AcDbBlockBegin
  2
*D3
 70
     1
 10
0.0
 20
0.0
 30
0.0
  3
*D3
  1

  0
LINE
  5
A410
330
9EAE
100
AcDbEntity
  8
AM_5
100
AcDbLine
 10
0.9999999999996711
 20
12.81549072265615
 30
0.0
 11
16.55177407128874
 21
12.81549072265618
 31
0.0
  0
LINE
  5
A411
330
9EAE
100
AcDbEntity
  8
AM_5
100
AcDbLine
 10
0.9999999999997744
 20
-12.81549072265585
 30
0.0
 11
16.55177407128879
 21
-12.81549072265582
 31
0.0
  0
LINE
  5
A412
330
9EAE
100
AcDbEntity
  8
AM_5
100
AcDbLine
 10
15.55177407128875
 20
10.31549072265617
 30
0.0
 11
15.55177407128879
 21
-10.31549072265582
 31
0.0
  0
INSERT
  5
A413
330
9EAE
100
AcDbEntity
  8
AM_5
100
AcDbBlockReference
  2
_Open30
 10
15.55177407128874
 20
12.81549072265617
 30
0.0
 41
2.5
 42
2.5
 43
2.5
 50
90.0000000000001
  0
INSERT
  5
A414
330
9EAE
100
AcDbEntity
  8
AM_5
100
AcDbBlockReference
  2
_Open30
 10
15.55177407128879
 20
-12.81549072265582
 30
0.0
 41
2.5
 42
2.5
 43
2.5
 50
270.0000000000001
  0
MTEXT
  5
A415
330
9EAE
100
AcDbEntity
  8
AM_5
 62
     2
100
AcDbMText
 10
12.45177407128877
 20
0.000000000000172
 30
0.0
 40
3.2
 41
0.0
 71
     5
 72
     1
  1
%%c26
  7
ASAMI
 11
-0.000000000000002
 21
1.0
 31
0.0
 73
     1
 44
1.0
1001
ACAD
1000
MTEXTBEGIN
1070
    73
1070
     1
1070
    44
1040
1.0
1070
    74
1070
     0
1000
MTEXTEND
  0
POINT
  5
A416
330
9EAE
100
AcDbEntity
  8
DEFPOINTS
 62
     0
100
AcDbPoint
 10
-0.0000000000003002
 20
12.81549072265615
 30
0.0
  0
POINT
  5
A417
330
9EAE
100
AcDbEntity
  8
DEFPOINTS
 62
     0
100
AcDbPoint
 10
-0.000000000000254
 20
-12.81549072265585
 30
0.0
  0
POINT
  5
A418
330
9EAE
100
AcDbEntity
  8
DEFPOINTS
 62
     0
100
AcDbPoint
 10
15.55177407128876
 20
-12.81549072265585
 30
0.0
  0
ENDBLK
  5
9EB9
330
9EAE
100
AcDbEntity
  8
0
100
AcDbBlockEnd
  0
BLOCK
  5
9F68
330
9F5E
100
AcDbEntity
  8
0
100
AcDbBlockBegin
  2
*D4
 70
     1
 10
0.0
 20
0.0
 30
0.0
  3
*D4
  1

  0
LINE
  5
A419
330
9F5E
100
AcDbEntity
  8
AM_5
100
AcDbLine
 10
-0.0000000000002262
 20
-13.81549072265585
 30
0.0
 11
-0.0000000000001987
 21
-27.81549172265589
 31
0.0
  0
LINE
  5
A41A
330
9F5E
100
AcDbEntity
  8
AM_5
100
AcDbLine
 10
-39.99999547004673
 20
-13.00000572204599
 30
0.0
 11
-39.99999547004668
 21
-27.81549172265597
 31
0.0
  0
LINE
  5
A41B
330
9F5E
100
AcDbEntity
  8
AM_5
100
AcDbLine
 10
-2.5000000000002
 20
-26.81549172265589
 30
0.0
 11
-37.49999547004668
 21
-26.81549172265596
 31
0.0
  0
INSERT
  5
A41C
330
9F5E
100
AcDbEntity
  8
AM_5
100
AcDbBlockReference
  2
_Open30
 10
-0.0000000000002007
 20
-26.81549172265589
 30
0.0
 41
2.5
 42
2.5
 43
2.5
 50
0.0000000000001018
  0
INSERT
  5
A41D
330
9F5E
100
AcDbEntity
  8
AM_5
100
AcDbBlockReference
  2
_Open30
 10
-39.99999547004668
 20
-26.81549172265597
 30
0.0
 41
2.5
 42
2.5
 43
2.5
 50
180.0000000000001
  0
MTEXT
  5
A41E
330
9F5E
100
AcDbEntity
  8
AM_5
 62
     2
100
AcDbMText
 10
-19.99999773502345
 20
-23.71549172265593
 30
0.0
 40
3.2
 41
0.0
 71
     5
 72
     1
  1
40
  7
ASAMI
 73
     1
 44
1.0
1001
ACAD
1000
MTEXTBEGIN
1070
    73
1070
     1
1070
    44
1040
1.0
1070
    74
1070
     0
1000
MTEXTEND
  0
POINT
  5
A41F
330
9F5E
100
AcDbEntity
  8
DEFPOINTS
 62
     0
100
AcDbPoint
 10
-0.000000000000254
 20
-12.81549072265585
 30
0.0
  0
POINT
  5
A420
330
9F5E
100
AcDbEntity
  8
DEFPOINTS
 62
     0
100
AcDbPoint
 10
-39.99999547004675
 20
-12.00000572204591
 30
0.0
  0
POINT
  5
A421
330
9F5E
100
AcDbEntity
  8
DEFPOINTS
 62
     0
100
AcDbPoint
 10
-39.99999547004675
 20
-26.81549172265589
 30
0.0
  0
ENDBLK
  5
9F69
330
9F5E
100
AcDbEntity
  8
0
100
AcDbBlockEnd
  0
BLOCK
  5
9FF4
330
9FEA
100
AcDbEntity
  8
0
100
AcDbBlockBegin
  2
*D5
 70
     1
 10
0.0
 20
0.0
 30
0.0
  3
*D5
  1

  0
LINE
  5
A422
330
9FEA
100
AcDbEntity
  8
AM_5
100
AcDbLine
 10
-39.99999547004673
 20
-13.00000572204599
 30
0.0
 11
-39.99999547004668
 21
-27.81549172265597
 31
0.0
  0
LINE
  5
A423
330
9FEA
100
AcDbEntity
  8
AM_5
100
AcDbLine
 10
-139.9999926090238
 20
-11.16149902343737
 30
0.0
 11
-139.9999926090238
 21
-27.81549172265617
 31
0.0
  0
LINE
  5
A424
330
9FEA
100
AcDbEntity
  8
AM_5
100
AcDbLine
 10
-42.49999547004668
 20
-26.81549172265597
 30
0.0
 11
-137.4999926090237
 21
-26.81549172265617
 31
0.0
  0
INSERT
  5
A425
330
9FEA
100
AcDbEntity
  8
AM_5
100
AcDbBlockReference
  2
_Open30
 10
-39.99999547004668
 20
-26.81549172265597
 30
0.0
 41
2.5
 42
2.5
 43
2.5
 50
0.0000000000001018
  0
INSERT
  5
A426
330
9FEA
100
AcDbEntity
  8
AM_5
100
AcDbBlockReference
  2
_Open30
 10
-139.9999926090238
 20
-26.81549172265617
 30
0.0
 41
2.5
 42
2.5
 43
2.5
 50
180.0000000000001
  0
MTEXT
  5
A427
330
9FEA
100
AcDbEntity
  8
AM_5
 62
     2
100
AcDbMText
 10
-89.99999403953525
 20
-23.71549172265607
 30
0.0
 40
3.2
 41
0.0
 71
     5
 72
     1
  1
100
  7
ASAMI
 73
     1
 44
1.0
1001
ACAD
1000
MTEXTBEGIN
1070
    73
1070
     1
1070
    44
1040
1.0
1070
    74
1070
     0
1000
MTEXTEND
  0
POINT
  5
A428
330
9FEA
100
AcDbEntity
  8
DEFPOINTS
 62
     0
100
AcDbPoint
 10
-39.99999547004675
 20
-12.00000572204591
 30
0.0
  0
POINT
  5
A429
330
9FEA
100
AcDbEntity
  8
DEFPOINTS
 62
     0
100
AcDbPoint
 10
-139.9999926090238
 20
-10.16149902343708
 30
0.0
  0
POINT
  5
A42A
330
9FEA
100
AcDbEntity
  8
DEFPOINTS
 62
     0
100
AcDbPoint
 10
-139.9999926090238
 20
-26.81549172265589
 30
0.0
  0
ENDBLK
  5
9FF5
330
9FEA
100
AcDbEntity
  8
0
100
AcDbBlockEnd
  0
BLOCK
  5
A09B
330
A091
100
AcDbEntity
  8
0
100
AcDbBlockBegin
  2
*D6
 70
     1
 10
0.0
 20
0.0
 30
0.0
  3
*D6
  1

  0
LINE
  5
A42B
330
A091
100
AcDbEntity
  8
AM_5
100
AcDbLine
 10
-0.0000000000002262
 20
-13.81549072265585
 30
0.0
 11
-0.0000000000001791
 21
-37.81549172265589
 31
0.0
  0
LINE
  5
A42C
330
A091
100
AcDbEntity
  8
AM_5
100
AcDbLine
 10
-139.9999926090238
 20
-11.16149902343737
 30
0.0
 11
-139.9999926090237
 21
-37.81549172265618
 31
0.0
  0
LINE
  5
A42D
330
A091
100
AcDbEntity
  8
AM_5
100
AcDbLine
 10
-2.50000000000018
 20
-36.8154917226559
 30
0.0
 11
-137.4999926090237
 21
-36.81549172265618
 31
0.0
  0
INSERT
  5
A42E
330
A091
100
AcDbEntity
  8
AM_5
100
AcDbBlockReference
  2
_Open30
 10
-0.0000000000001811
 20
-36.81549172265589
 30
0.0
 41
2.5
 42
2.5
 43
2.5
 50
0.0000000000001018
  0
INSERT
  5
A42F
330
A091
100
AcDbEntity
  8
AM_5
100
AcDbBlockReference
  2
_Open30
 10
-139.9999926090237
 20
-36.81549172265618
 30
0.0
 41
2.5
 42
2.5
 43
2.5
 50
180.0000000000001
  0
MTEXT
  5
A430
330
A091
100
AcDbEntity
  8
AM_5
 62
     2
100
AcDbMText
 10
-69.99999630451198
 20
-33.71549172265603
 30
0.0
 40
3.2
 41
0.0
 71
     5
 72
     1
  1
140
  7
ASAMI
 73
     1
 44
1.0
1001
ACAD
1000
MTEXTBEGIN
1070
    73
1070
     1
1070
    44
1040
1.0
1070
    74
1070
     0
1000
MTEXTEND
  0
POINT
  5
A431
330
A091
100
AcDbEntity
  8
DEFPOINTS
 62
     0
100
AcDbPoint
 10
-0.000000000000254
 20
-12.81549072265585
 30
0.0
  0
POINT
  5
A432
330
A091
100
AcDbEntity
  8
DEFPOINTS
 62
     0
100
AcDbPoint
 10
-139.9999926090238
 20
-10.16149902343708
 30
0.0
  0
POINT
  5
A433
330
A091
100
AcDbEntity
  8
DEFPOINTS
 62
     0
100
AcDbPoint
 10
-139.9999926090238
 20
-36.81549172265589
 30
0.0
  0
ENDBLK
  5
A09C
330
A091
100
AcDbEntity
  8
0
100
AcDbBlockEnd
  0
BLOCK
  5
A130
330
A126
100
AcDbEntity
  8
0
100
AcDbBlockBegin
  2
*D7
 70
     1
 10
0.0
 20
0.0
 30
0.0
  3
*D7
  1

  0
LINE
  5
A434
330
A126
100
AcDbEntity
  8
AM_5
100
AcDbLine
 10
-137.9999999999993
 20
12.5000076293946
 30
0.0
 11
-159.2162332997952
 21
12.50000762939456
 31
0.0
  0
LINE
  5
A435
330
A126
100
AcDbEntity
  8
AM_5
100
AcDbLine
 10
-137.9999847412102
 20
-12.49998474121138
 30
0.0
 11
-159.2162332997952
 21
-12.49998474121142
 31
0.0
  0
LINE
  5
A436
330
A126
100
AcDbEntity
  8
AM_5
100
AcDbLine
 10
-158.2162332997952
 20
10.00000762939457
 30
0.0
 11
-158.2162332997952
 21
-9.999984741211424
 31
0.0
  0
INSERT
  5
A437
330
A126
100
AcDbEntity
  8
AM_5
100
AcDbBlockReference
  2
_Open30
 10
-158.2162332997952
 20
12.50000762939457
 30
0.0
 41
2.5
 42
2.5
 43
2.5
 50
90.0000000000001
  0
INSERT
  5
A438
330
A126
100
AcDbEntity
  8
AM_5
100
AcDbBlockReference
  2
_Open30
 10
-158.2162332997952
 20
-12.49998474121142
 30
0.0
 41
2.5
 42
2.5
 43
2.5
 50
270.0000000000001
  0
MTEXT
  5
A439
330
A126
100
AcDbEntity
  8
AM_5
 62
     2
100
AcDbMText
 10
-161.3162332997952
 20
0.0000114440915732
 30
0.0
 40
3.2
 41
0.0
 71
     5
 72
     1
  1
%%c25
  7
ASAMI
 11
-0.000000000000002
 21
1.0
 31
0.0
 73
     1
 44
1.0
1001
ACAD
1000
MTEXTBEGIN
1070
    73
1070
     1
1070
    44
1040
1.0
1070
    74
1070
     0
1000
MTEXTEND
  0
POINT
  5
A43A
330
A126
100
AcDbEntity
  8
DEFPOINTS
 62
     0
100
AcDbPoint
 10
-136.9999999999993
 20
12.50000762939491
 30
0.0
  0
POINT
  5
A43B
330
A126
100
AcDbEntity
  8
DEFPOINTS
 62
     0
100
AcDbPoint
 10
-136.9999847412102
 20
-12.49998474121108
 30
0.0
  0
POINT
  5
A43C
330
A126
100
AcDbEntity
  8
DEFPOINTS
 62
     0
100
AcDbPoint
 10
-158.2162332997952
 20
-12.49998474121107
 30
0.0
  0
ENDBLK
  5
A131
330
A126
100
AcDbEntity
  8
0
100
AcDbBlockEnd
  0
ENDSEC
  0
SECTION
  2
ENTITIES
  0
TEXT
  5
388D
330
1F
100
AcDbEntity
  8
AM_6
100
AcDbText
 10
-89.64285344736909
 20
-59.31549172265597
 30
0.0
 40
5.0
  1
WMM2026E
 50
359.9999999999998
 51
359.9999999999998
 72
     4
 11
-69.99999630451194
 21
-56.81549172265603
 31
0.0
100
AcDbText
  0
LINE
  5
9AC5
330
1F
100
AcDbEntity
  8
AM_0
100
AcDbLine
 10
-40.86602377891519
 20
12.50000000000007
 30
0.0
 11
-136.9999923706052
 21
12.49999999999991
 31
0.0
  0
LINE
  5
9AC6
330
1F
100
AcDbEntity
  8
AM_0
100
AcDbLine
 10
-136.9999923706051
 20
-12.50000000000008
 30
0.0
 11
-40.86602377891513
 21
-12.49999999999992
 31
0.0
  0
LINE
  5
9AC7
330
1F
100
AcDbEntity
  8
AM_7
100
AcDbLine
 10
-144.2162322997952
 20
-0.0000000000000995
 30
0.0
 11
1.551773071288723
 21
0.0000000000001563
 31
0.0
  0
ELLIPSE
  5
9ACA
330
1F
100
AcDbEntity
  8
AM_0
100
AcDbEllipse
 10
-18.34934234619128
 20
12.55929565429711
 30
0.0
 11
3.015037417694001
 21
-0.0779113941369955
 31
0.0
210
0.0
220
0.0
230
1.0
 40
0.7866249598327001
 41
5.209702505959131
 42
5.218608882363334
  0
ELLIPSE
  5
9ACB
330
1F
100
AcDbEntity
  8
AM_0
100
AcDbEllipse
 10
-17.21484756469726
 20
9.323547363281114
 30
0.0
 11
-1.273589760523988
 21
-6.769836434791999
 31
0.0
210
0.0
220
0.0
230
1.0
 40
0.0090299669124
 41
1.599755125489084
 42
1.798837488018726
  0
ELLIPSE
  5
9ACC
330
1F
100
AcDbEntity
  8
AM_0
100
AcDbEllipse
 10
-27.26417922973629
 20
7.170959472656091
 30
0.0
 11
2.011882697552999
 21
-0.0547177788209974
 31
0.0
210
0.0
220
0.0
230
1.0
 40
0.7869503627762002
 41
1.898793963398396
 42
1.981816237176104
  0
ELLIPSE
  5
9ACD
330
1F
100
AcDbEntity
  8
AM_0
100
AcDbEllipse
 10
-28.21715927124028
 20
13.26715087890609
 30
0.0
 11
-0.2569464598289819
 21
-11.14035063287601
 31
0.0
210
0.0
220
0.0
230
1.0
 40
0.0290452598294
 41
1.143608571065833
 42
1.182504265764481
  0
ELLIPSE
  5
9ACE
330
1F
100
AcDbEntity
  8
AM_0
100
AcDbEllipse
 10
-27.32397460937527
 20
7.553497314453094
 30
0.0
 11
2.011882697553998
 21
-0.0547177788209973
 31
0.0
210
0.0
220
0.0
230
1.0
 40
0.7869503627762002
 41
3.285489871684259
 42
5.554079679434376
  0
ELLIPSE
  5
9ACF
330
1F
100
AcDbEntity
  8
AM_0
100
AcDbEllipse
 10
-19.22295761108427
 20
8.228942871094101
 30
0.0
 11
2.011882697553998
 21
-0.0547177788209973
 31
0.0
210
0.0
220
0.0
230
1.0
 40
0.7869503627762002
 41
5.806408195176621
 42
5.965437145171099
  0
ELLIPSE
  5
9AD0
330
1F
100
AcDbEntity
  8
AM_0
100
AcDbEllipse
 10
-18.96326065063529
 20
7.421783447265098
 30
0.0
 11
1.508911092899001
 21
-0.0410462292229968
 31
0.0
210
0.0
220
0.0
230
1.0
 40
0.7869506961822001
 41
4.615130766470961
 42
6.344213811398173
  0
ELLIPSE
  5
9AD1
330
1F
100
AcDbEntity
  8
AM_0
100
AcDbEllipse
 10
-27.32397460937527
 20
7.553497314453094
 30
0.0
 11
2.011882697553998
 21
-0.0547177788209973
 31
0.0
210
0.0
220
0.0
230
1.0
 40
0.7869503627762002
 41
1.942612133912265
 42
3.285489490939353
  0
ELLIPSE
  5
9AD2
330
1F
100
AcDbEntity
  8
AM_0
100
AcDbEllipse
 10
-9.879737854004286
 20
7.384735107422133
 30
0.0
 11
-1.755931807051998
 21
-0.9957885026360061
 31
0.0
210
0.0
220
0.0
230
1.0
 40
0.9871184098120997
 41
4.483998365281066
 42
4.603549522601037
  0
ELLIPSE
  5
9AD3
330
1F
100
AcDbEntity
  8
AM_0
100
AcDbEllipse
 10
-10.84996414184627
 20
7.427093505859131
 30
0.0
 11
-0.3318404473899935
 21
-1.987152188933005
 31
0.0
210
0.0
220
0.0
230
1.0
 40
0.1238806983557
 41
3.578117284052823
 42
3.614732483269481
  0
ELLIPSE
  5
9AD4
330
1F
100
AcDbEntity
  8
AM_0
100
AcDbEllipse
 10
-9.879737854004286
 20
7.384735107422133
 30
0.0
 11
-1.755931807051998
 21
-0.9957885026360061
 31
0.0
210
0.0
220
0.0
230
1.0
 40
0.9871174649421
 41
1.99114757908709
 42
2.102661812858523
  0
ELLIPSE
  5
9AD5
330
1F
100
AcDbEntity
  8
AM_0
100
AcDbEllipse
 10
-9.935043334961289
 20
7.387145996094134
 30
0.0
 11
-1.755929880486996
 21
-0.9957885166500046
 31
0.0
210
0.0
220
0.0
230
1.0
 40
0.9871187534886002
 41
1.005425698317427
 42
1.990633711636701
  0
ELLIPSE
  5
9AD6
330
1F
100
AcDbEntity
  8
AM_0
100
AcDbEllipse
 10
-22.34461212158228
 20
10.88067626953109
 30
0.0
 11
0.0484811242070126
 21
-6.852691817844998
 31
0.0
210
0.0
220
0.0
230
1.0
 40
0.8749298611640996
 41
0.5908261465142913
 42
1.485975225882143
  0
ELLIPSE
  5
9AD7
330
1F
100
AcDbEntity
  8
AM_0
100
AcDbEllipse
 10
-9.935043334961289
 20
7.387145996094134
 30
0.0
 11
-1.755929880486996
 21
-0.9957885166500046
 31
0.0
210
0.0
220
0.0
230
1.0
 40
0.9871187534886002
 41
4.567168162614116
 42
7.28861171686241
  0
ELLIPSE
  5
9AD8
330
1F
100
AcDbEntity
  8
AM_0
100
AcDbEllipse
 10
-36.45665740966774
 20
-12.89575195312492
 30
0.0
 11
-1.356559820078896
 21
-1.830413894940997
 31
0.0
210
0.0
220
0.0
230
0.9999999999999998
 40
0.1537930100775
 41
3.711112524129568
 42
4.303296484839435
  0
ELLIPSE
  5
9AD9
330
1F
100
AcDbEntity
  8
AM_0
100
AcDbEllipse
 10
-0.9569244384772705
 20
3.857574462890132
 30
0.0
 11
-0.0348491217009923
 21
-0.7993469295849992
 31
0.0
210
0.0
220
0.0
230
1.0
 40
0.0785448694478
 41
4.860295451413372
 42
5.993719065366227
  0
ELLIPSE
  5
9ADA
330
1F
100
AcDbEntity
  8
AM_0
100
AcDbEllipse
 10
-0.9395790100102747
 20
3.856536865234137
 30
0.0
 11
-0.0417861525460012
 21
-0.7989196634720062
 31
0.0
210
0.0
220
0.0
230
1.0
 40
0.105474921377
 41
6.12828616065821
 42
6.213299269209628
  0
ELLIPSE
  5
9ADB
330
1F
100
AcDbEntity
  8
AM_0
100
AcDbEllipse
 10
70.74286651610471
 20
0.0000305175782541
 30
0.0
 11
317.44855268905
 21
-1.748706483069462
 31
0.0
210
0.0
220
0.0
230
1.0
 40
0.0373977348737
 41
1.828729729629831
 42
1.848632318350189
  0
ELLIPSE
  5
9ADC
330
1F
100
AcDbEntity
  8
AM_0
100
AcDbEllipse
 10
-28.48978805542026
 20
0.0000000000000935
 30
0.0
 11
-9.909786320245578
 21
-11.42971767889301
 31
0.0
210
0.0
220
0.0
230
1.0
 40
0.3688642365548
 41
0.0326650288373989
 42
0.3095443022820776
  0
ELLIPSE
  5
9ADD
330
1F
100
AcDbEntity
  8
AM_0
100
AcDbEllipse
 10
62.04315948485472
 20
0.0000000000002549
 30
0.0
 11
-317.44909441112
 21
-7.455078348807537
 31
0.0
210
0.0
220
0.0
230
1.0
 40
0.0296216034489
 41
1.25119023525236
 42
1.312377148866585
  0
ELLIPSE
  5
9ADE
330
1F
100
AcDbEntity
  8
AM_0
100
AcDbEllipse
 10
-21.06064987182627
 20
0.0000000000001053
 30
0.0
 11
1.97795936184402
 21
-11.99896240548299
 31
0.0
210
0.0
220
0.0
230
1.0
 40
0.0793051669885
 41
0.3997386914717051
 42
0.463327786809613
  0
ELLIPSE
  5
9ADF
330
1F
100
AcDbEntity
  8
AM_0
100
AcDbEllipse
 10
256.0251541137647
 20
0.0000000000005662
 30
0.0
 11
-274.845100697103
 21
-10.39712542239945
 31
0.0
210
0.0
220
0.0
230
1.0
 40
0.0217992769068
 41
6.212912420093684
 42
6.328525112237211
  0
ELLIPSE
  5
9AE0
330
1F
100
AcDbEntity
  8
AM_0
100
AcDbEllipse
 10
-19.80212402343727
 20
0.0000000000000956
 30
0.0
 11
0.9128993694470207
 21
-11.99938919696599
 31
0.0
210
0.0
220
0.0
230
1.0
 40
0.1336877583085
 41
0.5829346353283516
 42
0.634695823874428
  0
ELLIPSE
  5
9AE1
330
1F
100
AcDbEntity
  8
AM_0
100
AcDbEllipse
 10
-0.1771469116212625
 20
0.0007019042971389
 30
0.0
 11
152.625792345516
 21
-6.063769197826741
 31
0.0
210
0.0
220
0.0
230
1.0
 40
0.0678529400747
 41
4.597279983688873
 42
4.604423791950887
  0
ELLIPSE
  5
9AE2
330
1F
100
AcDbEntity
  8
AM_0
100
AcDbEllipse
 10
256.0251541137647
 20
0.0000000000005662
 30
0.0
 11
-274.845100697103
 21
-10.39712542239945
 31
0.0
210
0.0
220
0.0
230
1.0
 40
0.0217992769068
 41
6.02196808011857
 42
6.168413364219112
  0
ELLIPSE
  5
9AE3
330
1F
100
AcDbEntity
  8
AM_0
100
AcDbEllipse
 10
-0.8279647827152681
 20
0.0000000000001337
 30
0.0
 11
-0.6359042109099785
 21
-11.99981664613499
 31
0.0
210
0.0
220
0.0
230
1.0
 40
0.1049567969207
 41
5.264392041817537
 42
5.565620725130896
  0
ELLIPSE
  5
9AE4
330
1F
100
AcDbEntity
  8
AM_0
100
AcDbEllipse
 10
-0.8279647827152681
 20
0.0000000000001337
 30
0.0
 11
-0.6359042109099785
 21
-11.99981664613499
 31
0.0
210
0.0
220
0.0
230
1.0
 40
0.1049567969207
 41
4.640003194998028
 42
4.991053234400273
  0
ELLIPSE
  5
9AE5
330
1F
100
AcDbEntity
  8
AM_0
100
AcDbEllipse
 10
6.657104492187729
 20
0.0000000000001458
 30
0.0
 11
20.70856151503102
 21
-11.57128956832095
 31
0.0
210
0.0
220
0.0
230
1.0
 40
0.1535092310777
 41
4.04930800161578
 42
4.366359105702448
  0
ELLIPSE
  5
9AE6
330
1F
100
AcDbEntity
  8
AM_0
100
AcDbEllipse
 10
46.00985717773372
 20
0.000000000000227
 30
0.0
 11
218.944682185001
 21
-11.86934464322462
 31
0.0
210
0.0
220
0.0
230
1.0
 40
0.0080646706201
 41
1.81808918075778
 42
1.914330178233934
  0
ELLIPSE
  5
9AE7
330
1F
100
AcDbEntity
  8
AM_0
100
AcDbEllipse
 10
-31.61858749389627
 20
0.0000000000000825
 30
0.0
 11
6.004683168248019
 21
-11.98806775378699
 31
0.0
210
0.0
220
0.0
230
1.0
 40
0.0890375380216
 41
2.590156834902514
 42
2.825366937544686
  0
ELLIPSE
  5
9AE8
330
1F
100
AcDbEntity
  8
AM_0
100
AcDbEllipse
 10
53.34299468994071
 20
0.0000305175782357
 30
0.0
 11
317.448731271844
 21
-7.454943252555463
 31
0.0
210
0.0
220
0.0
230
1.0
 40
0.0296215385004
 41
1.829292921789894
 42
1.858978840003936
  0
ELLIPSE
  5
9AE9
330
1F
100
AcDbEntity
  8
AM_0
100
AcDbEllipse
 10
-29.76065063476627
 20
0.000000000000089
 30
0.0
 11
-1.977955296971979
 21
-11.998962109008
 31
0.0
210
0.0
220
0.0
230
1.0
 40
0.0793051732077
 41
2.678671056163756
 42
2.741859276247618
  0
ELLIPSE
  5
9AEA
330
1F
100
AcDbEntity
  8
AM_0
100
AcDbEllipse
 10
38.09360504150372
 20
-0.0001220703127839
 30
0.0
 11
152.6186510788309
 21
-6.063631256038743
 31
0.0
210
0.0
220
0.0
230
1.0
 40
0.0678499185857
 41
4.359181735111841
 42
4.380038128090027
  0
ELLIPSE
  5
9AEB
330
1F
100
AcDbEntity
  8
AM_0
100
AcDbEllipse
 10
-15.91149520874026
 20
0.0000000000001092
 30
0.0
 11
-0.0190739316879781
 21
-12.00000009984599
 31
0.0
210
0.0
220
0.0
230
1.0
 40
0.0900529173337
 41
0.8833285067535078
 42
1.181541927255917
  0
ELLIPSE
  5
9AEC
330
1F
100
AcDbEntity
  8
AM_0
100
AcDbEllipse
 10
-12.89935302734426
 20
0.000000000000134
 30
0.0
 11
-0.0190739316879817
 21
-12.00000009984599
 31
0.0
210
0.0
220
0.0
230
1.0
 40
0.0900529173337
 41
0.8617642941767986
 42
1.199893092027672
  0
ELLIPSE
  5
9AED
330
1F
100
AcDbEntity
  8
AM_0
100
AcDbEllipse
 10
-28.48979187011727
 20
0.0000000000000935
 30
0.0
 11
-9.909782345717784
 21
-11.429718600458
 31
0.0
210
0.0
220
0.0
230
1.0
 40
0.3688642830628999
 41
0.3095442285404792
 42
0.3740340370963084
  0
ELLIPSE
  5
9AEE
330
1F
100
AcDbEntity
  8
AM_0
100
AcDbEllipse
 10
-33.66028976440407
 20
0.0000000000000753
 30
0.0
 11
4.96143778849082
 21
-11.90866056546199
 31
0.0
210
0.0
220
0.0
230
1.0
 40
0.2978318209973
 41
2.771856276143505
 42
3.018148543975393
  0
ELLIPSE
  5
9AF9
330
1F
100
AcDbEntity
  8
AM_0
100
AcDbEllipse
 10
-9.73456954956125
 20
-9.62841796874987
 30
0.0
 11
0.2258682237659997
 21
-0.0353088559479953
 31
0.0
210
0.0
220
0.0
230
0.9999999999999998
 40
0.8616135693143998
 41
4.887632104841065
 42
5.423704738660637
  0
ELLIPSE
  5
9AFA
330
1F
100
AcDbEntity
  8
AM_0
100
AcDbEllipse
 10
-9.720489501953245
 20
-9.647674560546871
 30
0.0
 11
0.2003421736189992
 21
-0.031311057789004
 31
0.0
210
0.0
220
0.0
230
1.0
 40
0.8617198996616
 41
5.423706104024335
 42
5.997937621768735
  0
ELLIPSE
  5
9AFB
330
1F
100
AcDbEntity
  8
AM_0
100
AcDbEllipse
 10
-9.748851776123254
 20
-9.635467529296871
 30
0.0
 11
0.2311706649969949
 21
-0.0361327915479986
 31
0.0
210
0.0
220
0.0
230
1.0
 40
0.8616513019200999
 41
5.997924510516715
 42
6.218717555679099
  0
ELLIPSE
  5
9AFC
330
1F
100
AcDbEntity
  8
AM_0
100
AcDbEllipse
 10
-9.719093322754252
 20
-9.64184570312487
 30
0.0
 11
0.2010879535099975
 21
-0.031433114970994
 31
0.0
210
0.0
220
0.0
230
1.0
 40
0.8617052275559997
 41
6.218721151376685
 42
6.353683394175372
  0
ELLIPSE
  5
9AFD
330
1F
100
AcDbEntity
  8
AM_0
100
AcDbEllipse
 10
-18.30246353149429
 20
12.24877929687511
 30
0.0
 11
-2.964004483123
 21
-0.4633483885270076
 31
0.0
210
0.0
220
0.0
230
1.0
 40
0.8616464442837997
 41
1.651259964110704
 42
1.874970158861641
  0
ELLIPSE
  5
9AFE
330
1F
100
AcDbEntity
  8
AM_0
100
AcDbEllipse
 10
-18.77098083496128
 20
6.191772460937115
 30
0.0
 11
-1.482002216149995
 21
-0.2316589196399998
 31
0.0
210
0.0
220
0.0
230
1.0
 40
0.8616378002466998
 41
3.623414280002586
 42
4.076489954822524
  0
ELLIPSE
  5
9AFF
330
1F
100
AcDbEntity
  8
AM_0
100
AcDbEllipse
 10
-18.76705932617227
 20
6.166687011719103
 30
0.0
 11
-1.482002216149999
 21
-0.2316589196410089
 31
0.0
210
0.0
220
0.0
230
1.0
 40
0.8616378002466998
 41
3.635565491867656
 42
4.081968244770727
  0
ELLIPSE
  5
9B00
330
1F
100
AcDbEntity
  8
AM_0
100
AcDbEllipse
 10
-27.05104446411128
 20
5.807586669922087
 30
0.0
 11
-1.976001626303998
 21
-0.3088988936860024
 31
0.0
210
0.0
220
0.0
230
1.0
 40
0.8616420195529
 41
5.160642116822171
 42
5.680500997832852
  0
ELLIPSE
  5
9B01
330
1F
100
AcDbEntity
  8
AM_0
100
AcDbEllipse
 10
-19.46842575073228
 20
7.798614501953107
 30
0.0
 11
1.996299713513
 21
-0.1215821065009985
 31
0.0
210
0.0
220
0.0
230
1.0
 40
0.78347764124
 41
4.744805219364246
 42
4.924633707807059
  0
ELLIPSE
  5
9B02
330
1F
100
AcDbEntity
  8
AM_0
100
AcDbEllipse
 10
-5.197334289551268
 20
6.037872314453128
 30
0.0
 11
1.499395398730001
 21
-0.0425718849239988
 31
0.0
210
0.0
220
0.0
230
1.0
 40
0.1902214940917
 41
0.33400913646296
 42
3.064751988448085
  0
ELLIPSE
  5
9B03
330
1F
100
AcDbEntity
  8
AM_0
100
AcDbEllipse
 10
-22.54944992065428
 20
7.517303466797103
 30
0.0
 11
5.190387505087998
 21
-0.3161015586069934
 31
0.0
210
0.0
220
0.0
230
1.0
 40
0.7834847397099001
 41
6.243314695035785
 42
6.27603028144509
  0
ELLIPSE
  5
9B04
330
1F
100
AcDbEntity
  8
AM_0
100
AcDbEllipse
 10
-17.33073425293027
 20
7.668487548828115
 30
0.0
 11
0.7980461204819991
 21
-0.0558776636029976
 31
0.0
210
0.0
220
0.0
230
1.0
 40
0.6214058769587
 41
4.718312955231328
 42
4.796427815309652
  0
ELLIPSE
  5
9B05
330
1F
100
AcDbEntity
  8
AM_0
100
AcDbEllipse
 10
-9.602462768555241
 20
-12.24877929687486
 30
0.0
 11
2.964002535601999
 21
-0.4633484973229919
 31
0.0
210
0.0
220
0.0
230
1.0
 40
0.8616469126308999
 41
1.67453154907493
 42
1.748459959776712
  0
ELLIPSE
  5
9B06
330
1F
100
AcDbEntity
  8
AM_0
100
AcDbEllipse
 10
-13.67012405395527
 20
-6.123229980468873
 30
0.0
 11
1.235000597571001
 21
-0.1930542610829968
 31
0.0
210
0.0
220
0.0
230
1.0
 40
0.8616338100056999
 41
3.141592552128121
 42
6.283185307179585
  0
ELLIPSE
  5
9B07
330
1F
100
AcDbEntity
  8
AM_0
100
AcDbEllipse
 10
-13.67012405395527
 20
-6.123229980468873
 30
0.0
 11
1.235000597571001
 21
-0.1930542610829968
 31
0.0
210
0.0
220
0.0
230
1.0
 40
0.8616338100056999
 41
1.704600591277061
 42
3.141592755051463
  0
ELLIPSE
  5
9B08
330
1F
100
AcDbEntity
  8
AM_0
100
AcDbEllipse
 10
-13.67012405395527
 20
-6.123229980468873
 30
0.0
 11
1.235000597571001
 21
-0.1930542610829968
 31
0.0
210
0.0
220
0.0
230
1.0
 40
0.8616338100056999
 41
0.0
 42
1.704600591277061
  0
ELLIPSE
  5
9B09
330
1F
100
AcDbEntity
  8
AM_0
100
AcDbEllipse
 10
-13.67012405395527
 20
-6.123229980468873
 30
0.0
 11
1.482002229498001
 21
-0.2316588342469973
 31
0.0
210
0.0
220
0.0
230
1.0
 40
0.8616378002466998
 41
0.1775098062593523
 42
2.739013295476032
  0
SPLINE
  5
9B1C
330
1F
100
AcDbEntity
  8
AM_0
100
AcDbSpline
210
0.0
220
0.0
230
1.0
 70
     8
 71
     3
 72
    11
 73
     7
 74
     5
 42
0.0000000001
 43
0.0000000001
 44
0.0000000001
 40
0.0
 40
0.0
 40
0.0
 40
0.0
 40
0.0522881355711591
 40
0.1045762711423217
 40
0.1568644690531811
 40
0.2091526046243509
 40
0.2091526046243509
 40
0.2091526046243509
 40
0.2091526046243509
 10
-9.956649780273293
 20
11.98400878906213
 30
0.0
 10
-9.974079130224616
 20
11.98397736322757
 30
0.0
 10
-10.00893783012726
 20
11.98391451155845
 30
0.0
 10
-10.06122593415728
 20
11.98383658264181
 30
0.0
 10
-10.1135139046025
 20
11.98369325918828
 30
0.0
 10
-10.14837264309632
 20
11.98363912675009
 30
0.0
 10
-10.16580200195329
 20
11.98361206054713
 30
0.0
 11
-9.956649780273293
 21
11.98400878906213
 31
0.0
 11
-10.00893783569329
 21
11.98391723632812
 31
0.0
 11
-10.06122589111329
 21
11.98382568359413
 31
0.0
 11
-10.11351394653328
 21
11.98370361328112
 31
0.0
 11
-10.16580200195329
 21
11.98361206054713
 31
0.0
  0
SPLINE
  5
9B1D
330
1F
100
AcDbEntity
  8
AM_0
100
AcDbSpline
210
0.0
220
0.0
230
1.0
 70
     8
 71
     3
 72
    11
 73
     7
 74
     5
 42
0.0000000001
 43
0.0000000001
 44
0.0000000001
 40
0.0
 40
0.0
 40
0.0
 40
0.0
 40
0.0843638397276072
 40
0.168723865356554
 40
0.2530838909854862
 40
0.337447195302554
 40
0.337447195302554
 40
0.337447195302554
 40
0.337447195302554
 10
-18.52853775024424
 20
-10.65945434570288
 30
0.0
 10
-18.55665460913697
 20
-10.65995297544154
 30
0.0
 10
-18.6128870557561
 20
-10.66095021237577
 30
0.0
 10
-18.69723514565748
 20
-10.6624428893447
 30
0.0
 10
-18.78158282770216
 20
-10.66394863741636
 30
0.0
 10
-18.83781555472316
 20
-10.66491972180723
 30
0.0
 10
-18.86593246460023
 20
-10.66540527343788
 30
0.0
 11
-18.52853775024424
 21
-10.65945434570288
 31
0.0
 11
-18.61288833618224
 21
-10.66094970703089
 31
0.0
 11
-18.69723510742224
 21
-10.6624450683599
 31
0.0
 11
-18.78158187866224
 21
-10.66394042968787
 31
0.0
 11
-18.86593246460023
 21
-10.66540527343788
 31
0.0
  0
SPLINE
  5
9B1E
330
1F
100
AcDbEntity
  8
AM_0
100
AcDbSpline
210
0.0
220
0.0
230
1.0
 70
    24
 71
     3
 72
    11
 73
     7
 74
     5
 42
0.0000000001
 43
0.0000000001
 44
0.0000000001
 40
0.0
 40
0.0
 40
0.0
 40
0.0
 40
0.036443623629117
 40
0.0728872472582551
 40
0.1093308708883912
 40
0.1457744945175011
 40
0.1457744945175011
 40
0.1457744945175011
 40
0.1457744945175011
 10
-27.42017745971728
 20
10.66284179687509
 30
0.0
 10
-27.43232345581094
 20
10.66305541992167
 30
0.0
 10
-27.45661544799828
 20
10.66348266601484
 30
0.0
 10
-27.49305343627961
 20
10.66412353515611
 30
0.0
 10
-27.52949142456093
 20
10.66476440429731
 30
0.0
 10
-27.55378341674861
 20
10.66519165039049
 30
0.0
 10
-27.56592941284227
 20
10.66540527343708
 30
0.0
 11
-27.42017745971728
 21
10.66284179687509
 31
0.0
 11
-27.45661544799828
 21
10.66348266601509
 31
0.0
 11
-27.49305343627928
 21
10.66412353515609
 31
0.0
 11
-27.52949142456128
 21
10.66476440429708
 31
0.0
 11
-27.56592941284227
 21
10.66540527343708
 31
0.0
  0
SPLINE
  5
9B47
330
1F
100
AcDbEntity
  8
AM_0
100
AcDbSpline
210
0.0
220
0.0
230
1.0
 70
     8
 71
     3
 72
    11
 73
     7
 74
     5
 42
0.0000000001
 43
0.0000000001
 44
0.0000000001
 40
0.0
 40
0.0
 40
0.0
 40
0.0
 40
0.1130129768306525
 40
0.226853530811568
 40
0.3415516635525285
 40
0.4567982540784958
 40
0.4567982540784958
 40
0.4567982540784958
 40
0.4567982540784958
 10
-17.21398544311526
 20
8.123107910156113
 30
0.0
 10
-17.21758220026382
 20
8.085581164447651
 30
0.0
 10
-17.22480205307634
 20
8.010252870276723
 30
0.0
 10
-17.24847909681794
 20
7.898695049762402
 30
0.0
 10
-17.28066617878142
 20
7.788513543314294
 30
0.0
 10
-17.31035917786567
 20
7.717789097299424
 30
0.0
 10
-17.32524108886728
 20
7.682342529297121
 30
0.0
 11
-17.21398544311526
 21
8.123107910156113
 31
0.0
 11
-17.22688674926829
 21
8.010833740234124
 31
0.0
 11
-17.24979782104527
 21
7.899322509765118
 31
0.0
 11
-17.28264617919928
 21
7.78942871093712
 31
0.0
 11
-17.32524108886728
 21
7.682342529297121
 31
0.0
  0
SPLINE
  5
9B48
330
1F
100
AcDbEntity
  8
AM_0
100
AcDbSpline
210
0.0
220
0.0
230
1.0
 70
     8
 71
     3
 72
    11
 73
     7
 74
     5
 42
0.0000000001
 43
0.0000000001
 44
0.0000000001
 40
0.0
 40
0.0
 40
0.0
 40
0.0
 40
0.1084242137122274
 40
0.2482649584920276
 40
0.4169938502021218
 40
0.6072097772957462
 40
0.6072097772957462
 40
0.6072097772957462
 40
0.6072097772957462
 10
-16.31765365600628
 20
11.06408691406211
 30
0.0
 10
-16.34300271064195
 20
11.03799176015421
 30
0.0
 10
-16.40104585231177
 20
10.97824023344283
 30
0.0
 10
-16.52865983633721
 20
10.91772343678537
 30
0.0
 10
-16.6866652135005
 20
10.86567094629425
 30
0.0
 10
-16.80529478177951
 20
10.84799178144397
 30
0.0
 10
-16.86816024780328
 20
10.83862304687511
 30
0.0
 11
-16.31765365600628
 21
11.06408691406211
 31
0.0
 11
-16.39712142944327
 21
10.9903259277341
 31
0.0
 11
-16.52050018310528
 21
10.9244995117191
 31
0.0
 11
-16.68094635009827
 21
10.87228393554712
 31
0.0
 11
-16.86816024780328
 21
10.83862304687511
 31
0.0
  0
SPLINE
  5
9B49
330
1F
100
AcDbEntity
  8
AM_0
100
AcDbSpline
210
0.0
220
0.0
230
1.0
 70
     8
 71
     3
 72
    11
 73
     7
 74
     5
 42
0.0000000001
 43
0.0000000001
 44
0.0000000001
 40
0.0
 40
0.0
 40
0.0
 40
0.0
 40
0.0065448644365819
 40
0.0134072758049378
 40
0.020592662904505
 40
0.0281264881608746
 40
0.0281264881608746
 40
0.0281264881608746
 40
0.0281264881608746
 10
-37.0084075927733
 20
11.58132934570309
 30
0.0
 10
-37.00736691031082
 20
11.5794108466683
 30
0.0
 10
-37.00523505304549
 20
11.57548076592482
 30
0.0
 10
-37.00143021757084
 20
11.56975838620685
 30
0.0
 10
-36.99710948628441
 20
11.56400014734427
 30
0.0
 10
-36.9938816070233
 20
11.56030298562168
 30
0.0
 10
-36.99222946166976
 20
11.55841064453106
 30
0.0
 11
-37.0084075927733
 21
11.58132934570309
 31
0.0
 11
-37.00520324707009
 21
11.57562255859408
 31
0.0
 11
-37.001438140869
 21
11.56988525390606
 31
0.0
 11
-36.9971122741698
 21
11.56414794921908
 31
0.0
 11
-36.99222946166976
 21
11.55841064453106
 31
0.0
  0
SPLINE
  5
9B4A
330
1F
100
AcDbEntity
  8
AM_0
100
AcDbSpline
210
0.0
220
0.0
230
1.0
 70
     8
 71
     3
 72
    11
 73
     7
 74
     5
 42
0.0000000001
 43
0.0000000001
 44
0.0000000001
 40
0.0
 40
0.0
 40
0.0
 40
0.0
 40
0.0397266421258746
 40
0.0713529340762636
 40
0.1047647158982192
 40
0.1464415166055378
 40
0.1464415166055378
 40
0.1464415166055378
 40
0.1464415166055378
 10
-38.27327346801732
 20
-11.42144775390592
 30
0.0
 10
-38.28277342144131
 20
-11.43107971969919
 30
0.0
 10
-38.29983626677922
 20
-11.4483796721617
 30
0.0
 10
-38.30533758817189
 20
-11.48550905898102
 30
0.0
 10
-38.28759892913395
 20
-11.51836897510757
 30
0.0
 10
-38.26792158604279
 20
-11.53401178363038
 30
0.0
 10
-38.25699996948225
 20
-11.54269409179693
 30
0.0
 11
-38.27327346801732
 21
-11.42144775390592
 31
0.0
 11
-38.29764556884743
 21
-11.45281982421892
 31
0.0
 11
-38.30187988281224
 21
-11.48416137695293
 31
0.0
 11
-38.28754806518535
 21
-11.51434326171893
 31
0.0
 11
-38.25699996948225
 21
-11.54269409179693
 31
0.0
  0
SPLINE
  5
9B4B
330
1F
100
AcDbEntity
  8
AM_0
100
AcDbSpline
210
0.0
220
0.0
230
1.0
 70
     8
 71
     3
 72
    11
 73
     7
 74
     5
 42
0.0000000001
 43
0.0000000001
 44
0.0000000001
 40
0.0
 40
0.0
 40
0.0
 40
0.0
 40
0.3088566379550437
 40
0.6183550098427889
 40
0.9253490928466236
 40
1.227391116138243
 40
1.227391116138243
 40
1.227391116138243
 40
1.227391116138243
 10
-8.511421203613247
 20
-8.964324951171867
 30
0.0
 10
-8.604964500890231
 20
-9.007562152542934
 30
0.0
 10
-8.792245457166311
 20
-9.094126392367597
 30
0.0
 10
-9.053480723363662
 20
-9.25947435097693
 30
0.0
 10
-9.297051918064601
 20
-9.446134252127921
 30
0.0
 10
-9.441067180271751
 20
-9.589488952785945
 30
0.0
 10
-9.512489318848246
 20
-9.660583496093874
 30
0.0
 11
-8.511421203613247
 21
-8.964324951171867
 31
0.0
 11
-8.788879394531258
 21
-9.100006103515873
 31
0.0
 11
-9.05152511596726
 21
-9.26373291015586
 31
0.0
 11
-9.293922424316241
 21
-9.452117919921855
 31
0.0
 11
-9.512489318848246
 21
-9.660583496093874
 31
0.0
  0
SPLINE
  5
9B4C
330
1F
100
AcDbEntity
  8
AM_0
100
AcDbSpline
210
0.0
220
0.0
230
1.0
 70
     8
 71
     3
 72
    11
 73
     7
 74
     5
 42
0.0000000001
 43
0.0000000001
 44
0.0000000001
 40
0.0
 40
0.0
 40
0.0
 40
0.0
 40
1.300683951002005
 40
2.607879499785636
 40
3.902569591320109
 40
5.190757558893356
 40
5.190757558893356
 40
5.190757558893356
 40
5.190757558893356
 10
-14.88053131103524
 20
-4.154205322265881
 30
0.0
 10
-14.77304045011833
 20
-3.726919943219849
 30
0.0
 10
-14.55752059813309
 20
-2.870210071683528
 30
0.0
 10
-13.2129068740354
 20
-2.057226258978178
 30
0.0
 10
-11.96341597563755
 20
-3.031391904294572
 30
0.0
 10
-11.9205823908232
 20
-3.913833033082677
 30
0.0
 10
-11.89921951293924
 20
-4.353942871093881
 30
0.0
 11
-14.88053131103524
 21
-4.154205322265881
 31
0.0
 11
-14.38815689086925
 21
-2.950317382812882
 31
0.0
 11
-13.22393035888727
 21
-2.355895996093872
 31
0.0
 11
-12.15901565551826
 21
-3.092224121093882
 31
0.0
 11
-11.89921951293924
 21
-4.353942871093881
 31
0.0
  0
SPLINE
  5
9B4D
330
1F
100
AcDbEntity
  8
AM_0
100
AcDbSpline
210
0.0
220
0.0
230
1.0
 70
     8
 71
     3
 72
    11
 73
     7
 74
     5
 42
0.0000000001
 43
0.0000000001
 44
0.0000000001
 40
0.0
 40
0.0
 40
0.0
 40
0.0
 40
0.2398079876727905
 40
0.4679520233173134
 40
0.6664229715651456
 40
0.8070245458163988
 40
0.8070245458163988
 40
0.8070245458163988
 40
0.8070245458163988
 10
-37.48985671997045
 20
-11.2695007324219
 30
0.0
 10
-37.56987258713522
 20
-11.27182089266727
 30
0.0
 10
-37.72601245261934
 20
-11.27634836354837
 30
0.0
 10
-37.94566469580968
 20
-11.30562038689465
 30
0.0
 10
-38.13410567009896
 20
-11.34085263084628
 30
0.0
 10
-38.23248074728264
 20
-11.39782379493893
 30
0.0
 10
-38.27327346801732
 20
-11.42144775390592
 30
0.0
 11
-37.48985671997045
 21
-11.2695007324219
 31
0.0
 11
-37.72940444946264
 21
-11.28067016601591
 31
0.0
 11
-37.95576477050754
 21
-11.30914306640591
 31
0.0
 11
-38.14844131469704
 21
-11.35675048828091
 31
0.0
 11
-38.27327346801732
 21
-11.42144775390592
 31
0.0
  0
SPLINE
  5
9B4E
330
1F
100
AcDbEntity
  8
AM_0
100
AcDbSpline
210
0.0
220
0.0
230
1.0
 70
     8
 71
     3
 72
    11
 73
     7
 74
     5
 42
0.0000000001
 43
0.0000000001
 44
0.0000000001
 40
0.0
 40
0.0
 40
0.0
 40
0.0
 40
0.2602090193269667
 40
0.5461371161159202
 40
0.8609988311541387
 40
1.192396372200073
 40
1.192396372200073
 40
1.192396372200073
 40
1.192396372200073
 10
-8.511421203613247
 20
-8.964324951171867
 30
0.0
 10
-8.568101552386861
 20
-8.898255557272845
 30
0.0
 10
-8.687064539525943
 20
-8.759586466013564
 30
0.0
 10
-8.926584196299076
 20
-8.596262867697545
 30
0.0
 10
-9.224021309952016
 20
-8.485667058348498
 30
0.0
 10
-9.441206711706859
 20
-8.493124245264386
 30
0.0
 10
-9.552577972412262
 20
-8.496948242187878
 30
0.0
 11
-8.511421203613247
 21
-8.964324951171867
 31
0.0
 11
-8.68894577026425
 21
-8.774078369140873
 31
0.0
 11
-8.924098968506253
 21
-8.611419677734881
 31
0.0
 11
-9.221351623535252
 21
-8.507598876952862
 31
0.0
 11
-9.552577972412262
 21
-8.496948242187878
 31
0.0
  0
SPLINE
  5
9B4F
330
1F
100
AcDbEntity
  8
AM_0
100
AcDbSpline
210
0.0
220
0.0
230
1.0
 70
     8
 71
     3
 72
    11
 73
     7
 74
     5
 42
0.0000000001
 43
0.0000000001
 44
0.0000000001
 40
0.0
 40
0.0
 40
0.0
 40
0.0
 40
0.350443675370876
 40
0.6979746744547404
 40
1.037659551560651
 40
1.365509034134355
 40
1.365509034134355
 40
1.365509034134355
 40
1.365509034134355
 10
-7.17771530151425
 20
-8.728027343749873
 30
0.0
 10
-7.294658491815704
 20
-8.725813678656956
 30
0.0
 10
-7.527572911212697
 20
-8.721404747119114
 30
0.0
 10
-7.871526140331012
 20
-8.76661262601207
 30
0.0
 10
-8.201928513832147
 20
-8.843697125687002
 30
0.0
 10
-8.40948362546713
 20
-8.924593775628895
 30
0.0
 10
-8.511421203613247
 20
-8.964324951171867
 30
0.0
 11
-7.17771530151425
 21
-8.728027343749873
 31
0.0
 11
-7.528152465820252
 21
-8.730163574218881
 31
0.0
 11
-7.873077392578247
 21
-8.772644042968883
 31
0.0
 11
-8.203262329102255
 21
-8.852416992187873
 31
0.0
 11
-8.511421203613247
 21
-8.964324951171867
 31
0.0
  0
SPLINE
  5
9B50
330
1F
100
AcDbEntity
  8
AM_0
100
AcDbSpline
210
0.0
220
0.0
230
1.0
 70
     8
 71
     3
 72
    11
 73
     7
 74
     5
 42
0.0000000001
 43
0.0000000001
 44
0.0000000001
 40
0.0
 40
0.0
 40
0.0
 40
0.0
 40
1.165782557828406
 40
2.267450653836426
 40
3.403119827655173
 40
4.591824901529564
 40
4.591824901529564
 40
4.591824901529564
 40
4.591824901529564
 10
-3.828552246094252
 20
-6.234649658202858
 30
0.0
 10
-4.226636969107655
 20
-6.13660541530467
 30
0.0
 10
-5.000912977457315
 20
-5.945909061879631
 30
0.0
 10
-5.481020654259231
 20
-4.757321509440596
 30
0.0
 10
-5.02954201711092
 20
-3.536819875543035
 30
0.0
 10
-4.234925830008021
 20
-3.336893654892841
 30
0.0
 10
-3.828552246094247
 20
-3.234649658202859
 30
0.0
 11
-3.828552246094252
 21
-6.234649658202858
 31
0.0
 11
-4.902694702148243
 21
-5.781585693359879
 31
0.0
 11
-5.328208923340251
 21
-4.765411376952849
 31
0.0
 11
-4.919960021973251
 21
-3.705657958984879
 31
0.0
 11
-3.828552246094247
 21
-3.234649658202859
 31
0.0
  0
SPLINE
  5
9B51
330
1F
100
AcDbEntity
  8
AM_0
100
AcDbSpline
210
0.0
220
0.0
230
1.0
 70
     8
 71
     3
 72
    11
 73
     7
 74
     5
 42
0.0000000001
 43
0.0000000001
 44
0.0000000001
 40
0.0
 40
0.0
 40
0.0
 40
0.0
 40
1.964863538938558
 40
4.459303077745923
 40
7.241296511673242
 40
10.12885688517535
 40
10.12885688517535
 40
10.12885688517535
 40
10.12885688517535
 10
-36.17123413085919
 20
10.48727416992208
 30
0.0
 10
-35.77159066924409
 20
9.96603900155188
 30
0.0
 10
-34.86459062417021
 20
8.783083776173594
 30
0.0
 10
-32.95885310561867
 20
7.266063039575082
 30
0.0
 10
-30.48764218951985
 20
6.029769262211315
 30
0.0
 10
-28.60143946975641
 20
5.784880527954699
 30
0.0
 10
-27.64077758789127
 20
5.660156250000082
 30
0.0
 11
-36.17123413085919
 21
10.48727416992208
 31
0.0
 11
-34.92054748535138
 21
8.971862792969078
 31
0.0
 11
-32.98792648315428
 21
7.394775390625078
 31
0.0
 11
-30.47865295410227
 21
6.193511962890087
 31
0.0
 11
-27.64077758789127
 21
5.660156250000082
 31
0.0
  0
SPLINE
  5
9B52
330
1F
100
AcDbEntity
  8
AM_0
100
AcDbSpline
210
0.0
220
0.0
230
1.0
 70
     8
 71
     3
 72
    11
 73
     7
 74
     5
 42
0.0000000001
 43
0.0000000001
 44
0.0000000001
 40
0.0
 40
0.0
 40
0.0
 40
0.0
 40
0.0155459430552788
 40
0.0299663913106862
 40
0.0444784543547026
 40
0.0601418242988144
 40
0.0601418242988144
 40
0.0601418242988144
 40
0.0601418242988144
 10
-37.00561141967759
 20
11.63839721679708
 30
0.0
 10
-37.00827849751323
 20
11.63391184498162
 30
0.0
 10
-37.0134195621495
 20
11.62526583318819
 30
0.0
 10
-37.01613841305299
 20
11.61040129131349
 30
0.0
 10
-37.01462481385107
 20
11.5953776861467
 30
0.0
 10
-37.01053205125686
 20
11.58612974055184
 30
0.0
 10
-37.0084075927733
 20
11.58132934570309
 30
0.0
 11
-37.00561141967759
 21
11.63839721679708
 31
0.0
 11
-37.0127220153807
 21
11.62457275390607
 31
0.0
 11
-37.01544952392559
 21
11.61041259765607
 31
0.0
 11
-37.01395416259749
 21
11.59597778320309
 31
0.0
 11
-37.0084075927733
 21
11.58132934570309
 31
0.0
  0
SPLINE
  5
9B53
330
1F
100
AcDbEntity
  8
AM_0
100
AcDbSpline
210
0.0
220
0.0
230
1.0
 70
     8
 71
     3
 72
    11
 73
     7
 74
     5
 42
0.0000000001
 43
0.0000000001
 44
0.0000000001
 40
0.0
 40
0.0
 40
0.0
 40
0.0
 40
0.0993794716896644
 40
0.1991015176288772
 40
0.2991944289463724
 40
0.3996932295348779
 40
0.3996932295348779
 40
0.3996932295348779
 40
0.3996932295348779
 10
-14.91879653930724
 20
-4.551849365234886
 30
0.0
 10
-14.91726330766026
 20
-4.5187558446342
 30
0.0
 10
-14.914191559113
 20
-4.452454725668157
 30
0.0
 10
-14.90593516869145
 20
-4.353048078913283
 30
0.0
 10
-14.89515837778448
 20
-4.253505784285565
 30
0.0
 10
-14.8854135726922
 20
-4.187350097397396
 30
0.0
 10
-14.88053131103524
 20
-4.154205322265881
 30
0.0
 11
-14.91879653930724
 21
-4.551849365234886
 31
0.0
 11
-14.91359329223625
 21
-4.452606201171889
 31
0.0
 11
-14.90553283691424
 21
-4.353210449218878
 31
0.0
 11
-14.89453887939524
 21
-4.253723144530881
 31
0.0
 11
-14.88053131103524
 21
-4.154205322265881
 31
0.0
  0
SPLINE
  5
9B54
330
1F
100
AcDbEntity
  8
AM_0
100
AcDbSpline
210
0.0
220
0.0
230
1.0
 70
     8
 71
     3
 72
    11
 73
     7
 74
     5
 42
0.0000000001
 43
0.0000000001
 44
0.0000000001
 40
0.0
 40
0.0
 40
0.0
 40
0.0
 40
0.2072966102322042
 40
0.4146371236896489
 40
0.6220518999481827
 40
0.8295415532716143
 40
0.8295415532716143
 40
0.8295415532716143
 40
0.8295415532716143
 10
-7.253463745117255
 20
-8.725616455077869
 30
0.0
 10
-7.257868724001144
 20
-8.794574786853429
 30
0.0
 10
-7.266679614696774
 20
-8.932506055048444
 30
0.0
 10
-7.279549592912964
 20
-9.139456972346737
 30
0.0
 10
-7.292175192887678
 20
-9.346487413450553
 30
0.0
 10
-7.300356021550853
 20
-9.484546744168095
 30
0.0
 10
-7.304447174072243
 20
-9.553588867187869
 30
0.0
 11
-7.253463745117255
 21
-8.725616455077869
 31
0.0
 11
-7.26662063598625
 21
-8.932495117187869
 31
0.0
 11
-7.279506683350243
 21
-9.139434814452869
 31
0.0
 11
-7.292114257812252
 21
-9.346466064452869
 31
0.0
 11
-7.304447174072243
 21
-9.553588867187869
 31
0.0
  0
SPLINE
  5
9B55
330
1F
100
AcDbEntity
  8
AM_0
100
AcDbSpline
210
0.0
220
0.0
230
1.0
 70
     8
 71
     3
 72
    11
 73
     7
 74
     5
 42
0.0000000001
 43
0.0000000001
 44
0.0000000001
 40
0.0
 40
0.0
 40
0.0
 40
0.0
 40
2.219467856565734
 40
4.421287993804225
 40
6.620589082562819
 40
8.837094911246191
 40
8.837094911246191
 40
8.837094911246191
 40
8.837094911246191
 10
-0.1999969482422707
 20
-0.1009216308598643
 30
0.0
 10
-0.2461862977271077
 20
-0.8393237956583535
 30
0.0
 10
-0.3381977299786787
 20
-2.310256846643909
 30
0.0
 10
-0.5228832595390245
 20
-4.509457818978318
 30
0.0
 10
-0.7122041266409446
 20
-6.707247147718624
 30
0.0
 10
-0.8092688252466814
 20
-8.176020879893034
 30
0.0
 10
-0.8579902648932412
 20
-8.913269042968858
 30
0.0
 11
-0.1999969482422707
 21
-0.1009216308598643
 31
0.0
 11
-0.3464584350592802
 21
-2.315551757812861
 31
0.0
 11
-0.523738861084251
 21
-4.510223388671867
 31
0.0
 11
-0.7044525146482559
 21
-6.702087402343857
 31
0.0
 11
-0.8579902648932412
 21
-8.913269042968858
 31
0.0
  0
SPLINE
  5
9B56
330
1F
100
AcDbEntity
  8
AM_0
100
AcDbSpline
210
0.0
220
0.0
230
1.0
 70
     8
 71
     3
 72
    11
 73
     7
 74
     5
 42
0.0000000001
 43
0.0000000001
 44
0.0000000001
 40
0.0
 40
0.0
 40
0.0
 40
0.0
 40
0.288784093690545
 40
0.5770744168643792
 40
0.8639309926589115
 40
1.149345200315922
 40
1.149345200315922
 40
1.149345200315922
 40
1.149345200315922
 10
-0.8579902648932412
 20
-8.913269042968858
 30
0.0
 10
-0.8738174125923341
 20
-9.009331526961299
 30
0.0
 10
-0.9054446463238004
 20
-9.20129224482509
 30
0.0
 10
-1.074548256670905
 20
-9.443917498233039
 30
0.0
 10
-1.310532599604963
 20
-9.621536169560521
 30
0.0
 10
-1.500605063891531
 20
-9.655815921522899
 30
0.0
 10
-1.595401763916249
 20
-9.672912597655848
 30
0.0
 11
-0.8579902648932412
 21
-8.913269042968858
 31
0.0
 11
-0.9258384704592486
 21
-9.193969726562864
 31
0.0
 11
-1.086170196533238
 21
-9.433563232421867
 31
0.0
 11
-1.319255828857258
 21
-9.60076904296886
 31
0.0
 11
-1.595401763916249
 21
-9.672912597655848
 31
0.0
  0
SPLINE
  5
9B57
330
1F
100
AcDbEntity
  8
AM_0
100
AcDbSpline
210
0.0
220
0.0
230
1.0
 70
     8
 71
     3
 72
    11
 73
     7
 74
     5
 42
0.0000000001
 43
0.0000000001
 44
0.0000000001
 40
0.0
 40
0.0
 40
0.0
 40
0.0
 40
0.1484897225696552
 40
0.2969822072783947
 40
0.4454929802116409
 40
0.5939854649196601
 40
0.5939854649196601
 40
0.5939854649196601
 40
0.5939854649196601
 10
-1.288066864014251
 20
-8.503570556640863
 30
0.0
 10
-1.252228452773239
 20
-8.537710256883094
 30
0.0
 10
-1.180550963641195
 20
-8.605990292418923
 30
0.0
 10
-1.0730179296937
 20
-8.708402215914638
 30
0.0
 10
-0.9655215549548685
 20
-8.810853954085475
 30
0.0
 10
-0.8938325568103449
 20
-8.879132081435423
 30
0.0
 10
-0.8579902648932412
 20
-8.913269042968858
 30
0.0
 11
-1.288066864014251
 21
-8.503570556640863
 31
0.0
 11
-1.180549621582254
 21
-8.605987548827863
 31
0.0
 11
-1.073028564453248
 21
-8.708404541015861
 31
0.0
 11
-0.9655113220212527
 21
-8.81085205078086
 31
0.0
 11
-0.8579902648932412
 21
-8.913269042968858
 31
0.0
  0
SPLINE
  5
9B58
330
1F
100
AcDbEntity
  8
AM_0
100
AcDbSpline
210
0.0
220
0.0
230
1.0
 70
     8
 71
     3
 72
    11
 73
     7
 74
     5
 42
0.0000000001
 43
0.0000000001
 44
0.0000000001
 40
0.0
 40
0.0
 40
0.0
 40
0.0
 40
1.052804955619201
 40
2.105692705558672
 40
3.158671328652826
 40
4.211732769889414
 40
4.211732769889414
 40
4.211732769889414
 40
4.211732769889414
 10
-1.595401763916249
 20
-9.672912597655848
 30
0.0
 10
-1.945475791045406
 20
-9.697479647357873
 30
0.0
 10
-2.645651375703313
 20
-9.746615678755279
 30
0.0
 10
-3.695972073104295
 20
-9.820132496352755
 30
0.0
 10
-4.746378471497677
 20
-9.893649362087089
 30
0.0
 10
-5.446687595165361
 20
-9.942535800203124
 30
0.0
 10
-5.79685592651426
 20
-9.966979980468874
 30
0.0
 11
-1.595401763916249
 21
-9.672912597655848
 31
0.0
 11
-2.645626068115254
 21
-9.746582031249872
 31
0.0
 11
-3.69594192504926
 21
-9.820129394530869
 31
0.0
 11
-4.746353149414253
 21
-9.893615722655873
 31
0.0
 11
-5.79685592651426
 21
-9.966979980468874
 31
0.0
  0
SPLINE
  5
9B59
330
1F
100
AcDbEntity
  8
AM_0
100
AcDbSpline
210
0.0
220
0.0
230
1.0
 70
     8
 71
     3
 72
    11
 73
     7
 74
     5
 42
0.0000000001
 43
0.0000000001
 44
0.0000000001
 40
0.0
 40
0.0
 40
0.0
 40
0.0
 40
0.1544065826724837
 40
0.3087921165563056
 40
0.4631776504394168
 40
0.6175814712158095
 40
0.6175814712158095
 40
0.6175814712158095
 40
0.6175814712158095
 10
-1.595401763916249
 20
-9.672912597655848
 30
0.0
 10
-1.632665010503776
 20
-9.637409159624153
 30
0.0
 10
-1.707186423932952
 20
-9.566407123408597
 30
0.0
 10
-1.818988670418875
 20
-9.45993028385906
 30
0.0
 10
-1.930791028047696
 20
-9.353454895633509
 30
0.0
 10
-2.005310219298703
 20
-9.282451861632678
 30
0.0
 10
-2.04257202148424
 20
-9.246948242187851
 30
0.0
 11
-1.595401763916249
 21
-9.672912597655848
 31
0.0
 11
-1.707195281982258
 21
-9.566406249999854
 31
0.0
 11
-1.818988800049247
 21
-9.459930419921859
 31
0.0
 11
-1.930782318115242
 21
-9.353454589843847
 31
0.0
 11
-2.04257202148424
 21
-9.246948242187851
 31
0.0
  0
SPLINE
  5
9B5A
330
1F
100
AcDbEntity
  8
AM_0
100
AcDbSpline
210
0.0
220
0.0
230
1.0
 70
     8
 71
     3
 72
    11
 73
     7
 74
     5
 42
0.0000000001
 43
0.0000000001
 44
0.0000000001
 40
0.0
 40
0.0
 40
0.0
 40
0.0
 40
0.2606776372785386
 40
0.5213319241410391
 40
0.7820095614202181
 40
1.042687198698757
 40
1.042687198698757
 40
1.042687198698757
 40
1.042687198698757
 10
-7.304492950439246
 20
-9.554412841796862
 30
0.0
 10
-7.248550843909208
 20
-9.487923780703731
 30
0.0
 10
-7.136671641909823
 20
-9.354951614330383
 30
0.0
 10
-6.968819727817704
 20
-9.155516140867547
 30
0.0
 10
-6.801000030197443
 20
-8.956053557851101
 30
0.0
 10
-6.689111521296602
 20
-8.823079050533559
 30
0.0
 10
-6.633167266846251
 20
-8.756591796874872
 30
0.0
 11
-7.304492950439246
 21
-9.554412841796862
 31
0.0
 11
-7.13666152954125
 21
-9.354949951171862
 31
0.0
 11
-6.968830108643239
 21
-9.155517578124873
 31
0.0
 11
-6.800998687744248
 21
-8.956054687499872
 31
0.0
 11
-6.633167266846251
 21
-8.756591796874872
 31
0.0
  0
SPLINE
  5
9B5B
330
1F
100
AcDbEntity
  8
AM_0
100
AcDbSpline
210
0.0
220
0.0
230
1.0
 70
     8
 71
     3
 72
    11
 73
     7
 74
     5
 42
0.0000000001
 43
0.0000000001
 44
0.0000000001
 40
0.0
 40
0.0
 40
0.0
 40
0.0
 40
0.039242433038489
 40
0.0785315548788814
 40
0.1177838406902203
 40
0.1570604455732307
 40
0.1570604455732307
 40
0.1570604455732307
 40
0.1570604455732307
 10
-7.282817840576249
 20
-9.709045410155868
 30
0.0
 10
-7.286763153334737
 20
-9.696561304776571
 30
0.0
 10
-7.29465847279935
 20
-9.671578241016318
 30
0.0
 10
-7.301694818851373
 20
-9.632868354165234
 30
0.0
 10
-7.305484516931558
 20
-9.593702038979381
 30
0.0
 10
-7.304823540834397
 20
-9.567511944401079
 30
0.0
 10
-7.304492950439246
 20
-9.554412841796862
 30
0.0
 11
-7.282817840576249
 21
-9.709045410155868
 31
0.0
 11
-7.293853759766257
 21
-9.671386718749873
 31
0.0
 11
-7.301155090332251
 21
-9.632781982421862
 31
0.0
 11
-7.304687500000248
 21
-9.593688964843879
 31
0.0
 11
-7.304492950439246
 21
-9.554412841796862
 31
0.0
  0
SPLINE
  5
9B5C
330
1F
100
AcDbEntity
  8
AM_0
100
AcDbSpline
210
0.0
220
0.0
230
1.0
 70
     8
 71
     3
 72
    11
 73
     7
 74
     5
 42
0.0000000001
 43
0.0000000001
 44
0.0000000001
 40
0.0
 40
0.0
 40
0.0
 40
0.0
 40
0.1143540844505908
 40
0.2289278518054648
 40
0.3439063458701006
 40
0.4592930870526809
 40
0.4592930870526809
 40
0.4592930870526809
 40
0.4592930870526809
 10
-6.926479339600254
 20
-9.954498291015868
 30
0.0
 10
-6.964731323167742
 20
-9.951090181287362
 30
0.0
 10
-7.041308775276038
 20
-9.944267414592035
 30
0.0
 10
-7.146251357547249
 20
-9.893051287014737
 30
0.0
 10
-7.233802048652496
 20
-9.814533512804144
 30
0.0
 10
-7.266459951447266
 20
-9.744249629445674
 30
0.0
 10
-7.282817840576249
 20
-9.709045410155868
 30
0.0
 11
-6.926479339600254
 21
-9.954498291015868
 31
0.0
 11
-7.03955841064526
 21
-9.937469482421862
 31
0.0
 11
-7.143192291260268
 21
-9.888610839843879
 31
0.0
 11
-7.227268218994259
 21
-9.810180664062869
 31
0.0
 11
-7.282817840576249
 21
-9.709045410155868
 31
0.0
  0
SPLINE
  5
9B5D
330
1F
100
AcDbEntity
  8
AM_0
100
AcDbSpline
210
0.0
220
0.0
230
1.0
 70
     8
 71
     3
 72
    11
 73
     7
 74
     5
 42
0.0000000001
 43
0.0000000001
 44
0.0000000001
 40
0.0
 40
0.0
 40
0.0
 40
0.0
 40
0.2680909610442799
 40
0.5361585712187953
 40
0.8042470763375096
 40
1.072314686512015
 40
1.072314686512015
 40
1.072314686512015
 40
1.072314686512015
 10
-0.1999511718752678
 20
-0.100067138671867
 30
0.0
 10
-0.2574825796400725
 20
-0.1684484207673133
 30
0.0
 10
-0.3725403841525075
 20
-0.3052050289110259
 30
0.0
 10
-0.5451624819826045
 20
-0.5103141780680489
 30
0.0
 10
-0.7177361232375558
 20
-0.7154539277356021
 30
0.0
 10
-0.8328112207054855
 20
-0.8521949150178119
 30
0.0
 10
-0.8903465271002579
 20
-0.9205627441408609
 30
0.0
 11
-0.1999511718752678
 21
-0.100067138671867
 31
0.0
 11
-0.3725509643552669
 21
-0.3052062988278617
 31
0.0
 11
-0.545150756836275
 21
-0.5103149414058596
 31
0.0
 11
-0.7177467346192642
 21
-0.7154541015628633
 31
0.0
 11
-0.8903465271002579
 21
-0.9205627441408609
 31
0.0
  0
SPLINE
  5
9B5E
330
1F
100
AcDbEntity
  8
AM_0
100
AcDbSpline
210
0.0
220
0.0
230
1.0
 70
     8
 71
     3
 72
    11
 73
     7
 74
     5
 42
0.0000000001
 43
0.0000000001
 44
0.0000000001
 40
0.0
 40
0.0
 40
0.0
 40
0.0
 40
0.0392717199290551
 40
0.078530856193386
 40
0.1178135358520469
 40
0.1570596235317194
 40
0.1570596235317194
 40
0.1570596235317194
 40
0.1570596235317194
 10
-0.2216262817382655
 20
0.0545654296871385
 30
0.0
 10
-0.217681979818041
 20
0.0420709144593653
 30
0.0
 10
-0.2097946398329317
 20
0.0170858875664537
 30
0.0
 10
-0.202742984577206
 20
-0.0216309065515147
 30
0.0
 10
-0.1989619640235906
 20
-0.0607884228870843
 30
0.0
 10
-0.1996215383717972
 20
-0.0869783013016249
 30
0.0
 10
-0.1999511718752678
 20
-0.100067138671867
 30
0.0
 11
-0.2216262817382655
 21
0.0545654296871385
 31
0.0
 11
-0.210590362549267
 21
0.016876220703133
 31
0.0
 11
-0.2032890319822779
 21
-0.021697998046867
 31
0.0
 11
-0.1997566223142664
 21
-0.0608215332028612
 31
0.0
 11
-0.1999511718752678
 21
-0.100067138671867
 31
0.0
  0
SPLINE
  5
9B5F
330
1F
100
AcDbEntity
  8
AM_0
100
AcDbSpline
210
0.0
220
0.0
230
1.0
 70
     8
 71
     3
 72
    11
 73
     7
 74
     5
 42
0.0000000001
 43
0.0000000001
 44
0.0000000001
 40
0.0
 40
0.0
 40
0.0
 40
0.0
 40
0.1143540844505916
 40
0.228927851805458
 40
0.3438827412049723
 40
0.4592713189124268
 40
0.4592713189124268
 40
0.4592713189124268
 40
0.4592713189124268
 10
-0.5779647827152693
 20
0.2999877929691404
 30
0.0
 10
-0.5397124614123198
 20
0.2965800491892063
 30
0.0
 10
-0.4631343331842898
 20
0.2897580150940378
 30
0.0
 10
-0.3582040378479294
 20
0.2385398941337178
 30
0.0
 10
-0.2706376378134115
 20
0.1600509014188175
 30
0.0
 10
-0.2379838938076364
 20
0.0897713607961618
 30
0.0
 10
-0.2216262817382655
 20
0.0545654296871385
 30
0.0
 11
-0.5779647827152693
 21
0.2999877929691404
 31
0.0
 11
-0.4648857116702623
 21
0.282958984375135
 31
0.0
 11
-0.3612518310552693
 21
0.2341003417971383
 31
0.0
 11
-0.2771797180182591
 21
0.1557006835941415
 31
0.0
 11
-0.2216262817382655
 21
0.0545654296871385
 31
0.0
  0
SPLINE
  5
9B60
330
1F
100
AcDbEntity
  8
AM_0
100
AcDbSpline
210
0.0
220
0.0
230
1.0
 70
     8
 71
     3
 72
    11
 73
     7
 74
     5
 42
0.0000000001
 43
0.0000000001
 44
0.0000000001
 40
0.0
 40
0.0
 40
0.0
 40
0.0
 40
0.2528207943340607
 40
0.5056415886689026
 40
0.7584623830036241
 40
1.011285633364444
 40
1.011285633364444
 40
1.011285633364444
 40
1.011285633364444
 10
-1.229061126709264
 20
-0.4738159179688595
 30
0.0
 10
-1.174803429228603
 20
-0.4093322642049153
 30
0.0
 10
-1.066288034267114
 20
-0.2803649566768276
 30
0.0
 10
-0.9035147025327754
 20
-0.086914196731671
 30
0.0
 10
-0.7407418008856603
 20
0.1065379950323223
 30
0.0
 10
-0.6322239644705255
 20
0.2355043181841191
 30
0.0
 10
-0.5779647827152693
 20
0.2999877929691404
 30
0.0
 11
-1.229061126709264
 21
-0.4738159179688595
 31
0.0
 11
-1.066287994385274
 21
-0.2803649902348674
 31
0.0
 11
-0.9035148620612694
 21
-0.0869140624998666
 31
0.0
 11
-0.7407417297362699
 21
0.1065368652341396
 31
0.0
 11
-0.5779647827152693
 21
0.2999877929691404
 31
0.0
  0
SPLINE
  5
9B61
330
1F
100
AcDbEntity
  8
AM_0
100
AcDbSpline
210
0.0
220
0.0
230
1.0
 70
     8
 71
     3
 72
    11
 73
     7
 74
     5
 42
0.0000000001
 43
0.0000000001
 44
0.0000000001
 40
0.0
 40
0.0
 40
0.0
 40
0.0
 40
0.2629259532671267
 40
0.5258752571071042
 40
0.7888245609463179
 40
1.051773864786164
 40
1.051773864786164
 40
1.051773864786164
 40
1.051773864786164
 10
-6.249309539795244
 20
-9.149719238280864
 30
0.0
 10
-6.305741698676305
 20
-9.216775400503889
 30
0.0
 10
-6.418611028203985
 20
-9.350893680238041
 30
0.0
 10
-6.587893365721665
 20
-9.552094409575172
 30
0.0
 10
-6.757187158142103
 20
-9.753295672509274
 30
0.0
 10
-6.870048612447491
 20
-9.887430751513617
 30
0.0
 10
-6.926479339600254
 20
-9.954498291015868
 30
0.0
 11
-6.249309539795244
 21
-9.149719238280864
 31
0.0
 11
-6.418601989746242
 21
-9.350891113280866
 31
0.0
 11
-6.587894439697243
 21
-9.552093505859872
 31
0.0
 11
-6.757186889648258
 21
-9.753295898437867
 31
0.0
 11
-6.926479339600254
 21
-9.954498291015868
 31
0.0
  0
SPLINE
  5
9B62
330
1F
100
AcDbEntity
  8
AM_0
100
AcDbSpline
210
0.0
220
0.0
230
1.0
 70
     8
 71
     3
 72
    11
 73
     7
 74
     5
 42
0.0000000001
 43
0.0000000001
 44
0.0000000001
 40
0.0
 40
0.0
 40
0.0
 40
0.0
 40
0.6349530785161499
 40
1.269909838435971
 40
1.904862916952118
 40
2.539819676870965
 40
2.539819676870965
 40
2.539819676870965
 40
2.539819676870965
 10
-5.79685592651426
 20
-9.966979980468874
 30
0.0
 10
-5.592600535740015
 20
-9.911519253648934
 30
0.0
 10
-5.184088569936229
 20
-9.800597478452502
 30
0.0
 10
-4.571320652077909
 20
-9.634217043577034
 30
0.0
 10
-3.958552223500563
 20
-9.467833806577447
 30
0.0
 10
-3.55003995834763
 20
-9.356913133856149
 30
0.0
 10
-3.345783233643238
 20
-9.301452636718867
 30
0.0
 11
-5.79685592651426
 21
-9.966979980468874
 31
0.0
 11
-5.184089660645261
 21
-9.800598144530875
 31
0.0
 11
-4.571319580078244
 21
-9.63421630859387
 31
0.0
 11
-3.958553314209247
 21
-9.467834472655871
 31
0.0
 11
-3.345783233643238
 21
-9.301452636718867
 31
0.0
  0
SPLINE
  5
9B63
330
1F
100
AcDbEntity
  8
AM_0
100
AcDbSpline
210
0.0
220
0.0
230
1.0
 70
     8
 71
     3
 72
    11
 73
     7
 74
     5
 42
0.0000000001
 43
0.0000000001
 44
0.0000000001
 40
0.0
 40
0.0
 40
0.0
 40
0.0
 40
0.0625485488023884
 40
0.1251351745287799
 40
0.1877729758187894
 40
0.2503912461912223
 40
0.2503912461912223
 40
0.2503912461912223
 40
0.2503912461912223
 10
-0.9215888977052726
 20
-0.7288513183598669
 30
0.0
 10
-0.9307330890049778
 20
-0.7100536242510403
 30
0.0
 10
-0.9490270382031958
 20
-0.6724467927883607
 30
0.0
 10
-0.9879728696723661
 20
-0.6229598604012492
 30
0.0
 10
-1.033865530185468
 20
-0.5797604490231208
 30
0.0
 10
-1.069914651328051
 20
-0.5584664061770822
 30
0.0
 10
-1.087936401367268
 20
-0.5478210449218702
 30
0.0
 11
-0.9215888977052726
 21
-0.7288513183598669
 31
0.0
 11
-0.9509353637702661
 21
-0.6736145019528639
 31
0.0
 11
-0.9891166687012674
 21
-0.6240234374998669
 31
0.0
 11
-1.035232543945265
 21
-0.5816345214848673
 31
0.0
 11
-1.087936401367268
 21
-0.5478210449218702
 31
0.0
  0
SPLINE
  5
9B64
330
1F
100
AcDbEntity
  8
AM_0
100
AcDbSpline
210
0.0
220
0.0
230
1.0
 70
     8
 71
     3
 72
    11
 73
     7
 74
     5
 42
0.0000000001
 43
0.0000000001
 44
0.0000000001
 40
0.0
 40
0.0
 40
0.0
 40
0.0
 40
0.0489255673456267
 40
0.097904609345967
 40
0.1469246502666723
 40
0.1959843148600374
 40
0.1959843148600374
 40
0.1959843148600374
 40
0.1959843148600374
 10
-0.8903465271002579
 20
-0.9205627441408609
 30
0.0
 10
-0.8896941139346463
 20
-0.9042470777366252
 30
0.0
 10
-0.8883885745290394
 20
-0.8715979122350503
 30
0.0
 10
-0.8936292291873954
 20
-0.8227657591221216
 30
0.0
 10
-0.9038439895190258
 20
-0.774652639154145
 30
0.0
 10
-0.915672335447179
 20
-0.7441225366236104
 30
0.0
 10
-0.9215888977052726
 20
-0.7288513183598669
 30
0.0
 11
-0.8903465271002579
 21
-0.9205627441408609
 31
0.0
 11
-0.8895874023442566
 21
-0.8716430664058606
 31
0.0
 11
-0.8944549560552653
 21
-0.8229064941408609
 31
0.0
 11
-0.9050941467282552
 21
-0.7750549316408612
 31
0.0
 11
-0.9215888977052726
 21
-0.7288513183598669
 31
0.0
  0
SPLINE
  5
9B65
330
1F
100
AcDbEntity
  8
AM_0
100
AcDbSpline
210
0.0
220
0.0
230
1.0
 70
     8
 71
     3
 72
    11
 73
     7
 74
     5
 42
0.0000000001
 43
0.0000000001
 44
0.0000000001
 40
0.0
 40
0.0
 40
0.0
 40
0.0
 40
0.0110587389479386
 40
0.0221038916965276
 40
0.0331418466098648
 40
0.0441822533867695
 40
0.0441822533867695
 40
0.0441822533867695
 40
0.0441822533867695
 10
-1.187053680420259
 20
-0.5126342773438593
 30
0.0
 10
-1.190673064352499
 20
-0.5119345395125146
 30
0.0
 10
-1.197907385627557
 20
-0.5105359235118278
 30
0.0
 10
-1.208813714572736
 20
-0.5087655595602177
 30
0.0
 10
-1.21976242437888
 20
-0.5073223809451941
 30
0.0
 10
-1.227087895353816
 20
-0.506611555638683
 30
0.0
 10
-1.230751037598263
 20
-0.5062561035158623
 30
0.0
 11
-1.187053680420259
 21
-0.5126342773438593
 31
0.0
 11
-1.197921752930266
 21
-0.5105895996098679
 31
0.0
 11
-1.208824157715266
 21
-0.5088195800778648
 31
0.0
 11
-1.219768524170259
 21
-0.507385253905862
 31
0.0
 11
-1.230751037598263
 21
-0.5062561035158623
 31
0.0
  0
SPLINE
  5
9B66
330
1F
100
AcDbEntity
  8
AM_0
100
AcDbSpline
210
0.0
220
0.0
230
1.0
 70
     8
 71
     3
 72
    11
 73
     7
 74
     5
 42
0.0000000001
 43
0.0000000001
 44
0.0000000001
 40
0.0
 40
0.0
 40
0.0
 40
0.0
 40
0.0264668347784467
 40
0.0527921601078532
 40
0.0790933732384483
 40
0.1055111805114267
 40
0.1055111805114267
 40
0.1055111805114267
 40
0.1055111805114267
 10
-1.087936401367268
 20
-0.5478210449218702
 30
0.0
 10
-1.095837567744393
 20
-0.5438875909192667
 30
0.0
 10
-1.111597655564177
 20
-0.5360417137971775
 30
0.0
 10
-1.136170629628078
 20
-0.5264106572720677
 30
0.0
 10
-1.16129445940915
 20
-0.518374070179374
 30
0.0
 10
-1.178454622861939
 20
-0.5145503604794532
 30
0.0
 10
-1.187053680420259
 20
-0.5126342773438593
 30
0.0
 11
-1.087936401367268
 21
-0.5478210449218702
 31
0.0
 11
-1.111801147461274
 21
-0.5363769531248673
 31
0.0
 11
-1.136272430420259
 21
-0.5266723632808617
 31
0.0
 11
-1.161357879639264
 21
-0.5187683105468705
 31
0.0
 11
-1.187053680420259
 21
-0.5126342773438593
 31
0.0
  0
SPLINE
  5
9B67
330
1F
100
AcDbEntity
  8
AM_0
100
AcDbSpline
210
0.0
220
0.0
230
1.0
 70
     8
 71
     3
 72
    11
 73
     7
 74
     5
 42
0.0000000001
 43
0.0000000001
 44
0.0000000001
 40
0.0
 40
0.0
 40
0.0
 40
0.0
 40
0.0264633951741378
 40
0.0527810333561315
 40
0.0790877966753071
 40
0.105505603948281
 40
0.105505603948281
 40
0.105505603948281
 40
0.105505603948281
 10
-6.416507720947245
 20
-9.106689453124872
 30
0.0
 10
-6.408609412226617
 20
-9.11062706228852
 30
0.0
 10
-6.392856297658465
 20
-9.118480592768733
 30
0.0
 10
-6.368262117905157
 20
-9.128050508773622
 30
0.0
 10
-6.343159366799742
 20
-9.136148309477167
 30
0.0
 10
-6.325994676925701
 20
-9.139964238034171
 30
0.0
 10
-6.31739425659226
 20
-9.141876220702865
 30
0.0
 11
-6.416507720947245
 21
-9.106689453124872
 31
0.0
 11
-6.392646789551243
 21
-9.11813354492186
 31
0.0
 11
-6.36817169189525
 21
-9.127807617187867
 31
0.0
 11
-6.343090057373254
 21
-9.135742187499872
 31
0.0
 11
-6.31739425659226
 21
-9.141876220702865
 31
0.0
  0
SPLINE
  5
9B68
330
1F
100
AcDbEntity
  8
AM_0
100
AcDbSpline
210
0.0
220
0.0
230
1.0
 70
     8
 71
     3
 72
    11
 73
     7
 74
     5
 42
0.0000000001
 43
0.0000000001
 44
0.0000000001
 40
0.0
 40
0.0
 40
0.0
 40
0.0
 40
0.0171762059674483
 40
0.0343131002928489
 40
0.0514460774320309
 40
0.0686121557877554
 40
0.0686121557877554
 40
0.0686121557877554
 40
0.0686121557877554
 10
-6.31739425659226
 20
-9.141876220702865
 30
0.0
 10
-6.311768545895827
 20
-9.142945172316686
 30
0.0
 10
-6.300530000217512
 20
-9.145080629006171
 30
0.0
 10
-6.283525578270387
 20
-9.147354318676368
 30
0.0
 10
-6.266451467969407
 20
-9.148984254161113
 30
0.0
 10
-6.25502719095418
 20
-9.149474085999196
 30
0.0
 10
-6.249309539795244
 20
-9.149719238280864
 30
0.0
 11
-6.31739425659226
 21
-9.141876220702865
 31
0.0
 11
-6.300491333008246
 21
-9.144927978515864
 31
0.0
 11
-6.28351211547824
 21
-9.147247314452865
 31
0.0
 11
-6.266452789307245
 21
-9.148834228515864
 31
0.0
 11
-6.249309539795244
 21
-9.149719238280864
 31
0.0
  0
SPLINE
  5
9B69
330
1F
100
AcDbEntity
  8
AM_0
100
AcDbSpline
210
0.0
220
0.0
230
1.0
 70
     8
 71
     3
 72
    11
 73
     7
 74
     5
 42
0.0000000001
 43
0.0000000001
 44
0.0000000001
 40
0.0
 40
0.0
 40
0.0
 40
0.0
 40
0.044298528047967
 40
0.0885860469716108
 40
0.1328595202332968
 40
0.1771722641531587
 40
0.1771722641531587
 40
0.1771722641531587
 40
0.1771722641531587
 10
-1.892353057861251
 20
-9.00518798828085
 30
0.0
 10
-1.906312843433835
 20
-9.010022327120127
 30
0.0
 10
-1.934228945276034
 20
-9.019689803362881
 30
0.0
 10
-1.977276994902685
 20
-9.030302206067593
 30
0.0
 10
-2.020913403294489
 20
-9.038173128968816
 30
0.0
 10
-2.050342436799837
 20
-9.040759475913862
 30
0.0
 10
-2.065063476562253
 20
-9.04205322265585
 30
0.0
 11
-1.892353057861251
 21
-9.00518798828085
 31
0.0
 11
-1.934429168701251
 21
-9.019042968749856
 31
0.0
 11
-1.97737884521525
 21
-9.02984619140585
 31
0.0
 11
-2.02098464965824
 21
-9.03750610351585
 31
0.0
 11
-2.065063476562253
 21
-9.04205322265585
 31
0.0
  0
SPLINE
  5
9B6A
330
1F
100
AcDbEntity
  8
AM_0
100
AcDbSpline
210
0.0
220
0.0
230
1.0
 70
     8
 71
     3
 72
    11
 73
     7
 74
     5
 42
0.0000000001
 43
0.0000000001
 44
0.0000000001
 40
0.0
 40
0.0
 40
0.0
 40
0.0
 40
0.0521768799162184
 40
0.1043722617105586
 40
0.1565541530053368
 40
0.2087631494692228
 40
0.2087631494692228
 40
0.2087631494692228
 40
0.2087631494692228
 10
-2.04257202148424
 20
-9.246948242187851
 30
0.0
 10
-2.025195579573649
 20
-9.246059078062533
 30
0.0
 10
-1.990436534080651
 20
-9.24428043451504
 30
0.0
 10
-1.938674637135392
 20
-9.237291373768057
 30
0.0
 10
-1.88736543751328
 20
-9.227455053234194
 30
0.0
 10
-1.853848529319032
 20
-9.218051424078996
 30
0.0
 10
-1.837085723877245
 20
-9.213348388671859
 30
0.0
 11
-2.04257202148424
 21
-9.246948242187851
 31
0.0
 11
-1.99050521850625
 21
-9.24356079101585
 31
0.0
 11
-1.93874740600625
 21
-9.236816406249856
 31
0.0
 11
-1.887546539307245
 21
-9.226745605468847
 31
0.0
 11
-1.837085723877245
 21
-9.213348388671859
 31
0.0
  0
SPLINE
  5
9B6B
330
1F
100
AcDbEntity
  8
AM_0
100
AcDbSpline
210
0.0
220
0.0
230
1.0
 70
     8
 71
     3
 72
    11
 73
     7
 74
     5
 42
0.0000000001
 43
0.0000000001
 44
0.0000000001
 40
0.0
 40
0.0
 40
0.0
 40
0.0
 40
0.0625216002732785
 40
0.1251324096401032
 40
0.1877495627832587
 40
0.250384317724163
 40
0.250384317724163
 40
0.250384317724163
 40
0.250384317724163
 10
-6.582855224609241
 20
-8.925659179687867
 30
0.0
 10
-6.573707145460933
 20
-8.944443843790274
 30
0.0
 10
-6.555397934205902
 20
-8.982039974937585
 30
0.0
 10
-6.516493897479191
 20
-9.031551617381357
 30
0.0
 10
-6.470558378583265
 20
-9.07471444498886
 30
0.0
 10
-6.434526294702941
 20
-9.096030118573986
 30
0.0
 10
-6.416507720947245
 20
-9.106689453124872
 30
0.0
 11
-6.582855224609241
 21
-8.925659179687867
 31
0.0
 11
-6.553508758545245
 21
-8.980865478515866
 31
0.0
 11
-6.515327453613246
 21
-9.03048706054686
 31
0.0
 11
-6.469211578369248
 21
-9.072845458984872
 31
0.0
 11
-6.416507720947245
 21
-9.106689453124872
 31
0.0
  0
SPLINE
  5
9B6C
330
1F
100
AcDbEntity
  8
AM_0
100
AcDbSpline
210
0.0
220
0.0
230
1.0
 70
     8
 71
     3
 72
    11
 73
     7
 74
     5
 42
0.0000000001
 43
0.0000000001
 44
0.0000000001
 40
0.0
 40
0.0
 40
0.0
 40
0.0
 40
0.0470281202673719
 40
0.0940231037518449
 40
0.1410455301622857
 40
0.188059278765055
 40
0.188059278765055
 40
0.188059278765055
 40
0.188059278765055
 10
-1.559135437012254
 20
-8.710815429687849
 30
0.0
 10
-1.566461113542398
 20
-8.724685390660972
 30
0.0
 10
-1.581107304811158
 20
-8.752415539605806
 30
0.0
 10
-1.607283719267756
 20
-8.791548603375298
 30
0.0
 10
-1.636058072310305
 20
-8.828806072625546
 30
0.0
 10
-1.657680931584212
 20
-8.851525737400674
 30
0.0
 10
-1.668491363525257
 20
-8.862884521484854
 30
0.0
 11
-1.559135437012254
 21
-8.710815429687849
 31
0.0
 11
-1.581813812256252
 21
-8.752014160155848
 31
0.0
 11
-1.607711791992254
 21
-8.791229248046857
 31
0.0
 11
-1.636669158936253
 21
-8.828277587890848
 31
0.0
 11
-1.668491363525257
 21
-8.862884521484854
 31
0.0
  0
SPLINE
  5
9B6D
330
1F
100
AcDbEntity
  8
AM_0
100
AcDbSpline
210
0.0
220
0.0
230
1.0
 70
     8
 71
     3
 72
    11
 73
     7
 74
     5
 42
0.0000000001
 43
0.0000000001
 44
0.0000000001
 40
0.0
 40
0.0
 40
0.0
 40
0.0
 40
0.0925353864136491
 40
0.1850840545000063
 40
0.2776482055857386
 40
0.3701627420564737
 40
0.3701627420564737
 40
0.3701627420564737
 40
0.3701627420564737
 10
-1.617759704590249
 20
-9.107482910155848
 30
0.0
 10
-1.593048003850849
 20
-9.088953163539057
 30
0.0
 10
-1.543621055483296
 20
-9.05189101071719
 30
0.0
 10
-1.4788168420223
 20
-8.985404973538997
 30
0.0
 10
-1.421298127143337
 20
-8.912538631729484
 30
0.0
 10
-1.390897928754278
 20
-8.858760513160998
 30
0.0
 10
-1.375701904297253
 20
-8.831878662109868
 30
0.0
 11
-1.617759704590249
 21
-9.107482910155848
 31
0.0
 11
-1.545181274414241
 21
-9.050079345702849
 31
0.0
 11
-1.480033874512253
 21
-8.984344482421869
 31
0.0
 11
-1.423274993896251
 21
-8.911224365234868
 31
0.0
 11
-1.375701904297253
 21
-8.831878662109868
 31
0.0
  0
SPLINE
  5
9B6E
330
1F
100
AcDbEntity
  8
AM_0
100
AcDbSpline
210
0.0
220
0.0
230
1.0
 70
     8
 71
     3
 72
    11
 73
     7
 74
     5
 42
0.0000000001
 43
0.0000000001
 44
0.0000000001
 40
0.0
 40
0.0
 40
0.0
 40
0.0
 40
0.0642500268467795
 40
0.1285037848757647
 40
0.1927429661801273
 40
0.2569937263935527
 40
0.2569937263935527
 40
0.2569937263935527
 40
0.2569937263935527
 10
-1.559135437012254
 20
-8.710815429687849
 30
0.0
 10
-1.550091843882785
 20
-8.691378090999261
 30
0.0
 10
-1.532004132436615
 20
-8.652502284840418
 30
0.0
 10
-1.512797518178602
 20
-8.591037198547793
 30
0.0
 10
-1.499096330496133
 20
-8.528115645439633
 30
0.0
 10
-1.495589181660792
 20
-8.485386348928182
 30
0.0
 10
-1.493835449219244
 20
-8.464019775390863
 30
0.0
 11
-1.559135437012254
 21
-8.710815429687849
 31
0.0
 11
-1.533325195312254
 21
-8.651977539062849
 31
0.0
 11
-1.513713836670244
 21
-8.590789794921871
 31
0.0
 11
-1.500503540039243
 21
-8.527923583984868
 31
0.0
 11
-1.493835449219244
 21
-8.464019775390863
 31
0.0
  0
SPLINE
  5
9B6F
330
1F
100
AcDbEntity
  8
AM_0
100
AcDbSpline
210
0.0
220
0.0
230
1.0
 70
     8
 71
     3
 72
    11
 73
     7
 74
     5
 42
0.0000000001
 43
0.0000000001
 44
0.0000000001
 40
0.0
 40
0.0
 40
0.0
 40
0.0
 40
0.085601819645657
 40
0.1711872320575414
 40
0.256762066715042
 40
0.3423224609536982
 40
0.3423224609536982
 40
0.3423224609536982
 40
0.3423224609536982
 10
-1.375701904297253
 20
-8.831878662109868
 30
0.0
 10
-1.363324251419463
 20
-8.806132880687226
 30
0.0
 10
-1.338571318078921
 20
-8.754646252515712
 30
0.0
 10
-1.312683927802898
 20
-8.672829662767746
 30
0.0
 10
-1.294559717818919
 20
-8.58898103934052
 30
0.0
 10
-1.290231026863921
 20
-8.532039115951119
 30
0.0
 10
-1.288066864014251
 20
-8.503570556640863
 30
0.0
 11
-1.375701904297253
 21
-8.831878662109868
 31
0.0
 11
-1.340442657471252
 21
-8.753875732421871
 31
0.0
 11
-1.313976287842261
 21
-8.672485351562865
 31
0.0
 11
-1.296497344971252
 21
-8.588714599609868
 31
0.0
 11
-1.288066864014251
 21
-8.503570556640863
 31
0.0
  0
SPLINE
  5
9B70
330
1F
100
AcDbEntity
  8
AM_0
100
AcDbSpline
210
0.0
220
0.0
230
1.0
 70
     8
 71
     3
 72
    11
 73
     7
 74
     5
 42
0.0000000001
 43
0.0000000001
 44
0.0000000001
 40
0.0
 40
0.0
 40
0.0
 40
0.0
 40
0.0611084813504499
 40
0.1222338439634506
 40
0.1833652922115778
 40
0.2444975777696427
 40
0.2444975777696427
 40
0.2444975777696427
 40
0.2444975777696427
 10
-1.837085723877245
 20
-9.213348388671859
 30
0.0
 10
-1.817702879764664
 20
-9.207047225745272
 30
0.0
 10
-1.778931837014677
 20
-9.194443159191242
 30
0.0
 10
-1.72292953334901
 20
-9.169752778863173
 30
0.0
 10
-1.668725441289925
 20
-9.141307658426551
 30
0.0
 10
-1.634748361052926
 20
-9.118757877722659
 30
0.0
 10
-1.617759704590249
 20
-9.107482910155848
 30
0.0
 11
-1.837085723877245
 21
-9.213348388671859
 31
0.0
 11
-1.779296875000249
 21
-9.193481445312851
 31
0.0
 11
-1.723232269287259
 21
-9.169128417968845
 31
0.0
 11
-1.66926574707025
 21
-9.140411376952849
 31
0.0
 11
-1.617759704590249
 21
-9.107482910155848
 31
0.0
  0
SPLINE
  5
9B71
330
1F
100
AcDbEntity
  8
AM_0
100
AcDbSpline
210
0.0
220
0.0
230
1.0
 70
     8
 71
     3
 72
    11
 73
     7
 74
     5
 42
0.0000000001
 43
0.0000000001
 44
0.0000000001
 40
0.0
 40
0.0
 40
0.0
 40
0.0
 40
0.0430526780716445
 40
0.086108471062671
 40
0.1292527936007352
 40
0.1724035510487008
 40
0.1724035510487008
 40
0.1724035510487008
 40
0.1724035510487008
 10
-6.615158081055251
 20
-8.75753784179686
 30
0.0
 10
-6.615003122265966
 20
-8.771902067365624
 30
0.0
 10
-6.614693193475922
 20
-8.80063155777427
 30
0.0
 10
-6.608590045537868
 20
-8.843378210475787
 30
0.0
 10
-6.598643123988909
 20
-8.885449185204036
 30
0.0
 10
-6.588118119347686
 20
-8.912255181897361
 30
0.0
 10
-6.582855224609241
 20
-8.925659179687867
 30
0.0
 11
-6.615158081055251
 21
-8.75753784179686
 31
0.0
 11
-6.613754272461259
 21
-8.800567626952867
 31
0.0
 11
-6.607955932617254
 21
-8.84323120117186
 31
0.0
 11
-6.597671508789241
 21
-8.885131835937867
 31
0.0
 11
-6.582855224609241
 21
-8.925659179687867
 31
0.0
  0
SPLINE
  5
9B72
330
1F
100
AcDbEntity
  8
AM_0
100
AcDbSpline
210
0.0
220
0.0
230
1.0
 70
     8
 71
     3
 72
    11
 73
     7
 74
     5
 42
0.0000000001
 43
0.0000000001
 44
0.0000000001
 40
0.0
 40
0.0
 40
0.0
 40
0.0
 40
0.0391503092167305
 40
0.0783092513635386
 40
0.1174526005577892
 40
0.156595399545025
 40
0.156595399545025
 40
0.156595399545025
 40
0.156595399545025
 10
-10.57789611816426
 20
6.499816894531122
 30
0.0
 10
-10.56587887290884
 20
6.494699113964395
 30
0.0
 10
-10.54184173250734
 20
6.48446242432282
 30
0.0
 10
-10.50411262854913
 20
6.473705072225685
 30
0.0
 10
-10.46561295752024
 20
6.466184009015254
 30
0.0
 10
-10.43955942171152
 20
6.464354626323439
 30
0.0
 10
-10.42653274536127
 20
6.463439941406123
 30
0.0
 11
-10.57789611816426
 21
6.499816894531122
 31
0.0
 11
-10.54156494140628
 21
6.485229492187116
 31
0.0
 11
-10.50397872924827
 21
6.474243164062116
 31
0.0
 11
-10.46551513671926
 21
6.466979980469132
 31
0.0
 11
-10.42653274536127
 21
6.463439941406123
 31
0.0
  0
SPLINE
  5
9B73
330
1F
100
AcDbEntity
  8
AM_0
100
AcDbSpline
210
0.0
220
0.0
230
1.0
 70
     8
 71
     3
 72
    11
 73
     7
 74
     5
 42
0.0000000001
 43
0.0000000001
 44
0.0000000001
 40
0.0
 40
0.0
 40
0.0
 40
0.0
 40
1.341272168937978
 40
2.677325462586622
 40
4.018646687823276
 40
5.347257969550807
 40
5.347257969550807
 40
5.347257969550807
 40
5.347257969550807
 10
-5.433372497559286
 20
7.796905517578141
 30
0.0
 10
-4.970367356572992
 20
7.886727904099918
 30
0.0
 10
-4.04615862252266
 20
8.066023179223284
 30
0.0
 10
-3.427360585226223
 20
9.464744273651401
 30
0.0
 10
-3.93545323620394
 20
10.89836174199141
 30
0.0
 10
-4.833705127276394
 20
11.16225873334577
 30
0.0
 10
-5.280693054199285
 20
11.29357910156213
 30
0.0
 11
-5.433372497559286
 21
7.796905517578141
 31
0.0
 11
-4.172843933105282
 21
8.255249023437139
 31
0.0
 11
-3.615394592285271
 21
9.469451904297139
 31
0.0
 11
-4.078304290771278
 21
10.72836303710912
 31
0.0
 11
-5.280693054199285
 21
11.29357910156213
 31
0.0
  0
SPLINE
  5
9B74
330
1F
100
AcDbEntity
  8
AM_0
100
AcDbSpline
210
0.0
220
0.0
230
1.0
 70
     8
 71
     3
 72
    11
 73
     7
 74
     5
 42
0.0000000001
 43
0.0000000001
 44
0.0000000001
 40
0.0
 40
0.0
 40
0.0
 40
0.0
 40
1.129125746612292
 40
2.268746573605012
 40
3.404486574495965
 40
4.541976826650993
 40
4.541976826650993
 40
4.541976826650993
 40
4.541976826650993
 10
-5.280693054199285
 20
11.29357910156213
 30
0.0
 10
-5.666553813787311
 20
11.23221536383313
 30
0.0
 10
-6.441861859707336
 20
11.10891752022805
 30
0.0
 10
-7.147254298275036
 20
10.08309245636726
 30
0.0
 10
-7.131524562940301
 20
8.833142425094129
 30
0.0
 10
-6.546761068827634
 20
8.305071349094998
 30
0.0
 10
-6.254154205322277
 20
8.040832519531139
 30
0.0
 11
-5.280693054199285
 21
11.29357910156213
 31
0.0
 11
-6.36267089843728
 21
10.97070312500012
 31
0.0
 11
-7.027164459228264
 21
10.04486083984412
 31
0.0
 11
-6.988182067871278
 21
8.909790039062128
 31
0.0
 11
-6.254154205322277
 21
8.040832519531139
 31
0.0
  0
SPLINE
  5
9B75
330
1F
100
AcDbEntity
  8
AM_0
100
AcDbSpline
210
0.0
220
0.0
230
1.0
 70
     8
 71
     3
 72
    11
 73
     7
 74
     5
 42
0.0000000001
 43
0.0000000001
 44
0.0000000001
 40
0.0
 40
0.0
 40
0.0
 40
0.0
 40
0.1145026833748753
 40
0.2294960503045264
 40
0.3449503223777852
 40
0.4605466627751756
 40
0.4605466627751756
 40
0.4605466627751756
 40
0.4605466627751756
 10
0.0000038146966987
 20
12.21566772460914
 30
0.0
 10
-0.0002033955700406
 20
12.25411630520834
 30
0.0
 10
-0.0006187040710959
 20
12.33117823185719
 30
0.0
 10
-0.0426812625732416
 20
12.44043924276905
 30
0.0
 10
-0.1130602436735941
 20
12.53504214808923
 30
0.0
 10
-0.1800883743964514
 20
12.5743761046671
 30
0.0
 10
-0.2136230468752982
 20
12.59405517578114
 30
0.0
 11
0.0000038146966987
 21
12.21566772460914
 31
0.0
 11
-0.0074806213382874
 21
12.32992553710914
 31
0.0
 11
-0.0472984313962989
 21
12.43780517578114
 31
0.0
 11
-0.1180343627932952
 21
12.52905273437514
 31
0.0
 11
-0.2136230468752982
 21
12.59405517578114
 31
0.0
  0
SPLINE
  5
9B76
330
1F
100
AcDbEntity
  8
AM_0
100
AcDbSpline
210
0.0
220
0.0
230
1.0
 70
     8
 71
     3
 72
    11
 73
     7
 74
     5
 42
0.0000000001
 43
0.0000000001
 44
0.0000000001
 40
0.0
 40
0.0
 40
0.0
 40
0.0
 40
0.2161126751412037
 40
0.432222279758601
 40
0.6482888576607908
 40
0.8643611617862729
 40
0.8643611617862729
 40
0.8643611617862729
 40
0.8643611617862729
 10
-6.254154205322277
 20
8.040832519531139
 30
0.0
 10
-6.190805681530425
 20
8.006321535404568
 30
0.0
 10
-6.064109534001058
 20
7.937300057482675
 30
0.0
 10
-5.859850114832903
 20
7.864638079718334
 30
0.0
 10
-5.649081861688199
 20
7.813892983637908
 30
0.0
 10
-5.505276254119519
 20
7.802568056286505
 30
0.0
 10
-5.433372497559286
 20
7.796905517578141
 30
0.0
 11
-6.254154205322277
 21
8.040832519531139
 31
0.0
 11
-6.061737060547282
 21
7.942443847656138
 31
0.0
 11
-5.858749389648277
 21
7.868286132812133
 31
0.0
 11
-5.64825820922827
 21
7.819519042969136
 31
0.0
 11
-5.433372497559286
 21
7.796905517578141
 31
0.0
  0
SPLINE
  5
9B77
330
1F
100
AcDbEntity
  8
AM_0
100
AcDbSpline
210
0.0
220
0.0
230
1.0
 70
     8
 71
     3
 72
    11
 73
     7
 74
     5
 42
0.0000000001
 43
0.0000000001
 44
0.0000000001
 40
0.0
 40
0.0
 40
0.0
 40
0.0
 40
2.200365979984967
 40
4.370329087678925
 40
6.536348570695646
 40
8.730817659662676
 40
8.730817659662676
 40
8.730817659662676
 40
8.730817659662676
 10
-0.3658294677732954
 20
12.63046264648413
 30
0.0
 10
-1.098897217338452
 20
12.65501795310274
 30
0.0
 10
-2.554903780931033
 20
12.70378928103106
 30
0.0
 10
-4.733617083395503
 20
12.72939840955391
 30
0.0
 10
-6.910389939644805
 20
12.7501334616208
 30
0.0
 10
-8.363279131582395
 20
12.79361041518503
 30
0.0
 10
-9.094463348389282
 20
12.81549072265612
 30
0.0
 11
-0.3658294677732954
 21
12.63046264648413
 31
0.0
 11
-2.565216064453295
 21
12.69610595703113
 31
0.0
 11
-4.734935760498302
 21
12.72860717773412
 31
0.0
 11
-6.900764465332299
 21
12.75735473632813
 31
0.0
 11
-9.094463348389282
 21
12.81549072265612
 31
0.0
  0
SPLINE
  5
9B78
330
1F
100
AcDbEntity
  8
AM_0
100
AcDbSpline
210
0.0
220
0.0
230
1.0
 70
     8
 71
     3
 72
    11
 73
     7
 74
     5
 42
0.0000000001
 43
0.0000000001
 44
0.0000000001
 40
0.0
 40
0.0
 40
0.0
 40
0.0
 40
0.28768454247183
 40
0.576462483971257
 40
0.8646037262671111
 40
1.150993193147085
 40
1.150993193147085
 40
1.150993193147085
 40
1.150993193147085
 10
-9.094463348389282
 20
12.81549072265612
 30
0.0
 10
-9.191217515188794
 20
12.80886158872903
 30
0.0
 10
-9.38509358113445
 20
12.79557812560876
 30
0.0
 10
-9.642944133437564
 20
12.65043825392597
 30
0.0
 10
-9.843980976966571
 20
12.43314596455225
 30
0.0
 10
-9.898671802684912
 20
12.2471796346749
 30
0.0
 10
-9.925933837891303
 20
12.15447998046913
 30
0.0
 11
-9.094463348389282
 21
12.81549072265612
 31
0.0
 11
-9.379257202148295
 21
12.77481079101512
 31
0.0
 11
-9.633686065674297
 21
12.63821411132812
 31
0.0
 11
-9.824493408203295
 21
12.42230224609413
 31
0.0
 11
-9.925933837891303
 21
12.15447998046913
 31
0.0
  0
SPLINE
  5
9B79
330
1F
100
AcDbEntity
  8
AM_0
100
AcDbSpline
210
0.0
220
0.0
230
1.0
 70
     8
 71
     3
 72
    11
 73
     7
 74
     5
 42
0.0000000001
 43
0.0000000001
 44
0.0000000001
 40
0.0
 40
0.0
 40
0.0
 40
0.0
 40
1.054468899276833
 40
2.109035615751686
 40
3.163670134308537
 40
4.218401834420956
 40
4.218401834420956
 40
4.218401834420956
 40
4.218401834420956
 10
-9.925933837891303
 20
12.15447998046913
 30
0.0
 10
-9.988286542304184
 20
11.80856510235722
 30
0.0
 10
-10.11299773524253
 20
11.11670325753964
 30
0.0
 10
-10.29988458754864
 20
10.07883854058182
 30
0.0
 10
-10.48667490640593
 20
9.040867437788264
 30
0.0
 10
-10.61107814051712
 20
8.348838184984023
 30
0.0
 10
-10.67328262329128
 20
8.002807617187116
 30
0.0
 11
-9.925933837891303
 21
12.15447998046913
 31
0.0
 11
-10.11296081543028
 21
11.11672973632812
 31
0.0
 11
-10.29986190795926
 21
10.07885742187512
 31
0.0
 11
-10.48663711547826
 21
9.040893554687116
 31
0.0
 11
-10.67328262329128
 21
8.002807617187116
 31
0.0
  0
SPLINE
  5
9B7A
330
1F
100
AcDbEntity
  8
AM_0
100
AcDbSpline
210
0.0
220
0.0
230
1.0
 70
     8
 71
     3
 72
    11
 73
     7
 74
     5
 42
0.0000000001
 43
0.0000000001
 44
0.0000000001
 40
0.0
 40
0.0
 40
0.0
 40
0.0
 40
0.1142316767580577
 40
0.2282673302901673
 40
0.3424829858684114
 40
0.4571410730281002
 40
0.4571410730281002
 40
0.4571410730281002
 40
0.4571410730281002
 10
-10.78320312500027
 20
6.877807617187115
 30
0.0
 10
-10.78396633431371
 20
6.839451122997507
 30
0.0
 10
-10.78549144326227
 20
6.762803954922611
 30
0.0
 10
-10.7460198239019
 20
6.653399844006665
 30
0.0
 10
-10.67740741556127
 20
6.558647531188781
 30
0.0
 10
-10.61110927053422
 20
6.519452362567852
 30
0.0
 10
-10.57789611816426
 20
6.499816894531122
 30
0.0
 11
-10.78320312500027
 21
6.877807617187115
 31
0.0
 11
-10.77852249145528
 21
6.763671875000126
 31
0.0
 11
-10.74120712280327
 21
6.655914306640127
 31
0.0
 11
-10.67238998413127
 21
6.564758300781122
 31
0.0
 11
-10.57789611816426
 21
6.499816894531122
 31
0.0
  0
SPLINE
  5
9B7B
330
1F
100
AcDbEntity
  8
AM_0
100
AcDbSpline
210
0.0
220
0.0
230
1.0
 70
     8
 71
     3
 72
    11
 73
     7
 74
     5
 42
0.0000000001
 43
0.0000000001
 44
0.0000000001
 40
0.0
 40
0.0
 40
0.0
 40
0.0
 40
2.224823924000843
 40
4.443874900445221
 40
6.664033322445007
 40
8.888903022755913
 40
8.888903022755913
 40
8.888903022755913
 40
8.888903022755913
 10
-1.539070129395276
 20
6.271484375000144
 30
0.0
 10
-2.280364784212727
 20
6.293730933936415
 30
0.0
 10
-3.761030590994219
 20
6.338166326693424
 30
0.0
 10
-5.982307504189759
 20
6.361178109625417
 30
0.0
 10
-8.203570999884048
 20
6.388964454651652
 30
0.0
 10
-9.68446026740421
 20
6.438576906049582
 30
0.0
 10
-10.42568969726628
 20
6.463409423828124
 30
0.0
 11
-1.539070129395276
 21
6.271484375000144
 31
0.0
 11
-3.763099670410274
 21
6.33093261718714
 31
0.0
 11
-5.981933593750276
 21
6.361968994140129
 31
0.0
 11
-8.201820373535275
 21
6.396697998047125
 31
0.0
 11
-10.42568969726628
 21
6.463409423828124
 31
0.0
  0
SPLINE
  5
9B7C
330
1F
100
AcDbEntity
  8
AM_0
100
AcDbSpline
210
0.0
220
0.0
230
1.0
 70
     8
 71
     3
 72
    11
 73
     7
 74
     5
 42
0.0000000001
 43
0.0000000001
 44
0.0000000001
 40
0.0
 40
0.0
 40
0.0
 40
0.0
 40
0.2881825019556775
 40
0.5746989674103334
 40
0.8595783715464571
 40
1.143902428887755
 40
1.143902428887755
 40
1.143902428887755
 40
1.143902428887755
 10
-1.539070129395276
 20
6.271484375000144
 30
0.0
 10
-1.442118423171572
 20
6.277984494271583
 30
0.0
 10
-1.248775506522173
 20
6.290947154419197
 30
0.0
 10
-0.9926282851313139
 20
6.436135729619728
 30
0.0
 10
-0.7962134436485245
 20
6.654769546207481
 30
0.0
 10
-0.7465793386269172
 20
6.840387194229018
 30
0.0
 10
-0.7217864990232754
 20
6.933105468750134
 30
0.0
 11
-1.539070129395276
 21
6.271484375000144
 31
0.0
 11
-1.253768920898272
 21
6.312133789062134
 31
0.0
 11
-1.001976013184281
 21
6.448852539062135
 31
0.0
 11
-0.8163795471192759
 21
6.664978027344139
 31
0.0
 11
-0.7217864990232754
 21
6.933105468750134
 31
0.0
  0
SPLINE
  5
9B7D
330
1F
100
AcDbEntity
  8
AM_0
100
AcDbSpline
210
0.0
220
0.0
230
1.0
 70
     8
 71
     3
 72
    11
 73
     7
 74
     5
 42
0.0000000001
 43
0.0000000001
 44
0.0000000001
 40
0.0
 40
0.0
 40
0.0
 40
0.0
 40
1.051179786023484
 40
2.102503988240012
 40
3.153881544195227
 40
4.205343199372952
 40
4.205343199372952
 40
4.205343199372952
 40
4.205343199372952
 10
-0.7217864990232754
 20
6.933105468750134
 30
0.0
 10
-0.6684014159872085
 20
7.279408040311701
 30
0.0
 10
-0.5616239156126466
 20
7.972060760166899
 30
0.0
 10
-0.4015368508263771
 20
9.011094392150202
 30
0.0
 10
-0.2414769979380464
 20
10.05022728065127
 30
0.0
 10
-0.1348150436256977
 20
10.74301086061554
 30
0.0
 10
-0.0814819335942704
 20
11.08941650390613
 30
0.0
 11
-0.7217864990232754
 21
6.933105468750134
 31
0.0
 11
-0.5616455078122847
 21
7.972015380859139
 31
0.0
 11
-0.401546478271287
 21
9.011077880859138
 31
0.0
 11
-0.2414932250982724
 21
10.05020141601513
 31
0.0
 11
-0.0814819335942704
 21
11.08941650390613
 31
0.0
  0
SPLINE
  5
9B7E
330
1F
100
AcDbEntity
  8
AM_0
100
AcDbSpline
210
0.0
220
0.0
230
1.0
 70
     8
 71
     3
 72
    11
 73
     7
 74
     5
 42
0.0000000001
 43
0.0000000001
 44
0.0000000001
 40
0.0
 40
0.0
 40
0.0
 40
0.0
 40
0.039150309216743
 40
0.0783007003913941
 40
0.1174440495856353
 40
0.1565896203531603
 40
0.1565896203531603
 40
0.1565896203531603
 40
0.1565896203531603
 10
-0.2136230468752982
 20
12.59405517578114
 30
0.0
 10
-0.2256393697765781
 20
12.59917598641855
 30
0.0
 10
-0.249672040734308
 20
12.60941761841337
 30
0.0
 10
-0.2874120493066652
 20
12.62012924072681
 30
0.0
 10
-0.3259071322181253
 20
12.62765207375517
 30
0.0
 10
-0.3519597440967372
 20
12.6295054263252
 30
0.0
 10
-0.3649864196783028
 20
12.63043212890613
 30
0.0
 11
-0.2136230468752982
 21
12.59405517578114
 31
0.0
 11
-0.2499542236332955
 21
12.60864257812514
 31
0.0
 11
-0.2875404357912996
 21
12.61959838867213
 31
0.0
 11
-0.3260040283202982
 21
12.62686157226512
 31
0.0
 11
-0.3649864196783028
 21
12.63043212890613
 31
0.0
  0
SPLINE
  5
9B8F
330
1F
100
AcDbEntity
  8
AM_0
100
AcDbSpline
210
0.0
220
0.0
230
1.0
 70
     8
 71
     3
 72
    11
 73
     7
 74
     5
 42
0.0000000001
 43
0.0000000001
 44
0.0000000001
 40
0.0
 40
0.0
 40
0.0
 40
0.0
 40
0.0380093495265558
 40
0.07644295455589
 40
0.1152000521821147
 40
0.1542122956759631
 40
0.1542122956759631
 40
0.1542122956759631
 40
0.1542122956759631
 10
-17.6136245727543
 20
12.29714965820311
 30
0.0
 10
-17.62567181610772
 20
12.30110141171
 30
0.0
 10
-17.64990077260554
 20
12.30904902769148
 30
0.0
 10
-17.68756874691808
 20
12.3168456816478
 30
0.0
 10
-17.72604430446343
 20
12.32180412687924
 30
0.0
 10
-17.75197837034119
 20
12.32235533012145
 30
0.0
 10
-17.76498794555729
 20
12.32263183593711
 30
0.0
 11
-17.6136245727543
 21
12.29714965820311
 31
0.0
 11
-17.6499557495123
 21
12.30831909179711
 31
0.0
 11
-17.68754196167029
 21
12.3163452148441
 31
0.0
 11
-17.7260055541993
 21
12.3211059570311
 31
0.0
 11
-17.76498794555729
 21
12.32263183593711
 31
0.0
  0
SPLINE
  5
9B90
330
1F
100
AcDbEntity
  8
AM_0
100
AcDbSpline
210
0.0
220
0.0
230
1.0
 70
     8
 71
     3
 72
    11
 73
     7
 74
     5
 42
0.0000000001
 43
0.0000000001
 44
0.0000000001
 40
0.0
 40
0.0
 40
0.0
 40
0.0
 40
1.203476340197312
 40
2.497472507010571
 40
3.818383233349069
 40
4.953000629279838
 40
4.953000629279838
 40
4.953000629279838
 40
4.953000629279838
 10
-21.03137969970727
 20
9.503753662109108
 30
0.0
 10
-21.21309237907805
 20
9.892580067067344
 30
0.0
 10
-21.59018531040178
 20
10.69947856930441
 30
0.0
 10
-23.02522468959082
 20
10.810684673437
 30
0.0
 10
-24.2710144835623
 20
10.20316333258361
 30
0.0
 10
-24.4203736419208
 20
9.355070928081746
 30
0.0
 10
-24.48938751220729
 20
8.963195800781102
 30
0.0
 11
-21.03137969970727
 21
9.503753662109108
 31
0.0
 11
-21.70690536499026
 21
10.4997558593751
 31
0.0
 11
-22.98720932006828
 21
10.68750000000009
 31
0.0
 11
-24.14004516601627
 21
10.0426940917971
 31
0.0
 11
-24.48938751220729
 21
8.963195800781102
 31
0.0
  0
SPLINE
  5
9B91
330
1F
100
AcDbEntity
  8
AM_0
100
AcDbSpline
210
0.0
220
0.0
230
1.0
 70
     8
 71
     3
 72
    11
 73
     7
 74
     5
 42
0.0000000001
 43
0.0000000001
 44
0.0000000001
 40
0.0
 40
0.0
 40
0.0
 40
0.0
 40
0.325011069627088
 40
0.6622824323225265
 40
1.01695404260501
 40
1.389084029118333
 40
1.389084029118333
 40
1.389084029118333
 40
1.389084029118333
 10
-24.48938751220729
 20
8.963195800781102
 30
0.0
 10
-24.46387253344178
 20
8.85718928822601
 30
0.0
 10
-24.41188008217891
 20
8.641177411899558
 30
0.0
 10
-24.22475260796926
 20
8.352266048819535
 30
0.0
 10
-23.97285947081466
 20
8.097960982402389
 30
0.0
 10
-23.76207802602417
 20
7.976456940350031
 30
0.0
 10
-23.65415573120127
 20
7.914245605469102
 30
0.0
 11
-24.48938751220729
 21
8.963195800781102
 31
0.0
 11
-24.39601516723629
 21
8.651885986328105
 31
0.0
 11
-24.21928787231428
 21
8.364624023437109
 31
0.0
 11
-23.96776962280329
 21
8.11456298828109
 31
0.0
 11
-23.65415573120127
 21
7.914245605469102
 31
0.0
  0
SPLINE
  5
9B92
330
1F
100
AcDbEntity
  8
AM_0
100
AcDbSpline
210
0.0
220
0.0
230
1.0
 70
     8
 71
     3
 72
    11
 73
     7
 74
     5
 42
0.0000000001
 43
0.0000000001
 44
0.0000000001
 40
0.0
 40
0.0
 40
0.0
 40
0.0
 40
0.038012995815179
 40
0.0764365082225263
 40
0.1151936058488598
 40
0.1542070548889649
 40
0.1542070548889649
 40
0.1542070548889649
 40
0.1542070548889649
 10
-27.97789764404328
 20
6.622375488281102
 30
0.0
 10
-27.96584978377832
 20
6.618420780193753
 30
0.0
 10
-27.9416239538889
 20
6.610468655643875
 30
0.0
 10
-27.90394807166143
 20
6.602717489917618
 30
0.0
 10
-27.86547773334815
 20
6.597757054080741
 30
0.0
 10
-27.83954392008126
 20
6.597181857056657
 30
0.0
 10
-27.82653427124027
 20
6.596893310547097
 30
0.0
 11
-27.97789764404328
 21
6.622375488281102
 31
0.0
 11
-27.94156265258829
 21
6.611206054687096
 31
0.0
 11
-27.90398025512728
 21
6.603210449219102
 31
0.0
 11
-27.86551666259828
 21
6.598449707031103
 31
0.0
 11
-27.82653427124027
 21
6.596893310547097
 31
0.0
  0
SPLINE
  5
9B93
330
1F
100
AcDbEntity
  8
AM_0
100
AcDbSpline
210
0.0
220
0.0
230
1.0
 70
     8
 71
     3
 72
    11
 73
     7
 74
     5
 42
0.0000000001
 43
0.0000000001
 44
0.0000000001
 40
0.0
 40
0.0
 40
0.0
 40
0.0
 40
0.0359646326198388
 40
0.0729984154657298
 40
0.1110871313570634
 40
0.150148761864794
 40
0.150148761864794
 40
0.150148761864794
 40
0.150148761864794
 10
-28.10564041137727
 20
6.699188232422097
 30
0.0
 10
-28.09672672147497
 20
6.691150649302351
 30
0.0
 10
-28.07863435707634
 20
6.674836543216034
 30
0.0
 10
-28.04772998349337
 20
6.654243559489396
 30
0.0
 10
-28.01412542745912
 20
6.636195017589343
 30
0.0
 10
-27.99007467026355
 20
6.627020563272489
 30
0.0
 10
-27.97789764404328
 20
6.622375488281102
 30
0.0
 11
-28.10564041137727
 21
6.699188232422097
 31
0.0
 11
-28.07836151123027
 21
6.675750732422097
 31
0.0
 11
-28.04772949218729
 21
6.654937744140095
 31
0.0
 11
-28.01408386230527
 21
6.637084960937095
 31
0.0
 11
-27.97789764404328
 21
6.622375488281102
 31
0.0
  0
SPLINE
  5
9B94
330
1F
100
AcDbEntity
  8
AM_0
100
AcDbSpline
210
0.0
220
0.0
230
1.0
 70
     8
 71
     3
 72
    11
 73
     7
 74
     5
 42
0.0000000001
 43
0.0000000001
 44
0.0000000001
 40
0.0
 40
0.0
 40
0.0
 40
0.0
 40
0.9636168580676024
 40
1.924164124059342
 40
2.845824293366668
 40
3.729210795387267
 40
3.729210795387267
 40
3.729210795387267
 40
3.729210795387267
 10
-23.65415573120127
 20
7.914245605469102
 30
0.0
 10
-23.34393560097792
 20
7.808338803993461
 30
0.0
 10
-22.72448354372166
 20
7.59686256612236
 30
0.0
 10
-21.76157316614375
 20
7.870972495913208
 30
0.0
 10
-21.06072851218983
 20
8.579539237614666
 30
0.0
 10
-21.04102336318176
 20
9.200068022583158
 30
0.0
 10
-21.03137969970727
 20
9.503753662109108
 30
0.0
 11
-23.65415573120127
 21
7.914245605469102
 31
0.0
 11
-22.71556854248028
 21
7.696044921875099
 31
0.0
 11
-21.79005432128927
 21
7.953094482422105
 31
0.0
 11
-21.16514968872128
 21
8.63055419921911
 31
0.0
 11
-21.03137969970727
 21
9.503753662109108
 31
0.0
  0
SPLINE
  5
9B95
330
1F
100
AcDbEntity
  8
AM_0
100
AcDbSpline
210
0.0
220
0.0
230
1.0
 70
     8
 71
     3
 72
    11
 73
     7
 74
     5
 42
0.0000000001
 43
0.0000000001
 44
0.0000000001
 40
0.0
 40
0.0
 40
0.0
 40
0.0
 40
2.202039726782137
 40
4.382645696138022
 40
6.560643500264772
 40
8.758375848742604
 40
8.758375848742604
 40
8.758375848742604
 40
8.758375848742604
 10
-17.76583099365229
 20
12.32263183593711
 30
0.0
 10
-18.49962723414592
 20
12.29573417022682
 30
0.0
 10
-19.96007724153123
 20
12.24220064972417
 30
0.0
 10
-22.13443989098924
 20
11.99976882603885
 30
0.0
 10
-24.30516930152156
 20
11.74112445778569
 30
0.0
 10
-25.76250881613113
 20
11.66979682712013
 30
0.0
 10
-26.4944648742683
 20
11.63397216796908
 30
0.0
 11
-17.76583099365229
 21
12.32263183593711
 31
0.0
 11
-19.9652175903323
 21
12.2145690917971
 31
0.0
 11
-22.13493728637729
 21
11.99694824218709
 31
0.0
 11
-24.30076217651429
 21
11.7669982910151
 31
0.0
 11
-26.4944648742683
 21
11.63397216796908
 31
0.0
  0
SPLINE
  5
9B96
330
1F
100
AcDbEntity
  8
AM_0
100
AcDbSpline
210
0.0
220
0.0
230
1.0
 70
     8
 71
     3
 72
    11
 73
     7
 74
     5
 42
0.0000000001
 43
0.0000000001
 44
0.0000000001
 40
0.0
 40
0.0
 40
0.0
 40
0.0
 40
0.2888112490774281
 40
0.5699608921604159
 40
0.830512435945215
 40
1.066943541276772
 40
1.066943541276772
 40
1.066943541276772
 40
1.066943541276772
 10
-26.4944648742683
 20
11.63397216796908
 30
0.0
 10
-26.59084461729816
 20
11.62332886091124
 30
0.0
 10
-26.7810473344671
 20
11.60232459322567
 30
0.0
 10
-27.03353935388411
 20
11.48049780225746
 30
0.0
 10
-27.23750340113295
 20
11.30696456423374
 30
0.0
 10
-27.29742749008209
 20
11.15001432641994
 30
0.0
 10
-27.32593536377028
 20
11.07534790039009
 30
0.0
 11
-26.4944648742683
 21
11.63397216796908
 31
0.0
 11
-26.7792587280273
 21
11.58596801757809
 31
0.0
 11
-27.03368759155328
 21
11.46633911132809
 31
0.0
 11
-27.22449111938529
 21
11.28890991210908
 31
0.0
 11
-27.32593536377028
 21
11.07534790039009
 31
0.0
  0
SPLINE
  5
9B97
330
1F
100
AcDbEntity
  8
AM_0
100
AcDbSpline
210
0.0
220
0.0
230
1.0
 70
     8
 71
     3
 72
    11
 73
     7
 74
     5
 42
0.0000000001
 43
0.0000000001
 44
0.0000000001
 40
0.0
 40
0.0
 40
0.0
 40
0.0
 40
0.8393695963529285
 40
1.679068172454348
 40
2.519095777980953
 40
3.359421859966854
 40
3.359421859966854
 40
3.359421859966854
 40
3.359421859966854
 10
-27.32593536377028
 20
11.07534790039009
 30
0.0
 10
-27.38829189343858
 20
10.80259520492433
 30
0.0
 10
-27.51302939258755
 20
10.2569829122018
 30
0.0
 10
-27.69991648559099
 20
9.438345654734661
 30
0.0
 10
-27.8867025895919
 20
8.619358330729681
 30
0.0
 10
-28.01108293153504
 20
8.073225021800828
 30
0.0
 10
-28.07328414917028
 20
7.800109863281102
 30
0.0
 11
-27.32593536377028
 21
11.07534790039009
 31
0.0
 11
-27.51296234130927
 21
10.25708007812509
 31
0.0
 11
-27.69986343383827
 21
9.438446044922086
 31
0.0
 11
-27.88663864135728
 21
8.619445800781102
 31
0.0
 11
-28.07328414917028
 21
7.800109863281102
 31
0.0
  0
SPLINE
  5
9B98
330
1F
100
AcDbEntity
  8
AM_0
100
AcDbSpline
210
0.0
220
0.0
230
1.0
 70
     8
 71
     3
 72
    11
 73
     7
 74
     5
 42
0.0000000001
 43
0.0000000001
 44
0.0000000001
 40
0.0
 40
0.0
 40
0.0
 40
0.0
 40
0.057773372463981
 40
0.1156785494721157
 40
0.1749930484813258
 40
0.2368867672995614
 40
0.2368867672995614
 40
0.2368867672995614
 40
0.2368867672995614
 10
-28.18320465087929
 20
6.914428710937095
 30
0.0
 10
-28.18435618109795
 20
6.89511510821635
 30
0.0
 10
-28.18666186864374
 20
6.856443840597181
 30
0.0
 10
-28.17310821402509
 20
6.798981056241584
 30
0.0
 10
-28.14693637112625
 20
6.744526825035069
 30
0.0
 10
-28.11959963304284
 20
6.714513980222524
 30
0.0
 10
-28.10564041137727
 20
6.699188232422097
 30
0.0
 11
-28.18320465087929
 21
6.914428710937095
 31
0.0
 11
-28.18384933471728
 21
6.856658935547097
 31
0.0
 11
-28.17125320434628
 21
6.800140380859099
 31
0.0
 11
-28.14500808715827
 21
6.746948242187095
 31
0.0
 11
-28.10564041137727
 21
6.699188232422097
 31
0.0
  0
SPLINE
  5
9B99
330
1F
100
AcDbEntity
  8
AM_0
100
AcDbSpline
210
0.0
220
0.0
230
1.0
 70
     8
 71
     3
 72
    11
 73
     7
 74
     5
 42
0.0000000001
 43
0.0000000001
 44
0.0000000001
 40
0.0
 40
0.0
 40
0.0
 40
0.0
 40
0.2759293248504935
 40
0.5498520600054551
 40
0.8188884728405721
 40
1.081821933333759
 40
1.081821933333759
 40
1.081821933333759
 40
1.081821933333759
 10
-18.93907165527327
 20
6.274932861328109
 30
0.0
 10
-18.8464845847432
 20
6.28229993844566
 30
0.0
 10
-18.6619837474784
 20
6.296980518451061
 30
0.0
 10
-18.41584691406957
 20
6.428536471061219
 30
0.0
 10
-18.22020433152049
 20
6.623139306643513
 30
0.0
 10
-18.16072893433397
 20
6.7923649617381
 30
0.0
 10
-18.13133239746128
 20
6.876007080078111
 30
0.0
 11
-18.93907165527327
 21
6.274932861328109
 31
0.0
 11
-18.66615295410227
 21
6.315582275390099
 31
0.0
 11
-18.42236709594727
 21
6.440490722656108
 31
0.0
 11
-18.23654174804727
 21
6.635040283203111
 31
0.0
 11
-18.13133239746128
 21
6.876007080078111
 31
0.0
  0
SPLINE
  5
9B9A
330
1F
100
AcDbEntity
  8
AM_0
100
AcDbSpline
210
0.0
220
0.0
230
1.0
 70
     8
 71
     3
 72
    11
 73
     7
 74
     5
 42
0.0000000001
 43
0.0000000001
 44
0.0000000001
 40
0.0
 40
0.0
 40
0.0
 40
0.0
 40
1.003129948978987
 40
2.006072442058687
 40
3.008856996844823
 40
4.011423969733037
 40
4.011423969733037
 40
4.011423969733037
 40
4.011423969733037
 10
-18.12178802490227
 20
6.9243164062501
 30
0.0
 10
-18.0684070663561
 20
7.254404602192837
 30
0.0
 10
-17.96165512461701
 20
7.914519310166194
 30
0.0
 10
-17.80155190778331
 20
8.904610387274278
 30
0.0
 10
-17.64150564254775
 20
9.894520576990029
 30
0.0
 10
-17.53482032869028
 20
10.55440263242098
 30
0.0
 10
-17.48148345947327
 20
10.8843078613281
 30
0.0
 11
-18.12178802490227
 21
6.9243164062501
 31
0.0
 11
-17.96164703369127
 21
7.914581298828112
 31
0.0
 11
-17.80154800415029
 21
8.904663085937118
 31
0.0
 11
-17.64149475097727
 21
9.894592285156113
 31
0.0
 11
-17.48148345947327
 21
10.8843078613281
 31
0.0
  0
SPLINE
  5
9B9B
330
1F
100
AcDbEntity
  8
AM_0
100
AcDbSpline
210
0.0
220
0.0
230
1.0
 70
     8
 71
     3
 72
    11
 73
     7
 74
     5
 42
0.0000000001
 43
0.0000000001
 44
0.0000000001
 40
0.0
 40
0.0
 40
0.0
 40
0.0
 40
0.1076820269316942
 40
0.2150130683819301
 40
0.3234693832547126
 40
0.434222879806376
 40
0.434222879806376
 40
0.434222879806376
 40
0.434222879806376
 10
-17.39999771118229
 20
11.95190429687511
 30
0.0
 10
-17.4001733644081
 20
11.98809964572364
 30
0.0
 10
-17.40052409832468
 20
12.06037236605434
 30
0.0
 10
-17.44276030403644
 20
12.16211791454914
 30
0.0
 10
-17.51406369430977
 20
12.2479024900771
 30
0.0
 10
-17.58020656796122
 20
12.28061965037079
 30
0.0
 10
-17.6136245727543
 20
12.29714965820311
 30
0.0
 11
-17.39999771118229
 21
11.95190429687511
 31
0.0
 11
-17.40747833252029
 21
12.05932617187511
 31
0.0
 11
-17.4472999572753
 21
12.1589965820311
 31
0.0
 11
-17.51803588867229
 21
12.24121093750011
 31
0.0
 11
-17.6136245727543
 21
12.29714965820311
 31
0.0
  0
SPLINE
  5
9B9C
330
1F
100
AcDbEntity
  8
AM_0
100
AcDbSpline
210
0.0
220
0.0
230
1.0
 70
     8
 71
     3
 72
    11
 73
     7
 74
     5
 42
0.0000000001
 43
0.0000000001
 44
0.0000000001
 40
0.0
 40
0.0
 40
0.0
 40
0.0
 40
2.224866055575324
 40
4.446392601714402
 40
6.668670315647926
 40
8.893069607180324
 40
8.893069607180324
 40
8.893069607180324
 40
8.893069607180324
 10
-18.93907165527327
 20
6.274932861328109
 30
0.0
 10
-19.68057715795312
 20
6.291108324428403
 30
0.0
 10
-21.16247516839028
 20
6.323434971364394
 30
0.0
 10
-23.382099020139
 20
6.446665126999719
 30
0.0
 10
-25.60208460591115
 20
6.561665217680989
 30
0.0
 10
-27.08425329561807
 20
6.585146878438583
 30
0.0
 10
-27.82569122314528
 20
6.596893310547097
 30
0.0
 11
-18.93907165527327
 21
6.274932861328109
 31
0.0
 11
-21.16310119628926
 21
6.335937500000104
 31
0.0
 11
-23.38193511962929
 21
6.4452819824221
 31
0.0
 11
-25.60182189941426
 21
6.548339843750103
 31
0.0
 11
-27.82569122314528
 21
6.596893310547097
 31
0.0
  0
SPLINE
  5
9B9D
330
1F
100
AcDbEntity
  8
AM_0
100
AcDbSpline
210
0.0
220
0.0
230
1.0
 70
     8
 71
     3
 72
    11
 73
     7
 74
     5
 42
0.0000000001
 43
0.0000000001
 44
0.0000000001
 40
0.0
 40
0.0
 40
0.0
 40
0.0
 40
0.2241309347934464
 40
0.4482831206626999
 40
0.6724140554554418
 40
0.8965477281920195
 40
0.8965477281920195
 40
0.8965477281920195
 40
0.8965477281920195
 10
-27.82653427124027
 20
6.596893310547097
 30
0.0
 10
-27.77291062957869
 20
6.544872778656827
 30
0.0
 10
-27.66565826190573
 20
6.440826782526063
 30
0.0
 10
-27.5048131027712
 20
6.284728458825834
 30
0.0
 10
-27.34393539886952
 20
6.128662366634006
 30
0.0
 10
-27.23669023248803
 20
6.024617810604414
 30
0.0
 10
-27.18306732177728
 20
5.97259521484409
 30
0.0
 11
-27.82653427124027
 21
6.596893310547097
 31
0.0
 11
-27.66566848754927
 21
6.440826416015082
 31
0.0
 11
-27.50480270385728
 21
6.284729003906091
 31
0.0
 11
-27.34393692016629
 21
6.128662109375083
 31
0.0
 11
-27.18306732177728
 21
5.97259521484409
 31
0.0
  0
SPLINE
  5
9BBF
330
1F
100
AcDbEntity
  8
AM_0
100
AcDbSpline
210
0.0
220
0.0
230
1.0
 70
     8
 71
     3
 72
    11
 73
     7
 74
     5
 42
0.0000000001
 43
0.0000000001
 44
0.0000000001
 40
0.0
 40
0.0
 40
0.0
 40
0.0
 40
0.0504578744395288
 40
0.1012791287596821
 40
0.1524089334322278
 40
0.2038049203508168
 40
0.2038049203508168
 40
0.2038049203508168
 40
0.2038049203508168
 10
-14.20658874511725
 20
-7.076538085937881
 30
0.0
 10
-14.18986149056594
 20
-7.074769653160672
 30
0.0
 10
-14.15628651765405
 20
-7.071220051974827
 30
0.0
 10
-14.10559613553145
 20
-7.067699824397156
 30
0.0
 10
-14.05451765535676
 20
-7.06552094844367
 30
0.0
 10
-14.02034090247949
 20
-7.06527721327802
 30
0.0
 10
-14.00320816040026
 20
-7.065155029296885
 30
0.0
 11
-14.20658874511725
 21
-7.076538085937881
 31
0.0
 11
-14.15637969970725
 21
-7.071533203124885
 31
0.0
 11
-14.10568618774425
 21
-7.067932128905878
 31
0.0
 11
-14.05459976196325
 21
-7.065826416015879
 31
0.0
 11
-14.00320816040026
 21
-7.065155029296885
 31
0.0
  0
SPLINE
  5
9BC0
330
1F
100
AcDbEntity
  8
AM_0
100
AcDbSpline
210
0.0
220
0.0
230
1.0
 70
     8
 71
     3
 72
    11
 73
     7
 74
     5
 42
0.0000000001
 43
0.0000000001
 44
0.0000000001
 40
0.0
 40
0.0
 40
0.0
 40
0.0
 40
0.3796464447005645
 40
0.7593229255799713
 40
1.139000081342405
 40
1.518676562220832
 40
1.518676562220832
 40
1.518676562220832
 40
1.518676562220832
 10
-8.801628112793242
 20
-10.77221679687487
 30
0.0
 10
-8.824018427001648
 20
-10.6476644930673
 30
0.0
 10
-8.868800826854732
 20
-10.39855003134889
 30
0.0
 10
-8.935964832144374
 20
-10.02487129929636
 30
0.0
 10
-9.003140804714226
 20
-9.651184545868707
 30
0.0
 10
-9.047919405039403
 20
-9.402059000079109
 30
0.0
 10
-9.070308685303254
 20
-9.277496337890861
 30
0.0
 11
-8.801628112793242
 21
-10.77221679687487
 31
0.0
 11
-8.868797302246237
 21
-10.39855957031287
 31
0.0
 11
-8.93596649169925
 21
-10.02487182617186
 31
0.0
 11
-9.003139495850241
 21
-9.651184082030875
 31
0.0
 11
-9.070308685303254
 21
-9.277496337890861
 31
0.0
  0
SPLINE
  5
9BC1
330
1F
100
AcDbEntity
  8
AM_0
100
AcDbSpline
210
0.0
220
0.0
230
1.0
 70
     8
 71
     3
 72
    11
 73
     7
 74
     5
 42
0.0000000001
 43
0.0000000001
 44
0.0000000001
 40
0.0
 40
0.0
 40
0.0
 40
0.0
 40
0.0155163522877689
 40
0.0310089011899398
 40
0.0465424683673813
 40
0.0621510703481926
 40
0.0621510703481926
 40
0.0621510703481926
 40
0.0621510703481926
 10
-9.309398651123267
 20
-9.828216552734867
 30
0.0
 10
-9.30884067013255
 20
-9.823073545323413
 30
0.0
 10
-9.307725564140746
 20
-9.812795420305162
 30
0.0
 10
-9.306985170198291
 20
-9.797291418254422
 30
0.0
 10
-9.306875892247466
 20
-9.781739590504496
 30
0.0
 10
-9.307420514303519
 20
-9.771371068506594
 30
0.0
 10
-9.307693481445262
 20
-9.76617431640586
 30
0.0
 11
-9.309398651123267
 21
-9.828216552734867
 31
0.0
 11
-9.307880401611264
 21
-9.812774658202865
 31
0.0
 11
-9.307090759277267
 21
-9.797302246093872
 31
0.0
 11
-9.307029724121255
 21
-9.781768798827865
 31
0.0
 11
-9.307693481445262
 21
-9.76617431640586
 31
0.0
  0
SPLINE
  5
9BC2
330
1F
100
AcDbEntity
  8
AM_0
100
AcDbSpline
210
0.0
220
0.0
230
1.0
 70
     8
 71
     3
 72
    11
 73
     7
 74
     5
 42
0.0000000001
 43
0.0000000001
 44
0.0000000001
 40
0.0
 40
0.0
 40
0.0
 40
0.0
 40
0.0234660927881945
 40
0.0468722175713604
 40
0.0703707836914583
 40
0.0940822941350687
 40
0.0940822941350687
 40
0.0940822941350687
 40
0.0940822941350687
 10
-9.335285186768251
 20
-9.91827392578086
 30
0.0
 10
-9.3321076163617
 20
-9.911121189602908
 30
0.0
 10
-9.325760595884599
 20
-9.896833996187728
 30
0.0
 10
-9.318492457453826
 20
-9.87449623107131
 30
0.0
 10
-9.312781353838154
 20
-9.851627778448049
 30
0.0
 10
-9.310529604252437
 20
-9.836043725622843
 30
0.0
 10
-9.309398651123267
 20
-9.828216552734867
 30
0.0
 11
-9.335285186768251
 21
-9.91827392578086
 31
0.0
 11
-9.326129913330269
 21
-9.896667480468872
 31
0.0
 11
-9.318763732910261
 21
-9.874450683593872
 31
0.0
 11
-9.313186645508258
 21
-9.85162353515586
 31
0.0
 11
-9.309398651123267
 21
-9.828216552734867
 31
0.0
  0
SPLINE
  5
9BC3
330
1F
100
AcDbEntity
  8
AM_0
100
AcDbSpline
210
0.0
220
0.0
230
1.0
 70
     8
 71
     3
 72
    11
 73
     7
 74
     5
 42
0.0000000001
 43
0.0000000001
 44
0.0000000001
 40
0.0
 40
0.0
 40
0.0
 40
0.0
 40
0.0380093495265504
 40
0.0764429545559048
 40
0.1152000521831133
 40
0.1542122956760087
 40
0.1542122956760087
 40
0.1542122956760087
 40
0.1542122956760087
 10
-8.913623809814236
 20
-12.29714965820287
 30
0.0
 10
-8.925671053167658
 20
-12.30110141170975
 30
0.0
 10
-8.949900009665485
 20
-12.3090490276912
 30
0.0
 10
-8.987567983978328
 20
-12.31684568164777
 30
0.0
 10
-9.026043541523746
 20
-12.32180412687861
 30
0.0
 10
-9.051977607401473
 20
-12.32235533012175
 30
0.0
 10
-9.06498718261724
 20
-12.32263183593786
 30
0.0
 11
-8.913623809814236
 21
-12.29714965820287
 31
0.0
 11
-8.949954986572235
 21
-12.30831909179686
 31
0.0
 11
-8.987541198730239
 21
-12.31634521484388
 31
0.0
 11
-9.026004791260243
 21
-12.32110595703085
 31
0.0
 11
-9.06498718261724
 21
-12.32263183593786
 31
0.0
  0
SPLINE
  5
9BC4
330
1F
100
AcDbEntity
  8
AM_0
100
AcDbSpline
210
0.0
220
0.0
230
1.0
 70
     8
 71
     3
 72
    11
 73
     7
 74
     5
 42
0.0000000001
 43
0.0000000001
 44
0.0000000001
 40
0.0
 40
0.0
 40
0.0
 40
0.0
 40
0.1076820269316947
 40
0.2150130683823066
 40
0.3234668953221749
 40
0.4342236842639856
 40
0.4342236842639856
 40
0.4342236842639856
 40
0.4342236842639856
 10
-8.699996948242242
 20
-11.95190429687487
 30
0.0
 10
-8.700172538897971
 20
-11.98809970408308
 30
0.0
 10
-8.700523147878346
 20
-12.06037254094304
 30
0.0
 10
-8.742759966670529
 20
-12.16211643205077
 30
0.0
 10
-8.814059578801135
 20
-12.24790479356048
 30
0.0
 10
-8.880204101202803
 20
-12.28062013740798
 30
0.0
 10
-8.913623809814236
 20
-12.29714965820287
 30
0.0
 11
-8.699996948242242
 21
-11.95190429687487
 31
0.0
 11
-8.707477569580246
 21
-12.05932617187487
 31
0.0
 11
-8.747299194336248
 21
-12.15899658203087
 31
0.0
 11
-8.818031311035239
 21
-12.24121093749987
 31
0.0
 11
-8.913623809814236
 21
-12.29714965820287
 31
0.0
  0
SPLINE
  5
9BC5
330
1F
100
AcDbEntity
  8
AM_0
100
AcDbSpline
210
0.0
220
0.0
230
1.0
 70
     8
 71
     3
 72
    11
 73
     7
 74
     5
 42
0.0000000001
 43
0.0000000001
 44
0.0000000001
 40
0.0
 40
0.0
 40
0.0
 40
0.0
 40
0.5671443717752891
 40
1.134318145876476
 40
1.701462517651071
 40
2.268636291752237
 40
2.268636291752237
 40
2.268636291752237
 40
2.268636291752237
 10
-9.307693481445262
 20
-9.76617431640586
 30
0.0
 10
-9.257051166105554
 20
-9.948313134509611
 30
0.0
 10
-9.155763909989065
 20
-10.31260021329497
 30
0.0
 10
-9.00385121557667
 20
-10.85903080249309
 30
0.0
 10
-8.851915643372123
 20
-11.40546520352507
 30
0.0
 10
-8.750637388353478
 20
-11.76975478487729
 30
0.0
 10
-8.699996948242242
 20
-11.95190429687487
 30
0.0
 11
-9.307693481445262
 21
-9.76617431640586
 31
0.0
 11
-9.155769348145247
 21
-10.31259155273486
 31
0.0
 11
-9.003845214844236
 21
-10.85903930664087
 31
0.0
 11
-8.851921081543238
 21
-11.40545654296888
 31
0.0
 11
-8.699996948242242
 21
-11.95190429687487
 31
0.0
  0
SPLINE
  5
9BC6
330
1F
100
AcDbEntity
  8
AM_0
100
AcDbSpline
210
0.0
220
0.0
230
1.0
 70
     8
 71
     3
 72
    11
 73
     7
 74
     5
 42
0.0000000001
 43
0.0000000001
 44
0.0000000001
 40
0.0
 40
0.0
 40
0.0
 40
0.0
 40
0.0579458126172714
 40
0.1147421002674034
 40
0.1706705647802973
 40
0.2261310602030251
 40
0.2261310602030251
 40
0.2261310602030251
 40
0.2261310602030251
 10
-9.498622894287256
 20
-10.06741333007787
 30
0.0
 10
-9.481012204986557
 20
-10.05934659381654
 30
0.0
 10
-9.446140186004521
 20
-10.04337314864214
 30
0.0
 10
-9.400647167761171
 20
-10.00857728957143
 30
0.0
 10
-9.362057975817183
 20
-9.967246052307958
 30
0.0
 10
-9.344184419560548
 20
-9.93455218328709
 30
0.0
 10
-9.335285186768251
 20
-9.91827392578086
 30
0.0
 11
-9.498622894287256
 21
-10.06741333007787
 31
0.0
 11
-9.446884155273243
 21
-10.04132080078085
 31
0.0
 11
-9.40147781372126
 21
-10.00720214843787
 31
0.0
 11
-9.363887786865252
 21
-9.965789794921871
 31
0.0
 11
-9.335285186768251
 21
-9.91827392578086
 31
0.0
  0
SPLINE
  5
9BC7
330
1F
100
AcDbEntity
  8
AM_0
100
AcDbSpline
210
0.0
220
0.0
230
1.0
 70
     8
 71
     3
 72
    11
 73
     7
 74
     5
 42
0.0000000001
 43
0.0000000001
 44
0.0000000001
 40
0.0
 40
0.0
 40
0.0
 40
0.0
 40
0.0482690069671194
 40
0.0959705319620527
 40
0.1430110703400407
 40
0.1893457501422986
 40
0.1893457501422986
 40
0.1893457501422986
 40
0.1893457501422986
 10
-9.684547424316239
 20
-10.09420776367186
 30
0.0
 10
-9.668455306795394
 20
-10.09487986156074
 30
0.0
 10
-9.636460261197642
 20
-10.09621615571673
 30
0.0
 10
-9.588880539255045
 20
-10.09190287130014
 30
0.0
 10
-9.542507871370332
 20
-10.08319868358748
 30
0.0
 10
-9.513177313055269
 20
-10.07264853038218
 30
0.0
 10
-9.498622894287256
 20
-10.06741333007787
 30
0.0
 11
-9.684547424316239
 21
-10.09420776367186
 31
0.0
 11
-9.636287689209243
 21
-10.09515380859387
 31
0.0
 11
-9.588756561279243
 21
-10.09112548828086
 31
0.0
 11
-9.542621612549243
 21
-10.08193969726586
 31
0.0
 11
-9.498622894287256
 21
-10.06741333007787
 31
0.0
  0
SPLINE
  5
9BC8
330
1F
100
AcDbEntity
  8
AM_0
100
AcDbSpline
210
0.0
220
0.0
230
1.0
 70
     8
 71
     3
 72
    11
 73
     7
 74
     5
 42
0.0000000001
 43
0.0000000001
 44
0.0000000001
 40
0.0
 40
0.0
 40
0.0
 40
0.0
 40
2.202039726782182
 40
4.382645696136986
 40
6.560647293640288
 40
8.758375834415616
 40
8.758375834415616
 40
8.758375834415616
 40
8.758375834415616
 10
-9.065830230713229
 20
-12.32263183593786
 30
0.0
 10
-9.799626472511974
 20
-12.29573418284162
 30
0.0
 10
-11.26007648249441
 20
-12.24220068744428
 30
0.0
 10
-13.43444036984431
 20
-11.9997685367679
 30
0.0
 10
-15.60516984714905
 20
-11.74112486461599
 30
0.0
 10
-17.06250933326385
 20
-11.66979692189832
 30
0.0
 10
-17.79446411132824
 20
-11.63397216796888
 30
0.0
 11
-9.065830230713229
 21
-12.32263183593786
 31
0.0
 11
-11.26521682739324
 21
-12.21456909179687
 31
0.0
 11
-13.43493652343723
 21
-11.99694824218787
 31
0.0
 11
-15.60076522827124
 21
-11.76699829101588
 31
0.0
 11
-17.79446411132824
 21
-11.63397216796888
 31
0.0
  0
SPLINE
  5
9BC9
330
1F
100
AcDbEntity
  8
AM_0
100
AcDbSpline
210
0.0
220
0.0
230
1.0
 70
     8
 71
     3
 72
    11
 73
     7
 74
     5
 42
0.0000000001
 43
0.0000000001
 44
0.0000000001
 40
0.0
 40
0.0
 40
0.0
 40
0.0
 40
0.5782291540766908
 40
1.156459329994405
 40
1.734688484071082
 40
2.312948062340142
 40
2.312948062340142
 40
2.312948062340142
 40
2.312948062340142
 10
-9.06498718261724
 20
-12.32263183593786
 30
0.0
 10
-9.116616192309964
 20
-12.13693226887863
 30
0.0
 10
-9.219874302933705
 20
-11.76553280659366
 30
0.0
 10
-9.374768167247093
 20
-11.20843565228641
 30
0.0
 10
-9.529659017977209
 20
-10.65132713402809
 30
0.0
 10
-9.632917050053684
 20
-10.27991747739601
 30
0.0
 10
-9.684547424316239
 20
-10.09420776367186
 30
0.0
 11
-9.06498718261724
 21
-12.32263183593786
 31
0.0
 11
-9.219875335693245
 21
-11.76553344726585
 31
0.0
 11
-9.374767303467253
 21
-11.20843505859387
 31
0.0
 11
-9.529655456543242
 21
-10.65133666992187
 31
0.0
 11
-9.684547424316239
 21
-10.09420776367186
 31
0.0
  0
SPLINE
  5
9BCA
330
1F
100
AcDbEntity
  8
AM_0
100
AcDbSpline
210
0.0
220
0.0
230
1.0
 70
     8
 71
     3
 72
    11
 73
     7
 74
     5
 42
0.0000000001
 43
0.0000000001
 44
0.0000000001
 40
0.0
 40
0.0
 40
0.0
 40
0.0
 40
0.0559154822266765
 40
0.1122671633965089
 40
0.1691361282705806
 40
0.2265058194328174
 40
0.2265058194328174
 40
0.2265058194328174
 40
0.2265058194328174
 10
-18.00452804565424
 20
-9.640563964843888
 30
0.0
 10
-17.99644892940854
 20
-9.65737403562707
 30
0.0
 10
-17.98022767140384
 20
-9.691125313236936
 30
0.0
 10
-17.95045341620687
 20
-9.739101020828732
 30
0.0
 10
-17.91709294129765
 20
-9.78525174870467
 30
0.0
 10
-17.8916418149729
 20
-9.81360937875784
 30
0.0
 10
-17.87886047363325
 20
-9.827850341796885
 30
0.0
 11
-18.00452804565424
 21
-9.640563964843888
 31
0.0
 11
-17.97941207885723
 21
-9.690521240234899
 31
0.0
 11
-17.94999694824226
 21
-9.738586425780891
 31
0.0
 11
-17.91641998291025
 21
-9.784484863280891
 31
0.0
 11
-17.87886047363325
 21
-9.827850341796885
 31
0.0
  0
SPLINE
  5
9BCB
330
1F
100
AcDbEntity
  8
AM_0
100
AcDbSpline
210
0.0
220
0.0
230
1.0
 70
     8
 71
     3
 72
    11
 73
     7
 74
     5
 42
0.0000000001
 43
0.0000000001
 44
0.0000000001
 40
0.0
 40
0.0
 40
0.0
 40
0.0
 40
0.1764128946042477
 40
0.3528558396422061
 40
0.5292687342464213
 40
0.7057116792840479
 40
0.7057116792840479
 40
0.7057116792840479
 40
0.7057116792840479
 10
-18.62593460083025
 20
-11.07534790039089
 30
0.0
 10
-18.60638735720479
 20
-11.0198875473816
 30
0.0
 10
-18.56728954024744
 20
-10.90895739416436
 30
0.0
 10
-18.50865770859859
 20
-10.74256222581524
 30
0.0
 10
-18.4500066727777
 20
-10.57616320472479
 30
0.0
 10
-18.41091591127257
 20
-10.46523056503497
 30
0.0
 10
-18.39136886596724
 20
-10.4097595214849
 30
0.0
 11
-18.62593460083025
 21
-11.07534790039089
 31
0.0
 11
-18.56729507446325
 21
-10.90896606445288
 31
0.0
 11
-18.50865173339824
 21
-10.74255371093788
 31
0.0
 11
-18.45001220703125
 21
-10.5761718749999
 31
0.0
 11
-18.39136886596724
 21
-10.4097595214849
 31
0.0
  0
SPLINE
  5
9BCC
330
1F
100
AcDbEntity
  8
AM_0
100
AcDbSpline
210
0.0
220
0.0
230
1.0
 70
     8
 71
     3
 72
    11
 73
     7
 74
     5
 42
0.0000000001
 43
0.0000000001
 44
0.0000000001
 40
0.0
 40
0.0
 40
0.0
 40
0.0
 40
0.2888112490784167
 40
0.5699608921605205
 40
0.8305152294847994
 40
1.06694469808919
 40
1.06694469808919
 40
1.06694469808919
 40
1.06694469808919
 10
-17.79446411132824
 20
-11.63397216796888
 30
0.0
 10
-17.89084394875096
 20
-11.62332894753295
 30
0.0
 10
-18.08104685220097
 20
-11.60232485079336
 30
0.0
 10
-18.33353838531947
 20
-11.48049642440466
 30
0.0
 10
-18.53750711839131
 20
-11.30696679822879
 30
0.0
 10
-18.59742835011318
 20
-11.15001457856005
 30
0.0
 10
-18.62593460083025
 20
-11.07534790039089
 30
0.0
 11
-17.79446411132824
 21
-11.63397216796888
 31
0.0
 11
-18.07925796508824
 21
-11.58596801757787
 31
0.0
 11
-18.33368682861324
 21
-11.46633911132787
 31
0.0
 11
-18.52449417114324
 21
-11.2889099121099
 31
0.0
 11
-18.62593460083025
 21
-11.07534790039089
 31
0.0
  0
SPLINE
  5
9BCD
330
1F
100
AcDbEntity
  8
AM_0
100
AcDbSpline
210
0.0
220
0.0
230
1.0
 70
     8
 71
     3
 72
    11
 73
     7
 74
     5
 42
0.0000000001
 43
0.0000000001
 44
0.0000000001
 40
0.0
 40
0.0
 40
0.0
 40
0.0
 40
0.4115841030574879
 40
0.823169474062924
 40
1.234782359754273
 40
1.64636646281176
 40
1.64636646281176
 40
1.64636646281176
 40
1.64636646281176
 10
-17.24724960327124
 20
-10.08120727539088
 30
0.0
 10
-17.29284982592946
 20
-10.21060204221407
 30
0.0
 10
-17.38405041172437
 20
-10.46939197448088
 30
0.0
 10
-17.52086644156634
 20
-10.85758148189501
 30
0.0
 10
-17.65765470043113
 20
-11.24578077603796
 30
0.0
 10
-17.74886203736747
 20
-11.50457805356047
 30
0.0
 10
-17.79446411132824
 20
-11.63397216796888
 30
0.0
 11
-17.24724960327124
 21
-10.08120727539088
 31
0.0
 11
-17.38405227661124
 21
-10.46939086914088
 31
0.0
 11
-17.52085876464824
 21
-10.85757446289088
 31
0.0
 11
-17.65766143798824
 21
-11.24578857421888
 31
0.0
 11
-17.79446411132824
 21
-11.63397216796888
 31
0.0
  0
SPLINE
  5
9BCE
330
1F
100
AcDbEntity
  8
AM_0
100
AcDbSpline
210
0.0
220
0.0
230
1.0
 70
     8
 71
     3
 72
    11
 73
     7
 74
     5
 42
0.0000000001
 43
0.0000000001
 44
0.0000000001
 40
0.0
 40
0.0
 40
0.0
 40
0.0
 40
0.0878950025210578
 40
0.1770828713718897
 40
0.2674310943020708
 40
0.3587082235704106
 40
0.3587082235704106
 40
0.3587082235704106
 40
0.3587082235704106
 10
-17.87886047363325
 20
-9.827850341796885
 30
0.0
 10
-17.85804248407707
 20
-9.848518825922431
 30
0.0
 10
-17.81610028871827
 20
-9.890159811312681
 30
0.0
 10
-17.74396508232534
 20
-9.942982647934355
 30
0.0
 10
-17.66613694237521
 20
-9.989171568617123
 30
0.0
 10
-17.61019745044712
 20
-10.01250471580687
 30
0.0
 10
-17.58208465576224
 20
-10.02423095703088
 30
0.0
 11
-17.87886047363325
 21
-9.827850341796885
 31
0.0
 11
-17.81497192382825
 21
-9.888214111327878
 31
0.0
 11
-17.74349594116225
 21
-9.941558837890891
 31
0.0
 11
-17.66547775268626
 21
-9.987121582030891
 31
0.0
 11
-17.58208465576224
 21
-10.02423095703088
 31
0.0
  0
SPLINE
  5
9BCF
330
1F
100
AcDbEntity
  8
AM_0
100
AcDbSpline
210
0.0
220
0.0
230
1.0
 70
     8
 71
     3
 72
    11
 73
     7
 74
     5
 42
0.0000000001
 43
0.0000000001
 44
0.0000000001
 40
0.0
 40
0.0
 40
0.0
 40
0.0
 40
0.0557328706573569
 40
0.1114961910943956
 40
0.167229061750729
 40
0.2229618688288984
 40
0.2229618688288984
 40
0.2229618688288984
 40
0.2229618688288984
 10
-17.21417236328126
 20
-9.815216064452876
 30
0.0
 10
-17.21448313660765
 20
-9.833791088484906
 30
0.0
 10
-17.21510485305212
 20
-9.870951285055271
 30
0.0
 10
-17.21602813555541
 20
-9.926686659092741
 30
0.0
 10
-17.21696231383643
 20
-9.982421830355205
 30
0.0
 10
-17.21757935700829
 20
-10.01957193228559
 30
0.0
 10
-17.21788787841824
 20
-10.03814697265588
 30
0.0
 11
-17.21417236328126
 21
-9.815216064452876
 31
0.0
 11
-17.21510314941424
 21
-9.870941162109895
 31
0.0
 11
-17.21603012085025
 21
-9.926696777343885
 31
0.0
 11
-17.21696090698225
 21
-9.982421874999896
 31
0.0
 11
-17.21788787841824
 21
-10.03814697265588
 31
0.0
  0
SPLINE
  5
9BD0
330
1F
100
AcDbEntity
  8
AM_0
100
AcDbSpline
210
0.0
220
0.0
230
1.0
 70
     8
 71
     3
 72
    11
 73
     7
 74
     5
 42
0.0000000001
 43
0.0000000001
 44
0.0000000001
 40
0.0
 40
0.0
 40
0.0
 40
0.0
 40
0.0850555699448989
 40
0.1704985626774558
 40
0.2560990419834335
 40
0.3416359755493385
 40
0.3416359755493385
 40
0.3416359755493385
 40
0.3416359755493385
 10
-17.58208465576224
 20
-10.02423095703088
 30
0.0
 10
-17.55529345296274
 20
-10.03358755608288
 30
0.0
 10
-17.50158901511493
 20
-10.05234337290885
 30
0.0
 10
-17.41789312382609
 20
-10.07005520397221
 30
0.0
 10
-17.33287803134201
 20
-10.08079017846567
 30
0.0
 10
-17.27578534618787
 20
-10.08106827750318
 30
0.0
 10
-17.24724960327124
 20
-10.08120727539088
 30
0.0
 11
-17.58208465576224
 21
-10.02423095703088
 31
0.0
 11
-17.50120925903325
 21
-10.05056762695287
 31
0.0
 11
-17.41775131225624
 21
-10.06887817382787
 31
0.0
 11
-17.33275985717825
 21
-10.07907104492188
 31
0.0
 11
-17.24724960327124
 21
-10.08120727539088
 31
0.0
  0
SPLINE
  5
9BD1
330
1F
100
AcDbEntity
  8
AM_0
100
AcDbSpline
210
0.0
220
0.0
230
1.0
 70
     8
 71
     3
 72
    11
 73
     7
 74
     5
 42
0.0000000001
 43
0.0000000001
 44
0.0000000001
 40
0.0
 40
0.0
 40
0.0
 40
0.0
 40
0.0639788744408506
 40
0.1281724386248492
 40
0.1924193846961948
 40
0.2565327120246378
 40
0.2565327120246378
 40
0.2565327120246378
 40
0.2565327120246378
 10
-17.46532440185525
 20
-9.769592285155891
 30
0.0
 10
-17.44515420692157
 20
-9.776569163145449
 30
0.0
 10
-17.40474613324438
 20
-9.790546330979756
 30
0.0
 10
-17.34200297203317
 20
-9.804385182798752
 30
0.0
 10
-17.27835536203413
 20
-9.813477532588933
 30
0.0
 10
-17.23555184385623
 20
-9.81463695613858
 30
0.0
 10
-17.21417236328126
 20
-9.815216064452876
 30
0.0
 11
-17.46532440185525
 21
-9.769592285155891
 31
0.0
 11
-17.40446853637725
 21
-9.789337158202876
 31
0.0
 11
-17.34187698364326
 21
-9.803588867187876
 31
0.0
 11
-17.27821731567425
 21
-9.812255859374896
 31
0.0
 11
-17.21417236328126
 21
-9.815216064452876
 31
0.0
  0
SPLINE
  5
9BD2
330
1F
100
AcDbEntity
  8
AM_0
100
AcDbSpline
210
0.0
220
0.0
230
1.0
 70
     8
 71
     3
 72
    11
 73
     7
 74
     5
 42
0.0000000001
 43
0.0000000001
 44
0.0000000001
 40
0.0
 40
0.0
 40
0.0
 40
0.0
 40
0.066557027590767
 40
0.1324764444968821
 40
0.1975817064892697
 40
0.261725205791136
 40
0.261725205791136
 40
0.261725205791136
 40
0.261725205791136
 10
-17.46532440185525
 20
-9.769592285155891
 30
0.0
 10
-17.48590175550379
 20
-9.761241228910712
 30
0.0
 10
-17.52685933349652
 20
-9.744619118831561
 30
0.0
 10
-17.58427837438911
 20
-9.712063865595698
 30
0.0
 10
-17.63791841719743
 20
-9.67496518596199
 30
0.0
 10
-17.66968594001338
 20
-9.645794132126797
 30
0.0
 10
-17.68545150756824
 20
-9.631317138671885
 30
0.0
 11
-17.46532440185525
 21
-9.769592285155891
 31
0.0
 11
-17.52643585205125
 21
-9.743225097655891
 31
0.0
 11
-17.58399200439525
 21
-9.711090087890891
 31
0.0
 11
-17.63722991943425
 21
-9.673614501952878
 31
0.0
 11
-17.68545150756824
 21
-9.631317138671885
 31
0.0
  0
LINE
  5
9C8B
330
1F
100
AcDbEntity
  8
AM_0
100
AcDbLine
 10
-12.17617034912125
 20
-6.125602722167874
 30
0.0
 11
-12.09124374389625
 21
-7.810199737548874
 31
0.0
  0
LINE
  5
9C8C
330
1F
100
AcDbEntity
  8
AM_0
100
AcDbLine
 10
-1.67675781250025
 20
-9.016330718993851
 30
0.0
 11
-1.212245941162277
 21
-0.152881622314875
 31
0.0
  0
LINE
  5
9C8D
330
1F
100
AcDbEntity
  8
AM_0
100
AcDbLine
 10
-1.494796752930252
 20
-8.464004516601871
 30
0.0
 11
-1.101234436035264
 21
-0.9543495178218627
 31
0.0
  0
LINE
  5
9C8E
330
1F
100
AcDbEntity
  8
AM_0
100
AcDbLine
 10
-1.286846160889251
 20
-8.477954864501864
 30
0.0
 11
-0.8931236267092634
 21
-0.9652862548828634
 31
0.0
  0
LINE
  5
9C8F
330
1F
100
AcDbEntity
  8
AM_0
100
AcDbLine
 10
-39.99999976158123
 20
-11.99999999999991
 30
0.0
 11
-39.99999976158126
 21
0.0000000000000815
 31
0.0
  0
LINE
  5
9C90
330
1F
100
AcDbEntity
  8
AM_0
100
AcDbLine
 10
-40.86602377891513
 20
-12.49999999999992
 30
0.0
 11
-40.86602377891515
 21
0.0000000000000784
 31
0.0
  0
LINE
  5
9C93
330
1F
100
AcDbEntity
  8
AM_0
100
AcDbLine
 10
-0.9505844116212694
 20
6.043285369873135
 30
0.0
 11
-1.024127960205273
 21
3.743434906006133
 31
0.0
  0
LINE
  5
9C94
330
1F
100
AcDbEntity
  8
AM_0
100
AcDbLine
 10
-0.9505844116212694
 20
6.043277740478136
 30
0.0
 11
-3.778770446777277
 21
6.107181549072133
 31
0.0
  0
LINE
  5
9C95
330
1F
100
AcDbEntity
  8
AM_0
100
AcDbLine
 10
-0.0814819335942704
 20
11.08941459655714
 30
0.0
 11
-0.0000000000002969
 21
12.21565246582014
 31
0.0
  0
LINE
  5
9C96
330
1F
100
AcDbEntity
  8
AM_0
100
AcDbLine
 10
-0.3658294677732954
 20
12.63045310974112
 30
0.0
 11
-0.2136230468752982
 21
12.59404563903814
 31
0.0
  0
LINE
  5
9C97
330
1F
100
AcDbEntity
  8
AM_0
100
AcDbLine
 10
-0.9952659606932803
 20
6.369415283203129
 30
0.0
 11
-1.019134521484267
 21
6.435974121094138
 31
0.0
  0
LINE
  5
9C98
330
1F
100
AcDbEntity
  8
AM_0
100
AcDbLine
 10
-0.9952621459962704
 20
6.369407653808144
 30
0.0
 11
-1.005649566650281
 21
6.044502258301125
 31
0.0
  0
LINE
  5
9C99
330
1F
100
AcDbEntity
  8
AM_0
100
AcDbLine
 10
-0.9952621459962704
 20
6.369422912597136
 30
0.0
 11
-1.117973327637278
 21
6.372077941894137
 31
0.0
  0
LINE
  5
9C9A
330
1F
100
AcDbEntity
  8
AM_0
100
AcDbLine
 10
-3.797706604004278
 20
5.765510559082126
 30
0.0
 11
-6.815326690674273
 21
5.830696105957129
 31
0.0
  0
LINE
  5
9C9B
330
1F
100
AcDbEntity
  8
AM_0
100
AcDbLine
 10
-3.723400115967284
 20
6.10592651367214
 30
0.0
 11
-3.710994720459274
 21
6.329761505127132
 31
0.0
  0
LINE
  5
9C9C
330
1F
100
AcDbEntity
  8
AM_0
100
AcDbLine
 10
-3.797706604004278
 20
5.76550292968714
 30
0.0
 11
-3.778770446777277
 21
6.107173919678142
 31
0.0
  0
LINE
  5
9C9D
330
1F
100
AcDbEntity
  8
AM_0
100
AcDbLine
 10
-6.746482849121268
 20
6.072780609131128
 30
0.0
 11
-6.79624176025428
 21
6.175395965576128
 31
0.0
  0
LINE
  5
9C9E
330
1F
100
AcDbEntity
  8
AM_0
100
AcDbLine
 10
-6.691299438477278
 20
6.103115081787122
 30
0.0
 11
-6.815345764160273
 21
5.830680847168123
 31
0.0
  0
LINE
  5
9C9F
330
1F
100
AcDbEntity
  8
AM_0
100
AcDbLine
 10
-6.683719635010283
 20
6.369651794433124
 30
0.0
 11
-6.691287994385282
 21
6.103126525879133
 31
0.0
  0
LINE
  5
9CA0
330
1F
100
AcDbEntity
  8
AM_0
100
AcDbLine
 10
-6.729991912842286
 20
6.370262145996136
 30
0.0
 11
-6.746475219727278
 21
6.072776794433123
 31
0.0
  0
LINE
  5
9CA1
330
1F
100
AcDbEntity
  8
AM_0
100
AcDbLine
 10
-6.796226501465275
 20
6.175388336181127
 30
0.0
 11
-6.815326690674273
 21
5.83069992065414
 31
0.0
  0
LINE
  5
9CA2
330
1F
100
AcDbEntity
  8
AM_0
100
AcDbLine
 10
-6.796226501465275
 20
6.175380706787121
 30
0.0
 11
-8.321990966797276
 21
6.209835052490126
 31
0.0
  0
LINE
  5
9CA3
330
1F
100
AcDbEntity
  8
AM_0
100
AcDbLine
 10
-1.024127960205273
 20
3.743434906006133
 30
0.0
 11
-4.382602691650273
 21
3.944301605224132
 31
0.0
  0
LINE
  5
9CA4
330
1F
100
AcDbEntity
  8
AM_0
100
AcDbLine
 10
-1.097492218018255
 20
3.232738494873136
 30
0.0
 11
-7.489929199219274
 21
4.617351531982119
 31
0.0
  0
LINE
  5
9CA5
330
1F
100
AcDbEntity
  8
AM_0
100
AcDbLine
 10
-2.038146972656278
 20
0.9344024658201437
 30
0.0
 11
-1.097488403320264
 21
3.232723236084131
 31
0.0
  0
LINE
  5
9CA6
330
1F
100
AcDbEntity
  8
AM_0
100
AcDbLine
 10
-1.139495849609258
 20
-0.1503639221188659
 30
0.0
 11
-1.212242126465267
 21
-0.1528968811038664
 31
0.0
  0
LINE
  5
9CA7
330
1F
100
AcDbEntity
  8
AM_0
100
AcDbLine
 10
-1.139499664307263
 20
-0.1503753662108618
 30
0.0
 11
-0.9873085021972604
 21
3.060009002685125
 31
0.0
  0
LINE
  5
9CA8
330
1F
100
AcDbEntity
  8
AM_0
100
AcDbLine
 10
-0.9933815002442631
 20
3.067070007324138
 30
0.0
 11
-1.097484588623269
 21
3.232723236084131
 31
0.0
  0
LINE
  5
9CA9
330
1F
100
AcDbEntity
  8
AM_0
100
AcDbLine
 10
-1.117919921875269
 20
0.306064605713137
 30
0.0
 11
-0.5779647827152693
 21
0.299991607666136
 31
0.0
  0
ARC
  5
9CAA
330
1F
100
AcDbEntity
  8
AM_0
100
AcDbCircle
 10
-1.329528808594255
 20
-0.9423828124998678
 30
0.0
 40
0.2286113202572
100
AcDbArc
 50
356.9998990575411
 51
27.62978676781368
  0
ARC
  5
9CAB
330
1F
100
AcDbEntity
  8
AM_0
100
AcDbCircle
 10
-1.306636810303268
 20
-0.9303894042968707
 30
0.0
 40
0.2027761638165
100
AcDbArc
 50
27.62984505179556
 51
60.2462932821691
  0
ARC
  5
9CAC
330
1F
100
AcDbEntity
  8
AM_0
100
AcDbCircle
 10
-1.322124481201265
 20
-0.9574890136718709
 30
0.0
 40
0.2339781373739
100
AcDbArc
 50
60.24627962178954
 51
70.20196335599931
  0
LINE
  5
9CAD
330
1F
100
AcDbEntity
  8
AM_0
100
AcDbLine
 10
-0.9215812683112673
 20
-0.7288551330568626
 30
0.0
 11
-1.126983642578262
 21
-0.8363723754878641
 31
0.0
  0
LINE
  5
9CAE
330
1F
100
AcDbEntity
  8
AM_0
100
AcDbLine
 10
-1.087924957275272
 20
-0.5478210449218702
 30
0.0
 11
-1.205993652344256
 21
-0.7543716430668566
 31
0.0
  0
LINE
  5
9CAF
330
1F
100
AcDbEntity
  8
AM_0
100
AcDbLine
 10
-1.187053680420259
 20
-0.5126266479488733
 30
0.0
 11
-1.240283966064263
 21
-0.6879501342778651
 31
0.0
  0
LINE
  5
9CB0
330
1F
100
AcDbEntity
  8
AM_0
100
AcDbLine
 10
-0.8931198120122676
 20
-0.9652557373048665
 30
0.0
 11
-1.101226806641272
 21
-0.9543304443358614
 31
0.0
  0
LINE
  5
9CB1
330
1F
100
AcDbEntity
  8
AM_0
100
AcDbLine
 10
-0.8903465271002579
 20
-0.9205551147458606
 30
0.0
 11
-0.8931236267092634
 21
-0.9652671813968623
 31
0.0
  0
CIRCLE
  5
9CB2
330
1F
100
AcDbEntity
  8
AM_0
100
AcDbCircle
 10
-3.828552246094242
 20
-4.734649658202859
 30
0.0
 40
1.25
  0
LINE
  5
9CB3
330
1F
100
AcDbEntity
  8
AM_0
100
AcDbLine
 10
-1.952617645264254
 20
-3.234649658202852
 30
0.0
 11
-2.213722229004261
 21
-3.234649658202853
 31
0.0
  0
LINE
  5
9CB4
330
1F
100
AcDbEntity
  8
AM_0
100
AcDbLine
 10
-1.952621459961264
 20
-3.234664916991858
 30
0.0
 11
-2.109844207764259
 21
-6.234664916991858
 31
0.0
  0
LINE
  5
9CB5
330
1F
100
AcDbEntity
  8
AM_0
100
AcDbLine
 10
-2.109840393066254
 20
-6.234649658202852
 30
0.0
 11
-2.233852386475253
 21
-6.234649658202853
 31
0.0
  0
LINE
  5
9CB6
330
1F
100
AcDbEntity
  8
AM_0
100
AcDbLine
 10
-3.828552246094252
 20
-6.234649658202858
 30
0.0
 11
-2.233852386475253
 21
-6.234649658202853
 31
0.0
  0
LINE
  5
9CB7
330
1F
100
AcDbEntity
  8
AM_0
100
AcDbLine
 10
-3.828552246094247
 20
-3.234649658202859
 30
0.0
 11
-2.213722229004261
 21
-3.234649658202853
 31
0.0
  0
LINE
  5
9CB8
330
1F
100
AcDbEntity
  8
AM_0
100
AcDbLine
 10
-16.36637496948226
 20
10.34330940246611
 30
0.0
 11
-16.26207733154329
 21
11.8962688446041
 31
0.0
  0
LINE
  5
9CB9
330
1F
100
AcDbEntity
  8
AM_0
100
AcDbLine
 10
-10.65271377563527
 20
9.246629714966116
 30
0.0
 11
-10.16838836669929
 21
11.92524337768513
 31
0.0
  0
LINE
  5
9CBA
330
1F
100
AcDbEntity
  8
AM_0
100
AcDbLine
 10
-17.48148345947327
 20
10.8843154907221
 30
0.0
 11
-17.39999961853029
 21
11.9518890380861
 31
0.0
  0
LINE
  5
9CBB
330
1F
100
AcDbEntity
  8
AM_0
100
AcDbLine
 10
-10.12001419067429
 20
12.00000000000012
 30
0.0
 11
-16.2482032775883
 21
12.0000000000001
 31
0.0
  0
LINE
  5
9CBC
330
1F
100
AcDbEntity
  8
AM_0
100
AcDbLine
 10
-10.12001419067429
 20
11.99999809265112
 30
0.0
 11
-9.955886840820294
 21
11.99282646179212
 31
0.0
  0
LINE
  5
9CBD
330
1F
100
AcDbEntity
  8
AM_0
100
AcDbLine
 10
-17.76583480835028
 20
12.3226165771481
 30
0.0
 11
-17.61363029480029
 21
12.2971343994141
 31
0.0
  0
LINE
  5
9CBE
330
1F
100
AcDbEntity
  8
AM_0
100
AcDbLine
 10
-10.67328262329128
 20
8.002807617187116
 30
0.0
 11
-10.78320312500027
 21
6.877792358398122
 31
0.0
  0
LINE
  5
9CBF
330
1F
100
AcDbEntity
  8
AM_0
100
AcDbLine
 10
-10.42568969726628
 20
6.463397979736114
 30
0.0
 11
-10.57789993286127
 21
6.499805450439126
 31
0.0
  0
LINE
  5
9CC0
330
1F
100
AcDbEntity
  8
AM_0
100
AcDbLine
 10
-16.97809600830126
 20
10.2487945556641
 30
0.0
 11
-16.96486854553227
 21
10.43769264221211
 31
0.0
  0
LINE
  5
9CC1
330
1F
100
AcDbEntity
  8
AM_0
100
AcDbLine
 10
-17.11709213256827
 20
9.50685119628911
 30
0.0
 11
-17.21398544311526
 21
8.123092651367121
 31
0.0
  0
LINE
  5
9CC2
330
1F
100
AcDbEntity
  8
AM_0
100
AcDbLine
 10
-17.36095428466827
 20
7.172279357910118
 30
0.0
 11
-17.32524108886728
 21
7.682353973388122
 31
0.0
  0
LINE
  5
9CC3
330
1F
100
AcDbEntity
  8
AM_0
100
AcDbLine
 10
-21.19770431518627
 20
5.993072509765104
 30
0.0
 11
-24.21532821655329
 21
6.102386474609112
 31
0.0
  0
LINE
  5
9CC4
330
1F
100
AcDbEntity
  8
AM_0
100
AcDbLine
 10
-21.17682647705126
 20
6.291229248047107
 30
0.0
 11
-19.49944686889627
 21
6.231445312500095
 31
0.0
  0
LINE
  5
9CC5
330
1F
100
AcDbEntity
  8
AM_0
100
AcDbLine
 10
-21.19770431518627
 20
5.993072509765104
 30
0.0
 11
-21.17682647705126
 21
6.291229248047107
 31
0.0
  0
LINE
  5
9CC6
330
1F
100
AcDbEntity
  8
AM_0
100
AcDbLine
 10
-18.25198364257827
 20
6.367427825928119
 30
0.0
 11
-18.14182662963927
 21
6.831771850586108
 31
0.0
  0
LINE
  5
9CC7
330
1F
100
AcDbEntity
  8
AM_0
100
AcDbLine
 10
-18.13133430481027
 20
6.875999450683111
 30
0.0
 11
-18.12178802490227
 21
6.924320220947111
 31
0.0
  0
LINE
  5
9CC8
330
1F
100
AcDbEntity
  8
AM_0
100
AcDbLine
 10
-18.94874191284227
 20
6.234191894531107
 30
0.0
 11
-18.93907165527327
 21
6.274929046631099
 31
0.0
  0
LINE
  5
9CC9
330
1F
100
AcDbEntity
  8
AM_0
100
AcDbLine
 10
-24.17818450927727
 20
6.256195068359112
 30
0.0
 11
-24.11812973022527
 21
6.253997802734113
 31
0.0
  0
LINE
  5
9CCA
330
1F
100
AcDbEntity
  8
AM_0
100
AcDbLine
 10
-24.11812782287629
 20
6.25400161743111
 30
0.0
 11
-24.07739257812527
 21
6.097724914551102
 31
0.0
  0
LINE
  5
9CCB
330
1F
100
AcDbEntity
  8
AM_0
100
AcDbLine
 10
-24.11812782287629
 20
6.253982543945109
 30
0.0
 11
-24.12896537780828
 21
6.09924316406211
 31
0.0
  0
LINE
  5
9CCC
330
1F
100
AcDbEntity
  8
AM_0
100
AcDbLine
 10
-24.19456672668527
 20
6.3987922668451
 30
0.0
 11
-24.16027069091827
 21
6.100372314453106
 31
0.0
  0
LINE
  5
9CCD
330
1F
100
AcDbEntity
  8
AM_0
100
AcDbLine
 10
-24.19457244873027
 20
6.398815155029105
 30
0.0
 11
-24.21532821655329
 21
6.102390289306109
 31
0.0
  0
LINE
  5
9CCE
330
1F
100
AcDbEntity
  8
AM_0
100
AcDbLine
 10
-25.85229110717829
 20
6.457878112793099
 30
0.0
 11
-24.19457244873027
 21
6.398796081543104
 31
0.0
  0
LINE
  5
9CCF
330
1F
100
AcDbEntity
  8
AM_0
100
AcDbLine
 10
-39.99999976158126
 20
0.0000000000000815
 30
0.0
 11
-39.99999976158129
 21
12.00000000000007
 31
0.0
  0
LINE
  5
9CD0
330
1F
100
AcDbEntity
  8
AM_0
100
AcDbLine
 10
-40.86602377891515
 20
0.0000000000000784
 30
0.0
 11
-40.86602377891519
 21
12.50000000000007
 31
0.0
  0
LINE
  5
9CD1
330
1F
100
AcDbEntity
  8
AM_0
100
AcDbLine
 10
-28.02914810180729
 20
8.644035339355097
 30
0.0
 11
-27.56593322753928
 21
10.66539955139108
 31
0.0
  0
LINE
  5
9CD2
330
1F
100
AcDbEntity
  8
AM_0
100
AcDbLine
 10
-28.01474285125727
 20
9.0484638214111
 30
0.0
 11
-27.56839179992728
 21
10.99623680114708
 31
0.0
  0
LINE
  5
9CD3
330
1F
100
AcDbEntity
  8
AM_0
100
AcDbLine
 10
-28.08445167541528
 20
6.678627014160095
 30
0.0
 11
-27.35464191436827
 21
5.970520019531091
 31
0.0
  0
LINE
  5
9CD4
330
1F
100
AcDbEntity
  8
AM_0
100
AcDbLine
 10
-28.07328414917028
 20
7.800102233887098
 30
0.0
 11
-28.18320274353027
 21
6.914440155029105
 31
0.0
  0
LINE
  5
9CD5
330
1F
100
AcDbEntity
  8
AM_0
100
AcDbLine
 10
-27.82569599151628
 20
6.596881866455102
 30
0.0
 11
-27.97790145874027
 21
6.622364044189106
 31
0.0
  0
LINE
  5
9CD6
330
1F
100
AcDbEntity
  8
AM_0
100
AcDbLine
 10
-38.14721298217758
 20
12.00000000000007
 30
0.0
 11
-39.99999976158129
 21
12.00000000000007
 31
0.0
  0
LINE
  5
9CD7
330
1F
100
AcDbEntity
  8
AM_0
100
AcDbLine
 10
-39.99999547004679
 20
12.00000572204608
 30
0.0
 11
-40.86602067947369
 21
12.50000762939406
 31
0.0
  0
LINE
  5
9CD8
330
1F
100
AcDbEntity
  8
AM_0
100
AcDbLine
 10
-9.73332214355525
 20
-9.653167724609868
 30
0.0
 11
-17.03308105468724
 21
-9.641662597655889
 31
0.0
  0
LINE
  5
9CD9
330
1F
100
AcDbEntity
  8
AM_0
100
AcDbLine
 10
-17.22166633606024
 20
-10.08084487915087
 30
0.0
 11
-9.728973388672248
 21
-10.09265518188487
 31
0.0
  0
LINE
  5
9CDA
330
1F
100
AcDbEntity
  8
AM_0
100
AcDbLine
 10
-17.21421241760326
 20
-9.814380645751876
 30
0.0
 11
-9.724597930908252
 21
-9.826190948486878
 31
0.0
  0
LINE
  5
9CDB
330
1F
100
AcDbEntity
  8
AM_0
100
AcDbLine
 10
-2.135540008545243
 20
-8.992286682128861
 30
0.0
 11
-1.67675781250025
 21
-9.016334533691841
 31
0.0
  0
LINE
  5
9CDC
330
1F
100
AcDbEntity
  8
AM_0
100
AcDbLine
 10
-1.375705718994248
 20
-8.831878662109868
 30
0.0
 11
-1.559146881103241
 21
-8.710815429687849
 31
0.0
  0
LINE
  5
9CDD
330
1F
100
AcDbEntity
  8
AM_0
100
AcDbLine
 10
-1.617778778076251
 20
-9.107479095458852
 30
0.0
 11
-1.676300048828247
 21
-9.007362365722849
 31
0.0
  0
LINE
  5
9CDE
330
1F
100
AcDbEntity
  8
AM_0
100
AcDbLine
 10
-1.320026397705259
 20
-8.473133087157858
 30
0.0
 11
-1.286846160889251
 21
-8.477954864501864
 31
0.0
  0
LINE
  5
9CDF
330
1F
100
AcDbEntity
  8
AM_0
100
AcDbLine
 10
-1.493835449219244
 20
-8.464031219482873
 30
0.0
 11
-1.320034027100245
 21
-8.473155975341864
 31
0.0
  0
LINE
  5
9CE0
330
1F
100
AcDbEntity
  8
AM_0
100
AcDbLine
 10
-1.286823272705259
 20
-8.477962493896864
 30
0.0
 11
-1.28807067871126
 21
-8.503566741943867
 31
0.0
  0
LINE
  5
9CE1
330
1F
100
AcDbEntity
  8
AM_0
100
AcDbLine
 10
-3.191047668457253
 20
-9.087203979491864
 30
0.0
 11
-6.201824188232262
 21
-8.929397583007865
 31
0.0
  0
LINE
  5
9CE2
330
1F
100
AcDbEntity
  8
AM_0
100
AcDbLine
 10
-7.177719116211259
 20
-8.728034973144874
 30
0.0
 11
-2.135540008545243
 21
-8.992286682128861
 31
0.0
  0
LINE
  5
9CE3
330
1F
100
AcDbEntity
  8
AM_0
100
AcDbLine
 10
-5.79685592651426
 20
-9.966979980468874
 30
0.0
 11
-6.926479339600254
 21
-9.954498291015868
 31
0.0
  0
LINE
  5
9CE4
330
1F
100
AcDbEntity
  8
AM_0
100
AcDbLine
 10
-6.213447570801243
 20
-9.151172637939861
 30
0.0
 11
-3.345783233643238
 21
-9.301441192626857
 31
0.0
  0
LINE
  5
9CE5
330
1F
100
AcDbEntity
  8
AM_0
100
AcDbLine
 10
-2.065063476562253
 20
-9.04205322265585
 30
0.0
 11
-3.191051483154247
 21
-9.087188720702854
 31
0.0
  0
LINE
  5
9CE6
330
1F
100
AcDbEntity
  8
AM_0
100
AcDbLine
 10
-3.201854705811251
 20
-9.293334960937855
 30
0.0
 11
-3.191047668457253
 21
-9.087200164794866
 31
0.0
  0
LINE
  5
9CE7
330
1F
100
AcDbEntity
  8
AM_0
100
AcDbLine
 10
-2.075866699219241
 20
-9.248210906982858
 30
0.0
 11
-2.065063476562253
 21
-9.042041778564863
 31
0.0
  0
LINE
  5
9CE8
330
1F
100
AcDbEntity
  8
AM_0
100
AcDbLine
 10
-1.837085723877245
 20
-9.213344573974847
 30
0.0
 11
-1.888389587402253
 21
-9.005252838134861
 31
0.0
  0
LINE
  5
9CE9
330
1F
100
AcDbEntity
  8
AM_0
100
AcDbLine
 10
-3.345783233643238
 20
-9.301437377929875
 30
0.0
 11
-3.201854705811251
 21
-9.293319702148865
 31
0.0
  0
LINE
  5
9CEA
330
1F
100
AcDbEntity
  8
AM_0
100
AcDbLine
 10
-3.201850891113246
 20
-9.293350219726862
 30
0.0
 11
-2.07586288452125
 21
-9.248214721679856
 31
0.0
  0
LINE
  5
9CEB
330
1F
100
AcDbEntity
  8
AM_0
100
AcDbLine
 10
-2.075866699219241
 20
-9.248195648193854
 30
0.0
 11
-2.04257202148424
 21
-9.246944427489848
 31
0.0
  0
ARC
  5
9CEC
330
1F
100
AcDbEntity
  8
AM_0
100
AcDbCircle
 10
-6.182323455811252
 20
-8.696990966796859
 30
0.0
 40
0.2339781373739
100
AcDbArc
 50
240.2462778005581
 51
253.1104883097865
  0
ARC
  5
9CED
330
1F
100
AcDbEntity
  8
AM_0
100
AcDbCircle
 10
-6.191169738770252
 20
-8.726135253905864
 30
0.0
 40
0.2035308778286
100
AcDbArc
 50
253.1105566116783
 51
266.9999990059033
  0
ARC
  5
9CEE
330
1F
100
AcDbEntity
  8
AM_0
100
AcDbCircle
 10
-6.197807312012255
 20
-8.724090576171859
 30
0.0
 40
0.2027761638165
100
AcDbArc
 50
207.6298483532016
 51
240.2462846307416
  0
ARC
  5
9CEF
330
1F
100
AcDbEntity
  8
AM_0
100
AcDbCircle
 10
-6.174919128418248
 20
-8.712127685546859
 30
0.0
 40
0.2286106050014
100
AcDbArc
 50
194.4064313653306
 51
207.6297902965968
  0
LINE
  5
9CF0
330
1F
100
AcDbEntity
  8
AM_0
100
AcDbLine
 10
-9.552574157715254
 20
-8.496940612792865
 30
0.0
 11
-9.73331832885726
 21
-9.653156280517873
 31
0.0
  0
LINE
  5
9CF1
330
1F
100
AcDbEntity
  8
AM_0
100
AcDbLine
 10
-6.317386627197245
 20
-9.141864776611866
 30
0.0
 11
-6.250297546387254
 21
-8.92089843749987
 31
0.0
  0
LINE
  5
9CF2
330
1F
100
AcDbEntity
  8
AM_0
100
AcDbLine
 10
-6.213447570801243
 20
-9.151180267333868
 30
0.0
 11
-6.201824188232262
 21
-8.929374694823861
 31
0.0
  0
LINE
  5
9CF3
330
1F
100
AcDbEntity
  8
AM_0
100
AcDbLine
 10
-6.41650390625025
 20
-9.106685638427862
 30
0.0
 11
-6.298431396484241
 21
-8.900135040282874
 31
0.0
  0
LINE
  5
9CF4
330
1F
100
AcDbEntity
  8
AM_0
100
AcDbLine
 10
-6.582855224609241
 20
-8.925643920898878
 30
0.0
 11
-6.377464294434256
 21
-8.818134307861868
 31
0.0
  0
LINE
  5
9CF5
330
1F
100
AcDbEntity
  8
AM_0
100
AcDbLine
 10
-9.309535980225254
 20
-9.73431015014686
 30
0.0
 11
-9.50104141235324
 21
-9.648983001708881
 31
0.0
  0
LINE
  5
9CF6
330
1F
100
AcDbEntity
  8
AM_0
100
AcDbLine
 10
-9.309398651123267
 20
-9.828208923339866
 30
0.0
 11
-9.520179748535248
 21
-9.684413909911862
 31
0.0
  0
LINE
  5
9CF7
330
1F
100
AcDbEntity
  8
AM_0
100
AcDbLine
 10
-9.335285186768251
 20
-9.918270111083865
 30
0.0
 11
-9.536159515381262
 21
-9.726932525634873
 31
0.0
  0
LINE
  5
9CF8
330
1F
100
AcDbEntity
  8
AM_0
100
AcDbLine
 10
-9.498622894287256
 20
-10.06740188598687
 30
0.0
 11
-9.60997772216826
 21
-9.798797607421871
 31
0.0
  0
LINE
  5
9CF9
330
1F
100
AcDbEntity
  8
AM_0
100
AcDbLine
 10
-9.728973388672248
 20
-10.09266281127987
 30
0.0
 11
-9.724597930908252
 21
-9.826187133788874
 31
0.0
  0
LINE
  5
9CFA
330
1F
100
AcDbEntity
  8
AM_0
100
AcDbLine
 10
-6.249313354492253
 20
-9.149711608886873
 30
0.0
 11
-6.213447570801243
 21
-9.151176452636873
 31
0.0
  0
LINE
  5
9CFB
330
1F
100
AcDbEntity
  8
AM_0
100
AcDbLine
 10
-8.799655914307239
 20
-10.77191162109388
 30
0.0
 11
-8.781482696533233
 21
-10.88431167602586
 31
0.0
  0
LINE
  5
9CFC
330
1F
100
AcDbEntity
  8
AM_0
100
AcDbLine
 10
-9.044284820557244
 20
-9.258842468261869
 30
0.0
 11
-8.799655914307239
 21
-10.77191162109388
 31
0.0
  0
LINE
  5
9CFD
330
1F
100
AcDbEntity
  8
AM_0
100
AcDbLine
 10
-8.781482696533233
 20
-10.88431167602586
 30
0.0
 11
-8.699996948242242
 21
-11.95191574096687
 31
0.0
  0
LINE
  5
9CFE
330
1F
100
AcDbEntity
  8
AM_0
100
AcDbLine
 10
-8.781486511230243
 20
-10.88431930541988
 30
0.0
 11
-8.801631927490237
 21
-10.77222442626987
 31
0.0
  0
LINE
  5
9CFF
330
1F
100
AcDbEntity
  8
AM_0
100
AcDbLine
 10
-9.309539794922267
 20
-9.73431015014686
 30
0.0
 11
-9.322486877441241
 21
-9.47752761840787
 31
0.0
  0
LINE
  5
9D00
330
1F
100
AcDbEntity
  8
AM_0
100
AcDbLine
 10
-9.307697296143253
 20
-9.766178131103865
 30
0.0
 11
-9.309543609619263
 21
-9.73431015014686
 31
0.0
  0
LINE
  5
9D01
330
1F
100
AcDbEntity
  8
AM_0
100
AcDbLine
 10
-9.684547424316239
 20
-10.09420394897486
 30
0.0
 11
-9.728973388672248
 21
-10.09264755248987
 31
0.0
  0
LINE
  5
9D02
330
1F
100
AcDbEntity
  8
AM_0
100
AcDbLine
 10
-18.00452041626025
 20
-9.64055633544889
 30
0.0
 11
-17.94102859497124
 21
-9.598724365234897
 31
0.0
  0
LINE
  5
9D03
330
1F
100
AcDbEntity
  8
AM_0
100
AcDbLine
 10
-17.87884712219225
 20
-9.827850341796885
 30
0.0
 11
-17.68544769287123
 21
-9.631324768066887
 31
0.0
  0
LINE
  5
9D04
330
1F
100
AcDbEntity
  8
AM_0
100
AcDbLine
 10
-17.21788978576724
 20
-10.03815841674788
 30
0.0
 11
-17.22166824340825
 21
-10.08083724975587
 31
0.0
  0
LINE
  5
9D05
330
1F
100
AcDbEntity
  8
AM_0
100
AcDbLine
 10
-17.22168159484924
 20
-10.08093643188488
 30
0.0
 11
-17.21788597106923
 21
-10.03813552856488
 31
0.0
  0
LINE
  5
9D06
330
1F
100
AcDbEntity
  8
AM_0
100
AcDbLine
 10
-17.58208274841324
 20
-10.02421951293988
 30
0.0
 11
-17.46532630920426
 21
-9.769588470458883
 31
0.0
  0
LINE
  5
9D07
330
1F
100
AcDbEntity
  8
AM_0
100
AcDbLine
 10
-18.02319335937525
 20
-9.594882965087888
 30
0.0
 11
-18.00453186035224
 21
-9.640567779540882
 31
0.0
  0
LINE
  5
9D08
330
1F
100
AcDbEntity
  8
AM_0
100
AcDbLine
 10
-17.22168350219723
 20
-10.08091735839888
 30
0.0
 11
-17.24724960327124
 21
-10.08119201660188
 31
0.0
  0
LINE
  5
9D09
330
1F
100
AcDbEntity
  8
AM_0
100
AcDbLine
 10
-17.68544197082524
 20
-9.631309509277894
 30
0.0
 11
-17.70589065551825
 21
-9.610202789306878
 31
0.0
  0
LINE
  5
9D0A
330
1F
100
AcDbEntity
  8
AM_0
100
AcDbLine
 10
-18.16270446777325
 20
-9.98744964599588
 30
0.0
 11
-18.15696144104025
 21
-9.950725555419893
 31
0.0
  0
LINE
  5
9D0B
330
1F
100
AcDbEntity
  8
AM_0
100
AcDbLine
 10
-18.52760505676323
 20
-10.65796661376988
 30
0.0
 11
-18.16270637512225
 21
-9.987461090087888
 31
0.0
  0
LINE
  5
9D0C
330
1F
100
AcDbEntity
  8
AM_0
100
AcDbLine
 10
-18.62592697143624
 20
-11.07535934448289
 30
0.0
 11
-18.72019958496125
 21
-10.6629333496099
 31
0.0
  0
LINE
  5
9D0D
330
1F
100
AcDbEntity
  8
AM_0
100
AcDbLine
 10
-18.12181091308625
 20
-9.644840240478897
 30
0.0
 11
-18.10282897949225
 21
-9.590988159179898
 31
0.0
  0
LINE
  5
9D0E
330
1F
100
AcDbEntity
  8
AM_0
100
AcDbLine
 10
-40.86602258682224
 20
-12.50001144409192
 30
0.0
 11
-39.99999761581393
 21
-12.00001144409191
 31
0.0
  0
LINE
  5
9D0F
330
1F
100
AcDbEntity
  8
AM_0
100
AcDbLine
 10
-39.99999976158123
 20
-11.99999999999991
 30
0.0
 11
-36.64436340332004
 21
-11.99999999999991
 31
0.0
  0
LINE
  5
9D10
330
1F
100
AcDbEntity
  8
AM_0
100
AcDbLine
 10
-38.25702047348003
 20
-11.54269790649392
 30
0.0
 11
-38.00875711441014
 21
-11.3194732666019
 31
0.0
  0
LINE
  5
9D11
330
1F
100
AcDbEntity
  8
AM_0
100
AcDbLine
 10
-139.9999923706052
 20
-10.1614990234381
 30
0.0
 11
-139.9999923706052
 21
-0.0000000000000989
 31
0.0
  0
LINE
  5
9D12
330
1F
100
AcDbEntity
  8
AM_0
100
AcDbLine
 10
-136.9999923706051
 20
-12.50000000000008
 30
0.0
 11
-136.9999923706052
 21
-0.0000000000000884
 31
0.0
  0
LINE
  5
9D14
330
1F
100
AcDbEntity
  8
AM_0
100
AcDbLine
 10
-139.9999923706052
 20
-0.0000000000000989
 30
0.0
 11
-139.9999923706052
 21
10.16149902343688
 31
0.0
  0
LINE
  5
9D15
330
1F
100
AcDbEntity
  8
AM_0
100
AcDbLine
 10
-136.9999923706052
 20
-0.0000000000000884
 30
0.0
 11
-136.9999923706052
 21
12.49999999999991
 31
0.0
  0
ARC
  5
9D16
330
1F
100
AcDbEntity
  8
AM_0
100
AcDbCircle
 10
-137.9999923706052
 20
10.1614990234369
 30
0.0
 40
2.000000238418599
100
AcDbArc
 50
104.9999944978377
 51
180.0
  0
LINE
  5
9D17
330
1F
100
AcDbEntity
  8
AM_0
100
AcDbLine
 10
-136.9999847412102
 20
12.4999847412109
 30
0.0
 11
-138.5176315307612
 21
12.0933361053459
 31
0.0
  0
ARC
  5
9D18
330
1F
100
AcDbEntity
  8
AM_0
100
AcDbCircle
 10
-137.9999923706052
 20
-10.16149902343808
 30
0.0
 40
2.0
100
AcDbArc
 50
180.0
 51
255.0000055021623
  0
LINE
  5
9D19
330
1F
100
AcDbEntity
  8
AM_0
100
AcDbLine
 10
-138.5176315307611
 20
-12.09334564209009
 30
0.0
 11
-136.9999923706051
 21
-12.49999237060608
 31
0.0
  0
LINE
  5
9D1A
330
1F
100
AcDbEntity
  8
AM_0
100
AcDbLine
 10
-138.5176315307611
 20
-12.09336090087908
 30
0.0
 11
-136.9999999999992
 21
-12.50000762939508
 31
0.0
  0
LINE
  5
9DB3
330
1F
100
AcDbEntity
  8
AM_11
100
AcDbLine
 10
-26.40000000000029
 20
12.8154907226561
 30
0.0
 11
-0.0000000000002972
 21
12.81549072265615
 31
0.0
  0
LINE
  5
9DB4
330
1F
100
AcDbEntity
  8
AM_11
100
AcDbLine
 10
-0.0000000000002552
 20
-12.81549072265584
 30
0.0
 11
-0.0000000000002972
 21
12.81549072265615
 31
0.0
  0
LINE
  5
9DBC
330
1F
100
AcDbEntity
  8
AM_11
100
AcDbLine
 10
-26.40000000000024
 20
-12.81549072265588
 30
0.0
 11
-26.40000000000029
 21
12.8154907226561
 31
0.0
  0
LINE
  5
9DBD
330
1F
100
AcDbEntity
  8
AM_11
100
AcDbLine
 10
-26.40000000000025
 20
-12.81549072265591
 30
0.0
 11
-0.000000000000257
 21
-12.81549072265586
 31
0.0
  0
DIMENSION
  5
9E21
330
1F
100
AcDbEntity
  8
AM_5
100
AcDbDimension
  2
*D2
 10
-0.0000000000002763
 20
26.81549172265617
 30
0.0
 11
-13.20000000000026
 21
29.91549172265619
 31
0.0
 70
    32
  1
<>
 71
     5
 42
-1.0
 51
359.9999999999998
  3
AM_JIS$0
100
AcDbAlignedDimension
 13
-26.40000000000029
 23
12.81549072265613
 33
0.0
 14
-0.000000000000302
 24
12.81549072265617
 34
0.0
 50
180.0
100
AcDbRotatedDimension
1001
GENIUS_GENDTOL_13
1000

1000
h7
1000

1040
0.0
1001
ACAD
1000
DSTYLE
1002
{
1070
   287
1070
     3
1070
    42
1040
1.0
1070
    43
1040
12.0
1070
    48
1040
0.1
1070
    78
1070
     8
1070
   140
1040
3.2
1070
   176
1070
   256
1070
   177
1070
   256
1070
   271
1070
     0
1070
   272
1070
     3
1070
   275
1070
     0
1070
   284
1070
     0
1070
   289
1070
     3
1070
   340
1005
6B
1070
   371
1070
    -1
1070
   372
1070
    -1
1002
}
  0
DIMENSION
  5
9EAD
330
1F
100
AcDbEntity
  8
AM_5
100
AcDbDimension
  2
*D3
 10
15.55177407128876
 20
-12.81549072265585
 30
0.0
 11
12.45177407128877
 21
0.0000000000001469
 31
0.0
 70
    32
  1
%%c<>
 71
     5
 42
-1.0
 51
359.9999999999998
  3
AM_JIS$0
100
AcDbAlignedDimension
 13
-0.0000000000003002
 23
12.81549072265615
 33
0.0
 14
-0.000000000000254
 24
-12.81549072265585
 34
0.0
 50
90.0000000000001
100
AcDbRotatedDimension
1001
GENIUS_GENDTOL_13
1000

1000
h7
1000

1040
0.0
1001
ACAD
1000
DSTYLE
1002
{
1070
   287
1070
     3
1070
    42
1040
1.0
1070
    43
1040
12.0
1070
    48
1040
0.1
1070
    78
1070
     8
1070
   140
1040
3.2
1070
   176
1070
   256
1070
   177
1070
   256
1070
   271
1070
     0
1070
   272
1070
     3
1070
   275
1070
     0
1070
   284
1070
     0
1070
   289
1070
     3
1070
   340
1005
6B
1070
   371
1070
    -1
1070
   372
1070
    -1
1002
}
  0
DIMENSION
  5
9F5D
330
1F
100
AcDbEntity
  8
AM_5
100
AcDbDimension
  2
*D4
 10
-39.99999547004675
 20
-26.81549172265589
 30
0.0
 11
-19.9999977350235
 21
-23.71549172265589
 31
0.0
 70
    32
  1
<>
 71
     5
 42
-1.0
 51
359.9999999999998
  3
AM_JIS$0
100
AcDbAlignedDimension
 13
-0.000000000000254
 23
-12.81549072265585
 33
0.0
 14
-39.99999547004675
 24
-12.00000572204591
 34
0.0
100
AcDbRotatedDimension
1001
GENIUS_GENDTOL_13
1000

1000
h7
1000

1040
0.0
1001
ACAD
1000
DSTYLE
1002
{
1070
   287
1070
     3
1070
    42
1040
1.0
1070
    43
1040
12.0
1070
    48
1040
0.1
1070
    78
1070
     8
1070
   140
1040
3.2
1070
   176
1070
   256
1070
   177
1070
   256
1070
   271
1070
     0
1070
   272
1070
     3
1070
   275
1070
     0
1070
   284
1070
     0
1070
   289
1070
     3
1070
   340
1005
6B
1070
   371
1070
    -1
1070
   372
1070
    -1
1002
}
  0
DIMENSION
  5
9FE9
330
1F
100
AcDbEntity
  8
AM_5
100
AcDbDimension
  2
*D5
 10
-139.9999926090238
 20
-26.81549172265589
 30
0.0
 11
-89.99999403953529
 21
-23.71549172265589
 31
0.0
 70
    32
  1
<>
 71
     5
 42
-1.0
 51
359.9999999999998
  3
AM_JIS$0
100
AcDbAlignedDimension
 13
-39.99999547004675
 23
-12.00000572204591
 33
0.0
 14
-139.9999926090238
 24
-10.16149902343708
 34
0.0
100
AcDbRotatedDimension
1001
GENIUS_GENDTOL_13
1000

1000
h7
1000

1040
0.0
1001
ACAD
1000
DSTYLE
1002
{
1070
   287
1070
     3
1070
    42
1040
1.0
1070
    43
1040
12.0
1070
    48
1040
0.1
1070
    78
1070
     8
1070
   140
1040
3.2
1070
   176
1070
   256
1070
   177
1070
   256
1070
   271
1070
     0
1070
   272
1070
     3
1070
   275
1070
     0
1070
   284
1070
     0
1070
   289
1070
     3
1070
   340
1005
6B
1070
   371
1070
    -1
1070
   372
1070
    -1
1002
}
  0
DIMENSION
  5
A090
330
1F
100
AcDbEntity
  8
AM_5
100
AcDbDimension
  2
*D6
 10
-139.9999926090238
 20
-36.81549172265589
 30
0.0
 11
-69.99999630451203
 21
-33.71549172265589
 31
0.0
 70
    32
  1
<>
 71
     5
 42
-1.0
 51
359.9999999999998
  3
AM_JIS$0
100
AcDbAlignedDimension
 13
-0.000000000000254
 23
-12.81549072265585
 33
0.0
 14
-139.9999926090238
 24
-10.16149902343708
 34
0.0
100
AcDbRotatedDimension
1001
GENIUS_GENDTOL_13
1000

1000
h7
1000

1040
0.0
1001
ACAD
1000
DSTYLE
1002
{
1070
   287
1070
     3
1070
    40
1040
1.0
1070
    42
1040
1.0
1070
    43
1040
12.0
1070
    48
1040
0.1
1070
    78
1070
     8
1070
   140
1040
3.2
1070
   176
1070
   256
1070
   177
1070
   256
1070
   271
1070
     0
1070
   272
1070
     3
1070
   275
1070
     0
1070
   284
1070
     0
1070
   289
1070
     3
1070
   340
1005
6B
1070
   371
1070
    -1
1070
   372
1070
    -1
1002
}
  0
DIMENSION
  5
A125
330
1F
100
AcDbEntity
  8
AM_5
100
AcDbDimension
  2
*D7
 10
-158.2162332997952
 20
-12.49998474121107
 30
0.0
 11
-161.3162332997952
 21
0.0000114440918993
 31
0.0
 70
    32
  1
%%c<>
 71
     5
 42
-1.0
 51
359.9999999999998
  3
AM_JIS$0
100
AcDbAlignedDimension
 13
-136.9999999999993
 23
12.50000762939491
 33
0.0
 14
-136.9999847412102
 24
-12.49998474121108
 34
0.0
 50
270.0000000000002
100
AcDbRotatedDimension
1001
GENIUS_GENDTOL_13
1000

1000
h7
1000

1040
0.0
1001
ACAD
1000
DSTYLE
1002
{
1070
   287
1070
     3
1070
    42
1040
1.0
1070
    43
1040
12.0
1070
    48
1040
0.1
1070
    78
1070
     8
1070
   140
1040
3.2
1070
   176
1070
   256
1070
   177
1070
   256
1070
   271
1070
     0
1070
   272
1070
     3
1070
   275
1070
     0
1070
   284
1070
     0
1070
   289
1070
     3
1070
   340
1005
6B
1070
   371
1070
    -1
1070
   372
1070
    -1
1002
}
  0
VIEWPORT
  5
110
102
{ACAD_XDICTIONARY
360
A513
102
}
330
101
100
AcDbEntity
 67
     1
  8
0
100
AcDbViewport
 10
420.5
 20
297.0
 30
0.0
 40
948.9782706766916
 41
628.452
 68
     1
 69
     1
 12
420.5
 22
297.0
 13
0.0
 23
0.0
 14
10.0
 24
10.0
 15
10.0
 25
10.0
 16
0.0
 26
0.0
 36
1.0
 17
0.0
 27
0.0
 37
0.0
 42
50.0
 43
0.0
 44
0.0
 45
628.452
 50
0.0
 51
0.0
 72
   100
 90
    32800
  1

281
     0
 71
     1
 74
     0
110
-0.0000000000002682
120
0.000000000000161
130
0.0
111
1.0
121
0.000000000000002
131
0.0
112
-0.000000000000002
122
1.0
132
0.0
 79
     0
146
0.0
1001
GENIUS_GENSCREG_15
1000
PF
1040
1.0
1000
DF
1040
1.0
1000
MIN
1011
-53.98913533834582
1021
-17.226
1031
0.0
1000
MAX
1011
894.9891353383458
1021
611.226
1031
0.0
1000
FLAGS
1070
     4
1001
GENIUS_GENOBJ-N-SDF_13
1002
{
1000
OWNER
1000
GEN
1002
}
1001
GENIUS_GENODEF_13
1002
{
1000
HIER
1070
     0
1002
}
1002
{
1000
MANEDIT
1070
     0
1002
}
1002
{
1000
NOSEL
1070
     0
1002
}
1002
{
1000
BEHIND
1070
     0
1002
}
1002
{
1000
OTHER
1070
     0
1002
}
1002
{
1000
REACTOR
1002
}
  0
ENDSEC
  0
SECTION
  2
OBJECTS
  0
DICTIONARY
  5
C
330
0
100
AcDbDictionary
281
     1
  3
ACAD_COLOR
350
A444
  3
ACAD_GROUP
350
D
  3
ACAD_LAYOUT
350
1A
  3
ACAD_MATERIAL
350
A443
  3
ACAD_MLINESTYLE
350
17
  3
ACAD_PLOTSETTINGS
350
19
  3
ACAD_PLOTSTYLENAME
350
E
  3
ACAD_TABLESTYLE
350
A445
  3
ACDBHEADERROUNDTRIPXREC
350
A512
  3
ACDBVARIABLEDICTIONARY
350
34
  3
ACMDICTIONARY
350
43
  3
AMG
350
2B
  3
AMGSNAPSETTINGS
350
6E
  3
DWGPROPS
350
A511
  0
DICTIONARY
  5
74
330
1F
100
AcDbDictionary
280
     1
281
     1
  3
ACAD_INDEX
360
A3D3
  3
ACAD_LAYOUTSELFREF
360
A400
  0
DICTIONARY
  5
A405
330
101
100
AcDbDictionary
280
     1
281
     1
  3
ACAD_LAYOUTSELFREF
360
A406
  0
DICTIONARY
  5
A513
330
110
100
AcDbDictionary
280
     1
281
     1
  3
ACAD_XREC_ROUNDTRIP
360
A514
  0
DICTIONARY
  5
A444
102
{ACAD_REACTORS
330
C
102
}
330
C
100
AcDbDictionary
281
     1
  0
DICTIONARY
  5
D
102
{ACAD_REACTORS
330
C
102
}
330
C
100
AcDbDictionary
281
     1
  0
DICTIONARY
  5
1A
102
{ACAD_REACTORS
330
C
102
}
330
C
100
AcDbDictionary
281
     1
  3
Model
350
A447
  3
レイアウト1
350
A448
  0
DICTIONARY
  5
A443
102
{ACAD_REACTORS
330
C
102
}
330
C
100
AcDbDictionary
281
     1
  0
DICTIONARY
  5
17
102
{ACAD_REACTORS
330
C
102
}
330
C
100
AcDbDictionary
281
     1
  3
STANDARD
350
18
  0
DICTIONARY
  5
19
102
{ACAD_REACTORS
330
C
102
}
330
C
100
AcDbDictionary
281
     1
  3
ASAMI
350
399D
  0
ACDBDICTIONARYWDFLT
  5
E
102
{ACAD_REACTORS
330
C
102
}
330
C
100
AcDbDictionary
281
     1
  3
Normal
350
F
100
AcDbDictionaryWithDefault
340
F
  0
DICTIONARY
  5
A445
102
{ACAD_REACTORS
330
C
102
}
330
C
100
AcDbDictionary
281
     1
  3
Standard
350
A446
  0
DICTIONARY
  5
A512
102
{ACAD_REACTORS
330
C
102
}
330
C
100
AcDbDictionary
281
     1
  0
DICTIONARY
  5
34
102
{ACAD_REACTORS
330
C
102
}
330
C
100
AcDbDictionary
281
     1
  3
CTABLESTYLE
350
A50D
  3
DIMASSOC
350
A50E
  3
INDEXCTL
350
35
  3
PROJECTNAME
350
A50F
  3
SORTENTS
350
B5E
  0
DICTIONARY
  5
43
102
{ACAD_REACTORS
330
C
102
}
330
C
100
AcDbDictionary
281
     1
  3
ACMSTDDICTIONARY
350
260
  0
DICTIONARY
  5
2B
102
{ACAD_REACTORS
330
C
102
}
330
C
100
AcDbDictionary
281
     1
  0
DICTIONARY
  5
6E
102
{ACAD_REACTORS
330
C
102
}
330
C
100
AcDbDictionary
281
     1
  0
XRECORD
  5
A511
102
{ACAD_REACTORS
330
C
102
}
330
C
100
AcDbXrecord
280
     1
  1
DWGPROPS COOKIE
  2

  3

  4

  6

  7

  8
那須
  9

300
AmdtFileType=82
301
=
302
=
303
=
304
=
305
=
306
=
307
=
308
=
309
=
 40
0.9497668171296297
 41
2452802.716478762
 42
2453691.646634467
  1

 90
        1
  0
DICTIONARY
  5
A3D3
102
{ACAD_REACTORS
330
74
102
}
330
74
100
AcDbDictionary
281
     1
  3
*A1
350
A3D4
  0
XRECORD
  5
A400
102
{ACAD_REACTORS
330
74
102
}
330
74
100
AcDbXrecord
280
     1
340
1F
  0
XRECORD
  5
A406
102
{ACAD_REACTORS
330
A405
102
}
330
A405
100
AcDbXrecord
280
     1
340
101
  0
XRECORD
  5
A514
102
{ACAD_REACTORS
330
A513
102
}
330
A513
100
AcDbXrecord
280
     1
102
SHADEPLOT
 70
     0
  0
LAYOUT
  5
A447
102
{ACAD_XDICTIONARY
360
A517
102
}
102
{ACAD_REACTORS
330
1A
102
}
330
1A
100
AcDbPlotSettings
  1

  2
SII LP-2150 (D-SCAN C2)
  4

  6

 40
0.0
 41
0.0
 42
0.0
 43
0.0
 44
0.0
 45
0.0
 46
0.0
 47
0.0
 48
0.0
 49
0.0
140
0.0
141
0.0
142
1.0
143
1.0
 70
  1712
 72
     0
 73
     0
 74
     0
  7
sei_cad.ctb
 75
     0
147
1.0
148
0.0
149
0.0
100
AcDbLayout
  1
Model
 70
     1
 71
     0
 10
0.0
 20
0.0
 11
12.0
 21
9.0
 12
0.0
 22
0.0
 32
0.0
 14
0.0
 24
0.0
 34
0.0
 15
0.0
 25
0.0
 35
0.0
146
0.0
 13
0.0
 23
0.0
 33
0.0
 16
1.0
 26
0.0
 36
0.0
 17
0.0
 27
1.0
 37
0.0
 76
     0
330
1F
  0
LAYOUT
  5
A448
102
{ACAD_XDICTIONARY
360
A519
102
}
102
{ACAD_REACTORS
330
1A
102
}
330
1A
100
AcDbPlotSettings
  1

  2
SII LP-2150 (D-SCAN C2)
  4

  6

 40
0.0
 41
0.0
 42
0.0
 43
0.0
 44
0.0
 45
0.0
 46
0.0
 47
0.0
 48
0.0
 49
0.0
140
0.0
141
0.0
142
1.0
143
1.0
 70
   688
 72
     0
 73
     0
 74
     5
  7
sei_cad.ctb
 75
    16
147
1.0
148
0.0
149
0.0
100
AcDbLayout
  1
レイアウト1
 70
     0
 71
     1
 10
0.0
 20
0.0
 11
841.0
 21
594.0
 12
0.0
 22
0.0
 32
0.0
 14
1.000000000000000E+20
 24
1.000000000000000E+20
 34
1.000000000000000E+20
 15
-1.000000000000000E+20
 25
-1.000000000000000E+20
 35
-1.000000000000000E+20
146
0.0
 13
0.0
 23
0.0
 33
0.0
 16
1.0
 26
0.0
 36
0.0
 17
0.0
 27
1.0
 37
0.0
 76
     0
330
101
331
110
  0
MLINESTYLE
  5
18
102
{ACAD_REACTORS
330
17
102
}
330
17
100
AcDbMlineStyle
  2
STANDARD
 70
     0
  3

 62
   256
 51
90.0
 52
90.0
 71
     2
 49
0.5
 62
   256
  6
BYLAYER
 49
-0.5
 62
   256
  6
BYLAYER
  0
PLOTSETTINGS
  5
399D
102
{ACAD_XDICTIONARY
360
A515
102
}
102
{ACAD_REACTORS
330
19
102
}
330
19
100
AcDbPlotSettings
  1
asami
  2
RICOH imagio MF1540
  4
A4
  6

 40
5.831416606903076
 41
7.651742935180664
 42
4.90008544921875
 43
5.789077758789062
 44
296.9683227539062
 45
209.9733276367186
 46
0.0
 47
0.0
 48
-156.6707931774246
 49
-74.57609991074048
140
58.59973180214831
141
60.61068161925597
142
1.0
143
1.095343097833084
 70
  1712
 72
     1
 73
     1
 74
     4
  7
asami.ctb
 75
     0
147
0.9129559514076438
148
156.6707931774246
149
74.57609991074048
  0
ACDBPLACEHOLDER
  5
F
102
{ACAD_REACTORS
330
E
102
}
330
E
  0
TABLESTYLE
  5
A446
102
{ACAD_REACTORS
330
A445
102
}
330
A445
100
AcDbTableStyle
  3
Standard
 70
     0
 71
     0
 40
1.5
 41
1.5
280
     0
281
     0
  7
STANDARD
140
4.5
170
     2
 62
     0
 63
     7
283
     0
274
    -2
284
     1
 64
     0
275
    -2
285
     1
 65
     0
276
    -2
286
     1
 66
     0
277
    -2
287
     1
 67
     0
278
    -2
288
     1
 68
     0
279
    -2
289
     1
 69
     0
  7
STANDARD
140
6.0
170
     5
 62
     0
 63
     7
283
     0
274
    -2
284
     1
 64
     0
275
    -2
285
     1
 65
     0
276
    -2
286
     1
 66
     0
277
    -2
287
     1
 67
     0
278
    -2
288
     1
 68
     0
279
    -2
289
     1
 69
     0
  7
STANDARD
140
4.5
170
     5
 62
     0
 63
     7
283
     0
274
    -2
284
     1
 64
     0
275
    -2
285
     1
 65
     0
276
    -2
286
     1
 66
     0
277
    -2
287
     1
 67
     0
278
    -2
288
     1
 68
     0
279
    -2
289
     1
 69
     0
  0
DICTIONARYVAR
  5
A50D
102
{ACAD_REACTORS
330
34
102
}
330
34
100
DictionaryVariables
280
     0
  1
STANDARD
  0
DICTIONARYVAR
  5
A50E
102
{ACAD_REACTORS
330
34
102
}
330
34
100
DictionaryVariables
280
     0
  1
1
  0
DICTIONARYVAR
  5
35
102
{ACAD_REACTORS
330
34
102
}
330
34
100
DictionaryVariables
280
     0
  1
1
  0
DICTIONARYVAR
  5
A50F
102
{ACAD_REACTORS
330
34
102
}
330
34
100
DictionaryVariables
280
     0
  1

  0
DICTIONARYVAR
  5
B5E
102
{ACAD_REACTORS
330
34
102
}
330
34
100
DictionaryVariables
280
     0
  1
96
  0
DICTIONARY
  5
260
102
{ACAD_REACTORS
330
43
102
}
330
43
100
AcDbDictionary
281
     1
  0
LAYER_INDEX
  5
A3D4
102
{ACAD_REACTORS
330
A3D3
102
}
330
A3D3
100
AcDbIndex
 40
2453691.646634467
100
AcDbLayerIndex
  8
0
360
A3D5
 90
        0
  8
AM_0
360
A3D6
 90
      291
  8
AM_5
360
A3D7
 90
        6
  8
AM_7
360
A3D8
 90
        1
  8
AM_6
360
A3D9
 90
        1
  8
DEFPOINTS
360
A3DA
 90
        0
  8
AM_11
360
A3DB
 90
        4
  0
DICTIONARY
  5
A517
330
A447
100
AcDbDictionary
280
     1
281
     1
  3
ACAD_XREC_ROUNDTRIP
360
A518
  0
DICTIONARY
  5
A519
330
A448
100
AcDbDictionary
280
     1
281
     1
  3
ACAD_XREC_ROUNDTRIP
360
A51A
  0
DICTIONARY
  5
A515
330
399D
100
AcDbDictionary
280
     1
281
     1
  3
ACAD_XREC_ROUNDTRIP
360
A516
  0
IDBUFFER
  5
A3D5
330
0
100
AcDbIdBuffer
  0
IDBUFFER
  5
A3D6
330
0
100
AcDbIdBuffer
330
9AC5
330
9AC6
330
9ACA
330
9ACB
330
9ACC
330
9ACD
330
9ACE
330
9ACF
330
9AD0
330
9AD1
330
9AD2
330
9AD3
330
9AD4
330
9AD5
330
9AD6
330
9AD7
330
9AD8
330
9AD9
330
9ADA
330
9ADB
330
9ADC
330
9ADD
330
9ADE
330
9ADF
330
9AE0
330
9AE1
330
9AE2
330
9AE3
330
9AE4
330
9AE5
330
9AE6
330
9AE7
330
9AE8
330
9AE9
330
9AEA
330
9AEB
330
9AEC
330
9AED
330
9AEE
330
9AF9
330
9AFA
330
9AFB
330
9AFC
330
9AFD
330
9AFE
330
9AFF
330
9B00
330
9B01
330
9B02
330
9B03
330
9B04
330
9B05
330
9B06
330
9B07
330
9B08
330
9B09
330
9B1C
330
9B1D
330
9B1E
330
9B47
330
9B48
330
9B49
330
9B4A
330
9B4B
330
9B4C
330
9B4D
330
9B4E
330
9B4F
330
9B50
330
9B51
330
9B52
330
9B53
330
9B54
330
9B55
330
9B56
330
9B57
330
9B58
330
9B59
330
9B5A
330
9B5B
330
9B5C
330
9B5D
330
9B5E
330
9B5F
330
9B60
330
9B61
330
9B62
330
9B63
330
9B64
330
9B65
330
9B66
330
9B67
330
9B68
330
9B69
330
9B6A
330
9B6B
330
9B6C
330
9B6D
330
9B6E
330
9B6F
330
9B70
330
9B71
330
9B72
330
9B73
330
9B74
330
9B75
330
9B76
330
9B77
330
9B78
330
9B79
330
9B7A
330
9B7B
330
9B7C
330
9B7D
330
9B7E
330
9B8F
330
9B90
330
9B91
330
9B92
330
9B93
330
9B94
330
9B95
330
9B96
330
9B97
330
9B98
330
9B99
330
9B9A
330
9B9B
330
9B9C
330
9B9D
330
9BBF
330
9BC0
330
9BC1
330
9BC2
330
9BC3
330
9BC4
330
9BC5
330
9BC6
330
9BC7
330
9BC8
330
9BC9
330
9BCA
330
9BCB
330
9BCC
330
9BCD
330
9BCE
330
9BCF
330
9BD0
330
9BD1
330
9BD2
330
9C8B
330
9C8C
330
9C8D
330
9C8E
330
9C8F
330
9C90
330
9C93
330
9C94
330
9C95
330
9C96
330
9C97
330
9C98
330
9C99
330
9C9A
330
9C9B
330
9C9C
330
9C9D
330
9C9E
330
9C9F
330
9CA0
330
9CA1
330
9CA2
330
9CA3
330
9CA4
330
9CA5
330
9CA6
330
9CA7
330
9CA8
330
9CA9
330
9CAA
330
9CAB
330
9CAC
330
9CAD
330
9CAE
330
9CAF
330
9CB0
330
9CB1
330
9CB2
330
9CB3
330
9CB4
330
9CB5
330
9CB6
330
9CB7
330
9CB8
330
9CB9
330
9CBA
330
9CBB
330
9CBC
330
9CBD
330
9CBE
330
9CBF
330
9CC0
330
9CC1
330
9CC2
330
9CC3
330
9CC4
330
9CC5
330
9CC6
330
9CC7
330
9CC8
330
9CC9
330
9CCA
330
9CCB
330
9CCC
330
9CCD
330
9CCE
330
9CCF
330
9CD0
330
9CD1
330
9CD2
330
9CD3
330
9CD4
330
9CD5
330
9CD6
330
9CD7
330
9CD8
330
9CD9
330
9CDA
330
9CDB
330
9CDC
330
9CDD
330
9CDE
330
9CDF
330
9CE0
330
9CE1
330
9CE2
330
9CE3
330
9CE4
330
9CE5
330
9CE6
330
9CE7
330
9CE8
330
9CE9
330
9CEA
330
9CEB
330
9CEC
330
9CED
330
9CEE
330
9CEF
330
9CF0
330
9CF1
330
9CF2
330
9CF3
330
9CF4
330
9CF5
330
9CF6
330
9CF7
330
9CF8
330
9CF9
330
9CFA
330
9CFB
330
9CFC
330
9CFD
330
9CFE
330
9CFF
330
9D00
330
9D01
330
9D02
330
9D03
330
9D04
330
9D05
330
9D06
330
9D07
330
9D08
330
9D09
330
9D0A
330
9D0B
330
9D0C
330
9D0D
330
9D0E
330
9D0F
330
9D10
330
9D11
330
9D12
330
9D14
330
9D15
330
9D16
330
9D17
330
9D18
330
9D19
330
9D1A
  0
IDBUFFER
  5
A3D7
330
0
100
AcDbIdBuffer
330
9E21
330
9EAD
330
9F5D
330
9FE9
330
A090
330
A125
  0
IDBUFFER
  5
A3D8
330
0
100
AcDbIdBuffer
330
9AC7
  0
IDBUFFER
  5
A3D9
330
0
100
AcDbIdBuffer
330
388D
  0
IDBUFFER
  5
A3DA
330
0
100
AcDbIdBuffer
  0
IDBUFFER
  5
A3DB
330
0
100
AcDbIdBuffer
330
9DB3
330
9DB4
330
9DBC
330
9DBD
  0
XRECORD
  5
A518
102
{ACAD_REACTORS
330
A517
102
}
330
A517
100
AcDbXrecord
280
     1
102
SHADEPLOT
 70
     0
102
SHADEPLOTRESLEVEL
 70
     2
102
SHADEPLOTCUSTOMDPI
 70
   300
  0
XRECORD
  5
A51A
102
{ACAD_REACTORS
330
A519
102
}
330
A519
100
AcDbXrecord
280
     1
102
SHADEPLOT
 70
     0
102
SHADEPLOTRESLEVEL
 70
     2
102
SHADEPLOTCUSTOMDPI
 70
   300
  0
XRECORD
  5
A516
102
{ACAD_REACTORS
330
A515
102
}
330
A515
100
AcDbXrecord
280
     1
102
SHADEPLOT
 70
     0
102
SHADEPLOTRESLEVEL
 70
     2
102
SHADEPLOTCUSTOMDPI
 70
   300
  0
ENDSEC
  0
EOF
