  0
SECTION
  2
HEADER
  9
$ACADVER
  1
AC1015
  9
$ACADMAINTVER
 70
    20
  9
$DWGCODEPAGE
  3
ANSI_932
  9
$INSBASE
 10
0.0
 20
0.0
 30
0.0
  9
$EXTMIN
 10
-243.1693460927663
 20
-59.31549172265622
 30
0.0
  9
$EXTMAX
 10
17.55177407128874
 20
30.81549172265615
 30
0.0
  9
$LIMMIN
 10
-266.6527206638803
 20
-96.70146663108528
  9
$LIMMAX
 10
72.98696435905672
 20
48.43669210391067
  9
$ORTHOMODE
 70
     0
  9
$REGENMODE
 70
     1
  9
$FILLMODE
 70
     1
  9
$QTEXTMODE
 70
     0
  9
$MIRRTEXT
 70
     0
  9
$LTSCALE
 40
1.0
  9
$ATTMODE
 70
     1
  9
$TEXTSIZE
 40
2.5
  9
$TRACEWID
 40
1.0
  9
$TEXTSTYLE
  7
STANDARD
  9
$CLAYER
  8
AM_0
  9
$CELTYPE
  6
BYLAYER
  9
$CECOLOR
 62
   256
  9
$CELTSCALE
 40
1.0
  9
$DISPSILH
 70
     0
  9
$DIMSCALE
 40
1.0
  9
$DIMASZ
 40
2.5
  9
$DIMEXO
 40
1.0
  9
$DIMDLI
 40
12.0
  9
$DIMRND
 40
0.0
  9
$DIMDLE
 40
0.0
  9
$DIMEXE
 40
1.0
  9
$DIMTP
 40
0.1
  9
$DIMTM
 40
0.1
  9
$DIMTXT
 40
3.2
  9
$DIMCEN
 40
0.0
  9
$DIMTSZ
 40
0.0
  9
$DIMTOL
 70
     0
  9
$DIMLIM
 70
     0
  9
$DIMTIH
 70
     0
  9
$DIMTOH
 70
     0
  9
$DIMSE1
 70
     0
  9
$DIMSE2
 70
     0
  9
$DIMTAD
 70
     3
  9
$DIMZIN
 70
     8
  9
$DIMBLK
  1
Open30
  9
$DIMASO
 70
     1
  9
$DIMSHO
 70
     1
  9
$DIMPOST
  1

  9
$DIMAPOST
  1
"
  9
$DIMALT
 70
     0
  9
$DIMALTD
 70
     2
  9
$DIMALTF
 40
0.0393701
  9
$DIMLFAC
 40
1.0
  9
$DIMTOFL
 70
     1
  9
$DIMTVP
 40
0.0
  9
$DIMTIX
 70
     0
  9
$DIMSOXD
 70
     0
  9
$DIMSAH
 70
     0
  9
$DIMBLK1
  1

  9
$DIMBLK2
  1

  9
$DIMSTYLE
  2
AM_JIS
  9
$DIMCLRD
 70
   256
  9
$DIMCLRE
 70
   256
  9
$DIMCLRT
 70
     2
  9
$DIMTFAC
 40
0.71
  9
$DIMGAP
 40
1.5
  9
$DIMJUST
 70
     0
  9
$DIMSD1
 70
     0
  9
$DIMSD2
 70
     0
  9
$DIMTOLJ
 70
     0
  9
$DIMTZIN
 70
     0
  9
$DIMALTZ
 70
     0
  9
$DIMALTTZ
 70
     0
  9
$DIMUPT
 70
     0
  9
$DIMDEC
 70
     3
  9
$DIMTDEC
 70
     3
  9
$DIMALTU
 70
     2
  9
$DIMALTTD
 70
     2
  9
$DIMTXSTY
  7
ASAMI
  9
$DIMAUNIT
 70
     0
  9
$DIMADEC
 70
     0
  9
$DIMALTRND
 40
0.0
  9
$DIMAZIN
 70
     2
  9
$DIMDSEP
 70
    46
  9
$DIMATFIT
 70
     3
  9
$DIMFRAC
 70
     0
  9
$DIMLDRBLK
  1
Open30
  9
$DIMLUNIT
 70
     2
  9
$DIMLWD
 70
    -1
  9
$DIMLWE
 70
    -1
  9
$DIMTMOVE
 70
     0
  9
$LUNITS
 70
     2
  9
$LUPREC
 70
     2
  9
$SKETCHINC
 40
1.0
  9
$FILLETRAD
 40
0.4
  9
$AUNITS
 70
     0
  9
$AUPREC
 70
     0
  9
$MENU
  1
.
  9
$ELEVATION
 40
0.0
  9
$PELEVATION
 40
0.0
  9
$THICKNESS
 40
0.0
  9
$LIMCHECK
 70
     1
  9
$CHAMFERA
 40
1.0
  9
$CHAMFERB
 40
1.0
  9
$CHAMFERC
 40
20.0
  9
$CHAMFERD
 40
0.0
  9
$SKPOLY
 70
     0
  9
$TDCREATE
 40
2452802.716478762
  9
$TDUCREATE
 40
2452802.341478762
  9
$TDUPDATE
 40
2453691.648306204
  9
$TDUUPDATE
 40
2453691.273306203
  9
$TDINDWG
 40
0.9408813194
  9
$TDUSRTIMER
 40
0.9408811343
  9
$USRTIMER
 70
     1
  9
$ANGBASE
 50
0.0
  9
$ANGDIR
 70
     0
  9
$PDMODE
 70
     0
  9
$PDSIZE
 40
0.0
  9
$PLINEWID
 40
0.0
  9
$SPLFRAME
 70
     0
  9
$SPLINETYPE
 70
     6
  9
$SPLINESEGS
 70
     8
  9
$HANDSEED
  5
B143
  9
$SURFTAB1
 70
     6
  9
$SURFTAB2
 70
     6
  9
$SURFTYPE
 70
     6
  9
$SURFU
 70
     6
  9
$SURFV
 70
     6
  9
$UCSBASE
  2

  9
$UCSNAME
  2

  9
$UCSORG
 10
-0.0000000000002682
 20
0.000000000000161
 30
0.0
  9
$UCSXDIR
 10
1.0
 20
0.000000000000002
 30
0.0
  9
$UCSYDIR
 10
-0.000000000000002
 20
1.0
 30
0.0
  9
$UCSORTHOREF
  2

  9
$UCSORTHOVIEW
 70
     0
  9
$UCSORGTOP
 10
0.0
 20
0.0
 30
0.0
  9
$UCSORGBOTTOM
 10
0.0
 20
0.0
 30
0.0
  9
$UCSORGLEFT
 10
0.0
 20
0.0
 30
0.0
  9
$UCSORGRIGHT
 10
0.0
 20
0.0
 30
0.0
  9
$UCSORGFRONT
 10
0.0
 20
0.0
 30
0.0
  9
$UCSORGBACK
 10
0.0
 20
0.0
 30
0.0
  9
$PUCSBASE
  2

  9
$PUCSNAME
  2

  9
$PUCSORG
 10
0.0
 20
0.0
 30
0.0
  9
$PUCSXDIR
 10
1.0
 20
0.0
 30
0.0
  9
$PUCSYDIR
 10
0.0
 20
1.0
 30
0.0
  9
$PUCSORTHOREF
  2

  9
$PUCSORTHOVIEW
 70
     0
  9
$PUCSORGTOP
 10
0.0
 20
0.0
 30
0.0
  9
$PUCSORGBOTTOM
 10
0.0
 20
0.0
 30
0.0
  9
$PUCSORGLEFT
 10
0.0
 20
0.0
 30
0.0
  9
$PUCSORGRIGHT
 10
0.0
 20
0.0
 30
0.0
  9
$PUCSORGFRONT
 10
0.0
 20
0.0
 30
0.0
  9
$PUCSORGBACK
 10
0.0
 20
0.0
 30
0.0
  9
$USERI1
 70
     0
  9
$USERI2
 70
     0
  9
$USERI3
 70
     0
  9
$USERI4
 70
     0
  9
$USERI5
 70
     0
  9
$USERR1
 40
0.0
  9
$USERR2
 40
0.0
  9
$USERR3
 40
0.0
  9
$USERR4
 40
0.0
  9
$USERR5
 40
0.0
  9
$WORLDVIEW
 70
     1
  9
$SHADEDGE
 70
     3
  9
$SHADEDIF
 70
    70
  9
$TILEMODE
 70
     1
  9
$MAXACTVP
 70
    64
  9
$PINSBASE
 10
0.0
 20
0.0
 30
0.0
  9
$PLIMCHECK
 70
     0
  9
$PEXTMIN
 10
1.000000000000000E+20
 20
1.000000000000000E+20
 30
1.000000000000000E+20
  9
$PEXTMAX
 10
-1.000000000000000E+20
 20
-1.000000000000000E+20
 30
-1.000000000000000E+20
  9
$PLIMMIN
 10
0.0
 20
0.0
  9
$PLIMMAX
 10
841.0
 20
594.0
  9
$UNITMODE
 70
     0
  9
$VISRETAIN
 70
     1
  9
$PLINEGEN
 70
     0
  9
$PSLTSCALE
 70
     0
  9
$TREEDEPTH
 70
  3020
  9
$CMLSTYLE
  2
STANDARD
  9
$CMLJUST
 70
     0
  9
$CMLSCALE
 40
20.0
  9
$PROXYGRAPHICS
 70
     1
  9
$MEASUREMENT
 70
     1
  9
$CELWEIGHT
370
    -1
  9
$ENDCAPS
280
     0
  9
$JOINSTYLE
280
     0
  9
$LWDISPLAY
290
     0
  9
$INSUNITS
 70
     4
  9
$HYPERLINKBASE
  1

  9
$STYLESHEET
  1
ASAMI.ctb
  9
$XEDIT
290
     1
  9
$CEPSNTYPE
380
     0
  9
$PSTYLEMODE
290
     1
  9
$FINGERPRINTGUID
  2
{AFB28963-8C59-40AE-9337-C84526B81ACE}
  9
$VERSIONGUID
  2
{AF57C143-167F-49A6-AD45-AC14041FCD05}
  9
$EXTNAMES
290
     1
  9
$PSVPSCALE
 40
0.0
  9
$OLESTARTUP
290
     0
  0
ENDSEC
  0
SECTION
  2
CLASSES
  0
CLASS
  1
ACDBDICTIONARYWDFLT
  2
AcDbDictionaryWithDefault
  3
ObjectDBX Classes
 90
        0
280
     0
281
     0
  0
CLASS
  1
ACDBPLACEHOLDER
  2
AcDbPlaceHolder
  3
ObjectDBX Classes
 90
        0
280
     0
281
     0
  0
CLASS
  1
LAYOUT
  2
AcDbLayout
  3
ObjectDBX Classes
 90
        0
280
     0
281
     0
  0
CLASS
  1
AMGSETTINGSOBJ
  2
AmgSettingsObj
  3
"AcadM|Product Description: AutoCAD Mechanical 2000|Company: Autodesk"
 90
        0
280
     0
281
     0
  0
CLASS
  1
ACME_DOCUMENT
  2
AcMeDbDoc
  3
AcMeServices
 90
        0
280
     0
281
     0
  0
CLASS
  1
ACMESCOPE
  2
AcMeScope
  3
AcMeServices
 90
        0
280
     0
281
     0
  0
CLASS
  1
ACMECOMMANDHISTORY
  2
AcMeCommandHistory
  3
AcMeServices
 90
        0
280
     0
281
     0
  0
CLASS
  1
DICTIONARYVAR
  2
AcDbDictionaryVar
  3
ObjectDBX Classes
 90
        0
280
     0
281
     0
  0
CLASS
  1
ACIMSYSVARMAN
  2
AcImSysVarManager
  3
AcMeServices
 90
        0
280
     0
281
     0
  0
CLASS
  1
ACIMREALSYSVAR
  2
AcImRealSysVar
  3
AcMeServices
 90
        0
280
     0
281
     0
  0
CLASS
  1
ACIMINTSYSVAR
  2
AcImIntSysVar
  3
AcMeServices
 90
        0
280
     0
281
     0
  0
CLASS
  1
ACMEDRAWINGMAN
  2
AcMeDrawingMan
  3
AcMeServices
 90
        0
280
     0
281
     0
  0
CLASS
  1
ACMEVIEW
  2
AcMeView
  3
AcMeServices
 90
        0
280
     0
281
     0
  0
CLASS
  1
ACDBENTITYCACHE
  2
AcMeEntityCache
  3
AcMeServices
 90
        0
280
     0
281
     0
  0
CLASS
  1
GSMANAGER
  2
AcMeGSManager
  3
AcMeServices
 90
        0
280
     0
281
     0
  0
CLASS
  1
AMDTINTERNALREACTOR
  2
AmdtInternalReactor
  3
AcMeServices
 90
        0
280
     0
281
     0
  0
CLASS
  1
ACMESTATEMGR
  2
AcMeStateMgr
  3
AcMeServices
 90
        0
280
     0
281
     0
  0
CLASS
  1
ACME_DATABASE
  2
AcMeDbDatabase
  3
AcMeServices
 90
        0
280
     0
281
     0
  0
CLASS
  1
ACRFINSADJUSTERMGR
  2
AcRfInsAdjusterMgr
  3
AcMeServices
 90
        0
280
     0
281
     0
  0
CLASS
  1
ACMDATADICTIONARY
  2
AcmDataDictionary
  3
"AcmSymBB|Product Description: AutoCAD Mechanical 2004 DX|Company: Autodesk"
 90
        0
280
     0
281
     0
  0
CLASS
  1
ACMDATAENTRYBLOCK
  2
AcmDataEntryBlock
  3
"AcmSymBB|Product Description: AutoCAD Mechanical 2004 DX|Company: Autodesk"
 90
    32768
280
     0
281
     0
  0
CLASS
  1
AMGOBJPROPCFG
  2
AmgObjPropCfg
  3
"AmgLay|Product Description: AutoCAD Mechanical 2000|Company: Autodesk"
 90
        1
280
     0
281
     0
  0
CLASS
  1
ACAMGFILTERDAT
  2
AcAmgFilterDat
  3
"AcadM|Product Description: AutoCAD Mechanical 2000|Company: Autodesk"
 90
    32768
280
     0
281
     0
  0
CLASS
  1
LAYER_INDEX
  2
AcDbLayerIndex
  3
ObjectDBX Classes
 90
        0
280
     0
281
     0
  0
CLASS
  1
IDBUFFER
  2
AcDbIdBuffer
  3
ObjectDBX Classes
 90
        0
280
     0
281
     0
  0
CLASS
  1
ACIMSTRSYSVAR
  2
AcImStrSysVar
  3
AcMeServices
 90
        0
280
     0
281
     0
  0
CLASS
  1
ACMSTANDARDJIS
  2
AcmStandardJIS
  3
"Amdt_StdImp|Product Description: AutoCAD Mechanical 2004 DX|Company: Autodesk"
 90
        0
280
     0
281
     0
  0
CLASS
  1
ACMSURFSTANDARDJIS
  2
AcmSurfTextStdJIS
  3
"Amdt_StdImp|Product Description: AutoCAD Mechanical 2004 DX|Company: Autodesk"
 90
        0
280
     0
281
     0
  0
CLASS
  1
ACMFCFSTANDARDJIS
  2
AcmFCFStdJIS
  3
"Amdt_StdImp|Product Description: AutoCAD Mechanical 2004 DX|Company: Autodesk"
 90
    32768
280
     0
281
     0
  0
CLASS
  1
ACMWELDSTANDARDJIS
  2
AcmWeldingStdJIS
  3
"Amdt_StdImp|Product Description: AutoCAD Mechanical 2004 DX|Company: Autodesk"
 90
        0
280
     0
281
     0
  0
CLASS
  1
ACMIDSTANDARDJIS
  2
AcmIdStdJIS
  3
"Amdt_StdImp|Product Description: AutoCAD Mechanical 2004 DX|Company: Autodesk"
 90
        0
280
     0
281
     0
  0
CLASS
  1
ACMDATUMSTANDARDJIS
  2
AcmDatumStdJIS
  3
"Amdt_StdImp|Product Description: AutoCAD Mechanical 2004 DX|Company: Autodesk"
 90
        0
280
     0
281
     0
  0
CLASS
  1
ACMBOMSTANDARDJIS
  2
AcmBOMStdJIS
  3
"Amdt_StdImp|Product Description: AutoCAD Mechanical 2004 DX|Company: Autodesk"
 90
        0
280
     0
281
     0
  0
CLASS
  1
ACMSTANDARDANSI
  2
AcmStandardANSI
  3
"Amdt_StdImp|Product Description: AutoCAD Mechanical 2004 DX|Company: Autodesk"
 90
    32768
280
     0
281
     0
  0
CLASS
  1
ACMSURFSTANDARDANSI
  2
AcmSurfTextStdANSI
  3
"Amdt_StdImp|Product Description: AutoCAD Mechanical 2004 DX|Company: Autodesk"
 90
    32768
280
     0
281
     0
  0
CLASS
  1
ACMFCFSTANDARDANSI
  2
AcmFCFStdANSI
  3
"Amdt_StdImp|Product Description: AutoCAD Mechanical 2004 DX|Company: Autodesk"
 90
    32768
280
     0
281
     0
  0
CLASS
  1
ACMWELDSTANDARDANSI
  2
AcmWeldingStdANSI
  3
"Amdt_StdImp|Product Description: AutoCAD Mechanical 2004 DX|Company: Autodesk"
 90
    32768
280
     0
281
     0
  0
CLASS
  1
ACMIDSTANDARDANSI
  2
AcmIdStdANSI
  3
"Amdt_StdImp|Product Description: AutoCAD Mechanical 2004 DX|Company: Autodesk"
 90
    32768
280
     0
281
     0
  0
CLASS
  1
ACMDATUMSTANDARDANSI
  2
AcmDatumStdANSI
  3
"Amdt_StdImp|Product Description: AutoCAD Mechanical 2004 DX|Company: Autodesk"
 90
    32768
280
     0
281
     0
  0
CLASS
  1
ACMBOMSTANDARDANSI
  2
AcmBOMStdANSI
  3
"Amdt_StdImp|Product Description: AutoCAD Mechanical 2004 DX|Company: Autodesk"
 90
    32768
280
     0
281
     0
  0
CLASS
  1
ACMSTANDARDBSI
  2
AcmStandardBSI
  3
"Amdt_StdImp|Product Description: AutoCAD Mechanical 2004 DX|Company: Autodesk"
 90
    32768
280
     0
281
     0
  0
CLASS
  1
ACMSURFSTANDARDBSI
  2
AcmSurfTextStdBSI
  3
"Amdt_StdImp|Product Description: AutoCAD Mechanical 2004 DX|Company: Autodesk"
 90
    32768
280
     0
281
     0
  0
CLASS
  1
ACMFCFSTANDARDBSI
  2
AcmFCFStdBSI
  3
"Amdt_StdImp|Product Description: AutoCAD Mechanical 2004 DX|Company: Autodesk"
 90
    32768
280
     0
281
     0
  0
CLASS
  1
ACMWELDSTANDARDBSI
  2
AcmWeldingStdBSI
  3
"Amdt_StdImp|Product Description: AutoCAD Mechanical 2004 DX|Company: Autodesk"
 90
    32768
280
     0
281
     0
  0
CLASS
  1
ACMIDSTANDARDBSI
  2
AcmIdStdBSI
  3
"Amdt_StdImp|Product Description: AutoCAD Mechanical 2004 DX|Company: Autodesk"
 90
    32768
280
     0
281
     0
  0
CLASS
  1
ACMDATUMSTANDARDBSI
  2
AcmDatumStdBSI
  3
"Amdt_StdImp|Product Description: AutoCAD Mechanical 2004 DX|Company: Autodesk"
 90
    32768
280
     0
281
     0
  0
CLASS
  1
ACMBOMSTANDARDBSI
  2
AcmBOMStdBSI
  3
"Amdt_StdImp|Product Description: AutoCAD Mechanical 2004 DX|Company: Autodesk"
 90
    32768
280
     0
281
     0
  0
CLASS
  1
STDPART2D
  2
AmgStdPart
  3
"AmgStdPart|Product Description: AutoCAD Mechanical 2000|Company: Autodesk"
 90
    33791
280
     0
281
     1
  0
CLASS
  1
PLOTSETTINGS
  2
AcDbPlotSettings
  3
ObjectDBX Classes
 90
        0
280
     0
281
     0
  0
CLASS
  1
TABLESTYLE
  2
AcDbTableStyle
  3
ObjectDBX Classes
 90
     2047
280
     0
281
     0
  0
CLASS
  1
ACGREFMASTER
  2
AcGrefMaster
  3
AcAttribServices
 90
        0
280
     0
281
     0
  0
CLASS
  1
AM_DRAWING_MGR
  2
AcDmDwgMgr
  3
AcMechDwgViewMgmt
 90
        0
280
     0
281
     0
  0
CLASS
  1
AM_DWG_DOCUMENT
  2
AcDmDwgDocument
  3
AcMechDwgViewMgmt
 90
        0
280
     0
281
     0
  0
CLASS
  1
AM_DWG_SHEET
  2
AcDmSheet
  3
AcMechDwgViewMgmt
 90
        0
280
     0
281
     0
  0
CLASS
  1
AM_VIEWDIMPARMAP
  2
AcDmViewDimParMap
  3
AcMechDwgViewMgmt
 90
        0
280
     0
281
     0
  0
CLASS
  1
AM_DWGMGR_NAME
  2
AcDmDwgMgrName
  3
AcMechDwgViewMgmt
 90
        0
280
     0
281
     0
  0
CLASS
  1
ACGREFACADMASTER
  2
AcGrefacadMaster
  3
AcGrefServices
 90
        0
280
     0
281
     0
  0
CLASS
  1
AMDTMENUSTATEMGR
  2
AmdtMenuStateMgr
  3
McadcomServices
 90
        0
280
     0
281
     0
  0
CLASS
  1
AMDTMCOMMENUSTATE
  2
AmdtMcomMenuState
  3
McadcomServices
 90
        0
280
     0
281
     0
  0
CLASS
  1
AMIMASTER
  2
AmiMaster
  3
AmiServices
 90
        0
280
     0
281
     0
  0
CLASS
  1
MAPIAMMOUDLE
  2
MApiAmModule
  3
MApiAmServices
 90
        0
280
     0
281
     0
  0
CLASS
  1
AMDTADMENUSTATE
  2
AmdtAdMenuState
  3
DesignerServices
 90
        0
280
     0
281
     0
  0
CLASS
  1
ADAPPL
  2
AcAdAppl
  3
DesignerServices
 90
        0
280
     0
281
     0
  0
CLASS
  1
DEPMGR
  2
AcAdDepMgr
  3
DesignerServices
 90
        0
280
     0
281
     0
  0
CLASS
  1
PARAMMGR
  2
AcAdParamMgr
  3
DesignerServices
 90
        0
280
     0
281
     0
  0
CLASS
  1
PARAMSCOPE
  2
AcAdParamScope
  3
DesignerServices
 90
        0
280
     0
281
     0
  0
CLASS
  1
NAMEDAPPL
  2
AcAdNamedAppl
  3
DesignerServices
 90
        0
280
     0
281
     0
  0
CLASS
  1
AMDTDMMENUSTATE
  2
AmdtDmMenuState
  3
AcMechDwgViewMgmt
 90
        0
280
     0
281
     0
  0
CLASS
  1
AMDTAMMENUSTATE
  2
AmdtAmMenuState
  3
DesignerAssemblies
 90
        0
280
     0
281
     0
  0
CLASS
  1
ACAMPROJECT
  2
AcAmProject
  3
DesignerAssemblies
 90
        0
280
     0
281
     0
  0
CLASS
  1
ACAMGRCOMPDEF
  2
AcAmGrCompDef
  3
DesignerAssemblies
 90
        0
280
     0
281
     0
  0
CLASS
  1
ACCMCONTEXT
  2
AcCmContext
  3
DesignerAssemblies
 90
        0
280
     0
281
     0
  0
CLASS
  1
ACAMCOMPDEF
  2
AcAmCompDef
  3
DesignerAssemblies
 90
        0
280
     0
281
     0
  0
CLASS
  1
ACAMCOMPDEFMGR
  2
AcAmCompDefMgr
  3
DesignerAssemblies
 90
        0
280
     0
281
     0
  0
CLASS
  1
AMCONTEXTMGR
  2
AcAmContextMgr
  3
DesignerAssemblies
 90
        0
280
     0
281
     0
  0
CLASS
  1
ACAMCONTEXTMODELER
  2
AcAmContextModeler
  3
DesignerAssemblies
 90
        0
280
     0
281
     0
  0
CLASS
  1
CATALOGSTATE
  2
AcAmCatalogState
  3
DesignerAssemblies
 90
        0
280
     0
281
     0
  0
CLASS
  1
ACAMGRCOMPDEFSET
  2
AcAmGrCompDefSet
  3
DesignerAssemblies
 90
        0
280
     0
281
     0
  0
CLASS
  1
AMDTBROWSERDBTAB
  2
AmdtBrowserDbTab
  3
McadcomServices
 90
        0
280
     0
281
     0
  0
CLASS
  1
CBROWSERAPPOBJECT
  2
CBrowserAppObject
  3
McadcomServices
 90
        0
280
     0
281
     0
  0
CLASS
  1
DM_PLACEHOLDER
  2
AcDmSelsetPlaceholder
  3
AcMechDwgViewMgmt
 90
        0
280
     0
281
     0
  0
CLASS
  1
ACMSTANDARDISO
  2
AcmStandardISO
  3
"Amdt_StdImp|Product Description: AutoCAD Mechanical 2004 DX|Company: Autodesk"
 90
        0
280
     0
281
     0
  0
CLASS
  1
AMDTEDGESTANDARDISO
  2
AmdtEdgeStdISO
  3
"Amdt_StdImp|Product Description: AutoCAD Mechanical 2004 DX|Company: Autodesk"
 90
        0
280
     0
281
     0
  0
CLASS
  1
ACMSURFSTANDARDISO
  2
AcmSurfTextStdISO
  3
"Amdt_StdImp|Product Description: AutoCAD Mechanical 2004 DX|Company: Autodesk"
 90
        0
280
     0
281
     0
  0
CLASS
  1
ACMFCFSTANDARDISO
  2
AcmFCFStdISO
  3
"Amdt_StdImp|Product Description: AutoCAD Mechanical 2004 DX|Company: Autodesk"
 90
        0
280
     0
281
     0
  0
CLASS
  1
ACMWELDSTANDARDISO
  2
AcmWeldingStdISO
  3
"Amdt_StdImp|Product Description: AutoCAD Mechanical 2004 DX|Company: Autodesk"
 90
        0
280
     0
281
     0
  0
CLASS
  1
ACMIDSTANDARDISO
  2
AcmIdStdISO
  3
"Amdt_StdImp|Product Description: AutoCAD Mechanical 2004 DX|Company: Autodesk"
 90
        0
280
     0
281
     0
  0
CLASS
  1
ACMDATUMSTANDARDISO
  2
AcmDatumStdISO
  3
"Amdt_StdImp|Product Description: AutoCAD Mechanical 2004 DX|Company: Autodesk"
 90
        0
280
     0
281
     0
  0
CLASS
  1
ACMBOMSTANDARDISO
  2
AcmBOMStdISO
  3
"Amdt_StdImp|Product Description: AutoCAD Mechanical 2004 DX|Company: Autodesk"
 90
        0
280
     0
281
     0
  0
CLASS
  1
ACMDETAILSTANDARDISO
  2
AmdtDetailSymStdISO
  3
"Amdt_StdImp|Product Description: AutoCAD Mechanical 2004 DX|Company: Autodesk"
 90
        0
280
     0
281
     0
  0
CLASS
  1
ACMSECTIONSTANDARDISO
  2
AmdtSectionSymStdISO
  3
"Amdt_StdImp|Product Description: AutoCAD Mechanical 2004 DX|Company: Autodesk"
 90
        0
280
     0
281
     0
  0
CLASS
  1
ACMCENTERLINESTANDARDISO
  2
AmdtCenterLineStdISO
  3
"Amdt_StdImp|Product Description: AutoCAD Mechanical 2004 DX|Company: Autodesk"
 90
        0
280
     0
281
     0
  0
CLASS
  1
ACMNOTESTANDARDISO
  2
AmdtNoteStdISO
  3
"Amdt_StdImp|Product Description: AutoCAD Mechanical 2004 DX|Company: Autodesk"
 90
        0
280
     0
281
     0
  0
CLASS
  1
AMDTNOTETEMPLATEDB
  2
AmdtNoteTemplateDB
  3
AMDT_STDIMP_MODULE_NAME
 90
        0
280
     0
281
     0
  0
CLASS
  1
ACAMGLAYSTD
  2
AcAmgLayStd
  3
"AcAmgLayStd|Product Description: AutoCAD Mechanical 2000|Company: Autodesk"
 90
        0
280
     0
281
     0
  0
CLASS
  1
ACAMGDIMSTD
  2
AcAmgDimStd
  3
"AcAmgDimStd|Product Description: AutoCAD Mechanical 2000|Company: Autodesk"
 90
        0
280
     0
281
     0
  0
CLASS
  1
ACAMGHOLECHARTSTDISO
  2
AcAmgHoleChartStdISO
  3
ACMSYMBB_MODULE_NAME
 90
        0
280
     0
281
     0
  0
CLASS
  1
ACAMGTITLESTD
  2
AcAmgTitleStd
  3
"TITLEAPP"
 90
        0
280
     0
281
     0
  0
CLASS
  1
ACMTHREADLINESTANDARDISO
  2
AmdtThreadLineStdISO
  3
"Amdt_StdImp|Product Description: AutoCAD Mechanical 2004 DX|Company: Autodesk"
 90
        0
280
     0
281
     0
  0
CLASS
  1
ACMFCFSTANDARDJIS98
  2
AcmFCFStdJIS98
  3
"Amdt_StdImp|Product Description: AutoCAD Mechanical 2004 DX|Company: Autodesk"
 90
        0
280
     0
281
     0
  0
CLASS
  1
ACMDETAILSTANDARDJIS
  2
AmdtDetailSymStdJIS
  3
"Amdt_StdImp|Product Description: AutoCAD Mechanical 2004 DX|Company: Autodesk"
 90
        0
280
     0
281
     0
  0
CLASS
  1
ACMSECTIONSTANDARDJIS
  2
AmdtSectionSymStdJIS
  3
"Amdt_StdImp|Product Description: AutoCAD Mechanical 2004 DX|Company: Autodesk"
 90
        0
280
     0
281
     0
  0
CLASS
  1
ACMCENTERLINESTANDARDJIS
  2
AmdtCenterLineStdJIS
  3
"Amdt_StdImp|Product Description: AutoCAD Mechanical 2004 DX|Company: Autodesk"
 90
        0
280
     0
281
     0
  0
CLASS
  1
ACMTHREADLINESTANDARDJIS
  2
AmdtThreadLineStdJIS
  3
"Amdt_StdImp|Product Description: AutoCAD Mechanical 2004 DX|Company: Autodesk"
 90
        0
280
     0
281
     0
  0
CLASS
  1
ACMNOTESTANDARDJIS
  2
AmdtNoteStdJIS
  3
"Amdt_StdImp|Product Description: AutoCAD Mechanical 2004 DX|Company: Autodesk"
 90
        0
280
     0
281
     0
  0
CLASS
  1
ACAMGHOLECHARTSTDJIS
  2
AcAmgHoleChartStdJIS
  3
ACMSYMBB_MODULE_NAME
 90
        0
280
     0
281
     0
  0
ENDSEC
  0
SECTION
  2
TABLES
  0
TABLE
  2
VPORT
  5
8
330
0
100
AcDbSymbolTable
 70
     3
  0
VPORT
  5
B138
330
8
100
AcDbSymbolTableRecord
100
AcDbViewportTableRecord
  2
*Active
 70
     0
 10
0.0
 20
0.0
 11
1.0
 21
1.0
 12
-103.5241192880043
 22
-13.75603353068238
 13
0.0
 23
0.0
 14
2.5
 24
2.5
 15
10.0
 25
10.0
 16
0.0
 26
0.0
 36
1.0
 17
0.0
 27
0.0
 37
0.0
 40
219.5963865594534
 41
1.732758620689655
 42
50.0
 43
0.0
 44
0.0
 50
0.0
 51
0.0
 71
     0
 72
   100
 73
     1
 74
     3
 75
     0
 76
     0
 77
     0
 78
     0
281
     0
 65
     1
110
-0.0000000000002682
120
0.000000000000161
130
0.0
111
1.0
121
0.000000000000002
131
0.0
112
-0.000000000000002
122
1.0
132
0.0
 79
     0
146
0.0
  0
ENDTAB
  0
TABLE
  2
LTYPE
  5
5
330
0
100
AcDbSymbolTable
 70
    17
  0
LTYPE
  5
14
330
5
100
AcDbSymbolTableRecord
100
AcDbLinetypeTableRecord
  2
BYBLOCK
 70
     0
  3

 72
    65
 73
     0
 40
0.0
  0
LTYPE
  5
15
330
5
100
AcDbSymbolTableRecord
100
AcDbLinetypeTableRecord
  2
BYLAYER
 70
     0
  3

 72
    65
 73
     0
 40
0.0
  0
LTYPE
  5
16
330
5
100
AcDbSymbolTableRecord
100
AcDbLinetypeTableRecord
  2
CONTINUOUS
 70
     0
  3
Solid line
 72
    65
 73
     0
 40
0.0
  0
LTYPE
  5
4B
330
5
100
AcDbSymbolTableRecord
100
AcDbLinetypeTableRecord
  2
AM_ISO02W050
 70
     0
  3
__ __ __ __ __ __ __ __ __ __ __ __ __ __ __
 72
    65
 73
     2
 40
7.5
 49
6.0
 74
     0
 49
-1.5
 74
     0
  0
LTYPE
  5
4C
330
5
100
AcDbSymbolTableRecord
100
AcDbLinetypeTableRecord
  2
AM_ISO08W050
 70
     0
  3
____ . ____ . ____ . ____ . ____ . ____ . ____
 72
    65
 73
     4
 40
18.0
 49
12.0
 74
     0
 49
-1.5
 74
     0
 49
3.0
 74
     0
 49
-1.5
 74
     0
  0
LTYPE
  5
4D
330
5
100
AcDbSymbolTableRecord
100
AcDbLinetypeTableRecord
  2
AM_ISO09W050
 70
     0
  3
_____ . . _____ . . _____ . . ____ .. ____
 72
    65
 73
     6
 40
22.5
 49
12.0
 74
     0
 49
-1.5
 74
     0
 49
3.0
 74
     0
 49
-1.5
 74
     0
 49
3.0
 74
     0
 49
-1.5
 74
     0
  0
LTYPE
  5
4E
330
5
100
AcDbSymbolTableRecord
100
AcDbLinetypeTableRecord
  2
Amconstr
 70
     0
  3
_______________________
 72
    65
 73
     2
 40
9999.0
 49
9999.0
 74
     0
 49
0.0
 74
     0
  0
LTYPE
  5
4F
330
5
100
AcDbSymbolTableRecord
100
AcDbLinetypeTableRecord
  2
AM_ISO02W050x2
 70
     0
  3
 _ _ _ _ _ _ _ _ _ _ _ _
 72
    65
 73
     2
 40
3.75
 49
3.0
 74
     0
 49
-0.75
 74
     0
  0
LTYPE
  5
50
330
5
100
AcDbSymbolTableRecord
100
AcDbLinetypeTableRecord
  2
AM_ISO08W050x2
 70
     0
  3
__ . __ . __ . __ . __ . __
 72
    65
 73
     4
 40
9.0
 49
6.0
 74
     0
 49
-0.75
 74
     0
 49
1.5
 74
     0
 49
-0.75
 74
     0
  0
LTYPE
  5
53
330
5
100
AcDbSymbolTableRecord
100
AcDbLinetypeTableRecord
  2
Amzigzag
 70
     0
  3
/\/-/\/-/\/-/\/-/\/-/\/
 72
    65
 73
     2
 40
11.0001
 49
0.0001
 74
     4
 75
   135
340
52
 46
0.04
 50
0.0
 44
0.0
 45
0.0
 49
-11.0
 74
     0
  0
LTYPE
  5
166
330
5
100
AcDbSymbolTableRecord
100
AcDbLinetypeTableRecord
  2
ACJISTGL
 70
     0
  3
_ _ _ _ _
 72
    65
 73
     2
 40
3.0
 49
2.0
 74
     0
 49
-1.0
 74
     0
  0
LTYPE
  5
26A
330
5
100
AcDbSymbolTableRecord
100
AcDbLinetypeTableRecord
  2
ACJISTGB
 70
     0
  3
__ . . __ . .
 72
    65
 73
     6
 40
9.0
 49
4.0
 74
     0
 49
-1.0
 74
     0
 49
1.0
 74
     0
 49
-1.0
 74
     0
 49
1.0
 74
     0
 49
-1.0
 74
     0
  0
LTYPE
  5
84DE
330
5
100
AcDbSymbolTableRecord
100
AcDbLinetypeTableRecord
  2
CENTER
 70
     0
  3
__ . __
 72
    65
 73
     4
 40
7.0
 49
4.0
 74
     0
 49
-1.0
 74
     0
 49
1.0
 74
     0
 49
-1.0
 74
     0
  0
LTYPE
  5
B0AF
330
5
100
AcDbSymbolTableRecord
100
AcDbLinetypeTableRecord
  2
HIDDEN
 70
     0
  3
Hidden __ __ __ __ __ __ __ __ __ __ __ __ __ _
 72
    65
 73
     2
 40
9.524999999999998
 49
6.349999999999999
 74
     0
 49
-3.174999999999999
 74
     0
  0
LTYPE
  5
B0B0
330
5
100
AcDbSymbolTableRecord
100
AcDbLinetypeTableRecord
  2
PHANTOM2
 70
     0
  3
Phantom (.5x) ___ _ _ ___ _ _ ___ _ _ ___ _ _
 72
    65
 73
     6
 40
31.75
 49
15.875
 74
     0
 49
-3.174999999999999
 74
     0
 49
3.174999999999999
 74
     0
 49
-3.174999999999999
 74
     0
 49
3.174999999999999
 74
     0
 49
-3.174999999999999
 74
     0
  0
LTYPE
  5
B0E1
330
5
100
AcDbSymbolTableRecord
100
AcDbLinetypeTableRecord
  2
ACISOWELD
 70
     0
  3
_ _ _ _ _
 72
    65
 73
     2
 40
2.0
 49
2.0
 74
     0
 49
-1.0
 74
     0
  0
LTYPE
  5
B0E4
330
5
100
AcDbSymbolTableRecord
100
AcDbLinetypeTableRecord
  2
ACISOTGB
 70
     0
  3
__ . . __ . .
 72
    65
 73
     6
 40
9.0
 49
4.0
 74
     0
 49
-1.0
 74
     0
 49
1.0
 74
     0
 49
-1.0
 74
     0
 49
1.0
 74
     0
 49
-1.0
 74
     0
  0
LTYPE
  5
B0E5
330
5
100
AcDbSymbolTableRecord
100
AcDbLinetypeTableRecord
  2
ACISOTGL
 70
     0
  3
_ _ _ _ _
 72
    65
 73
     2
 40
3.0
 49
2.0
 74
     0
 49
-1.0
 74
     0
  0
LTYPE
  5
B10E
330
5
100
AcDbSymbolTableRecord
100
AcDbLinetypeTableRecord
  2
ACJISWELD
 70
     0
  3
_ _ _ _ _
 72
    65
 73
     2
 40
2.0
 49
2.0
 74
     0
 49
-1.0
 74
     0
  0
ENDTAB
  0
TABLE
  2
LAYER
  5
2
330
0
100
AcDbSymbolTable
 70
    12
  0
LAYER
  5
10
330
2
100
AcDbSymbolTableRecord
100
AcDbLayerTableRecord
  2
0
 70
     0
 62
     7
  6
CONTINUOUS
370
    -3
390
F
  0
LAYER
  5
3F9
330
2
100
AcDbSymbolTableRecord
100
AcDbLayerTableRecord
  2
AM_0
 70
     0
 62
     7
  6
CONTINUOUS
370
    -3
390
F
  0
LAYER
  5
BA4
330
2
100
AcDbSymbolTableRecord
100
AcDbLayerTableRecord
  2
AM_5
 70
     0
 62
     3
  6
CONTINUOUS
370
    -3
390
F
  0
LAYER
  5
BA6
330
2
100
AcDbSymbolTableRecord
100
AcDbLayerTableRecord
  2
AM_7
 70
     0
 62
     4
  6
AM_ISO08W050
370
    -3
390
F
  0
LAYER
  5
E64
330
2
100
AcDbSymbolTableRecord
100
AcDbLayerTableRecord
  2
AM_6
 70
     0
 62
     2
  6
CONTINUOUS
370
    -3
390
F
  0
LAYER
  5
F4D
330
2
100
AcDbSymbolTableRecord
100
AcDbLayerTableRecord
  2
DEFPOINTS
 70
     0
 62
     7
  6
CONTINUOUS
290
     0
370
    -3
390
F
  0
LAYER
  5
2382
330
2
100
AcDbSymbolTableRecord
100
AcDbLayerTableRecord
  2
AM_3
 70
     0
 62
     6
  6
ACJISTGL
370
    -3
390
F
  0
LAYER
  5
4E80
330
2
100
AcDbSymbolTableRecord
100
AcDbLayerTableRecord
  2
AM_11
 70
     0
 62
     3
  6
AM_ISO09W050
370
    -3
390
F
  0
LAYER
  5
502A
330
2
100
AcDbSymbolTableRecord
100
AcDbLayerTableRecord
  2
PV0001_1
 70
     0
 62
     7
  6
CONTINUOUS
370
    -3
390
F
  0
LAYER
  5
78BD
330
2
100
AcDbSymbolTableRecord
100
AcDbLayerTableRecord
  2
2
 70
     0
 62
     7
  6
CONTINUOUS
370
    -3
390
F
  0
LAYER
  5
78BE
330
2
100
AcDbSymbolTableRecord
100
AcDbLayerTableRecord
  2
1
 70
     0
 62
     7
  6
CONTINUOUS
370
    -3
390
F
  0
LAYER
  5
78BF
330
2
100
AcDbSymbolTableRecord
100
AcDbLayerTableRecord
  2
AM_4
 70
     0
 62
     3
  6
CONTINUOUS
370
    -3
390
F
  0
ENDTAB
  0
TABLE
  2
STYLE
  5
3
330
0
100
AcDbSymbolTable
 70
     7
  0
STYLE
  5
11
330
3
100
AcDbSymbolTableRecord
100
AcDbTextStyleTableRecord
  2
STANDARD
 70
     0
 40
0.0
 41
1.0
 50
0.0
 71
     0
 42
2.5
  3
simplex.shx
  4
EXTFONT.SHX
  0
STYLE
  5
52
330
3
100
AcDbSymbolTableRecord
100
AcDbTextStyleTableRecord
  2

 70
     1
 40
0.0
 41
1.0
 50
0.0
 71
     0
 42
2.5
  3
ltypeshp.shx
  4

  0
STYLE
  5
6B
330
3
100
AcDbSymbolTableRecord
100
AcDbTextStyleTableRecord
  2
ASAMI
 70
     0
 40
0.0
 41
1.0
 50
0.0
 71
     0
 42
2.5
  3
simplex.shx
  4
EXTFONT.SHX
  0
STYLE
  5
262
330
3
100
AcDbSymbolTableRecord
100
AcDbTextStyleTableRecord
  2
ACJISTS
 70
     0
 40
1.0
 41
1.0
 50
0.0
 71
     0
 42
1.0
  3
isocp.shx
  4
extfont.shx
  0
STYLE
  5
269
330
3
100
AcDbSymbolTableRecord
100
AcDbTextStyleTableRecord
  2
ACJISGDT
 70
     0
 40
0.0
 41
1.0
 50
0.0
 71
     0
 42
1.0
  3
amgdt.shx
  4

  0
STYLE
  5
B0DB
330
3
100
AcDbSymbolTableRecord
100
AcDbTextStyleTableRecord
  2
ACISOTS
 70
     0
 40
3.5
 41
1.0
 50
5.0
 71
     0
 42
3.799999999999999
  3
isocp.shx
  4
extfont.shx
  0
STYLE
  5
B0DF
330
3
100
AcDbSymbolTableRecord
100
AcDbTextStyleTableRecord
  2
ACISOGDT
 70
     0
 40
0.0
 41
1.0
 50
0.0
 71
     0
 42
2.5
  3
amgdt.shx
  4
extfont.shx
  0
ENDTAB
  0
TABLE
  2
VIEW
  5
6
330
0
100
AcDbSymbolTable
 70
     0
  0
ENDTAB
  0
TABLE
  2
UCS
  5
7
330
0
100
AcDbSymbolTable
 70
     0
  0
ENDTAB
  0
TABLE
  2
APPID
  5
9
330
0
100
AcDbSymbolTable
 70
    36
  0
APPID
  5
12
330
9
100
AcDbSymbolTableRecord
100
AcDbRegAppTableRecord
  2
ACAD
 70
     0
  0
APPID
  5
30
330
9
100
AcDbSymbolTableRecord
100
AcDbRegAppTableRecord
  2
MCAD_NO_VIS
 70
     0
  0
APPID
  5
31
330
9
100
AcDbSymbolTableRecord
100
AcDbRegAppTableRecord
  2
ACAD_TEMP_GRAPHIC
 70
     0
  0
APPID
  5
2C2
330
9
100
AcDbSymbolTableRecord
100
AcDbRegAppTableRecord
  2
GENIUS_GENDTOL_13
 70
     0
  0
APPID
  5
339
330
9
100
AcDbSymbolTableRecord
100
AcDbRegAppTableRecord
  2
GENIUS_GENODEF_13
 70
     0
  0
APPID
  5
33A
330
9
100
AcDbSymbolTableRecord
100
AcDbRegAppTableRecord
  2
GENIUS_GENOBJ-N-RSBK_13
 70
     0
  0
APPID
  5
33B
330
9
100
AcDbSymbolTableRecord
100
AcDbRegAppTableRecord
  2
GENIUS_GENOBJ-N-LIB_13
 70
     0
  0
APPID
  5
33C
330
9
100
AcDbSymbolTableRecord
100
AcDbRegAppTableRecord
  2
GENIUS_GENSCALE_13
 70
     0
  0
APPID
  5
378
330
9
100
AcDbSymbolTableRecord
100
AcDbRegAppTableRecord
  2
GENIUS_GENDIMSH_14
 70
     0
  0
APPID
  5
BB0
330
9
100
AcDbSymbolTableRecord
100
AcDbRegAppTableRecord
  2
GENIUS_GENOBJ-N-CEN_13
 70
     0
  0
APPID
  5
BB1
330
9
100
AcDbSymbolTableRecord
100
AcDbRegAppTableRecord
  2
GENIUS_GENFIL_13
 70
     0
  0
APPID
  5
BB2
330
9
100
AcDbSymbolTableRecord
100
AcDbRegAppTableRecord
  2
GENIUS_GENOBJ-N-CHA_13
 70
     0
  0
APPID
  5
1FAF
330
9
100
AcDbSymbolTableRecord
100
AcDbRegAppTableRecord
  2
GENIUS_GENOBJ-N-CRS_13
 70
     0
  0
APPID
  5
1FB0
330
9
100
AcDbSymbolTableRecord
100
AcDbRegAppTableRecord
  2
GENIUS_GENOENT_13
 70
     0
  0
APPID
  5
1FB1
330
9
100
AcDbSymbolTableRecord
100
AcDbRegAppTableRecord
  2
GENIUS_GENOREF_13
 70
     0
  0
APPID
  5
1FB2
330
9
100
AcDbSymbolTableRecord
100
AcDbRegAppTableRecord
  2
GENIUS_GENOLIS_13
 70
     0
  0
APPID
  5
1FB7
330
9
100
AcDbSymbolTableRecord
100
AcDbRegAppTableRecord
  2
GENIUS_GENOBJ-N-FIL_13
 70
     0
  0
APPID
  5
22A8
330
9
100
AcDbSymbolTableRecord
100
AcDbRegAppTableRecord
  2
GEVID1056506048
 70
     0
  0
APPID
  5
22A9
330
9
100
AcDbSymbolTableRecord
100
AcDbRegAppTableRecord
  2
GEVDC
 70
     0
  0
APPID
  5
22AC
330
9
100
AcDbSymbolTableRecord
100
AcDbRegAppTableRecord
  2
GENIUS_GENBH_13
 70
     0
  0
APPID
  5
22B8
330
9
100
AcDbSymbolTableRecord
100
AcDbRegAppTableRecord
  2
GENIUS_GENOBJ-NBEHI-BHF_13
 70
     0
  0
APPID
  5
22BA
330
9
100
AcDbSymbolTableRecord
100
AcDbRegAppTableRecord
  2
GENIUS_GENOBJ-NBEHI-BHB_13
 70
     0
  0
APPID
  5
35C9
330
9
100
AcDbSymbolTableRecord
100
AcDbRegAppTableRecord
  2
GENIUS_GENREC_14
 70
     0
  0
APPID
  5
35CA
330
9
100
AcDbSymbolTableRecord
100
AcDbRegAppTableRecord
  2
GENIUS_GENOBJ-N-REC_13
 70
     0
  0
APPID
  5
B075
330
9
100
AcDbSymbolTableRecord
100
AcDbRegAppTableRecord
  2
ACATTRIBSERVICES
 70
     0
  0
APPID
  5
B076
330
9
100
AcDbSymbolTableRecord
100
AcDbRegAppTableRecord
  2
AD_DRAW
 70
     0
  0
APPID
  5
B077
330
9
100
AcDbSymbolTableRecord
100
AcDbRegAppTableRecord
  2
DESIGNERASSEMBLIES
 70
     0
  0
APPID
  5
B078
330
9
100
AcDbSymbolTableRecord
100
AcDbRegAppTableRecord
  2
ACADM_DIM_EDIT
 70
     0
  0
APPID
  5
B079
330
9
100
AcDbSymbolTableRecord
100
AcDbRegAppTableRecord
  2
AMDT_DM_ADJ
 70
     0
  0
APPID
  5
B07A
330
9
100
AcDbSymbolTableRecord
100
AcDbRegAppTableRecord
  2
ACAD_DSTYLE_DIMTEXT_FILL
 70
     0
  0
APPID
  5
B07B
330
9
100
AcDbSymbolTableRecord
100
AcDbRegAppTableRecord
  2
ACAD_PSEXT
 70
     0
  0
APPID
  5
B07C
330
9
100
AcDbSymbolTableRecord
100
AcDbRegAppTableRecord
  2
ACAD_DIMASSOC_DIMLFAC
 70
     0
  0
APPID
  5
B07D
330
9
100
AcDbSymbolTableRecord
100
AcDbRegAppTableRecord
  2
ACAD_DIMASSOC_CALC_DIMLFAC
 70
     0
  0
APPID
  5
B07E
330
9
100
AcDbSymbolTableRecord
100
AcDbRegAppTableRecord
  2
ACAD_DIMASSOC_OVERRIDDEN_DIMLFAC
 70
     0
  0
APPID
  5
B132
330
9
100
AcDbSymbolTableRecord
100
AcDbRegAppTableRecord
  2
GENIUS_GENSCREG_15
 70
     0
  0
APPID
  5
B133
330
9
100
AcDbSymbolTableRecord
100
AcDbRegAppTableRecord
  2
GENIUS_GENOBJ-N-SDF_13
 70
     0
  0
ENDTAB
  0
TABLE
  2
DIMSTYLE
  5
A
330
0
100
AcDbSymbolTable
 70
    20
100
AcDbDimStyleTable
 71
     0
  0
DIMSTYLE
105
58
330
A
100
AcDbSymbolTableRecord
100
AcDbDimStyleTableRecord
  2
AM_JIS
 70
     0
  4
"
 41
2.699999999999999
 42
0.0
 43
7.0
 44
0.5
 47
0.1
 48
0.1000000001
 73
     0
 74
     0
 77
     3
 78
     8
 79
     2
140
3.5
141
0.0
143
0.0393701
146
0.71
147
1.0
172
     1
176
     3
177
     3
178
     2
179
     1
271
     2
272
     2
275
     1
283
     0
284
     8
340
11
341
59
342
59
371
    -1
372
    -1
  0
DIMSTYLE
105
5F
330
A
100
AcDbSymbolTableRecord
100
AcDbDimStyleTableRecord
  2
AM_JIS$3
 70
     0
  4
"
 41
2.699999999999999
 42
1.0
 43
10.0
 44
1.0
 47
0.1
 48
0.1000000001
 73
     0
 77
     3
 78
     8
 79
     2
140
3.799999999999999
141
0.0
143
0.0393701
146
0.71
147
1.5
176
   256
177
   256
178
     2
271
     2
272
     2
275
     1
283
     0
284
     8
288
     1
289
     0
340
11
341
59
342
59
371
    -1
372
    -1
  0
DIMSTYLE
105
60
330
A
100
AcDbSymbolTableRecord
100
AcDbDimStyleTableRecord
  2
AM_JIS$4
 70
     0
  4
"
 41
2.699999999999999
 42
1.0
 43
10.0
 44
1.0
 47
0.1
 48
0.1000000001
 73
     0
 77
     3
 78
     8
 79
     2
140
3.799999999999999
141
0.0
143
0.0393701
146
0.71
147
1.5
176
   256
177
   256
178
     2
271
     2
272
     2
275
     1
283
     0
284
     8
288
     1
289
     0
340
11
341
59
342
59
371
    -1
372
    -1
  0
DIMSTYLE
105
61
330
A
100
AcDbSymbolTableRecord
100
AcDbDimStyleTableRecord
  2
AM_JIS$6
 70
     0
  4
"
 41
2.699999999999999
 42
1.0
 43
10.0
 44
1.0
 47
0.1
 48
0.1000000001
 73
     0
 74
     0
 78
     8
 79
     2
140
3.799999999999999
141
0.0
143
0.0393701
146
0.71
147
1.5
172
     1
176
   256
177
   256
178
     2
271
     2
272
     2
275
     1
283
     0
284
     8
340
11
341
59
342
59
371
    -1
372
    -1
  0
DIMSTYLE
105
62
330
A
100
AcDbSymbolTableRecord
100
AcDbDimStyleTableRecord
  2
AM_JIS$7
 70
     0
  4
"
 41
2.699999999999999
 42
1.0
 43
10.0
 44
1.0
 47
0.1
 48
0.1000000001
 73
     0
 74
     0
 77
     3
 78
     8
 79
     2
140
3.5
141
0.0
143
0.0393701
146
0.71
147
1.5
172
     1
176
     3
177
   256
178
     2
271
     2
272
     2
275
     1
283
     0
284
     8
340
11
341
59
342
59
371
    -1
372
    -1
  0
DIMSTYLE
105
63
330
A
100
AcDbSymbolTableRecord
100
AcDbDimStyleTableRecord
  2
AM_JIS$SF
 70
     0
  4
"
 41
2.5
 42
1.0
 43
10.0
 44
1.0
 47
0.1
 48
0.1
 73
     0
 74
     0
 75
     1
 76
     1
 77
     3
 78
     8
 79
     2
140
3.5
141
0.0
143
0.0393701
146
0.71
147
1.5
172
     1
176
   256
177
   256
178
     2
271
     2
272
     3
274
     4
283
     0
284
     8
340
11
341
59
342
59
343
59
344
59
371
    -1
372
    -1
  0
DIMSTYLE
105
68
330
A
100
AcDbSymbolTableRecord
100
AcDbDimStyleTableRecord
  2
AM_JIS$SH
 70
     0
  4
"
 41
2.5
 42
1.0
 43
10.0
 44
1.0
 47
0.1
 48
0.1
 73
     0
 74
     0
 75
     1
 76
     1
 77
     3
 78
     8
 79
     2
140
3.5
141
0.0
143
0.0393701
144
2.0
146
0.71
147
1.5
172
     1
173
     1
176
   256
177
   256
178
     2
271
     2
272
     3
274
     4
283
     0
284
     8
340
11
341
59
342
59
343
64
344
59
371
    -1
372
    -1
  0
DIMSTYLE
105
B34
330
A
100
AcDbSymbolTableRecord
100
AcDbDimStyleTableRecord
  2
AM_JIS$2
 70
     0
  4
"
 41
2.699999999999999
 42
0.0
 43
7.0
 44
0.5
 47
0.1
 48
0.1000000001
 73
     0
 74
     0
 77
     3
 78
     8
 79
     2
140
3.5
141
0.0
143
0.0393701
146
0.71
147
1.0
172
     1
176
     3
177
     3
178
     2
179
     1
271
     2
272
     2
275
     1
283
     0
284
     8
340
11
341
59
342
59
371
    -1
372
    -1
  0
DIMSTYLE
105
3B48
102
{ACAD_REACTORS
330
AAB2
330
AA0B
330
A97F
330
A8A2
330
A7E9
330
AB47
102
}
330
A
100
AcDbSymbolTableRecord
100
AcDbDimStyleTableRecord
  2
AM_JIS$0
 70
     0
  4
"
 41
2.699999999999999
 42
0.0
 43
7.0
 44
0.5
 47
0.1
 48
0.1000000001
 73
     0
 74
     0
 77
     3
 78
     8
 79
     2
140
3.5
141
0.0
143
0.0393701
146
0.71
147
1.0
172
     1
176
     3
177
     3
178
     2
179
     1
271
     2
272
     2
275
     1
283
     0
284
     8
340
11
341
59
342
59
371
    -1
372
    -1
  0
DIMSTYLE
105
502B
330
A
100
AcDbSymbolTableRecord
100
AcDbDimStyleTableRecord
  2
AM_JISORG-1P0$2
 70
     0
  4
"
 41
2.5
 42
0.0
 43
10.0
 44
1.0
 47
0.1
 48
0.1000000001
 73
     0
 74
     0
 77
     3
 78
     1
140
3.799999999999998
141
0.0
143
0.0393701
144
-1.000000047579402
146
0.71
147
1.5
172
     1
176
     3
177
     3
178
     2
271
     2
272
     2
275
     1
283
     0
284
     8
340
11
341
59
342
59
  0
DIMSTYLE
105
502C
330
A
100
AcDbSymbolTableRecord
100
AcDbDimStyleTableRecord
  2
AM_JISORG0P5$0
 70
     0
  4
"
 41
2.5
 42
0.0
 43
10.0
 44
1.0
 47
0.1
 48
0.1000000001
 73
     0
 74
     0
 77
     3
 78
     1
140
3.799999999999998
141
0.0
143
0.0393701
144
0.5000003785514307
146
0.71
147
1.5
172
     1
176
     3
177
     3
178
     2
271
     2
272
     2
275
     1
283
     0
284
     8
340
11
341
59
342
59
  0
DIMSTYLE
105
502D
330
A
100
AcDbSymbolTableRecord
100
AcDbDimStyleTableRecord
  2
AM_JISORG0P2$4
 70
     0
  4
"
 41
2.5
 42
0.0
 43
10.0
 44
1.0
 47
0.1
 48
0.1000000001
 73
     0
 74
     0
 77
     3
 78
     1
140
3.799999999999998
141
0.0
143
0.0393701
144
0.2
146
0.71
147
1.5
172
     1
176
     3
177
     3
178
     2
271
     2
272
     2
275
     1
283
     0
284
     8
288
     1
340
11
341
59
342
59
  0
DIMSTYLE
105
78C0
330
A
100
AcDbSymbolTableRecord
100
AcDbDimStyleTableRecord
  2
AM_ISO
 70
     0
  4
"
 41
2.5
 42
1.0
 43
10.0
 44
1.0
 47
0.1
 48
0.1
 73
     0
 74
     0
 77
     1
 78
     8
 79
     2
140
3.5
141
0.0
143
0.0393701
146
0.71
147
1.5
172
     1
176
   256
177
   256
178
     2
271
     2
272
     3
274
     4
283
     0
284
     8
340
11
371
    -1
372
    -1
  0
DIMSTYLE
105
84DF
330
A
100
AcDbSymbolTableRecord
100
AcDbDimStyleTableRecord
  2
STANDARD
 70
     0
340
11
  0
DIMSTYLE
105
B0FB
330
A
100
AcDbSymbolTableRecord
100
AcDbDimStyleTableRecord
  2
AM_ISO$3
 70
     0
  4
"
 41
2.5
 42
1.0
 43
10.0
 44
1.0
 47
0.1
 48
0.1
 73
     0
 77
     1
 78
     8
 79
     2
140
3.5
141
0.0
143
0.0393701
146
0.71
147
1.5
176
   256
177
   256
178
     2
271
     2
272
     3
274
     4
283
     0
284
     8
288
     1
289
     0
340
11
371
    -1
372
    -1
  0
DIMSTYLE
105
B0FC
330
A
100
AcDbSymbolTableRecord
100
AcDbDimStyleTableRecord
  2
AM_ISO$4
 70
     0
  4
"
 41
2.5
 42
1.0
 43
10.0
 44
1.0
 47
0.1
 48
0.1
 73
     0
 77
     1
 78
     8
 79
     2
140
3.5
141
0.0
143
0.0393701
146
0.71
147
1.5
176
   256
177
   256
178
     2
271
     2
272
     3
274
     4
283
     0
284
     8
288
     1
289
     0
340
11
371
    -1
372
    -1
  0
DIMSTYLE
105
B0FD
330
A
100
AcDbSymbolTableRecord
100
AcDbDimStyleTableRecord
  2
AM_ISO$6
 70
     0
  4
"
 41
2.5
 42
1.0
 43
10.0
 44
1.0
 47
0.1
 48
0.1
 73
     0
 74
     0
 78
     8
 79
     2
140
3.5
141
0.0
143
0.0393701
146
0.71
147
1.5
172
     1
176
   256
177
   256
178
     2
271
     2
272
     3
274
     4
283
     0
284
     8
340
11
371
    -1
372
    -1
  0
DIMSTYLE
105
B0FE
330
A
100
AcDbSymbolTableRecord
100
AcDbDimStyleTableRecord
  2
AM_ISO$7
 70
     0
  4
"
 41
2.5
 42
1.0
 43
10.0
 44
1.0
 47
0.1
 48
0.1
 73
     0
 74
     0
 77
     1
 78
     8
 79
     2
140
5.0
141
0.0
143
0.0393701
146
0.71
147
1.5
172
     1
176
   256
177
   256
178
     2
271
     2
272
     3
274
     4
283
     0
284
     8
340
11
371
    -1
372
    -1
  0
DIMSTYLE
105
B0FF
330
A
100
AcDbSymbolTableRecord
100
AcDbDimStyleTableRecord
  2
AM_ISO$SF
 70
     0
  4
"
 41
2.5
 42
1.0
 43
10.0
 44
1.0
 47
0.1
 48
0.1
 73
     0
 74
     0
 75
     1
 76
     1
 77
     1
 78
     8
 79
     2
140
3.5
141
0.0
143
0.0393701
146
0.71
147
1.5
172
     1
176
   256
177
   256
178
     2
271
     2
272
     3
274
     4
283
     0
284
     8
340
11
371
    -1
372
    -1
  0
DIMSTYLE
105
B100
330
A
100
AcDbSymbolTableRecord
100
AcDbDimStyleTableRecord
  2
AM_ISO$SH
 70
     0
  4
"
 41
2.5
 42
1.0
 43
10.0
 44
1.0
 47
0.1
 48
0.1
 73
     0
 74
     0
 75
     1
 76
     1
 77
     1
 78
     8
 79
     2
140
3.5
141
0.0
143
0.0393701
144
2.0
146
0.71
147
1.5
172
     1
173
     1
176
   256
177
   256
178
     2
271
     2
272
     3
274
     4
283
     0
284
     8
340
11
343
64
371
    -1
372
    -1
  0
ENDTAB
  0
TABLE
  2
BLOCK_RECORD
  5
1
330
0
100
AcDbSymbolTable
 70
     9
  0
BLOCK_RECORD
  5
1F
102
{ACAD_XDICTIONARY
360
74
102
}
330
1
100
AcDbSymbolTableRecord
100
AcDbBlockTableRecord
  2
*MODEL_SPACE
340
B070
  0
BLOCK_RECORD
  5
101
102
{ACAD_XDICTIONARY
360
B02E
102
}
330
1
100
AcDbSymbolTableRecord
100
AcDbBlockTableRecord
  2
*PAPER_SPACE
340
B071
  0
BLOCK_RECORD
  5
59
330
1
100
AcDbSymbolTableRecord
100
AcDbBlockTableRecord
  2
_Open30
340
0
  0
BLOCK_RECORD
  5
64
330
1
100
AcDbSymbolTableRecord
100
AcDbBlockTableRecord
  2
GENAXEH
340
0
  0
BLOCK_RECORD
  5
A7EA
330
1
100
AcDbSymbolTableRecord
100
AcDbBlockTableRecord
  2
*D2
340
0
  0
BLOCK_RECORD
  5
A8A3
330
1
100
AcDbSymbolTableRecord
100
AcDbBlockTableRecord
  2
*D3
340
0
  0
BLOCK_RECORD
  5
A980
330
1
100
AcDbSymbolTableRecord
100
AcDbBlockTableRecord
  2
*D4
340
0
  0
BLOCK_RECORD
  5
AA0C
330
1
100
AcDbSymbolTableRecord
100
AcDbBlockTableRecord
  2
*D5
340
0
  0
BLOCK_RECORD
  5
AAB3
330
1
100
AcDbSymbolTableRecord
100
AcDbBlockTableRecord
  2
*D6
340
0
  0
BLOCK_RECORD
  5
AB48
330
1
100
AcDbSymbolTableRecord
100
AcDbBlockTableRecord
  2
*D7
340
0
  0
ENDTAB
  0
ENDSEC
  0
SECTION
  2
BLOCKS
  0
BLOCK
  5
20
330
1F
100
AcDbEntity
  8
0
100
AcDbBlockBegin
  2
*MODEL_SPACE
 70
     0
 10
0.0
 20
0.0
 30
0.0
  3
*MODEL_SPACE
  1

  0
ENDBLK
  5
21
330
1F
100
AcDbEntity
  8
0
100
AcDbBlockEnd
  0
BLOCK
  5
103
330
101
100
AcDbEntity
 67
     1
  8
0
100
AcDbBlockBegin
  2
*PAPER_SPACE
 70
     0
 10
0.0
 20
0.0
 30
0.0
  3
*PAPER_SPACE
  1

  0
ENDBLK
  5
104
330
101
100
AcDbEntity
 67
     1
  8
0
100
AcDbBlockEnd
  0
BLOCK
  5
B122
330
59
100
AcDbEntity
  8
0
100
AcDbBlockBegin
  2
_Open30
 70
     0
 10
0.0
 20
0.0
 30
0.0
  3
_Open30
  1

  0
LINE
  5
B123
330
59
100
AcDbEntity
  8
0
  6
ByBlock
 62
     0
370
    -2
100
AcDbLine
 10
-1.0
 20
0.26794919
 30
0.0
 11
0.0
 21
0.0
 31
0.0
  0
LINE
  5
B124
330
59
100
AcDbEntity
  8
0
  6
ByBlock
 62
     0
370
    -2
100
AcDbLine
 10
0.0
 20
0.0
 30
0.0
 11
-1.0
 21
-0.26794919
 31
0.0
  0
LINE
  5
B125
330
59
100
AcDbEntity
  8
0
  6
ByBlock
 62
     0
370
    -2
100
AcDbLine
 10
0.0
 20
0.0
 30
0.0
 11
-1.0
 21
0.0
 31
0.0
  0
ENDBLK
  5
B126
330
59
100
AcDbEntity
  8
0
100
AcDbBlockEnd
  0
BLOCK
  5
B102
330
64
100
AcDbEntity
  8
0
100
AcDbBlockBegin
  2
GENAXEH
 70
     0
 10
0.0
 20
0.0
 30
0.0
  3
GENAXEH
  1

  0
LINE
  5
B103
330
64
100
AcDbEntity
  8
0
100
AcDbLine
 10
-1.0
 20
0.0
 30
0.0
 11
1.0
 21
0.0
 31
0.0
  0
ENDBLK
  5
B104
330
64
100
AcDbEntity
  8
0
100
AcDbBlockEnd
  0
BLOCK
  5
A7F4
330
A7EA
100
AcDbEntity
  8
0
100
AcDbBlockBegin
  2
*D2
 70
     1
 10
0.0
 20
0.0
 30
0.0
  3
*D2
  1

  0
LINE
  5
B030
330
A7EA
100
AcDbEntity
  8
AM_5
100
AcDbLine
 10
-26.00000000000034
 20
15.01549072265601
 30
0.0
 11
-26.00000000000035
 21
28.61549172265614
 31
0.0
  0
LINE
  5
B031
330
A7EA
100
AcDbEntity
  8
AM_5
100
AcDbLine
 10
-0.0000000000003358
 20
15.01549072265615
 30
0.0
 11
-0.0000000000003383
 21
28.61549172265615
 31
0.0
  0
LINE
  5
B032
330
A7EA
100
AcDbEntity
  8
AM_5
100
AcDbLine
 10
-23.50000000000034
 20
26.61549172265614
 30
0.0
 11
-2.500000000000336
 21
26.61549172265615
 31
0.0
  0
INSERT
  5
B033
330
A7EA
100
AcDbEntity
  8
AM_5
100
AcDbBlockReference
  2
_Open30
 10
-26.00000000000035
 20
26.61549172265614
 30
0.0
 41
2.5
 42
2.5
 43
2.5
 50
180.0
  0
INSERT
  5
B034
330
A7EA
100
AcDbEntity
  8
AM_5
100
AcDbBlockReference
  2
_Open30
 10
-0.0000000000003379
 20
26.61549172265615
 30
0.0
 41
2.5
 42
2.5
 43
2.5
  0
MTEXT
  5
B035
330
A7EA
100
AcDbEntity
  8
AM_5
 62
     2
100
AcDbMText
 10
-13.00000000000034
 20
29.21549172265615
 30
0.0
 40
3.2
 41
0.0
 71
     5
 72
     1
  1
26
  7
ASAMI
 73
     1
 44
1.0
1001
ACAD
1000
MTEXTBEGIN
1070
    73
1070
     1
1070
    44
1040
1.0
1070
    74
1070
     0
1000
MTEXTEND
  0
POINT
  5
B036
330
A7EA
100
AcDbEntity
  8
DEFPOINTS
 62
     0
100
AcDbPoint
 10
-26.00000000000031
 20
13.01549072265607
 30
0.0
  0
POINT
  5
B037
330
A7EA
100
AcDbEntity
  8
DEFPOINTS
 62
     0
100
AcDbPoint
 10
-0.0000000000003091
 20
13.01549072265615
 30
0.0
  0
POINT
  5
B038
330
A7EA
100
AcDbEntity
  8
DEFPOINTS
 62
     0
100
AcDbPoint
 10
-0.0000000000002841
 20
26.61549172265615
 30
0.0
  0
ENDBLK
  5
A7F5
330
A7EA
100
AcDbEntity
  8
0
100
AcDbBlockEnd
  0
BLOCK
  5
A8AD
330
A8A3
100
AcDbEntity
  8
0
100
AcDbBlockBegin
  2
*D3
 70
     1
 10
0.0
 20
0.0
 30
0.0
  3
*D3
  1

  0
LINE
  5
B039
330
A8A3
100
AcDbEntity
  8
AM_5
100
AcDbLine
 10
1.999999999999661
 20
13.01549072265615
 30
0.0
 11
17.55177407128869
 21
13.01549072265618
 31
0.0
  0
LINE
  5
B03A
330
A8A3
100
AcDbEntity
  8
AM_5
100
AcDbLine
 10
1.999999999999761
 20
-13.01549072265584
 30
0.0
 11
17.55177407128874
 21
-13.01549072265581
 31
0.0
  0
LINE
  5
B03B
330
A8A3
100
AcDbEntity
  8
AM_5
100
AcDbLine
 10
15.55177407128869
 20
10.51549072265618
 30
0.0
 11
15.55177407128874
 21
-10.51549072265582
 31
0.0
  0
INSERT
  5
B03C
330
A8A3
100
AcDbEntity
  8
AM_5
100
AcDbBlockReference
  2
_Open30
 10
15.55177407128869
 20
13.01549072265618
 30
0.0
 41
2.5
 42
2.5
 43
2.5
 50
90.0000000000001
  0
INSERT
  5
B03D
330
A8A3
100
AcDbEntity
  8
AM_5
100
AcDbBlockReference
  2
_Open30
 10
15.55177407128874
 20
-13.01549072265582
 30
0.0
 41
2.5
 42
2.5
 43
2.5
 50
270.0000000000001
  0
MTEXT
  5
B03E
330
A8A3
100
AcDbEntity
  8
AM_5
 62
     2
100
AcDbMText
 10
12.95177407128872
 20
0.0000000000001765
 30
0.0
 40
3.2
 41
0.0
 71
     5
 72
     1
  1
%%c26
  7
ASAMI
 11
-0.000000000000002
 21
1.0
 31
0.0
 73
     1
 44
1.0
1001
ACAD
1000
MTEXTBEGIN
1070
    73
1070
     1
1070
    44
1040
1.0
1070
    74
1070
     0
1000
MTEXTEND
  0
POINT
  5
B03F
330
A8A3
100
AcDbEntity
  8
DEFPOINTS
 62
     0
100
AcDbPoint
 10
-0.0000000000003091
 20
13.01549072265615
 30
0.0
  0
POINT
  5
B040
330
A8A3
100
AcDbEntity
  8
DEFPOINTS
 62
     0
100
AcDbPoint
 10
-0.0000000000002665
 20
-13.01549072265584
 30
0.0
  0
POINT
  5
B041
330
A8A3
100
AcDbEntity
  8
DEFPOINTS
 62
     0
100
AcDbPoint
 10
15.55177407128871
 20
-13.01549072265585
 30
0.0
  0
ENDBLK
  5
A8AE
330
A8A3
100
AcDbEntity
  8
0
100
AcDbBlockEnd
  0
BLOCK
  5
A98A
330
A980
100
AcDbEntity
  8
0
100
AcDbBlockBegin
  2
*D4
 70
     1
 10
0.0
 20
0.0
 30
0.0
  3
*D4
  1

  0
LINE
  5
B042
330
A980
100
AcDbEntity
  8
AM_5
100
AcDbLine
 10
-0.0000000000002331
 20
-14.81549072265583
 30
0.0
 11
-0.0000000000002056
 21
-28.81549172265589
 31
0.0
  0
LINE
  5
B043
330
A980
100
AcDbEntity
  8
AM_5
100
AcDbLine
 10
-39.99999618530323
 20
-14.000003814697
 30
0.0
 11
-39.99999618530321
 21
-28.81549172265597
 31
0.0
  0
LINE
  5
B044
330
A980
100
AcDbEntity
  8
AM_5
100
AcDbLine
 10
-2.500000000000208
 20
-26.81549172265589
 30
0.0
 11
-37.49999618530321
 21
-26.81549172265596
 31
0.0
  0
INSERT
  5
B045
330
A980
100
AcDbEntity
  8
AM_5
100
AcDbBlockReference
  2
_Open30
 10
-0.0000000000002096
 20
-26.81549172265589
 30
0.0
 41
2.5
 42
2.5
 43
2.5
 50
0.0000000000001018
  0
INSERT
  5
B046
330
A980
100
AcDbEntity
  8
AM_5
100
AcDbBlockReference
  2
_Open30
 10
-39.99999618530321
 20
-26.81549172265597
 30
0.0
 41
2.5
 42
2.5
 43
2.5
 50
180.0000000000001
  0
MTEXT
  5
B047
330
A980
100
AcDbEntity
  8
AM_5
 62
     2
100
AcDbMText
 10
-19.99999809265171
 20
-24.21549172265593
 30
0.0
 40
3.2
 41
0.0
 71
     5
 72
     1
  1
40
  7
ASAMI
 73
     1
 44
1.0
1001
ACAD
1000
MTEXTBEGIN
1070
    73
1070
     1
1070
    44
1040
1.0
1070
    74
1070
     0
1000
MTEXTEND
  0
POINT
  5
B048
330
A980
100
AcDbEntity
  8
DEFPOINTS
 62
     0
100
AcDbPoint
 10
-0.0000000000002629
 20
-12.81549072265583
 30
0.0
  0
POINT
  5
B049
330
A980
100
AcDbEntity
  8
DEFPOINTS
 62
     0
100
AcDbPoint
 10
-39.99999618530326
 20
-12.00000381469692
 30
0.0
  0
POINT
  5
B04A
330
A980
100
AcDbEntity
  8
DEFPOINTS
 62
     0
100
AcDbPoint
 10
-39.99999618530326
 20
-26.81549172265589
 30
0.0
  0
ENDBLK
  5
A98B
330
A980
100
AcDbEntity
  8
0
100
AcDbBlockEnd
  0
BLOCK
  5
AA16
330
AA0C
100
AcDbEntity
  8
0
100
AcDbBlockBegin
  2
*D5
 70
     1
 10
0.0
 20
0.0
 30
0.0
  3
*D5
  1

  0
LINE
  5
B04B
330
AA0C
100
AcDbEntity
  8
AM_5
100
AcDbLine
 10
-40.00000000000023
 20
-13.99999999999999
 30
0.0
 11
-40.00000000000021
 21
-28.81549172265597
 31
0.0
  0
LINE
  5
B04C
330
AA0C
100
AcDbEntity
  8
AM_5
100
AcDbLine
 10
-219.9999999999962
 20
-12.16149902343771
 30
0.0
 11
-219.9999999999962
 21
-28.81549172265632
 31
0.0
  0
LINE
  5
B04D
330
AA0C
100
AcDbEntity
  8
AM_5
100
AcDbLine
 10
-42.50000000000021
 20
-26.81549172265597
 30
0.0
 11
-217.4999999999962
 21
-26.81549172265633
 31
0.0
  0
INSERT
  5
B04E
330
AA0C
100
AcDbEntity
  8
AM_5
100
AcDbBlockReference
  2
_Open30
 10
-40.00000000000021
 20
-26.81549172265597
 30
0.0
 41
2.5
 42
2.5
 43
2.5
 50
0.0000000000001018
  0
INSERT
  5
B04F
330
AA0C
100
AcDbEntity
  8
AM_5
100
AcDbBlockReference
  2
_Open30
 10
-219.9999999999962
 20
-26.81549172265633
 30
0.0
 41
2.5
 42
2.5
 43
2.5
 50
180.0000000000001
  0
MTEXT
  5
B050
330
AA0C
100
AcDbEntity
  8
AM_5
 62
     2
100
AcDbMText
 10
-129.9999999999982
 20
-24.21549172265615
 30
0.0
 40
3.2
 41
0.0
 71
     5
 72
     1
  1
180
  7
ASAMI
 73
     1
 44
1.0
1001
ACAD
1000
MTEXTBEGIN
1070
    73
1070
     1
1070
    44
1040
1.0
1070
    74
1070
     0
1000
MTEXTEND
  0
POINT
  5
B051
330
AA0C
100
AcDbEntity
  8
DEFPOINTS
 62
     0
100
AcDbPoint
 10
-40.00000000000027
 20
-11.99999999999991
 30
0.0
  0
POINT
  5
B052
330
AA0C
100
AcDbEntity
  8
DEFPOINTS
 62
     0
100
AcDbPoint
 10
-219.9999999999963
 20
-10.16149902343727
 30
0.0
  0
POINT
  5
B053
330
AA0C
100
AcDbEntity
  8
DEFPOINTS
 62
     0
100
AcDbPoint
 10
-219.9999999999963
 20
-26.81549172265589
 30
0.0
  0
ENDBLK
  5
AA17
330
AA0C
100
AcDbEntity
  8
0
100
AcDbBlockEnd
  0
BLOCK
  5
AABD
330
AAB3
100
AcDbEntity
  8
0
100
AcDbBlockBegin
  2
*D6
 70
     1
 10
0.0
 20
0.0
 30
0.0
  3
*D6
  1

  0
LINE
  5
B054
330
AAB3
100
AcDbEntity
  8
AM_5
100
AcDbLine
 10
-0.0000000000002331
 20
-14.81549072265583
 30
0.0
 11
-0.000000000000186
 21
-38.81549172265589
 31
0.0
  0
LINE
  5
B055
330
AAB3
100
AcDbEntity
  8
AM_5
100
AcDbLine
 10
-219.9999999999962
 20
-12.16149902343771
 30
0.0
 11
-219.9999999999962
 21
-38.81549172265635
 31
0.0
  0
LINE
  5
B056
330
AAB3
100
AcDbEntity
  8
AM_5
100
AcDbLine
 10
-2.500000000000188
 20
-36.8154917226559
 30
0.0
 11
-217.4999999999962
 21
-36.81549172265633
 31
0.0
  0
INSERT
  5
B057
330
AAB3
100
AcDbEntity
  8
AM_5
100
AcDbBlockReference
  2
_Open30
 10
-0.00000000000019
 20
-36.81549172265589
 30
0.0
 41
2.5
 42
2.5
 43
2.5
 50
0.0000000000001018
  0
INSERT
  5
B058
330
AAB3
100
AcDbEntity
  8
AM_5
100
AcDbBlockReference
  2
_Open30
 10
-219.9999999999962
 20
-36.81549172265635
 30
0.0
 41
2.5
 42
2.5
 43
2.5
 50
180.0000000000001
  0
MTEXT
  5
B059
330
AAB3
100
AcDbEntity
  8
AM_5
 62
     2
100
AcDbMText
 10
-109.9999999999982
 20
-34.21549172265611
 30
0.0
 40
3.2
 41
0.0
 71
     5
 72
     1
  1
220
  7
ASAMI
 73
     1
 44
1.0
1001
ACAD
1000
MTEXTBEGIN
1070
    73
1070
     1
1070
    44
1040
1.0
1070
    74
1070
     0
1000
MTEXTEND
  0
POINT
  5
B05A
330
AAB3
100
AcDbEntity
  8
DEFPOINTS
 62
     0
100
AcDbPoint
 10
-0.0000000000002629
 20
-12.81549072265583
 30
0.0
  0
POINT
  5
B05B
330
AAB3
100
AcDbEntity
  8
DEFPOINTS
 62
     0
100
AcDbPoint
 10
-219.9999999999963
 20
-10.16149902343727
 30
0.0
  0
POINT
  5
B05C
330
AAB3
100
AcDbEntity
  8
DEFPOINTS
 62
     0
100
AcDbPoint
 10
-219.9999999999963
 20
-36.81549172265589
 30
0.0
  0
ENDBLK
  5
AABE
330
AAB3
100
AcDbEntity
  8
0
100
AcDbBlockEnd
  0
BLOCK
  5
AB52
330
AB48
100
AcDbEntity
  8
0
100
AcDbBlockBegin
  2
*D7
 70
     1
 10
0.0
 20
0.0
 30
0.0
  3
*D7
  1

  0
LINE
  5
B05D
330
AB48
100
AcDbEntity
  8
AM_5
100
AcDbLine
 10
-218.9999999999963
 20
12.50000381469621
 30
0.0
 11
-240.9693460927663
 21
12.50000381469617
 31
0.0
  0
LINE
  5
B05E
330
AB48
100
AcDbEntity
  8
AM_5
100
AcDbLine
 10
-218.9999999999962
 20
-12.49998065266608
 30
0.0
 11
-240.9693460927663
 21
-12.49998065266612
 31
0.0
  0
LINE
  5
B05F
330
AB48
100
AcDbEntity
  8
AM_5
100
AcDbLine
 10
-238.9693460927663
 20
10.00000381469617
 30
0.0
 11
-238.9693460927662
 21
-9.999980652666122
 31
0.0
  0
INSERT
  5
B060
330
AB48
100
AcDbEntity
  8
AM_5
100
AcDbBlockReference
  2
_Open30
 10
-238.9693460927663
 20
12.50000381469617
 30
0.0
 41
2.5
 42
2.5
 43
2.5
 50
90.0000000000001
  0
INSERT
  5
B061
330
AB48
100
AcDbEntity
  8
AM_5
100
AcDbBlockReference
  2
_Open30
 10
-238.9693460927662
 20
-12.49998065266612
 30
0.0
 41
2.5
 42
2.5
 43
2.5
 50
270.0000000000001
  0
MTEXT
  5
B062
330
AB48
100
AcDbEntity
  8
AM_5
 62
     2
100
AcDbMText
 10
-241.5693460927663
 20
0.0000115810150297
 30
0.0
 40
3.2
 41
0.0
 71
     5
 72
     1
  1
%%c25
  7
ASAMI
 11
-0.000000000000002
 21
1.0
 31
0.0
 73
     1
 44
1.0
1001
ACAD
1000
MTEXTBEGIN
1070
    73
1070
     1
1070
    44
1040
1.0
1070
    74
1070
     0
1000
MTEXTEND
  0
POINT
  5
B063
330
AB48
100
AcDbEntity
  8
DEFPOINTS
 62
     0
100
AcDbPoint
 10
-216.9999999999963
 20
12.50000381469669
 30
0.0
  0
POINT
  5
B064
330
AB48
100
AcDbEntity
  8
DEFPOINTS
 62
     0
100
AcDbPoint
 10
-216.9999999999962
 20
-12.49998065266559
 30
0.0
  0
POINT
  5
B065
330
AB48
100
AcDbEntity
  8
DEFPOINTS
 62
     0
100
AcDbPoint
 10
-238.9693460927663
 20
-12.49998065266559
 30
0.0
  0
ENDBLK
  5
AB53
330
AB48
100
AcDbEntity
  8
0
100
AcDbBlockEnd
  0
ENDSEC
  0
SECTION
  2
ENTITIES
  0
TEXT
  5
388D
330
1F
100
AcDbEntity
  8
AM_6
100
AcDbText
 10
-131.7857142857123
 20
-59.31549172265601
 30
0.0
 40
5.0
  1
WMM2026EL
 50
359.9999999999997
 51
359.9999999999998
 72
     4
 11
-109.9999999999981
 21
-56.81549172265611
 31
0.0
100
AcDbText
  0
LINE
  5
A4E9
330
1F
100
AcDbEntity
  8
AM_0
100
AcDbLine
 10
-40.8660240173343
 20
12.50000000000007
 30
0.0
 11
-216.9999999999963
 21
12.49999999999974
 31
0.0
  0
LINE
  5
A4EA
330
1F
100
AcDbEntity
  8
AM_0
100
AcDbLine
 10
-216.9999999999963
 20
-12.50000381469726
 30
0.0
 11
-40.86602401733424
 21
-12.50000381469694
 31
0.0
  0
LINE
  5
A4EB
330
1F
100
AcDbEntity
  8
AM_7
100
AcDbLine
 10
-224.9693450927663
 20
-0.0000000000002842
 30
0.0
 11
1.55177307128872
 21
0.0000000000001563
 31
0.0
  0
ELLIPSE
  5
A4EE
330
1F
100
AcDbEntity
  8
AM_0
100
AcDbEllipse
 10
-18.3493423461923
 20
12.5592956542971
 30
0.0
 11
3.015037417694996
 21
-0.0779113941369985
 31
0.0
210
0.0
220
0.0
230
1.0
 40
0.7866249598327001
 41
5.209701650587082
 42
5.218608023519813
  0
ELLIPSE
  5
A4EF
330
1F
100
AcDbEntity
  8
AM_0
100
AcDbEllipse
 10
-17.2148513793953
 20
9.32354736328112
 30
0.0
 11
-1.273589760522981
 21
-6.769836434792006
 31
0.0
210
0.0
220
0.0
230
1.0
 40
0.0090305109483
 41
1.599755241986641
 42
1.798837241255854
  0
ELLIPSE
  5
A4F0
330
1F
100
AcDbEntity
  8
AM_0
100
AcDbEllipse
 10
-27.26417922973729
 20
7.170959472656094
 30
0.0
 11
2.011882697553998
 21
-0.054717778819995
 31
0.0
210
0.0
220
0.0
230
1.0
 40
0.7869503627762003
 41
1.898793963398396
 42
1.981816237176104
  0
ELLIPSE
  5
A4F1
330
1F
100
AcDbEntity
  8
AM_0
100
AcDbEllipse
 10
-28.21715927124029
 20
13.26715087890608
 30
0.0
 11
-0.2569464598289814
 21
-11.14035063287601
 31
0.0
210
0.0
220
0.0
230
1.0
 40
0.0290452598294
 41
1.143608571065833
 42
1.182504265764481
  0
ELLIPSE
  5
A4F2
330
1F
100
AcDbEntity
  8
AM_0
100
AcDbEllipse
 10
-27.3239746093753
 20
7.553497314453097
 30
0.0
 11
2.011882697553998
 21
-0.0547177788209969
 31
0.0
210
0.0
220
0.0
230
1.0
 40
0.7869503627762002
 41
3.285489871684259
 42
5.554079679434376
  0
ELLIPSE
  5
A4F3
330
1F
100
AcDbEntity
  8
AM_0
100
AcDbEllipse
 10
-19.22296142578129
 20
8.22894287109411
 30
0.0
 11
2.011882697553004
 21
-0.0547177788209969
 31
0.0
210
0.0
220
0.0
230
1.0
 40
0.7869503627762002
 41
5.806408195176621
 42
5.965437145171099
  0
ELLIPSE
  5
A4F4
330
1F
100
AcDbEntity
  8
AM_0
100
AcDbEllipse
 10
-18.96326446533228
 20
7.421783447266112
 30
0.0
 11
1.508909186254995
 21
-0.0410461773589972
 31
0.0
210
0.0
220
0.0
230
1.0
 40
0.7869517695399999
 41
4.615131861275818
 42
6.344213808726244
  0
ELLIPSE
  5
A4F5
330
1F
100
AcDbEntity
  8
AM_0
100
AcDbEllipse
 10
-27.3239746093753
 20
7.553497314453097
 30
0.0
 11
2.011882697553998
 21
-0.0547177788209969
 31
0.0
210
0.0
220
0.0
230
1.0
 40
0.7869503627762002
 41
1.942612133912265
 42
3.285489490939353
  0
ELLIPSE
  5
A4F6
330
1F
100
AcDbEntity
  8
AM_0
100
AcDbEllipse
 10
-9.879745483399288
 20
7.384735107422143
 30
0.0
 11
-1.755931807052005
 21
-0.9957885026360065
 31
0.0
210
0.0
220
0.0
230
1.0
 40
0.9871192956276999
 41
4.483998167382188
 42
4.603549425700713
  0
ELLIPSE
  5
A4F7
330
1F
100
AcDbEntity
  8
AM_0
100
AcDbEllipse
 10
-10.84996795654329
 20
7.427093505859126
 30
0.0
 11
-0.3318404473899895
 21
-1.987152188932995
 31
0.0
210
0.0
220
0.0
230
1.0
 40
0.1238806983557
 41
3.578117284052823
 42
3.614732483269481
  0
ELLIPSE
  5
A4F8
330
1F
100
AcDbEntity
  8
AM_0
100
AcDbEllipse
 10
-9.879745483399288
 20
7.384735107422143
 30
0.0
 11
-1.755931807052005
 21
-0.9957885026360065
 31
0.0
210
0.0
220
0.0
230
1.0
 40
0.9871174649421
 41
1.99114757908709
 42
2.102661812858523
  0
ELLIPSE
  5
A4F9
330
1F
100
AcDbEntity
  8
AM_0
100
AcDbEllipse
 10
-9.935043334961292
 20
7.387145996094129
 30
0.0
 11
-1.755927953921995
 21
-0.995788530661006
 31
0.0
210
0.0
220
0.0
230
0.9999999999999998
 40
0.9871200420373
 41
1.005425641342472
 42
1.990634079322399
  0
ELLIPSE
  5
A4FA
330
1F
100
AcDbEntity
  8
AM_0
100
AcDbEllipse
 10
-22.3446121215823
 20
10.8806762695311
 30
0.0
 11
0.048481124207014
 21
-6.852691817844998
 31
0.0
210
0.0
220
0.0
230
1.0
 40
0.8749293045065996
 41
0.5908263145098369
 42
1.485975279589487
  0
ELLIPSE
  5
A4FB
330
1F
100
AcDbEntity
  8
AM_0
100
AcDbEllipse
 10
-9.935043334961292
 20
7.387145996094129
 30
0.0
 11
-1.755927953921995
 21
-0.995788530661006
 31
0.0
210
0.0
220
0.0
230
0.9999999999999998
 40
0.9871200420373
 41
4.567168446656506
 42
7.288611600607401
  0
ELLIPSE
  5
A4FC
330
1F
100
AcDbEntity
  8
AM_0
100
AcDbEllipse
 10
-36.45665740966826
 20
-12.89575576782189
 30
0.0
 11
-1.356559799031993
 21
-1.830415691086999
 31
0.0
210
0.0
220
0.0
230
1.0
 40
0.1537934105882
 41
3.711109121203457
 42
4.3032944297896
  0
ELLIPSE
  5
A4FD
330
1F
100
AcDbEntity
  8
AM_0
100
AcDbEllipse
 10
-0.956924438477281
 20
3.85757446289114
 30
0.0
 11
-0.0348510300889998
 21
-0.7993469060450025
 31
0.0
210
0.0
220
0.0
230
1.0
 40
0.0785424890394
 41
4.860296025282476
 42
5.993714784600674
  0
ELLIPSE
  5
A4FE
330
1F
100
AcDbEntity
  8
AM_0
100
AcDbEllipse
 10
-0.9395828247072806
 20
3.856536865234136
 30
0.0
 11
-0.0417861525460082
 21
-0.798919663471999
 31
0.0
210
0.0
220
0.0
230
1.0
 40
0.105474921377
 41
6.128287367734357
 42
6.21329952843262
  0
ELLIPSE
  5
A4FF
330
1F
100
AcDbEntity
  8
AM_0
100
AcDbEllipse
 10
70.74285888671372
 20
0.0000305175782662
 30
0.0
 11
317.44855268905
 21
-1.748706483068394
 31
0.0
210
0.0
220
0.0
230
1.0
 40
0.0373977348737
 41
1.828729729629831
 42
1.848632318350189
  0
ELLIPSE
  5
A500
330
1F
100
AcDbEntity
  8
AM_0
100
AcDbEllipse
 10
-28.48978805542028
 20
0.0000000000000963
 30
0.0
 11
-9.909786320245979
 21
-11.42971767889201
 31
0.0
210
0.0
220
0.0
230
1.0
 40
0.3688642365548
 41
0.0326650288373989
 42
0.3095443022820776
  0
ELLIPSE
  5
A501
330
1F
100
AcDbEntity
  8
AM_0
100
AcDbEllipse
 10
62.04315185546371
 20
0.0000000000002637
 30
0.0
 11
-317.44909441112
 21
-7.455078348807602
 31
0.0
210
0.0
220
0.0
230
1.0
 40
0.0296216034489
 41
1.25119023525236
 42
1.312377148866585
  0
ELLIPSE
  5
A502
330
1F
100
AcDbEntity
  8
AM_0
100
AcDbEllipse
 10
-21.06065368652427
 20
-0.0000038146968846
 30
0.0
 11
1.977956811297013
 21
-11.99896475901598
 31
0.0
210
0.0
220
0.0
230
1.0
 40
0.0793053358995
 41
0.3997384067672129
 42
0.4633275376691194
  0
ELLIPSE
  5
A503
330
1F
100
AcDbEntity
  8
AM_0
100
AcDbEllipse
 10
256.0251464843736
 20
0.0000000000006486
 30
0.0
 11
-274.8451006971069
 21
-10.39712542239952
 31
0.0
210
0.0
220
0.0
230
1.0
 40
0.0217992769068
 41
6.212912420093684
 42
6.328525112237211
  0
ELLIPSE
  5
A504
330
1F
100
AcDbEntity
  8
AM_0
100
AcDbEllipse
 10
-19.80212402343828
 20
-0.0000038146968798
 30
0.0
 11
0.9128966532600287
 21
-11.99939131647099
 31
0.0
210
0.0
220
0.0
230
0.9999999999999998
 40
0.1336879055213
 41
0.5829345990103673
 42
0.6346958454303504
  0
ELLIPSE
  5
A505
330
1F
100
AcDbEntity
  8
AM_0
100
AcDbEllipse
 10
-0.1771545410162787
 20
0.0007019042971525
 30
0.0
 11
152.62579234551
 21
-6.063769197825714
 31
0.0
210
0.0
220
0.0
230
1.0
 40
0.0678529400747
 41
4.597279983688873
 42
4.604423791950887
  0
ELLIPSE
  5
A506
330
1F
100
AcDbEntity
  8
AM_0
100
AcDbEllipse
 10
256.0251464843736
 20
0.0000000000006486
 30
0.0
 11
-274.8451006971069
 21
-10.39712542239952
 31
0.0
210
0.0
220
0.0
230
1.0
 40
0.0217992769068
 41
6.02196808011857
 42
6.168413364219112
  0
ELLIPSE
  5
A507
330
1F
100
AcDbEntity
  8
AM_0
100
AcDbEllipse
 10
-0.8279724121102843
 20
-0.0000038146968628
 30
0.0
 11
-0.6359057423339665
 21
-11.99981847500499
 31
0.0
210
0.0
220
0.0
230
1.0
 40
0.1049569290665
 41
5.264393286973961
 42
5.565622039618944
  0
ELLIPSE
  5
A508
330
1F
100
AcDbEntity
  8
AM_0
100
AcDbEllipse
 10
-0.8279724121102843
 20
-0.0000038146968628
 30
0.0
 11
-0.6359057423339665
 21
-11.99981847500499
 31
0.0
210
0.0
220
0.0
230
1.0
 40
0.1049569290665
 41
4.640002846757123
 42
4.991053884258706
  0
ELLIPSE
  5
A509
330
1F
100
AcDbEntity
  8
AM_0
100
AcDbEllipse
 10
6.657104492186718
 20
0.000000000000162
 30
0.0
 11
20.70856318007701
 21
-11.57129049869696
 31
0.0
210
0.0
220
0.0
230
1.0
 40
0.1535091785331
 41
4.049308167664884
 42
4.366359214914098
  0
ELLIPSE
  5
A50A
330
1F
100
AcDbEntity
  8
AM_0
100
AcDbEllipse
 10
46.00985717773371
 20
-0.0000038146967801
 30
0.0
 11
218.944682185
 21
-11.86934464322558
 31
0.0
210
0.0
220
0.0
230
1.0
 40
0.0080646782315
 41
1.818089404752083
 42
1.914330477545874
  0
ELLIPSE
  5
A50B
330
1F
100
AcDbEntity
  8
AM_0
100
AcDbEllipse
 10
-31.61858749389728
 20
-0.0000038146969115
 30
0.0
 11
6.004684022452026
 21
-11.98806945916598
 31
0.0
210
0.0
220
0.0
230
1.0
 40
0.0890375875925
 41
2.590157083350085
 42
2.825367102096207
  0
ELLIPSE
  5
A50C
330
1F
100
AcDbEntity
  8
AM_0
100
AcDbEllipse
 10
53.34298706054372
 20
0.0000305175782411
 30
0.0
 11
317.4487312718399
 21
-7.454943252555395
 31
0.0
210
0.0
220
0.0
230
1.0
 40
0.0296215385004
 41
1.829292921789894
 42
1.858978840003936
  0
ELLIPSE
  5
A50D
330
1F
100
AcDbEntity
  8
AM_0
100
AcDbEllipse
 10
-29.76065063476628
 20
-0.0000038146969185
 30
0.0
 11
-1.977954176811975
 21
-11.998964226749
 31
0.0
210
0.0
220
0.0
230
1.0
 40
0.0793051362626
 41
2.678670870022855
 42
2.741859109240394
  0
ELLIPSE
  5
A50E
330
1F
100
AcDbEntity
  8
AM_0
100
AcDbEllipse
 10
38.09359741210371
 20
-0.0001220703127701
 30
0.0
 11
152.61865107884
 21
-6.063631256038714
 31
0.0
210
0.0
220
0.0
230
1.0
 40
0.0678499248295
 41
4.359181705245069
 42
4.380038099708799
  0
ELLIPSE
  5
A50F
330
1F
100
AcDbEntity
  8
AM_0
100
AcDbEllipse
 10
-15.91149902343828
 20
-0.0000038146968788
 30
0.0
 11
-0.0190739347189803
 21
-12.00000200719199
 31
0.0
210
0.0
220
0.0
230
1.0
 40
0.0900529030202
 41
0.8833286184247699
 42
1.1815420829817
  0
ELLIPSE
  5
A510
330
1F
100
AcDbEntity
  8
AM_0
100
AcDbEllipse
 10
-12.89935302734427
 20
-0.0000038146968813
 30
0.0
 11
-0.0190739347189803
 21
-12.00000200719199
 31
0.0
210
0.0
220
0.0
230
1.0
 40
0.0900529030202
 41
0.8617644081846421
 42
1.199893237338739
  0
ELLIPSE
  5
A511
330
1F
100
AcDbEntity
  8
AM_0
100
AcDbEllipse
 10
-28.48979187011727
 20
0.0000000000000963
 30
0.0
 11
-9.909782345717978
 21
-11.42971860045802
 31
0.0
210
0.0
220
0.0
230
1.0
 40
0.3688642830629
 41
0.3095442285404792
 42
0.3740340370963084
  0
ELLIPSE
  5
A512
330
1F
100
AcDbEntity
  8
AM_0
100
AcDbEllipse
 10
-33.66028976440427
 20
-0.0000038146969052
 30
0.0
 11
4.961437102399018
 21
-11.90866291756798
 31
0.0
210
0.0
220
0.0
230
1.0
 40
0.2978318324062999
 41
2.771856289050969
 42
3.018148548656255
  0
ELLIPSE
  5
A51D
330
1F
100
AcDbEntity
  8
AM_0
100
AcDbEllipse
 10
-9.734573364258265
 20
-9.628417968749873
 30
0.0
 11
0.2258682237659997
 21
-0.0353088559480024
 31
0.0
210
0.0
220
0.0
230
1.0
 40
0.8616135693143998
 41
4.887648297001256
 42
5.423712991894428
  0
ELLIPSE
  5
A51E
330
1F
100
AcDbEntity
  8
AM_0
100
AcDbEllipse
 10
-9.720489501953265
 20
-9.64767456054686
 30
0.0
 11
0.2003440956249989
 21
-0.0313110156480004
 31
0.0
210
0.0
220
0.0
230
1.0
 40
0.8617132537217997
 41
5.423708951585824
 42
5.997938114087294
  0
ELLIPSE
  5
A51F
330
1F
100
AcDbEntity
  8
AM_0
100
AcDbEllipse
 10
-9.748855590821262
 20
-9.63546752929686
 30
0.0
 11
0.2311706649980039
 21
-0.0361327915479985
 31
0.0
210
0.0
220
0.0
230
1.0
 40
0.8616513019200999
 41
5.997925154274923
 42
6.218717572954385
  0
ELLIPSE
  5
A520
330
1F
100
AcDbEntity
  8
AM_0
100
AcDbEllipse
 10
-9.719093322754259
 20
-9.641845703124873
 30
0.0
 11
0.2010879535099974
 21
-0.031433114971001
 31
0.0
210
0.0
220
0.0
230
1.0
 40
0.8617052275559997
 41
6.21872112978392
 42
6.353683394175372
  0
ELLIPSE
  5
A521
330
1F
100
AcDbEntity
  8
AM_0
100
AcDbEllipse
 10
-18.3024673461923
 20
12.2487792968751
 30
0.0
 11
-2.964002557234002
 21
-0.4633483589410035
 31
0.0
210
0.0
220
0.0
230
1.0
 40
0.8616469126309
 41
1.65125928703244
 42
1.874969678707263
  0
ELLIPSE
  5
A522
330
1F
100
AcDbEntity
  8
AM_0
100
AcDbEllipse
 10
-18.77098083496128
 20
6.191772460937107
 30
0.0
 11
-1.48200221615
 21
-0.2316589196400073
 31
0.0
210
0.0
220
0.0
230
1.0
 40
0.8616374028820999
 41
3.623414992176305
 42
4.07649155859785
  0
ELLIPSE
  5
A523
330
1F
100
AcDbEntity
  8
AM_0
100
AcDbEllipse
 10
-18.76705932617227
 20
6.166687011719111
 30
0.0
 11
-1.482002216150007
 21
-0.231658919641002
 31
0.0
210
0.0
220
0.0
230
1.0
 40
0.8616374028820999
 41
3.635565945065923
 42
4.081970075750896
  0
ELLIPSE
  5
A524
330
1F
100
AcDbEntity
  8
AM_0
100
AcDbEllipse
 10
-27.0510444641123
 20
5.807586669922104
 30
0.0
 11
-1.976001626302995
 21
-0.3088988936860097
 31
0.0
210
0.0
220
0.0
230
1.0
 40
0.8616420195528998
 41
5.160642116822171
 42
5.680500997832852
  0
ELLIPSE
  5
A525
330
1F
100
AcDbEntity
  8
AM_0
100
AcDbEllipse
 10
-19.4684295654303
 20
7.798614501953114
 30
0.0
 11
1.996297809692002
 21
-0.1215819905509964
 31
0.0
210
0.0
220
0.0
230
0.9999999999999998
 40
0.7834784480285001
 41
4.744806280777542
 42
4.92463478390905
  0
ELLIPSE
  5
A526
330
1F
100
AcDbEntity
  8
AM_0
100
AcDbEllipse
 10
-5.197334289551286
 20
6.037872314453139
 30
0.0
 11
1.499397305309997
 21
-0.0425719390569953
 31
0.0
210
0.0
220
0.0
230
1.0
 40
0.1902212323446
 41
0.3340092115288754
 42
3.064751883129957
  0
ELLIPSE
  5
A527
330
1F
100
AcDbEntity
  8
AM_0
100
AcDbEllipse
 10
-22.54944992065428
 20
7.517303466797106
 30
0.0
 11
5.190387505087989
 21
-0.3161015586069924
 31
0.0
210
0.0
220
0.0
230
1.0
 40
0.7834847397099001
 41
6.243314695035785
 42
6.27603028144509
  0
ELLIPSE
  5
A528
330
1F
100
AcDbEntity
  8
AM_0
100
AcDbEllipse
 10
-17.3307342529303
 20
7.668487548828107
 30
0.0
 11
0.7980461204819991
 21
-0.0558776636029974
 31
0.0
210
0.0
220
0.0
230
1.0
 40
0.6214062122349002
 41
4.718317699645337
 42
4.796432579590993
  0
ELLIPSE
  5
A529
330
1F
100
AcDbEntity
  8
AM_0
100
AcDbEllipse
 10
-9.602462768555257
 20
-12.24878311157188
 30
0.0
 11
2.96400065114001
 21
-0.4633482027339912
 31
0.0
210
0.0
220
0.0
230
1.0
 40
0.8616485730720999
 41
1.674532469237579
 42
1.74846091796219
  0
ELLIPSE
  5
A52A
330
1F
100
AcDbEntity
  8
AM_0
100
AcDbEllipse
 10
-13.67012786865326
 20
-6.123229980468879
 30
0.0
 11
1.235000597571996
 21
-0.1930542610829965
 31
0.0
210
0.0
220
0.0
230
1.0
 40
0.8616342868433999
 41
3.141592552128176
 42
6.283185307179585
  0
ELLIPSE
  5
A52B
330
1F
100
AcDbEntity
  8
AM_0
100
AcDbEllipse
 10
-13.67012786865326
 20
-6.123229980468879
 30
0.0
 11
1.235000597571996
 21
-0.1930542610829965
 31
0.0
210
0.0
220
0.0
230
1.0
 40
0.8616342868433999
 41
1.704597667322938
 42
3.141592755051408
  0
ELLIPSE
  5
A52C
330
1F
100
AcDbEntity
  8
AM_0
100
AcDbEllipse
 10
-13.67012786865326
 20
-6.123229980468879
 30
0.0
 11
1.235000597571996
 21
-0.1930542610829965
 31
0.0
210
0.0
220
0.0
230
1.0
 40
0.8616342868433999
 41
0.0
 42
1.704597667322938
  0
ELLIPSE
  5
A52D
330
1F
100
AcDbEntity
  8
AM_0
100
AcDbEllipse
 10
-13.67012786865326
 20
-6.123229980468879
 30
0.0
 11
1.482002229499002
 21
-0.231658834246997
 31
0.0
210
0.0
220
0.0
230
1.0
 40
0.8616381976112998
 41
0.1775097261053989
 42
2.739013195952076
  0
SPLINE
  5
A540
330
1F
100
AcDbEntity
  8
AM_0
100
AcDbSpline
210
0.0
220
0.0
230
1.0
 70
     8
 71
     3
 72
    11
 73
     7
 74
     5
 42
0.0000000001
 43
0.0000000001
 44
0.0000000001
 40
0.0
 40
0.0
 40
0.0
 40
0.0
 40
0.0522919502623095
 40
0.1045762711413278
 40
0.1568682837397935
 40
0.2091526046188119
 40
0.2091526046188119
 40
0.2091526046188119
 40
0.2091526046188119
 10
-9.9566497802743
 20
11.98400878906213
 30
0.0
 10
-9.974080401794182
 20
11.98397736480482
 30
0.0
 10
-10.00893910171035
 20
11.983914520875
 30
0.0
 10
-10.06122847726513
 20
11.98383657090022
 30
0.0
 10
-10.11351517619084
 20
11.98369326993589
 30
0.0
 10
-10.14837391466701
 20
11.98363912901601
 30
0.0
 10
-10.1658020019533
 20
11.98361206054713
 30
0.0
 11
-9.9566497802743
 21
11.98400878906213
 31
0.0
 11
-10.00894165039129
 21
11.98391723632814
 31
0.0
 11
-10.0612258911133
 21
11.98382568359413
 31
0.0
 11
-10.11351776123129
 21
11.98370361328112
 31
0.0
 11
-10.1658020019533
 21
11.98361206054713
 31
0.0
  0
SPLINE
  5
A541
330
1F
100
AcDbEntity
  8
AM_0
100
AcDbSpline
210
0.0
220
0.0
230
1.0
 70
     8
 71
     3
 72
    11
 73
     7
 74
     5
 42
0.0000000001
 43
0.0000000001
 44
0.0000000001
 40
0.0
 40
0.0
 40
0.0
 40
0.0
 40
0.0843638397266055
 40
0.168720051257919
 40
0.2530838909855511
 40
0.3374471953016207
 40
0.3374471953016207
 40
0.3374471953016207
 40
0.3374471953016207
 10
-18.52854156494224
 20
-10.65945434570288
 30
0.0
 10
-18.55665842400588
 20
-10.65995296578231
 30
0.0
 10
-18.61288959980115
 20
-10.66095016085585
 30
0.0
 10
-18.6972376871328
 20
-10.66244298277269
 30
0.0
 10
-18.78158537173938
 20
-10.66394858634085
 30
0.0
 10
-18.83781936959259
 20
-10.6649197120994
 30
0.0
 10
-18.86593627929723
 20
-10.66540527343788
 30
0.0
 11
-18.52854156494224
 21
-10.65945434570288
 31
0.0
 11
-18.61289215087923
 21
-10.6609497070309
 31
0.0
 11
-18.69723510742224
 21
-10.66244506835887
 31
0.0
 11
-18.78158569336024
 21
-10.66394042968788
 31
0.0
 11
-18.86593627929723
 21
-10.66540527343788
 31
0.0
  0
SPLINE
  5
A542
330
1F
100
AcDbEntity
  8
AM_0
100
AcDbSpline
210
0.0
220
0.0
230
1.0
 70
    24
 71
     3
 72
    11
 73
     7
 74
     5
 42
0.0000000001
 43
0.0000000001
 44
0.0000000001
 40
0.0
 40
0.0
 40
0.0
 40
0.0
 40
0.0364436236291238
 40
0.0728872472582443
 40
0.109330870888402
 40
0.1457744945175119
 40
0.1457744945175119
 40
0.1457744945175119
 40
0.1457744945175119
 10
-27.42017745971729
 20
10.6628417968751
 30
0.0
 10
-27.43232345581096
 20
10.66305541992221
 30
0.0
 10
-27.45661544799828
 20
10.66348266601645
 30
0.0
 10
-27.49305343627963
 20
10.66412353515567
 30
0.0
 10
-27.52949142456096
 20
10.66476440429745
 30
0.0
 10
-27.55378341674863
 20
10.66519165039055
 30
0.0
 10
-27.5659294128423
 20
10.6654052734371
 30
0.0
 11
-27.42017745971729
 21
10.6628417968751
 31
0.0
 11
-27.45661544799828
 21
10.66348266601609
 31
0.0
 11
-27.49305343627928
 21
10.66412353515609
 31
0.0
 11
-27.5294914245613
 21
10.6647644042971
 31
0.0
 11
-27.5659294128423
 21
10.6654052734371
 31
0.0
  0
SPLINE
  5
A56B
330
1F
100
AcDbEntity
  8
AM_0
100
AcDbSpline
210
0.0
220
0.0
230
1.0
 70
     8
 71
     3
 72
    11
 73
     7
 74
     5
 42
0.0000000001
 43
0.0000000001
 44
0.0000000001
 40
0.0
 40
0.0
 40
0.0
 40
0.0
 40
0.113012976830551
 40
0.2268535308104783
 40
0.3415505711208955
 40
0.4567971616468628
 40
0.4567971616468628
 40
0.4567971616468628
 40
0.4567971616468628
 10
-17.21398925781329
 20
8.12310791015612
 30
0.0
 10
-17.2175859138372
 20
8.08558113421161
 30
0.0
 10
-17.22480556365987
 20
8.010252779347457
 30
0.0
 10
-17.2484840664867
 20
7.898695774551803
 30
0.0
 10
-17.28066511332962
 20
7.788512846184663
 30
0.0
 10
-17.31035877505257
 20
7.717788976731405
 30
0.0
 10
-17.32524108886728
 20
7.682342529297113
 30
0.0
 11
-17.21398925781329
 21
8.12310791015612
 31
0.0
 11
-17.2268905639653
 21
8.010833740234117
 31
0.0
 11
-17.24980163574228
 21
7.899322509766118
 31
0.0
 11
-17.28264617919929
 21
7.789428710937112
 31
0.0
 11
-17.32524108886728
 21
7.682342529297113
 31
0.0
  0
SPLINE
  5
A56C
330
1F
100
AcDbEntity
  8
AM_0
100
AcDbSpline
210
0.0
220
0.0
230
1.0
 70
     8
 71
     3
 72
    11
 73
     7
 74
     5
 42
0.0000000001
 43
0.0000000001
 44
0.0000000001
 40
0.0
 40
0.0
 40
0.0
 40
0.0
 40
0.1084242137129557
 40
0.2482615928717389
 40
0.4169904845808898
 40
0.6072101661683261
 40
0.6072101661683261
 40
0.6072101661683261
 40
0.6072101661683261
 10
-16.31765747070329
 20
11.06408691406211
 30
0.0
 10
-16.34300657367696
 20
11.03799185699184
 30
0.0
 10
-16.4010490391614
 20
10.97824136203788
 30
0.0
 10
-16.52866049374126
 20
10.91772232782704
 30
0.0
 10
-16.68666651492663
 20
10.86567069044596
 30
0.0
 10
-16.80529734469328
 20
10.84799174963967
 30
0.0
 10
-16.86816406250029
 20
10.83862304687512
 30
0.0
 11
-16.31765747070329
 21
11.06408691406211
 31
0.0
 11
-16.39712524414129
 21
10.99032592773411
 31
0.0
 11
-16.52050018310629
 21
10.92449951171911
 31
0.0
 11
-16.68094635009829
 21
10.87228393554711
 31
0.0
 11
-16.86816406250029
 21
10.83862304687512
 31
0.0
  0
SPLINE
  5
A56D
330
1F
100
AcDbEntity
  8
AM_0
100
AcDbSpline
210
0.0
220
0.0
230
1.0
 70
     8
 71
     3
 72
    11
 73
     7
 74
     5
 42
0.0000000001
 43
0.0000000001
 44
0.0000000001
 40
0.0
 40
0.0
 40
0.0
 40
0.0
 40
0.0065448644364775
 40
0.0134072758053235
 40
0.0205926629047794
 40
0.0281264881611318
 40
0.0281264881611318
 40
0.0281264881611318
 40
0.0281264881611318
 10
-37.0084075927743
 20
11.58132934570307
 30
0.0
 10
-37.00736691031198
 20
11.57941084666823
 30
0.0
 10
-37.00523505304687
 20
11.57548076592447
 30
0.0
 10
-37.00143021757096
 20
11.56975838620721
 30
0.0
 10
-36.997109486285
 20
11.56400014734415
 30
0.0
 10
-36.99388160702387
 20
11.56030298562164
 30
0.0
 10
-36.99222946167028
 20
11.55841064453106
 30
0.0
 11
-37.0084075927743
 21
11.58132934570307
 31
0.0
 11
-37.0052032470713
 21
11.57562255859406
 31
0.0
 11
-37.0014381408693
 21
11.56988525390606
 31
0.0
 11
-36.9971122741703
 21
11.56414794921906
 31
0.0
 11
-36.99222946167028
 21
11.55841064453106
 31
0.0
  0
SPLINE
  5
A56E
330
1F
100
AcDbEntity
  8
AM_0
100
AcDbSpline
210
0.0
220
0.0
230
1.0
 70
     8
 71
     3
 72
    11
 73
     7
 74
     5
 42
0.0000000001
 43
0.0000000001
 44
0.0000000001
 40
0.0
 40
0.0
 40
0.0
 40
0.0
 40
0.0397266421258133
 40
0.0713529340761892
 40
0.1047647158982259
 40
0.1464415166054634
 40
0.1464415166054634
 40
0.1464415166054634
 40
0.1464415166054634
 10
-38.27327346801825
 20
-11.42144775390591
 30
0.0
 10
-38.28277342144216
 20
-11.4310797196992
 30
0.0
 10
-38.29983626677995
 20
-11.44837967216174
 30
0.0
 10
-38.30533758817299
 20
-11.48550905898102
 30
0.0
 10
-38.28759892913481
 20
-11.51836897510751
 30
0.0
 10
-38.26792158604373
 20
-11.53401178363036
 30
0.0
 10
-38.25699996948324
 20
-11.54269409179691
 30
0.0
 11
-38.27327346801825
 21
-11.42144775390591
 31
0.0
 11
-38.29764556884825
 21
-11.45281982421893
 31
0.0
 11
-38.30187988281325
 21
-11.4841613769529
 31
0.0
 11
-38.28754806518625
 21
-11.51434326171893
 31
0.0
 11
-38.25699996948324
 21
-11.54269409179691
 31
0.0
  0
SPLINE
  5
A56F
330
1F
100
AcDbEntity
  8
AM_0
100
AcDbSpline
210
0.0
220
0.0
230
1.0
 70
     8
 71
     3
 72
    11
 73
     7
 74
     5
 42
0.0000000001
 43
0.0000000001
 44
0.0000000001
 40
0.0
 40
0.0
 40
0.0
 40
0.0
 40
0.3088566379550325
 40
0.6183582470678264
 40
0.9253493180615016
 40
1.227391341352402
 40
1.227391341352402
 40
1.227391341352402
 40
1.227391341352402
 10
-8.511421203613258
 20
-8.964324951171857
 30
0.0
 10
-8.604964329248865
 20
-9.007562414949989
 30
0.0
 10
-8.792245922340937
 20
-9.094127633319674
 30
0.0
 10
-9.053483726969819
 20
-9.259471883784859
 30
0.0
 10
-9.297052087411488
 20
-9.446135690657216
 30
0.0
 10
-9.441067000292887
 20
-9.589489194652795
 30
0.0
 10
-9.512489318848265
 20
-9.660583496093877
 30
0.0
 11
-8.511421203613258
 21
-8.964324951171857
 31
0.0
 11
-8.788879394531257
 21
-9.100006103515863
 31
0.0
 11
-9.05152893066425
 21
-9.263732910155864
 31
0.0
 11
-9.293922424317255
 21
-9.452117919921859
 31
0.0
 11
-9.512489318848265
 21
-9.660583496093877
 31
0.0
  0
SPLINE
  5
A570
330
1F
100
AcDbEntity
  8
AM_0
100
AcDbSpline
210
0.0
220
0.0
230
1.0
 70
     8
 71
     3
 72
    11
 73
     7
 74
     5
 42
0.0000000001
 43
0.0000000001
 44
0.0000000001
 40
0.0
 40
0.0
 40
0.0
 40
0.0
 40
1.300682506951376
 40
2.607881453217614
 40
3.902568407071008
 40
5.190756374644069
 40
5.190756374644069
 40
5.190756374644069
 40
5.190756374644069
 10
-14.88053131103527
 20
-4.154205322265873
 30
0.0
 10
-14.77304198684621
 20
-3.72691984167306
 30
0.0
 10
-14.5575248153048
 20
-2.870208173674263
 30
0.0
 10
-13.2129079313375
 20
-2.057226105141355
 30
0.0
 10
-11.96342007230364
 20
-3.031393156903333
 30
0.0
 10
-11.92058631666841
 20
-3.913833093187957
 30
0.0
 10
-11.89922332763726
 20
-4.353942871093886
 30
0.0
 11
-14.88053131103527
 21
-4.154205322265873
 31
0.0
 11
-14.38816070556726
 21
-2.950317382812874
 31
0.0
 11
-13.22393035888727
 21
-2.355895996093878
 31
0.0
 11
-12.15901947021527
 21
-3.092224121093873
 31
0.0
 11
-11.89922332763726
 21
-4.353942871093886
 31
0.0
  0
SPLINE
  5
A571
330
1F
100
AcDbEntity
  8
AM_0
100
AcDbSpline
210
0.0
220
0.0
230
1.0
 70
     8
 71
     3
 72
    11
 73
     7
 74
     5
 42
0.0000000001
 43
0.0000000001
 44
0.0000000001
 40
0.0
 40
0.0
 40
0.0
 40
0.0
 40
0.2398079876726201
 40
0.4679520233172335
 40
0.6664229715645761
 40
0.8070245458164729
 40
0.8070245458164729
 40
0.8070245458164729
 40
0.8070245458164729
 10
-37.48985671997124
 20
-11.26950073242191
 30
0.0
 10
-37.56987258713595
 20
-11.27182089266729
 30
0.0
 10
-37.72601245262001
 20
-11.27634836354842
 30
0.0
 10
-37.94566469581024
 20
-11.3056203868945
 30
0.0
 10
-38.13410567009945
 20
-11.34085263084655
 30
0.0
 10
-38.23248074728332
 20
-11.39782379493893
 30
0.0
 10
-38.27327346801825
 20
-11.42144775390591
 30
0.0
 11
-37.48985671997124
 21
-11.26950073242191
 31
0.0
 11
-37.72940444946325
 21
-11.28067016601592
 31
0.0
 11
-37.95576477050825
 21
-11.30914306640591
 31
0.0
 11
-38.14844131469725
 21
-11.35675048828091
 31
0.0
 11
-38.27327346801825
 21
-11.42144775390591
 31
0.0
  0
SPLINE
  5
A572
330
1F
100
AcDbEntity
  8
AM_0
100
AcDbSpline
210
0.0
220
0.0
230
1.0
 70
     8
 71
     3
 72
    11
 73
     7
 74
     5
 42
0.0000000001
 43
0.0000000001
 44
0.0000000001
 40
0.0
 40
0.0
 40
0.0
 40
0.0
 40
0.2602116218744205
 40
0.5461397186639479
 40
0.8609978323493495
 40
1.192399186122714
 40
1.192399186122714
 40
1.192399186122714
 40
1.192399186122714
 10
-8.511421203613258
 20
-8.964324951171857
 30
0.0
 10
-8.568102953993806
 20
-8.898255661115308
 30
0.0
 10
-8.687068259936795
 20
-8.759587513920779
 30
0.0
 10
-8.926586899529132
 20
-8.596263629189847
 30
0.0
 10
-9.224023632414283
 20
-8.485666236267462
 30
0.0
 10
-9.441209197665285
 20
-8.493123938345359
 30
0.0
 10
-9.552581787110263
 20
-8.496948242187855
 30
0.0
 11
-8.511421203613258
 21
-8.964324951171857
 31
0.0
 11
-8.688949584961259
 21
-8.774078369140863
 31
0.0
 11
-8.924102783203261
 21
-8.611419677733861
 31
0.0
 11
-9.221351623535262
 21
-8.507598876952853
 31
0.0
 11
-9.552581787110263
 21
-8.496948242187855
 31
0.0
  0
SPLINE
  5
A573
330
1F
100
AcDbEntity
  8
AM_0
100
AcDbSpline
210
0.0
220
0.0
230
1.0
 70
     8
 71
     3
 72
    11
 73
     7
 74
     5
 42
0.0000000001
 43
0.0000000001
 44
0.0000000001
 40
0.0
 40
0.0
 40
0.0
 40
0.0
 40
0.35043986074575
 40
0.6979708598286305
 40
1.037655736934527
 40
1.365505219508243
 40
1.365505219508243
 40
1.365505219508243
 40
1.365505219508243
 10
-7.177719116211259
 20
-8.728027343749864
 30
0.0
 10
-7.294661032853419
 20
-8.725813727295525
 30
0.0
 10
-7.527574177879337
 20
-8.721404868735094
 30
0.0
 10
-7.871526139752642
 20
-8.76661263757286
 30
0.0
 10
-8.201928513969631
 20
-8.843697122940531
 30
0.0
 10
-8.409483625512418
 20
-8.924593774724279
 30
0.0
 10
-8.511421203613258
 20
-8.964324951171857
 30
0.0
 11
-7.177719116211259
 21
-8.728027343749864
 31
0.0
 11
-7.528152465821258
 21
-8.730163574218853
 31
0.0
 11
-7.873077392578261
 21
-8.772644042968869
 31
0.0
 11
-8.203262329102253
 21
-8.852416992187864
 31
0.0
 11
-8.511421203613258
 21
-8.964324951171857
 31
0.0
  0
SPLINE
  5
A574
330
1F
100
AcDbEntity
  8
AM_0
100
AcDbSpline
210
0.0
220
0.0
230
1.0
 70
     8
 71
     3
 72
    11
 73
     7
 74
     5
 42
0.0000000001
 43
0.0000000001
 44
0.0000000001
 40
0.0
 40
0.0
 40
0.0
 40
0.0
 40
1.165782557829739
 40
2.267450653836415
 40
3.40311982765613
 40
4.59182490153011
 40
4.59182490153011
 40
4.59182490153011
 40
4.59182490153011
 10
-3.828552246094265
 20
-6.234649658202861
 30
0.0
 10
-4.226636969108161
 20
-6.136605415304411
 30
0.0
 10
-5.00091297745789
 20
-5.94590906187908
 30
0.0
 10
-5.481020654258952
 20
-4.757321509439922
 30
0.0
 10
-5.029542017111515
 20
-3.53681987554199
 30
0.0
 10
-4.234925830008077
 20
-3.336893654892449
 30
0.0
 10
-3.828552246094269
 20
-3.234649658202862
 30
0.0
 11
-3.828552246094265
 21
-6.234649658202861
 31
0.0
 11
-4.902694702149267
 21
-5.781585693358845
 31
0.0
 11
-5.328208923340271
 21
-4.765411376952852
 31
0.0
 11
-4.919960021973273
 21
-3.705657958983845
 31
0.0
 11
-3.828552246094269
 21
-3.234649658202862
 31
0.0
  0
SPLINE
  5
A575
330
1F
100
AcDbEntity
  8
AM_0
100
AcDbSpline
210
0.0
220
0.0
230
1.0
 70
     8
 71
     3
 72
    11
 73
     7
 74
     5
 42
0.0000000001
 43
0.0000000001
 44
0.0000000001
 40
0.0
 40
0.0
 40
0.0
 40
0.0
 40
1.964863538938672
 40
4.459303077746747
 40
7.241296511673631
 40
10.1288568851759
 40
10.1288568851759
 40
10.1288568851759
 40
10.1288568851759
 10
-36.17123413086029
 20
10.48727416992207
 30
0.0
 10
-35.77159066924513
 20
9.966039001551871
 30
0.0
 10
-34.86459062417103
 20
8.783083776173418
 30
0.0
 10
-32.958853105619
 20
7.266063039575137
 30
0.0
 10
-30.48764218951952
 20
6.029769262212767
 30
0.0
 10
-28.60143946975638
 20
5.784880527955209
 30
0.0
 10
-27.64077758789129
 20
5.660156250000098
 30
0.0
 11
-36.17123413086029
 21
10.48727416992207
 31
0.0
 11
-34.9205474853523
 21
8.971862792969078
 31
0.0
 11
-32.98792648315428
 21
7.394775390625078
 31
0.0
 11
-30.47865295410228
 21
6.193511962891096
 31
0.0
 11
-27.64077758789129
 21
5.660156250000098
 31
0.0
  0
SPLINE
  5
A576
330
1F
100
AcDbEntity
  8
AM_0
100
AcDbSpline
210
0.0
220
0.0
230
1.0
 70
     8
 71
     3
 72
    11
 73
     7
 74
     5
 42
0.0000000001
 43
0.0000000001
 44
0.0000000001
 40
0.0
 40
0.0
 40
0.0
 40
0.0
 40
0.015545943055235
 40
0.0299663913106511
 40
0.0444784543546767
 40
0.0601418242987205
 40
0.0601418242987205
 40
0.0601418242987205
 40
0.0601418242987205
 10
-37.0056114196783
 20
11.63839721679707
 30
0.0
 10
-37.0082784975139
 20
11.63391184498161
 30
0.0
 10
-37.01341956215006
 20
11.62526583318815
 30
0.0
 10
-37.01613841305372
 20
11.61040129131351
 30
0.0
 10
-37.01462481385187
 20
11.59537768614671
 30
0.0
 10
-37.01053205125778
 20
11.58612974055183
 30
0.0
 10
-37.0084075927743
 20
11.58132934570307
 30
0.0
 11
-37.0056114196783
 21
11.63839721679707
 31
0.0
 11
-37.01272201538131
 21
11.62457275390606
 31
0.0
 11
-37.0154495239263
 21
11.61041259765607
 31
0.0
 11
-37.0139541625983
 21
11.59597778320307
 31
0.0
 11
-37.0084075927743
 21
11.58132934570307
 31
0.0
  0
SPLINE
  5
A577
330
1F
100
AcDbEntity
  8
AM_0
100
AcDbSpline
210
0.0
220
0.0
230
1.0
 70
     8
 71
     3
 72
    11
 73
     7
 74
     5
 42
0.0000000001
 43
0.0000000001
 44
0.0000000001
 40
0.0
 40
0.0
 40
0.0
 40
0.0
 40
0.0993794716886199
 40
0.1991018260393731
 40
0.2991947373568802
 40
0.3996935379453872
 40
0.3996935379453872
 40
0.3996935379453872
 40
0.3996935379453872
 10
-14.91880035400427
 20
-4.551849365233884
 30
0.0
 10
-14.91726754823884
 20
-4.518755810083895
 30
0.0
 10
-14.91419664816586
 20
-4.452454519198163
 30
0.0
 10
-14.90593381947195
 20
-4.353048291481327
 30
0.0
 10
-14.89515871999325
 20
-4.253505756526802
 30
0.0
 10
-14.88541368691558
 20
-4.187350088131994
 30
0.0
 10
-14.88053131103527
 20
-4.154205322265873
 30
0.0
 11
-14.91880035400427
 21
-4.551849365233884
 31
0.0
 11
-14.91359710693427
 21
-4.452606201171881
 31
0.0
 11
-14.90553283691426
 21
-4.353210449218885
 31
0.0
 11
-14.89453887939528
 21
-4.253723144530873
 31
0.0
 11
-14.88053131103527
 21
-4.154205322265873
 31
0.0
  0
SPLINE
  5
A578
330
1F
100
AcDbEntity
  8
AM_0
100
AcDbSpline
210
0.0
220
0.0
230
1.0
 70
     8
 71
     3
 72
    11
 73
     7
 74
     5
 42
0.0000000001
 43
0.0000000001
 44
0.0000000001
 40
0.0
 40
0.0
 40
0.0
 40
0.0
 40
0.2072968523819061
 40
0.414637365839273
 40
0.6220519102589011
 40
0.8295417903579249
 40
0.8295417903579249
 40
0.8295417903579249
 40
0.8295417903579249
 10
-7.253463745117252
 20
-8.725616455077858
 30
0.0
 10
-7.257870199178339
 20
-8.794574773503642
 30
0.0
 10
-7.266684035392386
 20
-8.932505934426895
 30
0.0
 10
-7.279554759332936
 20
-9.139456813720936
 30
0.0
 10
-7.292172962124412
 20
-9.346487700888323
 30
0.0
 10
-7.300357817837146
 20
-9.484546789127293
 30
0.0
 10
-7.304450988770267
 20
-9.553588867187844
 30
0.0
 11
-7.253463745117252
 21
-8.725616455077858
 31
0.0
 11
-7.266624450684255
 21
-8.93249511718786
 31
0.0
 11
-7.279510498047251
 21
-9.139434814452844
 31
0.0
 11
-7.292114257813265
 21
-9.346466064452844
 31
0.0
 11
-7.304450988770267
 21
-9.553588867187844
 31
0.0
  0
SPLINE
  5
A579
330
1F
100
AcDbEntity
  8
AM_0
100
AcDbSpline
210
0.0
220
0.0
230
1.0
 70
     8
 71
     3
 72
    11
 73
     7
 74
     5
 42
0.0000000001
 43
0.0000000001
 44
0.0000000001
 40
0.0
 40
0.0
 40
0.0
 40
0.0
 40
2.219467856566727
 40
4.421288300950353
 40
6.620589076263733
 40
8.837095169195038
 40
8.837095169195038
 40
8.837095169195038
 40
8.837095169195038
 10
-0.1999969482422724
 20
-0.100921630858856
 30
0.0
 10
-0.246185727389852
 20
-0.8393238416636016
 30
0.0
 10
-0.3381960298937455
 20
-2.310257086480678
 30
0.0
 10
-0.5228900284275746
 20
-4.509457373588571
 30
0.0
 10
-0.7122014959456031
 20
-6.707247544137628
 30
0.0
 10
-0.8092704816774039
 20
-8.176020948387105
 30
0.0
 10
-0.8579940795902636
 20
-8.913269042968858
 30
0.0
 11
-0.1999969482422724
 21
-0.100921630858856
 31
0.0
 11
-0.346458435059274
 21
-2.315551757812848
 31
0.0
 11
-0.5237426757812753
 21
-4.510223388671854
 31
0.0
 11
-0.7044525146492641
 21
-6.702087402343858
 31
0.0
 11
-0.8579940795902636
 21
-8.913269042968858
 31
0.0
  0
SPLINE
  5
A57A
330
1F
100
AcDbEntity
  8
AM_0
100
AcDbSpline
210
0.0
220
0.0
230
1.0
 70
     8
 71
     3
 72
    11
 73
     7
 74
     5
 42
0.0000000001
 43
0.0000000001
 44
0.0000000001
 40
0.0
 40
0.0
 40
0.0
 40
0.0
 40
0.2887840936905261
 40
0.5770744168649287
 40
0.8639309926594476
 40
1.149345200315503
 40
1.149345200315503
 40
1.149345200315503
 40
1.149345200315503
 10
-0.8579940795902636
 20
-8.913269042968858
 30
0.0
 10
-0.8738212272892795
 20
-9.009331526961343
 30
0.0
 10
-0.9054484610206234
 20
-9.20129224482542
 30
0.0
 10
-1.074552071369038
 20
-9.443917498232735
 30
0.0
 10
-1.310536414302651
 20
-9.621536169560322
 30
0.0
 10
-1.500608878588875
 20
-9.65581592152286
 30
0.0
 10
-1.595405578613264
 20
-9.672912597655862
 30
0.0
 11
-0.8579940795902636
 21
-8.913269042968858
 31
0.0
 11
-0.9258422851562569
 21
-9.193969726562848
 31
0.0
 11
-1.086174011231263
 21
-9.433563232421855
 31
0.0
 11
-1.319259643555267
 21
-9.600769042968845
 31
0.0
 11
-1.595405578613264
 21
-9.672912597655862
 31
0.0
  0
SPLINE
  5
A57B
330
1F
100
AcDbEntity
  8
AM_0
100
AcDbSpline
210
0.0
220
0.0
230
1.0
 70
     8
 71
     3
 72
    11
 73
     7
 74
     5
 42
0.0000000001
 43
0.0000000001
 44
0.0000000001
 40
0.0
 40
0.0
 40
0.0
 40
0.0
 40
0.1484924847080529
 40
0.2969849694167825
 40
0.4454929806490552
 40
0.5939854653577845
 40
0.5939854653577845
 40
0.5939854653577845
 40
0.5939854653577845
 10
-1.288070678711259
 20
-8.503570556640863
 30
0.0
 10
-1.252230887918601
 20
-8.537710143498625
 30
0.0
 10
-1.180551306333122
 20
-8.6059893172143
 30
0.0
 10
-1.07301807765174
 20
-8.708401036769952
 30
0.0
 10
-0.9655252865212441
 20
-8.810855201297737
 30
0.0
 10
-0.893836565991782
 20
-8.87913228553638
 30
0.0
 10
-0.8579940795902636
 20
-8.913269042968858
 30
0.0
 11
-1.288070678711259
 21
-8.503570556640863
 31
0.0
 11
-1.180549621582253
 21
-8.605987548827865
 31
0.0
 11
-1.073028564453261
 21
-8.708404541015861
 31
0.0
 11
-0.9655151367192557
 21
-8.81085205078086
 31
0.0
 11
-0.8579940795902636
 21
-8.913269042968858
 31
0.0
  0
SPLINE
  5
A57C
330
1F
100
AcDbEntity
  8
AM_0
100
AcDbSpline
210
0.0
220
0.0
230
1.0
 70
     8
 71
     3
 72
    11
 73
     7
 74
     5
 42
0.0000000001
 43
0.0000000001
 44
0.0000000001
 40
0.0
 40
0.0
 40
0.0
 40
0.0
 40
1.05280495562019
 40
2.105692705558657
 40
3.158667523256937
 40
4.211732769921836
 40
4.211732769921836
 40
4.211732769921836
 40
4.211732769921836
 10
-1.595405578613264
 20
-9.672912597655862
 30
0.0
 10
-1.945479605079965
 20
-9.697479656834486
 30
0.0
 10
-2.645655188412243
 20
-9.746615707185787
 30
0.0
 10
-3.695974630386909
 20
-9.820132294046819
 30
0.0
 10
-4.746380991001491
 20
-9.89364970009667
 30
0.0
 10
-5.446690134536805
 20
-9.942535853988312
 30
0.0
 10
-5.796859741211259
 20
-9.966979980468863
 30
0.0
 11
-1.595405578613264
 21
-9.672912597655862
 31
0.0
 11
-2.645629882813263
 21
-9.746582031249847
 31
0.0
 11
-3.69594573974626
 21
-9.820129394530871
 31
0.0
 11
-4.746353149414257
 21
-9.893615722655875
 31
0.0
 11
-5.796859741211259
 21
-9.966979980468863
 31
0.0
  0
SPLINE
  5
A57D
330
1F
100
AcDbEntity
  8
AM_0
100
AcDbSpline
210
0.0
220
0.0
230
1.0
 70
     8
 71
     3
 72
    11
 73
     7
 74
     5
 42
0.0000000001
 43
0.0000000001
 44
0.0000000001
 40
0.0
 40
0.0
 40
0.0
 40
0.0
 40
0.154406582673222
 40
0.3087921165563149
 40
0.4631776504401563
 40
0.6175787093653068
 40
0.6175787093653068
 40
0.6175787093653068
 40
0.6175787093653068
 10
-1.595405578613264
 20
-9.672912597655862
 30
0.0
 10
-1.632668836006758
 20
-9.637409170965629
 30
0.0
 10
-1.707190271046039
 20
-9.566407157431774
 30
0.0
 10
-1.81899235547606
 20
-9.459930147789931
 30
0.0
 10
-1.930794662255074
 20
-9.353456040813215
 30
0.0
 10
-2.005311652897319
 20
-9.282452031699454
 30
0.0
 10
-2.042572021485261
 20
-9.246948242187851
 30
0.0
 11
-1.595405578613264
 21
-9.672912597655862
 31
0.0
 11
-1.707199096680267
 21
-9.566406249999843
 31
0.0
 11
-1.818992614746262
 21
-9.459930419921859
 31
0.0
 11
-1.930786132813265
 21
-9.353454589843847
 31
0.0
 11
-2.042572021485261
 21
-9.246948242187851
 31
0.0
  0
SPLINE
  5
A57E
330
1F
100
AcDbEntity
  8
AM_0
100
AcDbSpline
210
0.0
220
0.0
230
1.0
 70
     8
 71
     3
 72
    11
 73
     7
 74
     5
 42
0.0000000001
 43
0.0000000001
 44
0.0000000001
 40
0.0
 40
0.0
 40
0.0
 40
0.0
 40
0.260677637279179
 40
0.5213319241416972
 40
0.7820095614202211
 40
1.0426871986994
 40
1.0426871986994
 40
1.0426871986994
 40
1.0426871986994
 10
-7.304496765137256
 20
-9.554412841796851
 30
0.0
 10
-7.248554658606852
 20
-9.487923780703749
 30
0.0
 10
-7.136675456606871
 20
-9.354951614330618
 30
0.0
 10
-6.968823542514678
 20
-9.15551614086784
 30
0.0
 10
-6.801003844895501
 20
-8.956053557850481
 30
0.0
 10
-6.689115335994056
 20
-8.823079050533458
 30
0.0
 10
-6.633171081543261
 20
-8.756591796874863
 30
0.0
 11
-7.304496765137256
 21
-9.554412841796851
 31
0.0
 11
-7.136665344238266
 21
-9.354949951171851
 31
0.0
 11
-6.968833923340262
 21
-9.155517578124833
 31
0.0
 11
-6.801002502442252
 21
-8.956054687499863
 31
0.0
 11
-6.633171081543261
 21
-8.756591796874863
 31
0.0
  0
SPLINE
  5
A57F
330
1F
100
AcDbEntity
  8
AM_0
100
AcDbSpline
210
0.0
220
0.0
230
1.0
 70
     8
 71
     3
 72
    11
 73
     7
 74
     5
 42
0.0000000001
 43
0.0000000001
 44
0.0000000001
 40
0.0
 40
0.0
 40
0.0
 40
0.0
 40
0.0392413604241302
 40
0.0785304822644945
 40
0.117782768075863
 40
0.157059354248673
 40
0.157059354248673
 40
0.157059354248673
 40
0.157059354248673
 10
-7.282821655274259
 20
-9.709045410155857
 30
0.0
 10
-7.286765349622555
 20
-9.696561210279165
 30
0.0
 10
-7.294657538265559
 20
-9.671577615765452
 30
0.0
 10
-7.301695339312903
 20
-9.632868425605003
 30
0.0
 10
-7.305483433472556
 20
-9.593702032012117
 30
0.0
 10
-7.304825722424141
 20
-9.567511939999022
 30
0.0
 10
-7.304496765137256
 20
-9.554412841796851
 30
0.0
 11
-7.282821655274259
 21
-9.709045410155857
 31
0.0
 11
-7.293853759766262
 21
-9.671386718749834
 31
0.0
 11
-7.301155090332255
 21
-9.632781982421851
 31
0.0
 11
-7.304687500000268
 21
-9.59368896484384
 31
0.0
 11
-7.304496765137256
 21
-9.554412841796851
 31
0.0
  0
SPLINE
  5
A580
330
1F
100
AcDbEntity
  8
AM_0
100
AcDbSpline
210
0.0
220
0.0
230
1.0
 70
     8
 71
     3
 72
    11
 73
     7
 74
     5
 42
0.0000000001
 43
0.0000000001
 44
0.0000000001
 40
0.0
 40
0.0
 40
0.0
 40
0.0
 40
0.1143503122877231
 40
0.2289275301111037
 40
0.3439060241764682
 40
0.4592927653590434
 40
0.4592927653590434
 40
0.4592927653590434
 40
0.4592927653590434
 10
-6.926483154297254
 20
-9.954498291015855
 30
0.0
 10
-6.964733742053965
 20
-9.951089818351993
 30
0.0
 10
-7.041310818279248
 20
-9.944266109585672
 30
0.0
 10
-7.146254491688091
 20
-9.893052510638682
 30
0.0
 10
-7.233805814270842
 20
-9.814533402640178
 30
0.0
 10
-7.266463749766105
 20
-9.744249592680908
 30
0.0
 10
-7.282821655274259
 20
-9.709045410155857
 30
0.0
 11
-6.926483154297254
 21
-9.954498291015855
 31
0.0
 11
-7.039558410645265
 21
-9.93746948242185
 31
0.0
 11
-7.143196105957255
 21
-9.88861083984384
 31
0.0
 11
-7.227272033692256
 21
-9.810180664062844
 31
0.0
 11
-7.282821655274259
 21
-9.709045410155857
 31
0.0
  0
SPLINE
  5
A581
330
1F
100
AcDbEntity
  8
AM_0
100
AcDbSpline
210
0.0
220
0.0
230
1.0
 70
     8
 71
     3
 72
    11
 73
     7
 74
     5
 42
0.0000000001
 43
0.0000000001
 44
0.0000000001
 40
0.0
 40
0.0
 40
0.0
 40
0.0
 40
0.2680909610449205
 40
0.5361585712187907
 40
0.8042495322644938
 40
1.072317142438359
 40
1.072317142438359
 40
1.072317142438359
 40
1.072317142438359
 10
-0.1999511718752838
 20
-0.1000671386718534
 30
0.0
 10
-0.257482646118417
 20
-0.1684483648347237
 30
0.0
 10
-0.3725405835814428
 20
-0.305204861117828
 30
0.0
 10
-0.5451622114588348
 20
-0.5103154755360185
 30
0.0
 10
-0.7177401685889182
 20
-0.7154526638133944
 30
0.0
 10
-0.8328152879850636
 20
-0.8521947025027653
 30
0.0
 10
-0.8903503417972764
 20
-0.9205627441408619
 30
0.0
 11
-0.1999511718752838
 21
-0.1000671386718534
 31
0.0
 11
-0.3725509643562777
 21
-0.3052062988278483
 31
0.0
 11
-0.5451507568362838
 21
-0.5103149414058463
 31
0.0
 11
-0.7177505493172776
 21
-0.7154541015628642
 31
0.0
 11
-0.8903503417972764
 21
-0.9205627441408619
 31
0.0
  0
SPLINE
  5
A582
330
1F
100
AcDbEntity
  8
AM_0
100
AcDbSpline
210
0.0
220
0.0
230
1.0
 70
     8
 71
     3
 72
    11
 73
     7
 74
     5
 42
0.0000000001
 43
0.0000000001
 44
0.0000000001
 40
0.0
 40
0.0
 40
0.0
 40
0.0
 40
0.0392706481148772
 40
0.078529784379023
 40
0.117812464037684
 40
0.1570585329926357
 40
0.1570585329926357
 40
0.1570585329926357
 40
0.1570585329926357
 10
-0.2216262817382814
 20
0.054565429687152
 30
0.0
 10
-0.2176835984658586
 20
0.0420708199792492
 30
0.0
 10
-0.2097993876845027
 20
0.0170852632501782
 30
0.0
 10
-0.2027462787327738
 20
-0.0216308352033557
 30
0.0
 10
-0.1989668638964465
 20
-0.0607884297928728
 30
0.0
 10
-0.1996231712075021
 20
-0.0869783056857312
 30
0.0
 10
-0.1999511718752838
 20
-0.1000671386718534
 30
0.0
 11
-0.2216262817382814
 21
0.054565429687152
 31
0.0
 11
-0.2105941772462785
 21
0.0168762207031466
 31
0.0
 11
-0.2032928466802843
 21
-0.0216979980468534
 31
0.0
 11
-0.1997604370122727
 21
-0.0608215332028476
 31
0.0
 11
-0.1999511718752838
 21
-0.1000671386718534
 31
0.0
  0
SPLINE
  5
A583
330
1F
100
AcDbEntity
  8
AM_0
100
AcDbSpline
210
0.0
220
0.0
230
1.0
 70
     8
 71
     3
 72
    11
 73
     7
 74
     5
 42
0.0000000001
 43
0.0000000001
 44
0.0000000001
 40
0.0
 40
0.0
 40
0.0
 40
0.0
 40
0.114350312287721
 40
0.2289275301110955
 40
0.3438796296662147
 40
0.4592700439949436
 40
0.4592700439949436
 40
0.4592700439949436
 40
0.4592700439949436
 10
-0.5779647827152856
 20
0.2999877929691397
 30
0.0
 10
-0.5397139328375551
 20
0.2965796139651087
 30
0.0
 10
-0.4631363318501079
 20
0.2897564931011609
 30
0.0
 10
-0.3582046587892877
 20
0.23854240396147
 30
0.0
 10
-0.2706419997122337
 20
0.1600484701023048
 30
0.0
 10
-0.2379855681819402
 20
0.0897710197392359
 30
0.0
 10
-0.2216262817382814
 20
0.054565429687152
 30
0.0
 11
-0.5779647827152856
 21
0.2999877929691397
 31
0.0
 11
-0.464889526367274
 21
0.2829589843751484
 31
0.0
 11
-0.3612518310552853
 21
0.2341003417971518
 31
0.0
 11
-0.2771835327152849
 21
0.155700683594155
 31
0.0
 11
-0.2216262817382814
 21
0.054565429687152
 31
0.0
  0
SPLINE
  5
A584
330
1F
100
AcDbEntity
  8
AM_0
100
AcDbSpline
210
0.0
220
0.0
230
1.0
 70
     8
 71
     3
 72
    11
 73
     7
 74
     5
 42
0.0000000001
 43
0.0000000001
 44
0.0000000001
 40
0.0
 40
0.0
 40
0.0
 40
0.0
 40
0.252820794334847
 40
0.5056415886689183
 40
0.7584623830029883
 40
1.011288089424126
 40
1.011288089424126
 40
1.011288089424126
 40
1.011288089424126
 10
-1.229064941406283
 20
-0.4738159179688604
 30
0.0
 10
-1.174807257219285
 20
-0.4093322530186502
 30
0.0
 10
-1.066291888845456
 20
-0.2803649231184274
 30
0.0
 10
-0.9035183577066796
 20
-0.0869143309619711
 30
0.0
 10
-0.7407456867075957
 20
0.1065391248360671
 30
0.0
 10
-0.6322254354515811
 20
0.2355044859814638
 30
0.0
 10
-0.5779647827152856
 20
0.2999877929691397
 30
0.0
 11
-1.229064941406283
 21
-0.4738159179688604
 31
0.0
 11
-1.06629180908227
 21
-0.2803649902338594
 31
0.0
 11
-0.9035186767582811
 21
-0.0869140624998533
 31
0.0
 11
-0.7407455444342764
 21
0.1065368652341387
 31
0.0
 11
-0.5779647827152856
 21
0.2999877929691397
 31
0.0
  0
SPLINE
  5
A585
330
1F
100
AcDbEntity
  8
AM_0
100
AcDbSpline
210
0.0
220
0.0
230
1.0
 70
     8
 71
     3
 72
    11
 73
     7
 74
     5
 42
0.0000000001
 43
0.0000000001
 44
0.0000000001
 40
0.0
 40
0.0
 40
0.0
 40
0.0
 40
0.2629234970807703
 40
0.5258752569212608
 40
0.7888221047929627
 40
1.051773864632825
 40
1.051773864632825
 40
1.051773864632825
 40
1.051773864632825
 10
-6.24931335449225
 20
-9.149719238280882
 30
0.0
 10
-6.305743710087859
 20
-9.216775847920388
 30
0.0
 10
-6.418610487216883
 20
-9.350896275398239
 30
0.0
 10
-6.587898040704831
 20
-9.552091545906755
 30
0.0
 10
-6.757186616941283
 20
-9.753298267683259
 30
0.0
 10
-6.870050623789946
 20
-9.88743119896474
 30
0.0
 10
-6.926483154297254
 20
-9.954498291015855
 30
0.0
 11
-6.24931335449225
 21
-9.149719238280882
 31
0.0
 11
-6.418601989746262
 21
-9.350891113280882
 31
0.0
 11
-6.587898254395267
 21
-9.552093505858865
 31
0.0
 11
-6.757186889649259
 21
-9.753295898437842
 31
0.0
 11
-6.926483154297254
 21
-9.954498291015855
 31
0.0
  0
SPLINE
  5
A586
330
1F
100
AcDbEntity
  8
AM_0
100
AcDbSpline
210
0.0
220
0.0
230
1.0
 70
     8
 71
     3
 72
    11
 73
     7
 74
     5
 42
0.0000000001
 43
0.0000000001
 44
0.0000000001
 40
0.0
 40
0.0
 40
0.0
 40
0.0
 40
0.63495675991909
 40
1.2699135198389
 40
1.904862916953674
 40
2.539819676872517
 40
2.539819676872517
 40
2.539819676872517
 40
2.539819676872517
 10
-5.796859741211259
 20
-9.966979980468863
 30
0.0
 10
-5.592603063280647
 20
-9.911519311068152
 30
0.0
 10
-5.18408970741919
 20
-9.800597972266666
 30
0.0
 10
-4.571321761494079
 20
-9.634217640753801
 30
0.0
 10
-3.958554938136064
 20
-9.467833174948335
 30
0.0
 10
-3.550043801109395
 20
-9.356913030497091
 30
0.0
 10
-3.345787048340262
 20
-9.301452636718853
 30
0.0
 11
-5.796859741211259
 21
-9.966979980468863
 31
0.0
 11
-5.184089660645266
 21
-9.800598144530876
 31
0.0
 11
-4.571319580078264
 21
-9.634216308593858
 31
0.0
 11
-3.958557128906262
 21
-9.467834472655873
 31
0.0
 11
-3.345787048340262
 21
-9.301452636718853
 31
0.0
  0
SPLINE
  5
A587
330
1F
100
AcDbEntity
  8
AM_0
100
AcDbSpline
210
0.0
220
0.0
230
1.0
 70
     8
 71
     3
 72
    11
 73
     7
 74
     5
 42
0.0000000001
 43
0.0000000001
 44
0.0000000001
 40
0.0
 40
0.0
 40
0.0
 40
0.0
 40
0.0625467591160005
 40
0.1251357120922494
 40
0.1877707049389115
 40
0.250388975309951
 40
0.250388975309951
 40
0.250388975309951
 40
0.250388975309951
 10
-0.9215927124032859
 20
-0.728851318358859
 30
0.0
 10
-0.9307350865653303
 20
-0.7100532458048026
 30
0.0
 10
-0.9490260023082141
 20
-0.6724444195720798
 30
0.0
 10
-0.9879772306604474
 20
-0.6229625811578169
 30
0.0
 10
-1.033865433893004
 20
-0.5797590812163761
 30
0.0
 10
-1.069914349831042
 20
-0.558466109416779
 30
0.0
 10
-1.087936401367276
 20
-0.5478210449218713
 30
0.0
 11
-0.9215927124032859
 21
-0.728851318358859
 31
0.0
 11
-0.950935363770289
 21
-0.6736145019528649
 31
0.0
 11
-0.9891204833992805
 21
-0.6240234374998538
 31
0.0
 11
-1.035232543946282
 21
-0.5816345214838595
 31
0.0
 11
-1.087936401367276
 21
-0.5478210449218713
 31
0.0
  0
SPLINE
  5
A588
330
1F
100
AcDbEntity
  8
AM_0
100
AcDbSpline
210
0.0
220
0.0
230
1.0
 70
     8
 71
     3
 72
    11
 73
     7
 74
     5
 42
0.0000000001
 43
0.0000000001
 44
0.0000000001
 40
0.0
 40
0.0
 40
0.0
 40
0.0
 40
0.0489256266828052
 40
0.0979046686831455
 40
0.1469255376780787
 40
0.1959852022723892
 40
0.1959852022723892
 40
0.1959852022723892
 40
0.1959852022723892
 10
-0.8903503417972764
 20
-0.9205627441408619
 30
0.0
 10
-0.8896964230520785
 20
-0.9042471068333512
 30
0.0
 10
-0.8883878716356731
 20
-0.8715980193663204
 30
0.0
 10
-0.8936282447279127
 20
-0.8227651932571118
 30
0.0
 10
-0.9038488821739678
 20
-0.7746531758413053
 30
0.0
 10
-0.9156765428560436
 20
-0.7441226296227061
 30
0.0
 10
-0.9215927124032859
 20
-0.728851318358859
 30
0.0
 11
-0.8903503417972764
 21
-0.9205627441408619
 31
0.0
 11
-0.8895874023442795
 21
-0.8716430664058616
 31
0.0
 11
-0.894454956055288
 21
-0.8229064941408619
 31
0.0
 11
-0.9050979614262825
 21
-0.7750549316408622
 31
0.0
 11
-0.9215927124032859
 21
-0.728851318358859
 31
0.0
  0
SPLINE
  5
A589
330
1F
100
AcDbEntity
  8
AM_0
100
AcDbSpline
210
0.0
220
0.0
230
1.0
 70
     8
 71
     3
 72
    11
 73
     7
 74
     5
 42
0.0000000001
 43
0.0000000001
 44
0.0000000001
 40
0.0
 40
0.0
 40
0.0
 40
0.0
 40
0.0110549900437585
 40
0.022100142792186
 40
0.0331418800696452
 40
0.0441784921598428
 40
0.0441784921598428
 40
0.0441784921598428
 40
0.0441784921598428
 10
-1.187057495117276
 20
-0.5126342773438604
 30
0.0
 10
-1.190675599460999
 20
-0.5119345022983185
 30
0.0
 10
-1.197908588574222
 20
-0.5105355749028461
 30
0.0
 10
-1.208814945252192
 20
-0.5087652217029714
 30
0.0
 10
-1.219763760069157
 20
-0.507322926471775
 30
0.0
 10
-1.227089178587196
 20
-0.5066116561306023
 30
0.0
 10
-1.230751037598285
 20
-0.5062561035158634
 30
0.0
 11
-1.187057495117276
 21
-0.5126342773438604
 31
0.0
 11
-1.197921752930289
 21
-0.5105895996088601
 31
0.0
 11
-1.208824157715289
 21
-0.5088195800778659
 31
0.0
 11
-1.219772338867276
 21
-0.5073852539058631
 31
0.0
 11
-1.230751037598285
 21
-0.5062561035158634
 31
0.0
  0
SPLINE
  5
A58A
330
1F
100
AcDbEntity
  8
AM_0
100
AcDbSpline
210
0.0
220
0.0
230
1.0
 70
     8
 71
     3
 72
    11
 73
     7
 74
     5
 42
0.0000000001
 43
0.0000000001
 44
0.0000000001
 40
0.0
 40
0.0
 40
0.0
 40
0.0
 40
0.0264668347784528
 40
0.0527957061805953
 40
0.0790969193111913
 40
0.1055147265841689
 40
0.1055147265841689
 40
0.1055147265841689
 40
0.1055147265841689
 10
-1.087936401367276
 20
-0.5478210449218713
 30
0.0
 10
-1.095837512548416
 20
-0.5438874508299037
 30
0.0
 10
-1.111598548876012
 20
-0.5360407672482948
 30
0.0
 10
-1.136173511404025
 20
-0.526411508336855
 30
0.0
 10
-1.161298225331507
 20
-0.5183739469666727
 30
0.0
 10
-1.178458421276783
 20
-0.5145503193480426
 30
0.0
 10
-1.187057495117276
 20
-0.5126342773438604
 30
0.0
 11
-1.087936401367276
 21
-0.5478210449218713
 31
0.0
 11
-1.111801147461282
 21
-0.5363769531248543
 31
0.0
 11
-1.136276245117276
 21
-0.5266723632808628
 31
0.0
 11
-1.161361694336282
 21
-0.5187683105468716
 31
0.0
 11
-1.187057495117276
 21
-0.5126342773438604
 31
0.0
  0
SPLINE
  5
A58B
330
1F
100
AcDbEntity
  8
AM_0
100
AcDbSpline
210
0.0
220
0.0
230
1.0
 70
     8
 71
     3
 72
    11
 73
     7
 74
     5
 42
0.0000000001
 43
0.0000000001
 44
0.0000000001
 40
0.0
 40
0.0
 40
0.0
 40
0.0
 40
0.0264668347784513
 40
0.0527844729604414
 40
0.0790875992605836
 40
0.1055054065345417
 40
0.1055054065345417
 40
0.1055054065345417
 40
0.1055054065345417
 10
-6.416511535645262
 20
-9.106689453124861
 30
0.0
 10
-6.408611911758443
 20
-9.110626983353705
 30
0.0
 10
-6.392857195074644
 20
-9.118479847499914
 30
0.0
 10
-6.368263186608758
 20
-9.128049813696604
 30
0.0
 10
-6.343162110578258
 20
-9.136148948242416
 30
0.0
 10
-6.325998529386537
 20
-9.139964363394497
 30
0.0
 10
-6.317398071289253
 20
-9.141876220702869
 30
0.0
 11
-6.416511535645262
 21
-9.106689453124861
 31
0.0
 11
-6.392646789551257
 21
-9.118133544921876
 31
0.0
 11
-6.368171691895262
 21
-9.127807617187869
 31
0.0
 11
-6.343093872071256
 21
-9.135742187499861
 31
0.0
 11
-6.317398071289253
 21
-9.141876220702869
 31
0.0
  0
SPLINE
  5
A58C
330
1F
100
AcDbEntity
  8
AM_0
100
AcDbSpline
210
0.0
220
0.0
230
1.0
 70
     8
 71
     3
 72
    11
 73
     7
 74
     5
 42
0.0000000001
 43
0.0000000001
 44
0.0000000001
 40
0.0
 40
0.0
 40
0.0
 40
0.0
 40
0.0171799599839837
 40
0.0343130747182454
 40
0.0514460518584332
 40
0.0686121302141596
 40
0.0686121302141596
 40
0.0686121302141596
 40
0.0686121302141596
 10
-6.317398071289253
 20
-9.141876220702869
 30
0.0
 10
-6.311771074070033
 20
-9.142945077423121
 30
0.0
 10
-6.300532422978733
 20
-9.145079876371392
 30
0.0
 10
-6.283528174800979
 20
-9.147354690004032
 30
0.0
 10
-6.266455273530157
 20
-9.148984191130148
 30
0.0
 10
-6.255031002603698
 20
-9.149474064975379
 30
0.0
 10
-6.24931335449225
 20
-9.149719238280882
 30
0.0
 11
-6.317398071289253
 21
-9.141876220702869
 31
0.0
 11
-6.30049133300826
 21
-9.14492797851588
 31
0.0
 11
-6.283515930176257
 21
-9.147247314452869
 31
0.0
 11
-6.266456604004253
 21
-9.14883422851588
 31
0.0
 11
-6.24931335449225
 21
-9.149719238280882
 31
0.0
  0
SPLINE
  5
A58D
330
1F
100
AcDbEntity
  8
AM_0
100
AcDbSpline
210
0.0
220
0.0
230
1.0
 70
     8
 71
     3
 72
    11
 73
     7
 74
     5
 42
0.0000000001
 43
0.0000000001
 44
0.0000000001
 40
0.0
 40
0.0
 40
0.0
 40
0.0
 40
0.0442985280479632
 40
0.0885823475182305
 40
0.1328595779550524
 40
0.177168527316562
 40
0.177168527316562
 40
0.177168527316562
 40
0.177168527316562
 10
-1.892356872559254
 20
-9.00518798828085
 30
0.0
 10
-1.906316684059264
 20
-9.010022216270312
 30
0.0
 10
-1.934231671939764
 20
-9.01968906712552
 30
0.0
 10
-1.977279302259823
 20
-9.030303298718472
 30
0.0
 10
-2.020914795569817
 20
-9.038172381687147
 30
0.0
 10
-2.050343737150063
 20
-9.040759300244635
 30
0.0
 10
-2.065063476563259
 20
-9.042053222655866
 30
0.0
 11
-1.892356872559254
 21
-9.00518798828085
 31
0.0
 11
-1.934432983399254
 21
-9.019042968749843
 31
0.0
 11
-1.977378845215263
 21
-9.029846191405864
 31
0.0
 11
-2.020988464356257
 21
-9.037506103515863
 31
0.0
 11
-2.065063476563259
 21
-9.042053222655866
 31
0.0
  0
SPLINE
  5
A58E
330
1F
100
AcDbEntity
  8
AM_0
100
AcDbSpline
210
0.0
220
0.0
230
1.0
 70
     8
 71
     3
 72
    11
 73
     7
 74
     5
 42
0.0000000001
 43
0.0000000001
 44
0.0000000001
 40
0.0
 40
0.0
 40
0.0
 40
0.0
 40
0.0521730732686372
 40
0.1043684550629806
 40
0.1565503463577568
 40
0.2087593428216428
 40
0.2087593428216428
 40
0.2087593428216428
 40
0.2087593428216428
 10
-2.042572021485261
 20
-9.246948242187851
 30
0.0
 10
-2.025196854801896
 20
-9.2460590303622
 30
0.0
 10
-1.990439092040493
 20
-9.244280226495515
 30
0.0
 10
-1.938678451335296
 20
-9.237291383921169
 30
0.0
 10
-1.887369252334626
 20
-9.227455050694652
 30
0.0
 10
-1.853852344057493
 20
-9.218051423232335
 30
0.0
 10
-1.837089538574253
 20
-9.213348388671859
 30
0.0
 11
-2.042572021485261
 21
-9.246948242187851
 31
0.0
 11
-1.990509033203258
 21
-9.243560791015863
 31
0.0
 11
-1.938751220703258
 21
-9.236816406249843
 31
0.0
 11
-1.887550354004253
 21
-9.226745605468847
 31
0.0
 11
-1.837089538574253
 21
-9.213348388671859
 31
0.0
  0
SPLINE
  5
A58F
330
1F
100
AcDbEntity
  8
AM_0
100
AcDbSpline
210
0.0
220
0.0
230
1.0
 70
     8
 71
     3
 72
    11
 73
     7
 74
     5
 42
0.0000000001
 43
0.0000000001
 44
0.0000000001
 40
0.0
 40
0.0
 40
0.0
 40
0.0
 40
0.062519809817308
 40
0.1251329455345079
 40
0.1877472893060854
 40
0.2503820442475171
 40
0.2503820442475171
 40
0.2503820442475171
 40
0.2503820442475171
 10
-6.582855224610263
 20
-8.925659179687857
 30
0.0
 10
-6.573708962385809
 20
-8.944444222074357
 30
0.0
 10
-6.555402784933873
 20
-8.982042348055266
 30
0.0
 10
-6.516493351398553
 20
-9.031548896746047
 30
0.0
 10
-6.470562289527348
 20
-9.074715813626323
 30
0.0
 10
-6.434530410912909
 20
-9.096030415450128
 30
0.0
 10
-6.416511535645262
 20
-9.106689453124861
 30
0.0
 11
-6.582855224610263
 21
-8.925659179687857
 31
0.0
 11
-6.553512573242251
 21
-8.980865478515868
 31
0.0
 11
-6.515327453613259
 21
-9.030487060546876
 31
0.0
 11
-6.469215393067251
 21
-9.072845458983865
 31
0.0
 11
-6.416511535645262
 21
-9.106689453124861
 31
0.0
  0
SPLINE
  5
A590
330
1F
100
AcDbEntity
  8
AM_0
100
AcDbSpline
210
0.0
220
0.0
230
1.0
 70
     8
 71
     3
 72
    11
 73
     7
 74
     5
 42
0.0000000001
 43
0.0000000001
 44
0.0000000001
 40
0.0
 40
0.0
 40
0.0
 40
0.0
 40
0.0470299599478329
 40
0.0940228413381673
 40
0.1410476170126925
 40
0.1880613656153928
 40
0.1880613656153928
 40
0.1880613656153928
 40
0.1880613656153928
 10
-1.559135437012252
 20
-8.710815429687849
 30
0.0
 10
-1.566462997489205
 20
-8.724685005267897
 30
0.0
 10
-1.581112341373075
 20
-8.752413221614181
 30
0.0
 10
-1.607282577857159
 20
-8.791551213328288
 30
0.0
 10
-1.636062461019202
 20
-8.828804674428228
 30
0.0
 10
-1.657685117654919
 20
-8.851525460554322
 30
0.0
 10
-1.66849517822326
 20
-8.862884521483847
 30
0.0
 11
-1.559135437012252
 21
-8.710815429687849
 31
0.0
 11
-1.58181762695326
 21
-8.752014160155848
 31
0.0
 11
-1.607711791992251
 21
-8.791229248046859
 31
0.0
 11
-1.63667297363326
 21
-8.82827758789085
 31
0.0
 11
-1.66849517822326
 21
-8.862884521483847
 31
0.0
  0
SPLINE
  5
A591
330
1F
100
AcDbEntity
  8
AM_0
100
AcDbSpline
210
0.0
220
0.0
230
1.0
 70
     8
 71
     3
 72
    11
 73
     7
 74
     5
 42
0.0000000001
 43
0.0000000001
 44
0.0000000001
 40
0.0
 40
0.0
 40
0.0
 40
0.0
 40
0.0925353864136585
 40
0.1850840545000343
 40
0.2776458665228372
 40
0.3701623646563421
 40
0.3701623646563421
 40
0.3701623646563421
 40
0.3701623646563421
 10
-1.617759704590262
 20
-9.107482910155864
 30
0.0
 10
-1.593048093755219
 20
-9.088953096709465
 30
0.0
 10
-1.543621325209282
 20
-9.051890810218784
 30
0.0
 10
-1.478816308820626
 20
-8.985406335829718
 30
0.0
 10
-1.42130270587501
 20
-8.912536363582956
 30
0.0
 10
-1.390899690235851
 20
-8.858760173812379
 30
0.0
 10
-1.375701904297252
 20
-8.831878662108845
 30
0.0
 11
-1.617759704590262
 21
-9.107482910155864
 31
0.0
 11
-1.545181274414253
 21
-9.050079345702849
 31
0.0
 11
-1.480033874512251
 21
-8.984344482421857
 31
0.0
 11
-1.423278808594255
 21
-8.911224365233845
 31
0.0
 11
-1.375701904297252
 21
-8.831878662108845
 31
0.0
  0
SPLINE
  5
A592
330
1F
100
AcDbEntity
  8
AM_0
100
AcDbSpline
210
0.0
220
0.0
230
1.0
 70
     8
 71
     3
 72
    11
 73
     7
 74
     5
 42
0.0000000001
 43
0.0000000001
 44
0.0000000001
 40
0.0
 40
0.0
 40
0.0
 40
0.0
 40
0.0642500268463745
 40
0.1285026206668442
 40
0.1927425865439465
 40
0.2569933467563683
 40
0.2569933467563683
 40
0.2569933467563683
 40
0.2569933467563683
 10
-1.559135437012252
 20
-8.710815429687849
 30
0.0
 10
-1.550091338838146
 20
-8.691378241044674
 30
0.0
 10
-1.532002781152097
 20
-8.652503087186511
 30
0.0
 10
-1.512803708505443
 20
-8.591035899895922
 30
0.0
 10
-1.499094815645572
 20
-8.52811626350188
 30
0.0
 10
-1.495588669543588
 20
-8.485386467985659
 30
0.0
 10
-1.493835449219257
 20
-8.464019775390848
 30
0.0
 11
-1.559135437012252
 21
-8.710815429687849
 31
0.0
 11
-1.533325195313261
 21
-8.651977539062849
 31
0.0
 11
-1.513717651367252
 21
-8.590789794921857
 31
0.0
 11
-1.500503540039255
 21
-8.527923583983845
 31
0.0
 11
-1.493835449219257
 21
-8.464019775390848
 31
0.0
  0
SPLINE
  5
A593
330
1F
100
AcDbEntity
  8
AM_0
100
AcDbSpline
210
0.0
220
0.0
230
1.0
 70
     8
 71
     3
 72
    11
 73
     7
 74
     5
 42
0.0000000001
 43
0.0000000001
 44
0.0000000001
 40
0.0
 40
0.0
 40
0.0
 40
0.0
 40
0.0856002484479761
 40
0.1711856608598669
 40
0.2567604955183365
 40
0.3423208897559887
 40
0.3423208897559887
 40
0.3423208897559887
 40
0.3423208897559887
 10
-1.375701904297252
 20
-8.831878662108845
 30
0.0
 10
-1.363325822609447
 20
-8.806132745984911
 30
0.0
 10
-1.338575804227546
 20
-8.754645375959379
 30
0.0
 10
-1.312687521248237
 20
-8.672829762986328
 30
0.0
 10
-1.294563587815257
 20
-8.588981014291643
 30
0.0
 10
-1.290234859992986
 20
-8.532039107601745
 30
0.0
 10
-1.288070678711259
 20
-8.503570556640863
 30
0.0
 11
-1.375701904297252
 21
-8.831878662108845
 31
0.0
 11
-1.34044647216826
 21
-8.753875732421857
 31
0.0
 11
-1.313980102539255
 21
-8.672485351562849
 31
0.0
 11
-1.296501159668261
 21
-8.588714599608859
 31
0.0
 11
-1.288070678711259
 21
-8.503570556640863
 31
0.0
  0
SPLINE
  5
A594
330
1F
100
AcDbEntity
  8
AM_0
100
AcDbSpline
210
0.0
220
0.0
230
1.0
 70
     8
 71
     3
 72
    11
 73
     7
 74
     5
 42
0.0000000001
 43
0.0000000001
 44
0.0000000001
 40
0.0
 40
0.0
 40
0.0
 40
0.0
 40
0.0611120888319695
 40
0.122233952596463
 40
0.1833687684653735
 40
0.2445010540242689
 40
0.2445010540242689
 40
0.2445010540242689
 40
0.2445010540242689
 10
-1.837089538574253
 20
-9.213348388671859
 30
0.0
 10
-1.817705278082669
 20
-9.207047574934096
 30
0.0
 10
-1.778933656569935
 20
-9.194444939637856
 30
0.0
 10
-1.722931829023543
 20
-9.169750645687228
 30
0.0
 10
-1.668726049801936
 20
-9.141308926008649
 30
0.0
 10
-1.63474825193802
 20
-9.11875809321077
 30
0.0
 10
-1.617759704590262
 20
-9.107482910155864
 30
0.0
 11
-1.837089538574253
 21
-9.213348388671859
 31
0.0
 11
-1.779296875000262
 21
-9.193481445312851
 31
0.0
 11
-1.723236083985262
 21
-9.169128417968847
 31
0.0
 11
-1.669265747071257
 21
-9.140411376952851
 31
0.0
 11
-1.617759704590262
 21
-9.107482910155864
 31
0.0
  0
SPLINE
  5
A595
330
1F
100
AcDbEntity
  8
AM_0
100
AcDbSpline
210
0.0
220
0.0
230
1.0
 70
     8
 71
     3
 72
    11
 73
     7
 74
     5
 42
0.0000000001
 43
0.0000000001
 44
0.0000000001
 40
0.0
 40
0.0
 40
0.0
 40
0.0
 40
0.0430526780716307
 40
0.0861084710626715
 40
0.1292527936007198
 40
0.1724035510483393
 40
0.1724035510483393
 40
0.1724035510483393
 40
0.1724035510483393
 10
-6.615158081055263
 20
-8.757537841796862
 30
0.0
 10
-6.615003122265969
 20
-8.771902067365621
 30
0.0
 10
-6.614693193475905
 20
-8.800631557774265
 30
0.0
 10
-6.608590045537924
 20
-8.843378210475801
 30
0.0
 10
-6.59864312398872
 20
-8.885449185203837
 30
0.0
 10
-6.588118119348291
 20
-8.91225518189732
 30
0.0
 10
-6.582855224610263
 20
-8.925659179687857
 30
0.0
 11
-6.615158081055263
 21
-8.757537841796862
 31
0.0
 11
-6.613754272461258
 21
-8.800567626952854
 31
0.0
 11
-6.607955932617251
 21
-8.843231201171862
 31
0.0
 11
-6.597671508789254
 21
-8.885131835937857
 31
0.0
 11
-6.582855224610263
 21
-8.925659179687857
 31
0.0
  0
SPLINE
  5
A596
330
1F
100
AcDbEntity
  8
AM_0
100
AcDbSpline
210
0.0
220
0.0
230
1.0
 70
     8
 71
     3
 72
    11
 73
     7
 74
     5
 42
0.0000000001
 43
0.0000000001
 44
0.0000000001
 40
0.0
 40
0.0
 40
0.0
 40
0.0
 40
0.0391503092167387
 40
0.0783055898888466
 40
0.1174526875421006
 40
0.1565916874655511
 40
0.1565916874655511
 40
0.1565916874655511
 40
0.1565916874655511
 10
-10.57789611816428
 20
6.499816894531131
 30
0.0
 10
-10.56587884014341
 20
6.494699235707979
 30
0.0
 10
-10.54184275810194
 20
6.484463268201865
 30
0.0
 10
-10.50411419613246
 20
6.473703866914568
 30
0.0
 10
-10.46561536742536
 20
6.466184768858332
 30
0.0
 10
-10.43956193087924
 20
6.464354820795024
 30
0.0
 10
-10.42653656005928
 20
6.463439941406131
 30
0.0
 11
-10.57789611816428
 21
6.499816894531131
 31
0.0
 11
-10.54156494140629
 21
6.485229492187125
 31
0.0
 11
-10.50398254394629
 21
6.474243164062125
 31
0.0
 11
-10.46551513671929
 21
6.466979980469127
 31
0.0
 11
-10.42653656005928
 21
6.463439941406131
 31
0.0
  0
SPLINE
  5
A597
330
1F
100
AcDbEntity
  8
AM_0
100
AcDbSpline
210
0.0
220
0.0
230
1.0
 70
     8
 71
     3
 72
    11
 73
     7
 74
     5
 42
0.0000000001
 43
0.0000000001
 44
0.0000000001
 40
0.0
 40
0.0
 40
0.0
 40
0.0
 40
1.341272168937031
 40
2.677325462586086
 40
4.018648004335963
 40
5.347255833775559
 40
5.347255833775559
 40
5.347255833775559
 40
5.347255833775559
 10
-5.433372497559291
 20
7.796905517578138
 30
0.0
 10
-4.970367447157912
 20
7.886727865551228
 30
0.0
 10
-4.046158893924471
 20
8.066023063727305
 30
0.0
 10
-3.427359300054894
 20
9.464745192518803
 30
0.0
 10
-3.935457377033015
 20
10.89835972690598
 30
0.0
 10
-4.833707039949535
 20
11.16225822148857
 30
0.0
 10
-5.280693054199297
 20
11.29357910156214
 30
0.0
 11
-5.433372497559291
 21
7.796905517578138
 31
0.0
 11
-4.172843933106295
 21
8.255249023437137
 31
0.0
 11
-3.615394592285298
 21
9.469451904297137
 31
0.0
 11
-4.078308105469295
 21
10.72836303710914
 31
0.0
 11
-5.280693054199297
 21
11.29357910156214
 31
0.0
  0
SPLINE
  5
A598
330
1F
100
AcDbEntity
  8
AM_0
100
AcDbSpline
210
0.0
220
0.0
230
1.0
 70
     8
 71
     3
 72
    11
 73
     7
 74
     5
 42
0.0000000001
 43
0.0000000001
 44
0.0000000001
 40
0.0
 40
0.0
 40
0.0
 40
0.0
 40
1.129125746613261
 40
2.268748797895285
 40
3.404488929725804
 40
4.54197672024182
 40
4.54197672024182
 40
4.54197672024182
 40
4.54197672024182
 10
-5.280693054199297
 20
11.29357910156214
 30
0.0
 10
-5.666553379025507
 20
11.23221513010112
 30
0.0
 10
-6.441861311495133
 20
11.10891669597733
 30
0.0
 10
-7.147260379930651
 20
10.0830936414682
 30
0.0
 10
-7.131522685584953
 20
8.833143677444555
 30
0.0
 10
-6.546762763108771
 20
8.305071566197314
 30
0.0
 10
-6.2541580200203
 20
8.040832519531148
 30
0.0
 11
-5.280693054199297
 21
11.29357910156214
 31
0.0
 11
-6.362670898438302
 21
10.97070312500013
 31
0.0
 11
-7.027168273926303
 21
10.04486083984412
 31
0.0
 11
-6.988182067871292
 21
8.909790039062141
 31
0.0
 11
-6.2541580200203
 21
8.040832519531148
 31
0.0
  0
SPLINE
  5
A599
330
1F
100
AcDbEntity
  8
AM_0
100
AcDbSpline
210
0.0
220
0.0
230
1.0
 70
     8
 71
     3
 72
    11
 73
     7
 74
     5
 42
0.0000000001
 43
0.0000000001
 44
0.0000000001
 40
0.0
 40
0.0
 40
0.0
 40
0.0
 40
0.1145026833748763
 40
0.2294960503048669
 40
0.3449479852478938
 40
0.4605443256452792
 40
0.4605443256452792
 40
0.4605443256452792
 40
0.4605443256452792
 10
-0.0000000000003033
 20
12.21566772460914
 30
0.0
 10
-0.0002071453415839
 20
12.25411635599716
 30
0.0
 10
-0.0006223237134942
 20
12.33117838444143
 30
0.0
 10
-0.0426855777096004
 20
12.44043788808802
 30
0.0
 10
-0.1130600526394796
 20
12.53504323623848
 30
0.0
 10
-0.1800880845960761
 20
12.57437633485535
 30
0.0
 10
-0.2136230468753048
 20
12.59405517578114
 30
0.0
 11
-0.0000000000003033
 21
12.21566772460914
 31
0.0
 11
-0.0074844360353037
 21
12.32992553710914
 31
0.0
 11
-0.0473022460942958
 21
12.43780517578114
 31
0.0
 11
-0.1180343627933017
 21
12.52905273437515
 31
0.0
 11
-0.2136230468753048
 21
12.59405517578114
 31
0.0
  0
SPLINE
  5
A59A
330
1F
100
AcDbEntity
  8
AM_0
100
AcDbSpline
210
0.0
220
0.0
230
1.0
 70
     8
 71
     3
 72
    11
 73
     7
 74
     5
 42
0.0000000001
 43
0.0000000001
 44
0.0000000001
 40
0.0
 40
0.0
 40
0.0
 40
0.0
 40
0.2161160715861751
 40
0.4322256762026255
 40
0.6482885378442385
 40
0.8643646357191398
 40
0.8643646357191398
 40
0.8643646357191398
 40
0.8643646357191398
 10
-6.2541580200203
 20
8.040832519531148
 30
0.0
 10
-6.190808177172738
 20
8.00632161161703
 30
0.0
 10
-6.064110387132633
 20
7.937300828479213
 30
0.0
 10
-5.859851288559003
 20
7.864638642928652
 30
0.0
 10
-5.649083269068333
 20
7.813892228960777
 30
0.0
 10
-5.505277556298329
 20
7.802567870325787
 30
0.0
 10
-5.433372497559291
 20
7.796905517578138
 30
0.0
 11
-6.2541580200203
 21
8.040832519531148
 31
0.0
 11
-6.061737060547288
 21
7.942443847656148
 31
0.0
 11
-5.858749389649291
 21
7.868286132812142
 31
0.0
 11
-5.648262023926294
 21
7.819519042969132
 31
0.0
 11
-5.433372497559291
 21
7.796905517578138
 31
0.0
  0
SPLINE
  5
A59B
330
1F
100
AcDbEntity
  8
AM_0
100
AcDbSpline
210
0.0
220
0.0
230
1.0
 70
     8
 71
     3
 72
    11
 73
     7
 74
     5
 42
0.0000000001
 43
0.0000000001
 44
0.0000000001
 40
0.0
 40
0.0
 40
0.0
 40
0.0
 40
2.200365979983972
 40
4.370332901948016
 40
6.536348570602724
 40
8.730821472927912
 40
8.730821472927912
 40
8.730821472927912
 40
8.730821472927912
 10
-0.3658294677742966
 20
12.63046264648413
 30
0.0
 10
-1.098897217247943
 20
12.65501795986645
 30
0.0
 10
-2.554905051410603
 20
12.70378934379466
 30
0.0
 10
-4.733618356131264
 20
12.72939833137785
 30
0.0
 10
-6.910392480616931
 20
12.75013356268097
 30
0.0
 10
-8.363281674528899
 20
12.79361042372188
 30
0.0
 10
-9.094467163086299
 20
12.81549072265613
 30
0.0
 11
-0.3658294677742966
 21
12.63046264648413
 31
0.0
 11
-2.565216064453301
 21
12.69610595703114
 31
0.0
 11
-4.7349395751963
 21
12.72860717773414
 31
0.0
 11
-6.900764465332294
 21
12.75735473632813
 31
0.0
 11
-9.094467163086299
 21
12.81549072265613
 31
0.0
  0
SPLINE
  5
A59C
330
1F
100
AcDbEntity
  8
AM_0
100
AcDbSpline
210
0.0
220
0.0
230
1.0
 70
     8
 71
     3
 72
    11
 73
     7
 74
     5
 42
0.0000000001
 43
0.0000000001
 44
0.0000000001
 40
0.0
 40
0.0
 40
0.0
 40
0.0
 40
0.2876807661067014
 40
0.5764620685641225
 40
0.8646007847790144
 40
1.150990251658987
 40
1.150990251658987
 40
1.150990251658987
 40
1.150990251658987
 10
-9.094467163086299
 20
12.81549072265613
 30
0.0
 10
-9.191219836869191
 20
12.80886112388333
 30
0.0
 10
-9.385095316355741
 20
12.79557656449467
 30
0.0
 10
-9.6429474814312
 20
12.65044072918513
 30
0.0
 10
-9.843980528149652
 20
12.43314445013871
 30
0.0
 10
-9.898671573391736
 20
12.24717940289285
 30
0.0
 10
-9.925933837891303
 20
12.15447998046913
 30
0.0
 11
-9.094467163086299
 21
12.81549072265613
 31
0.0
 11
-9.379257202149297
 21
12.77481079101613
 31
0.0
 11
-9.633689880371299
 21
12.63821411132814
 31
0.0
 11
-9.824493408203299
 21
12.42230224609413
 31
0.0
 11
-9.925933837891303
 21
12.15447998046913
 31
0.0
  0
SPLINE
  5
A59D
330
1F
100
AcDbEntity
  8
AM_0
100
AcDbSpline
210
0.0
220
0.0
230
1.0
 70
     8
 71
     3
 72
    11
 73
     7
 74
     5
 42
0.0000000001
 43
0.0000000001
 44
0.0000000001
 40
0.0
 40
0.0
 40
0.0
 40
0.0
 40
1.054468899276816
 40
2.109036291837969
 40
3.163670810394981
 40
4.218402510507221
 40
4.218402510507221
 40
4.218402510507221
 40
4.218402510507221
 10
-9.925933837891303
 20
12.15447998046913
 30
0.0
 10
-9.988286124488983
 20
11.80856502711587
 30
0.0
 10
-10.11299652173614
 20
11.1167028100208
 30
0.0
 10
-10.29988968202334
 20
10.07883900003494
 30
0.0
 10
-10.48667839113719
 20
9.040867378367037
 30
0.0
 10
-10.61108184522218
 20
8.34883816517631
 30
0.0
 10
-10.67328643798829
 20
8.002807617187126
 30
0.0
 11
-9.925933837891303
 21
12.15447998046913
 31
0.0
 11
-10.1129608154303
 21
11.11672973632813
 31
0.0
 11
-10.2998657226563
 21
10.07885742187511
 31
0.0
 11
-10.48664093017628
 21
9.040893554687126
 31
0.0
 11
-10.67328643798829
 21
8.002807617187126
 31
0.0
  0
SPLINE
  5
A59E
330
1F
100
AcDbEntity
  8
AM_0
100
AcDbSpline
210
0.0
220
0.0
230
1.0
 70
     8
 71
     3
 72
    11
 73
     7
 74
     5
 42
0.0000000001
 43
0.0000000001
 44
0.0000000001
 40
0.0
 40
0.0
 40
0.0
 40
0.0
 40
0.114231520514723
 40
0.2282671740462038
 40
0.3424828296252429
 40
0.4571440606347023
 40
0.4571440606347023
 40
0.4571440606347023
 40
0.4571440606347023
 10
-10.7832031250003
 20
6.877807617187124
 30
0.0
 10
-10.78396794707594
 20
6.839451101092924
 30
0.0
 10
-10.78549627982567
 20
6.762803836873478
 30
0.0
 10
-10.74602329877188
 20
6.653399958078508
 30
0.0
 10
-10.67741092096026
 20
6.558646272990138
 30
0.0
 10
-10.61111074328953
 20
6.519452121622657
 30
0.0
 10
-10.57789611816428
 20
6.499816894531131
 30
0.0
 11
-10.7832031250003
 21
6.877807617187124
 31
0.0
 11
-10.77852630615329
 21
6.763671875000121
 31
0.0
 11
-10.74121093750029
 21
6.65591430664113
 31
0.0
 11
-10.67239379882829
 21
6.56475830078113
 31
0.0
 11
-10.57789611816428
 21
6.499816894531131
 31
0.0
  0
SPLINE
  5
A59F
330
1F
100
AcDbEntity
  8
AM_0
100
AcDbSpline
210
0.0
220
0.0
230
1.0
 70
     8
 71
     3
 72
    11
 73
     7
 74
     5
 42
0.0000000001
 43
0.0000000001
 44
0.0000000001
 40
0.0
 40
0.0
 40
0.0
 40
0.0
 40
2.224823924000844
 40
4.443874900445237
 40
6.664033322445009
 40
8.888903022755901
 40
8.888903022755901
 40
8.888903022755901
 40
8.888903022755901
 10
-1.539070129395301
 20
6.271484375000157
 30
0.0
 10
-2.280364784212755
 20
6.293730933936275
 30
0.0
 10
-3.761030590994258
 20
6.338166326692982
 30
0.0
 10
-5.982307504189765
 20
6.361178109627163
 30
0.0
 10
-8.203570999884082
 20
6.388964454651229
 30
0.0
 10
-9.684460267404229
 20
6.438576906049447
 30
0.0
 10
-10.42568969726629
 20
6.463409423828133
 30
0.0
 11
-1.539070129395301
 21
6.271484375000157
 31
0.0
 11
-3.763099670410301
 21
6.330932617187138
 31
0.0
 11
-5.981933593750302
 21
6.361968994141149
 31
0.0
 11
-8.201820373535301
 21
6.396697998047135
 31
0.0
 11
-10.42568969726629
 21
6.463409423828133
 31
0.0
  0
SPLINE
  5
A5A0
330
1F
100
AcDbEntity
  8
AM_0
100
AcDbSpline
210
0.0
220
0.0
230
1.0
 70
     8
 71
     3
 72
    11
 73
     7
 74
     5
 42
0.0000000001
 43
0.0000000001
 44
0.0000000001
 40
0.0
 40
0.0
 40
0.0
 40
0.0
 40
0.288182501954692
 40
0.5746989674102347
 40
0.8595758863183155
 40
1.143901212811069
 40
1.143901212811069
 40
1.143901212811069
 40
1.143901212811069
 10
-1.539070129395301
 20
6.271484375000157
 30
0.0
 10
-1.44211851709621
 20
6.277984564789776
 30
0.0
 10
-1.248775787752412
 20
6.290947365566116
 30
0.0
 10
-0.992627911035502
 20
6.436134472953854
 30
0.0
 10
-0.7962183592847111
 20
6.654771609811946
 30
0.0
 10
-0.7465810852414122
 20
6.840387473546989
 30
0.0
 10
-0.7217864990242889
 20
6.933105468750146
 30
0.0
 11
-1.539070129395301
 21
6.271484375000157
 31
0.0
 11
-1.253768920899292
 21
6.312133789062148
 31
0.0
 11
-1.001976013184292
 21
6.448852539062149
 31
0.0
 11
-0.8163833618172919
 21
6.664978027344137
 31
0.0
 11
-0.7217864990242889
 21
6.933105468750146
 31
0.0
  0
SPLINE
  5
A5A1
330
1F
100
AcDbEntity
  8
AM_0
100
AcDbSpline
210
0.0
220
0.0
230
1.0
 70
     8
 71
     3
 72
    11
 73
     7
 74
     5
 42
0.0000000001
 43
0.0000000001
 44
0.0000000001
 40
0.0
 40
0.0
 40
0.0
 40
0.0
 40
1.051179786023471
 40
2.102503407332438
 40
3.153881544014303
 40
4.205343199191041
 40
4.205343199191041
 40
4.205343199191041
 40
4.205343199191041
 10
-0.7217864990242889
 20
6.933105468750146
 30
0.0
 10
-0.6684008837853025
 20
7.279407958316197
 30
0.0
 10
-0.5616223484339761
 20
7.972060322793907
 30
0.0
 10
-0.4015432681987427
 20
9.011095184881085
 30
0.0
 10
-0.2414754302353602
 20
10.05022684330543
 30
0.0
 10
-0.1348145112253412
 20
10.74301077860529
 30
0.0
 10
-0.0814819335942977
 20
11.08941650390613
 30
0.0
 11
-0.7217864990242889
 21
6.933105468750146
 31
0.0
 11
-0.5616455078132984
 21
7.972015380859138
 31
0.0
 11
-0.4015502929692895
 21
9.011077880859138
 31
0.0
 11
-0.2414932250983063
 21
10.05020141601613
 31
0.0
 11
-0.0814819335942977
 21
11.08941650390613
 31
0.0
  0
SPLINE
  5
A5A2
330
1F
100
AcDbEntity
  8
AM_0
100
AcDbSpline
210
0.0
220
0.0
230
1.0
 70
     8
 71
     3
 72
    11
 73
     7
 74
     5
 42
0.0000000001
 43
0.0000000001
 44
0.0000000001
 40
0.0
 40
0.0
 40
0.0
 40
0.0
 40
0.0391503092167463
 40
0.0783043626940217
 40
0.1174439634442023
 40
0.1565933330075149
 40
0.1565933330075149
 40
0.1565933330075149
 40
0.1565933330075149
 10
-0.2136230468753048
 20
12.59405517578114
 30
0.0
 10
-0.2256393372012147
 20
12.59917610785884
 30
0.0
 10
-0.2496730670680084
 20
12.60941846177038
 30
0.0
 10
-0.2874136157813718
 20
12.62012803713964
 30
0.0
 10
-0.325909541875162
 20
12.62765283536092
 30
0.0
 10
-0.3519622532655307
 20
12.62950562066155
 30
0.0
 10
-0.3649902343753049
 20
12.63043212890613
 30
0.0
 11
-0.2136230468753048
 21
12.59405517578114
 31
0.0
 11
-0.2499542236333021
 21
12.60864257812514
 31
0.0
 11
-0.2875442504883018
 21
12.61959838867214
 31
0.0
 11
-0.3260040283212995
 21
12.62686157226613
 31
0.0
 11
-0.3649902343753049
 21
12.63043212890613
 31
0.0
  0
SPLINE
  5
A5B3
330
1F
100
AcDbEntity
  8
AM_0
100
AcDbSpline
210
0.0
220
0.0
230
1.0
 70
     8
 71
     3
 72
    11
 73
     7
 74
     5
 42
0.0000000001
 43
0.0000000001
 44
0.0000000001
 40
0.0
 40
0.0
 40
0.0
 40
0.0
 40
0.0380093495265558
 40
0.076446685153835
 40
0.1151999969743624
 40
0.1542160522465021
 40
0.1542160522465021
 40
0.1542160522465021
 40
0.1542160522465021
 10
-17.61362457275431
 20
12.29714965820311
 30
0.0
 10
-17.62567179952563
 20
12.30110149681266
 30
0.0
 10
-17.64990190510324
 20
12.30904967182028
 30
0.0
 10
-17.68757017070511
 20
12.31684481965118
 30
0.0
 10
-17.72604679028447
 20
12.32180459579808
 30
0.0
 10
-17.75198089751008
 20
12.32235546885007
 30
0.0
 10
-17.76499176025431
 20
12.3226318359371
 30
0.0
 11
-17.61362457275431
 21
12.29714965820311
 31
0.0
 11
-17.64995574951231
 21
12.30831909179711
 31
0.0
 11
-17.68754577636729
 21
12.31634521484411
 31
0.0
 11
-17.72600555419931
 21
12.32110595703112
 31
0.0
 11
-17.76499176025431
 21
12.3226318359371
 31
0.0
  0
SPLINE
  5
A5B4
330
1F
100
AcDbEntity
  8
AM_0
100
AcDbSpline
210
0.0
220
0.0
230
1.0
 70
     8
 71
     3
 72
    11
 73
     7
 74
     5
 42
0.0000000001
 43
0.0000000001
 44
0.0000000001
 40
0.0
 40
0.0
 40
0.0
 40
0.0
 40
1.203476340197308
 40
2.497472507011548
 40
3.818383233349202
 40
4.953000629279973
 40
4.953000629279973
 40
4.953000629279973
 40
4.953000629279973
 10
-21.03137969970731
 20
9.503753662109101
 30
0.0
 10
-21.21309237907809
 20
9.892580067067315
 30
0.0
 10
-21.59018531040195
 20
10.69947856930465
 30
0.0
 10
-23.02522468959131
 20
10.81068467343725
 30
0.0
 10
-24.27101448356236
 20
10.20316333258328
 30
0.0
 10
-24.42037364192081
 20
9.355070928081735
 30
0.0
 10
-24.48938751220731
 20
8.963195800781106
 30
0.0
 11
-21.03137969970731
 21
9.503753662109101
 31
0.0
 11
-21.70690536499028
 21
10.4997558593751
 31
0.0
 11
-22.98720932006927
 21
10.68750000000012
 31
0.0
 11
-24.14004516601629
 21
10.04269409179711
 31
0.0
 11
-24.48938751220731
 21
8.963195800781106
 31
0.0
  0
SPLINE
  5
A5B5
330
1F
100
AcDbEntity
  8
AM_0
100
AcDbSpline
210
0.0
220
0.0
230
1.0
 70
     8
 71
     3
 72
    11
 73
     7
 74
     5
 42
0.0000000001
 43
0.0000000001
 44
0.0000000001
 40
0.0
 40
0.0
 40
0.0
 40
0.0
 40
0.3250110696268012
 40
0.6622824323222344
 40
1.016954042605431
 40
1.389084029118743
 40
1.389084029118743
 40
1.389084029118743
 40
1.389084029118743
 10
-24.48938751220731
 20
8.963195800781106
 30
0.0
 10
-24.46387253344219
 20
8.857189288226006
 30
0.0
 10
-24.41188008218009
 20
8.641177411899443
 30
0.0
 10
-24.22475260797023
 20
8.352266048819201
 30
0.0
 10
-23.9728594708147
 20
8.097960982402724
 30
0.0
 10
-23.76207802602413
 20
7.976456940350108
 30
0.0
 10
-23.6541557312013
 20
7.914245605469107
 30
0.0
 11
-24.48938751220731
 21
8.963195800781106
 31
0.0
 11
-24.3960151672373
 21
8.65188598632811
 31
0.0
 11
-24.2192878723153
 21
8.364624023437116
 31
0.0
 11
-23.9677696228033
 21
8.114562988281107
 31
0.0
 11
-23.6541557312013
 21
7.914245605469107
 31
0.0
  0
SPLINE
  5
A5B6
330
1F
100
AcDbEntity
  8
AM_0
100
AcDbSpline
210
0.0
220
0.0
230
1.0
 70
     8
 71
     3
 72
    11
 73
     7
 74
     5
 42
0.0000000001
 43
0.0000000001
 44
0.0000000001
 40
0.0
 40
0.0
 40
0.0
 40
0.0
 40
0.0380129958151811
 40
0.0764365082225185
 40
0.1151936058488501
 40
0.1542070548889476
 40
0.1542070548889476
 40
0.1542070548889476
 40
0.1542070548889476
 10
-27.97789764404329
 20
6.622375488281091
 30
0.0
 10
-27.96584978377834
 20
6.618420780193749
 30
0.0
 10
-27.94162395388891
 20
6.610468655643882
 30
0.0
 10
-27.90394807166144
 20
6.602717489917622
 30
0.0
 10
-27.86547773334816
 20
6.597757054080721
 30
0.0
 10
-27.83954392008129
 20
6.597181857056652
 30
0.0
 10
-27.82653427124029
 20
6.5968933105471
 30
0.0
 11
-27.97789764404329
 21
6.622375488281091
 31
0.0
 11
-27.94156265258829
 21
6.611206054687101
 31
0.0
 11
-27.90398025512729
 21
6.603210449219104
 31
0.0
 11
-27.8655166625983
 21
6.598449707031091
 31
0.0
 11
-27.82653427124029
 21
6.5968933105471
 31
0.0
  0
SPLINE
  5
A5B7
330
1F
100
AcDbEntity
  8
AM_0
100
AcDbSpline
210
0.0
220
0.0
230
1.0
 70
     8
 71
     3
 72
    11
 73
     7
 74
     5
 42
0.0000000001
 43
0.0000000001
 44
0.0000000001
 40
0.0
 40
0.0
 40
0.0
 40
0.0
 40
0.0359646326190816
 40
0.0729984154644234
 40
0.1110871313570877
 40
0.1501487618648343
 40
0.1501487618648343
 40
0.1501487618648343
 40
0.1501487618648343
 10
-28.10564041137729
 20
6.699188232422099
 30
0.0
 10
-28.0967267214754
 20
6.69115064930223
 30
0.0
 10
-28.07863435707757
 20
6.67483654321561
 30
0.0
 10
-28.04772998349357
 20
6.654243559490486
 30
0.0
 10
-28.01412542745966
 20
6.636195017589317
 30
0.0
 10
-27.9900746702636
 20
6.627020563272418
 30
0.0
 10
-27.97789764404329
 20
6.622375488281091
 30
0.0
 11
-28.10564041137729
 21
6.699188232422099
 31
0.0
 11
-28.07836151123129
 21
6.675750732422099
 31
0.0
 11
-28.04772949218829
 21
6.654937744141091
 31
0.0
 11
-28.0140838623053
 21
6.6370849609371
 31
0.0
 11
-27.97789764404329
 21
6.622375488281091
 31
0.0
  0
SPLINE
  5
A5B8
330
1F
100
AcDbEntity
  8
AM_0
100
AcDbSpline
210
0.0
220
0.0
230
1.0
 70
     8
 71
     3
 72
    11
 73
     7
 74
     5
 42
0.0000000001
 43
0.0000000001
 44
0.0000000001
 40
0.0
 40
0.0
 40
0.0
 40
0.0
 40
0.9636168580666371
 40
1.924164124059331
 40
2.845824293366662
 40
3.729210795387257
 40
3.729210795387257
 40
3.729210795387257
 40
3.729210795387257
 10
-23.6541557312013
 20
7.914245605469107
 30
0.0
 10
-23.34393560097829
 20
7.808338803993541
 30
0.0
 10
-22.72448354372208
 20
7.596862566122382
 30
0.0
 10
-21.76157316614402
 20
7.870972495912967
 30
0.0
 10
-21.06072851218982
 20
8.57953923761465
 30
0.0
 10
-21.04102336318178
 20
9.200068022583149
 30
0.0
 10
-21.03137969970731
 20
9.503753662109101
 30
0.0
 11
-23.6541557312013
 21
7.914245605469107
 31
0.0
 11
-22.71556854248129
 21
7.696044921875104
 31
0.0
 11
-21.7900543212893
 21
7.95309448242211
 31
0.0
 11
-21.16514968872128
 21
8.630554199219103
 31
0.0
 11
-21.03137969970731
 21
9.503753662109101
 31
0.0
  0
SPLINE
  5
A5B9
330
1F
100
AcDbEntity
  8
AM_0
100
AcDbSpline
210
0.0
220
0.0
230
1.0
 70
     8
 71
     3
 72
    11
 73
     7
 74
     5
 42
0.0000000001
 43
0.0000000001
 44
0.0000000001
 40
0.0
 40
0.0
 40
0.0
 40
0.0
 40
2.202039726781135
 40
4.382645696137029
 40
6.560643500263659
 40
8.758375848741561
 40
8.758375848741561
 40
8.758375848741561
 40
8.758375848741561
 10
-17.7658309936533
 20
12.3226318359371
 30
0.0
 10
-18.49962723414661
 20
12.29573417022685
 30
0.0
 10
-19.96007724153158
 20
12.24220064972426
 30
0.0
 10
-22.13443989098917
 20
11.99976882603843
 30
0.0
 10
-24.3051693015217
 20
11.74112445778729
 30
0.0
 10
-25.76250881613117
 20
11.66979682712068
 30
0.0
 10
-26.49446487426832
 20
11.6339721679691
 30
0.0
 11
-17.7658309936533
 21
12.3226318359371
 31
0.0
 11
-19.96521759033231
 21
12.21456909179711
 31
0.0
 11
-22.13493728637731
 21
11.9969482421871
 31
0.0
 11
-24.30076217651429
 21
11.7669982910161
 31
0.0
 11
-26.49446487426832
 21
11.6339721679691
 31
0.0
  0
SPLINE
  5
A5BA
330
1F
100
AcDbEntity
  8
AM_0
100
AcDbSpline
210
0.0
220
0.0
230
1.0
 70
     8
 71
     3
 72
    11
 73
     7
 74
     5
 42
0.0000000001
 43
0.0000000001
 44
0.0000000001
 40
0.0
 40
0.0
 40
0.0
 40
0.0
 40
0.2888112490784129
 40
0.5699608921604909
 40
0.8305124359452742
 40
1.066943541275948
 40
1.066943541275948
 40
1.066943541275948
 40
1.066943541275948
 10
-26.49446487426832
 20
11.6339721679691
 30
0.0
 10
-26.59084461729853
 20
11.62332886091135
 30
0.0
 10
-26.78104733446759
 20
11.60232459322602
 30
0.0
 10
-27.03353935388431
 20
11.48049780225716
 30
0.0
 10
-27.23750340113266
 20
11.30696456423394
 30
0.0
 10
-27.29742749008203
 20
11.15001432642059
 30
0.0
 10
-27.32593536377028
 20
11.07534790039109
 30
0.0
 11
-26.49446487426832
 21
11.6339721679691
 31
0.0
 11
-26.77925872802831
 21
11.58596801757809
 31
0.0
 11
-27.03368759155329
 21
11.46633911132809
 31
0.0
 11
-27.2244911193853
 21
11.2889099121091
 31
0.0
 11
-27.32593536377028
 21
11.07534790039109
 31
0.0
  0
SPLINE
  5
A5BB
330
1F
100
AcDbEntity
  8
AM_0
100
AcDbSpline
210
0.0
220
0.0
230
1.0
 70
     8
 71
     3
 72
    11
 73
     7
 74
     5
 42
0.0000000001
 43
0.0000000001
 44
0.0000000001
 40
0.0
 40
0.0
 40
0.0
 40
0.0
 40
0.8393695963538931
 40
1.67906817245531
 40
2.519095777982161
 40
3.35942185996784
 40
3.35942185996784
 40
3.35942185996784
 40
3.35942185996784
 10
-27.32593536377028
 20
11.07534790039109
 30
0.0
 10
-27.38829189343859
 20
10.802595204925
 30
0.0
 10
-27.51302939258751
 20
10.25698291220213
 30
0.0
 10
-27.69991648559066
 20
9.438345654734513
 30
0.0
 10
-27.88670258959343
 20
8.61935833072995
 30
0.0
 10
-28.01108293153557
 20
8.073225021800858
 30
0.0
 10
-28.07328414917029
 20
7.800109863281091
 30
0.0
 11
-27.32593536377028
 21
11.07534790039109
 31
0.0
 11
-27.51296234130928
 21
10.2570800781251
 31
0.0
 11
-27.6998634338383
 21
9.438446044922104
 31
0.0
 11
-27.88663864135829
 21
8.619445800781091
 31
0.0
 11
-28.07328414917029
 21
7.800109863281091
 31
0.0
  0
SPLINE
  5
A5BC
330
1F
100
AcDbEntity
  8
AM_0
100
AcDbSpline
210
0.0
220
0.0
230
1.0
 70
     8
 71
     3
 72
    11
 73
     7
 74
     5
 42
0.0000000001
 43
0.0000000001
 44
0.0000000001
 40
0.0
 40
0.0
 40
0.0
 40
0.0
 40
0.0577733724639829
 40
0.1156785494721173
 40
0.174993048481318
 40
0.2368867672995595
 40
0.2368867672995595
 40
0.2368867672995595
 40
0.2368867672995595
 10
-28.18320465087929
 20
6.9144287109371
 30
0.0
 10
-28.18435618109796
 20
6.895115108216353
 30
0.0
 10
-28.18666186864375
 20
6.856443840597184
 30
0.0
 10
-28.17310821402508
 20
6.798981056241596
 30
0.0
 10
-28.14693637112627
 20
6.744526825035063
 30
0.0
 10
-28.11959963304287
 20
6.714513980222529
 30
0.0
 10
-28.10564041137729
 20
6.699188232422099
 30
0.0
 11
-28.18320465087929
 21
6.9144287109371
 31
0.0
 11
-28.18384933471729
 21
6.856658935547099
 31
0.0
 11
-28.17125320434628
 21
6.800140380859104
 31
0.0
 11
-28.1450080871583
 21
6.7469482421871
 31
0.0
 11
-28.10564041137729
 21
6.699188232422099
 31
0.0
  0
SPLINE
  5
A5BD
330
1F
100
AcDbEntity
  8
AM_0
100
AcDbSpline
210
0.0
220
0.0
230
1.0
 70
     8
 71
     3
 72
    11
 73
     7
 74
     5
 42
0.0000000001
 43
0.0000000001
 44
0.0000000001
 40
0.0
 40
0.0
 40
0.0
 40
0.0
 40
0.2759293248516457
 40
0.5498486650052998
 40
0.8188877126933784
 40
1.081821173186566
 40
1.081821173186566
 40
1.081821173186566
 40
1.081821173186566
 10
-18.93907165527428
 20
6.274932861328101
 30
0.0
 10
-18.84648441322888
 20
6.282299654962681
 30
0.0
 10
-18.66198437336339
 20
6.29697957942349
 30
0.0
 10
-18.41585012555184
 20
6.428538920776951
 30
0.0
 10
-18.22020400319058
 20
6.623137792472109
 30
0.0
 10
-18.1607287282914
 20
6.792364738137253
 30
0.0
 10
-18.13133239746129
 20
6.876007080078104
 30
0.0
 11
-18.93907165527428
 21
6.274932861328101
 31
0.0
 11
-18.66615295410227
 21
6.315582275391113
 31
0.0
 11
-18.42237091064529
 21
6.440490722656114
 31
0.0
 11
-18.23654174804727
 21
6.635040283203103
 31
0.0
 11
-18.13133239746129
 21
6.876007080078104
 31
0.0
  0
SPLINE
  5
A5BE
330
1F
100
AcDbEntity
  8
AM_0
100
AcDbSpline
210
0.0
220
0.0
230
1.0
 70
     8
 71
     3
 72
    11
 73
     7
 74
     5
 42
0.0000000001
 43
0.0000000001
 44
0.0000000001
 40
0.0
 40
0.0
 40
0.0
 40
0.0
 40
1.00312994897897
 40
2.00607183312825
 40
3.008856996780891
 40
4.01142396966909
 40
4.01142396966909
 40
4.01142396966909
 40
4.01142396966909
 10
-18.12178802490329
 20
6.924316406250108
 30
0.0
 10
-18.06840653510092
 20
7.254404516290163
 30
0.0
 10
-17.9616535633529
 20
7.914518852100684
 30
0.0
 10
-17.80155831305501
 20
8.904611217354251
 30
0.0
 10
-17.64150408222729
 20
9.894520119115082
 30
0.0
 10
-17.53481979782469
 20
10.55440254658686
 30
0.0
 10
-17.48148345947329
 20
10.8843078613281
 30
0.0
 11
-18.12178802490329
 21
6.924316406250108
 31
0.0
 11
-17.96164703369229
 21
7.914581298828104
 31
0.0
 11
-17.80155181884829
 21
8.90466308593711
 31
0.0
 11
-17.64149475097728
 21
9.894592285156118
 31
0.0
 11
-17.48148345947329
 21
10.8843078613281
 31
0.0
  0
SPLINE
  5
A5BF
330
1F
100
AcDbEntity
  8
AM_0
100
AcDbSpline
210
0.0
220
0.0
230
1.0
 70
     8
 71
     3
 72
    11
 73
     7
 74
     5
 42
0.0000000001
 43
0.0000000001
 44
0.0000000001
 40
0.0
 40
0.0
 40
0.0
 40
0.0
 40
0.1076817619936761
 40
0.2150142188196006
 40
0.3234680457594666
 40
0.4342215423111237
 40
0.4342215423111237
 40
0.4342215423111237
 40
0.4342215423111237
 10
-17.4000015258793
 20
11.95190429687512
 30
0.0
 10
-17.40017516150314
 20
11.98809986419477
 30
0.0
 10
-17.40052186950018
 20
12.06037358527692
 30
0.0
 10
-17.4427656939623
 20
12.16211563389067
 30
0.0
 10
-17.51406323208469
 20
12.24790372444575
 30
0.0
 10
-17.58020616083775
 20
12.28061994005698
 30
0.0
 10
-17.61362457275431
 20
12.29714965820311
 30
0.0
 11
-17.4000015258793
 21
11.95190429687512
 31
0.0
 11
-17.40747833252031
 21
12.05932617187512
 31
0.0
 11
-17.4473037719733
 21
12.15899658203112
 31
0.0
 11
-17.51803588867229
 21
12.24121093750012
 31
0.0
 11
-17.61362457275431
 21
12.29714965820311
 31
0.0
  0
SPLINE
  5
A5C0
330
1F
100
AcDbEntity
  8
AM_0
100
AcDbSpline
210
0.0
220
0.0
230
1.0
 70
     8
 71
     3
 72
    11
 73
     7
 74
     5
 42
0.0000000001
 43
0.0000000001
 44
0.0000000001
 40
0.0
 40
0.0
 40
0.0
 40
0.0
 40
2.224866055574333
 40
4.446392601713391
 40
6.668670315646934
 40
8.893069607179313
 40
8.893069607179313
 40
8.893069607179313
 40
8.893069607179313
 10
-18.93907165527428
 20
6.274932861328101
 30
0.0
 10
-19.68057715795381
 20
6.291108324428404
 30
0.0
 10
-21.16247516839063
 20
6.323434971364417
 30
0.0
 10
-23.38209902013903
 20
6.446665126999753
 30
0.0
 10
-25.60208460591116
 20
6.561665217680961
 30
0.0
 10
-27.08425329561807
 20
6.585146878438576
 30
0.0
 10
-27.82569122314528
 20
6.5968933105471
 30
0.0
 11
-18.93907165527428
 21
6.274932861328101
 31
0.0
 11
-21.16310119628929
 21
6.33593750000011
 31
0.0
 11
-23.38193511962929
 21
6.445281982422118
 31
0.0
 11
-25.60182189941429
 21
6.548339843750093
 31
0.0
 11
-27.82569122314528
 21
6.5968933105471
 31
0.0
  0
SPLINE
  5
A5C1
330
1F
100
AcDbEntity
  8
AM_0
100
AcDbSpline
210
0.0
220
0.0
230
1.0
 70
     8
 71
     3
 72
    11
 73
     7
 74
     5
 42
0.0000000001
 43
0.0000000001
 44
0.0000000001
 40
0.0
 40
0.0
 40
0.0
 40
0.0
 40
0.2241309347927521
 40
0.4482831206619943
 40
0.6724140554554506
 40
0.8965477281913084
 40
0.8965477281913084
 40
0.8965477281913084
 40
0.8965477281913084
 10
-27.82653427124029
 20
6.5968933105471
 30
0.0
 10
-27.77291062957854
 20
6.544872778657347
 30
0.0
 10
-27.66565826190506
 20
6.440826782527457
 30
0.0
 10
-27.50481310277264
 20
6.284728458825048
 30
0.0
 10
-27.34393539886947
 20
6.128662366634761
 30
0.0
 10
-27.23669023248856
 20
6.024617810604567
 30
0.0
 10
-27.18306732177829
 20
5.972595214844107
 30
0.0
 11
-27.82653427124029
 21
6.5968933105471
 31
0.0
 11
-27.66566848754929
 21
6.440826416016093
 31
0.0
 11
-27.50480270385829
 21
6.284729003906093
 31
0.0
 11
-27.34393692016629
 21
6.128662109375099
 31
0.0
 11
-27.18306732177829
 21
5.972595214844107
 31
0.0
  0
SPLINE
  5
A5E3
330
1F
100
AcDbEntity
  8
AM_0
100
AcDbSpline
210
0.0
220
0.0
230
1.0
 70
     8
 71
     3
 72
    11
 73
     7
 74
     5
 42
0.0000000001
 43
0.0000000001
 44
0.0000000001
 40
0.0
 40
0.0
 40
0.0
 40
0.0
 40
0.0504578744395289
 40
0.1012753236508804
 40
0.1524051283244148
 40
0.2038011152420126
 40
0.2038011152420126
 40
0.2038011152420126
 40
0.2038011152420126
 10
-14.20658874511725
 20
-7.076538085937873
 30
0.0
 10
-14.18986148878037
 20
-7.074769679119254
 30
0.0
 10
-14.15628777371358
 20
-7.071220263395914
 30
0.0
 10
-14.10559869044451
 20
-7.067699661569766
 30
0.0
 10
-14.0545214681224
 20
-7.065520975869016
 30
0.0
 10
-14.02034471653204
 20
-7.065277222435603
 30
0.0
 10
-14.00321197509826
 20
-7.065155029296877
 30
0.0
 11
-14.20658874511725
 21
-7.076538085937873
 31
0.0
 11
-14.15637969970725
 21
-7.071533203124876
 31
0.0
 11
-14.10569000244225
 21
-7.06793212890587
 31
0.0
 11
-14.05460357666026
 21
-7.065826416015871
 31
0.0
 11
-14.00321197509826
 21
-7.065155029296877
 31
0.0
  0
SPLINE
  5
A5E4
330
1F
100
AcDbEntity
  8
AM_0
100
AcDbSpline
210
0.0
220
0.0
230
1.0
 70
     8
 71
     3
 72
    11
 73
     7
 74
     5
 42
0.0000000001
 43
0.0000000001
 44
0.0000000001
 40
0.0
 40
0.0
 40
0.0
 40
0.0
 40
0.3796464447005855
 40
0.7593229255799691
 40
1.139000756262406
 40
1.518677237140819
 40
1.518677237140819
 40
1.518677237140819
 40
1.518677237140819
 10
-8.80162811279326
 20
-10.77221679687486
 30
0.0
 10
-8.824018536967145
 20
-10.64766451283492
 30
0.0
 10
-8.868801156759881
 20
-10.39855009065333
 30
0.0
 10
-8.935963552198465
 20
-10.02487084063114
 30
0.0
 10
-9.003145833366225
 20
-9.651184992671234
 30
0.0
 10
-9.047923637654115
 20
-9.402059075204888
 30
0.0
 10
-9.070312500000261
 20
-9.277496337890864
 30
0.0
 11
-8.80162811279326
 21
-10.77221679687486
 31
0.0
 11
-8.868797302246257
 21
-10.39855957031284
 31
0.0
 11
-8.935966491699257
 21
-10.02487182617186
 31
0.0
 11
-9.003143310547256
 21
-9.651184082030864
 31
0.0
 11
-9.070312500000261
 21
-9.277496337890864
 31
0.0
  0
SPLINE
  5
A5E5
330
1F
100
AcDbEntity
  8
AM_0
100
AcDbSpline
210
0.0
220
0.0
230
1.0
 70
     8
 71
     3
 72
    11
 73
     7
 74
     5
 42
0.0000000001
 43
0.0000000001
 44
0.0000000001
 40
0.0
 40
0.0
 40
0.0
 40
0.0
 40
0.0155163522867966
 40
0.0310090960892998
 40
0.0465426632667629
 40
0.0621512652475986
 40
0.0621512652475986
 40
0.0621512652475986
 40
0.0621512652475986
 10
-9.309402465821261
 20
-9.828216552733875
 30
0.0
 10
-9.308844916280754
 20
-9.823073523242065
 30
0.0
 10
-9.307730665524104
 20
-9.812795289495252
 30
0.0
 10
-9.306983809390429
 20
-9.797291552897981
 30
0.0
 10
-9.306876234856899
 20
-9.781739572975164
 30
0.0
 10
-9.307420628690623
 20
-9.771371062654106
 30
0.0
 10
-9.307693481446262
 20
-9.766174316405864
 30
0.0
 11
-9.309402465821261
 21
-9.828216552733875
 31
0.0
 11
-9.307884216309259
 21
-9.812774658202851
 31
0.0
 11
-9.307090759278265
 21
-9.797302246093876
 31
0.0
 11
-9.307029724121264
 21
-9.781768798827851
 31
0.0
 11
-9.307693481446262
 21
-9.766174316405864
 31
0.0
  0
SPLINE
  5
A5E6
330
1F
100
AcDbEntity
  8
AM_0
100
AcDbSpline
210
0.0
220
0.0
230
1.0
 70
     8
 71
     3
 72
    11
 73
     7
 74
     5
 42
0.0000000001
 43
0.0000000001
 44
0.0000000001
 40
0.0
 40
0.0
 40
0.0
 40
0.0
 40
0.0234660927878126
 40
0.0468734183809751
 40
0.0703719845010725
 40
0.0940828858337256
 40
0.0940828858337256
 40
0.0940828858337256
 40
0.0940828858337256
 10
-9.335289001465266
 20
-9.918273925780864
 30
0.0
 10
-9.3321118026012
 20
-9.911121062508886
 30
0.0
 10
-9.325765361675502
 20
-9.896833249203066
 30
0.0
 10
-9.318491594463328
 20
-9.874496983000376
 30
0.0
 10
-9.312780721083152
 20
-9.851628033582192
 30
0.0
 10
-9.310531922401409
 20
-9.836043744300312
 30
0.0
 10
-9.309402465821261
 20
-9.828216552733875
 30
0.0
 11
-9.335289001465266
 21
-9.918273925780864
 31
0.0
 11
-9.326133728028263
 21
-9.896667480468876
 31
0.0
 11
-9.318763732910266
 21
-9.874450683593876
 31
0.0
 11
-9.313186645508263
 21
-9.851623535155864
 31
0.0
 11
-9.309402465821261
 21
-9.828216552733875
 31
0.0
  0
SPLINE
  5
A5E7
330
1F
100
AcDbEntity
  8
AM_0
100
AcDbSpline
210
0.0
220
0.0
230
1.0
 70
     8
 71
     3
 72
    11
 73
     7
 74
     5
 42
0.0000000001
 43
0.0000000001
 44
0.0000000001
 40
0.0
 40
0.0
 40
0.0
 40
0.0
 40
0.0380093495265702
 40
0.0764392239744706
 40
0.1152001074121746
 40
0.1542085391273191
 40
0.1542085391273191
 40
0.1542085391273191
 40
0.1542085391273191
 10
-8.913627624512244
 20
-12.29715347289986
 30
0.0
 10
-8.925674884453053
 20
-12.30110514128819
 30
0.0
 10
-8.949902691883709
 20
-12.30905219823
 30
0.0
 10
-8.987570374863036
 20
-12.31685035840431
 30
0.0
 10
-9.026044870391922
 20
-12.32180747270195
 30
0.0
 10
-9.051978894925339
 20
-12.32235900612672
 30
0.0
 10
-9.064987182617244
 20
-12.32263565063486
 30
0.0
 11
-8.913627624512244
 21
-12.29715347289986
 31
0.0
 11
-8.949958801270257
 21
-12.30832290649387
 31
0.0
 11
-8.987541198731252
 21
-12.31634902954084
 31
0.0
 11
-9.026008605957246
 21
-12.32110977172887
 31
0.0
 11
-9.064987182617244
 21
-12.32263565063486
 31
0.0
  0
SPLINE
  5
A5E8
330
1F
100
AcDbEntity
  8
AM_0
100
AcDbSpline
210
0.0
220
0.0
230
1.0
 70
     8
 71
     3
 72
    11
 73
     7
 74
     5
 42
0.0000000001
 43
0.0000000001
 44
0.0000000001
 40
0.0
 40
0.0
 40
0.0
 40
0.0
 40
0.1076822920042693
 40
0.2150119181970265
 40
0.3234657451361552
 40
0.4342258265024865
 40
0.4342258265024865
 40
0.4342258265024865
 40
0.4342258265024865
 10
-8.699996948242247
 20
-11.95190811157188
 30
0.0
 10
-8.700174493952115
 20
-11.98810335866216
 30
0.0
 10
-8.700529003899253
 20
-12.06037531128914
 30
0.0
 10
-8.74275881694708
 20
-12.16212104486879
 30
0.0
 10
-8.814060503226771
 20
-12.24790967735183
 30
0.0
 10
-8.880206619220405
 20
-12.28062414946103
 30
0.0
 10
-8.913627624512244
 20
-12.29715347289986
 30
0.0
 11
-8.699996948242247
 21
-11.95190811157188
 31
0.0
 11
-8.707481384278256
 21
-12.05932998657188
 31
0.0
 11
-8.74729919433625
 21
-12.15900039672886
 31
0.0
 11
-8.818031311035257
 21
-12.24121475219688
 31
0.0
 11
-8.913627624512244
 21
-12.29715347289986
 31
0.0
  0
SPLINE
  5
A5E9
330
1F
100
AcDbEntity
  8
AM_0
100
AcDbSpline
210
0.0
220
0.0
230
1.0
 70
     8
 71
     3
 72
    11
 73
     7
 74
     5
 42
0.0000000001
 43
0.0000000001
 44
0.0000000001
 40
0.0
 40
0.0
 40
0.0
 40
0.0
 40
0.5671443717745883
 40
1.134318145876721
 40
1.701462517651313
 40
2.268639967051371
 40
2.268639967051371
 40
2.268639967051371
 40
2.268639967051371
 10
-9.307693481446262
 20
-9.766174316405864
 30
0.0
 10
-9.257051160246874
 20
-9.94831313288026
 30
0.0
 10
-9.155763892410572
 20
-10.31260020840736
 30
0.0
 10
-9.003851285891542
 20
-10.85903082204171
 30
0.0
 10
-8.851915051513957
 20
-11.4054663105421
 30
0.0
 10
-8.750637300443068
 20
-11.76975730356773
 30
0.0
 10
-8.699996948242247
 20
-11.95190811157188
 30
0.0
 11
-9.307693481446262
 21
-9.766174316405864
 31
0.0
 11
-9.155769348145264
 21
-10.31259155273387
 31
0.0
 11
-9.003845214844254
 21
-10.85903930664086
 31
0.0
 11
-8.851921081543263
 21
-11.40545654296887
 31
0.0
 11
-8.699996948242247
 21
-11.95190811157188
 31
0.0
  0
SPLINE
  5
A5EA
330
1F
100
AcDbEntity
  8
AM_0
100
AcDbSpline
210
0.0
220
0.0
230
1.0
 70
     8
 71
     3
 72
    11
 73
     7
 74
     5
 42
0.0000000001
 43
0.0000000001
 44
0.0000000001
 40
0.0
 40
0.0
 40
0.0
 40
0.0
 40
0.0579492187147561
 40
0.1147424567155311
 40
0.1706709212277338
 40
0.2261314166509634
 40
0.2261314166509634
 40
0.2261314166509634
 40
0.2261314166509634
 10
-9.498626708985264
 20
-10.06741333007785
 30
0.0
 10
-9.481014475032905
 20
-10.05934701832244
 30
0.0
 10
-9.446141338918858
 20
-10.0433753029486
 30
0.0
 10
-9.400650772969079
 20
-10.00857585438228
 30
0.0
 10
-9.362061669929445
 20
-9.967246220983037
 30
0.0
 10
-9.344188194175446
 20
-9.934552239354541
 30
0.0
 10
-9.335289001465266
 20
-9.918273925780864
 30
0.0
 11
-9.498626708985264
 21
-10.06741333007785
 31
0.0
 11
-9.446884155274258
 21
-10.04132080078086
 31
0.0
 11
-9.401481628418263
 21
-10.00720214843785
 31
0.0
 11
-9.363891601563263
 21
-9.96578979492186
 31
0.0
 11
-9.335289001465266
 21
-9.918273925780864
 31
0.0
  0
SPLINE
  5
A5EB
330
1F
100
AcDbEntity
  8
AM_0
100
AcDbSpline
210
0.0
220
0.0
230
1.0
 70
     8
 71
     3
 72
    11
 73
     7
 74
     5
 42
0.0000000001
 43
0.0000000001
 44
0.0000000001
 40
0.0
 40
0.0
 40
0.0
 40
0.0
 40
0.0482651930039275
 40
0.0959667179978732
 40
0.1430072563768332
 40
0.1893419361781611
 40
0.1893419361781611
 40
0.1893419361781611
 40
0.1893419361781611
 10
-9.684547424317253
 20
-10.09420776367186
 30
0.0
 10
-9.668456579132831
 20
-10.09487982708966
 30
0.0
 10
-9.636462806684118
 20
-10.09621610519151
 30
0.0
 10
-9.588884354032657
 20
-10.09190285443997
 30
0.0
 10
-9.542511686048332
 20
-10.08319868770494
 30
0.0
 10
-9.513181127746438
 20
-10.07264853174764
 30
0.0
 10
-9.498626708985264
 20
-10.06741333007785
 30
0.0
 11
-9.684547424317253
 21
-10.09420776367186
 31
0.0
 11
-9.636291503906262
 21
-10.09515380859387
 31
0.0
 11
-9.588760375977253
 21
-10.09112548828086
 31
0.0
 11
-9.542625427246262
 21
-10.08193969726586
 31
0.0
 11
-9.498626708985264
 21
-10.06741333007785
 31
0.0
  0
SPLINE
  5
A5EC
330
1F
100
AcDbEntity
  8
AM_0
100
AcDbSpline
210
0.0
220
0.0
230
1.0
 70
     8
 71
     3
 72
    11
 73
     7
 74
     5
 42
0.0000000001
 43
0.0000000001
 44
0.0000000001
 40
0.0
 40
0.0
 40
0.0
 40
0.0
 40
2.202039726782171
 40
4.382641900485177
 40
6.560647291365102
 40
8.758372255340056
 40
8.758372255340056
 40
8.758372255340056
 40
8.758372255340056
 10
-9.065834045410257
 20
-12.32263565063486
 30
0.0
 10
-9.79963029481444
 20
-12.29573808385518
 30
0.0
 10
-11.26007905509049
 20
-12.24220480661411
 30
0.0
 10
-13.43444283933368
 20
-11.99977151825376
 30
0.0
 10
-15.60517129661468
 20
-11.74113011804993
 30
0.0
 10
-17.06251063496331
 20
-11.66979863830433
 30
0.0
 10
-17.79446411132824
 20
-11.63397216796887
 30
0.0
 11
-9.065834045410257
 21
-12.32263565063486
 31
0.0
 11
-11.26522064209025
 21
-12.21457290649388
 31
0.0
 11
-13.43493652343825
 21
-11.99695205688487
 31
0.0
 11
-15.60076904296925
 21
-11.76700210571286
 31
0.0
 11
-17.79446411132824
 21
-11.63397216796887
 31
0.0
  0
SPLINE
  5
A5ED
330
1F
100
AcDbEntity
  8
AM_0
100
AcDbSpline
210
0.0
220
0.0
230
1.0
 70
     8
 71
     3
 72
    11
 73
     7
 74
     5
 42
0.0000000001
 43
0.0000000001
 44
0.0000000001
 40
0.0
 40
0.0
 40
0.0
 40
0.0
 40
0.5782301759177467
 40
1.15646402712256
 40
1.734692159381835
 40
2.312951737651162
 40
2.312951737651162
 40
2.312951737651162
 40
2.312951737651162
 10
-9.064987182617244
 20
-12.32263565063486
 30
0.0
 10
-9.116617785989991
 20
-12.13693617313397
 30
0.0
 10
-9.219879320904606
 20
-11.76553603780831
 30
0.0
 10
-9.374772222650726
 20
-11.2084373442906
 30
0.0
 10
-9.529658058875936
 20
-10.6513265138522
 30
0.0
 10
-9.632916699936316
 20
-10.2799173800555
 30
0.0
 10
-9.684547424317253
 20
-10.09420776367186
 30
0.0
 11
-9.064987182617244
 21
-12.32263565063486
 31
0.0
 11
-9.21987915039126
 21
-11.76553726196283
 31
0.0
 11
-9.374771118164259
 21
-11.20843505859387
 31
0.0
 11
-9.529655456543261
 21
-10.65133666992186
 31
0.0
 11
-9.684547424317253
 21
-10.09420776367186
 31
0.0
  0
SPLINE
  5
A5EE
330
1F
100
AcDbEntity
  8
AM_0
100
AcDbSpline
210
0.0
220
0.0
230
1.0
 70
     8
 71
     3
 72
    11
 73
     7
 74
     5
 42
0.0000000001
 43
0.0000000001
 44
0.0000000001
 40
0.0
 40
0.0
 40
0.0
 40
0.0
 40
0.0559154822257654
 40
0.1122691547324977
 40
0.169138119606559
 40
0.2265078107688163
 40
0.2265078107688163
 40
0.2265078107688163
 40
0.2265078107688163
 10
-18.00453186035226
 20
-9.640563964843881
 30
0.0
 10
-17.99645304837761
 20
-9.657374222155905
 30
0.0
 10
-17.98023211357508
 20
-9.691126472948207
 30
0.0
 10
-17.95045278960919
 20
-9.739099860022065
 30
0.0
 10
-17.91709319888558
 20
-9.785251906418004
 30
0.0
 10
-17.89164190108609
 20
-9.813609431482348
 30
0.0
 10
-17.87886047363327
 20
-9.827850341796892
 30
0.0
 11
-18.00453186035226
 21
-9.640563964843881
 31
0.0
 11
-17.97941589355527
 21
-9.690521240233881
 31
0.0
 11
-17.94999694824226
 21
-9.738586425780868
 31
0.0
 11
-17.91641998291027
 21
-9.784484863280868
 31
0.0
 11
-17.87886047363327
 21
-9.827850341796892
 31
0.0
  0
SPLINE
  5
A5EF
330
1F
100
AcDbEntity
  8
AM_0
100
AcDbSpline
210
0.0
220
0.0
230
1.0
 70
     8
 71
     3
 72
    11
 73
     7
 74
     5
 42
0.0000000001
 43
0.0000000001
 44
0.0000000001
 40
0.0
 40
0.0
 40
0.0
 40
0.0
 40
0.176412894604576
 40
0.3528571075480942
 40
0.5292700021526733
 40
0.7057116793587164
 40
0.7057116793587164
 40
0.7057116793587164
 40
0.7057116793587164
 10
-18.62593841552824
 20
-11.07534790039089
 30
0.0
 10
-18.60639153538396
 20
-11.01988741928691
 30
0.0
 10
-18.5672943049646
 20
-10.90895661125588
 30
0.0
 10
-18.5086568797791
 20
-10.74256296601601
 30
0.0
 10
-18.45000620745904
 20
-10.57616381677186
 30
0.0
 10
-18.41091825240672
 20
-10.465230636213
 30
0.0
 10
-18.39137268066424
 20
-10.40975952148387
 30
0.0
 11
-18.62593841552824
 21
-11.07534790039089
 31
0.0
 11
-18.56729888916026
 21
-10.90896606445288
 31
0.0
 11
-18.50865173339925
 21
-10.74255371093788
 31
0.0
 11
-18.45001220703125
 21
-10.57617187499987
 31
0.0
 11
-18.39137268066424
 21
-10.40975952148387
 31
0.0
  0
SPLINE
  5
A5F0
330
1F
100
AcDbEntity
  8
AM_0
100
AcDbSpline
210
0.0
220
0.0
230
1.0
 70
     8
 71
     3
 72
    11
 73
     7
 74
     5
 42
0.0000000001
 43
0.0000000001
 44
0.0000000001
 40
0.0
 40
0.0
 40
0.0
 40
0.0
 40
0.2888150107132691
 40
0.5699612016561665
 40
0.8305183325465165
 40
1.066947801150397
 40
1.066947801150397
 40
1.066947801150397
 40
1.066947801150397
 10
-17.79446411132824
 20
-11.63397216796887
 30
0.0
 10
-17.8908454182958
 20
-11.62332938975639
 30
0.0
 10
-18.08104884782239
 20
-11.60232642788137
 30
0.0
 10
-18.33353919889927
 20
-11.48049401461418
 30
0.0
 10
-18.53751107530312
 20
-11.30696827213535
 30
0.0
 10
-18.59743231923601
 20
-11.15001476929572
 30
0.0
 10
-18.62593841552824
 20
-11.07534790039089
 30
0.0
 11
-17.79446411132824
 21
-11.63397216796887
 31
0.0
 11
-18.07926177978524
 21
-11.58596801757788
 31
0.0
 11
-18.33368682861324
 21
-11.46633911132788
 31
0.0
 11
-18.52449798584026
 21
-11.28890991210887
 31
0.0
 11
-18.62593841552824
 21
-11.07534790039089
 31
0.0
  0
SPLINE
  5
A5F1
330
1F
100
AcDbEntity
  8
AM_0
100
AcDbSpline
210
0.0
220
0.0
230
1.0
 70
     8
 71
     3
 72
    11
 73
     7
 74
     5
 42
0.0000000001
 43
0.0000000001
 44
0.0000000001
 40
0.0
 40
0.0
 40
0.0
 40
0.0
 40
0.4115841030574867
 40
0.8231682061149733
 40
1.234781091806
 40
1.646365194863486
 40
1.646365194863486
 40
1.646365194863486
 40
1.646365194863486
 10
-17.24725341796925
 20
-10.08120727539086
 30
0.0
 10
-17.29285402438364
 20
-10.21060190696979
 30
0.0
 10
-17.38405523721242
 20
-10.46939117012765
 30
0.0
 10
-17.52086537006816
 20
-10.85758230764333
 30
0.0
 10
-17.65765500340541
 20
-11.24578066926315
 30
0.0
 10
-17.74886213835653
 20
-11.50457801796966
 30
0.0
 10
-17.79446411132824
 20
-11.63397216796887
 30
0.0
 11
-17.24725341796925
 21
-10.08120727539086
 31
0.0
 11
-17.38405609130925
 21
-10.46939086914086
 31
0.0
 11
-17.52085876464924
 21
-10.85757446289086
 31
0.0
 11
-17.65766143798824
 21
-11.24578857421887
 31
0.0
 11
-17.79446411132824
 21
-11.63397216796887
 31
0.0
  0
SPLINE
  5
A5F2
330
1F
100
AcDbEntity
  8
AM_0
100
AcDbSpline
210
0.0
220
0.0
230
1.0
 70
     8
 71
     3
 72
    11
 73
     7
 74
     5
 42
0.0000000001
 43
0.0000000001
 44
0.0000000001
 40
0.0
 40
0.0
 40
0.0
 40
0.0
 40
0.0878950025210578
 40
0.1770798142668124
 40
0.2674280371978731
 40
0.3587086516831776
 40
0.3587086516831776
 40
0.3587086516831776
 40
0.3587086516831776
 10
-17.87886047363327
 20
-9.827850341796892
 30
0.0
 10
-17.85804234518476
 20
-9.848518641466414
 30
0.0
 10
-17.81610059408052
 20
-9.890158536360472
 30
0.0
 10
-17.74396849566923
 20
-9.942983773698777
 30
0.0
 10
-17.66613977214356
 20
-9.989172323246133
 30
0.0
 10
-17.61019875228934
 20
-10.01250481998216
 30
0.0
 10
-17.58208465576224
 20
-10.02423095703086
 30
0.0
 11
-17.87886047363327
 21
-9.827850341796892
 31
0.0
 11
-17.81497192382827
 21
-9.888214111327885
 31
0.0
 11
-17.74349975586027
 21
-9.94155883789087
 31
0.0
 11
-17.66548156738326
 21
-9.987121582030868
 31
0.0
 11
-17.58208465576224
 21
-10.02423095703086
 31
0.0
  0
SPLINE
  5
A5F3
330
1F
100
AcDbEntity
  8
AM_0
100
AcDbSpline
210
0.0
220
0.0
230
1.0
 70
     8
 71
     3
 72
    11
 73
     7
 74
     5
 42
0.0000000001
 43
0.0000000001
 44
0.0000000001
 40
0.0
 40
0.0
 40
0.0
 40
0.0
 40
0.0557328706563342
 40
0.1114962546377496
 40
0.1672291252940822
 40
0.2229618690551063
 40
0.2229618690551063
 40
0.2229618690551063
 40
0.2229618690551063
 10
-17.21417236328126
 20
-9.815216064452883
 30
0.0
 10
-17.21448272831821
 20
-9.833791095287949
 30
0.0
 10
-17.21510362831462
 20
-9.870951326646952
 30
0.0
 10
-17.21603303863497
 20
-9.926686619759902
 30
0.0
 10
-17.21696680943048
 20
-9.982421797963537
 30
0.0
 10
-17.21758085565534
 20
-10.01957192852263
 30
0.0
 10
-17.21788787841825
 20
-10.03814697265586
 30
0.0
 11
-17.21417236328126
 21
-9.815216064452883
 31
0.0
 11
-17.21510314941426
 21
-9.870941162108879
 31
0.0
 11
-17.21603393554726
 21
-9.926696777343879
 31
0.0
 11
-17.21696472168027
 21
-9.982421874999873
 31
0.0
 11
-17.21788787841825
 21
-10.03814697265586
 31
0.0
  0
SPLINE
  5
A5F4
330
1F
100
AcDbEntity
  8
AM_0
100
AcDbSpline
210
0.0
220
0.0
230
1.0
 70
     8
 71
     3
 72
    11
 73
     7
 74
     5
 42
0.0000000001
 43
0.0000000001
 44
0.0000000001
 40
0.0
 40
0.0
 40
0.0
 40
0.0
 40
0.0850519427337008
 40
0.1704949354672259
 40
0.2560954147732001
 40
0.3416323483381063
 40
0.3416323483381063
 40
0.3416323483381063
 40
0.3416323483381063
 10
-17.58208465576224
 20
-10.02423095703086
 30
0.0
 10
-17.55529474666067
 20
-10.03358762003967
 30
0.0
 10
-17.50159175438751
 20
-10.05234396592197
 30
0.0
 10
-17.41789690907578
 20
-10.07005511236376
 30
0.0
 10
-17.33288185340053
 20
-10.08079020136547
 30
0.0
 10
-17.27578916333866
 20
-10.08106828513454
 30
0.0
 10
-17.24725341796925
 20
-10.08120727539086
 30
0.0
 11
-17.58208465576224
 21
-10.02423095703086
 31
0.0
 11
-17.50121307373125
 21
-10.05056762695288
 31
0.0
 11
-17.41775512695325
 21
-10.06887817382788
 31
0.0
 11
-17.33276367187526
 21
-10.07907104492189
 31
0.0
 11
-17.24725341796925
 21
-10.08120727539086
 31
0.0
  0
SPLINE
  5
A5F5
330
1F
100
AcDbEntity
  8
AM_0
100
AcDbSpline
210
0.0
220
0.0
230
1.0
 70
     8
 71
     3
 72
    11
 73
     7
 74
     5
 42
0.0000000001
 43
0.0000000001
 44
0.0000000001
 40
0.0
 40
0.0
 40
0.0
 40
0.0
 40
0.0639752459629339
 40
0.128168810146929
 40
0.192415756218274
 40
0.2565328941757106
 40
0.2565328941757106
 40
0.2565328941757106
 40
0.2565328941757106
 10
-17.46532440185626
 20
-9.769592285155866
 30
0.0
 10
-17.44515550129543
 20
-9.776569230306384
 30
0.0
 10
-17.40474887295121
 20
-9.790546929726565
 30
0.0
 10
-17.34200675801497
 20
-9.804385090460325
 30
0.0
 10
-17.27835792356578
 20
-9.813477743224671
 30
0.0
 10
-17.23555312126467
 20
-9.814637014814412
 30
0.0
 10
-17.21417236328126
 20
-9.815216064452883
 30
0.0
 11
-17.46532440185626
 21
-9.769592285155866
 31
0.0
 11
-17.40447235107426
 21
-9.789337158202883
 31
0.0
 11
-17.34188079834027
 21
-9.803588867187883
 31
0.0
 11
-17.27822113037126
 21
-9.812255859374873
 31
0.0
 11
-17.21417236328126
 21
-9.815216064452883
 31
0.0
  0
SPLINE
  5
A5F6
330
1F
100
AcDbEntity
  8
AM_0
100
AcDbSpline
210
0.0
220
0.0
230
1.0
 70
     8
 71
     3
 72
    11
 73
     7
 74
     5
 42
0.0000000001
 43
0.0000000001
 44
0.0000000001
 40
0.0
 40
0.0
 40
0.0
 40
0.0
 40
0.0665570275898504
 40
0.1324764444959739
 40
0.1975817064883365
 40
0.2617280736405989
 40
0.2617280736405989
 40
0.2617280736405989
 40
0.2617280736405989
 10
-17.46532440185626
 20
-9.769592285155866
 30
0.0
 10
-17.48590174454773
 20
-9.761241216374287
 30
0.0
 10
-17.52685930073156
 20
-9.744619081342317
 30
0.0
 10
-17.58427850332015
 20
-9.712064013114822
 30
0.0
 10
-17.63791873138021
 20
-9.674964098467608
 30
0.0
 10
-17.66968835636935
 20
-9.64579398932053
 30
0.0
 10
-17.68545532226626
 20
-9.631317138671892
 30
0.0
 11
-17.46532440185626
 21
-9.769592285155866
 31
0.0
 11
-17.52643585205126
 21
-9.743225097655866
 31
0.0
 11
-17.58399200439527
 21
-9.711090087890868
 31
0.0
 11
-17.63722991943426
 21
-9.673614501952885
 31
0.0
 11
-17.68545532226626
 21
-9.631317138671892
 31
0.0
  0
LINE
  5
A5FD
330
1F
100
AcDbEntity
  8
AM_0
100
AcDbLine
 10
-0.9505844116212877
 20
6.04328155517614
 30
0.0
 11
-1.024131774903288
 21
3.743431091308142
 31
0.0
  0
LINE
  5
A650
330
1F
100
AcDbEntity
  8
AM_0
100
AcDbLine
 10
-0.0814819335942977
 20
11.08941268920914
 30
0.0
 11
-0.0000000000003033
 21
12.21565246582015
 31
0.0
  0
LINE
  5
A651
330
1F
100
AcDbEntity
  8
AM_0
100
AcDbLine
 10
-0.3658370971683021
 20
12.63045501709014
 30
0.0
 11
-0.2136230468753048
 21
12.59404754638715
 31
0.0
  0
LINE
  5
A652
330
1F
100
AcDbEntity
  8
AM_0
100
AcDbLine
 10
-3.797706604004283
 20
5.765510559082137
 30
0.0
 11
-6.81532287597728
 21
5.83069610595714
 31
0.0
  0
LINE
  5
A653
330
1F
100
AcDbEntity
  8
AM_0
100
AcDbLine
 10
-0.9952621459962958
 20
6.369411468506148
 30
0.0
 11
-1.019134521485302
 21
6.435970306396146
 31
0.0
  0
LINE
  5
A654
330
1F
100
AcDbEntity
  8
AM_0
100
AcDbLine
 10
-0.9952621459962958
 20
6.369407653808143
 30
0.0
 11
-1.00565338134829
 21
6.04450225830114
 31
0.0
  0
LINE
  5
A655
330
1F
100
AcDbEntity
  8
AM_0
100
AcDbLine
 10
-3.723403930664284
 20
6.105922698975142
 30
0.0
 11
-3.710998535156295
 21
6.329761505127144
 31
0.0
  0
LINE
  5
A656
330
1F
100
AcDbEntity
  8
AM_0
100
AcDbLine
 10
-0.9952621459962958
 20
6.369422912598142
 30
0.0
 11
-1.117973327637289
 21
6.372077941894136
 31
0.0
  0
LINE
  5
A657
330
1F
100
AcDbEntity
  8
AM_0
100
AcDbLine
 10
-0.9505844116212877
 20
6.04327392578114
 30
0.0
 11
-3.77877044677829
 21
6.107177734375134
 31
0.0
  0
LINE
  5
A658
330
1F
100
AcDbEntity
  8
AM_0
100
AcDbLine
 10
-3.797706604004283
 20
5.765502929687137
 30
0.0
 11
-3.778778076172281
 21
6.107173919678139
 31
0.0
  0
LINE
  5
A659
330
1F
100
AcDbEntity
  8
AM_0
100
AcDbLine
 10
-6.746482849121288
 20
6.072776794433133
 30
0.0
 11
-6.796241760254291
 21
6.175392150879141
 31
0.0
  0
LINE
  5
A65A
330
1F
100
AcDbEntity
  8
AM_0
100
AcDbLine
 10
-6.691299438477281
 20
6.103115081787148
 30
0.0
 11
-6.815345764160291
 21
5.830680847168134
 31
0.0
  0
LINE
  5
A65B
330
1F
100
AcDbEntity
  8
AM_0
100
AcDbLine
 10
-6.683723449707289
 20
6.369651794433134
 30
0.0
 11
-6.691291809082281
 21
6.103126525879142
 31
0.0
  0
LINE
  5
A65C
330
1F
100
AcDbEntity
  8
AM_0
100
AcDbLine
 10
-6.729995727539292
 20
6.370262145996133
 30
0.0
 11
-6.746482849121288
 21
6.072776794433133
 31
0.0
  0
LINE
  5
A65D
330
1F
100
AcDbEntity
  8
AM_0
100
AcDbLine
 10
-6.796226501465302
 20
6.175384521484128
 30
0.0
 11
-6.815330505371287
 21
5.830699920654137
 31
0.0
  0
LINE
  5
A65E
330
1F
100
AcDbEntity
  8
AM_0
100
AcDbLine
 10
-6.796226501465302
 20
6.175380706787147
 30
0.0
 11
-8.321990966797288
 21
6.209835052490123
 31
0.0
  0
LINE
  5
A65F
330
1F
100
AcDbEntity
  8
AM_0
100
AcDbLine
 10
-16.3663787841803
 20
10.34330749511711
 30
0.0
 11
-16.2620773315433
 21
11.89626693725612
 31
0.0
  0
LINE
  5
A660
330
1F
100
AcDbEntity
  8
AM_0
100
AcDbLine
 10
-10.65271759033228
 20
9.246631622314122
 30
0.0
 11
-10.16838836669929
 21
11.92524337768513
 31
0.0
  0
LINE
  5
A661
330
1F
100
AcDbEntity
  8
AM_0
100
AcDbLine
 10
-10.12001800537129
 20
12.00000000000011
 30
0.0
 11
-16.24820709228531
 21
12.00000000000012
 31
0.0
  0
LINE
  5
A662
330
1F
100
AcDbEntity
  8
AM_0
100
AcDbLine
 10
-10.12001800537129
 20
11.99999618530313
 30
0.0
 11
-9.955886840821301
 21
11.99282455444312
 31
0.0
  0
LINE
  5
A663
330
1F
100
AcDbEntity
  8
AM_0
100
AcDbLine
 10
-10.67327880859429
 20
8.002807617187126
 30
0.0
 11
-10.7832031250003
 21
6.877792358398117
 31
0.0
  0
LINE
  5
A664
330
1F
100
AcDbEntity
  8
AM_0
100
AcDbLine
 10
-10.42569732666029
 20
6.463397979736137
 30
0.0
 11
-10.57790374755928
 21
6.499805450439121
 31
0.0
  0
LINE
  5
A665
330
1F
100
AcDbEntity
  8
AM_0
100
AcDbLine
 10
-16.97810363769629
 20
10.24879455566411
 30
0.0
 11
-16.96487426757829
 21
10.43769073486312
 31
0.0
  0
LINE
  5
A666
330
1F
100
AcDbEntity
  8
AM_0
100
AcDbLine
 10
-17.11709594726629
 20
9.506851196289117
 30
0.0
 11
-17.21398925781329
 21
8.123096466064122
 31
0.0
  0
LINE
  5
A6C7
330
1F
100
AcDbEntity
  8
AM_0
100
AcDbLine
 10
-1.286849975586259
 20
-8.477954864501864
 30
0.0
 11
-0.8931274414062817
 21
-0.9652862548828643
 31
0.0
  0
LINE
  5
A6C8
330
1F
100
AcDbEntity
  8
AM_0
100
AcDbLine
 10
-0.8931198120122763
 20
-0.9652557373048532
 30
0.0
 11
-1.101234436035287
 21
-0.9543304443358625
 31
0.0
  0
LINE
  5
A6C9
330
1F
100
AcDbEntity
  8
AM_0
100
AcDbLine
 10
-1.117927551270285
 20
0.306064605713136
 30
0.0
 11
-0.5779647827152856
 21
0.2999916076661353
 31
0.0
  0
LINE
  5
A6CA
330
1F
100
AcDbEntity
  8
AM_0
100
AcDbLine
 10
-0.890342712403285
 20
-0.9205551147458617
 30
0.0
 11
-0.8931198120122763
 21
-0.9652709960938588
 31
0.0
  0
LINE
  5
A6CB
330
1F
100
AcDbEntity
  8
AM_0
100
AcDbLine
 10
-1.952629089356272
 20
-3.23466491699186
 30
0.0
 11
-2.109848022461267
 21
-6.234668731689849
 31
0.0
  0
LINE
  5
A6CC
330
1F
100
AcDbEntity
  8
AM_0
100
AcDbLine
 10
-1.676757812500262
 20
-9.01633071899384
 30
0.0
 11
-1.212242126465283
 21
-0.1528854370118574
 31
0.0
  0
LINE
  5
A6CD
330
1F
100
AcDbEntity
  8
AM_0
100
AcDbLine
 10
-1.494796752930265
 20
-8.464004516601857
 30
0.0
 11
-1.101234436035287
 21
-0.9543495178218638
 31
0.0
  0
LINE
  5
A6CE
330
1F
100
AcDbEntity
  8
AM_0
100
AcDbLine
 10
-1.097496032715296
 20
3.232738494873134
 30
0.0
 11
-7.489929199219285
 21
4.617351531982143
 31
0.0
  0
LINE
  5
A6CF
330
1F
100
AcDbEntity
  8
AM_0
100
AcDbLine
 10
-1.024131774903288
 20
3.743434906006147
 30
0.0
 11
-4.382606506348288
 21
3.944301605225125
 31
0.0
  0
LINE
  5
A6D0
330
1F
100
AcDbEntity
  8
AM_0
100
AcDbLine
 10
-1.139495849610283
 20
-0.1503639221188527
 30
0.0
 11
-1.212242126465283
 21
-0.1528968811038533
 31
0.0
  0
LINE
  5
A6D1
330
1F
100
AcDbEntity
  8
AM_0
100
AcDbLine
 10
-1.139495849610283
 20
-0.1503753662108628
 30
0.0
 11
-0.9873046875002961
 21
3.060009002685138
 31
0.0
  0
LINE
  5
A6D2
330
1F
100
AcDbEntity
  8
AM_0
100
AcDbLine
 10
-0.9933776855472846
 20
3.06706619262714
 30
0.0
 11
-1.09748077392629
 21
3.232719421387148
 31
0.0
  0
LINE
  5
A6D3
330
1F
100
AcDbEntity
  8
AM_0
100
AcDbLine
 10
-2.038146972656281
 20
0.9344024658201563
 30
0.0
 11
-1.09748840332129
 21
3.23272323608413
 31
0.0
  0
CIRCLE
  5
A6D4
330
1F
100
AcDbEntity
  8
AM_0
100
AcDbCircle
 10
-3.828552246094263
 20
-4.734649658202862
 30
0.0
 40
1.25
  0
ARC
  5
A6D5
330
1F
100
AcDbEntity
  8
AM_0
100
AcDbCircle
 10
-1.329528808594278
 20
-0.9423828124998406
 30
0.0
 40
0.2286113202572
100
AcDbArc
 50
356.9998990575411
 51
27.6297867678137
  0
ARC
  5
A6D6
330
1F
100
AcDbEntity
  8
AM_0
100
AcDbCircle
 10
-1.306640625000287
 20
-0.9303894042968719
 30
0.0
 40
0.2027761638165
100
AcDbArc
 50
27.62984505179554
 51
60.24629328216912
  0
ARC
  5
A6D7
330
1F
100
AcDbEntity
  8
AM_0
100
AcDbCircle
 10
-1.322128295899279
 20
-0.9574890136718577
 30
0.0
 40
0.2339781373739
100
AcDbArc
 50
60.24627962178996
 51
70.20196335599989
  0
LINE
  5
A6D8
330
1F
100
AcDbEntity
  8
AM_0
100
AcDbLine
 10
-1.952621459961272
 20
-3.234649658202854
 30
0.0
 11
-2.213722229004269
 21
-3.234649658202855
 31
0.0
  0
LINE
  5
A6D9
330
1F
100
AcDbEntity
  8
AM_0
100
AcDbLine
 10
-3.828552246094269
 20
-3.234649658202862
 30
0.0
 11
-2.213722229004269
 21
-3.234649658202855
 31
0.0
  0
LINE
  5
A6DA
330
1F
100
AcDbEntity
  8
AM_0
100
AcDbLine
 10
-0.9215774536132855
 20
-0.7288589477538591
 30
0.0
 11
-1.126983642578284
 21
-0.8363761901858557
 31
0.0
  0
LINE
  5
A6DB
330
1F
100
AcDbEntity
  8
AM_0
100
AcDbLine
 10
-1.087921142578285
 20
-0.5478248596188527
 30
0.0
 11
-1.205993652344279
 21
-0.7543716430668577
 31
0.0
  0
LINE
  5
A6DC
330
1F
100
AcDbEntity
  8
AM_0
100
AcDbLine
 10
-1.187057495117276
 20
-0.5126266479488601
 30
0.0
 11
-1.240287780762277
 21
-0.6879539489748618
 31
0.0
  0
LINE
  5
A6DD
330
1F
100
AcDbEntity
  8
AM_0
100
AcDbLine
 10
-8.781486511231257
 20
-10.88431167602486
 30
0.0
 11
-8.699996948242247
 21
-11.95191574096686
 31
0.0
  0
LINE
  5
A6DE
330
1F
100
AcDbEntity
  8
AM_0
100
AcDbLine
 10
-3.191047668457251
 20
-9.087207794189868
 30
0.0
 11
-6.201828002930263
 21
-8.929401397704866
 31
0.0
  0
LINE
  5
A6DF
330
1F
100
AcDbEntity
  8
AM_0
100
AcDbLine
 10
-7.177719116211259
 20
-8.728034973144863
 30
0.0
 11
-2.135536193848259
 21
-8.992286682128849
 31
0.0
  0
LINE
  5
A6E0
330
1F
100
AcDbEntity
  8
AM_0
100
AcDbLine
 10
-6.213447570801257
 20
-9.151172637939881
 30
0.0
 11
-3.345787048340262
 21
-9.301441192626857
 31
0.0
  0
LINE
  5
A6E1
330
1F
100
AcDbEntity
  8
AM_0
100
AcDbLine
 10
-2.109840393067262
 20
-6.234649658202854
 30
0.0
 11
-2.233856201172262
 21
-6.234649658202854
 31
0.0
  0
LINE
  5
A6E2
330
1F
100
AcDbEntity
  8
AM_0
100
AcDbLine
 10
-2.13554382324225
 20
-8.992286682128849
 30
0.0
 11
-1.676757812500262
 21
-9.016334533691843
 31
0.0
  0
LINE
  5
A6E3
330
1F
100
AcDbEntity
  8
AM_0
100
AcDbLine
 10
-3.828552246094265
 20
-6.234649658202861
 30
0.0
 11
-2.233856201172262
 21
-6.234649658202854
 31
0.0
  0
LINE
  5
A6E4
330
1F
100
AcDbEntity
  8
AM_0
100
AcDbLine
 10
-2.065063476563259
 20
-9.042057037353842
 30
0.0
 11
-3.191055297852251
 21
-9.087192535399838
 31
0.0
  0
LINE
  5
A6E5
330
1F
100
AcDbEntity
  8
AM_0
100
AcDbLine
 10
-3.201858520508258
 20
-9.293334960937857
 30
0.0
 11
-3.191047668457251
 21
-9.087196350097844
 31
0.0
  0
LINE
  5
A6E6
330
1F
100
AcDbEntity
  8
AM_0
100
AcDbLine
 10
-2.075866699219254
 20
-9.248210906982833
 30
0.0
 11
-2.065055847168259
 21
-9.042041778564865
 31
0.0
  0
LINE
  5
A6E7
330
1F
100
AcDbEntity
  8
AM_0
100
AcDbLine
 10
-1.375709533692252
 20
-8.831878662108845
 30
0.0
 11
-1.559150695801258
 21
-8.710815429687849
 31
0.0
  0
LINE
  5
A6E8
330
1F
100
AcDbEntity
  8
AM_0
100
AcDbLine
 10
-1.837089538574253
 20
-9.213348388671859
 30
0.0
 11
-1.888389587403259
 21
-9.005252838134847
 31
0.0
  0
LINE
  5
A6E9
330
1F
100
AcDbEntity
  8
AM_0
100
AcDbLine
 10
-1.617774963379253
 20
-9.107482910155864
 30
0.0
 11
-1.676300048828259
 21
-9.007362365722839
 31
0.0
  0
LINE
  5
A6EA
330
1F
100
AcDbEntity
  8
AM_0
100
AcDbLine
 10
-1.320022583008261
 20
-8.473133087157844
 30
0.0
 11
-1.286842346192254
 21
-8.477954864501864
 31
0.0
  0
LINE
  5
A6EB
330
1F
100
AcDbEntity
  8
AM_0
100
AcDbLine
 10
-1.493835449219257
 20
-8.46403503417984
 30
0.0
 11
-1.320030212403262
 21
-8.473159790038845
 31
0.0
  0
LINE
  5
A6EC
330
1F
100
AcDbEntity
  8
AM_0
100
AcDbLine
 10
-3.345787048340262
 20
-9.301437377929847
 30
0.0
 11
-3.201858520508258
 21
-9.293319702148853
 31
0.0
  0
LINE
  5
A6ED
330
1F
100
AcDbEntity
  8
AM_0
100
AcDbLine
 10
-3.201850891113259
 20
-9.293354034423845
 30
0.0
 11
-2.075866699219254
 21
-9.248218536376853
 31
0.0
  0
LINE
  5
A6EE
330
1F
100
AcDbEntity
  8
AM_0
100
AcDbLine
 10
-2.075866699219254
 20
-9.248191833495852
 30
0.0
 11
-2.042572021485261
 21
-9.24694061279284
 31
0.0
  0
LINE
  5
A6EF
330
1F
100
AcDbEntity
  8
AM_0
100
AcDbLine
 10
-1.286827087403262
 20
-8.477962493896864
 30
0.0
 11
-1.288070678711259
 21
-8.503566741942858
 31
0.0
  0
ARC
  5
A6F0
330
1F
100
AcDbEntity
  8
AM_0
100
AcDbCircle
 10
-6.182327270508261
 20
-8.696990966796862
 30
0.0
 40
0.2339781373739
100
AcDbArc
 50
240.2462778005581
 51
253.1104883097874
  0
ARC
  5
A6F1
330
1F
100
AcDbEntity
  8
AM_0
100
AcDbCircle
 10
-6.191169738770263
 20
-8.726135253905868
 30
0.0
 40
0.2035308778286
100
AcDbArc
 50
253.110556611679
 51
266.9999990059034
  0
ARC
  5
A6F2
330
1F
100
AcDbEntity
  8
AM_0
100
AcDbCircle
 10
-6.197807312012253
 20
-8.724090576171862
 30
0.0
 40
0.2027761638165
100
AcDbArc
 50
207.6298483532017
 51
240.2462846307425
  0
ARC
  5
A6F3
330
1F
100
AcDbEntity
  8
AM_0
100
AcDbCircle
 10
-6.174919128418261
 20
-8.712127685546862
 30
0.0
 40
0.2286106050014
100
AcDbArc
 50
194.4064313653306
 51
207.6297902965969
  0
LINE
  5
A6F4
330
1F
100
AcDbEntity
  8
AM_0
100
AcDbLine
 10
-6.317390441895262
 20
-9.141864776610873
 30
0.0
 11
-6.250305175781257
 21
-8.920898437499861
 31
0.0
  0
LINE
  5
A6F5
330
1F
100
AcDbEntity
  8
AM_0
100
AcDbLine
 10
-6.213447570801257
 20
-9.151180267333872
 30
0.0
 11
-6.201820373535263
 21
-8.929378509521869
 31
0.0
  0
LINE
  5
A6F6
330
1F
100
AcDbEntity
  8
AM_0
100
AcDbLine
 10
-6.416503906250262
 20
-9.106685638427878
 30
0.0
 11
-6.298431396485263
 21
-8.900138854980854
 31
0.0
  0
LINE
  5
A6F7
330
1F
100
AcDbEntity
  8
AM_0
100
AcDbLine
 10
-6.582855224610263
 20
-8.925643920898849
 30
0.0
 11
-6.377464294434255
 21
-8.818134307860859
 31
0.0
  0
LINE
  5
A6F8
330
1F
100
AcDbEntity
  8
AM_0
100
AcDbLine
 10
-5.796852111817255
 20
-9.966979980468863
 30
0.0
 11
-6.926475524903263
 21
-9.954498291015855
 31
0.0
  0
LINE
  5
A6F9
330
1F
100
AcDbEntity
  8
AM_0
100
AcDbLine
 10
-6.24931335449225
 20
-9.149715423583872
 30
0.0
 11
-6.213439941406257
 21
-9.151180267333872
 31
0.0
  0
LINE
  5
A6FA
330
1F
100
AcDbEntity
  8
AM_0
100
AcDbLine
 10
-8.799652099610261
 20
-10.77190780639686
 30
0.0
 11
-8.781486511231257
 21
-10.88431167602486
 31
0.0
  0
LINE
  5
A6FB
330
1F
100
AcDbEntity
  8
AM_0
100
AcDbLine
 10
-9.04428863525425
 20
-9.258846282958856
 30
0.0
 11
-8.799659729004254
 21
-10.77191543579085
 31
0.0
  0
LINE
  5
A6FC
330
1F
100
AcDbEntity
  8
AM_0
100
AcDbLine
 10
-8.781486511231257
 20
-10.88431930541986
 30
0.0
 11
-8.80162811279326
 21
-10.77222442626984
 31
0.0
  0
LINE
  5
A6FD
330
1F
100
AcDbEntity
  8
AM_0
100
AcDbLine
 10
-9.733322143555268
 20
-9.653167724608877
 30
0.0
 11
-17.03308105468827
 21
-9.641662597655864
 31
0.0
  0
LINE
  5
A6FE
330
1F
100
AcDbEntity
  8
AM_0
100
AcDbLine
 10
-17.22166442871125
 20
-10.08084487914989
 30
0.0
 11
-9.728965759278263
 21
-10.09265518188486
 31
0.0
  0
LINE
  5
A6FF
330
1F
100
AcDbEntity
  8
AM_0
100
AcDbLine
 10
-17.21421051025426
 20
-9.814384460448893
 30
0.0
 11
-9.724601745606261
 21
-9.826194763183861
 31
0.0
  0
LINE
  5
A700
330
1F
100
AcDbEntity
  8
AM_0
100
AcDbLine
 10
-9.552574157715262
 20
-8.496944427489864
 30
0.0
 11
-9.733314514160268
 21
-9.653160095214857
 31
0.0
  0
LINE
  5
A701
330
1F
100
AcDbEntity
  8
AM_0
100
AcDbLine
 10
-12.17617034912126
 20
-6.125602722167865
 30
0.0
 11
-12.09123992919926
 21
-7.810199737548867
 31
0.0
  0
LINE
  5
A702
330
1F
100
AcDbEntity
  8
AM_0
100
AcDbLine
 10
-9.309532165528265
 20
-9.734310150146864
 30
0.0
 11
-9.501037597656264
 21
-9.648983001708858
 31
0.0
  0
LINE
  5
A703
330
1F
100
AcDbEntity
  8
AM_0
100
AcDbLine
 10
-9.309394836426262
 20
-9.828212738036864
 30
0.0
 11
-9.520179748535268
 21
-9.684413909911866
 31
0.0
  0
LINE
  5
A704
330
1F
100
AcDbEntity
  8
AM_0
100
AcDbLine
 10
-9.335281372071261
 20
-9.918270111083856
 30
0.0
 11
-9.536163330078265
 21
-9.726932525634866
 31
0.0
  0
LINE
  5
A705
330
1F
100
AcDbEntity
  8
AM_0
100
AcDbLine
 10
-9.498626708985264
 20
-10.06740188598585
 30
0.0
 11
-9.609977722168265
 21
-9.79880142211887
 31
0.0
  0
LINE
  5
A706
330
1F
100
AcDbEntity
  8
AM_0
100
AcDbLine
 10
-9.728973388672255
 20
-10.09266281127885
 30
0.0
 11
-9.724594116211262
 21
-9.826190948485857
 31
0.0
  0
LINE
  5
A707
330
1F
100
AcDbEntity
  8
AM_0
100
AcDbLine
 10
-9.309539794922256
 20
-9.734310150146864
 30
0.0
 11
-9.322486877442255
 21
-9.477523803710864
 31
0.0
  0
LINE
  5
A708
330
1F
100
AcDbEntity
  8
AM_0
100
AcDbLine
 10
-9.307693481446262
 20
-9.766178131103869
 30
0.0
 11
-9.309539794922256
 21
-9.734310150146864
 31
0.0
  0
LINE
  5
A709
330
1F
100
AcDbEntity
  8
AM_0
100
AcDbLine
 10
-9.684547424317253
 20
-10.09420394897485
 30
0.0
 11
-9.728973388672255
 21
-10.09264755248985
 31
0.0
  0
LINE
  5
A70A
330
1F
100
AcDbEntity
  8
AM_0
100
AcDbLine
 10
-17.21788787841825
 20
-10.03815841674789
 30
0.0
 11
-17.22166442871125
 21
-10.08083724975587
 31
0.0
  0
LINE
  5
A70B
330
1F
100
AcDbEntity
  8
AM_0
100
AcDbLine
 10
-17.22168731689526
 20
-10.08093643188489
 30
0.0
 11
-17.21788787841825
 21
-10.03813552856486
 31
0.0
  0
LINE
  5
A70C
330
1F
100
AcDbEntity
  8
AM_0
100
AcDbLine
 10
-17.22167968750026
 20
-10.08092117309588
 30
0.0
 11
-17.24724578857424
 21
-10.08119583129887
 31
0.0
  0
LINE
  5
A70D
330
1F
100
AcDbEntity
  8
AM_0
100
AcDbLine
 10
-40.00000000000028
 20
0.0000000000000657
 30
0.0
 11
-40.00000000000031
 21
12.00000000000006
 31
0.0
  0
LINE
  5
A70E
330
1F
100
AcDbEntity
  8
AM_0
100
AcDbLine
 10
-40.86602401733427
 20
0.0000000000000765
 30
0.0
 11
-40.8660240173343
 21
12.50000000000007
 31
0.0
  0
LINE
  5
A70F
330
1F
100
AcDbEntity
  8
AM_0
100
AcDbLine
 10
-25.85229110717829
 20
6.457878112793088
 30
0.0
 11
-24.19457244873129
 21
6.398796081543094
 31
0.0
  0
LINE
  5
A710
330
1F
100
AcDbEntity
  8
AM_0
100
AcDbLine
 10
-17.48148345947329
 20
10.88431167602512
 30
0.0
 11
-17.4000015258793
 21
11.95188522338911
 31
0.0
  0
LINE
  5
A711
330
1F
100
AcDbEntity
  8
AM_0
100
AcDbLine
 10
-17.76583862304729
 20
12.3226165771481
 30
0.0
 11
-17.61362457275431
 21
12.29713058471712
 31
0.0
  0
LINE
  5
A712
330
1F
100
AcDbEntity
  8
AM_0
100
AcDbLine
 10
-21.19770431518629
 20
5.993072509766117
 30
0.0
 11
-24.2153320312503
 21
6.102386474609103
 31
0.0
  0
LINE
  5
A713
330
1F
100
AcDbEntity
  8
AM_0
100
AcDbLine
 10
-17.36095428466829
 20
7.172279357910111
 30
0.0
 11
-17.32524108886728
 21
7.682353973389108
 31
0.0
  0
LINE
  5
A714
330
1F
100
AcDbEntity
  8
AM_0
100
AcDbLine
 10
-21.17682647705129
 20
6.291225433350102
 30
0.0
 11
-19.49944305419928
 21
6.231441497803119
 31
0.0
  0
LINE
  5
A715
330
1F
100
AcDbEntity
  8
AM_0
100
AcDbLine
 10
-21.19770431518629
 20
5.993068695068113
 30
0.0
 11
-21.17682647705129
 21
6.291229248047112
 31
0.0
  0
LINE
  5
A716
330
1F
100
AcDbEntity
  8
AM_0
100
AcDbLine
 10
-18.25199127197328
 20
6.367427825928111
 30
0.0
 11
-18.14183044433628
 21
6.831771850586116
 31
0.0
  0
LINE
  5
A717
330
1F
100
AcDbEntity
  8
AM_0
100
AcDbLine
 10
-18.13134002685629
 20
6.875995635986107
 30
0.0
 11
-18.12178802490329
 21
6.924320220947116
 31
0.0
  0
LINE
  5
A718
330
1F
100
AcDbEntity
  8
AM_0
100
AcDbLine
 10
-18.94873809814529
 20
6.234191894531113
 30
0.0
 11
-18.93907165527428
 21
6.274929046631105
 31
0.0
  0
LINE
  5
A719
330
1F
100
AcDbEntity
  8
AM_0
100
AcDbLine
 10
-24.17818450927829
 20
6.256195068359103
 30
0.0
 11
-24.11812973022529
 21
6.253997802734103
 31
0.0
  0
LINE
  5
A71A
330
1F
100
AcDbEntity
  8
AM_0
100
AcDbLine
 10
-24.11812973022529
 20
6.253997802734103
 30
0.0
 11
-24.0773925781253
 21
6.097721099853102
 31
0.0
  0
LINE
  5
A71B
330
1F
100
AcDbEntity
  8
AM_0
100
AcDbLine
 10
-24.11812973022529
 20
6.253986358642108
 30
0.0
 11
-24.12896728515629
 21
6.099243164062115
 31
0.0
  0
LINE
  5
A71C
330
1F
100
AcDbEntity
  8
AM_0
100
AcDbLine
 10
-24.19456481933629
 20
6.398792266846114
 30
0.0
 11
-24.1602706909183
 21
6.100372314453109
 31
0.0
  0
LINE
  5
A71D
330
1F
100
AcDbEntity
  8
AM_0
100
AcDbLine
 10
-24.19457244873129
 20
6.398815155029109
 30
0.0
 11
-24.21532821655329
 21
6.102390289307109
 31
0.0
  0
LINE
  5
A71E
330
1F
100
AcDbEntity
  8
AM_0
100
AcDbLine
 10
-28.0291519165043
 20
8.644031524658103
 30
0.0
 11
-27.56593704223729
 21
10.66539764404309
 31
0.0
  0
LINE
  5
A71F
330
1F
100
AcDbEntity
  8
AM_0
100
AcDbLine
 10
-28.0147438049323
 20
9.04846572876009
 30
0.0
 11
-27.56839370727628
 21
10.99623489379909
 31
0.0
  0
LINE
  5
A720
330
1F
100
AcDbEntity
  8
AM_0
100
AcDbLine
 10
-28.08445358276427
 20
6.678627014160096
 30
0.0
 11
-27.35464096069428
 21
5.970520019531093
 31
0.0
  0
LINE
  5
A721
330
1F
100
AcDbEntity
  8
AM_0
100
AcDbLine
 10
-28.07328414917029
 20
7.800102233887099
 30
0.0
 11
-28.18320083618229
 21
6.914440155029094
 31
0.0
  0
LINE
  5
A722
330
1F
100
AcDbEntity
  8
AM_0
100
AcDbLine
 10
-27.82569885253929
 20
6.59688186645509
 30
0.0
 11
-27.97790145874029
 21
6.622364044189095
 31
0.0
  0
LINE
  5
A723
330
1F
100
AcDbEntity
  8
AM_0
100
AcDbLine
 10
-38.14721298217831
 20
12.00000000000007
 30
0.0
 11
-40.00000000000031
 21
12.00000000000006
 31
0.0
  0
LINE
  5
A724
330
1F
100
AcDbEntity
  8
AM_0
100
AcDbLine
 10
-39.99999618530331
 20
12.00000381469707
 30
0.0
 11
-40.86602020263732
 21
12.50000762939408
 31
0.0
  0
LINE
  5
A725
330
1F
100
AcDbEntity
  8
AM_0
100
AcDbLine
 10
-18.16270446777426
 20
-9.987449645995887
 30
0.0
 11
-18.15696716308626
 21
-9.950725555419882
 31
0.0
  0
LINE
  5
A726
330
1F
100
AcDbEntity
  8
AM_0
100
AcDbLine
 10
-18.52761077880925
 20
-10.65796661376988
 30
0.0
 11
-18.16271209716826
 21
-9.987457275390871
 31
0.0
  0
LINE
  5
A727
330
1F
100
AcDbEntity
  8
AM_0
100
AcDbLine
 10
-18.00451660156326
 20
-9.640560150146898
 30
0.0
 11
-17.94102478027426
 21
-9.598724365233881
 31
0.0
  0
LINE
  5
A728
330
1F
100
AcDbEntity
  8
AM_0
100
AcDbLine
 10
-17.87885284423827
 20
-9.827850341796892
 30
0.0
 11
-17.68544769287126
 21
-9.631324768066878
 31
0.0
  0
LINE
  5
A729
330
1F
100
AcDbEntity
  8
AM_0
100
AcDbLine
 10
-17.58207702636724
 20
-10.02421951293986
 30
0.0
 11
-17.46532440185626
 21
-9.769592285155866
 31
0.0
  0
LINE
  5
A72A
330
1F
100
AcDbEntity
  8
AM_0
100
AcDbLine
 10
-18.62593078613324
 20
-11.07536315917987
 30
0.0
 11
-18.72019958496125
 21
-10.66293334960888
 31
0.0
  0
LINE
  5
A72B
330
1F
100
AcDbEntity
  8
AM_0
100
AcDbLine
 10
-18.02319335937527
 20
-9.594882965087879
 30
0.0
 11
-18.00453186035226
 21
-9.640563964843881
 31
0.0
  0
LINE
  5
A72C
330
1F
100
AcDbEntity
  8
AM_0
100
AcDbLine
 10
-18.12181091308626
 20
-9.644840240478876
 30
0.0
 11
-18.10283660888726
 21
-9.590988159179877
 31
0.0
  0
LINE
  5
A72D
330
1F
100
AcDbEntity
  8
AM_0
100
AcDbLine
 10
-17.68544006347726
 20
-9.631313323974881
 30
0.0
 11
-17.70588684082126
 21
-9.610202789306885
 31
0.0
  0
LINE
  5
A72E
330
1F
100
AcDbEntity
  8
AM_0
100
AcDbLine
 10
-40.00000000000024
 20
-12.00000381469694
 30
0.0
 11
-40.00000000000028
 21
0.0000000000000657
 31
0.0
  0
LINE
  5
A72F
330
1F
100
AcDbEntity
  8
AM_0
100
AcDbLine
 10
-40.86602401733424
 20
-12.50000381469694
 30
0.0
 11
-40.86602401733427
 21
0.0000000000000765
 31
0.0
  0
LINE
  5
A730
330
1F
100
AcDbEntity
  8
AM_0
100
AcDbLine
 10
-38.25701904296925
 20
-11.54270172119192
 30
0.0
 11
-38.00875854492224
 21
-11.31947326660191
 31
0.0
  0
LINE
  5
A731
330
1F
100
AcDbEntity
  8
AM_0
100
AcDbLine
 10
-40.00000000000024
 20
-12.00000381469694
 30
0.0
 11
-36.64436340332124
 21
-12.00000381469692
 31
0.0
  0
LINE
  5
A732
330
1F
100
AcDbEntity
  8
AM_0
100
AcDbLine
 10
-40.86602401733424
 20
-12.50001144409193
 30
0.0
 11
-40.00000000000024
 21
-12.00001144409193
 31
0.0
  0
LINE
  5
A733
330
1F
100
AcDbEntity
  8
AM_0
100
AcDbLine
 10
-219.9999999999963
 20
-0.0000000000002791
 30
0.0
 11
-219.9999999999963
 21
10.16149902343672
 31
0.0
  0
LINE
  5
A734
330
1F
100
AcDbEntity
  8
AM_0
100
AcDbLine
 10
-216.9999999999963
 20
-0.0000000000002532
 30
0.0
 11
-216.9999999999963
 21
12.49999999999974
 31
0.0
  0
ARC
  5
A736
330
1F
100
AcDbEntity
  8
AM_0
100
AcDbCircle
 10
-217.9999999999963
 20
10.16149902343673
 30
0.0
 40
2.000000238418599
100
AcDbArc
 50
104.9999944978371
 51
180.0
  0
LINE
  5
A737
330
1F
100
AcDbEntity
  8
AM_0
100
AcDbLine
 10
-216.9999847412062
 20
12.49998474121073
 30
0.0
 11
-218.5176239013662
 21
12.09333801269474
 31
0.0
  0
LINE
  5
A738
330
1F
100
AcDbEntity
  8
AM_0
100
AcDbLine
 10
-219.9999999999963
 20
-10.16149902343827
 30
0.0
 11
-219.9999999999963
 21
-0.0000000000002791
 31
0.0
  0
LINE
  5
A739
330
1F
100
AcDbEntity
  8
AM_0
100
AcDbLine
 10
-216.9999999999963
 20
-12.50000381469726
 30
0.0
 11
-216.9999999999963
 21
-0.0000000000002532
 31
0.0
  0
ARC
  5
A73A
330
1F
100
AcDbEntity
  8
AM_0
100
AcDbCircle
 10
-217.9999999999963
 20
-10.16149902343826
 30
0.0
 40
2.0
100
AcDbArc
 50
180.0
 51
255.0000055021632
  0
LINE
  5
A73B
330
1F
100
AcDbEntity
  8
AM_0
100
AcDbLine
 10
-218.5176239013662
 20
-12.09334182739326
 30
0.0
 11
-216.9999847412063
 21
-12.49998855590826
 31
0.0
  0
LINE
  5
A73C
330
1F
100
AcDbEntity
  8
AM_0
100
AcDbLine
 10
-218.5176239013662
 20
-12.09335708618226
 30
0.0
 11
-216.9999999999963
 21
-12.50000381469726
 31
0.0
  0
LINE
  5
A7D7
330
1F
100
AcDbEntity
  8
AM_11
100
AcDbLine
 10
-26.0000000000003
 20
13.0154907226561
 30
0.0
 11
-0.0000000000003135
 21
13.01549072265615
 31
0.0
  0
LINE
  5
A7D8
330
1F
100
AcDbEntity
  8
AM_11
100
AcDbLine
 10
-0.0000000000002549
 20
-13.01549072265584
 30
0.0
 11
-0.0000000000003135
 21
13.01549072265615
 31
0.0
  0
LINE
  5
A7D9
330
1F
100
AcDbEntity
  8
AM_11
100
AcDbLine
 10
-26.00000000000026
 20
-13.01549072265586
 30
0.0
 11
-0.0000000000002549
 21
-13.01549072265584
 31
0.0
  0
LINE
  5
A7E1
330
1F
100
AcDbEntity
  8
AM_11
100
AcDbLine
 10
-26.00000000000026
 20
-13.01549072265586
 30
0.0
 11
-26.0000000000003
 21
13.0154907226561
 31
0.0
  0
DIMENSION
  5
A7E9
330
1F
100
AcDbEntity
  8
AM_5
100
AcDbDimension
  2
*D2
 10
-0.0000000000002841
 20
26.61549172265615
 30
0.0
 11
-13.00000000000028
 21
29.21549172265617
 31
0.0
 70
    32
  1
<>
 71
     5
 42
-1.0
 51
359.9999999999998
  3
AM_JIS$0
100
AcDbAlignedDimension
 13
-26.00000000000031
 23
13.01549072265607
 33
0.0
 14
-0.0000000000003091
 24
13.01549072265615
 34
0.0
 50
180.0
100
AcDbRotatedDimension
1001
GENIUS_GENDTOL_13
1000

1000
h7
1000

1040
0.0
1001
ACAD
1000
DSTYLE
1002
{
1070
   287
1070
     3
1070
    42
1040
2.0
1070
    43
1040
12.0
1070
    44
1040
2.0
1070
    48
1040
0.1
1070
    78
1070
     8
1070
   140
1040
3.2
1070
   147
1040
1.0
1070
   176
1070
   256
1070
   177
1070
   256
1070
   271
1070
     1
1070
   272
1070
     3
1070
   275
1070
     0
1070
   284
1070
     0
1070
   289
1070
     3
1070
   340
1005
6B
1070
   371
1070
    -1
1070
   372
1070
    -1
1002
}
  0
DIMENSION
  5
A8A2
330
1F
100
AcDbEntity
  8
AM_5
100
AcDbDimension
  2
*D3
 10
15.55177407128871
 20
-13.01549072265585
 30
0.0
 11
12.95177407128872
 21
0.0000000000001504
 31
0.0
 70
    32
  1
%%c<>
 71
     5
 42
-1.0
 51
359.9999999999998
  3
AM_JIS$0
100
AcDbAlignedDimension
 13
-0.0000000000003091
 23
13.01549072265615
 33
0.0
 14
-0.0000000000002665
 24
-13.01549072265584
 34
0.0
 50
90.0
100
AcDbRotatedDimension
1001
GENIUS_GENDTOL_13
1000

1000
h7
1000

1040
0.0
1001
ACAD
1000
DSTYLE
1002
{
1070
   287
1070
     3
1070
    42
1040
2.0
1070
    43
1040
12.0
1070
    44
1040
2.0
1070
    48
1040
0.1
1070
    78
1070
     8
1070
   140
1040
3.2
1070
   147
1040
1.0
1070
   176
1070
   256
1070
   177
1070
   256
1070
   271
1070
     1
1070
   272
1070
     3
1070
   275
1070
     0
1070
   284
1070
     0
1070
   289
1070
     3
1070
   340
1005
6B
1070
   371
1070
    -1
1070
   372
1070
    -1
1002
}
  0
DIMENSION
  5
A97F
330
1F
100
AcDbEntity
  8
AM_5
100
AcDbDimension
  2
*D4
 10
-39.99999618530326
 20
-26.81549172265589
 30
0.0
 11
-19.99999809265176
 21
-24.21549172265589
 31
0.0
 70
    32
  1
<>
 71
     5
 42
-1.0
 51
359.9999999999998
  3
AM_JIS$0
100
AcDbAlignedDimension
 13
-0.0000000000002629
 23
-12.81549072265583
 33
0.0
 14
-39.99999618530326
 24
-12.00000381469692
 34
0.0
100
AcDbRotatedDimension
1001
GENIUS_GENDTOL_13
1000

1000
h7
1000

1040
0.0
1001
ACAD
1000
DSTYLE
1002
{
1070
   287
1070
     3
1070
    42
1040
2.0
1070
    43
1040
12.0
1070
    44
1040
2.0
1070
    48
1040
0.1
1070
    78
1070
     8
1070
   140
1040
3.2
1070
   147
1040
1.0
1070
   176
1070
   256
1070
   177
1070
   256
1070
   271
1070
     1
1070
   272
1070
     3
1070
   275
1070
     0
1070
   284
1070
     0
1070
   289
1070
     3
1070
   340
1005
6B
1070
   371
1070
    -1
1070
   372
1070
    -1
1002
}
  0
DIMENSION
  5
AA0B
330
1F
100
AcDbEntity
  8
AM_5
100
AcDbDimension
  2
*D5
 10
-219.9999999999963
 20
-26.81549172265589
 30
0.0
 11
-129.9999999999982
 21
-24.21549172265589
 31
0.0
 70
    32
  1
<>
 71
     5
 42
-1.0
 51
359.9999999999998
  3
AM_JIS$0
100
AcDbAlignedDimension
 13
-40.00000000000027
 23
-11.99999999999991
 33
0.0
 14
-219.9999999999963
 24
-10.16149902343727
 34
0.0
100
AcDbRotatedDimension
1001
GENIUS_GENDTOL_13
1000

1000
h7
1000

1040
0.0
1001
ACAD
1000
DSTYLE
1002
{
1070
   287
1070
     3
1070
    42
1040
2.0
1070
    43
1040
12.0
1070
    44
1040
2.0
1070
    48
1040
0.1
1070
    78
1070
     8
1070
   140
1040
3.2
1070
   147
1040
1.0
1070
   176
1070
   256
1070
   177
1070
   256
1070
   271
1070
     1
1070
   272
1070
     3
1070
   275
1070
     0
1070
   284
1070
     0
1070
   289
1070
     3
1070
   340
1005
6B
1070
   371
1070
    -1
1070
   372
1070
    -1
1002
}
  0
DIMENSION
  5
AAB2
330
1F
100
AcDbEntity
  8
AM_5
100
AcDbDimension
  2
*D6
 10
-219.9999999999963
 20
-36.81549172265589
 30
0.0
 11
-109.9999999999982
 21
-34.21549172265589
 31
0.0
 70
    32
  1
<>
 71
     5
 42
-1.0
 51
359.9999999999998
  3
AM_JIS$0
100
AcDbAlignedDimension
 13
-0.0000000000002629
 23
-12.81549072265583
 33
0.0
 14
-219.9999999999963
 24
-10.16149902343727
 34
0.0
100
AcDbRotatedDimension
1001
GENIUS_GENDTOL_13
1000

1000
h7
1000

1040
0.0
1001
ACAD
1000
DSTYLE
1002
{
1070
   287
1070
     3
1070
   147
1040
1.0
1070
    44
1040
2.0
1070
    41
1040
2.5
1070
    40
1040
1.0
1070
    42
1040
2.0
1070
    43
1040
12.0
1070
    48
1040
0.1
1070
    78
1070
     8
1070
   140
1040
3.2
1070
   176
1070
   256
1070
   177
1070
   256
1070
   271
1070
     1
1070
   272
1070
     3
1070
   275
1070
     0
1070
   284
1070
     0
1070
   289
1070
     3
1070
   340
1005
6B
1070
   371
1070
    -1
1070
   372
1070
    -1
1002
}
  0
DIMENSION
  5
AB47
330
1F
100
AcDbEntity
  8
AM_5
100
AcDbDimension
  2
*D7
 10
-238.9693460927663
 20
-12.49998065266559
 30
0.0
 11
-241.5693460927663
 21
0.000011581015518
 31
0.0
 70
    32
  1
%%c<>
 71
     5
 42
-1.0
 51
359.9999999999998
  3
AM_JIS$0
100
AcDbAlignedDimension
 13
-216.9999999999963
 23
12.50000381469669
 33
0.0
 14
-216.9999999999962
 24
-12.49998065266559
 34
0.0
 50
270.0000000000002
100
AcDbRotatedDimension
1001
GENIUS_GENDTOL_13
1000

1000
h7
1000

1040
0.0
1001
ACAD
1000
DSTYLE
1002
{
1070
   287
1070
     3
1070
    42
1040
2.0
1070
    43
1040
12.0
1070
    44
1040
2.0
1070
    48
1040
0.1
1070
    78
1070
     8
1070
   140
1040
3.2
1070
   147
1040
1.0
1070
   176
1070
   256
1070
   177
1070
   256
1070
   271
1070
     1
1070
   272
1070
     3
1070
   275
1070
     0
1070
   284
1070
     0
1070
   289
1070
     3
1070
   340
1005
6B
1070
   371
1070
    -1
1070
   372
1070
    -1
1002
}
  0
VIEWPORT
  5
110
102
{ACAD_XDICTIONARY
360
B13B
102
}
330
101
100
AcDbEntity
 67
     1
  8
0
100
AcDbViewport
 10
420.5
 20
297.0
 30
0.0
 40
948.9782706766916
 41
628.452
 68
     1
 69
     1
 12
420.5
 22
297.0
 13
0.0
 23
0.0
 14
10.0
 24
10.0
 15
10.0
 25
10.0
 16
0.0
 26
0.0
 36
1.0
 17
0.0
 27
0.0
 37
0.0
 42
50.0
 43
0.0
 44
0.0
 45
628.452
 50
0.0
 51
0.0
 72
   100
 90
    32800
  1

281
     0
 71
     1
 74
     0
110
-0.0000000000002682
120
0.000000000000161
130
0.0
111
1.0
121
0.000000000000002
131
0.0
112
-0.000000000000002
122
1.0
132
0.0
 79
     0
146
0.0
1001
GENIUS_GENSCREG_15
1000
PF
1040
1.0
1000
DF
1040
1.0
1000
MIN
1011
-53.98913533834582
1021
-17.226
1031
0.0
1000
MAX
1011
894.9891353383458
1021
611.226
1031
0.0
1000
FLAGS
1070
     4
1001
GENIUS_GENOBJ-N-SDF_13
1002
{
1000
OWNER
1000
GEN
1002
}
1001
GENIUS_GENODEF_13
1002
{
1000
HIER
1070
     0
1002
}
1002
{
1000
MANEDIT
1070
     0
1002
}
1002
{
1000
NOSEL
1070
     0
1002
}
1002
{
1000
BEHIND
1070
     0
1002
}
1002
{
1000
OTHER
1070
     0
1002
}
1002
{
1000
REACTOR
1002
}
  0
ENDSEC
  0
SECTION
  2
OBJECTS
  0
DICTIONARY
  5
C
330
0
100
AcDbDictionary
281
     1
  3
ACAD_COLOR
350
B06D
  3
ACAD_GROUP
350
D
  3
ACAD_LAYOUT
350
1A
  3
ACAD_MATERIAL
350
B06C
  3
ACAD_MLINESTYLE
350
17
  3
ACAD_PLOTSETTINGS
350
19
  3
ACAD_PLOTSTYLENAME
350
E
  3
ACAD_TABLESTYLE
350
B06E
  3
ACDBHEADERROUNDTRIPXREC
350
B13A
  3
ACDBVARIABLEDICTIONARY
350
34
  3
ACMDICTIONARY
350
43
  3
AMG
350
2B
  3
AMGSNAPSETTINGS
350
6E
  3
DWGPROPS
350
B139
  0
DICTIONARY
  5
74
330
1F
100
AcDbDictionary
280
     1
281
     1
  3
ACAD_INDEX
360
AFF7
  3
ACAD_LAYOUTSELFREF
360
B029
  0
DICTIONARY
  5
B02E
330
101
100
AcDbDictionary
280
     1
281
     1
  3
ACAD_LAYOUTSELFREF
360
B02F
  0
DICTIONARY
  5
B13B
330
110
100
AcDbDictionary
280
     1
281
     1
  3
ACAD_XREC_ROUNDTRIP
360
B13C
  0
DICTIONARY
  5
B06D
102
{ACAD_REACTORS
330
C
102
}
330
C
100
AcDbDictionary
281
     1
  0
DICTIONARY
  5
D
102
{ACAD_REACTORS
330
C
102
}
330
C
100
AcDbDictionary
281
     1
  0
DICTIONARY
  5
1A
102
{ACAD_REACTORS
330
C
102
}
330
C
100
AcDbDictionary
281
     1
  3
Model
350
B070
  3
レイアウト1
350
B071
  0
DICTIONARY
  5
B06C
102
{ACAD_REACTORS
330
C
102
}
330
C
100
AcDbDictionary
281
     1
  0
DICTIONARY
  5
17
102
{ACAD_REACTORS
330
C
102
}
330
C
100
AcDbDictionary
281
     1
  3
STANDARD
350
18
  0
DICTIONARY
  5
19
102
{ACAD_REACTORS
330
C
102
}
330
C
100
AcDbDictionary
281
     1
  3
ASAMI
350
399D
  0
ACDBDICTIONARYWDFLT
  5
E
102
{ACAD_REACTORS
330
C
102
}
330
C
100
AcDbDictionary
281
     1
  3
Normal
350
F
100
AcDbDictionaryWithDefault
340
F
  0
DICTIONARY
  5
B06E
102
{ACAD_REACTORS
330
C
102
}
330
C
100
AcDbDictionary
281
     1
  3
Standard
350
B06F
  0
DICTIONARY
  5
B13A
102
{ACAD_REACTORS
330
C
102
}
330
C
100
AcDbDictionary
281
     1
  0
DICTIONARY
  5
34
102
{ACAD_REACTORS
330
C
102
}
330
C
100
AcDbDictionary
281
     1
  3
CTABLESTYLE
350
B135
  3
DIMASSOC
350
B136
  3
INDEXCTL
350
35
  3
PROJECTNAME
350
B137
  3
SORTENTS
350
B5E
  0
DICTIONARY
  5
43
102
{ACAD_REACTORS
330
C
102
}
330
C
100
AcDbDictionary
281
     1
  3
ACMSTDDICTIONARY
350
260
  0
DICTIONARY
  5
2B
102
{ACAD_REACTORS
330
C
102
}
330
C
100
AcDbDictionary
281
     1
  0
DICTIONARY
  5
6E
102
{ACAD_REACTORS
330
C
102
}
330
C
100
AcDbDictionary
281
     1
  0
XRECORD
  5
B139
102
{ACAD_REACTORS
330
C
102
}
330
C
100
AcDbXrecord
280
     1
  1
DWGPROPS COOKIE
  2

  3

  4

  6

  7

  8
那須
  9

300
AmdtFileType=82
301
=
302
=
303
=
304
=
305
=
306
=
307
=
308
=
309
=
 40
0.9408802314814813
 41
2452802.716478762
 42
2453691.648306204
  1

 90
        1
  0
DICTIONARY
  5
AFF7
102
{ACAD_REACTORS
330
74
102
}
330
74
100
AcDbDictionary
281
     1
  3
*A1
350
AFF8
  0
XRECORD
  5
B029
102
{ACAD_REACTORS
330
74
102
}
330
74
100
AcDbXrecord
280
     1
340
1F
  0
XRECORD
  5
B02F
102
{ACAD_REACTORS
330
B02E
102
}
330
B02E
100
AcDbXrecord
280
     1
340
101
  0
XRECORD
  5
B13C
102
{ACAD_REACTORS
330
B13B
102
}
330
B13B
100
AcDbXrecord
280
     1
102
SHADEPLOT
 70
     0
  0
LAYOUT
  5
B070
102
{ACAD_XDICTIONARY
360
B13F
102
}
102
{ACAD_REACTORS
330
1A
102
}
330
1A
100
AcDbPlotSettings
  1

  2
SII LP-2150 (D-SCAN C2)
  4

  6

 40
0.0
 41
0.0
 42
0.0
 43
0.0
 44
0.0
 45
0.0
 46
0.0
 47
0.0
 48
0.0
 49
0.0
140
0.0
141
0.0
142
1.0
143
1.0
 70
  1712
 72
     0
 73
     0
 74
     0
  7
sei_cad.ctb
 75
     0
147
1.0
148
0.0
149
0.0
100
AcDbLayout
  1
Model
 70
     1
 71
     0
 10
0.0
 20
0.0
 11
12.0
 21
9.0
 12
0.0
 22
0.0
 32
0.0
 14
0.0
 24
0.0
 34
0.0
 15
0.0
 25
0.0
 35
0.0
146
0.0
 13
0.0
 23
0.0
 33
0.0
 16
1.0
 26
0.0
 36
0.0
 17
0.0
 27
1.0
 37
0.0
 76
     0
330
1F
  0
LAYOUT
  5
B071
102
{ACAD_XDICTIONARY
360
B141
102
}
102
{ACAD_REACTORS
330
1A
102
}
330
1A
100
AcDbPlotSettings
  1

  2
SII LP-2150 (D-SCAN C2)
  4

  6

 40
0.0
 41
0.0
 42
0.0
 43
0.0
 44
0.0
 45
0.0
 46
0.0
 47
0.0
 48
0.0
 49
0.0
140
0.0
141
0.0
142
1.0
143
1.0
 70
   688
 72
     0
 73
     0
 74
     5
  7
sei_cad.ctb
 75
    16
147
1.0
148
0.0
149
0.0
100
AcDbLayout
  1
レイアウト1
 70
     0
 71
     1
 10
0.0
 20
0.0
 11
841.0
 21
594.0
 12
0.0
 22
0.0
 32
0.0
 14
1.000000000000000E+20
 24
1.000000000000000E+20
 34
1.000000000000000E+20
 15
-1.000000000000000E+20
 25
-1.000000000000000E+20
 35
-1.000000000000000E+20
146
0.0
 13
0.0
 23
0.0
 33
0.0
 16
1.0
 26
0.0
 36
0.0
 17
0.0
 27
1.0
 37
0.0
 76
     0
330
101
331
110
  0
MLINESTYLE
  5
18
102
{ACAD_REACTORS
330
17
102
}
330
17
100
AcDbMlineStyle
  2
STANDARD
 70
     0
  3

 62
   256
 51
90.0
 52
90.0
 71
     2
 49
0.5
 62
   256
  6
BYLAYER
 49
-0.5
 62
   256
  6
BYLAYER
  0
PLOTSETTINGS
  5
399D
102
{ACAD_XDICTIONARY
360
B13D
102
}
102
{ACAD_REACTORS
330
19
102
}
330
19
100
AcDbPlotSettings
  1
asami
  2
RICOH imagio MF1540
  4
A4
  6

 40
5.831416606903076
 41
7.651742935180664
 42
4.90008544921875
 43
5.789077758789062
 44
296.9683227539062
 45
209.9733276367186
 46
0.0
 47
0.0
 48
-156.6707931774246
 49
-74.57609991074048
140
58.59973180214831
141
60.61068161925597
142
1.0
143
1.095343097833084
 70
  1712
 72
     1
 73
     1
 74
     4
  7
asami.ctb
 75
     0
147
0.9129559514076438
148
156.6707931774246
149
74.57609991074048
  0
ACDBPLACEHOLDER
  5
F
102
{ACAD_REACTORS
330
E
102
}
330
E
  0
TABLESTYLE
  5
B06F
102
{ACAD_REACTORS
330
B06E
102
}
330
B06E
100
AcDbTableStyle
  3
Standard
 70
     0
 71
     0
 40
1.5
 41
1.5
280
     0
281
     0
  7
STANDARD
140
4.5
170
     2
 62
     0
 63
     7
283
     0
274
    -2
284
     1
 64
     0
275
    -2
285
     1
 65
     0
276
    -2
286
     1
 66
     0
277
    -2
287
     1
 67
     0
278
    -2
288
     1
 68
     0
279
    -2
289
     1
 69
     0
  7
STANDARD
140
6.0
170
     5
 62
     0
 63
     7
283
     0
274
    -2
284
     1
 64
     0
275
    -2
285
     1
 65
     0
276
    -2
286
     1
 66
     0
277
    -2
287
     1
 67
     0
278
    -2
288
     1
 68
     0
279
    -2
289
     1
 69
     0
  7
STANDARD
140
4.5
170
     5
 62
     0
 63
     7
283
     0
274
    -2
284
     1
 64
     0
275
    -2
285
     1
 65
     0
276
    -2
286
     1
 66
     0
277
    -2
287
     1
 67
     0
278
    -2
288
     1
 68
     0
279
    -2
289
     1
 69
     0
  0
DICTIONARYVAR
  5
B135
102
{ACAD_REACTORS
330
34
102
}
330
34
100
DictionaryVariables
280
     0
  1
STANDARD
  0
DICTIONARYVAR
  5
B136
102
{ACAD_REACTORS
330
34
102
}
330
34
100
DictionaryVariables
280
     0
  1
1
  0
DICTIONARYVAR
  5
35
102
{ACAD_REACTORS
330
34
102
}
330
34
100
DictionaryVariables
280
     0
  1
1
  0
DICTIONARYVAR
  5
B137
102
{ACAD_REACTORS
330
34
102
}
330
34
100
DictionaryVariables
280
     0
  1

  0
DICTIONARYVAR
  5
B5E
102
{ACAD_REACTORS
330
34
102
}
330
34
100
DictionaryVariables
280
     0
  1
96
  0
DICTIONARY
  5
260
102
{ACAD_REACTORS
330
43
102
}
330
43
100
AcDbDictionary
281
     1
  0
LAYER_INDEX
  5
AFF8
102
{ACAD_REACTORS
330
AFF7
102
}
330
AFF7
100
AcDbIndex
 40
2453691.648306204
100
AcDbLayerIndex
  8
0
360
AFF9
 90
        0
  8
AM_0
360
AFFA
 90
      291
  8
AM_5
360
AFFB
 90
        6
  8
AM_7
360
AFFC
 90
        1
  8
AM_6
360
AFFD
 90
        1
  8
DEFPOINTS
360
AFFE
 90
        0
  8
AM_3
360
AFFF
 90
        0
  8
AM_11
360
B000
 90
        4
  8
PV0001_1
360
B001
 90
        0
  8
2
360
B002
 90
        0
  8
1
360
B003
 90
        0
  8
AM_4
360
B004
 90
        0
  0
DICTIONARY
  5
B13F
330
B070
100
AcDbDictionary
280
     1
281
     1
  3
ACAD_XREC_ROUNDTRIP
360
B140
  0
DICTIONARY
  5
B141
330
B071
100
AcDbDictionary
280
     1
281
     1
  3
ACAD_XREC_ROUNDTRIP
360
B142
  0
DICTIONARY
  5
B13D
330
399D
100
AcDbDictionary
280
     1
281
     1
  3
ACAD_XREC_ROUNDTRIP
360
B13E
  0
IDBUFFER
  5
AFF9
330
0
100
AcDbIdBuffer
  0
IDBUFFER
  5
AFFA
330
0
100
AcDbIdBuffer
330
A4E9
330
A4EA
330
A4EE
330
A4EF
330
A4F0
330
A4F1
330
A4F2
330
A4F3
330
A4F4
330
A4F5
330
A4F6
330
A4F7
330
A4F8
330
A4F9
330
A4FA
330
A4FB
330
A4FC
330
A4FD
330
A4FE
330
A4FF
330
A500
330
A501
330
A502
330
A503
330
A504
330
A505
330
A506
330
A507
330
A508
330
A509
330
A50A
330
A50B
330
A50C
330
A50D
330
A50E
330
A50F
330
A510
330
A511
330
A512
330
A51D
330
A51E
330
A51F
330
A520
330
A521
330
A522
330
A523
330
A524
330
A525
330
A526
330
A527
330
A528
330
A529
330
A52A
330
A52B
330
A52C
330
A52D
330
A540
330
A541
330
A542
330
A56B
330
A56C
330
A56D
330
A56E
330
A56F
330
A570
330
A571
330
A572
330
A573
330
A574
330
A575
330
A576
330
A577
330
A578
330
A579
330
A57A
330
A57B
330
A57C
330
A57D
330
A57E
330
A57F
330
A580
330
A581
330
A582
330
A583
330
A584
330
A585
330
A586
330
A587
330
A588
330
A589
330
A58A
330
A58B
330
A58C
330
A58D
330
A58E
330
A58F
330
A590
330
A591
330
A592
330
A593
330
A594
330
A595
330
A596
330
A597
330
A598
330
A599
330
A59A
330
A59B
330
A59C
330
A59D
330
A59E
330
A59F
330
A5A0
330
A5A1
330
A5A2
330
A5B3
330
A5B4
330
A5B5
330
A5B6
330
A5B7
330
A5B8
330
A5B9
330
A5BA
330
A5BB
330
A5BC
330
A5BD
330
A5BE
330
A5BF
330
A5C0
330
A5C1
330
A5E3
330
A5E4
330
A5E5
330
A5E6
330
A5E7
330
A5E8
330
A5E9
330
A5EA
330
A5EB
330
A5EC
330
A5ED
330
A5EE
330
A5EF
330
A5F0
330
A5F1
330
A5F2
330
A5F3
330
A5F4
330
A5F5
330
A5F6
330
A5FD
330
A650
330
A651
330
A652
330
A653
330
A654
330
A655
330
A656
330
A657
330
A658
330
A659
330
A65A
330
A65B
330
A65C
330
A65D
330
A65E
330
A65F
330
A660
330
A661
330
A662
330
A663
330
A664
330
A665
330
A666
330
A6C7
330
A6C8
330
A6C9
330
A6CA
330
A6CB
330
A6CC
330
A6CD
330
A6CE
330
A6CF
330
A6D0
330
A6D1
330
A6D2
330
A6D3
330
A6D4
330
A6D5
330
A6D6
330
A6D7
330
A6D8
330
A6D9
330
A6DA
330
A6DB
330
A6DC
330
A6DD
330
A6DE
330
A6DF
330
A6E0
330
A6E1
330
A6E2
330
A6E3
330
A6E4
330
A6E5
330
A6E6
330
A6E7
330
A6E8
330
A6E9
330
A6EA
330
A6EB
330
A6EC
330
A6ED
330
A6EE
330
A6EF
330
A6F0
330
A6F1
330
A6F2
330
A6F3
330
A6F4
330
A6F5
330
A6F6
330
A6F7
330
A6F8
330
A6F9
330
A6FA
330
A6FB
330
A6FC
330
A6FD
330
A6FE
330
A6FF
330
A700
330
A701
330
A702
330
A703
330
A704
330
A705
330
A706
330
A707
330
A708
330
A709
330
A70A
330
A70B
330
A70C
330
A70D
330
A70E
330
A70F
330
A710
330
A711
330
A712
330
A713
330
A714
330
A715
330
A716
330
A717
330
A718
330
A719
330
A71A
330
A71B
330
A71C
330
A71D
330
A71E
330
A71F
330
A720
330
A721
330
A722
330
A723
330
A724
330
A725
330
A726
330
A727
330
A728
330
A729
330
A72A
330
A72B
330
A72C
330
A72D
330
A72E
330
A72F
330
A730
330
A731
330
A732
330
A733
330
A734
330
A736
330
A737
330
A738
330
A739
330
A73A
330
A73B
330
A73C
  0
IDBUFFER
  5
AFFB
330
0
100
AcDbIdBuffer
330
A7E9
330
A8A2
330
A97F
330
AA0B
330
AAB2
330
AB47
  0
IDBUFFER
  5
AFFC
330
0
100
AcDbIdBuffer
330
A4EB
  0
IDBUFFER
  5
AFFD
330
0
100
AcDbIdBuffer
330
388D
  0
IDBUFFER
  5
AFFE
330
0
100
AcDbIdBuffer
  0
IDBUFFER
  5
AFFF
330
0
100
AcDbIdBuffer
  0
IDBUFFER
  5
B000
330
0
100
AcDbIdBuffer
330
A7D7
330
A7D8
330
A7D9
330
A7E1
  0
IDBUFFER
  5
B001
330
0
100
AcDbIdBuffer
  0
IDBUFFER
  5
B002
330
0
100
AcDbIdBuffer
  0
IDBUFFER
  5
B003
330
0
100
AcDbIdBuffer
  0
IDBUFFER
  5
B004
330
0
100
AcDbIdBuffer
  0
XRECORD
  5
B140
102
{ACAD_REACTORS
330
B13F
102
}
330
B13F
100
AcDbXrecord
280
     1
102
SHADEPLOT
 70
     0
102
SHADEPLOTRESLEVEL
 70
     2
102
SHADEPLOTCUSTOMDPI
 70
   300
  0
XRECORD
  5
B142
102
{ACAD_REACTORS
330
B141
102
}
330
B141
100
AcDbXrecord
280
     1
102
SHADEPLOT
 70
     0
102
SHADEPLOTRESLEVEL
 70
     2
102
SHADEPLOTCUSTOMDPI
 70
   300
  0
XRECORD
  5
B13E
102
{ACAD_REACTORS
330
B13D
102
}
330
B13D
100
AcDbXrecord
280
     1
102
SHADEPLOT
 70
     0
102
SHADEPLOTRESLEVEL
 70
     2
102
SHADEPLOTCUSTOMDPI
 70
   300
  0
ENDSEC
  0
EOF
