  0
SECTION
  2
HEADER
  9
$ACADVER
  1
AC1015
  9
$ACADMAINTVER
 70
    20
  9
$DWGCODEPAGE
  3
ANSI_932
  9
$INSBASE
 10
0.0
 20
0.0
 30
0.0
  9
$EXTMIN
 10
-171.7075083242152
 20
-61.29643349511716
 30
0.0
  9
$EXTMAX
 10
19.48191170556575
 20
33.59618019921913
 30
0.0
  9
$LIMMIN
 10
-185.4635827825744
 20
-86.45139061531436
  9
$LIMMAX
 10
85.42847468672642
 20
42.09205571280675
  9
$ORTHOMODE
 70
     0
  9
$REGENMODE
 70
     1
  9
$FILLMODE
 70
     1
  9
$QTEXTMODE
 70
     0
  9
$MIRRTEXT
 70
     0
  9
$LTSCALE
 40
1.0
  9
$ATTMODE
 70
     1
  9
$TEXTSIZE
 40
2.5
  9
$TRACEWID
 40
1.0
  9
$TEXTSTYLE
  7
STANDARD
  9
$CLAYER
  8
AM_0
  9
$CELTYPE
  6
BYLAYER
  9
$CECOLOR
 62
   256
  9
$CELTSCALE
 40
1.0
  9
$DISPSILH
 70
     0
  9
$DIMSCALE
 40
0.5
  9
$DIMASZ
 40
2.5
  9
$DIMEXO
 40
1.0
  9
$DIMDLI
 40
12.0
  9
$DIMRND
 40
0.0
  9
$DIMDLE
 40
0.0
  9
$DIMEXE
 40
1.0
  9
$DIMTP
 40
0.1
  9
$DIMTM
 40
0.1
  9
$DIMTXT
 40
3.2
  9
$DIMCEN
 40
0.0
  9
$DIMTSZ
 40
0.0
  9
$DIMTOL
 70
     0
  9
$DIMLIM
 70
     0
  9
$DIMTIH
 70
     0
  9
$DIMTOH
 70
     0
  9
$DIMSE1
 70
     0
  9
$DIMSE2
 70
     0
  9
$DIMTAD
 70
     3
  9
$DIMZIN
 70
     8
  9
$DIMBLK
  1
Open30
  9
$DIMASO
 70
     1
  9
$DIMSHO
 70
     1
  9
$DIMPOST
  1

  9
$DIMAPOST
  1
"
  9
$DIMALT
 70
     0
  9
$DIMALTD
 70
     2
  9
$DIMALTF
 40
0.0393701
  9
$DIMLFAC
 40
1.0
  9
$DIMTOFL
 70
     1
  9
$DIMTVP
 40
0.0
  9
$DIMTIX
 70
     0
  9
$DIMSOXD
 70
     0
  9
$DIMSAH
 70
     0
  9
$DIMBLK1
  1

  9
$DIMBLK2
  1

  9
$DIMSTYLE
  2
AM_JIS
  9
$DIMCLRD
 70
   256
  9
$DIMCLRE
 70
   256
  9
$DIMCLRT
 70
     2
  9
$DIMTFAC
 40
0.71
  9
$DIMGAP
 40
1.5
  9
$DIMJUST
 70
     0
  9
$DIMSD1
 70
     0
  9
$DIMSD2
 70
     0
  9
$DIMTOLJ
 70
     0
  9
$DIMTZIN
 70
     0
  9
$DIMALTZ
 70
     0
  9
$DIMALTTZ
 70
     0
  9
$DIMUPT
 70
     0
  9
$DIMDEC
 70
     3
  9
$DIMTDEC
 70
     3
  9
$DIMALTU
 70
     2
  9
$DIMALTTD
 70
     2
  9
$DIMTXSTY
  7
ASAMI
  9
$DIMAUNIT
 70
     0
  9
$DIMADEC
 70
     0
  9
$DIMALTRND
 40
0.0
  9
$DIMAZIN
 70
     2
  9
$DIMDSEP
 70
    46
  9
$DIMATFIT
 70
     3
  9
$DIMFRAC
 70
     0
  9
$DIMLDRBLK
  1
Open30
  9
$DIMLUNIT
 70
     2
  9
$DIMLWD
 70
    -1
  9
$DIMLWE
 70
    -1
  9
$DIMTMOVE
 70
     0
  9
$LUNITS
 70
     2
  9
$LUPREC
 70
     2
  9
$SKETCHINC
 40
1.0
  9
$FILLETRAD
 40
0.4
  9
$AUNITS
 70
     0
  9
$AUPREC
 70
     0
  9
$MENU
  1
.
  9
$ELEVATION
 40
0.0
  9
$PELEVATION
 40
0.0
  9
$THICKNESS
 40
0.0
  9
$LIMCHECK
 70
     1
  9
$CHAMFERA
 40
1.0
  9
$CHAMFERB
 40
1.0
  9
$CHAMFERC
 40
20.0
  9
$CHAMFERD
 40
0.0
  9
$SKPOLY
 70
     0
  9
$TDCREATE
 40
2452802.716478762
  9
$TDUCREATE
 40
2452802.341478762
  9
$TDUPDATE
 40
2453691.646930510
  9
$TDUUPDATE
 40
2453691.271930509
  9
$TDINDWG
 40
0.9449528356
  9
$TDUSRTIMER
 40
0.9449526620
  9
$USRTIMER
 70
     1
  9
$ANGBASE
 50
0.0
  9
$ANGDIR
 70
     0
  9
$PDMODE
 70
     0
  9
$PDSIZE
 40
0.0
  9
$PLINEWID
 40
0.0
  9
$SPLFRAME
 70
     0
  9
$SPLINETYPE
 70
     6
  9
$SPLINESEGS
 70
     8
  9
$HANDSEED
  5
B66B
  9
$SURFTAB1
 70
     6
  9
$SURFTAB2
 70
     6
  9
$SURFTYPE
 70
     6
  9
$SURFU
 70
     6
  9
$SURFV
 70
     6
  9
$UCSBASE
  2

  9
$UCSNAME
  2

  9
$UCSORG
 10
-0.0000000000002682
 20
0.000000000000161
 30
0.0
  9
$UCSXDIR
 10
1.0
 20
0.000000000000002
 30
0.0
  9
$UCSYDIR
 10
-0.000000000000002
 20
1.0
 30
0.0
  9
$UCSORTHOREF
  2

  9
$UCSORTHOVIEW
 70
     0
  9
$UCSORGTOP
 10
0.0
 20
0.0
 30
0.0
  9
$UCSORGBOTTOM
 10
0.0
 20
0.0
 30
0.0
  9
$UCSORGLEFT
 10
0.0
 20
0.0
 30
0.0
  9
$UCSORGRIGHT
 10
0.0
 20
0.0
 30
0.0
  9
$UCSORGFRONT
 10
0.0
 20
0.0
 30
0.0
  9
$UCSORGBACK
 10
0.0
 20
0.0
 30
0.0
  9
$PUCSBASE
  2

  9
$PUCSNAME
  2

  9
$PUCSORG
 10
0.0
 20
0.0
 30
0.0
  9
$PUCSXDIR
 10
1.0
 20
0.0
 30
0.0
  9
$PUCSYDIR
 10
0.0
 20
1.0
 30
0.0
  9
$PUCSORTHOREF
  2

  9
$PUCSORTHOVIEW
 70
     0
  9
$PUCSORGTOP
 10
0.0
 20
0.0
 30
0.0
  9
$PUCSORGBOTTOM
 10
0.0
 20
0.0
 30
0.0
  9
$PUCSORGLEFT
 10
0.0
 20
0.0
 30
0.0
  9
$PUCSORGRIGHT
 10
0.0
 20
0.0
 30
0.0
  9
$PUCSORGFRONT
 10
0.0
 20
0.0
 30
0.0
  9
$PUCSORGBACK
 10
0.0
 20
0.0
 30
0.0
  9
$USERI1
 70
     0
  9
$USERI2
 70
     0
  9
$USERI3
 70
     0
  9
$USERI4
 70
     0
  9
$USERI5
 70
     0
  9
$USERR1
 40
0.0
  9
$USERR2
 40
0.0
  9
$USERR3
 40
0.0
  9
$USERR4
 40
0.0
  9
$USERR5
 40
0.0
  9
$WORLDVIEW
 70
     1
  9
$SHADEDGE
 70
     3
  9
$SHADEDIF
 70
    70
  9
$TILEMODE
 70
     1
  9
$MAXACTVP
 70
    64
  9
$PINSBASE
 10
0.0
 20
0.0
 30
0.0
  9
$PLIMCHECK
 70
     0
  9
$PEXTMIN
 10
1.000000000000000E+20
 20
1.000000000000000E+20
 30
1.000000000000000E+20
  9
$PEXTMAX
 10
-1.000000000000000E+20
 20
-1.000000000000000E+20
 30
-1.000000000000000E+20
  9
$PLIMMIN
 10
0.0
 20
0.0
  9
$PLIMMAX
 10
841.0
 20
594.0
  9
$UNITMODE
 70
     0
  9
$VISRETAIN
 70
     1
  9
$PLINEGEN
 70
     0
  9
$PSLTSCALE
 70
     0
  9
$TREEDEPTH
 70
  3020
  9
$CMLSTYLE
  2
STANDARD
  9
$CMLJUST
 70
     0
  9
$CMLSCALE
 40
20.0
  9
$PROXYGRAPHICS
 70
     1
  9
$MEASUREMENT
 70
     1
  9
$CELWEIGHT
370
    -1
  9
$ENDCAPS
280
     0
  9
$JOINSTYLE
280
     0
  9
$LWDISPLAY
290
     0
  9
$INSUNITS
 70
     4
  9
$HYPERLINKBASE
  1

  9
$STYLESHEET
  1
ASAMI.ctb
  9
$XEDIT
290
     1
  9
$CEPSNTYPE
380
     0
  9
$PSTYLEMODE
290
     1
  9
$FINGERPRINTGUID
  2
{AFB28963-8C59-40AE-9337-C84526B81ACE}
  9
$VERSIONGUID
  2
{F80937A2-3D2A-4390-9FDD-1A59820D3CE4}
  9
$EXTNAMES
290
     1
  9
$PSVPSCALE
 40
0.0
  9
$OLESTARTUP
290
     0
  0
ENDSEC
  0
SECTION
  2
CLASSES
  0
CLASS
  1
ACDBDICTIONARYWDFLT
  2
AcDbDictionaryWithDefault
  3
ObjectDBX Classes
 90
        0
280
     0
281
     0
  0
CLASS
  1
ACDBPLACEHOLDER
  2
AcDbPlaceHolder
  3
ObjectDBX Classes
 90
        0
280
     0
281
     0
  0
CLASS
  1
LAYOUT
  2
AcDbLayout
  3
ObjectDBX Classes
 90
        0
280
     0
281
     0
  0
CLASS
  1
AMGSETTINGSOBJ
  2
AmgSettingsObj
  3
"AcadM|Product Description: AutoCAD Mechanical 2000|Company: Autodesk"
 90
        0
280
     0
281
     0
  0
CLASS
  1
ACME_DOCUMENT
  2
AcMeDbDoc
  3
AcMeServices
 90
        0
280
     0
281
     0
  0
CLASS
  1
ACMESCOPE
  2
AcMeScope
  3
AcMeServices
 90
        0
280
     0
281
     0
  0
CLASS
  1
ACMECOMMANDHISTORY
  2
AcMeCommandHistory
  3
AcMeServices
 90
        0
280
     0
281
     0
  0
CLASS
  1
DICTIONARYVAR
  2
AcDbDictionaryVar
  3
ObjectDBX Classes
 90
        0
280
     0
281
     0
  0
CLASS
  1
ACIMSYSVARMAN
  2
AcImSysVarManager
  3
AcMeServices
 90
        0
280
     0
281
     0
  0
CLASS
  1
ACIMREALSYSVAR
  2
AcImRealSysVar
  3
AcMeServices
 90
        0
280
     0
281
     0
  0
CLASS
  1
ACIMINTSYSVAR
  2
AcImIntSysVar
  3
AcMeServices
 90
        0
280
     0
281
     0
  0
CLASS
  1
ACMEDRAWINGMAN
  2
AcMeDrawingMan
  3
AcMeServices
 90
        0
280
     0
281
     0
  0
CLASS
  1
ACMEVIEW
  2
AcMeView
  3
AcMeServices
 90
        0
280
     0
281
     0
  0
CLASS
  1
ACDBENTITYCACHE
  2
AcMeEntityCache
  3
AcMeServices
 90
        0
280
     0
281
     0
  0
CLASS
  1
GSMANAGER
  2
AcMeGSManager
  3
AcMeServices
 90
        0
280
     0
281
     0
  0
CLASS
  1
AMDTINTERNALREACTOR
  2
AmdtInternalReactor
  3
AcMeServices
 90
        0
280
     0
281
     0
  0
CLASS
  1
ACMESTATEMGR
  2
AcMeStateMgr
  3
AcMeServices
 90
        0
280
     0
281
     0
  0
CLASS
  1
ACME_DATABASE
  2
AcMeDbDatabase
  3
AcMeServices
 90
        0
280
     0
281
     0
  0
CLASS
  1
ACRFINSADJUSTERMGR
  2
AcRfInsAdjusterMgr
  3
AcMeServices
 90
        0
280
     0
281
     0
  0
CLASS
  1
ACMDATADICTIONARY
  2
AcmDataDictionary
  3
"AcmSymBB|Product Description: AutoCAD Mechanical 2004 DX|Company: Autodesk"
 90
        0
280
     0
281
     0
  0
CLASS
  1
ACMDATAENTRYBLOCK
  2
AcmDataEntryBlock
  3
"AcmSymBB|Product Description: AutoCAD Mechanical 2004 DX|Company: Autodesk"
 90
    32768
280
     0
281
     0
  0
CLASS
  1
AMGOBJPROPCFG
  2
AmgObjPropCfg
  3
"AmgLay|Product Description: AutoCAD Mechanical 2000|Company: Autodesk"
 90
        1
280
     0
281
     0
  0
CLASS
  1
ACAMGFILTERDAT
  2
AcAmgFilterDat
  3
"AcadM|Product Description: AutoCAD Mechanical 2000|Company: Autodesk"
 90
    32768
280
     0
281
     0
  0
CLASS
  1
LAYER_INDEX
  2
AcDbLayerIndex
  3
ObjectDBX Classes
 90
        0
280
     0
281
     0
  0
CLASS
  1
IDBUFFER
  2
AcDbIdBuffer
  3
ObjectDBX Classes
 90
        0
280
     0
281
     0
  0
CLASS
  1
ACIMSTRSYSVAR
  2
AcImStrSysVar
  3
AcMeServices
 90
        0
280
     0
281
     0
  0
CLASS
  1
ACMSTANDARDJIS
  2
AcmStandardJIS
  3
"Amdt_StdImp|Product Description: AutoCAD Mechanical 2004 DX|Company: Autodesk"
 90
        0
280
     0
281
     0
  0
CLASS
  1
ACMSURFSTANDARDJIS
  2
AcmSurfTextStdJIS
  3
"Amdt_StdImp|Product Description: AutoCAD Mechanical 2004 DX|Company: Autodesk"
 90
        0
280
     0
281
     0
  0
CLASS
  1
ACMFCFSTANDARDJIS
  2
AcmFCFStdJIS
  3
"Amdt_StdImp|Product Description: AutoCAD Mechanical 2004 DX|Company: Autodesk"
 90
    32768
280
     0
281
     0
  0
CLASS
  1
ACMWELDSTANDARDJIS
  2
AcmWeldingStdJIS
  3
"Amdt_StdImp|Product Description: AutoCAD Mechanical 2004 DX|Company: Autodesk"
 90
        0
280
     0
281
     0
  0
CLASS
  1
ACMIDSTANDARDJIS
  2
AcmIdStdJIS
  3
"Amdt_StdImp|Product Description: AutoCAD Mechanical 2004 DX|Company: Autodesk"
 90
        0
280
     0
281
     0
  0
CLASS
  1
ACMDATUMSTANDARDJIS
  2
AcmDatumStdJIS
  3
"Amdt_StdImp|Product Description: AutoCAD Mechanical 2004 DX|Company: Autodesk"
 90
        0
280
     0
281
     0
  0
CLASS
  1
ACMBOMSTANDARDJIS
  2
AcmBOMStdJIS
  3
"Amdt_StdImp|Product Description: AutoCAD Mechanical 2004 DX|Company: Autodesk"
 90
        0
280
     0
281
     0
  0
CLASS
  1
ACMSTANDARDANSI
  2
AcmStandardANSI
  3
"Amdt_StdImp|Product Description: AutoCAD Mechanical 2004 DX|Company: Autodesk"
 90
    32768
280
     0
281
     0
  0
CLASS
  1
ACMSURFSTANDARDANSI
  2
AcmSurfTextStdANSI
  3
"Amdt_StdImp|Product Description: AutoCAD Mechanical 2004 DX|Company: Autodesk"
 90
    32768
280
     0
281
     0
  0
CLASS
  1
ACMFCFSTANDARDANSI
  2
AcmFCFStdANSI
  3
"Amdt_StdImp|Product Description: AutoCAD Mechanical 2004 DX|Company: Autodesk"
 90
    32768
280
     0
281
     0
  0
CLASS
  1
ACMWELDSTANDARDANSI
  2
AcmWeldingStdANSI
  3
"Amdt_StdImp|Product Description: AutoCAD Mechanical 2004 DX|Company: Autodesk"
 90
    32768
280
     0
281
     0
  0
CLASS
  1
ACMIDSTANDARDANSI
  2
AcmIdStdANSI
  3
"Amdt_StdImp|Product Description: AutoCAD Mechanical 2004 DX|Company: Autodesk"
 90
    32768
280
     0
281
     0
  0
CLASS
  1
ACMDATUMSTANDARDANSI
  2
AcmDatumStdANSI
  3
"Amdt_StdImp|Product Description: AutoCAD Mechanical 2004 DX|Company: Autodesk"
 90
    32768
280
     0
281
     0
  0
CLASS
  1
ACMBOMSTANDARDANSI
  2
AcmBOMStdANSI
  3
"Amdt_StdImp|Product Description: AutoCAD Mechanical 2004 DX|Company: Autodesk"
 90
    32768
280
     0
281
     0
  0
CLASS
  1
ACMSTANDARDBSI
  2
AcmStandardBSI
  3
"Amdt_StdImp|Product Description: AutoCAD Mechanical 2004 DX|Company: Autodesk"
 90
    32768
280
     0
281
     0
  0
CLASS
  1
ACMSURFSTANDARDBSI
  2
AcmSurfTextStdBSI
  3
"Amdt_StdImp|Product Description: AutoCAD Mechanical 2004 DX|Company: Autodesk"
 90
    32768
280
     0
281
     0
  0
CLASS
  1
ACMFCFSTANDARDBSI
  2
AcmFCFStdBSI
  3
"Amdt_StdImp|Product Description: AutoCAD Mechanical 2004 DX|Company: Autodesk"
 90
    32768
280
     0
281
     0
  0
CLASS
  1
ACMWELDSTANDARDBSI
  2
AcmWeldingStdBSI
  3
"Amdt_StdImp|Product Description: AutoCAD Mechanical 2004 DX|Company: Autodesk"
 90
    32768
280
     0
281
     0
  0
CLASS
  1
ACMIDSTANDARDBSI
  2
AcmIdStdBSI
  3
"Amdt_StdImp|Product Description: AutoCAD Mechanical 2004 DX|Company: Autodesk"
 90
    32768
280
     0
281
     0
  0
CLASS
  1
ACMDATUMSTANDARDBSI
  2
AcmDatumStdBSI
  3
"Amdt_StdImp|Product Description: AutoCAD Mechanical 2004 DX|Company: Autodesk"
 90
    32768
280
     0
281
     0
  0
CLASS
  1
ACMBOMSTANDARDBSI
  2
AcmBOMStdBSI
  3
"Amdt_StdImp|Product Description: AutoCAD Mechanical 2004 DX|Company: Autodesk"
 90
    32768
280
     0
281
     0
  0
CLASS
  1
STDPART2D
  2
AmgStdPart
  3
"AmgStdPart|Product Description: AutoCAD Mechanical 2000|Company: Autodesk"
 90
    33791
280
     0
281
     1
  0
CLASS
  1
PLOTSETTINGS
  2
AcDbPlotSettings
  3
ObjectDBX Classes
 90
        0
280
     0
281
     0
  0
CLASS
  1
TABLESTYLE
  2
AcDbTableStyle
  3
ObjectDBX Classes
 90
     2047
280
     0
281
     0
  0
CLASS
  1
ACGREFMASTER
  2
AcGrefMaster
  3
AcAttribServices
 90
        0
280
     0
281
     0
  0
CLASS
  1
AM_DRAWING_MGR
  2
AcDmDwgMgr
  3
AcMechDwgViewMgmt
 90
        0
280
     0
281
     0
  0
CLASS
  1
AM_DWG_DOCUMENT
  2
AcDmDwgDocument
  3
AcMechDwgViewMgmt
 90
        0
280
     0
281
     0
  0
CLASS
  1
AM_DWG_SHEET
  2
AcDmSheet
  3
AcMechDwgViewMgmt
 90
        0
280
     0
281
     0
  0
CLASS
  1
AM_VIEWDIMPARMAP
  2
AcDmViewDimParMap
  3
AcMechDwgViewMgmt
 90
        0
280
     0
281
     0
  0
CLASS
  1
AM_DWGMGR_NAME
  2
AcDmDwgMgrName
  3
AcMechDwgViewMgmt
 90
        0
280
     0
281
     0
  0
CLASS
  1
ACGREFACADMASTER
  2
AcGrefacadMaster
  3
AcGrefServices
 90
        0
280
     0
281
     0
  0
CLASS
  1
AMDTMENUSTATEMGR
  2
AmdtMenuStateMgr
  3
McadcomServices
 90
        0
280
     0
281
     0
  0
CLASS
  1
AMDTMCOMMENUSTATE
  2
AmdtMcomMenuState
  3
McadcomServices
 90
        0
280
     0
281
     0
  0
CLASS
  1
AMIMASTER
  2
AmiMaster
  3
AmiServices
 90
        0
280
     0
281
     0
  0
CLASS
  1
MAPIAMMOUDLE
  2
MApiAmModule
  3
MApiAmServices
 90
        0
280
     0
281
     0
  0
CLASS
  1
AMDTADMENUSTATE
  2
AmdtAdMenuState
  3
DesignerServices
 90
        0
280
     0
281
     0
  0
CLASS
  1
ADAPPL
  2
AcAdAppl
  3
DesignerServices
 90
        0
280
     0
281
     0
  0
CLASS
  1
DEPMGR
  2
AcAdDepMgr
  3
DesignerServices
 90
        0
280
     0
281
     0
  0
CLASS
  1
PARAMMGR
  2
AcAdParamMgr
  3
DesignerServices
 90
        0
280
     0
281
     0
  0
CLASS
  1
PARAMSCOPE
  2
AcAdParamScope
  3
DesignerServices
 90
        0
280
     0
281
     0
  0
CLASS
  1
NAMEDAPPL
  2
AcAdNamedAppl
  3
DesignerServices
 90
        0
280
     0
281
     0
  0
CLASS
  1
AMDTDMMENUSTATE
  2
AmdtDmMenuState
  3
AcMechDwgViewMgmt
 90
        0
280
     0
281
     0
  0
CLASS
  1
AMDTAMMENUSTATE
  2
AmdtAmMenuState
  3
DesignerAssemblies
 90
        0
280
     0
281
     0
  0
CLASS
  1
ACAMPROJECT
  2
AcAmProject
  3
DesignerAssemblies
 90
        0
280
     0
281
     0
  0
CLASS
  1
ACAMGRCOMPDEF
  2
AcAmGrCompDef
  3
DesignerAssemblies
 90
        0
280
     0
281
     0
  0
CLASS
  1
ACCMCONTEXT
  2
AcCmContext
  3
DesignerAssemblies
 90
        0
280
     0
281
     0
  0
CLASS
  1
ACAMCOMPDEF
  2
AcAmCompDef
  3
DesignerAssemblies
 90
        0
280
     0
281
     0
  0
CLASS
  1
ACAMCOMPDEFMGR
  2
AcAmCompDefMgr
  3
DesignerAssemblies
 90
        0
280
     0
281
     0
  0
CLASS
  1
AMCONTEXTMGR
  2
AcAmContextMgr
  3
DesignerAssemblies
 90
        0
280
     0
281
     0
  0
CLASS
  1
ACAMCONTEXTMODELER
  2
AcAmContextModeler
  3
DesignerAssemblies
 90
        0
280
     0
281
     0
  0
CLASS
  1
CATALOGSTATE
  2
AcAmCatalogState
  3
DesignerAssemblies
 90
        0
280
     0
281
     0
  0
CLASS
  1
ACAMGRCOMPDEFSET
  2
AcAmGrCompDefSet
  3
DesignerAssemblies
 90
        0
280
     0
281
     0
  0
CLASS
  1
AMDTBROWSERDBTAB
  2
AmdtBrowserDbTab
  3
McadcomServices
 90
        0
280
     0
281
     0
  0
CLASS
  1
CBROWSERAPPOBJECT
  2
CBrowserAppObject
  3
McadcomServices
 90
        0
280
     0
281
     0
  0
CLASS
  1
DM_PLACEHOLDER
  2
AcDmSelsetPlaceholder
  3
AcMechDwgViewMgmt
 90
        0
280
     0
281
     0
  0
CLASS
  1
ACMSTANDARDISO
  2
AcmStandardISO
  3
"Amdt_StdImp|Product Description: AutoCAD Mechanical 2004 DX|Company: Autodesk"
 90
        0
280
     0
281
     0
  0
CLASS
  1
AMDTEDGESTANDARDISO
  2
AmdtEdgeStdISO
  3
"Amdt_StdImp|Product Description: AutoCAD Mechanical 2004 DX|Company: Autodesk"
 90
        0
280
     0
281
     0
  0
CLASS
  1
ACMSURFSTANDARDISO
  2
AcmSurfTextStdISO
  3
"Amdt_StdImp|Product Description: AutoCAD Mechanical 2004 DX|Company: Autodesk"
 90
        0
280
     0
281
     0
  0
CLASS
  1
ACMFCFSTANDARDISO
  2
AcmFCFStdISO
  3
"Amdt_StdImp|Product Description: AutoCAD Mechanical 2004 DX|Company: Autodesk"
 90
        0
280
     0
281
     0
  0
CLASS
  1
ACMWELDSTANDARDISO
  2
AcmWeldingStdISO
  3
"Amdt_StdImp|Product Description: AutoCAD Mechanical 2004 DX|Company: Autodesk"
 90
        0
280
     0
281
     0
  0
CLASS
  1
ACMIDSTANDARDISO
  2
AcmIdStdISO
  3
"Amdt_StdImp|Product Description: AutoCAD Mechanical 2004 DX|Company: Autodesk"
 90
        0
280
     0
281
     0
  0
CLASS
  1
ACMDATUMSTANDARDISO
  2
AcmDatumStdISO
  3
"Amdt_StdImp|Product Description: AutoCAD Mechanical 2004 DX|Company: Autodesk"
 90
        0
280
     0
281
     0
  0
CLASS
  1
ACMBOMSTANDARDISO
  2
AcmBOMStdISO
  3
"Amdt_StdImp|Product Description: AutoCAD Mechanical 2004 DX|Company: Autodesk"
 90
        0
280
     0
281
     0
  0
CLASS
  1
ACMDETAILSTANDARDISO
  2
AmdtDetailSymStdISO
  3
"Amdt_StdImp|Product Description: AutoCAD Mechanical 2004 DX|Company: Autodesk"
 90
        0
280
     0
281
     0
  0
CLASS
  1
ACMSECTIONSTANDARDISO
  2
AmdtSectionSymStdISO
  3
"Amdt_StdImp|Product Description: AutoCAD Mechanical 2004 DX|Company: Autodesk"
 90
        0
280
     0
281
     0
  0
CLASS
  1
ACMCENTERLINESTANDARDISO
  2
AmdtCenterLineStdISO
  3
"Amdt_StdImp|Product Description: AutoCAD Mechanical 2004 DX|Company: Autodesk"
 90
        0
280
     0
281
     0
  0
CLASS
  1
ACMNOTESTANDARDISO
  2
AmdtNoteStdISO
  3
"Amdt_StdImp|Product Description: AutoCAD Mechanical 2004 DX|Company: Autodesk"
 90
        0
280
     0
281
     0
  0
CLASS
  1
AMDTNOTETEMPLATEDB
  2
AmdtNoteTemplateDB
  3
AMDT_STDIMP_MODULE_NAME
 90
        0
280
     0
281
     0
  0
CLASS
  1
ACAMGLAYSTD
  2
AcAmgLayStd
  3
"AcAmgLayStd|Product Description: AutoCAD Mechanical 2000|Company: Autodesk"
 90
        0
280
     0
281
     0
  0
CLASS
  1
ACAMGDIMSTD
  2
AcAmgDimStd
  3
"AcAmgDimStd|Product Description: AutoCAD Mechanical 2000|Company: Autodesk"
 90
        0
280
     0
281
     0
  0
CLASS
  1
ACAMGHOLECHARTSTDISO
  2
AcAmgHoleChartStdISO
  3
ACMSYMBB_MODULE_NAME
 90
        0
280
     0
281
     0
  0
CLASS
  1
ACAMGTITLESTD
  2
AcAmgTitleStd
  3
"TITLEAPP"
 90
        0
280
     0
281
     0
  0
CLASS
  1
ACMTHREADLINESTANDARDISO
  2
AmdtThreadLineStdISO
  3
"Amdt_StdImp|Product Description: AutoCAD Mechanical 2004 DX|Company: Autodesk"
 90
        0
280
     0
281
     0
  0
CLASS
  1
ACMFCFSTANDARDJIS98
  2
AcmFCFStdJIS98
  3
"Amdt_StdImp|Product Description: AutoCAD Mechanical 2004 DX|Company: Autodesk"
 90
        0
280
     0
281
     0
  0
CLASS
  1
ACMDETAILSTANDARDJIS
  2
AmdtDetailSymStdJIS
  3
"Amdt_StdImp|Product Description: AutoCAD Mechanical 2004 DX|Company: Autodesk"
 90
        0
280
     0
281
     0
  0
CLASS
  1
ACMSECTIONSTANDARDJIS
  2
AmdtSectionSymStdJIS
  3
"Amdt_StdImp|Product Description: AutoCAD Mechanical 2004 DX|Company: Autodesk"
 90
        0
280
     0
281
     0
  0
CLASS
  1
ACMCENTERLINESTANDARDJIS
  2
AmdtCenterLineStdJIS
  3
"Amdt_StdImp|Product Description: AutoCAD Mechanical 2004 DX|Company: Autodesk"
 90
        0
280
     0
281
     0
  0
CLASS
  1
ACMTHREADLINESTANDARDJIS
  2
AmdtThreadLineStdJIS
  3
"Amdt_StdImp|Product Description: AutoCAD Mechanical 2004 DX|Company: Autodesk"
 90
        0
280
     0
281
     0
  0
CLASS
  1
ACMNOTESTANDARDJIS
  2
AmdtNoteStdJIS
  3
"Amdt_StdImp|Product Description: AutoCAD Mechanical 2004 DX|Company: Autodesk"
 90
        0
280
     0
281
     0
  0
CLASS
  1
ACAMGHOLECHARTSTDJIS
  2
AcAmgHoleChartStdJIS
  3
ACMSYMBB_MODULE_NAME
 90
        0
280
     0
281
     0
  0
ENDSEC
  0
SECTION
  2
TABLES
  0
TABLE
  2
VPORT
  5
8
330
0
100
AcDbSymbolTable
 70
     3
  0
VPORT
  5
B660
330
8
100
AcDbSymbolTableRecord
100
AcDbViewportTableRecord
  2
*Active
 70
     0
 10
0.0
 20
0.0
 11
1.0
 21
1.0
 12
-52.75071534921045
 22
-10.81553687045183
 13
0.0
 23
0.0
 14
2.5
 24
2.5
 15
10.0
 25
10.0
 16
0.0
 26
0.0
 36
1.0
 17
0.0
 27
0.0
 37
0.0
 40
179.9084833660835
 41
1.732758620689655
 42
50.0
 43
0.0
 44
0.0
 50
0.0
 51
0.0
 71
     0
 72
   100
 73
     1
 74
     3
 75
     0
 76
     0
 77
     0
 78
     0
281
     0
 65
     1
110
-0.0000000000002682
120
0.000000000000161
130
0.0
111
1.0
121
0.000000000000002
131
0.0
112
-0.000000000000002
122
1.0
132
0.0
 79
     0
146
0.0
  0
ENDTAB
  0
TABLE
  2
LTYPE
  5
5
330
0
100
AcDbSymbolTable
 70
    17
  0
LTYPE
  5
14
330
5
100
AcDbSymbolTableRecord
100
AcDbLinetypeTableRecord
  2
BYBLOCK
 70
     0
  3

 72
    65
 73
     0
 40
0.0
  0
LTYPE
  5
15
330
5
100
AcDbSymbolTableRecord
100
AcDbLinetypeTableRecord
  2
BYLAYER
 70
     0
  3

 72
    65
 73
     0
 40
0.0
  0
LTYPE
  5
16
330
5
100
AcDbSymbolTableRecord
100
AcDbLinetypeTableRecord
  2
CONTINUOUS
 70
     0
  3
Solid line
 72
    65
 73
     0
 40
0.0
  0
LTYPE
  5
4B
330
5
100
AcDbSymbolTableRecord
100
AcDbLinetypeTableRecord
  2
AM_ISO02W050
 70
     0
  3
__ __ __ __ __ __ __ __ __ __ __ __ __ __ __
 72
    65
 73
     2
 40
7.5
 49
6.0
 74
     0
 49
-1.5
 74
     0
  0
LTYPE
  5
4C
330
5
100
AcDbSymbolTableRecord
100
AcDbLinetypeTableRecord
  2
AM_ISO08W050
 70
     0
  3
____ . ____ . ____ . ____ . ____ . ____ . ____
 72
    65
 73
     4
 40
18.0
 49
12.0
 74
     0
 49
-1.5
 74
     0
 49
3.0
 74
     0
 49
-1.5
 74
     0
  0
LTYPE
  5
4D
330
5
100
AcDbSymbolTableRecord
100
AcDbLinetypeTableRecord
  2
AM_ISO09W050
 70
     0
  3
_____ . . _____ . . _____ . . ____ .. ____
 72
    65
 73
     6
 40
22.5
 49
12.0
 74
     0
 49
-1.5
 74
     0
 49
3.0
 74
     0
 49
-1.5
 74
     0
 49
3.0
 74
     0
 49
-1.5
 74
     0
  0
LTYPE
  5
4E
330
5
100
AcDbSymbolTableRecord
100
AcDbLinetypeTableRecord
  2
Amconstr
 70
     0
  3
_______________________
 72
    65
 73
     2
 40
9999.0
 49
9999.0
 74
     0
 49
0.0
 74
     0
  0
LTYPE
  5
4F
330
5
100
AcDbSymbolTableRecord
100
AcDbLinetypeTableRecord
  2
AM_ISO02W050x2
 70
     0
  3
 _ _ _ _ _ _ _ _ _ _ _ _
 72
    65
 73
     2
 40
3.75
 49
3.0
 74
     0
 49
-0.75
 74
     0
  0
LTYPE
  5
50
330
5
100
AcDbSymbolTableRecord
100
AcDbLinetypeTableRecord
  2
AM_ISO08W050x2
 70
     0
  3
__ . __ . __ . __ . __ . __
 72
    65
 73
     4
 40
9.0
 49
6.0
 74
     0
 49
-0.75
 74
     0
 49
1.5
 74
     0
 49
-0.75
 74
     0
  0
LTYPE
  5
53
330
5
100
AcDbSymbolTableRecord
100
AcDbLinetypeTableRecord
  2
Amzigzag
 70
     0
  3
/\/-/\/-/\/-/\/-/\/-/\/
 72
    65
 73
     2
 40
11.0001
 49
0.0001
 74
     4
 75
   135
340
52
 46
0.04
 50
0.0
 44
0.0
 45
0.0
 49
-11.0
 74
     0
  0
LTYPE
  5
166
330
5
100
AcDbSymbolTableRecord
100
AcDbLinetypeTableRecord
  2
ACJISTGL
 70
     0
  3
_ _ _ _ _
 72
    65
 73
     2
 40
3.0
 49
2.0
 74
     0
 49
-1.0
 74
     0
  0
LTYPE
  5
26A
330
5
100
AcDbSymbolTableRecord
100
AcDbLinetypeTableRecord
  2
ACJISTGB
 70
     0
  3
__ . . __ . .
 72
    65
 73
     6
 40
9.0
 49
4.0
 74
     0
 49
-1.0
 74
     0
 49
1.0
 74
     0
 49
-1.0
 74
     0
 49
1.0
 74
     0
 49
-1.0
 74
     0
  0
LTYPE
  5
84DE
330
5
100
AcDbSymbolTableRecord
100
AcDbLinetypeTableRecord
  2
CENTER
 70
     0
  3
__ . __
 72
    65
 73
     4
 40
7.0
 49
4.0
 74
     0
 49
-1.0
 74
     0
 49
1.0
 74
     0
 49
-1.0
 74
     0
  0
LTYPE
  5
B5D7
330
5
100
AcDbSymbolTableRecord
100
AcDbLinetypeTableRecord
  2
HIDDEN
 70
     0
  3
Hidden __ __ __ __ __ __ __ __ __ __ __ __ __ _
 72
    65
 73
     2
 40
9.524999999999998
 49
6.349999999999999
 74
     0
 49
-3.174999999999999
 74
     0
  0
LTYPE
  5
B5D8
330
5
100
AcDbSymbolTableRecord
100
AcDbLinetypeTableRecord
  2
PHANTOM2
 70
     0
  3
Phantom (.5x) ___ _ _ ___ _ _ ___ _ _ ___ _ _
 72
    65
 73
     6
 40
31.75
 49
15.875
 74
     0
 49
-3.174999999999999
 74
     0
 49
3.174999999999999
 74
     0
 49
-3.174999999999999
 74
     0
 49
3.174999999999999
 74
     0
 49
-3.174999999999999
 74
     0
  0
LTYPE
  5
B609
330
5
100
AcDbSymbolTableRecord
100
AcDbLinetypeTableRecord
  2
ACISOWELD
 70
     0
  3
_ _ _ _ _
 72
    65
 73
     2
 40
2.0
 49
2.0
 74
     0
 49
-1.0
 74
     0
  0
LTYPE
  5
B60C
330
5
100
AcDbSymbolTableRecord
100
AcDbLinetypeTableRecord
  2
ACISOTGB
 70
     0
  3
__ . . __ . .
 72
    65
 73
     6
 40
9.0
 49
4.0
 74
     0
 49
-1.0
 74
     0
 49
1.0
 74
     0
 49
-1.0
 74
     0
 49
1.0
 74
     0
 49
-1.0
 74
     0
  0
LTYPE
  5
B60D
330
5
100
AcDbSymbolTableRecord
100
AcDbLinetypeTableRecord
  2
ACISOTGL
 70
     0
  3
_ _ _ _ _
 72
    65
 73
     2
 40
3.0
 49
2.0
 74
     0
 49
-1.0
 74
     0
  0
LTYPE
  5
B636
330
5
100
AcDbSymbolTableRecord
100
AcDbLinetypeTableRecord
  2
ACJISWELD
 70
     0
  3
_ _ _ _ _
 72
    65
 73
     2
 40
2.0
 49
2.0
 74
     0
 49
-1.0
 74
     0
  0
ENDTAB
  0
TABLE
  2
LAYER
  5
2
330
0
100
AcDbSymbolTable
 70
    12
  0
LAYER
  5
10
330
2
100
AcDbSymbolTableRecord
100
AcDbLayerTableRecord
  2
0
 70
     0
 62
     7
  6
CONTINUOUS
370
    -3
390
F
  0
LAYER
  5
3F9
330
2
100
AcDbSymbolTableRecord
100
AcDbLayerTableRecord
  2
AM_0
 70
     0
 62
     7
  6
CONTINUOUS
370
    -3
390
F
  0
LAYER
  5
BA4
330
2
100
AcDbSymbolTableRecord
100
AcDbLayerTableRecord
  2
AM_5
 70
     0
 62
     3
  6
CONTINUOUS
370
    -3
390
F
  0
LAYER
  5
BA6
330
2
100
AcDbSymbolTableRecord
100
AcDbLayerTableRecord
  2
AM_7
 70
     0
 62
     4
  6
AM_ISO08W050
370
    -3
390
F
  0
LAYER
  5
E64
330
2
100
AcDbSymbolTableRecord
100
AcDbLayerTableRecord
  2
AM_6
 70
     0
 62
     2
  6
CONTINUOUS
370
    -3
390
F
  0
LAYER
  5
F4D
330
2
100
AcDbSymbolTableRecord
100
AcDbLayerTableRecord
  2
DEFPOINTS
 70
     0
 62
     7
  6
CONTINUOUS
290
     0
370
    -3
390
F
  0
LAYER
  5
2382
330
2
100
AcDbSymbolTableRecord
100
AcDbLayerTableRecord
  2
AM_3
 70
     0
 62
     6
  6
ACJISTGL
370
    -3
390
F
  0
LAYER
  5
4E80
330
2
100
AcDbSymbolTableRecord
100
AcDbLayerTableRecord
  2
AM_11
 70
     0
 62
     3
  6
AM_ISO09W050
370
    -3
390
F
  0
LAYER
  5
502A
330
2
100
AcDbSymbolTableRecord
100
AcDbLayerTableRecord
  2
PV0001_1
 70
     0
 62
     7
  6
CONTINUOUS
370
    -3
390
F
  0
LAYER
  5
78BD
330
2
100
AcDbSymbolTableRecord
100
AcDbLayerTableRecord
  2
2
 70
     0
 62
     7
  6
CONTINUOUS
370
    -3
390
F
  0
LAYER
  5
78BE
330
2
100
AcDbSymbolTableRecord
100
AcDbLayerTableRecord
  2
1
 70
     0
 62
     7
  6
CONTINUOUS
370
    -3
390
F
  0
LAYER
  5
78BF
330
2
100
AcDbSymbolTableRecord
100
AcDbLayerTableRecord
  2
AM_4
 70
     0
 62
     3
  6
CONTINUOUS
370
    -3
390
F
  0
ENDTAB
  0
TABLE
  2
STYLE
  5
3
330
0
100
AcDbSymbolTable
 70
     7
  0
STYLE
  5
11
330
3
100
AcDbSymbolTableRecord
100
AcDbTextStyleTableRecord
  2
STANDARD
 70
     0
 40
0.0
 41
1.0
 50
0.0
 71
     0
 42
2.5
  3
simplex.shx
  4
EXTFONT.SHX
  0
STYLE
  5
52
330
3
100
AcDbSymbolTableRecord
100
AcDbTextStyleTableRecord
  2

 70
     1
 40
0.0
 41
1.0
 50
0.0
 71
     0
 42
2.5
  3
ltypeshp.shx
  4

  0
STYLE
  5
6B
330
3
100
AcDbSymbolTableRecord
100
AcDbTextStyleTableRecord
  2
ASAMI
 70
     0
 40
0.0
 41
1.0
 50
0.0
 71
     0
 42
2.5
  3
simplex.shx
  4
EXTFONT.SHX
  0
STYLE
  5
262
330
3
100
AcDbSymbolTableRecord
100
AcDbTextStyleTableRecord
  2
ACJISTS
 70
     0
 40
1.0
 41
1.0
 50
0.0
 71
     0
 42
1.0
  3
isocp.shx
  4
extfont.shx
  0
STYLE
  5
269
330
3
100
AcDbSymbolTableRecord
100
AcDbTextStyleTableRecord
  2
ACJISGDT
 70
     0
 40
0.0
 41
1.0
 50
0.0
 71
     0
 42
1.0
  3
amgdt.shx
  4

  0
STYLE
  5
B603
330
3
100
AcDbSymbolTableRecord
100
AcDbTextStyleTableRecord
  2
ACISOTS
 70
     0
 40
3.5
 41
1.0
 50
5.0
 71
     0
 42
3.799999999999999
  3
isocp.shx
  4
extfont.shx
  0
STYLE
  5
B607
330
3
100
AcDbSymbolTableRecord
100
AcDbTextStyleTableRecord
  2
ACISOGDT
 70
     0
 40
0.0
 41
1.0
 50
0.0
 71
     0
 42
2.5
  3
amgdt.shx
  4
extfont.shx
  0
ENDTAB
  0
TABLE
  2
VIEW
  5
6
330
0
100
AcDbSymbolTable
 70
     0
  0
ENDTAB
  0
TABLE
  2
UCS
  5
7
330
0
100
AcDbSymbolTable
 70
     0
  0
ENDTAB
  0
TABLE
  2
APPID
  5
9
330
0
100
AcDbSymbolTable
 70
    36
  0
APPID
  5
12
330
9
100
AcDbSymbolTableRecord
100
AcDbRegAppTableRecord
  2
ACAD
 70
     0
  0
APPID
  5
30
330
9
100
AcDbSymbolTableRecord
100
AcDbRegAppTableRecord
  2
MCAD_NO_VIS
 70
     0
  0
APPID
  5
31
330
9
100
AcDbSymbolTableRecord
100
AcDbRegAppTableRecord
  2
ACAD_TEMP_GRAPHIC
 70
     0
  0
APPID
  5
2C2
330
9
100
AcDbSymbolTableRecord
100
AcDbRegAppTableRecord
  2
GENIUS_GENDTOL_13
 70
     0
  0
APPID
  5
339
330
9
100
AcDbSymbolTableRecord
100
AcDbRegAppTableRecord
  2
GENIUS_GENODEF_13
 70
     0
  0
APPID
  5
33A
330
9
100
AcDbSymbolTableRecord
100
AcDbRegAppTableRecord
  2
GENIUS_GENOBJ-N-RSBK_13
 70
     0
  0
APPID
  5
33B
330
9
100
AcDbSymbolTableRecord
100
AcDbRegAppTableRecord
  2
GENIUS_GENOBJ-N-LIB_13
 70
     0
  0
APPID
  5
33C
330
9
100
AcDbSymbolTableRecord
100
AcDbRegAppTableRecord
  2
GENIUS_GENSCALE_13
 70
     0
  0
APPID
  5
378
330
9
100
AcDbSymbolTableRecord
100
AcDbRegAppTableRecord
  2
GENIUS_GENDIMSH_14
 70
     0
  0
APPID
  5
BB0
330
9
100
AcDbSymbolTableRecord
100
AcDbRegAppTableRecord
  2
GENIUS_GENOBJ-N-CEN_13
 70
     0
  0
APPID
  5
BB1
330
9
100
AcDbSymbolTableRecord
100
AcDbRegAppTableRecord
  2
GENIUS_GENFIL_13
 70
     0
  0
APPID
  5
BB2
330
9
100
AcDbSymbolTableRecord
100
AcDbRegAppTableRecord
  2
GENIUS_GENOBJ-N-CHA_13
 70
     0
  0
APPID
  5
1FAF
330
9
100
AcDbSymbolTableRecord
100
AcDbRegAppTableRecord
  2
GENIUS_GENOBJ-N-CRS_13
 70
     0
  0
APPID
  5
1FB0
330
9
100
AcDbSymbolTableRecord
100
AcDbRegAppTableRecord
  2
GENIUS_GENOENT_13
 70
     0
  0
APPID
  5
1FB1
330
9
100
AcDbSymbolTableRecord
100
AcDbRegAppTableRecord
  2
GENIUS_GENOREF_13
 70
     0
  0
APPID
  5
1FB2
330
9
100
AcDbSymbolTableRecord
100
AcDbRegAppTableRecord
  2
GENIUS_GENOLIS_13
 70
     0
  0
APPID
  5
1FB7
330
9
100
AcDbSymbolTableRecord
100
AcDbRegAppTableRecord
  2
GENIUS_GENOBJ-N-FIL_13
 70
     0
  0
APPID
  5
22A8
330
9
100
AcDbSymbolTableRecord
100
AcDbRegAppTableRecord
  2
GEVID1056506048
 70
     0
  0
APPID
  5
22A9
330
9
100
AcDbSymbolTableRecord
100
AcDbRegAppTableRecord
  2
GEVDC
 70
     0
  0
APPID
  5
22AC
330
9
100
AcDbSymbolTableRecord
100
AcDbRegAppTableRecord
  2
GENIUS_GENBH_13
 70
     0
  0
APPID
  5
22B8
330
9
100
AcDbSymbolTableRecord
100
AcDbRegAppTableRecord
  2
GENIUS_GENOBJ-NBEHI-BHF_13
 70
     0
  0
APPID
  5
22BA
330
9
100
AcDbSymbolTableRecord
100
AcDbRegAppTableRecord
  2
GENIUS_GENOBJ-NBEHI-BHB_13
 70
     0
  0
APPID
  5
35C9
330
9
100
AcDbSymbolTableRecord
100
AcDbRegAppTableRecord
  2
GENIUS_GENREC_14
 70
     0
  0
APPID
  5
35CA
330
9
100
AcDbSymbolTableRecord
100
AcDbRegAppTableRecord
  2
GENIUS_GENOBJ-N-REC_13
 70
     0
  0
APPID
  5
B59D
330
9
100
AcDbSymbolTableRecord
100
AcDbRegAppTableRecord
  2
ACATTRIBSERVICES
 70
     0
  0
APPID
  5
B59E
330
9
100
AcDbSymbolTableRecord
100
AcDbRegAppTableRecord
  2
AD_DRAW
 70
     0
  0
APPID
  5
B59F
330
9
100
AcDbSymbolTableRecord
100
AcDbRegAppTableRecord
  2
DESIGNERASSEMBLIES
 70
     0
  0
APPID
  5
B5A0
330
9
100
AcDbSymbolTableRecord
100
AcDbRegAppTableRecord
  2
ACADM_DIM_EDIT
 70
     0
  0
APPID
  5
B5A1
330
9
100
AcDbSymbolTableRecord
100
AcDbRegAppTableRecord
  2
AMDT_DM_ADJ
 70
     0
  0
APPID
  5
B5A2
330
9
100
AcDbSymbolTableRecord
100
AcDbRegAppTableRecord
  2
ACAD_DSTYLE_DIMTEXT_FILL
 70
     0
  0
APPID
  5
B5A3
330
9
100
AcDbSymbolTableRecord
100
AcDbRegAppTableRecord
  2
ACAD_PSEXT
 70
     0
  0
APPID
  5
B5A4
330
9
100
AcDbSymbolTableRecord
100
AcDbRegAppTableRecord
  2
ACAD_DIMASSOC_DIMLFAC
 70
     0
  0
APPID
  5
B5A5
330
9
100
AcDbSymbolTableRecord
100
AcDbRegAppTableRecord
  2
ACAD_DIMASSOC_CALC_DIMLFAC
 70
     0
  0
APPID
  5
B5A6
330
9
100
AcDbSymbolTableRecord
100
AcDbRegAppTableRecord
  2
ACAD_DIMASSOC_OVERRIDDEN_DIMLFAC
 70
     0
  0
APPID
  5
B65A
330
9
100
AcDbSymbolTableRecord
100
AcDbRegAppTableRecord
  2
GENIUS_GENSCREG_15
 70
     0
  0
APPID
  5
B65B
330
9
100
AcDbSymbolTableRecord
100
AcDbRegAppTableRecord
  2
GENIUS_GENOBJ-N-SDF_13
 70
     0
  0
ENDTAB
  0
TABLE
  2
DIMSTYLE
  5
A
330
0
100
AcDbSymbolTable
 70
    20
100
AcDbDimStyleTable
 71
     0
  0
DIMSTYLE
105
58
330
A
100
AcDbSymbolTableRecord
100
AcDbDimStyleTableRecord
  2
AM_JIS
 70
     0
  4
"
 41
2.699999999999999
 42
0.0
 43
7.0
 44
0.5
 47
0.1
 48
0.1000000001
 73
     0
 74
     0
 77
     3
 78
     8
 79
     2
140
3.5
141
0.0
143
0.0393701
146
0.71
147
1.0
172
     1
176
     3
177
     3
178
     2
179
     1
271
     2
272
     2
275
     1
283
     0
284
     8
340
11
341
59
342
59
371
    -1
372
    -1
  0
DIMSTYLE
105
5F
330
A
100
AcDbSymbolTableRecord
100
AcDbDimStyleTableRecord
  2
AM_JIS$3
 70
     0
  4
"
 41
2.699999999999999
 42
1.0
 43
10.0
 44
1.0
 47
0.1
 48
0.1000000001
 73
     0
 77
     3
 78
     8
 79
     2
140
3.799999999999999
141
0.0
143
0.0393701
146
0.71
147
1.5
176
   256
177
   256
178
     2
271
     2
272
     2
275
     1
283
     0
284
     8
288
     1
289
     0
340
11
341
59
342
59
371
    -1
372
    -1
  0
DIMSTYLE
105
60
330
A
100
AcDbSymbolTableRecord
100
AcDbDimStyleTableRecord
  2
AM_JIS$4
 70
     0
  4
"
 41
2.699999999999999
 42
1.0
 43
10.0
 44
1.0
 47
0.1
 48
0.1000000001
 73
     0
 77
     3
 78
     8
 79
     2
140
3.799999999999999
141
0.0
143
0.0393701
146
0.71
147
1.5
176
   256
177
   256
178
     2
271
     2
272
     2
275
     1
283
     0
284
     8
288
     1
289
     0
340
11
341
59
342
59
371
    -1
372
    -1
  0
DIMSTYLE
105
61
330
A
100
AcDbSymbolTableRecord
100
AcDbDimStyleTableRecord
  2
AM_JIS$6
 70
     0
  4
"
 41
2.699999999999999
 42
1.0
 43
10.0
 44
1.0
 47
0.1
 48
0.1000000001
 73
     0
 74
     0
 78
     8
 79
     2
140
3.799999999999999
141
0.0
143
0.0393701
146
0.71
147
1.5
172
     1
176
   256
177
   256
178
     2
271
     2
272
     2
275
     1
283
     0
284
     8
340
11
341
59
342
59
371
    -1
372
    -1
  0
DIMSTYLE
105
62
330
A
100
AcDbSymbolTableRecord
100
AcDbDimStyleTableRecord
  2
AM_JIS$7
 70
     0
  4
"
 41
2.699999999999999
 42
1.0
 43
10.0
 44
1.0
 47
0.1
 48
0.1000000001
 73
     0
 74
     0
 77
     3
 78
     8
 79
     2
140
3.5
141
0.0
143
0.0393701
146
0.71
147
1.5
172
     1
176
     3
177
   256
178
     2
271
     2
272
     2
275
     1
283
     0
284
     8
340
11
341
59
342
59
371
    -1
372
    -1
  0
DIMSTYLE
105
63
330
A
100
AcDbSymbolTableRecord
100
AcDbDimStyleTableRecord
  2
AM_JIS$SF
 70
     0
  4
"
 41
2.5
 42
1.0
 43
10.0
 44
1.0
 47
0.1
 48
0.1
 73
     0
 74
     0
 75
     1
 76
     1
 77
     3
 78
     8
 79
     2
140
3.5
141
0.0
143
0.0393701
146
0.71
147
1.5
172
     1
176
   256
177
   256
178
     2
271
     2
272
     3
274
     4
283
     0
284
     8
340
11
341
59
342
59
343
59
344
59
371
    -1
372
    -1
  0
DIMSTYLE
105
68
330
A
100
AcDbSymbolTableRecord
100
AcDbDimStyleTableRecord
  2
AM_JIS$SH
 70
     0
  4
"
 41
2.5
 42
1.0
 43
10.0
 44
1.0
 47
0.1
 48
0.1
 73
     0
 74
     0
 75
     1
 76
     1
 77
     3
 78
     8
 79
     2
140
3.5
141
0.0
143
0.0393701
144
2.0
146
0.71
147
1.5
172
     1
173
     1
176
   256
177
   256
178
     2
271
     2
272
     3
274
     4
283
     0
284
     8
340
11
341
59
342
59
343
64
344
59
371
    -1
372
    -1
  0
DIMSTYLE
105
B34
330
A
100
AcDbSymbolTableRecord
100
AcDbDimStyleTableRecord
  2
AM_JIS$2
 70
     0
  4
"
 41
2.699999999999999
 42
0.0
 43
7.0
 44
0.5
 47
0.1
 48
0.1000000001
 73
     0
 74
     0
 77
     3
 78
     8
 79
     2
140
3.5
141
0.0
143
0.0393701
146
0.71
147
1.0
172
     1
176
     3
177
     3
178
     2
179
     1
271
     2
272
     2
275
     1
283
     0
284
     8
340
11
341
59
342
59
371
    -1
372
    -1
  0
DIMSTYLE
105
3B48
102
{ACAD_REACTORS
330
B0B5
330
B022
330
AF69
330
AEB0
330
B180
330
B21E
102
}
330
A
100
AcDbSymbolTableRecord
100
AcDbDimStyleTableRecord
  2
AM_JIS$0
 70
     0
  4
"
 41
2.699999999999999
 42
0.0
 43
7.0
 44
0.5
 47
0.1
 48
0.1000000001
 73
     0
 74
     0
 77
     3
 78
     8
 79
     2
140
3.5
141
0.0
143
0.0393701
146
0.71
147
1.0
172
     1
176
     3
177
     3
178
     2
179
     1
271
     2
272
     2
275
     1
283
     0
284
     8
340
11
341
59
342
59
371
    -1
372
    -1
  0
DIMSTYLE
105
502B
330
A
100
AcDbSymbolTableRecord
100
AcDbDimStyleTableRecord
  2
AM_JISORG-1P0$2
 70
     0
  4
"
 41
2.5
 42
0.0
 43
10.0
 44
1.0
 47
0.1
 48
0.1000000001
 73
     0
 74
     0
 77
     3
 78
     1
140
3.799999999999998
141
0.0
143
0.0393701
144
-1.000000047579402
146
0.71
147
1.5
172
     1
176
     3
177
     3
178
     2
271
     2
272
     2
275
     1
283
     0
284
     8
340
11
341
59
342
59
  0
DIMSTYLE
105
502C
330
A
100
AcDbSymbolTableRecord
100
AcDbDimStyleTableRecord
  2
AM_JISORG0P5$0
 70
     0
  4
"
 41
2.5
 42
0.0
 43
10.0
 44
1.0
 47
0.1
 48
0.1000000001
 73
     0
 74
     0
 77
     3
 78
     1
140
3.799999999999998
141
0.0
143
0.0393701
144
0.5000003785514307
146
0.71
147
1.5
172
     1
176
     3
177
     3
178
     2
271
     2
272
     2
275
     1
283
     0
284
     8
340
11
341
59
342
59
  0
DIMSTYLE
105
502D
330
A
100
AcDbSymbolTableRecord
100
AcDbDimStyleTableRecord
  2
AM_JISORG0P2$4
 70
     0
  4
"
 41
2.5
 42
0.0
 43
10.0
 44
1.0
 47
0.1
 48
0.1000000001
 73
     0
 74
     0
 77
     3
 78
     1
140
3.799999999999998
141
0.0
143
0.0393701
144
0.2
146
0.71
147
1.5
172
     1
176
     3
177
     3
178
     2
271
     2
272
     2
275
     1
283
     0
284
     8
288
     1
340
11
341
59
342
59
  0
DIMSTYLE
105
78C0
330
A
100
AcDbSymbolTableRecord
100
AcDbDimStyleTableRecord
  2
AM_ISO
 70
     0
  4
"
 41
2.5
 42
1.0
 43
10.0
 44
1.0
 47
0.1
 48
0.1
 73
     0
 74
     0
 77
     1
 78
     8
 79
     2
140
3.5
141
0.0
143
0.0393701
146
0.71
147
1.5
172
     1
176
   256
177
   256
178
     2
271
     2
272
     3
274
     4
283
     0
284
     8
340
11
371
    -1
372
    -1
  0
DIMSTYLE
105
84DF
330
A
100
AcDbSymbolTableRecord
100
AcDbDimStyleTableRecord
  2
STANDARD
 70
     0
340
11
  0
DIMSTYLE
105
B623
330
A
100
AcDbSymbolTableRecord
100
AcDbDimStyleTableRecord
  2
AM_ISO$3
 70
     0
  4
"
 41
2.5
 42
1.0
 43
10.0
 44
1.0
 47
0.1
 48
0.1
 73
     0
 77
     1
 78
     8
 79
     2
140
3.5
141
0.0
143
0.0393701
146
0.71
147
1.5
176
   256
177
   256
178
     2
271
     2
272
     3
274
     4
283
     0
284
     8
288
     1
289
     0
340
11
371
    -1
372
    -1
  0
DIMSTYLE
105
B624
330
A
100
AcDbSymbolTableRecord
100
AcDbDimStyleTableRecord
  2
AM_ISO$4
 70
     0
  4
"
 41
2.5
 42
1.0
 43
10.0
 44
1.0
 47
0.1
 48
0.1
 73
     0
 77
     1
 78
     8
 79
     2
140
3.5
141
0.0
143
0.0393701
146
0.71
147
1.5
176
   256
177
   256
178
     2
271
     2
272
     3
274
     4
283
     0
284
     8
288
     1
289
     0
340
11
371
    -1
372
    -1
  0
DIMSTYLE
105
B625
330
A
100
AcDbSymbolTableRecord
100
AcDbDimStyleTableRecord
  2
AM_ISO$6
 70
     0
  4
"
 41
2.5
 42
1.0
 43
10.0
 44
1.0
 47
0.1
 48
0.1
 73
     0
 74
     0
 78
     8
 79
     2
140
3.5
141
0.0
143
0.0393701
146
0.71
147
1.5
172
     1
176
   256
177
   256
178
     2
271
     2
272
     3
274
     4
283
     0
284
     8
340
11
371
    -1
372
    -1
  0
DIMSTYLE
105
B626
330
A
100
AcDbSymbolTableRecord
100
AcDbDimStyleTableRecord
  2
AM_ISO$7
 70
     0
  4
"
 41
2.5
 42
1.0
 43
10.0
 44
1.0
 47
0.1
 48
0.1
 73
     0
 74
     0
 77
     1
 78
     8
 79
     2
140
5.0
141
0.0
143
0.0393701
146
0.71
147
1.5
172
     1
176
   256
177
   256
178
     2
271
     2
272
     3
274
     4
283
     0
284
     8
340
11
371
    -1
372
    -1
  0
DIMSTYLE
105
B627
330
A
100
AcDbSymbolTableRecord
100
AcDbDimStyleTableRecord
  2
AM_ISO$SF
 70
     0
  4
"
 41
2.5
 42
1.0
 43
10.0
 44
1.0
 47
0.1
 48
0.1
 73
     0
 74
     0
 75
     1
 76
     1
 77
     1
 78
     8
 79
     2
140
3.5
141
0.0
143
0.0393701
146
0.71
147
1.5
172
     1
176
   256
177
   256
178
     2
271
     2
272
     3
274
     4
283
     0
284
     8
340
11
371
    -1
372
    -1
  0
DIMSTYLE
105
B628
330
A
100
AcDbSymbolTableRecord
100
AcDbDimStyleTableRecord
  2
AM_ISO$SH
 70
     0
  4
"
 41
2.5
 42
1.0
 43
10.0
 44
1.0
 47
0.1
 48
0.1
 73
     0
 74
     0
 75
     1
 76
     1
 77
     1
 78
     8
 79
     2
140
3.5
141
0.0
143
0.0393701
144
2.0
146
0.71
147
1.5
172
     1
173
     1
176
   256
177
   256
178
     2
271
     2
272
     3
274
     4
283
     0
284
     8
340
11
343
64
371
    -1
372
    -1
  0
ENDTAB
  0
TABLE
  2
BLOCK_RECORD
  5
1
330
0
100
AcDbSymbolTable
 70
     9
  0
BLOCK_RECORD
  5
1F
102
{ACAD_XDICTIONARY
360
74
102
}
330
1
100
AcDbSymbolTableRecord
100
AcDbBlockTableRecord
  2
*MODEL_SPACE
340
B598
  0
BLOCK_RECORD
  5
101
102
{ACAD_XDICTIONARY
360
B556
102
}
330
1
100
AcDbSymbolTableRecord
100
AcDbBlockTableRecord
  2
*PAPER_SPACE
340
B599
  0
BLOCK_RECORD
  5
59
330
1
100
AcDbSymbolTableRecord
100
AcDbBlockTableRecord
  2
_Open30
340
0
  0
BLOCK_RECORD
  5
64
330
1
100
AcDbSymbolTableRecord
100
AcDbBlockTableRecord
  2
GENAXEH
340
0
  0
BLOCK_RECORD
  5
AEB1
330
1
100
AcDbSymbolTableRecord
100
AcDbBlockTableRecord
  2
*D2
340
0
  0
BLOCK_RECORD
  5
AF6A
330
1
100
AcDbSymbolTableRecord
100
AcDbBlockTableRecord
  2
*D3
340
0
  0
BLOCK_RECORD
  5
B023
330
1
100
AcDbSymbolTableRecord
100
AcDbBlockTableRecord
  2
*D4
340
0
  0
BLOCK_RECORD
  5
B0B6
330
1
100
AcDbSymbolTableRecord
100
AcDbBlockTableRecord
  2
*D5
340
0
  0
BLOCK_RECORD
  5
B181
330
1
100
AcDbSymbolTableRecord
100
AcDbBlockTableRecord
  2
*D6
340
0
  0
BLOCK_RECORD
  5
B21F
330
1
100
AcDbSymbolTableRecord
100
AcDbBlockTableRecord
  2
*D7
340
0
  0
ENDTAB
  0
ENDSEC
  0
SECTION
  2
BLOCKS
  0
BLOCK
  5
20
330
1F
100
AcDbEntity
  8
0
100
AcDbBlockBegin
  2
*MODEL_SPACE
 70
     0
 10
0.0
 20
0.0
 30
0.0
  3
*MODEL_SPACE
  1

  0
ENDBLK
  5
21
330
1F
100
AcDbEntity
  8
0
100
AcDbBlockEnd
  0
BLOCK
  5
103
330
101
100
AcDbEntity
 67
     1
  8
0
100
AcDbBlockBegin
  2
*PAPER_SPACE
 70
     0
 10
0.0
 20
0.0
 30
0.0
  3
*PAPER_SPACE
  1

  0
ENDBLK
  5
104
330
101
100
AcDbEntity
 67
     1
  8
0
100
AcDbBlockEnd
  0
BLOCK
  5
B64A
330
59
100
AcDbEntity
  8
0
100
AcDbBlockBegin
  2
_Open30
 70
     0
 10
0.0
 20
0.0
 30
0.0
  3
_Open30
  1

  0
LINE
  5
B64B
330
59
100
AcDbEntity
  8
0
  6
ByBlock
 62
     0
370
    -2
100
AcDbLine
 10
-1.0
 20
0.26794919
 30
0.0
 11
0.0
 21
0.0
 31
0.0
  0
LINE
  5
B64C
330
59
100
AcDbEntity
  8
0
  6
ByBlock
 62
     0
370
    -2
100
AcDbLine
 10
0.0
 20
0.0
 30
0.0
 11
-1.0
 21
-0.26794919
 31
0.0
  0
LINE
  5
B64D
330
59
100
AcDbEntity
  8
0
  6
ByBlock
 62
     0
370
    -2
100
AcDbLine
 10
0.0
 20
0.0
 30
0.0
 11
-1.0
 21
0.0
 31
0.0
  0
ENDBLK
  5
B64E
330
59
100
AcDbEntity
  8
0
100
AcDbBlockEnd
  0
BLOCK
  5
B62A
330
64
100
AcDbEntity
  8
0
100
AcDbBlockBegin
  2
GENAXEH
 70
     0
 10
0.0
 20
0.0
 30
0.0
  3
GENAXEH
  1

  0
LINE
  5
B62B
330
64
100
AcDbEntity
  8
0
100
AcDbLine
 10
-1.0
 20
0.0
 30
0.0
 11
1.0
 21
0.0
 31
0.0
  0
ENDBLK
  5
B62C
330
64
100
AcDbEntity
  8
0
100
AcDbBlockEnd
  0
BLOCK
  5
AEBB
330
AEB1
100
AcDbEntity
  8
0
100
AcDbBlockBegin
  2
*D2
 70
     1
 10
0.0
 20
0.0
 30
0.0
  3
*D2
  1

  0
LINE
  5
B558
330
AEB1
100
AcDbEntity
  8
AM_5
100
AcDbLine
 10
-35.40000000000035
 20
15.79643249511707
 30
0.0
 11
-35.40000000000035
 21
29.89618019921913
 31
0.0
  0
LINE
  5
B559
330
AEB1
100
AcDbEntity
  8
AM_5
100
AcDbLine
 10
-0.0000000000003285
 20
15.79643249511718
 30
0.0
 11
-0.0000000000003311
 21
29.89618019921914
 31
0.0
  0
LINE
  5
B55A
330
AEB1
100
AcDbEntity
  8
AM_5
100
AcDbLine
 10
-32.90000000000034
 20
28.89618019921913
 30
0.0
 11
-2.50000000000033
 21
28.89618019921914
 31
0.0
  0
INSERT
  5
B55B
330
AEB1
100
AcDbEntity
  8
AM_5
100
AcDbBlockReference
  2
_Open30
 10
-35.40000000000035
 20
28.89618019921913
 30
0.0
 41
2.5
 42
2.5
 43
2.5
 50
180.0
  0
INSERT
  5
B55C
330
AEB1
100
AcDbEntity
  8
AM_5
100
AcDbBlockReference
  2
_Open30
 10
-0.0000000000003309
 20
28.89618019921914
 30
0.0
 41
2.5
 42
2.5
 43
2.5
  0
MTEXT
  5
B55D
330
AEB1
100
AcDbEntity
  8
AM_5
 62
     2
100
AcDbMText
 10
-17.70000000000033
 20
31.99618019921913
 30
0.0
 40
3.2
 41
0.0
 71
     5
 72
     1
  1
35
  7
ASAMI
 73
     1
 44
1.0
1001
ACAD
1000
MTEXTBEGIN
1070
    73
1070
     1
1070
    44
1040
1.0
1070
    74
1070
     0
1000
MTEXTEND
  0
POINT
  5
B55E
330
AEB1
100
AcDbEntity
  8
DEFPOINTS
 62
     0
100
AcDbPoint
 10
-35.4000000000003
 20
14.79643249511714
 30
0.0
  0
POINT
  5
B55F
330
AEB1
100
AcDbEntity
  8
DEFPOINTS
 62
     0
100
AcDbPoint
 10
-0.0000000000002984
 20
14.79643249511718
 30
0.0
  0
POINT
  5
B560
330
AEB1
100
AcDbEntity
  8
DEFPOINTS
 62
     0
100
AcDbPoint
 10
-0.0000000000002725
 20
28.89618019921914
 30
0.0
  0
ENDBLK
  5
AEBC
330
AEB1
100
AcDbEntity
  8
0
100
AcDbBlockEnd
  0
BLOCK
  5
AF74
330
AF6A
100
AcDbEntity
  8
0
100
AcDbBlockBegin
  2
*D3
 70
     1
 10
0.0
 20
0.0
 30
0.0
  3
*D3
  1

  0
LINE
  5
B561
330
AF6A
100
AcDbEntity
  8
AM_5
100
AcDbLine
 10
0.9999999999996616
 20
14.79643249511717
 30
0.0
 11
19.48191170556569
 21
14.79643249511721
 31
0.0
  0
LINE
  5
B562
330
AF6A
100
AcDbEntity
  8
AM_5
100
AcDbLine
 10
0.9999999999998053
 20
-14.79643249511684
 30
0.0
 11
19.48191170556575
 21
-14.7964324951168
 31
0.0
  0
LINE
  5
B563
330
AF6A
100
AcDbEntity
  8
AM_5
100
AcDbLine
 10
18.48191170556569
 20
12.2964324951172
 30
0.0
 11
18.48191170556575
 21
-12.29643249511681
 31
0.0
  0
INSERT
  5
B564
330
AF6A
100
AcDbEntity
  8
AM_5
100
AcDbBlockReference
  2
_Open30
 10
18.48191170556569
 20
14.7964324951172
 30
0.0
 41
2.5
 42
2.5
 43
2.5
 50
90.0000000000001
  0
INSERT
  5
B565
330
AF6A
100
AcDbEntity
  8
AM_5
100
AcDbBlockReference
  2
_Open30
 10
18.48191170556575
 20
-14.79643249511681
 30
0.0
 41
2.5
 42
2.5
 43
2.5
 50
270.0000000000001
  0
MTEXT
  5
B566
330
AF6A
100
AcDbEntity
  8
AM_5
 62
     2
100
AcDbMText
 10
15.38191170556572
 20
0.000000000000192
 30
0.0
 40
3.2
 41
0.0
 71
     5
 72
     1
  1
%%c30
  7
ASAMI
 11
-0.000000000000002
 21
1.0
 31
0.0
 73
     1
 44
1.0
1001
ACAD
1000
MTEXTBEGIN
1070
    73
1070
     1
1070
    44
1040
1.0
1070
    74
1070
     0
1000
MTEXTEND
  0
POINT
  5
B567
330
AF6A
100
AcDbEntity
  8
DEFPOINTS
 62
     0
100
AcDbPoint
 10
-0.0000000000003055
 20
14.79643249511717
 30
0.0
  0
POINT
  5
B568
330
AF6A
100
AcDbEntity
  8
DEFPOINTS
 62
     0
100
AcDbPoint
 10
-0.0000000000002274
 20
-14.79643249511684
 30
0.0
  0
POINT
  5
B569
330
AF6A
100
AcDbEntity
  8
DEFPOINTS
 62
     0
100
AcDbPoint
 10
18.48191170556572
 20
-14.79643249511685
 30
0.0
  0
ENDBLK
  5
AF75
330
AF6A
100
AcDbEntity
  8
0
100
AcDbBlockEnd
  0
BLOCK
  5
B02D
330
B023
100
AcDbEntity
  8
0
100
AcDbBlockBegin
  2
*D4
 70
     1
 10
0.0
 20
0.0
 30
0.0
  3
*D4
  1

  0
LINE
  5
B56A
330
B023
100
AcDbEntity
  8
AM_5
100
AcDbLine
 10
-0.0000000000002097
 20
-15.79643249511683
 30
0.0
 11
-0.0000000000001823
 21
-29.7964334951169
 31
0.0
  0
LINE
  5
B56B
330
B023
100
AcDbEntity
  8
AM_5
100
AcDbLine
 10
-49.98554801940921
 20
-13.69999694824203
 30
0.0
 11
-49.98554801940918
 21
-29.796433495117
 31
0.0
  0
LINE
  5
B56C
330
B023
100
AcDbEntity
  8
AM_5
100
AcDbLine
 10
-2.500000000000184
 20
-28.7964334951169
 30
0.0
 11
-47.48554801940918
 21
-28.79643349511699
 31
0.0
  0
INSERT
  5
B56D
330
B023
100
AcDbEntity
  8
AM_5
100
AcDbBlockReference
  2
_Open30
 10
-0.0000000000001842
 20
-28.7964334951169
 30
0.0
 41
2.5
 42
2.5
 43
2.5
 50
0.0000000000001018
  0
INSERT
  5
B56E
330
B023
100
AcDbEntity
  8
AM_5
100
AcDbBlockReference
  2
_Open30
 10
-49.98554801940918
 20
-28.796433495117
 30
0.0
 41
2.5
 42
2.5
 43
2.5
 50
180.0000000000001
  0
MTEXT
  5
B56F
330
B023
100
AcDbEntity
  8
AM_5
 62
     2
100
AcDbMText
 10
-24.99277400970469
 20
-25.69643349511695
 30
0.0
 40
3.2
 41
0.0
 71
     5
 72
     1
  1
50
  7
ASAMI
 73
     1
 44
1.0
1001
ACAD
1000
MTEXTBEGIN
1070
    73
1070
     1
1070
    44
1040
1.0
1070
    74
1070
     0
1000
MTEXTEND
  0
POINT
  5
B570
330
B023
100
AcDbEntity
  8
DEFPOINTS
 62
     0
100
AcDbPoint
 10
-0.0000000000002416
 20
-14.79643249511683
 30
0.0
  0
POINT
  5
B571
330
B023
100
AcDbEntity
  8
DEFPOINTS
 62
     0
100
AcDbPoint
 10
-49.98554801940922
 20
-12.69999694824193
 30
0.0
  0
POINT
  5
B572
330
B023
100
AcDbEntity
  8
DEFPOINTS
 62
     0
100
AcDbPoint
 10
-49.98554801940922
 20
-28.7964334951169
 30
0.0
  0
ENDBLK
  5
B02E
330
B023
100
AcDbEntity
  8
0
100
AcDbBlockEnd
  0
BLOCK
  5
B0C0
330
B0B6
100
AcDbEntity
  8
0
100
AcDbBlockBegin
  2
*D5
 70
     1
 10
0.0
 20
0.0
 30
0.0
  3
*D5
  1

  0
LINE
  5
B573
330
B0B6
100
AcDbEntity
  8
AM_5
100
AcDbLine
 10
-49.98554801940921
 20
-13.69999694824203
 30
0.0
 11
-49.98554801940918
 21
-29.796433495117
 31
0.0
  0
LINE
  5
B574
330
B0B6
100
AcDbEntity
  8
AM_5
100
AcDbLine
 10
-149.9855346679652
 20
-11.16149902343843
 30
0.0
 11
-149.9855346679652
 21
-29.7964334951172
 31
0.0
  0
LINE
  5
B575
330
B0B6
100
AcDbEntity
  8
AM_5
100
AcDbLine
 10
-52.48554801940918
 20
-28.79643349511701
 30
0.0
 11
-147.4855346679652
 21
-28.7964334951172
 31
0.0
  0
INSERT
  5
B576
330
B0B6
100
AcDbEntity
  8
AM_5
100
AcDbBlockReference
  2
_Open30
 10
-49.98554801940918
 20
-28.796433495117
 30
0.0
 41
2.5
 42
2.5
 43
2.5
 50
0.0000000000001018
  0
INSERT
  5
B577
330
B0B6
100
AcDbEntity
  8
AM_5
100
AcDbBlockReference
  2
_Open30
 10
-149.9855346679652
 20
-28.7964334951172
 30
0.0
 41
2.5
 42
2.5
 43
2.5
 50
180.0000000000001
  0
MTEXT
  5
B578
330
B0B6
100
AcDbEntity
  8
AM_5
 62
     2
100
AcDbMText
 10
-99.98554134368722
 20
-25.6964334951171
 30
0.0
 40
3.2
 41
0.0
 71
     5
 72
     1
  1
100
  7
ASAMI
 73
     1
 44
1.0
1001
ACAD
1000
MTEXTBEGIN
1070
    73
1070
     1
1070
    44
1040
1.0
1070
    74
1070
     0
1000
MTEXTEND
  0
POINT
  5
B579
330
B0B6
100
AcDbEntity
  8
DEFPOINTS
 62
     0
100
AcDbPoint
 10
-49.98554801940922
 20
-12.69999694824193
 30
0.0
  0
POINT
  5
B57A
330
B0B6
100
AcDbEntity
  8
DEFPOINTS
 62
     0
100
AcDbPoint
 10
-149.9855346679652
 20
-10.16149902343812
 30
0.0
  0
POINT
  5
B57B
330
B0B6
100
AcDbEntity
  8
DEFPOINTS
 62
     0
100
AcDbPoint
 10
-149.9855346679652
 20
-28.7964334951169
 30
0.0
  0
ENDBLK
  5
B0C1
330
B0B6
100
AcDbEntity
  8
0
100
AcDbBlockEnd
  0
BLOCK
  5
B18B
330
B181
100
AcDbEntity
  8
0
100
AcDbBlockBegin
  2
*D6
 70
     1
 10
0.0
 20
0.0
 30
0.0
  3
*D6
  1

  0
LINE
  5
B57C
330
B181
100
AcDbEntity
  8
AM_5
100
AcDbLine
 10
-147.9855422973552
 20
12.49999237060454
 30
0.0
 11
-168.0075083242153
 21
12.4999923706045
 31
0.0
  0
LINE
  5
B57D
330
B181
100
AcDbEntity
  8
AM_5
100
AcDbLine
 10
-147.9855346679652
 20
-12.50000000000045
 30
0.0
 11
-168.0075083242152
 21
-12.50000000000049
 31
0.0
  0
LINE
  5
B57E
330
B181
100
AcDbEntity
  8
AM_5
100
AcDbLine
 10
-167.0075083242153
 20
9.999992370604507
 30
0.0
 11
-167.0075083242152
 21
-10.00000000000049
 31
0.0
  0
INSERT
  5
B57F
330
B181
100
AcDbEntity
  8
AM_5
100
AcDbBlockReference
  2
_Open30
 10
-167.0075083242153
 20
12.4999923706045
 30
0.0
 41
2.5
 42
2.5
 43
2.5
 50
90.0000000000001
  0
INSERT
  5
B580
330
B181
100
AcDbEntity
  8
AM_5
100
AcDbBlockReference
  2
_Open30
 10
-167.0075083242152
 20
-12.50000000000049
 30
0.0
 41
2.5
 42
2.5
 43
2.5
 50
270.0000000000001
  0
MTEXT
  5
B581
330
B181
100
AcDbEntity
  8
AM_5
 62
     2
100
AcDbMText
 10
-170.1075083242152
 20
-0.0000038146979914
 30
0.0
 40
3.2
 41
0.0
 71
     5
 72
     1
  1
%%c25
  7
ASAMI
 11
-0.000000000000002
 21
1.0
 31
0.0
 73
     1
 44
1.0
1001
ACAD
1000
MTEXTBEGIN
1070
    73
1070
     1
1070
    44
1040
1.0
1070
    74
1070
     0
1000
MTEXTEND
  0
POINT
  5
B582
330
B181
100
AcDbEntity
  8
DEFPOINTS
 62
     0
100
AcDbPoint
 10
-146.9855422973552
 20
12.49999237060487
 30
0.0
  0
POINT
  5
B583
330
B181
100
AcDbEntity
  8
DEFPOINTS
 62
     0
100
AcDbPoint
 10
-146.9855346679652
 20
-12.50000000000012
 30
0.0
  0
POINT
  5
B584
330
B181
100
AcDbEntity
  8
DEFPOINTS
 62
     0
100
AcDbPoint
 10
-167.0075083242152
 20
-12.50000000000012
 30
0.0
  0
ENDBLK
  5
B18C
330
B181
100
AcDbEntity
  8
0
100
AcDbBlockEnd
  0
BLOCK
  5
B229
330
B21F
100
AcDbEntity
  8
0
100
AcDbBlockBegin
  2
*D7
 70
     1
 10
0.0
 20
0.0
 30
0.0
  3
*D7
  1

  0
LINE
  5
B585
330
B21F
100
AcDbEntity
  8
AM_5
100
AcDbLine
 10
-149.9855346679652
 20
-11.16149902343843
 30
0.0
 11
-149.9855346679652
 21
-39.7964334951172
 31
0.0
  0
LINE
  5
B586
330
B21F
100
AcDbEntity
  8
AM_5
100
AcDbLine
 10
-0.0000000000001955
 20
-15.79643249511683
 30
0.0
 11
-0.0000000000001485
 21
-39.7964334951169
 31
0.0
  0
LINE
  5
B587
330
B21F
100
AcDbEntity
  8
AM_5
100
AcDbLine
 10
-147.4855346679651
 20
-38.7964334951172
 30
0.0
 11
-2.50000000000015
 21
-38.7964334951169
 31
0.0
  0
INSERT
  5
B588
330
B21F
100
AcDbEntity
  8
AM_5
100
AcDbBlockReference
  2
_Open30
 10
-149.9855346679652
 20
-38.7964334951172
 30
0.0
 41
2.5
 42
2.5
 43
2.5
 50
180.0000000000001
  0
INSERT
  5
B589
330
B21F
100
AcDbEntity
  8
AM_5
100
AcDbBlockReference
  2
_Open30
 10
-0.0000000000001504
 20
-38.7964334951169
 30
0.0
 41
2.5
 42
2.5
 43
2.5
 50
0.0000000000001018
  0
MTEXT
  5
B58A
330
B21F
100
AcDbEntity
  8
AM_5
 62
     2
100
AcDbMText
 10
-74.99276733398268
 20
-35.69643349511705
 30
0.0
 40
3.2
 41
0.0
 71
     5
 72
     1
  1
150
  7
ASAMI
 73
     1
 44
1.0
1001
ACAD
1000
MTEXTBEGIN
1070
    73
1070
     1
1070
    44
1040
1.0
1070
    74
1070
     0
1000
MTEXTEND
  0
POINT
  5
B58B
330
B21F
100
AcDbEntity
  8
DEFPOINTS
 62
     0
100
AcDbPoint
 10
-149.9855346679652
 20
-10.16149902343812
 30
0.0
  0
POINT
  5
B58C
330
B21F
100
AcDbEntity
  8
DEFPOINTS
 62
     0
100
AcDbPoint
 10
-0.0000000000002274
 20
-14.79643249511683
 30
0.0
  0
POINT
  5
B58D
330
B21F
100
AcDbEntity
  8
DEFPOINTS
 62
     0
100
AcDbPoint
 10
-0.0000000000002288
 20
-38.7964334951169
 30
0.0
  0
ENDBLK
  5
B22A
330
B21F
100
AcDbEntity
  8
0
100
AcDbBlockEnd
  0
ENDSEC
  0
SECTION
  2
ENTITIES
  0
TEXT
  5
388D
330
1F
100
AcDbEntity
  8
AM_6
100
AcDbText
 10
-94.63562447683978
 20
-61.29643349511697
 30
0.0
 40
5.0
  1
WMM2030E
 50
359.9999999999997
 51
359.9999999999998
 72
     4
 11
-74.99276733398263
 21
-58.79643349511706
 31
0.0
100
AcDbText
  0
SPLINE
  5
AB4A
330
1F
100
AcDbEntity
  8
AM_0
100
AcDbSpline
210
0.0
220
0.0
230
1.0
 70
     8
 71
     3
 72
    11
 73
     7
 74
     5
 42
0.0000000001
 43
0.0000000001
 44
0.0000000001
 40
0.0
 40
0.0
 40
0.0
 40
0.0
 40
2.203885464232655
 40
4.389442555745809
 40
6.572825039074361
 40
8.772993248847379
 40
8.772993248847379
 40
8.772993248847379
 40
8.772993248847379
 10
-26.75138187408475
 20
-13.62738037109389
 30
0.0
 10
-27.48543065440735
 20
-13.59059916048187
 30
0.0
 10
-28.94742357855561
 20
-13.51734262617806
 30
0.0
 10
-31.12024358297452
 20
-13.22705190209962
 30
0.0
 10
-33.28896211158221
 20
-12.91897616350812
 30
0.0
 10
-34.74780245054594
 20
-12.82585343103697
 30
0.0
 10
-35.48001575469994
 20
-12.77911376953091
 30
0.0
 11
-26.75138187408475
 21
-13.62738037109389
 31
0.0
 11
-28.95076847076444
 21
-13.48663330078089
 31
0.0
 11
-31.12048435211205
 21
-13.22396850585889
 31
0.0
 11
-33.28631305694603
 21
-12.9476623535149
 31
0.0
 11
-35.48001575469994
 21
-12.77911376953091
 31
0.0
  0
SPLINE
  5
AB4B
330
1F
100
AcDbEntity
  8
AM_0
100
AcDbSpline
210
0.0
220
0.0
230
1.0
 70
     8
 71
     3
 72
    11
 73
     7
 74
     5
 42
0.0000000001
 43
0.0000000001
 44
0.0000000001
 40
0.0
 40
0.0
 40
0.0
 40
0.0
 40
1.396356708441945
 40
2.777856318239225
 40
4.176032548360413
 40
5.581823723400338
 40
5.581823723400338
 40
5.581823723400338
 40
5.581823723400338
 10
-29.54662799835234
 20
-4.656463623046897
 30
0.0
 10
-29.5515469366371
 20
-4.183705155099453
 30
0.0
 10
-29.56133247618493
 20
-3.243218323010369
 30
0.0
 10
-30.87161031914855
 20
-2.075748831975364
 30
0.0
 10
-32.26099331931818
 20
-3.11869020029557
 30
0.0
 10
-32.44353787081934
 20
-4.038181706306493
 30
0.0
 10
-32.53505802154564
 20
-4.499176025389905
 30
0.0
 11
-29.54662799835234
 21
-4.656463623046897
 31
0.0
 11
-29.77914524078395
 21
-3.279602050780889
 31
0.0
 11
-30.87886905670197
 21
-2.44345092773389
 31
0.0
 11
-32.07241916656517
 21
-3.171691894530898
 31
0.0
 11
-32.53505802154564
 21
-4.499176025389905
 31
0.0
  0
SPLINE
  5
AB4C
330
1F
100
AcDbEntity
  8
AM_0
100
AcDbSpline
210
0.0
220
0.0
230
1.0
 70
     8
 71
     3
 72
    11
 73
     7
 74
     5
 42
0.0000000001
 43
0.0000000001
 44
0.0000000001
 40
0.0
 40
0.0
 40
0.0
 40
0.0
 40
0.1389332993202348
 40
0.2811464028104514
 40
0.4243203176192571
 40
0.5656622412310198
 40
0.5656622412310198
 40
0.5656622412310198
 40
0.5656622412310198
 10
-31.54957675933864
 20
-7.085876464843896
 30
0.0
 10
-31.50843287896857
 20
-7.107587893029855
 30
0.0
 10
-31.42517383293494
 20
-7.151523291989105
 30
0.0
 10
-31.28442311640359
 20
-7.178730229261695
 30
0.0
 10
-31.14048197042395
 20
-7.172166556771236
 30
0.0
 10
-31.05048764634118
 20
-7.140960382750015
 30
0.0
 10
-31.00578022003194
 20
-7.125457763671906
 30
0.0
 11
-31.54957675933864
 21
-7.085876464843896
 31
0.0
 11
-31.42370319366485
 21
-7.144683837889902
 31
0.0
 11
-31.28434467315695
 21
-7.173034667968895
 31
0.0
 11
-31.14137744903585
 21
-7.165344238280896
 31
0.0
 11
-31.00578022003194
 21
-7.125457763671906
 31
0.0
  0
ELLIPSE
  5
AB4D
330
1F
100
AcDbEntity
  8
AM_0
100
AcDbEllipse
 10
-31.23809909820586
 20
-6.123626708983893
 30
0.0
 11
1.486881281706899
 21
-0.1979676909819943
 31
0.0
210
0.0
220
0.0
230
1.0
 40
0.8045210766456998
 41
0.1498667983950592
 42
2.825335166892078
  0
ELLIPSE
  5
AB4E
330
1F
100
AcDbEntity
  8
AM_0
100
AcDbEllipse
 10
-31.23809909820586
 20
-6.123611450194903
 30
0.0
 11
1.239067102580899
 21
-0.1649627694419966
 31
0.0
210
0.0
220
0.0
230
1.0
 40
0.8045099258423002
 41
0.0
 42
3.141592762255706
  0
ELLIPSE
  5
AB4F
330
1F
100
AcDbEntity
  8
AM_0
100
AcDbEllipse
 10
71.24406433104472
 20
0.0000076293953078
 30
0.0
 11
362.42106432022
 21
-6.516518510100269
 31
0.0
210
0.0
220
0.0
230
1.0
 40
0.0332512604678
 41
1.848243948572403
 42
1.905431685946084
  0
ELLIPSE
  5
AB50
330
1F
100
AcDbEntity
  8
AM_0
100
AcDbEllipse
 10
-21.83717346191437
 20
0.0000000000001228
 30
0.0
 11
174.241138988979
 21
-8.123190971253647
 31
0.0
210
0.0
220
0.0
230
1.0
 40
0.0633139263804
 41
4.634923083733117
 42
4.693748254238671
  0
LINE
  5
AB51
330
1F
100
AcDbEntity
  8
AM_0
100
AcDbLine
 10
-34.89976096153283
 20
-10.7833824157709
 30
0.0
 11
-27.41015052795434
 21
-10.86562728881789
 31
0.0
  0
LINE
  5
AB52
330
1F
100
AcDbEntity
  8
AM_0
100
AcDbLine
 10
-34.90721869468714
 20
-11.0529136657709
 30
0.0
 11
-27.41452455520654
 21
-11.13519287109389
 31
0.0
  0
LINE
  5
AB53
330
1F
100
AcDbEntity
  8
AM_0
100
AcDbLine
 10
-22.84300613403347
 20
3.760272979737131
 30
0.0
 11
-34.26746344566377
 21
3.841556549072099
 31
0.0
  0
LINE
  5
AB54
330
1F
100
AcDbEntity
  8
AM_7
100
AcDbLine
 10
4.481910705565724
 20
0.0000000000001705
 30
0.0
 11
-153.0075073242152
 21
-0.0000000000001421
 31
0.0
  0
SPLINE
  5
AB68
330
1F
100
AcDbEntity
  8
AM_0
100
AcDbSpline
210
0.0
220
0.0
230
1.0
 70
     8
 71
     3
 72
    11
 73
     7
 74
     5
 42
0.0000000001
 43
0.0000000001
 44
0.0000000001
 40
0.0
 40
0.0
 40
0.0
 40
0.0
 40
0.0672014965542474
 40
0.1342664696432146
 40
0.2011410082690947
 40
0.2677535206239592
 40
0.2677535206239592
 40
0.2677535206239592
 40
0.2677535206239592
 10
-17.56532287597725
 20
-13.22708129882787
 30
0.0
 10
-17.58593013747996
 20
-13.21823459946179
 30
0.0
 10
-17.62710279572204
 20
-13.20055917327659
 30
0.0
 10
-17.68453456580713
 20
-13.16562417162686
 30
0.0
 10
-17.73822394686461
 20
-13.12548966278672
 30
0.0
 10
-17.76972858392277
 20
-13.09399433844115
 30
0.0
 10
-17.78544998169022
 20
-13.07827758788987
 30
0.0
 11
-17.56532287597725
 21
-13.22708129882787
 31
0.0
 11
-17.62643432617225
 21
-13.19912719726487
 31
0.0
 11
-17.68399047851623
 21
-13.16470336913987
 31
0.0
 11
-17.73723220825224
 21
-13.12423706054688
 31
0.0
 11
-17.78544998169022
 21
-13.07827758788987
 31
0.0
  0
SPLINE
  5
AB69
330
1F
100
AcDbEntity
  8
AM_0
100
AcDbSpline
210
0.0
220
0.0
230
1.0
 70
     8
 71
     3
 72
    11
 73
     7
 74
     5
 42
0.0000000001
 43
0.0000000001
 44
0.0000000001
 40
0.0
 40
0.0
 40
0.0
 40
0.0
 40
0.0449796221567652
 40
0.0897878949373304
 40
0.1344549058666567
 40
0.179021113968019
 40
0.179021113968019
 40
0.179021113968019
 40
0.179021113968019
 10
-17.78544998169022
 20
-13.07827758788987
 30
0.0
 10
-17.79546524602543
 20
-13.06711058202755
 30
0.0
 10
-17.81545762165648
 20
-13.044819110889
 30
0.0
 10
-17.84226978784266
 20
-13.00884536843327
 30
0.0
 10
-17.86675828706243
 20
-12.97141329720715
 30
0.0
 10
-17.88068085648764
 20
-12.94511207419813
 30
0.0
 10
-17.88763427734424
 20
-12.93197631835885
 30
0.0
 11
-17.78544998169022
 21
-13.07827758788987
 31
0.0
 11
-17.81497192382923
 21
-13.04434204101486
 31
0.0
 11
-17.84192276001022
 21
-13.00854492187486
 31
0.0
 11
-17.86618041992223
 21
-12.97103881835885
 31
0.0
 11
-17.88763427734424
 21
-12.93197631835885
 31
0.0
  0
SPLINE
  5
AB6A
330
1F
100
AcDbEntity
  8
AM_0
100
AcDbSpline
210
0.0
220
0.0
230
1.0
 70
     8
 71
     3
 72
    11
 73
     7
 74
     5
 42
0.0000000001
 43
0.0000000001
 44
0.0000000001
 40
0.0
 40
0.0
 40
0.0
 40
0.0
 40
0.0301435594154175
 40
0.0601815817728934
 40
0.090160004179337
 40
0.120089955562654
 40
0.120089955562654
 40
0.120089955562654
 40
0.120089955562654
 10
-17.88763427734424
 20
-12.93197631835885
 30
0.0
 10
-17.89202770904767
 20
-12.9229371804332
 30
0.0
 10
-17.90079919040062
 20
-12.90489055194013
 30
0.0
 10
-17.91216013424298
 20
-12.87704943619621
 30
0.0
 10
-17.92227827078608
 20
-12.84880817298439
 30
0.0
 10
-17.9277660102218
 20
-12.82960242744112
 30
0.0
 10
-17.93050765991324
 20
-12.82000732421885
 30
0.0
 11
-17.88763427734424
 21
-12.93197631835885
 31
0.0
 11
-17.90051651001022
 21
-12.90472412109385
 31
0.0
 11
-17.91196441650424
 21
-12.87695312499986
 31
0.0
 11
-17.92197036743223
 21
-12.84869384765585
 31
0.0
 11
-17.93050765991324
 21
-12.82000732421885
 31
0.0
  0
SPLINE
  5
AB6B
330
1F
100
AcDbEntity
  8
AM_0
100
AcDbSpline
210
0.0
220
0.0
230
1.0
 70
     8
 71
     3
 72
    11
 73
     7
 74
     5
 42
0.0000000001
 43
0.0000000001
 44
0.0000000001
 40
0.0
 40
0.0
 40
0.0
 40
0.0
 40
0.0642441120438211
 40
0.1284891574149834
 40
0.1926798634525328
 40
0.25675186496799
 40
0.25675186496799
 40
0.25675186496799
 40
0.25675186496799
 10
-17.56532287597725
 20
-13.22708129882787
 30
0.0
 10
-17.54517080547688
 20
-13.23438536677779
 30
0.0
 10
-17.50486637171034
 20
-13.24899360878987
 30
0.0
 10
-17.44205221351348
 20
-13.2630249025723
 30
0.0
 10
-17.37834144681325
 20
-13.27175496858738
 30
0.0
 10
-17.33554783900258
 20
-13.27208330045252
 30
0.0
 10
-17.31417083740323
 20
-13.27224731445287
 30
0.0
 11
-17.56532287597725
 21
-13.22708129882787
 31
0.0
 11
-17.50447082519623
 21
-13.24768066406188
 31
0.0
 11
-17.44187545776424
 21
-13.26214599609387
 31
0.0
 11
-17.37821578979525
 21
-13.27038574218688
 31
0.0
 11
-17.31417083740323
 21
-13.27224731445287
 31
0.0
  0
SPLINE
  5
AB6C
330
1F
100
AcDbEntity
  8
AM_0
100
AcDbSpline
210
0.0
220
0.0
230
1.0
 70
     8
 71
     3
 72
    11
 73
     7
 74
     5
 42
0.0000000001
 43
0.0000000001
 44
0.0000000001
 40
0.0
 40
0.0
 40
0.0
 40
0.0
 40
0.0855502948530201
 40
0.1711600300535582
 40
0.2567532630556485
 40
0.3422735854270385
 40
0.3422735854270385
 40
0.3422735854270385
 40
0.3422735854270385
 10
-17.68208312988323
 20
-13.46170043945287
 30
0.0
 10
-17.65531665623123
 20
-13.47162634159643
 30
0.0
 10
-17.6017651115805
 20
-13.49148504240068
 30
0.0
 10
-17.51797522482063
 20
-13.50995834643504
 30
0.0
 10
-17.43287547279327
 20
-13.52067818987837
 30
0.0
 10
-17.37578243350703
 20
-13.52030006557641
 30
0.0
 10
-17.34724807739324
 20
-13.52011108398387
 30
0.0
 11
-17.68208312988323
 21
-13.46170043945287
 31
0.0
 11
-17.60120773315525
 21
-13.48959350585887
 31
0.0
 11
-17.51774978637724
 21
-13.50866699218688
 31
0.0
 11
-17.43275833129924
 21
-13.51879882812487
 31
0.0
 11
-17.34724807739324
 21
-13.52011108398387
 31
0.0
  0
SPLINE
  5
AB6D
330
1F
100
AcDbEntity
  8
AM_0
100
AcDbSpline
210
0.0
220
0.0
230
1.0
 70
     8
 71
     3
 72
    11
 73
     7
 74
     5
 42
0.0000000001
 43
0.0000000001
 44
0.0000000001
 40
0.0
 40
0.0
 40
0.0
 40
0.0
 40
0.0518272065157006
 40
0.1036544130313831
 40
0.1554815511787262
 40
0.2073086893250463
 40
0.2073086893250463
 40
0.2073086893250463
 40
0.2073086893250463
 10
-17.31417083740323
 20
-13.27224731445287
 30
0.0
 10
-17.31448100865061
 20
-13.28952026529911
 30
0.0
 10
-17.31510135114538
 20
-13.32406616699161
 30
0.0
 10
-17.31603349882276
 20
-13.37588496744812
 30
0.0
 10
-17.31695910871383
 20
-13.42770386230427
 30
0.0
 10
-17.31757727126477
 20
-13.46224975748678
 30
0.0
 10
-17.31788635254023
 20
-13.47952270507787
 30
0.0
 11
-17.31417083740323
 21
-13.27224731445287
 31
0.0
 11
-17.31510162353623
 21
-13.32406616210887
 31
0.0
 11
-17.31603240966823
 21
-13.37588500976487
 31
0.0
 11
-17.31695938110423
 21
-13.42770385742188
 31
0.0
 11
-17.31788635254023
 21
-13.47952270507787
 31
0.0
  0
SPLINE
  5
AB6E
330
1F
100
AcDbEntity
  8
AM_0
100
AcDbSpline
210
0.0
220
0.0
230
1.0
 70
     8
 71
     3
 72
    11
 73
     7
 74
     5
 42
0.0000000001
 43
0.0000000001
 44
0.0000000001
 40
0.0
 40
0.0
 40
0.0
 40
0.0
 40
0.0915575318666843
 40
0.1834383932409198
 40
0.2755932956107391
 40
0.3679554422711631
 40
0.3679554422711631
 40
0.3679554422711631
 40
0.3679554422711631
 10
-17.97885894775425
 20
-13.24963378906186
 30
0.0
 10
-17.95809738647744
 20
-13.27205807570519
 30
0.0
 10
-17.91650094581173
 20
-13.31698583891112
 30
0.0
 10
-17.84433498278583
 20
-13.37428871806501
 30
0.0
 10
-17.76648416360924
 20
-13.42406796467937
 30
0.0
 10
-17.71023786587142
 20
-13.44914689188295
 30
0.0
 10
-17.68208312988323
 20
-13.46170043945287
 30
0.0
 11
-17.97885894775425
 21
-13.24963378906186
 31
0.0
 11
-17.91497039795025
 21
-13.31521606445286
 31
0.0
 11
-17.84349822998123
 21
-13.37295532226486
 31
0.0
 11
-17.76547622680723
 21
-13.42199707031188
 31
0.0
 11
-17.68208312988323
 21
-13.46170043945287
 31
0.0
  0
SPLINE
  5
AB6F
330
1F
100
AcDbEntity
  8
AM_0
100
AcDbSpline
210
0.0
220
0.0
230
1.0
 70
     8
 71
     3
 72
    11
 73
     7
 74
     5
 42
0.0000000001
 43
0.0000000001
 44
0.0000000001
 40
0.0
 40
0.0
 40
0.0
 40
0.0
 40
0.0599590093509012
 40
0.1200495389433978
 40
0.1802420797221228
 40
0.2405470191875549
 40
0.2405470191875549
 40
0.2405470191875549
 40
0.2405470191875549
 10
-18.10453033447323
 20
-13.04565429687487
 30
0.0
 10
-18.09646022961122
 20
-13.06395171765768
 30
0.0
 10
-18.08030231809139
 20
-13.10058669466295
 30
0.0
 10
-18.05056899719035
 20
-13.15288851417948
 30
0.0
 10
-18.01722696304531
 20
-13.20310959495508
 30
0.0
 10
-17.99165623687932
 20
-13.23411608352565
 30
0.0
 10
-17.97885894775425
 20
-13.24963378906186
 30
0.0
 11
-18.10453033447323
 21
-13.04565429687487
 31
0.0
 11
-18.07941055297923
 21
-13.10009765624987
 31
0.0
 11
-18.04999542236425
 21
-13.15249633788987
 31
0.0
 11
-18.01641845703225
 21
-13.20245361328087
 31
0.0
 11
-17.97885894775425
 21
-13.24963378906186
 31
0.0
  0
SPLINE
  5
AB70
330
1F
100
AcDbEntity
  8
AM_0
100
AcDbSpline
210
0.0
220
0.0
230
1.0
 70
     8
 71
     3
 72
    11
 73
     7
 74
     5
 42
0.0000000001
 43
0.0000000001
 44
0.0000000001
 40
0.0
 40
0.0
 40
0.0
 40
0.0
 40
0.0508386971596915
 40
0.1017731498777212
 40
0.1527809003249812
 40
0.203901140302264
 40
0.203901140302264
 40
0.203901140302264
 40
0.203901140302264
 10
-18.15697097778423
 20
-12.84918212890587
 30
0.0
 10
-18.15446569840684
 20
-12.86594899489417
 30
0.0
 10
-18.14945042091536
 20
-12.89951430755053
 30
0.0
 10
-18.13772709314354
 20
-12.94912195837944
 30
0.0
 10
-18.12318751883883
 20
-12.9980779381275
 30
0.0
 10
-18.11075396093579
 20
-13.02978386972518
 30
0.0
 10
-18.10453033447323
 20
-13.04565429687487
 30
0.0
 11
-18.15697097778423
 21
-12.84918212890587
 31
0.0
 11
-18.14875793457123
 21
-12.89935302734387
 31
0.0
 11
-18.13726806640723
 21
-12.94897460937487
 31
0.0
 11
-18.12251663208123
 21
-12.99780273437487
 31
0.0
 11
-18.10453033447323
 21
-13.04565429687487
 31
0.0
  0
SPLINE
  5
AB71
330
1F
100
AcDbEntity
  8
AM_0
100
AcDbSpline
210
0.0
220
0.0
230
1.0
 70
     8
 71
     3
 72
    11
 73
     7
 74
     5
 42
0.0000000001
 43
0.0000000001
 44
0.0000000001
 40
0.0
 40
0.0
 40
0.0
 40
0.0
 40
0.3040045021082951
 40
0.6080107208574487
 40
0.9120152229657277
 40
1.216021441714871
 40
1.216021441714871
 40
1.216021441714871
 40
1.216021441714871
 10
-17.34724807739324
 20
-13.52011108398387
 30
0.0
 10
-17.39284860634209
 20
-13.61060605815003
 30
0.0
 10
-17.48404992173506
 20
-13.79159651748588
 30
0.0
 10
-17.62085828506848
 20
-14.06307866598148
 30
0.0
 10
-17.75765908311142
 20
-14.33456526748618
 30
0.0
 10
-17.84886387530026
 20
-14.51555397481844
 30
0.0
 10
-17.89446640014723
 20
-14.60604858398385
 30
0.0
 11
-17.34724807739324
 21
-13.52011108398387
 31
0.0
 11
-17.48405075073325
 21
-13.79159545898387
 31
0.0
 11
-17.62085723877024
 21
-14.06307983398387
 31
0.0
 11
-17.75765991211023
 21
-14.33456420898386
 31
0.0
 11
-17.89446640014723
 21
-14.60604858398385
 31
0.0
  0
SPLINE
  5
AB72
330
1F
100
AcDbEntity
  8
AM_0
100
AcDbSpline
210
0.0
220
0.0
230
1.0
 70
     8
 71
     3
 72
    11
 73
     7
 74
     5
 42
0.0000000001
 43
0.0000000001
 44
0.0000000001
 40
0.0
 40
0.0
 40
0.0
 40
0.0
 40
0.2885039061519874
 40
0.5751483120875994
 40
0.8532347285782698
 40
1.120546107766209
 40
1.120546107766209
 40
1.120546107766209
 40
1.120546107766209
 10
-17.89446640014723
 20
-14.60604858398385
 30
0.0
 10
-17.9911063434848
 20
-14.59692717014333
 30
0.0
 10
-18.18376335472666
 20
-14.57874313290031
 30
0.0
 10
-18.4393263932106
 20
-14.44105315700743
 30
0.0
 10
-18.64164481789911
 20
-14.23938693000407
 30
0.0
 10
-18.69821269196666
 20
-14.06415599516544
 30
0.0
 10
-18.72593784332323
 20
-13.97827148437487
 30
0.0
 11
-17.89446640014723
 21
-14.60604858398385
 31
0.0
 11
-18.17925643920923
 21
-14.55990600585887
 31
0.0
 11
-18.43368911743223
 21
-14.42788696288987
 31
0.0
 11
-18.62449359893824
 21
-14.22558593749988
 31
0.0
 11
-18.72593784332323
 21
-13.97827148437487
 31
0.0
  0
SPLINE
  5
AB73
330
1F
100
AcDbEntity
  8
AM_0
100
AcDbSpline
210
0.0
220
0.0
230
1.0
 70
     8
 71
     3
 72
    11
 73
     7
 74
     5
 42
0.0000000001
 43
0.0000000001
 44
0.0000000001
 40
0.0
 40
0.0
 40
0.0
 40
0.0
 40
0.3160727267782256
 40
0.6321731355992633
 40
0.9482441456655228
 40
1.264344125338495
 40
1.264344125338495
 40
1.264344125338495
 40
1.264344125338495
 10
-18.72593784332323
 20
-13.97827148437487
 30
0.0
 10
-18.67852241608191
 20
-13.8841864377262
 30
0.0
 10
-18.58368740889713
 20
-13.69600810434338
 30
0.0
 10
-18.44146033415038
 20
-13.41373359370324
 30
0.0
 10
-18.29920578397763
 20
-13.13146275583802
 30
0.0
 10
-18.20438402826956
 20
-12.94327854576722
 30
0.0
 10
-18.15697097778423
 20
-12.84918212890587
 30
0.0
 11
-18.72593784332323
 21
-13.97827148437487
 31
0.0
 11
-18.58369541168324
 21
-13.69601440429687
 31
0.0
 11
-18.44145202636823
 21
-13.41372680663987
 31
0.0
 11
-18.29921340942424
 21
-13.13146972656186
 31
0.0
 11
-18.15697097778423
 21
-12.84918212890587
 31
0.0
  0
SPLINE
  5
AB74
330
1F
100
AcDbEntity
  8
AM_0
100
AcDbSpline
210
0.0
220
0.0
230
1.0
 70
     8
 71
     3
 72
    11
 73
     7
 74
     5
 42
0.0000000001
 43
0.0000000001
 44
0.0000000001
 40
0.0
 40
0.0
 40
0.0
 40
0.0
 40
0.4123105977647261
 40
0.8246197624843443
 40
1.236958642703695
 40
1.649267807423313
 40
1.649267807423313
 40
1.649267807423313
 40
1.649267807423313
 10
-9.164985656739229
 20
-14.89614868163986
 30
0.0
 10
-9.216616386518406
 20
-14.76877851301308
 30
0.0
 10
-9.319877666626695
 20
-14.51403861845298
 30
0.0
 10
-9.474771888711558
 20
-14.13191927935967
 30
0.0
 10
-9.629651589921857
 20
-13.74979456986081
 30
0.0
 10
-9.732915702611308
 20
-13.49504565089906
 30
0.0
 10
-9.784545898438242
 20
-13.36767578124986
 30
0.0
 11
-9.164985656739229
 21
-14.89614868163986
 31
0.0
 11
-9.319877624512242
 21
-14.51403808593685
 31
0.0
 11
-9.474765777588245
 21
-14.13192749023386
 31
0.0
 11
-9.629657745362237
 21
-13.74978637695285
 31
0.0
 11
-9.784545898438242
 21
-13.36767578124986
 31
0.0
  0
SPLINE
  5
AB75
330
1F
100
AcDbEntity
  8
AM_0
100
AcDbSpline
210
0.0
220
0.0
230
1.0
 70
     8
 71
     3
 72
    11
 73
     7
 74
     5
 42
0.0000000001
 43
0.0000000001
 44
0.0000000001
 40
0.0
 40
0.0
 40
0.0
 40
0.0
 40
2.199558488842998
 40
4.371782597541265
 40
6.540549529436164
 40
8.734717766547145
 40
8.734717766547145
 40
8.734717766547145
 40
8.734717766547145
 10
-9.165832519532241
 20
-14.89617919921886
 30
0.0
 10
-9.89914647377329
 20
-14.89327385539851
 30
0.0
 10
-11.35666133411762
 20
-14.88749927308205
 30
0.0
 10
-13.53392023157509
 20
-14.76606110869908
 30
0.0
 10
-15.70856664027261
 20
-14.63331301914233
 30
0.0
 10
-17.16301052312824
 20
-14.61517193524467
 30
0.0
 10
-17.89446640014723
 20
-14.60604858398385
 30
0.0
 11
-9.165832519532241
 21
-14.89617919921886
 31
0.0
 11
-11.36521530151423
 21
-14.86837768554686
 31
0.0
 11
-13.53493499755923
 21
-14.76409912109387
 31
0.0
 11
-15.70076370239324
 21
-14.65124511718688
 31
0.0
 11
-17.89446640014723
 21
-14.60604858398385
 31
0.0
  0
SPLINE
  5
AB76
330
1F
100
AcDbEntity
  8
AM_0
100
AcDbSpline
210
0.0
220
0.0
230
1.0
 70
     8
 71
     3
 72
    11
 73
     7
 74
     5
 42
0.0000000001
 43
0.0000000001
 44
0.0000000001
 40
0.0
 40
0.0
 40
0.0
 40
0.0
 40
0.0482792705082816
 40
0.0962913444424827
 40
0.1440727021443051
 40
0.1916477571694784
 40
0.1916477571694784
 40
0.1916477571694784
 40
0.1916477571694784
 10
-9.784545898438242
 20
-13.36767578124986
 30
0.0
 10
-9.768433671438103
 20
-13.36760604185646
 30
0.0
 10
-9.736298388873303
 20
-13.36746694903504
 30
0.0
 10
-9.688675013355961
 20
-13.36033051972555
 30
0.0
 10
-9.642238267745717
 20
-13.34833150554856
 30
0.0
 10
-9.613139349778878
 20
-13.3354208526165
 30
0.0
 10
-9.598621368409244
 20
-13.32897949218685
 30
0.0
 11
-9.784545898438242
 21
-13.36767578124986
 31
0.0
 11
-9.736286163331248
 21
-13.36630249023386
 31
0.0
 11
-9.688758850098242
 21
-13.35949707031185
 31
0.0
 11
-9.64262008667025
 21
-13.34707641601486
 31
0.0
 11
-9.598621368409244
 21
-13.32897949218685
 31
0.0
  0
SPLINE
  5
AB77
330
1F
100
AcDbEntity
  8
AM_0
100
AcDbSpline
210
0.0
220
0.0
230
1.0
 70
     8
 71
     3
 72
    11
 73
     7
 74
     5
 42
0.0000000001
 43
0.0000000001
 44
0.0000000001
 40
0.0
 40
0.0
 40
0.0
 40
0.0
 40
0.0603304159479637
 40
0.1205066230376844
 40
0.1807136902762089
 40
0.241052771204247
 40
0.241052771204247
 40
0.241052771204247
 40
0.241052771204247
 10
-9.598621368409244
 20
-13.32897949218685
 30
0.0
 10
-9.580954180449721
 20
-13.31925491714314
 30
0.0
 10
-9.545664963126732
 20
-13.29983062376509
 30
0.0
 10
-9.500323164074931
 20
-13.25955712684916
 30
0.0
 10
-9.461883533581882
 20
-13.21260902623399
 30
0.0
 10
-9.444159298364688
 20
-13.17641267380301
 30
0.0
 10
-9.435287475586241
 20
-13.15829467773386
 30
0.0
 11
-9.598621368409244
 21
-13.32897949218685
 31
0.0
 11
-9.546886444092239
 21
-13.29794311523386
 31
0.0
 11
-9.501480102540243
 21
-13.25845336913986
 31
0.0
 11
-9.463886260987239
 21
-13.21142578124986
 31
0.0
 11
-9.435287475586241
 21
-13.15829467773386
 31
0.0
  0
SPLINE
  5
AB78
330
1F
100
AcDbEntity
  8
AM_0
100
AcDbSpline
210
0.0
220
0.0
230
1.0
 70
     8
 71
     3
 72
    11
 73
     7
 74
     5
 42
0.0000000001
 43
0.0000000001
 44
0.0000000001
 40
0.0
 40
0.0
 40
0.0
 40
0.0
 40
0.0256461163773956
 40
0.0512056746531243
 40
0.0768448588727322
 40
0.102697048450267
 40
0.102697048450267
 40
0.102697048450267
 40
0.102697048450267
 10
-9.435287475586241
 20
-13.15829467773386
 30
0.0
 10
-9.432110194054592
 20
-13.15035378804964
 30
0.0
 10
-9.425766354621092
 20
-13.13449880994525
 30
0.0
 10
-9.418498965664072
 20
-13.1099056355936
 30
0.0
 10
-9.412779238790401
 20
-13.08483687175549
 30
0.0
 10
-9.410530140853877
 20
-13.06781252338103
 30
0.0
 10
-9.409400939942235
 20
-13.05926513671886
 30
0.0
 11
-9.435287475586241
 21
-13.15829467773386
 31
0.0
 11
-9.426132202149252
 21
-13.13433837890585
 31
0.0
 11
-9.418766021729245
 21
-13.10986328124986
 31
0.0
 11
-9.413185119629224
 21
-13.08483886718685
 31
0.0
 11
-9.409400939942235
 21
-13.05926513671886
 31
0.0
  0
SPLINE
  5
AB79
330
1F
100
AcDbEntity
  8
AM_0
100
AcDbSpline
210
0.0
220
0.0
230
1.0
 70
     8
 71
     3
 72
    11
 73
     7
 74
     5
 42
0.0000000001
 43
0.0000000001
 44
0.0000000001
 40
0.0
 40
0.0
 40
0.0
 40
0.0
 40
0.3910039592576706
 40
0.7820064854973215
 40
1.173038727306331
 40
1.564041253546357
 40
1.564041253546357
 40
1.564041253546357
 40
1.564041253546357
 10
-9.387531280518235
 20
-13.04162597656185
 30
0.0
 10
-9.338569567250003
 20
-13.16241452083678
 30
0.0
 10
-9.240646320156775
 20
-13.40399116670018
 30
0.0
 10
-9.093759147818188
 20
-13.76636563286004
 30
0.0
 10
-8.946886495872142
 20
-14.12874546909208
 30
0.0
 10
-8.848960416341006
 20
-14.37033113944533
 30
0.0
 10
-8.799999237061243
 20
-14.49111938476486
 30
0.0
 11
-9.387531280518235
 21
-13.04162597656185
 31
0.0
 11
-9.240646362305243
 21
-13.40399169921886
 31
0.0
 11
-9.093765258790242
 21
-13.76635742187486
 31
0.0
 11
-8.946880340577235
 21
-14.12875366210886
 31
0.0
 11
-8.799999237061243
 21
-14.49111938476486
 31
0.0
  0
SPLINE
  5
AB7A
330
1F
100
AcDbEntity
  8
AM_0
100
AcDbSpline
210
0.0
220
0.0
230
1.0
 70
     8
 71
     3
 72
    11
 73
     7
 74
     5
 42
0.0000000001
 43
0.0000000001
 44
0.0000000001
 40
0.0
 40
0.0
 40
0.0
 40
0.0
 40
0.1147156016058452
 40
0.2290507438131857
 40
0.343087324098367
 40
0.4571784687085485
 40
0.4571784687085485
 40
0.4571784687085485
 40
0.4571784687085485
 10
-8.799999237061243
 20
-14.49111938476486
 30
0.0
 10
-8.80018517796925
 20
-14.52964099767824
 30
0.0
 10
-8.800556443103964
 20
-14.60655646486126
 30
0.0
 10
-8.842452798951118
 20
-14.71523615195721
 30
0.0
 10
-8.913040117233405
 20
-14.8083893507608
 30
0.0
 10
-8.980089549335488
 20
-14.84579477008723
 30
0.0
 10
-9.013622283936241
 20
-14.86450195312486
 30
0.0
 11
-8.799999237061243
 21
-14.49111938476486
 31
0.0
 11
-8.807479858399245
 21
-14.60559082031185
 31
0.0
 11
-8.847297668457242
 21
-14.71276855468685
 31
0.0
 11
-8.918033599854238
 21
-14.80221557617185
 31
0.0
 11
-9.013622283936241
 21
-14.86450195312486
 31
0.0
  0
SPLINE
  5
AB7B
330
1F
100
AcDbEntity
  8
AM_0
100
AcDbSpline
210
0.0
220
0.0
230
1.0
 70
     8
 71
     3
 72
    11
 73
     7
 74
     5
 42
0.0000000001
 43
0.0000000001
 44
0.0000000001
 40
0.0
 40
0.0
 40
0.0
 40
0.0
 40
0.0386736576870072
 40
0.0774888050261264
 40
0.1164384431961062
 40
0.1555050305575761
 40
0.1555050305575761
 40
0.1555050305575761
 40
0.1555050305575761
 10
-9.013622283936241
 20
-14.86450195312486
 30
0.0
 10
-9.025650310721577
 20
-14.86917161917586
 30
0.0
 10
-9.049750369473736
 20
-14.87852803550171
 30
0.0
 10
-9.087477936080068
 20
-14.8879763038661
 30
0.0
 10
-9.125967890833445
 20
-14.89435555436599
 30
0.0
 10
-9.151966743691748
 20
-14.89555037552162
 30
0.0
 10
-9.164985656739229
 20
-14.89614868163986
 30
0.0
 11
-9.013622283936241
 21
-14.86450195312486
 31
0.0
 11
-9.049957275391234
 21
-14.87774658203085
 31
0.0
 11
-9.087539672852241
 21
-14.88745117187486
 31
0.0
 11
-9.126003265381241
 21
-14.89358520507785
 31
0.0
 11
-9.164985656739229
 21
-14.89614868163986
 31
0.0
  0
SPLINE
  5
AB8C
330
1F
100
AcDbEntity
  8
AM_0
100
AcDbSpline
210
0.0
220
0.0
230
1.0
 70
     8
 71
     3
 72
    11
 73
     7
 74
     5
 42
0.0000000001
 43
0.0000000001
 44
0.0000000001
 40
0.0
 40
0.0
 40
0.0
 40
0.0
 40
0.0391520792279581
 40
0.0783049122078471
 40
0.117450135630185
 40
0.1565924180928282
 40
0.1565924180928282
 40
0.1565924180928282
 40
0.1565924180928282
 10
-0.2136230468752995
 20
14.57499694824217
 30
0.0
 10
-0.2256405002689043
 20
14.58011614084513
 30
0.0
 10
-0.2496756384149303
 20
14.59035462460524
 30
0.0
 10
-0.2874103978787153
 20
14.6010905473642
 30
0.0
 10
-0.3259073755965338
 20
14.60861144593062
 30
0.0
 10
-0.3519603978882402
 20
14.61045310594967
 30
0.0
 10
-0.364986419678304
 20
14.61137390136717
 30
0.0
 11
-0.2136230468752995
 21
14.57499694824217
 31
0.0
 11
-0.249956130982299
 21
14.58958435058617
 31
0.0
 11
-0.2875404357913009
 21
14.60055541992217
 31
0.0
 11
-0.3260059356693017
 21
14.60781860351618
 31
0.0
 11
-0.364986419678304
 21
14.61137390136717
 31
0.0
  0
SPLINE
  5
AB8D
330
1F
100
AcDbEntity
  8
AM_0
100
AcDbSpline
210
0.0
220
0.0
230
1.0
 70
     8
 71
     3
 72
    11
 73
     7
 74
     5
 42
0.0000000001
 43
0.0000000001
 44
0.0000000001
 40
0.0
 40
0.0
 40
0.0
 40
0.0
 40
1.051209947396963
 40
2.102503697510535
 40
3.153881543828032
 40
4.205358280074419
 40
4.205358280074419
 40
4.205358280074419
 40
4.205358280074419
 10
-0.7217864990242973
 20
8.914047241211175
 30
0.0
 10
-0.6684020655784583
 20
9.260360085417813
 30
0.0
 10
-0.5616289428665625
 20
9.953013381976548
 30
0.0
 10
-0.401536723761668
 20
10.99204621949067
 30
0.0
 10
-0.2414753265118761
 20
12.03117378410016
 30
0.0
 10
-0.1348147365255529
 20
12.72396275831978
 30
0.0
 10
-0.0814819335943135
 20
13.07037353515618
 30
0.0
 11
-0.7217864990242973
 21
8.914047241211175
 31
0.0
 11
-0.5616455078132786
 21
9.952987670899172
 31
0.0
 11
-0.4015483856212836
 21
10.99201965332016
 31
0.0
 11
-0.2414932250983009
 21
12.03114318847716
 31
0.0
 11
-0.0814819335943135
 21
13.07037353515618
 31
0.0
  0
SPLINE
  5
AB8E
330
1F
100
AcDbEntity
  8
AM_0
100
AcDbSpline
210
0.0
220
0.0
230
1.0
 70
     8
 71
     3
 72
    11
 73
     7
 74
     5
 42
0.0000000001
 43
0.0000000001
 44
0.0000000001
 40
0.0
 40
0.0
 40
0.0
 40
0.0
 40
0.2881825019548206
 40
0.5746972912186202
 40
0.8595766953539687
 40
1.143901387265144
 40
1.143901387265144
 40
1.143901387265144
 40
1.143901387265144
 10
-1.539070129395288
 20
8.252426147461173
 30
0.0
 10
-1.442118377024328
 20
8.258926157205461
 30
0.0
 10
-1.248775932259154
 20
8.271888561125189
 30
0.0
 10
-0.992629799849859
 20
8.417078114087981
 30
0.0
 10
-0.7962156547261165
 20
8.635711596161289
 30
0.0
 10
-0.7465800936431321
 20
8.821328990059896
 30
0.0
 10
-0.7217864990242973
 20
8.914047241211175
 30
0.0
 11
-1.539070129395288
 21
8.252426147461173
 31
0.0
 11
-1.253768920899293
 21
8.293075561524171
 31
0.0
 11
-1.001977920533282
 21
8.429794311524172
 31
0.0
 11
-0.8163814544682908
 21
8.645919799805165
 31
0.0
 11
-0.7217864990242973
 21
8.914047241211175
 31
0.0
  0
SPLINE
  5
AB8F
330
1F
100
AcDbEntity
  8
AM_0
100
AcDbSpline
210
0.0
220
0.0
230
1.0
 70
     8
 71
     3
 72
    11
 73
     7
 74
     5
 42
0.0000000001
 43
0.0000000001
 44
0.0000000001
 40
0.0
 40
0.0
 40
0.0
 40
0.0
 40
2.224826238442122
 40
4.443875094361887
 40
6.664037330592927
 40
8.888903217921036
 40
8.888903217921036
 40
8.888903217921036
 40
8.888903217921036
 10
-1.539070129395288
 20
8.252426147461173
 30
0.0
 10
-2.280365359464344
 20
8.27468088181129
 30
0.0
 10
-3.761030839560371
 20
8.319132559880035
 30
0.0
 10
-5.982309586649452
 20
8.342113418425327
 30
0.0
 10
-8.203572247855186
 20
8.369907751302202
 30
0.0
 10
-9.684461530407658
 20
8.4195192152987
 30
0.0
 10
-10.42568969726628
 20
8.444351196289147
 30
0.0
 11
-1.539070129395288
 21
8.252426147461173
 31
0.0
 11
-3.76310157775929
 21
8.311889648438167
 31
0.0
 11
-5.981933593750287
 21
8.342910766602164
 31
0.0
 11
-8.201824188233294
 21
8.377639770508164
 31
0.0
 11
-10.42568969726628
 21
8.444351196289147
 31
0.0
  0
SPLINE
  5
AB90
330
1F
100
AcDbEntity
  8
AM_0
100
AcDbSpline
210
0.0
220
0.0
230
1.0
 70
     8
 71
     3
 72
    11
 73
     7
 74
     5
 42
0.0000000001
 43
0.0000000001
 44
0.0000000001
 40
0.0
 40
0.0
 40
0.0
 40
0.0
 40
0.1142164307864486
 40
0.2282809222273461
 40
0.3424965778063902
 40
0.4571546649652475
 40
0.4571546649652475
 40
0.4571546649652475
 40
0.4571546649652475
 10
-10.78320312500028
 20
8.858764648438166
 30
0.0
 10
-10.78396443191153
 20
8.820413736239023
 30
0.0
 10
-10.78548603298593
 20
8.743762929128365
 30
0.0
 10
-10.74602801617717
 20
8.634348777538026
 30
0.0
 10
-10.67740680695737
 20
8.539589506521188
 30
0.0
 10
-10.6111090674055
 20
8.500394202739677
 30
0.0
 10
-10.57789611816528
 20
8.480758666992159
 30
0.0
 11
-10.78320312500028
 21
8.858764648438166
 31
0.0
 11
-10.77852249145627
 21
8.744644165039161
 31
0.0
 11
-10.74120712280329
 21
8.636856079102159
 31
0.0
 11
-10.67238998413128
 21
8.545700073242159
 31
0.0
 11
-10.57789611816528
 21
8.480758666992159
 31
0.0
  0
SPLINE
  5
AB91
330
1F
100
AcDbEntity
  8
AM_0
100
AcDbSpline
210
0.0
220
0.0
230
1.0
 70
     8
 71
     3
 72
    11
 73
     7
 74
     5
 42
0.0000000001
 43
0.0000000001
 44
0.0000000001
 40
0.0
 40
0.0
 40
0.0
 40
0.0
 40
1.054483916140461
 40
2.109035615385446
 40
3.163684475972961
 40
4.218401833179577
 40
4.218401833179577
 40
4.218401833179577
 40
4.218401833179577
 10
-9.9259376525883
 20
14.13543701171915
 30
0.0
 10
-9.988289591660427
 20
13.78951690952408
 30
0.0
 10
-10.11299747783926
 20
13.09765446910162
 30
0.0
 10
-10.2998939999468
 20
12.05978663561709
 30
0.0
 10
-10.48666907070287
 20
11.02181787556937
 30
0.0
 10
-10.6110793022523
 20
10.32978988146614
 30
0.0
 10
-10.67328643798927
 20
9.983764648438166
 30
0.0
 11
-9.9259376525883
 21
14.13543701171915
 31
0.0
 11
-10.11296463012728
 21
13.09767150878915
 31
0.0
 11
-10.29986572265729
 21
12.05981445312513
 31
0.0
 11
-10.48663711547928
 21
11.02183532714914
 31
0.0
 11
-10.67328643798927
 21
9.983764648438166
 31
0.0
  0
SPLINE
  5
AB92
330
1F
100
AcDbEntity
  8
AM_0
100
AcDbSpline
210
0.0
220
0.0
230
1.0
 70
     8
 71
     3
 72
    11
 73
     7
 74
     5
 42
0.0000000001
 43
0.0000000001
 44
0.0000000001
 40
0.0
 40
0.0
 40
0.0
 40
0.0
 40
0.2876845424726731
 40
0.5764658449309757
 40
0.8645931274080174
 40
1.150983945492585
 40
1.150983945492585
 40
1.150983945492585
 40
1.150983945492585
 10
-9.094463348389298
 20
14.79643249511715
 30
0.0
 10
-9.191217514647743
 20
14.78980324316406
 30
0.0
 10
-9.385094709867795
 20
14.77651946609508
 30
0.0
 10
-9.642941917421092
 20
14.63138242119558
 30
0.0
 10
-9.843983941533103
 20
14.41409957726453
 30
0.0
 10
-9.898674849467299
 20
14.22813717823802
 30
0.0
 10
-9.9259376525883
 20
14.13543701171915
 30
0.0
 11
-9.094463348389298
 21
14.79643249511715
 31
0.0
 11
-9.379257202149306
 21
14.75575256347715
 31
0.0
 11
-9.633689880372303
 21
14.61915588378915
 31
0.0
 11
-9.824493408204304
 21
14.40325927734415
 31
0.0
 11
-9.9259376525883
 21
14.13543701171915
 31
0.0
  0
SPLINE
  5
AB93
330
1F
100
AcDbEntity
  8
AM_0
100
AcDbSpline
210
0.0
220
0.0
230
1.0
 70
     8
 71
     3
 72
    11
 73
     7
 74
     5
 42
0.0000000001
 43
0.0000000001
 44
0.0000000001
 40
0.0
 40
0.0
 40
0.0
 40
0.0
 40
2.200364073484926
 40
4.370327181177875
 40
6.536346664194599
 40
8.730815753161643
 40
8.730815753161643
 40
8.730815753161643
 40
8.730815753161643
 10
-0.3658313751233078
 20
14.61140441894517
 30
0.0
 10
-1.098898488830269
 20
14.63595972729018
 30
0.0
 10
-2.554904415879912
 20
14.68473107962936
 30
0.0
 10
-4.733617083536397
 20
14.71034017707836
 30
0.0
 10
-6.910389939609162
 20
14.73107523533396
 30
0.0
 10
-8.36327913157047
 20
14.77455218806525
 30
0.0
 10
-9.094463348389298
 20
14.79643249511715
 30
0.0
 11
-0.3658313751233078
 21
14.61140441894517
 31
0.0
 11
-2.565216064454305
 21
14.67704772949216
 31
0.0
 11
-4.734935760498303
 21
14.70954895019515
 31
0.0
 11
-6.900764465332303
 21
14.73829650878916
 31
0.0
 11
-9.094463348389298
 21
14.79643249511715
 31
0.0
  0
SPLINE
  5
AB94
330
1F
100
AcDbEntity
  8
AM_0
100
AcDbSpline
210
0.0
220
0.0
230
1.0
 70
     8
 71
     3
 72
    11
 73
     7
 74
     5
 42
0.0000000001
 43
0.0000000001
 44
0.0000000001
 40
0.0
 40
0.0
 40
0.0
 40
0.0
 40
0.2161057287670518
 40
0.4322135418472456
 40
0.648281977881723
 40
0.8643539826230435
 40
0.8643539826230435
 40
0.8643539826230435
 40
0.8643539826230435
 10
-6.254154205323285
 20
10.02177429199216
 30
0.0
 10
-6.190805058143993
 20
9.98726971807374
 30
0.0
 10
-6.064106152790689
 20
9.918260237444535
 30
0.0
 10
-5.859851516397814
 20
9.845592463049802
 30
0.0
 10
-5.649081979849757
 20
9.794854617224258
 30
0.0
 10
-5.50527732574515
 20
9.783516430311902
 30
0.0
 10
-5.433374404908273
 20
9.777847290039153
 30
0.0
 11
-6.254154205323285
 21
10.02177429199216
 31
0.0
 11
-6.061737060547283
 21
9.923400878906154
 31
0.0
 11
-5.858751296998288
 21
9.849243164063159
 31
0.0
 11
-5.648258209229279
 21
9.800476074219151
 31
0.0
 11
-5.433374404908273
 21
9.777847290039153
 31
0.0
  0
SPLINE
  5
AB95
330
1F
100
AcDbEntity
  8
AM_0
100
AcDbSpline
210
0.0
220
0.0
230
1.0
 70
     8
 71
     3
 72
    11
 73
     7
 74
     5
 42
0.0000000001
 43
0.0000000001
 44
0.0000000001
 40
0.0
 40
0.0
 40
0.0
 40
0.0
 40
0.1145025587173586
 40
0.2294959256464193
 40
0.3449381385417415
 40
0.4605344789391269
 40
0.4605344789391269
 40
0.4605344789391269
 40
0.4605344789391269
 10
0.0000019073477096
 20
14.19662475586017
 30
0.0
 10
-0.0002047451819914
 20
14.23507316047304
 30
0.0
 10
-0.0006189360448174
 20
14.31213477643256
 30
0.0
 10
-0.0426769833900818
 20
14.42139470115396
 30
0.0
 10
-0.1130659149506157
 20
14.51598435000888
 30
0.0
 10
-0.1800890990156159
 20
14.55531733572397
 30
0.0
 10
-0.2136230468752995
 20
14.57499694824217
 30
0.0
 11
0.0000019073477096
 21
14.19662475586017
 31
0.0
 11
-0.0074806213383027
 21
14.31088256836017
 31
0.0
 11
-0.0472984313972948
 21
14.41876220703118
 31
0.0
 11
-0.1180343627932964
 21
14.50999450683618
 31
0.0
 11
-0.2136230468752995
 21
14.57499694824217
 31
0.0
  0
SPLINE
  5
AB96
330
1F
100
AcDbEntity
  8
AM_0
100
AcDbSpline
210
0.0
220
0.0
230
1.0
 70
     8
 71
     3
 72
    11
 73
     7
 74
     5
 42
0.0000000001
 43
0.0000000001
 44
0.0000000001
 40
0.0
 40
0.0
 40
0.0
 40
0.0
 40
1.129125746612591
 40
2.268734177208049
 40
3.404474178098011
 40
4.541976086870551
 40
4.541976086870551
 40
4.541976086870551
 40
4.541976086870551
 10
-5.280693054200293
 20
13.27452087402415
 30
0.0
 10
-5.666553127180267
 20
13.21315685514683
 30
0.0
 10
-6.441855557238148
 20
13.08985912033257
 30
0.0
 10
-7.147258338793321
 20
12.06404664793863
 30
0.0
 10
-7.131520872578628
 20
10.81409673686105
 30
0.0
 10
-6.546760836551975
 20
10.28601820516158
 30
0.0
 10
-6.254154205323285
 20
10.02177429199216
 30
0.0
 11
-5.280693054200293
 21
13.27452087402415
 31
0.0
 11
-6.362670898438304
 21
12.95164489746115
 31
0.0
 11
-7.027164459229301
 21
12.02581787109416
 31
0.0
 11
-6.988182067872287
 21
10.89074707031316
 31
0.0
 11
-6.254154205323285
 21
10.02177429199216
 31
0.0
  0
SPLINE
  5
AB97
330
1F
100
AcDbEntity
  8
AM_0
100
AcDbSpline
210
0.0
220
0.0
230
1.0
 70
     8
 71
     3
 72
    11
 73
     7
 74
     5
 42
0.0000000001
 43
0.0000000001
 44
0.0000000001
 40
0.0
 40
0.0
 40
0.0
 40
0.0
 40
1.341272168937371
 40
2.677340125568117
 40
4.018647029518333
 40
5.347258311246267
 40
5.347258311246267
 40
5.347258311246267
 40
5.347258311246267
 10
-5.433374404908273
 20
9.777847290039153
 30
0.0
 10
-4.970369338294722
 20
9.86766970666739
 30
0.0
 10
-4.046155691061668
 20
10.04696602383828
 30
0.0
 10
-3.427360698089535
 20
11.44569297374887
 30
0.0
 10
-3.935458093510314
 20
12.87930491302043
 30
0.0
 10
-4.833705140289285
 20
13.14320050017453
 30
0.0
 10
-5.280693054200293
 20
13.27452087402415
 30
0.0
 11
-5.433374404908273
 21
9.777847290039153
 31
0.0
 11
-4.172845840455279
 21
10.23619079589915
 31
0.0
 11
-3.615394592286295
 21
11.45040893554717
 31
0.0
 11
-4.078304290772302
 21
12.70930480957016
 31
0.0
 11
-5.280693054200293
 21
13.27452087402415
 31
0.0
  0
SPLINE
  5
AB98
330
1F
100
AcDbEntity
  8
AM_0
100
AcDbSpline
210
0.0
220
0.0
230
1.0
 70
     8
 71
     3
 72
    11
 73
     7
 74
     5
 42
0.0000000001
 43
0.0000000001
 44
0.0000000001
 40
0.0
 40
0.0
 40
0.0
 40
0.0
 40
0.0391503092163707
 40
0.0783013112634728
 40
0.1174484089169036
 40
0.1565887919152528
 40
0.1565887919152528
 40
0.1565887919152528
 40
0.1565887919152528
 10
-10.57789611816528
 20
8.480758666992159
 30
0.0
 10
-10.56587930166215
 20
8.475639493307348
 30
0.0
 10
-10.54184545599804
 20
8.465401055345314
 30
0.0
 10
-10.50411143731569
 20
8.454664517694867
 30
0.0
 10
-10.4656149068689
 20
8.447144536632643
 30
0.0
 10
-10.43956193081479
 20
8.445302602128558
 30
0.0
 10
-10.42653656005927
 20
8.444381713867146
 30
0.0
 11
-10.57789611816528
 21
8.480758666992159
 31
0.0
 11
-10.54156494140728
 21
8.466171264649162
 31
0.0
 11
-10.50398254394628
 21
8.455200195313155
 31
0.0
 11
-10.46551513671929
 21
8.447937011719147
 31
0.0
 11
-10.42653656005927
 21
8.444381713867146
 31
0.0
  0
SPLINE
  5
AB99
330
1F
100
AcDbEntity
  8
AM_0
100
AcDbSpline
210
0.0
220
0.0
230
1.0
 70
     8
 71
     3
 72
    11
 73
     7
 74
     5
 42
0.0000000001
 43
0.0000000001
 44
0.0000000001
 40
0.0
 40
0.0
 40
0.0
 40
0.0
 40
0.0625429750755701
 40
0.1251468262565476
 40
0.1877732658262284
 40
0.250399373584453
 40
0.250399373584453
 40
0.250399373584453
 40
0.250399373584453
 10
-0.8732891082772592
 20
-0.7656860351558313
 30
0.0
 10
-0.8834058981514171
 20
-0.747396109861874
 30
0.0
 10
-0.9036493250610812
 20
-0.7107984568042377
 30
0.0
 10
-0.9451110073745287
 20
-0.6633982424506817
 30
0.0
 10
-0.9932228741196865
 20
-0.6226777655557662
 30
0.0
 10
-1.030329949548015
 20
-0.6032908461382572
 30
0.0
 10
-1.048883438111272
 20
-0.593597412108829
 30
0.0
 11
-0.8732891082772592
 21
-0.7656860351558313
 31
0.0
 11
-0.9054851531992623
 21
-0.7120666503898369
 31
0.0
 11
-0.9462108612072599
 21
-0.6645202636718403
 31
0.0
 11
-0.9944801330572635
 21
-0.6246185302728344
 31
0.0
 11
-1.048883438111272
 21
-0.593597412108829
 31
0.0
  0
SPLINE
  5
AB9A
330
1F
100
AcDbEntity
  8
AM_0
100
AcDbSpline
210
0.0
220
0.0
230
1.0
 70
     8
 71
     3
 72
    11
 73
     7
 74
     5
 42
0.0000000001
 43
0.0000000001
 44
0.0000000001
 40
0.0
 40
0.0
 40
0.0
 40
0.0
 40
0.0185722148484209
 40
0.0371485803839621
 40
0.0557248651355408
 40
0.0743118546462143
 40
0.0743118546462143
 40
0.0743118546462143
 40
0.0743118546462143
 10
-1.190788269043258
 20
-9.211975097655836
 30
0.0
 10
-1.185574367826708
 20
-9.208636623153919
 30
0.0
 10
-1.175145400143647
 20
-9.201958928037509
 30
0.0
 10
-1.159842024808352
 20
-9.191426524071388
 30
0.0
 10
-1.14474927900304
 20
-9.180586612327481
 30
0.0
 10
-1.1349168109159
 20
-9.173050264955085
 30
0.0
 10
-1.12999916076726
 20
-9.169281005858833
 30
0.0
 11
-1.190788269043258
 21
-9.211975097655836
 31
0.0
 11
-1.175203323365258
 21
-9.201873779296844
 31
0.0
 11
-1.159877777100268
 21
-9.191375732421844
 31
0.0
 11
-1.144809722901263
 21
-9.180511474608833
 31
0.0
 11
-1.12999916076726
 21
-9.169281005858833
 31
0.0
  0
SPLINE
  5
AB9B
330
1F
100
AcDbEntity
  8
AM_0
100
AcDbSpline
210
0.0
220
0.0
230
1.0
 70
     8
 71
     3
 72
    11
 73
     7
 74
     5
 42
0.0000000001
 43
0.0000000001
 44
0.0000000001
 40
0.0
 40
0.0
 40
0.0
 40
0.0
 40
0.0264628483728907
 40
0.052782893988956
 40
0.079085393185535
 40
0.1055053753502843
 40
0.1055053753502843
 40
0.1055053753502843
 40
0.1055053753502843
 10
-1.048883438111272
 20
-0.593597412108829
 30
0.0
 10
-1.056977754577049
 20
-0.5900813457915393
 30
0.0
 10
-1.073122707754647
 20
-0.5830681870767818
 30
0.0
 10
-1.098174078180326
 20
-0.5747693199745564
 30
0.0
 10
-1.123676771331594
 20
-0.5680359807645831
 30
0.0
 10
-1.141014094127551
 20
-0.5651104393964229
 30
0.0
 10
-1.149702072144262
 20
-0.5636444091798381
 30
0.0
 11
-1.048883438111272
 21
-0.593597412108829
 31
0.0
 11
-1.073310852051275
 21
-0.5834197998048377
 31
0.0
 11
-1.09825706482027
 21
-0.5750274658198375
 31
0.0
 11
-1.123720169068275
 21
-0.5684356689448377
 31
0.0
 11
-1.149702072144262
 21
-0.5636444091798381
 31
0.0
  0
SPLINE
  5
AB9C
330
1F
100
AcDbEntity
  8
AM_0
100
AcDbSpline
210
0.0
220
0.0
230
1.0
 70
     8
 71
     3
 72
    11
 73
     7
 74
     5
 42
0.0000000001
 43
0.0000000001
 44
0.0000000001
 40
0.0
 40
0.0
 40
0.0
 40
0.0
 40
0.0489376938350061
 40
0.0979178887377774
 40
0.1469346441265993
 40
0.195991217914397
 40
0.195991217914397
 40
0.195991217914397
 40
0.195991217914397
 10
-0.8320522308352696
 20
-0.9555053710938285
 30
0.0
 10
-0.8322553125290468
 20
-0.9391738874833107
 30
0.0
 10
-0.8326616522875779
 20
-0.9064967368090465
 30
0.0
 10
-0.8404510958738303
 20
-0.8580025914701957
 30
0.0
 10
-0.8531687469981005
 20
-0.8104913167544994
 30
0.0
 10
-0.8665805060975452
 20
-0.7806251709707968
 30
0.0
 10
-0.8732891082772592
 20
-0.7656860351558313
 30
0.0
 11
-0.8320522308352696
 21
-0.9555053710938285
 31
0.0
 11
-0.8338565826422657
 21
-0.9066009521478337
 31
0.0
 11
-0.8412685394292616
 21
-0.8581848144528338
 31
0.0
 11
-0.8543968200692654
 21
-0.8109588623048368
 31
0.0
 11
-0.8732891082772592
 21
-0.7656860351558313
 31
0.0
  0
SPLINE
  5
AB9D
330
1F
100
AcDbEntity
  8
AM_0
100
AcDbSpline
210
0.0
220
0.0
230
1.0
 70
     8
 71
     3
 72
    11
 73
     7
 74
     5
 42
0.0000000001
 43
0.0000000001
 44
0.0000000001
 40
0.0
 40
0.0
 40
0.0
 40
0.0
 40
0.0855748561054892
 40
0.1711682754405295
 40
0.2567364248712924
 40
0.3422775148986284
 40
0.3422775148986284
 40
0.3422775148986284
 40
0.3422775148986284
 10
-0.9026985168462646
 20
-8.88134765624984
 30
0.0
 10
-0.8916840288317938
 20
-8.854999491008054
 30
0.0
 10
-0.8696526634974102
 20
-8.80229744497833
 30
0.0
 10
-0.848091211085542
 20
-8.719244169338933
 30
0.0
 10
-0.8343804858224645
 20
-8.634568322496773
 30
0.0
 10
-0.8330367817833749
 20
-8.577486562049347
 30
0.0
 10
-0.832365036011248
 20
-8.54895019531184
 30
0.0
 11
-0.9026985168462646
 21
-8.88134765624984
 31
0.0
 11
-0.87156867981026
 21
-8.80163574218684
 31
0.0
 11
-0.8493976593022631
 21
-8.718963623046843
 31
0.0
 11
-0.8363285064702605
 21
-8.63439941406184
 31
0.0
 11
-0.832365036011248
 21
-8.54895019531184
 31
0.0
  0
SPLINE
  5
AB9E
330
1F
100
AcDbEntity
  8
AM_0
100
AcDbSpline
210
0.0
220
0.0
230
1.0
 70
     8
 71
     3
 72
    11
 73
     7
 74
     5
 42
0.0000000001
 43
0.0000000001
 44
0.0000000001
 40
0.0
 40
0.0
 40
0.0
 40
0.0
 40
0.0642316302596464
 40
0.1284892935173858
 40
0.1927333960764674
 40
0.2569973206155487
 40
0.2569973206155487
 40
0.2569973206155487
 40
0.2569973206155487
 10
-1.09221458435126
 20
-8.770080566405834
 30
0.0
 10
-1.084201229870112
 20
-8.750202927473628
 30
0.0
 10
-1.068171273105431
 20
-8.710439593227427
 30
0.0
 10
-1.052208234062709
 20
-8.648056491331194
 30
0.0
 10
-1.041820008394113
 20
-8.584496487540159
 30
0.0
 10
-1.040555210651294
 20
-8.541636124020364
 30
0.0
 10
-1.039922714234245
 20
-8.520202636718829
 30
0.0
 11
-1.09221458435126
 21
-8.770080566405834
 31
0.0
 11
-1.069520950318271
 21
-8.709991455077835
 31
0.0
 11
-1.05313682556227
 21
-8.647857666014839
 31
0.0
 11
-1.043235778809256
 21
-8.584381103514839
 31
0.0
 11
-1.039922714234245
 21
-8.520202636718829
 31
0.0
  0
SPLINE
  5
AB9F
330
1F
100
AcDbEntity
  8
AM_0
100
AcDbSpline
210
0.0
220
0.0
230
1.0
 70
     8
 71
     3
 72
    11
 73
     7
 74
     5
 42
0.0000000001
 43
0.0000000001
 44
0.0000000001
 40
0.0
 40
0.0
 40
0.0
 40
0.0
 40
0.0171736460267062
 40
0.0343121706553236
 40
0.0514469143547
 40
0.0686111718314359
 40
0.0686111718314359
 40
0.0686111718314359
 40
0.0686111718314359
 10
-1.149702072144262
 20
-0.5636444091798381
 30
0.0
 10
-1.155375819784871
 20
-0.5628765335735193
 30
0.0
 10
-1.16671171182533
 20
-0.5613423527242638
 30
0.0
 10
-1.183810861421495
 20
-0.5599526174753269
 30
0.0
 10
-1.200947097735642
 20
-0.5591998077973677
 30
0.0
 10
-1.212381358784539
 20
-0.5593247047956781
 30
0.0
 10
-1.218103408814269
 20
-0.5593872070308326
 30
0.0
 11
-1.149702072144262
 21
-0.5636444091798381
 31
0.0
 11
-1.166740417481275
 21
-0.5614929199218411
 31
0.0
 11
-1.183818817139265
 21
-0.5600585937498382
 31
0.0
 11
-1.200939178467262
 21
-0.5593566894528354
 31
0.0
 11
-1.218103408814269
 21
-0.5593872070308326
 31
0.0
  0
SPLINE
  5
ABA0
330
1F
100
AcDbEntity
  8
AM_0
100
AcDbSpline
210
0.0
220
0.0
230
1.0
 70
     8
 71
     3
 72
    11
 73
     7
 74
     5
 42
0.0000000001
 43
0.0000000001
 44
0.0000000001
 40
0.0
 40
0.0
 40
0.0
 40
0.0
 40
0.0925365296710796
 40
0.1850923100418038
 40
0.2776541469820847
 40
0.3701944765854475
 40
0.3701944765854475
 40
0.3701944765854475
 40
0.3701944765854475
 10
-1.12999916076726
 20
-9.169281005858833
 30
0.0
 10
-1.106291522861271
 20
-9.14948219617576
 30
0.0
 10
-1.058871315066019
 20
-9.109880457993625
 30
0.0
 10
-0.997637486777832
 20
-9.040090069497651
 30
0.0
 10
-0.9440009683311588
 20
-8.964307286847009
 30
0.0
 10
-0.9164649341882814
 20
-8.908998724316777
 30
0.0
 10
-0.9026985168462646
 20
-8.88134765624984
 30
0.0
 11
-1.12999916076726
 21
-9.169281005858833
 31
0.0
 11
-1.060525894165257
 21
-9.10815429687484
 31
0.0
 11
-0.9989051818852555
 21
-9.039093017577835
 31
0.0
 11
-0.9460525512702631
 21
-8.963104248046843
 31
0.0
 11
-0.9026985168462646
 21
-8.88134765624984
 31
0.0
  0
SPLINE
  5
ABA1
330
1F
100
AcDbEntity
  8
AM_0
100
AcDbSpline
210
0.0
220
0.0
230
1.0
 70
     8
 71
     3
 72
    11
 73
     7
 74
     5
 42
0.0000000001
 43
0.0000000001
 44
0.0000000001
 40
0.0
 40
0.0
 40
0.0
 40
0.0
 40
0.04599246215911
 40
0.0919709793814855
 40
0.137961100967841
 40
0.1839511139840596
 40
0.1839511139840596
 40
0.1839511139840596
 40
0.1839511139840596
 10
-1.09221458435126
 20
-8.770080566405834
 30
0.0
 10
-1.098654444815375
 20
-8.784003096738626
 30
0.0
 10
-1.111532213174802
 20
-8.811843936086287
 30
0.0
 10
-1.134979435086424
 20
-8.851475747009107
 30
0.0
 10
-1.161024079326568
 20
-8.889449621501473
 30
0.0
 10
-1.180830004857106
 20
-8.912877259353439
 30
0.0
 10
-1.190732955933263
 20
-8.924591064452837
 30
0.0
 11
-1.09221458435126
 21
-8.770080566405834
 31
0.0
 11
-1.112222671509264
 21
-8.811492919921843
 31
0.0
 11
-1.135410308838266
 21
-8.851196289061842
 31
0.0
 11
-1.16163444519126
 21
-8.888977050780836
 31
0.0
 11
-1.190732955933263
 21
-8.924591064452837
 31
0.0
  0
SPLINE
  5
ABA2
330
1F
100
AcDbEntity
  8
AM_0
100
AcDbSpline
210
0.0
220
0.0
230
1.0
 70
     8
 71
     3
 72
    11
 73
     7
 74
     5
 42
0.0000000001
 43
0.0000000001
 44
0.0000000001
 40
0.0
 40
0.0
 40
0.0
 40
0.0
 40
0.2629427251062113
 40
0.5258854502124338
 40
0.7888391991606289
 40
1.05178192426684
 40
1.05178192426684
 40
1.05178192426684
 40
1.05178192426684
 10
-1.218103408814269
 20
-0.5593872070308326
 30
0.0
 10
-1.165259933720599
 20
-0.4894610706541314
 30
0.0
 10
-1.059572983533258
 20
-0.349608797900726
 30
0.0
 10
-0.9010357606279622
 20
-0.1398309197688403
 30
0.0
 10
-0.742516866778825
 20
0.0699608092255808
 30
0.0
 10
-0.636825257292613
 20
0.2098141668660042
 30
0.0
 10
-0.5839805603032755
 20
0.2797393798831619
 30
0.0
 11
-1.218103408814269
 21
-0.5593872070308326
 31
0.0
 11
-1.05957221984927
 21
-0.3496093749998375
 31
0.0
 11
-0.9010410308842716
 21
-0.1398315429688283
 31
0.0
 11
-0.7425117492682749
 21
0.069961547852167
 31
0.0
 11
-0.5839805603032755
 21
0.2797393798831619
 31
0.0
  0
SPLINE
  5
ABA3
330
1F
100
AcDbEntity
  8
AM_0
100
AcDbSpline
210
0.0
220
0.0
230
1.0
 70
     8
 71
     3
 72
    11
 73
     7
 74
     5
 42
0.0000000001
 43
0.0000000001
 44
0.0000000001
 40
0.0
 40
0.0
 40
0.0
 40
0.0
 40
0.1143546325917884
 40
0.2289271724603532
 40
0.343898989313174
 40
0.4592805550436281
 40
0.4592805550436281
 40
0.4592805550436281
 40
0.4592805550436281
 10
-0.5839805603032755
 20
0.2797393798831619
 30
0.0
 10
-0.5456026777269894
 20
0.2783353859892545
 30
0.0
 10
-0.4687737820007703
 20
0.2755247228355266
 30
0.0
 10
-0.3612967243447323
 20
0.2298756064352313
 30
0.0
 10
-0.269754809728249
 20
0.1560563097689053
 30
0.0
 10
-0.2334639576921435
 20
0.0875818312926577
 30
0.0
 10
-0.2152862548832674
 20
0.0532836914061745
 30
0.0
 11
-0.5839805603032755
 21
0.2797393798831619
 31
0.0
 11
-0.4701652526862727
 21
0.2686462402351654
 31
0.0
 11
-0.364116668702267
 21
0.2252807617191714
 31
0.0
 11
-0.2760524749762687
 21
0.1513671875001659
 31
0.0
 11
-0.2152862548832674
 21
0.0532836914061745
 31
0.0
  0
SPLINE
  5
ABA4
330
1F
100
AcDbEntity
  8
AM_0
100
AcDbSpline
210
0.0
220
0.0
230
1.0
 70
     8
 71
     3
 72
    11
 73
     7
 74
     5
 42
0.0000000001
 43
0.0000000001
 44
0.0000000001
 40
0.0
 40
0.0
 40
0.0
 40
0.0
 40
0.0392605892359576
 40
0.0785276089001272
 40
0.1177895966186246
 40
0.15704866412413
 40
0.15704866412413
 40
0.15704866412413
 40
0.15704866412413
 10
-0.2152862548832674
 20
0.0532836914061745
 30
0.0
 10
-0.2106933175306391
 20
0.0410166876737
 30
0.0
 10
-0.2015066905556252
 20
0.0164806710161124
 30
0.0
 10
-0.1924433813242822
 20
-0.021806978380321
 30
0.0
 10
-0.1866119808023556
 20
-0.0607120678609357
 30
0.0
 10
-0.1859031730467347
 20
-0.0868982437271524
 30
0.0
 10
-0.1855487823492719
 20
-0.099990844725828
 30
0.0
 11
-0.2152862548832674
 21
0.0532836914061745
 31
0.0
 11
-0.2022933959972732
 21
0.0162353515631635
 31
0.0
 11
-0.1929817199712714
 21
-0.0219116210938255
 31
0.0
 11
-0.1874065399172619
 21
-0.0607757568358283
 31
0.0
 11
-0.1855487823492719
 21
-0.099990844725828
 31
0.0
  0
SPLINE
  5
ABA5
330
1F
100
AcDbEntity
  8
AM_0
100
AcDbSpline
210
0.0
220
0.0
230
1.0
 70
     8
 71
     3
 72
    11
 73
     7
 74
     5
 42
0.0000000001
 43
0.0000000001
 44
0.0000000001
 40
0.0
 40
0.0
 40
0.0
 40
0.0
 40
0.2680826586354834
 40
0.5361664672016637
 40
0.804249125837744
 40
1.072320760803459
 40
1.072320760803459
 40
1.072320760803459
 40
1.072320760803459
 10
-0.1855487823492719
 20
-0.099990844725828
 30
0.0
 10
-0.2394235636108918
 20
-0.1712851357241043
 30
0.0
 10
-0.3471733572280228
 20
-0.3138740235348939
 30
0.0
 10
-0.5088013200918157
 20
-0.5277546421000326
 30
0.0
 10
-0.6704208000841585
 20
-0.7416370653272293
 30
0.0
 10
-0.7781758257553247
 20
-0.8842169130154877
 30
0.0
 10
-0.8320522308352696
 20
-0.9555053710938285
 30
0.0
 11
-0.1855487823492719
 21
-0.099990844725828
 31
0.0
 11
-0.3471736907962667
 21
-0.3138732910148344
 31
0.0
 11
-0.5088005065922639
 21
-0.5277557373048355
 31
0.0
 11
-0.6704254150402676
 21
-0.7416381835938278
 31
0.0
 11
-0.8320522308352696
 21
-0.9555053710938285
 31
0.0
  0
SPLINE
  5
ABA6
330
1F
100
AcDbEntity
  8
AM_0
100
AcDbSpline
210
0.0
220
0.0
230
1.0
 70
    24
 71
     3
 72
    11
 73
     7
 74
     5
 42
0.0000000001
 43
0.0000000001
 44
0.0000000001
 40
0.0
 40
0.0
 40
0.0
 40
0.0
 40
0.1484909118378962
 40
0.2969818236750456
 40
0.4454727355129489
 40
0.5939636473508653
 40
0.5939636473508653
 40
0.5939636473508653
 40
0.5939636473508653
 10
-0.832365036011248
 20
-8.54895019531184
 30
0.0
 10
-0.7947877248132027
 20
-8.58116658528578
 30
0.0
 10
-0.719633102417301
 20
-8.645599365233499
 30
0.0
 10
-0.6069011688242191
 20
-8.742248535156173
 30
0.0
 10
-0.4941692352302275
 20
-8.838897705077794
 30
0.0
 10
-0.4190146128342508
 20
-8.903330485025822
 30
0.0
 10
-0.3814373016362609
 20
-8.935546874999838
 30
0.0
 11
-0.832365036011248
 21
-8.54895019531184
 31
0.0
 11
-0.7196331024172565
 21
-8.645599365233831
 31
0.0
 11
-0.6069011688242591
 21
-8.742248535155832
 31
0.0
 11
-0.4941692352302672
 21
-8.838897705077833
 31
0.0
 11
-0.3814373016362609
 21
-8.935546874999838
 31
0.0
  0
SPLINE
  5
ABA7
330
1F
100
AcDbEntity
  8
AM_0
100
AcDbSpline
210
0.0
220
0.0
230
1.0
 70
     8
 71
     3
 72
    11
 73
     7
 74
     5
 42
0.0000000001
 43
0.0000000001
 44
0.0000000001
 40
0.0
 40
0.0
 40
0.0
 40
0.0
 40
0.2887915567557823
 40
0.5771022880318877
 40
0.8639362853430608
 40
1.149356589674197
 40
1.149356589674197
 40
1.149356589674197
 40
1.149356589674197
 10
-0.3814373016362609
 20
-8.935546874999838
 30
0.0
 10
-0.3922170068538621
 20
-9.032306938065815
 30
0.0
 10
-0.4137584695450574
 20
-9.225665962868289
 30
0.0
 10
-0.5699047400713626
 20
-9.476835179482979
 30
0.0
 10
-0.7963086001001195
 20
-9.666512794886642
 30
0.0
 10
-0.9843117679203132
 20
-9.710712373977308
 30
0.0
 10
-1.078081130982258
 20
-9.732757568358831
 30
0.0
 11
-0.3814373016362609
 21
-8.935546874999838
 31
0.0
 11
-0.4345016479502622
 21
-9.219421386718829
 31
0.0
 11
-0.5820732116702679
 21
-9.467102050780832
 31
0.0
 11
-0.8060894012462583
 21
-9.64624023437484
 31
0.0
 11
-1.078081130982258
 21
-9.732757568358831
 31
0.0
  0
SPLINE
  5
ABA8
330
1F
100
AcDbEntity
  8
AM_0
100
AcDbSpline
210
0.0
220
0.0
230
1.0
 70
     8
 71
     3
 72
    11
 73
     7
 74
     5
 42
0.0000000001
 43
0.0000000001
 44
0.0000000001
 40
0.0
 40
0.0
 40
0.0
 40
0.0
 40
2.219461134719935
 40
4.421297479229769
 40
6.620614205213176
 40
8.837089276869557
 40
8.837089276869557
 40
8.837089276869557
 40
8.837089276869557
 10
-0.1855487823492719
 20
-0.1008453369138254
 30
0.0
 10
-0.1930294817166984
 20
-0.8406506774600732
 30
0.0
 10
-0.2079314760515766
 20
-2.314386547897195
 30
0.0
 10
-0.2772696266594532
 20
-4.520247581699931
 30
0.0
 10
-0.3512977270038118
 20
-6.724933843515206
 30
0.0
 10
-0.371364785382065
 20
-8.196769504618719
 30
0.0
 10
-0.3814373016362609
 20
-8.935546874999838
 30
0.0
 11
-0.1855487823492719
 21
-0.1008453369138254
 31
0.0
 11
-0.215904235840275
 21
-2.320098876952831
 31
0.0
 11
-0.27808189392125
 21
-4.521057128905829
 31
0.0
 11
-0.343830108643262
 21
-6.719390869139838
 31
0.0
 11
-0.3814373016362609
 21
-8.935546874999838
 31
0.0
  0
SPLINE
  5
ABA9
330
1F
100
AcDbEntity
  8
AM_0
100
AcDbSpline
210
0.0
220
0.0
230
1.0
 70
     8
 71
     3
 72
    11
 73
     7
 74
     5
 42
0.0000000001
 43
0.0000000001
 44
0.0000000001
 40
0.0
 40
0.0
 40
0.0
 40
0.0
 40
0.1134061710976847
 40
0.2263135506716179
 40
0.3391667429973103
 40
0.4524648251774353
 40
0.4524648251774353
 40
0.4524648251774353
 40
0.4524648251774353
 10
-17.5855484008793
 20
14.38345336914112
 30
0.0
 10
-17.5857278390014
 20
14.42154309875201
 30
0.0
 10
-17.58608592602741
 20
14.49755502886945
 30
0.0
 10
-17.62805632772279
 20
14.60484609510785
 30
0.0
 10
-17.69876067535719
 20
14.69649822932954
 30
0.0
 10
-17.76565732342693
 20
14.73282381551892
 30
0.0
 10
-17.79917144775429
 20
14.75102233886715
 30
0.0
 11
-17.5855484008793
 21
14.38345336914112
 31
0.0
 11
-17.59302902221729
 21
14.49661254882812
 31
0.0
 11
-17.63285064697329
 21
14.60226440429713
 31
0.0
 11
-17.70358276367229
 21
14.69020080566413
 31
0.0
 11
-17.79917144775429
 21
14.75102233886715
 31
0.0
  0
SPLINE
  5
ABAA
330
1F
100
AcDbEntity
  8
AM_0
100
AcDbSpline
210
0.0
220
0.0
230
1.0
 70
     8
 71
     3
 72
    11
 73
     7
 74
     5
 42
0.0000000001
 43
0.0000000001
 44
0.0000000001
 40
0.0
 40
0.0
 40
0.0
 40
0.0
 40
1.050486080131937
 40
2.100875281125409
 40
3.151167022375359
 40
4.201362467253623
 40
4.201362467253623
 40
4.201362467253623
 40
4.201362467253623
 10
-18.30733871460027
 20
9.109756469727141
 30
0.0
 10
-18.25395655257732
 20
9.455825523152979
 30
0.0
 10
-18.1471971516027
 20
10.1479317144254
 30
0.0
 10
-17.9870984288326
 20
11.18604802119475
 30
0.0
 10
-17.82704576721279
 20
12.22407340727793
 30
0.0
 10
-17.72036718183438
 20
12.91606116681479
 30
0.0
 10
-17.66703033447328
 20
13.26203918457013
 30
0.0
 11
-18.30733871460027
 21
9.109756469727141
 31
0.0
 11
-18.14719772338928
 21
10.14796447753912
 31
0.0
 11
-17.98709869384829
 21
11.18608093261713
 31
0.0
 11
-17.8270454406743
 21
12.22410583496114
 31
0.0
 11
-17.66703033447328
 21
13.26203918457013
 31
0.0
  0
SPLINE
  5
ABAB
330
1F
100
AcDbEntity
  8
AM_0
100
AcDbSpline
210
0.0
220
0.0
230
1.0
 70
     8
 71
     3
 72
    11
 73
     7
 74
     5
 42
0.0000000001
 43
0.0000000001
 44
0.0000000001
 40
0.0
 40
0.0
 40
0.0
 40
0.0
 40
0.228948367812102
 40
0.4578521149571879
 40
0.6862184090735861
 40
0.913588666545397
 40
0.913588666545397
 40
0.913588666545397
 40
0.913588666545397
 10
-19.12462329864529
 20
8.435791015625122
 30
0.0
 10
-19.0478846849808
 20
8.440347455669781
 30
0.0
 10
-18.89442241354845
 20
8.449459447736197
 30
0.0
 10
-18.6816500640423
 20
8.543525200765598
 30
0.0
 10
-18.49846059573507
 20
8.686305670596796
 30
0.0
 10
-18.41909406402779
 20
8.817181773537431
 30
0.0
 10
-18.37949752807726
 20
8.882476806641134
 30
0.0
 11
-19.12462329864529
 21
8.435791015625122
 31
0.0
 11
-18.89728260040329
 21
8.462875366211132
 31
0.0
 11
-18.68635272979829
 21
8.551788330078135
 31
0.0
 11
-18.50888442993226
 21
8.695510864258137
 31
0.0
 11
-18.37949752807726
 21
8.882476806641134
 31
0.0
  0
SPLINE
  5
ABAC
330
1F
100
AcDbEntity
  8
AM_0
100
AcDbSpline
210
0.0
220
0.0
230
1.0
 70
     8
 71
     3
 72
    11
 73
     7
 74
     5
 42
0.0000000001
 43
0.0000000001
 44
0.0000000001
 40
0.0
 40
0.0
 40
0.0
 40
0.0
 40
2.224903706238416
 40
4.445387082639588
 40
6.666808777205144
 40
8.891388882498295
 40
8.891388882498295
 40
8.891388882498295
 40
8.891388882498295
 10
-19.12462329864529
 20
8.435791015625122
 30
0.0
 10
-19.86603391076452
 20
8.454573252097988
 30
0.0
 10
-21.34738213666997
 20
8.492100409415151
 30
0.0
 10
-23.56776952389889
 20
8.584397628772215
 30
0.0
 10
-25.78822778962841
 20
8.67272856253645
 30
0.0
 10
-27.26988444467565
 20
8.706015977650585
 30
0.0
 10
-28.01123905181909
 20
8.722671508789121
 30
0.0
 11
-19.12462329864529
 21
8.435791015625122
 31
0.0
 11
-21.34865283966128
 21
8.498153686524119
 31
0.0
 11
-23.5674867630008
 21
8.583724975586113
 31
0.0
 11
-25.78737354278589
 21
8.666290283203121
 31
0.0
 11
-28.01123905181909
 21
8.722671508789121
 31
0.0
  0
SPLINE
  5
ABAD
330
1F
100
AcDbEntity
  8
AM_0
100
AcDbSpline
210
0.0
220
0.0
230
1.0
 70
     8
 71
     3
 72
    11
 73
     7
 74
     5
 42
0.0000000001
 43
0.0000000001
 44
0.0000000001
 40
0.0
 40
0.0
 40
0.0
 40
0.0
 40
0.0954807085574502
 40
0.1915451608797974
 40
0.2904098992283575
 40
0.3934219392676286
 40
0.3934219392676286
 40
0.3934219392676286
 40
0.3934219392676286
 10
-28.36875247955346
 20
9.083801269531109
 30
0.0
 10
-28.3696235645873
 20
9.05171703786681
 30
0.0
 10
-28.37137106023817
 20
8.987352420043043
 30
0.0
 10
-28.33617232702921
 20
8.894888743811662
 30
0.0
 10
-28.27439027848772
 20
8.81444499383733
 30
0.0
 10
-28.21581234190533
 20
8.780179850875221
 30
0.0
 10
-28.18592166900657
 20
8.762695312500115
 30
0.0
 11
-28.36875247955346
 21
9.083801269531109
 31
0.0
 11
-28.36516284942657
 21
8.988388061524121
 31
0.0
 11
-28.33243274688749
 21
8.898071289063112
 31
0.0
 11
-28.27124118804958
 21
8.820419311524121
 31
0.0
 11
-28.18592166900657
 21
8.762695312500115
 31
0.0
  0
SPLINE
  5
ABAE
330
1F
100
AcDbEntity
  8
AM_0
100
AcDbSpline
210
0.0
220
0.0
230
1.0
 70
     8
 71
     3
 72
    11
 73
     7
 74
     5
 42
0.0000000001
 43
0.0000000001
 44
0.0000000001
 40
0.0
 40
0.0
 40
0.0
 40
0.0
 40
0.9389656573236628
 40
1.878160458265848
 40
2.817614343782191
 40
3.757311636291132
 40
3.757311636291132
 40
3.757311636291132
 40
3.757311636291132
 10
-27.5114870071414
 20
13.76260375976611
 30
0.0
 10
-27.57384147954649
 20
13.45588930892528
 30
0.0
 10
-27.69856564123851
 20
12.8423855571588
 30
0.0
 10
-27.8854579769848
 20
11.92196343150939
 30
0.0
 10
-28.07224449091276
 20
11.00127097633838
 30
0.0
 10
-28.19663332129178
 20
10.38736219336794
 30
0.0
 10
-28.25883579254178
 20
10.0803680419921
 30
0.0
 11
-27.5114870071414
 21
13.76260375976611
 31
0.0
 11
-27.69851398468049
 21
12.84245300293012
 31
0.0
 11
-27.8854150772098
 21
11.9220428466801
 31
0.0
 11
-28.07219028472928
 21
11.0013427734381
 31
0.0
 11
-28.25883579254178
 21
10.0803680419921
 31
0.0
  0
SPLINE
  5
ABAF
330
1F
100
AcDbEntity
  8
AM_0
100
AcDbSpline
210
0.0
220
0.0
230
1.0
 70
     8
 71
     3
 72
    11
 73
     7
 74
     5
 42
0.0000000001
 43
0.0000000001
 44
0.0000000001
 40
0.0
 40
0.0
 40
0.0
 40
0.0
 40
0.2886343540750651
 40
0.5740241872935849
 40
0.8478112342528199
 40
1.107546182140326
 40
1.107546182140326
 40
1.107546182140326
 40
1.107546182140326
 10
-26.6800165176395
 20
14.37428283691412
 30
0.0
 10
-26.7765956665416
 20
14.36466653872787
 30
0.0
 10
-26.96866832412835
 20
14.34554203856631
 30
0.0
 10
-27.22345123747796
 20
14.21154855908885
 30
0.0
 10
-27.42626454479131
 20
14.01659139266668
 30
0.0
 10
-27.48358274229998
 20
13.84576655487271
 30
0.0
 10
-27.5114870071414
 20
13.76260375976611
 30
0.0
 11
-26.6800165176395
 21
14.37428283691412
 31
0.0
 11
-26.964806556702
 21
14.32733154296912
 31
0.0
 11
-27.2192392349246
 21
14.19805908203111
 31
0.0
 11
-27.41004276275661
 21
14.00170898437512
 31
0.0
 11
-27.5114870071414
 21
13.76260375976611
 31
0.0
  0
SPLINE
  5
ABB0
330
1F
100
AcDbEntity
  8
AM_0
100
AcDbSpline
210
0.0
220
0.0
230
1.0
 70
     8
 71
     3
 72
    11
 73
     7
 74
     5
 42
0.0000000001
 43
0.0000000001
 44
0.0000000001
 40
0.0
 40
0.0
 40
0.0
 40
0.0
 40
2.199981485956327
 40
4.37405641577641
 40
6.544888912434705
 40
8.739733844715432
 40
8.739733844715432
 40
8.739733844715432
 40
8.739733844715432
 10
-17.9513816833503
 20
14.78111267089915
 30
0.0
 10
-18.68481437398287
 20
14.77127871571073
 30
0.0
 10
-20.143042993851
 20
14.75172660808667
 30
0.0
 10
-22.31960091759403
 20
14.59461946451831
 30
0.0
 10
-24.49328377225179
 20
14.42471262255129
 30
0.0
 10
-25.94843768592369
 20
14.39115429216531
 30
0.0
 10
-26.6800165176395
 20
14.37428283691412
 30
0.0
 11
-17.9513816833503
 21
14.78111267089915
 31
0.0
 11
-20.15076923370429
 21
14.72999572753912
 31
0.0
 11
-22.3204851150516
 21
14.59239196777413
 31
0.0
 11
-24.48631381988559
 21
14.44508361816412
 31
0.0
 11
-26.6800165176395
 21
14.37428283691412
 31
0.0
  0
SPLINE
  5
ABB1
330
1F
100
AcDbEntity
  8
AM_0
100
AcDbSpline
210
0.0
220
0.0
230
1.0
 70
     8
 71
     3
 72
    11
 73
     7
 74
     5
 42
0.0000000001
 43
0.0000000001
 44
0.0000000001
 40
0.0
 40
0.0
 40
0.0
 40
0.0
 40
0.9995913538543764
 40
1.996745949663385
 40
2.979982594181016
 40
3.948297650495169
 40
3.948297650495169
 40
3.948297650495169
 40
3.948297650495169
 10
-23.83970355987578
 20
10.17161560058611
 30
0.0
 10
-23.51837049493818
 20
10.05497614924904
 30
0.0
 10
-22.87648769609944
 20
9.821981584890115
 30
0.0
 10
-21.87126888315484
 20
10.16751162388339
 30
0.0
 10
-21.19486721917595
 20
10.98653963626661
 30
0.0
 10
-21.22532503843187
 20
11.65636955793893
 30
0.0
 10
-21.24043750763031
 20
11.98872375488313
 30
0.0
 11
-23.83970355987578
 21
10.17161560058611
 31
0.0
 11
-22.86776828765898
 21
9.938110351563132
 31
0.0
 11
-21.92076587677028
 21
10.25036621093813
 31
0.0
 11
-21.31280994415328
 21
11.02311706543011
 31
0.0
 11
-21.24043750763031
 21
11.98872375488313
 31
0.0
  0
SPLINE
  5
ABB2
330
1F
100
AcDbEntity
  8
AM_0
100
AcDbSpline
210
0.0
220
0.0
230
1.0
 70
     8
 71
     3
 72
    11
 73
     7
 74
     5
 42
0.0000000001
 43
0.0000000001
 44
0.0000000001
 40
0.0
 40
0.0
 40
0.0
 40
0.0
 40
0.1967756246735956
 40
0.3935578735437376
 40
0.5903334982168945
 40
0.7871091228905179
 40
0.7871091228905179
 40
0.7871091228905179
 40
0.7871091228905179
 10
-28.01208591461208
 20
8.722686767578112
 30
0.0
 10
-27.95299557909851
 20
8.694215267614534
 30
0.0
 10
-27.83481291887176
 20
8.6372713092312
 30
0.0
 10
-27.65755207111503
 20
8.551830642489623
 30
0.0
 10
-27.48027843602026
 20
8.466416510873473
 30
0.0
 10
-27.36209946992525
 20
8.409469973025919
 30
0.0
 10
-27.30300998687768
 20
8.380996704102107
 30
0.0
 11
-28.01208591461208
 21
8.722686767578112
 31
0.0
 11
-27.83481693267848
 21
8.637268066406109
 31
0.0
 11
-27.65754795074489
 21
8.551834106445117
 31
0.0
 11
-27.4802789688113
 21
8.466415405274124
 31
0.0
 11
-27.30300998687768
 21
8.380996704102107
 31
0.0
  0
SPLINE
  5
ABB3
330
1F
100
AcDbEntity
  8
AM_0
100
AcDbSpline
210
0.0
220
0.0
230
1.0
 70
     8
 71
     3
 72
    11
 73
     7
 74
     5
 42
0.0000000001
 43
0.0000000001
 44
0.0000000001
 40
0.0
 40
0.0
 40
0.0
 40
0.0
 40
0.0700189911021799
 40
0.1400516493106495
 40
0.2100706404132637
 40
0.2801032986221597
 40
0.2801032986221597
 40
0.2801032986221597
 40
0.2801032986221597
 10
-19.24918079376328
 20
8.184906005860122
 30
0.0
 10
-19.2388002791059
 20
8.205810187728587
 30
0.0
 10
-19.21803722360377
 20
8.24762263178246
 30
0.0
 10
-19.18690667671501
 20
8.31034572340016
 30
0.0
 10
-19.15575847600391
 20
8.373065136644671
 30
0.0
 10
-19.13500236626802
 20
8.414881029080488
 30
0.0
 10
-19.12462329864529
 20
8.435791015625122
 30
0.0
 11
-19.24918079376328
 21
8.184906005860122
 31
0.0
 11
-19.21804141998328
 21
8.24761962890613
 31
0.0
 11
-19.18690204620428
 21
8.310348510742139
 31
0.0
 11
-19.15576267242528
 21
8.373062133789128
 31
0.0
 11
-19.12462329864529
 21
8.435791015625122
 31
0.0
  0
SPLINE
  5
ABB4
330
1F
100
AcDbEntity
  8
AM_0
100
AcDbSpline
210
0.0
220
0.0
230
1.0
 70
     8
 71
     3
 72
    11
 73
     7
 74
     5
 42
0.0000000001
 43
0.0000000001
 44
0.0000000001
 40
0.0
 40
0.0
 40
0.0
 40
0.0
 40
0.0384940284529201
 40
0.0772045658551773
 40
0.1161004779377777
 40
0.1551500045088756
 40
0.1551500045088756
 40
0.1551500045088756
 40
0.1551500045088756
 10
-28.16344928741486
 20
8.752746582031107
 30
0.0
 10
-28.15141567352596
 20
8.748261882181761
 30
0.0
 10
-28.12728076290992
 20
8.739267258371915
 30
0.0
 10
-28.08957021174612
 20
8.730238785391666
 30
0.0
 10
-28.05108399009814
 20
8.724220899163253
 30
0.0
 10
-28.02510234127616
 20
8.723198816211851
 30
0.0
 10
-28.01208591461208
 20
8.722686767578112
 30
0.0
 11
-28.16344928741486
 21
8.752746582031107
 31
0.0
 11
-28.12711429595978
 21
8.740036010742104
 31
0.0
 11
-28.08953189849879
 21
8.730758666992104
 31
0.0
 11
-28.05106830596948
 21
8.724975585938111
 31
0.0
 11
-28.01208591461208
 21
8.722686767578112
 31
0.0
  0
SPLINE
  5
ABB5
330
1F
100
AcDbEntity
  8
AM_0
100
AcDbSpline
210
0.0
220
0.0
230
1.0
 70
     8
 71
     3
 72
    11
 73
     7
 74
     5
 42
0.0000000001
 43
0.0000000001
 44
0.0000000001
 40
0.0
 40
0.0
 40
0.0
 40
0.0
 40
0.059954871576142
 40
0.1198431815644824
 40
0.1796179662004181
 40
0.2393356779289082
 40
0.2393356779289082
 40
0.2393356779289082
 40
0.2393356779289082
 10
-18.37949752807726
 20
8.882476806641134
 30
0.0
 10
-18.37103927476926
 20
8.9005946335072
 30
0.0
 10
-18.35413215846226
 20
8.936810172921816
 30
0.0
 10
-18.33399702116209
 20
8.993272128620041
 30
0.0
 10
-18.31774727381375
 20
9.050899591536063
 30
0.0
 10
-18.31080712940339
 20
9.090143758361778
 30
0.0
 10
-18.30733871460027
 20
9.109756469727141
 30
0.0
 11
-18.37949752807726
 21
8.882476806641134
 31
0.0
 11
-18.35499191284226
 21
8.93719482421913
 31
0.0
 11
-18.33462905883827
 21
8.993515014649132
 31
0.0
 11
-18.31871414184627
 21
9.051132202149132
 31
0.0
 11
-18.30733871460027
 21
9.109756469727141
 31
0.0
  0
SPLINE
  5
ABB6
330
1F
100
AcDbEntity
  8
AM_0
100
AcDbSpline
210
0.0
220
0.0
230
1.0
 70
     8
 71
     3
 72
    11
 73
     7
 74
     5
 42
0.0000000001
 43
0.0000000001
 44
0.0000000001
 40
0.0
 40
0.0
 40
0.0
 40
0.0
 40
0.0494335420817322
 40
0.09917846578042
 40
0.1492466892782585
 40
0.1996124285139415
 40
0.1996124285139415
 40
0.1996124285139415
 40
0.1996124285139415
 10
-18.56674671173129
 20
8.505310058594131
 30
0.0
 10
-18.57435930812046
 20
8.490688356077383
 30
0.0
 10
-18.58963245260274
 20
8.461352849018005
 30
0.0
 10
-18.61631787711032
 20
8.419310040304152
 30
0.0
 10
-18.64551241963425
 20
8.378587850669861
 30
0.0
 10
-18.6672500958084
 20
8.353109129612926
 30
0.0
 10
-18.67815113067728
 20
8.340332031250124
 30
0.0
 11
-18.56674671173129
 21
8.505310058594131
 31
0.0
 11
-18.59019565582328
 21
8.461791992188134
 31
0.0
 11
-18.61664676666328
 21
8.419662475586132
 31
0.0
 11
-18.64600467681929
 21
8.379104614258135
 31
0.0
 11
-18.67815113067728
 21
8.340332031250124
 31
0.0
  0
SPLINE
  5
ABB7
330
1F
100
AcDbEntity
  8
AM_0
100
AcDbSpline
210
0.0
220
0.0
230
1.0
 70
     8
 71
     3
 72
    11
 73
     7
 74
     5
 42
0.0000000001
 43
0.0000000001
 44
0.0000000001
 40
0.0
 40
0.0
 40
0.0
 40
0.0
 40
0.068288776117048
 40
0.1370102851025746
 40
0.2060881056973493
 40
0.2754529170000199
 40
0.2754529170000199
 40
0.2754529170000199
 40
0.2754529170000199
 10
-18.67815113067728
 20
8.340332031250124
 30
0.0
 10
-18.69367970233843
 20
8.323666086702377
 30
0.0
 10
-18.72483524723915
 20
8.290228588714763
 30
0.0
 10
-18.77707671152599
 20
8.245444416319994
 30
0.0
 10
-18.8327714353072
 20
8.20443683274599
 30
0.0
 10
-18.87272494441596
 20
8.181280101751466
 30
0.0
 10
-18.89274311065727
 20
8.169677734375124
 30
0.0
 11
-18.67815113067728
 21
8.340332031250124
 31
0.0
 11
-18.72562503814728
 21
8.291244506836132
 31
0.0
 11
-18.77751255035428
 21
8.246185302735124
 31
0.0
 11
-18.83337497711228
 21
8.205551147461132
 31
0.0
 11
-18.89274311065727
 21
8.169677734375124
 31
0.0
  0
SPLINE
  5
ABB8
330
1F
100
AcDbEntity
  8
AM_0
100
AcDbSpline
210
0.0
220
0.0
230
1.0
 70
     8
 71
     3
 72
    11
 73
     7
 74
     5
 42
0.0000000001
 43
0.0000000001
 44
0.0000000001
 40
0.0
 40
0.0
 40
0.0
 40
0.0
 40
0.3287042616555861
 40
0.6636783112471845
 40
1.006700520261323
 40
1.357601465610583
 40
1.357601465610583
 40
1.357601465610583
 40
1.357601465610583
 10
-24.6530580520633
 20
11.21153259277412
 30
0.0
 10
-24.6216083748542
 20
11.10604727348559
 30
0.0
 10
-24.55810914136609
 20
10.89306458134107
 30
0.0
 10
-24.37359226622698
 20
10.60842876935824
 30
0.0
 10
-24.13611886322374
 20
10.35696886041447
 30
0.0
 10
-23.9392537235726
 20
10.23386592015208
 30
0.0
 10
-23.83970355987578
 20
10.17161560058611
 30
0.0
 11
-24.6530580520633
 21
11.21153259277412
 31
0.0
 11
-24.54444599151639
 21
10.90129089355511
 31
0.0
 11
-24.36720371246368
 21
10.61705017089912
 31
0.0
 11
-24.12896823883087
 21
10.37025451660211
 31
0.0
 11
-23.83970355987578
 21
10.17161560058611
 31
0.0
  0
SPLINE
  5
ABB9
330
1F
100
AcDbEntity
  8
AM_0
100
AcDbSpline
210
0.0
220
0.0
230
1.0
 70
     8
 71
     3
 72
    11
 73
     7
 74
     5
 42
0.0000000001
 43
0.0000000001
 44
0.0000000001
 40
0.0
 40
0.0
 40
0.0
 40
0.0
 40
1.275959581790623
 40
2.586539022196475
 40
3.917313394088041
 40
5.147392498730729
 40
5.147392498730729
 40
5.147392498730729
 40
5.147392498730729
 10
-21.24043750763031
 20
11.98872375488313
 30
0.0
 10
-21.44905196388831
 20
12.39057887222213
 30
0.0
 10
-21.87194108937955
 20
13.20519240473545
 30
0.0
 10
-23.34957313050289
 20
13.31305202328217
 30
0.0
 10
-24.5756070851971
 20
12.5403116505368
 30
0.0
 10
-24.62792681748278
 20
11.64269387529242
 30
0.0
 10
-24.6530580520633
 20
11.21153259277412
 30
0.0
 11
-21.24043750763031
 21
11.98872375488313
 31
0.0
 11
-22.00079822540309
 21
13.01338195800813
 31
0.0
 11
-23.30260181427029
 21
13.16479492187512
 31
0.0
 11
-24.40261936187769
 21
12.41584777832011
 31
0.0
 11
-24.6530580520633
 21
11.21153259277412
 31
0.0
  0
SPLINE
  5
ABBA
330
1F
100
AcDbEntity
  8
AM_0
100
AcDbSpline
210
0.0
220
0.0
230
1.0
 70
     8
 71
     3
 72
    11
 73
     7
 74
     5
 42
0.0000000001
 43
0.0000000001
 44
0.0000000001
 40
0.0
 40
0.0
 40
0.0
 40
0.0
 40
0.0384990695369231
 40
0.0772096069392044
 40
0.1161070257797693
 40
0.1551536416375878
 40
0.1551536416375878
 40
0.1551536416375878
 40
0.1551536416375878
 10
-17.79917144775429
 20
14.75102233886715
 30
0.0
 10
-17.81120469611724
 20
14.75551284132975
 30
0.0
 10
-17.83533728912482
 20
14.76451851170742
 30
0.0
 10
-17.8730504659958
 20
14.77355110865102
 30
0.0
 10
-17.91154004587825
 20
14.77953871437734
 30
0.0
 10
-17.93751998578104
 20
14.78057718360195
 30
0.0
 10
-17.95053482055729
 20
14.78109741211014
 30
0.0
 11
-17.79917144775429
 21
14.75102233886715
 31
0.0
 11
-17.83550643920929
 21
14.76374816894514
 31
0.0
 11
-17.87308883667031
 21
14.77302551269514
 31
0.0
 11
-17.91155624389729
 21
14.77879333496114
 31
0.0
 11
-17.95053482055729
 21
14.78109741211014
 31
0.0
  0
SPLINE
  5
ABCC
330
1F
100
AcDbEntity
  8
AM_0
100
AcDbSpline
210
0.0
220
0.0
230
1.0
 70
     8
 71
     3
 72
    11
 73
     7
 74
     5
 42
0.0000000001
 43
0.0000000001
 44
0.0000000001
 40
0.0
 40
0.0
 40
0.0
 40
0.0
 40
0.6414776304898039
 40
1.282955260979643
 40
1.924463427181092
 40
2.565941978760347
 40
2.565941978760347
 40
2.565941978760347
 40
2.565941978760347
 10
-26.75053882598904
 20
-13.62738037109389
 30
0.0
 10
-26.80216808306981
 20
-13.41988115322719
 30
0.0
 10
-26.90542659723135
 20
-13.00488271749379
 30
0.0
 10
-27.06031911717614
 20
-12.38237575653122
 30
0.0
 10
-27.21520254687769
 20
-11.75986621738619
 30
0.0
 10
-27.31846768862611
 20
-11.34485862540897
 30
0.0
 10
-27.37009906768824
 20
-11.13735961913988
 30
0.0
 11
-26.75053882598904
 21
-13.62738037109389
 31
0.0
 11
-26.90542697906513
 21
-13.00488281249989
 31
0.0
 11
-27.06031513214133
 21
-12.38238525390588
 31
0.0
 11
-27.21520709991482
 21
-11.75985717773389
 31
0.0
 11
-27.37009906768824
 21
-11.13735961913988
 31
0.0
  0
SPLINE
  5
ABCD
330
1F
100
AcDbEntity
  8
AM_0
100
AcDbSpline
210
0.0
220
0.0
230
1.0
 70
     8
 71
     3
 72
    11
 73
     7
 74
     5
 42
0.0000000001
 43
0.0000000001
 44
0.0000000001
 40
0.0
 40
0.0
 40
0.0
 40
0.0
 40
0.048298017060075
 40
0.0959084343563074
 40
0.1426749581514794
 40
0.1884770755681046
 40
0.1884770755681046
 40
0.1884770755681046
 40
0.1884770755681046
 10
-27.37009906768824
 20
-11.13735961913988
 30
0.0
 10
-27.35401489864094
 20
-11.13833365141948
 30
0.0
 10
-27.32207554449874
 20
-11.14026784906641
 30
0.0
 10
-27.27451963840987
 20
-11.13728213566378
 30
0.0
 10
-27.22820332803948
 20
-11.13009490238653
 30
0.0
 10
-27.19874851157302
 20
-11.12076583807813
 30
0.0
 10
-27.18417453765895
 20
-11.11614990234389
 30
0.0
 11
-27.37009906768824
 21
-11.13735961913988
 31
0.0
 11
-27.32183933258084
 21
-11.13928222656189
 31
0.0
 11
-27.27430820465115
 21
-11.13653564453088
 31
0.0
 11
-27.22817325592064
 21
-11.12887573242189
 31
0.0
 11
-27.18417453765895
 21
-11.11614990234389
 31
0.0
  0
SPLINE
  5
ABCE
330
1F
100
AcDbEntity
  8
AM_0
100
AcDbSpline
210
0.0
220
0.0
230
1.0
 70
     8
 71
     3
 72
    11
 73
     7
 74
     5
 42
0.0000000001
 43
0.0000000001
 44
0.0000000001
 40
0.0
 40
0.0
 40
0.0
 40
0.0
 40
0.6291826349171222
 40
1.258394884443392
 40
1.887607133969643
 40
2.516789768886755
 40
2.516789768886755
 40
2.516789768886755
 40
2.516789768886755
 10
-26.99324512481714
 20
-10.83593749999988
 30
0.0
 10
-26.94260315119033
 20
-11.03945908025417
 30
0.0
 10
-26.84131682030092
 20
-11.44651182019443
 30
0.0
 10
-26.68939685821552
 20
-12.05709838867188
 30
0.0
 10
-26.53747689613027
 20
-12.66768495714935
 30
0.0
 10
-26.43619056524084
 20
-13.07473769708959
 30
0.0
 10
-26.38554859161404
 20
-13.27825927734388
 30
0.0
 11
-26.99324512481714
 21
-10.83593749999988
 31
0.0
 11
-26.84132099151633
 21
-11.44650268554689
 31
0.0
 11
-26.68939685821554
 21
-12.05709838867188
 31
0.0
 11
-26.53747272491483
 21
-12.66769409179688
 31
0.0
 11
-26.38554859161404
 21
-13.27825927734388
 31
0.0
  0
SPLINE
  5
ABCF
330
1F
100
AcDbEntity
  8
AM_0
100
AcDbSpline
210
0.0
220
0.0
230
1.0
 70
     8
 71
     3
 72
    11
 73
     7
 74
     5
 42
0.0000000001
 43
0.0000000001
 44
0.0000000001
 40
0.0
 40
0.0
 40
0.0
 40
0.0
 40
0.1026593876781974
 40
0.2053314231679116
 40
0.3103150346291843
 40
0.4192208511175019
 40
0.4192208511175019
 40
0.4192208511175019
 40
0.4192208511175019
 10
-26.38554859161404
 20
-13.27825927734388
 30
0.0
 10
-26.38572688606094
 20
-13.31279328881219
 30
0.0
 10
-26.38608349692091
 20
-13.38186556639787
 30
0.0
 10
-26.42861567001637
 20
-13.4789045587119
 30
0.0
 10
-26.50038966283021
 20
-13.55980697043072
 30
0.0
 10
-26.56584674918102
 20
-13.58978011487842
 30
0.0
 10
-26.59917545318625
 20
-13.60504150390587
 30
0.0
 11
-26.38554859161404
 21
-13.27825927734388
 31
0.0
 11
-26.39302921295195
 21
-13.38064575195289
 31
0.0
 11
-26.43285083770775
 21
-13.47528076171889
 31
0.0
 11
-26.50358676910425
 21
-13.55285644531188
 31
0.0
 11
-26.59917545318625
 21
-13.60504150390587
 31
0.0
  0
SPLINE
  5
ABD0
330
1F
100
AcDbEntity
  8
AM_0
100
AcDbSpline
210
0.0
220
0.0
230
1.0
 70
     8
 71
     3
 72
    11
 73
     7
 74
     5
 42
0.0000000001
 43
0.0000000001
 44
0.0000000001
 40
0.0
 40
0.0
 40
0.0
 40
0.0
 40
0.0377092964293485
 40
0.0759565296712945
 40
0.1146368965051951
 40
0.1536339182646027
 40
0.1536339182646027
 40
0.1536339182646027
 40
0.1536339182646027
 10
-26.59917545318625
 20
-13.60504150390587
 30
0.0
 10
-26.61123064149607
 20
-13.60863221104369
 30
0.0
 10
-26.63551298975634
 20
-13.61586484806108
 30
0.0
 10
-26.67317507291095
 20
-13.62267306240493
 30
0.0
 10
-26.71162640364132
 20
-13.62697030034576
 30
0.0
 10
-26.73753281570437
 20
-13.6272433098665
 30
0.0
 10
-26.75053882598904
 20
-13.62738037109389
 30
0.0
 11
-26.59917545318625
 21
-13.60504150390587
 31
0.0
 11
-26.63550662994405
 21
-13.61514282226489
 31
0.0
 11
-26.67309284210233
 21
-13.62222290038988
 31
0.0
 11
-26.71155643463155
 21
-13.62631225585889
 31
0.0
 11
-26.75053882598904
 21
-13.62738037109389
 31
0.0
  0
SPLINE
  5
ABD1
330
1F
100
AcDbEntity
  8
AM_0
100
AcDbSpline
210
0.0
220
0.0
230
1.0
 70
     8
 71
     3
 72
    11
 73
     7
 74
     5
 42
0.0000000001
 43
0.0000000001
 44
0.0000000001
 40
0.0
 40
0.0
 40
0.0
 40
0.0
 40
0.0567997669095311
 40
0.1118686754626293
 40
0.1654895197591882
 40
0.2181793142686661
 40
0.2181793142686661
 40
0.2181793142686661
 40
0.2181793142686661
 10
-27.18417453765895
 20
-11.11614990234389
 30
0.0
 10
-27.16659992515467
 20
-11.10896561880497
 30
0.0
 10
-27.13198625102192
 20
-11.09481597828043
 30
0.0
 10
-27.08643439085209
 20
-11.0630693891101
 30
0.0
 10
-27.04776105962597
 20
-11.02495276101866
 30
0.0
 10
-27.02975902040892
 20
-10.99427131371235
 30
0.0
 10
-27.02083683013944
 20
-10.97906494140588
 30
0.0
 11
-27.18417453765895
 21
-11.11614990234389
 31
0.0
 11
-27.13243579864525
 21
-11.09271240234389
 31
0.0
 11
-27.08702945709254
 21
-11.0615539550779
 31
0.0
 11
-27.04943943023704
 21
-11.02331542968689
 31
0.0
 11
-27.02083683013944
 21
-10.97906494140588
 31
0.0
  0
SPLINE
  5
ABD2
330
1F
100
AcDbEntity
  8
AM_0
100
AcDbSpline
210
0.0
220
0.0
230
1.0
 70
     8
 71
     3
 72
    11
 73
     7
 74
     5
 42
0.0000000001
 43
0.0000000001
 44
0.0000000001
 40
0.0
 40
0.0
 40
0.0
 40
0.0
 40
0.0221802967093515
 40
0.0442583649030515
 40
0.0664252749758578
 40
0.0888122850385986
 40
0.0888122850385986
 40
0.0888122850385986
 40
0.0888122850385986
 10
-27.02083683013944
 20
-10.97906494140588
 30
0.0
 10
-27.01766056414061
 20
-10.9723830161145
 30
0.0
 10
-27.01132267148536
 20
-10.95904996238326
 30
0.0
 10
-27.00404252744821
 20
-10.93810165149842
 30
0.0
 10
-26.99833107534736
 20
-10.91660216172748
 30
0.0
 10
-26.99608092675138
 20
-10.90191241009843
 30
0.0
 10
-26.99495029449483
 20
-10.89453124999988
 30
0.0
 11
-27.02083683013944
 21
-10.97906494140588
 31
0.0
 11
-27.01168155670194
 21
-10.95886230468689
 31
0.0
 11
-27.00431537628193
 21
-10.93804931640588
 31
0.0
 11
-26.99873828887964
 21
-10.91659545898388
 31
0.0
 11
-26.99495029449483
 21
-10.89453124999988
 31
0.0
  0
SPLINE
  5
ABD3
330
1F
100
AcDbEntity
  8
AM_0
100
AcDbSpline
210
0.0
220
0.0
230
1.0
 70
     8
 71
     3
 72
    11
 73
     7
 74
     5
 42
0.0000000001
 43
0.0000000001
 44
0.0000000001
 40
0.0
 40
0.0
 40
0.0
 40
0.0
 40
0.0146358455741426
 40
0.02927507772141
 40
0.0439541596910805
 40
0.0587090872030699
 40
0.0587090872030699
 40
0.0587090872030699
 40
0.0587090872030699
 10
-26.99495029449483
 20
-10.89453124999988
 30
0.0
 10
-26.99439221037088
 20
-10.88968351108612
 30
0.0
 10
-26.99327591298847
 20
-10.87998691154534
 30
0.0
 10
-26.99253700229375
 20
-10.86534614744569
 30
0.0
 10
-26.99242755624161
 20
-10.8506477758572
 30
0.0
 10
-26.99297213420255
 20
-10.84084934148607
 30
0.0
 10
-26.99324512481714
 20
-10.83593749999988
 30
0.0
 11
-26.99495029449483
 21
-10.89453124999988
 31
0.0
 11
-26.99343204498314
 21
-10.87997436523388
 31
0.0
 11
-26.99264240264914
 21
-10.86535644531189
 31
0.0
 11
-26.99258136749294
 21
-10.85067749023388
 31
0.0
 11
-26.99324512481714
 21
-10.83593749999988
 31
0.0
  0
SPLINE
  5
ABD4
330
1F
100
AcDbEntity
  8
AM_0
100
AcDbSpline
210
0.0
220
0.0
230
1.0
 70
     8
 71
     3
 72
    11
 73
     7
 74
     5
 42
0.0000000001
 43
0.0000000001
 44
0.0000000001
 40
0.0
 40
0.0
 40
0.0
 40
0.0
 40
0.2357242542650711
 40
0.4714485085301737
 40
0.7071727627962564
 40
0.9428669468313591
 40
0.9428669468313591
 40
0.9428669468313591
 40
0.9428669468313591
 10
-26.55440235137964
 20
-11.75402832031188
 30
0.0
 10
-26.56780589546659
 20
-11.67660521932165
 30
0.0
 10
-26.59461298364049
 20
-11.52175901734117
 30
0.0
 10
-26.63482416559773
 20
-11.28948980954042
 30
0.0
 10
-26.67503143901342
 20
-11.05723009757005
 30
0.0
 10
-26.70184121429855
 20
-10.90239453334156
 30
0.0
 10
-26.71524524688745
 20
-10.82498168945289
 30
0.0
 11
-26.55440235137964
 21
-11.75402832031188
 31
0.0
 11
-26.59461307525655
 21
-11.52175903320289
 31
0.0
 11
-26.63482379913353
 21
-11.28948974609389
 31
0.0
 11
-26.67503452301053
 21
-11.05722045898388
 31
0.0
 11
-26.71524524688745
 21
-10.82498168945289
 31
0.0
  0
SPLINE
  5
ABEF
330
1F
100
AcDbEntity
  8
AM_0
100
AcDbSpline
210
0.0
220
0.0
230
1.0
 70
     8
 71
     3
 72
    11
 73
     7
 74
     5
 42
0.0000000001
 43
0.0000000001
 44
0.0000000001
 40
0.0
 40
0.0
 40
0.0
 40
0.0
 40
0.1228797305769119
 40
0.252180304288935
 40
0.3833476313583151
 40
0.5111097156935955
 40
0.5111097156935955
 40
0.5111097156935955
 40
0.5111097156935955
 10
-13.94299697876022
 20
-10.67831420898387
 30
0.0
 10
-13.90432197826389
 20
-10.69210218398724
 30
0.0
 10
-13.82495108977195
 20
-10.72039859801383
 30
0.0
 10
-13.69739129394213
 20
-10.73695508676299
 30
0.0
 10
-13.56726600703082
 20
-10.73380545627379
 30
0.0
 10
-13.48294408002131
 20
-10.7145287076069
 30
0.0
 10
-13.44133758545023
 20
-10.70501708984386
 30
0.0
 11
-13.94299697876022
 21
-10.67831420898387
 31
0.0
 11
-13.82589340210025
 21
-10.71554565429686
 31
0.0
 11
-13.69785690307723
 21
-10.73358154296887
 31
0.0
 11
-13.56675720214924
 21
-10.72937011718686
 31
0.0
 11
-13.44133758545023
 21
-10.70501708984386
 31
0.0
  0
SPLINE
  5
ABF0
330
1F
100
AcDbEntity
  8
AM_0
100
AcDbSpline
210
0.0
220
0.0
230
1.0
 70
     8
 71
     3
 72
    11
 73
     7
 74
     5
 42
0.0000000001
 43
0.0000000001
 44
0.0000000001
 40
0.0
 40
0.0
 40
0.0
 40
0.0
 40
1.091189085227453
 40
2.311592825159864
 40
3.590348061745683
 40
4.749437667937297
 40
4.749437667937297
 40
4.749437667937297
 40
4.749437667937297
 10
-11.96017456054724
 20
-8.783172607421859
 30
0.0
 10
-11.97715939569605
 20
-8.412966755640665
 30
0.0
 10
-12.01314034858316
 20
-7.62871661751614
 30
0.0
 10
-13.06071806715974
 20
-6.666248301005706
 30
0.0
 10
-14.42550223108336
 20
-7.204797703721133
 30
0.0
 10
-14.73335034125989
 20
-7.975612845471239
 30
0.0
 10
-14.87971878051824
 20
-8.34210205078086
 30
0.0
 11
-11.96017456054724
 21
-8.783172607421859
 31
0.0
 11
-12.15340423584025
 21
-7.709228515624856
 31
0.0
 11
-13.09214019775424
 21
-6.929382324218864
 31
0.0
 11
-14.30460739135826
 21
-7.335754394530844
 31
0.0
 11
-14.87971878051824
 21
-8.34210205078086
 31
0.0
  0
SPLINE
  5
ABF1
330
1F
100
AcDbEntity
  8
AM_0
100
AcDbSpline
210
0.0
220
0.0
230
1.0
 70
     8
 71
     3
 72
    11
 73
     7
 74
     5
 42
0.0000000001
 43
0.0000000001
 44
0.0000000001
 40
0.0
 40
0.0
 40
0.0
 40
0.0
 40
0.0022952466334812
 40
0.0046647878395889
 40
0.0071951516152747
 40
0.009955527287303
 40
0.009955527287303
 40
0.009955527287303
 40
0.009955527287303
 10
-17.01704788208129
 20
13.61149597168013
 30
0.0
 10
-17.01707105441167
 20
13.61226383672863
 30
0.0
 10
-17.01711814913491
 20
13.61382442176052
 30
0.0
 10
-17.01784156003363
 20
13.61613738518185
 30
0.0
 10
-17.01902436809566
 20
13.61841711860042
 30
0.0
 10
-17.02014459886105
 20
13.61978498856135
 30
0.0
 10
-17.02072906494229
 20
13.62049865722713
 30
0.0
 11
-17.01704788208129
 21
13.61149597168013
 31
0.0
 11
-17.01721954345729
 21
13.61378479003913
 31
0.0
 11
-17.01788711547929
 21
13.61605834961013
 31
0.0
 11
-17.01905822754029
 21
13.61830139160213
 31
0.0
 11
-17.02072906494229
 21
13.62049865722713
 31
0.0
  0
SPLINE
  5
ABF2
330
1F
100
AcDbEntity
  8
AM_0
100
AcDbSpline
210
0.0
220
0.0
230
1.0
 70
     8
 71
     3
 72
    11
 73
     7
 74
     5
 42
0.0000000001
 43
0.0000000001
 44
0.0000000001
 40
0.0
 40
0.0
 40
0.0
 40
0.0
 40
1.180365489683498
 40
2.317595918921958
 40
3.428515741171283
 40
4.591866701074325
 40
4.591866701074325
 40
4.591866701074325
 40
4.591866701074325
 10
-3.566619873047258
 20
-3.418121337889833
 30
0.0
 10
-3.969968277999468
 20
-3.518847825385757
 30
0.0
 10
-4.76192519760712
 20
-3.716619870051764
 30
0.0
 10
-5.220915177451358
 20
-4.935316276905584
 30
0.0
 10
-4.740426674267324
 20
-6.129884871075851
 30
0.0
 10
-3.963856500985155
 20
-6.320577106584556
 30
0.0
 10
-3.566619873047261
 20
-6.418121337889834
 30
0.0
 11
-3.566619873047258
 21
-3.418121337889833
 31
0.0
 11
-4.65171813964926
 21
-3.88269042968684
 31
0.0
 11
-5.066400527955261
 21
-4.941619873046843
 31
0.0
 11
-4.638946533204266
 21
-5.967010498046842
 31
0.0
 11
-3.566619873047261
 21
-6.418121337889834
 31
0.0
  0
SPLINE
  5
ABF3
330
1F
100
AcDbEntity
  8
AM_0
100
AcDbSpline
210
0.0
220
0.0
230
1.0
 70
     8
 71
     3
 72
    11
 73
     7
 74
     5
 42
0.0000000001
 43
0.0000000001
 44
0.0000000001
 40
0.0
 40
0.0
 40
0.0
 40
0.0
 40
0.0095221270136494
 40
0.0190945942829591
 40
0.0287452084059949
 40
0.0384402755779889
 40
0.0384402755779889
 40
0.0384402755779889
 40
0.0384402755779889
 10
-25.70380878448514
 20
-12.22726440429688
 30
0.0
 10
-25.70380913189531
 20
-12.22408949572454
 30
0.0
 10
-25.70380982855227
 20
-12.21772289391515
 30
0.0
 10
-25.70447424614504
 20
-12.20815816433601
 30
0.0
 10
-25.70558298254876
 20
-12.19857684549242
 30
0.0
 10
-25.70675930888281
 20
-12.19223473717817
 30
0.0
 10
-25.70734882354765
 20
-12.18905639648388
 30
0.0
 11
-25.70380878448514
 21
-12.22726440429688
 31
0.0
 11
-25.70391941070582
 21
-12.21774291992188
 31
0.0
 11
-25.70454502105733
 21
-12.20819091796888
 31
0.0
 11
-25.70568943023703
 21
-12.19860839843688
 31
0.0
 11
-25.70734882354765
 21
-12.18905639648388
 31
0.0
  0
SPLINE
  5
ABF4
330
1F
100
AcDbEntity
  8
AM_0
100
AcDbSpline
210
0.0
220
0.0
230
1.0
 70
     8
 71
     3
 72
    11
 73
     7
 74
     5
 42
0.0000000001
 43
0.0000000001
 44
0.0000000001
 40
0.0
 40
0.0
 40
0.0
 40
0.0
 40
0.1617009105916385
 40
0.320883675608325
 40
0.477645672327582
 40
0.6321467145260151
 40
0.6321467145260151
 40
0.6321467145260151
 40
0.6321467145260151
 10
-14.87971878051824
 20
-8.34210205078086
 30
0.0
 10
-14.89346018151361
 20
-8.39423884336942
 30
0.0
 10
-14.92072899059619
 20
-8.497700509596494
 30
0.0
 10
-14.94985557789067
 20
-8.654344169091359
 30
0.0
 10
-14.97130130157075
 20
-8.809778763244537
 30
0.0
 10
-14.97857495450652
 20
-8.913304359123443
 30
0.0
 10
-14.98218536377024
 20
-8.964691162108858
 30
0.0
 11
-14.87971878051824
 21
-8.34210205078086
 31
0.0
 11
-14.91898727417025
 21
-8.498962402343858
 31
0.0
 11
-14.94876861572324
 21
-8.65533447265586
 31
0.0
 11
-14.96965026855524
 21
-8.810699462889864
 31
0.0
 11
-14.98218536377024
 21
-8.964691162108858
 31
0.0
  0
SPLINE
  5
ABF5
330
1F
100
AcDbEntity
  8
AM_0
100
AcDbSpline
210
0.0
220
0.0
230
1.0
 70
     8
 71
     3
 72
    11
 73
     7
 74
     5
 42
0.0000000001
 43
0.0000000001
 44
0.0000000001
 40
0.0
 40
0.0
 40
0.0
 40
0.0
 40
0.0361592739181407
 40
0.0746599413365601
 40
0.1162179335375372
 40
0.1613333012787812
 40
0.1613333012787812
 40
0.1613333012787812
 40
0.1613333012787812
 10
-25.70734882354765
 20
-12.18905639648388
 30
0.0
 10
-25.71039166732833
 20
-12.17735822651176
 30
0.0
 10
-25.71667438579983
 20
-12.1532044040141
 30
0.0
 10
-25.7347579041652
 20
-12.11863897658151
 30
0.0
 10
-25.75889212170416
 20
-12.08443070742275
 30
0.0
 10
-25.77925419452491
 20
-12.06386599887685
 30
0.0
 10
-25.78985309600853
 20
-12.05316162109388
 30
0.0
 11
-25.70734882354765
 21
-12.18905639648388
 31
0.0
 11
-25.71772861480733
 21
-12.15441894531188
 31
0.0
 11
-25.73497104644803
 21
-12.11999511718688
 31
0.0
 11
-25.75904560089133
 21
-12.08612060546888
 31
0.0
 11
-25.78985309600853
 21
-12.05316162109388
 31
0.0
  0
SPLINE
  5
ABF6
330
1F
100
AcDbEntity
  8
AM_0
100
AcDbSpline
210
0.0
220
0.0
230
1.0
 70
     8
 71
     3
 72
    11
 73
     7
 74
     5
 42
0.0000000001
 43
0.0000000001
 44
0.0000000001
 40
0.0
 40
0.0
 40
0.0
 40
0.0
 40
0.2610817642246021
 40
0.5115754114620357
 40
0.7500249729560553
 40
0.9756726123059678
 40
0.9756726123059678
 40
0.9756726123059678
 40
0.9756726123059678
 10
-19.24437808990528
 20
4.60173034668012
 30
0.0
 10
-19.30399208330386
 20
4.538190071887375
 30
0.0
 10
-19.42080243691988
 20
4.413686385013457
 30
0.0
 10
-19.61603683223821
 20
4.256533821617422
 30
0.0
 10
-19.81532423477783
 20
4.124834226952996
 30
0.0
 10
-19.95559074598283
 20
4.059155286984211
 30
0.0
 10
-20.02378940582328
 20
4.027221679688129
 30
0.0
 11
-19.24437808990528
 21
4.60173034668012
 31
0.0
 11
-19.42747974395828
 21
4.41561889648512
 31
0.0
 11
-19.62155628204428
 21
4.257247924805119
 31
0.0
 11
-19.82175540924129
 21
4.127716064453129
 31
0.0
 11
-20.02378940582328
 21
4.027221679688129
 31
0.0
  0
SPLINE
  5
ABF7
330
1F
100
AcDbEntity
  8
AM_0
100
AcDbSpline
210
0.0
220
0.0
230
1.0
 70
     8
 71
     3
 72
    11
 73
     7
 74
     5
 42
0.0000000001
 43
0.0000000001
 44
0.0000000001
 40
0.0
 40
0.0
 40
0.0
 40
0.0
 40
0.0130453365954152
 40
0.0332730273844665
 40
0.0623118660458637
 40
0.1004943842755733
 40
0.1004943842755733
 40
0.1004943842755733
 40
0.1004943842755733
 10
-8.118774414063242
 20
-13.60220336913985
 30
0.0
 10
-8.120721338557768
 20
-13.59822717801798
 30
0.0
 10
-8.125687103262116
 20
-13.58808562934147
 30
0.0
 10
-8.144694082247301
 20
-13.5775980780941
 30
0.0
 10
-8.170921558067879
 20
-13.56566635549185
 30
0.0
 10
-8.19246893617073
 20
-13.55917061418973
 30
0.0
 10
-8.204708099366246
 20
-13.55548095703084
 30
0.0
 11
-8.118774414063242
 21
-13.60220336913985
 31
0.0
 11
-8.125411987305245
 21
-13.59097290038985
 31
0.0
 11
-8.141963958741246
 21
-13.57934570312485
 31
0.0
 11
-8.168437957764243
 21
-13.56741333007784
 31
0.0
 11
-8.204708099366246
 21
-13.55548095703084
 31
0.0
  0
SPLINE
  5
ABF8
330
1F
100
AcDbEntity
  8
AM_0
100
AcDbSpline
210
0.0
220
0.0
230
1.0
 70
     8
 71
     3
 72
    11
 73
     7
 74
     5
 42
0.0000000001
 43
0.0000000001
 44
0.0000000001
 40
0.0
 40
0.0
 40
0.0
 40
0.0
 40
0.0308792427538398
 40
0.0614339860635981
 40
0.0917126973943863
 40
0.1217669599338533
 40
0.1217669599338533
 40
0.1217669599338533
 40
0.1217669599338533
 10
-17.63156127929727
 20
10.09523010253913
 30
0.0
 10
-17.6268078455569
 20
10.08609860505838
 30
0.0
 10
-17.61735093029222
 20
10.06793156989356
 30
0.0
 10
-17.60463622967932
 20
10.04011866980123
 30
0.0
 10
-17.59301349141422
 20
10.01212841467105
 30
0.0
 10
-17.58630674762132
 20
9.993165204161574
 30
0.0
 10
-17.58296585083128
 20
9.983718872070129
 30
0.0
 11
-17.63156127929727
 21
10.09523010253913
 31
0.0
 11
-17.61753845214927
 21
10.06771850586013
 31
0.0
 11
-17.60476303100628
 21
10.03996276855513
 31
0.0
 11
-17.59323883056727
 21
10.01196289062513
 31
0.0
 11
-17.58296585083128
 21
9.983718872070129
 31
0.0
  0
SPLINE
  5
ABF9
330
1F
100
AcDbEntity
  8
AM_0
100
AcDbSpline
210
0.0
220
0.0
230
1.0
 70
     8
 71
     3
 72
    11
 73
     7
 74
     5
 42
0.0000000001
 43
0.0000000001
 44
0.0000000001
 40
0.0
 40
0.0
 40
0.0
 40
0.0
 40
0.276789816909329
 40
0.5538665378123799
 40
0.8314475666625472
 40
1.107055645247499
 40
1.107055645247499
 40
1.107055645247499
 40
1.107055645247499
 10
-17.73600006103627
 20
8.956161499024133
 30
0.0
 10
-17.78021690734271
 20
8.874872062660564
 30
0.0
 10
-17.8686964325297
 20
8.712208930099732
 30
0.0
 10
-18.05335097993448
 20
8.503166492553077
 30
0.0
 10
-18.27318158691662
 20
8.32930967249106
 30
0.0
 10
-18.44677188867087
 20
8.264162249293265
 30
0.0
 10
-18.53325748443629
 20
8.231704711914131
 30
0.0
 11
-17.73600006103627
 21
8.956161499024133
 31
0.0
 11
-17.87727355957126
 21
8.718139648438137
 31
0.0
 11
-18.05914688110428
 21
8.509109497070127
 31
0.0
 11
-18.28053283691528
 21
8.341659545899132
 31
0.0
 11
-18.53325748443629
 21
8.231704711914131
 31
0.0
  0
SPLINE
  5
AC1F
330
1F
100
AcDbEntity
  8
AM_0
100
AcDbSpline
210
0.0
220
0.0
230
1.0
 70
     8
 71
     3
 72
    11
 73
     7
 74
     5
 42
0.0000000001
 43
0.0000000001
 44
0.0000000001
 40
0.0
 40
0.0
 40
0.0
 40
0.0
 40
0.0523416413369348
 40
0.1046871396143793
 40
0.1570326378918055
 40
0.2093780939136124
 40
0.2093780939136124
 40
0.2093780939136124
 40
0.2093780939136124
 10
-10.22012710571329
 20
13.66409301757813
 30
0.0
 10
-10.20267994846773
 20
13.66413752341983
 30
0.0
 10
-10.16778434833392
 20
13.66422653838274
 30
0.0
 10
-10.11544036865152
 20
13.66438293389457
 30
0.0
 10
-10.06309511742375
 20
13.66453933725901
 30
0.0
 10
-10.02819824570972
 20
13.66462834680707
 30
0.0
 10
-10.01074981689529
 20
13.66467285156314
 30
0.0
 11
-10.22012710571329
 21
13.66409301757813
 31
0.0
 11
-10.16778564453229
 21
13.66423034668013
 31
0.0
 11
-10.11544036865328
 21
13.66438293457014
 31
0.0
 11
-10.06309509277429
 21
13.66453552246114
 31
0.0
 11
-10.01074981689529
 21
13.66467285156314
 31
0.0
  0
SPLINE
  5
AC20
330
1F
100
AcDbEntity
  8
AM_0
100
AcDbSpline
210
0.0
220
0.0
230
1.0
 70
     8
 71
     3
 72
    11
 73
     7
 74
     5
 42
0.0000000001
 43
0.0000000001
 44
0.0000000001
 40
0.0
 40
0.0
 40
0.0
 40
0.0
 40
0.0435740397155826
 40
0.0871479164590918
 40
0.130721793202686
 40
0.1742920184457707
 40
0.1742920184457707
 40
0.1742920184457707
 40
0.1742920184457707
 10
-27.80540180206329
 20
13.17564392089912
 30
0.0
 10
-27.79087799158485
 20
13.17548497557048
 30
0.0
 10
-27.76183042494875
 20
13.17516708550769
 30
0.0
 10
-27.71825885775998
 20
13.17471313176027
 30
0.0
 10
-27.67468856179732
 20
13.17425920929375
 30
0.0
 10
-27.64564226696024
 20
13.17394129774629
 30
0.0
 10
-27.63111972808868
 20
13.17378234863311
 30
0.0
 11
-27.80540180206329
 21
13.17564392089912
 31
0.0
 11
-27.76183032989529
 21
13.17517089843811
 31
0.0
 11
-27.71825885772738
 21
13.17471313476611
 31
0.0
 11
-27.67468738555939
 21
13.17425537109412
 31
0.0
 11
-27.63111972808868
 21
13.17378234863311
 31
0.0
  0
SPLINE
  5
AC21
330
1F
100
AcDbEntity
  8
AM_0
100
AcDbSpline
210
0.0
220
0.0
230
1.0
 70
     8
 71
     3
 72
    11
 73
     7
 74
     5
 42
0.0000000001
 43
0.0000000001
 44
0.0000000001
 40
0.0
 40
0.0
 40
0.0
 40
0.0
 40
0.080519365625873
 40
0.1610349166755639
 40
0.2415545309805325
 40
0.3220700820302313
 40
0.3220700820302313
 40
0.3220700820302313
 40
0.3220700820302313
 10
-19.02013111114525
 20
-13.40802001953087
 30
0.0
 10
-18.99329218012238
 20
-13.40780549189557
 30
0.0
 10
-18.9396155895614
 20
-13.40737644678813
 30
0.0
 10
-18.85909985239388
 20
-13.40674915534624
 30
0.0
 10
-18.77858591894143
 20
-13.40605656317461
 30
0.0
 10
-18.72490917472033
 20
-13.40563620111592
 30
0.0
 10
-18.69807147979825
 20
-13.40542602538987
 30
0.0
 11
-19.02013111114525
 21
-13.40802001953087
 31
0.0
 11
-18.93961429596023
 21
-13.40737915038987
 31
0.0
 11
-18.85910129547223
 21
-13.40673828124987
 31
0.0
 11
-18.77858448028625
 21
-13.40606689453087
 31
0.0
 11
-18.69807147979825
 21
-13.40542602538987
 31
0.0
  0
ELLIPSE
  5
AC2D
330
1F
100
AcDbEntity
  8
AM_0
100
AcDbEllipse
 10
-27.40604114532495
 20
-10.69897460937489
 30
0.0
 11
0.2010040314891999
 21
-0.0267639186349978
 31
0.0
210
0.0
220
0.0
230
1.0
 40
0.8045230512801996
 41
5.399950937386715
 42
5.78889680430452
  0
ELLIPSE
  5
AC2E
330
1F
100
AcDbEntity
  8
AM_0
100
AcDbEllipse
 10
-27.42012119293234
 20
-10.6808624267579
 30
0.0
 11
0.2266120968184993
 21
-0.0301666238379989
 31
0.0
210
0.0
220
0.0
230
1.0
 40
0.8045795822611998
 41
4.86344783998037
 42
5.399995808729148
  0
ELLIPSE
  5
AC2F
330
1F
100
AcDbEntity
  8
AM_0
100
AcDbEllipse
 10
-13.65254592895626
 20
-9.517364501952876
 30
0.0
 11
1.443740853709997
 21
-0.4069518938849983
 31
0.0
210
0.0
220
0.0
230
1.0
 40
0.9573560318542998
 41
0.3070095360116828
 42
2.912313382966316
  0
ELLIPSE
  5
AC30
330
1F
100
AcDbEntity
  8
AM_0
100
AcDbEllipse
 10
-31.23809909820586
 20
-6.123611450194903
 30
0.0
 11
1.239067102580899
 21
-0.1649627694419966
 31
0.0
210
0.0
220
0.0
230
1.0
 40
0.8045099258423002
 41
5.007230990109521
 42
6.283185307179585
  0
ELLIPSE
  5
AC31
330
1F
100
AcDbEntity
  8
AM_0
100
AcDbEllipse
 10
-13.65254592895626
 20
-9.517364501952876
 30
0.0
 11
1.203117412862998
 21
-0.3391417602599964
 31
0.0
210
0.0
220
0.0
230
1.0
 40
0.9573647724554
 41
5.146344885687318
 42
6.283185307179585
  0
ELLIPSE
  5
AC32
330
1F
100
AcDbEntity
  8
AM_0
100
AcDbEllipse
 10
-13.65254592895626
 20
-9.517364501952876
 30
0.0
 11
1.203117412862998
 21
-0.3391417602599964
 31
0.0
210
0.0
220
0.0
230
1.0
 40
0.9573647724554
 41
3.141592562273703
 42
4.741529564579407
  0
ELLIPSE
  5
AC33
330
1F
100
AcDbEntity
  8
AM_0
100
AcDbEllipse
 10
-13.65254592895626
 20
-9.517364501952876
 30
0.0
 11
1.203117412862998
 21
-0.3391417602599964
 31
0.0
210
0.0
220
0.0
230
1.0
 40
0.9573647724554
 41
0.0
 42
3.141592744905882
  0
ELLIPSE
  5
AC34
330
1F
100
AcDbEntity
  8
AM_0
100
AcDbEllipse
 10
-5.39488792419529
 20
8.08898925781316
 30
0.0
 11
1.499395398729
 21
-0.0425718849250002
 31
0.0
210
0.0
220
0.0
230
1.0
 40
0.1902214940917
 41
0.3270018687285484
 42
1.11484129940559
  0
ELLIPSE
  5
AC35
330
1F
100
AcDbEntity
  8
AM_0
100
AcDbEllipse
 10
-5.39488792419529
 20
8.08898925781316
 30
0.0
 11
1.499395398729
 21
-0.0425718849250002
 31
0.0
210
0.0
220
0.0
230
1.0
 40
0.1902214940917
 41
2.205654384425661
 42
3.064751988448085
  0
ELLIPSE
  5
AC36
330
1F
100
AcDbEntity
  8
AM_0
100
AcDbEllipse
 10
-27.03528308868439
 20
8.486434936524126
 30
0.0
 11
-1.462551093190998
 21
-0.3330840960800035
 31
0.0
210
0.0
220
0.0
230
1.0
 40
0.9356307290981998
 41
5.606466173782763
 42
5.778624218900875
  0
ELLIPSE
  5
AC37
330
1F
100
AcDbEntity
  8
AM_0
100
AcDbEllipse
 10
-18.80157089233428
 20
8.598953247070124
 30
0.0
 11
-1.462551582940998
 21
-0.3330840929959992
 31
0.0
210
0.0
220
0.0
230
1.0
 40
0.9356205770393998
 41
3.625307850769511
 42
4.077575366191521
  0
ELLIPSE
  5
AC38
330
1F
100
AcDbEntity
  8
AM_0
100
AcDbEllipse
 10
-18.80549240112329
 20
8.616165161133135
 30
0.0
 11
-1.462551582940998
 21
-0.3330840929960063
 31
0.0
210
0.0
220
0.0
230
1.0
 40
0.9356205770394
 41
3.61906823017539
 42
4.073220377304502
  0
ELLIPSE
  5
AC39
330
1F
100
AcDbEntity
  8
AM_0
100
AcDbEllipse
 10
-22.96650791168239
 20
8.358345031738119
 30
0.0
 11
1.4994010932151
 21
-0.0423201754259962
 31
0.0
210
0.0
220
0.0
230
1.0
 40
0.1568873507428
 41
5.651856061495082
 42
5.844018864450934
  0
ELLIPSE
  5
AC3A
330
1F
100
AcDbEntity
  8
AM_0
100
AcDbEllipse
 10
-22.96650791168239
 20
8.358345031738119
 30
0.0
 11
1.4994010932151
 21
-0.0423201754259962
 31
0.0
210
0.0
220
0.0
230
1.0
 40
0.1568873507428
 41
3.234911922365545
 42
3.955166509328419
  0
ELLIPSE
  5
AC41
330
1F
100
AcDbEntity
  8
AM_0
100
AcDbEllipse
 10
-9.820491790772228
 20
-12.92117309570286
 30
0.0
 11
0.1951713645439989
 21
-0.0550231763860009
 31
0.0
210
0.0
220
0.0
230
1.0
 40
0.9573969030479
 41
5.550289455402582
 42
5.93941954562511
  0
ELLIPSE
  5
AC42
330
1F
100
AcDbEntity
  8
AM_0
100
AcDbEllipse
 10
-9.834571838379224
 20
-12.90010070800785
 30
0.0
 11
0.2200355512489978
 21
-0.0620270010560017
 31
0.0
210
0.0
220
0.0
230
1.0
 40
0.9574615797012
 41
5.019959351012046
 42
5.550324124242628
  0
ELLIPSE
  5
AC45
330
1F
100
AcDbEntity
  8
AM_0
100
AcDbEllipse
 10
-5.181701660157304
 20
11.54672241211015
 30
0.0
 11
-0.0799426254249986
 21
-1.425933897753999
 31
0.0
210
0.0
220
0.0
230
0.9999999999999996
 40
0.9870343888809999
 41
6.276440773202994
 42
6.282481099167513
  0
ELLIPSE
  5
AC46
330
1F
100
AcDbEntity
  8
AM_0
100
AcDbEllipse
 10
9.658954620360725
 20
0.0000000000001769
 30
0.0
 11
23.50408485654202
 21
-12.16662719703095
 31
0.0
210
0.0
220
0.0
230
1.0
 40
0.2679490654404
 41
4.073454409083076
 42
4.324540579877296
  0
ELLIPSE
  5
AC47
330
1F
100
AcDbEntity
  8
AM_0
100
AcDbEllipse
 10
-10.14424514770627
 20
0.0000000000001408
 30
0.0
 11
2.000984293638026
 21
-13.69992086293599
 31
0.0
210
0.0
220
0.0
230
0.9999999999999994
 40
0.0241043008465
 41
6.282382362370429
 42
6.396251040879827
  0
ELLIPSE
  5
AC48
330
1F
100
AcDbEntity
  8
AM_0
100
AcDbEllipse
 10
-16.07293701171927
 20
0.0000000000001315
 30
0.0
 11
0.2796520000800282
 21
-13.699982124333
 31
0.0
210
0.0
220
0.0
230
0.9999999999999994
 40
0.0877234015603
 41
0.6825932562236745
 42
0.8556858680797208
  0
ELLIPSE
  5
AC49
330
1F
100
AcDbEntity
  8
AM_0
100
AcDbEllipse
 10
53.02790832519473
 20
0.0043106079102778
 30
0.0
 11
174.2821753250999
 21
-3.842265724891641
 31
0.0
210
0.0
220
0.0
230
1.0
 40
0.0754798533542
 41
4.312452741728216
 42
4.319640124422441
  0
ELLIPSE
  5
AC4A
330
1F
100
AcDbEntity
  8
AM_0
100
AcDbEllipse
 10
52.99420928954972
 20
-0.0010528564447363
 30
0.0
 11
174.2319625649949
 21
-3.843610782654646
 31
0.0
210
0.0
220
0.0
230
1.0
 40
0.0754665275516
 41
4.322846588178779
 42
4.33121284786235
  0
ELLIPSE
  5
AC4B
330
1F
100
AcDbEntity
  8
AM_0
100
AcDbEllipse
 10
-13.06079483032327
 20
0.0000000000001435
 30
0.0
 11
0.2796520000810283
 21
-13.699982124333
 31
0.0
210
0.0
220
0.0
230
0.9999999999999998
 40
0.0877234015603
 41
0.6641195697453078
 42
0.87270547415518
  0
ELLIPSE
  5
AC4C
330
1F
100
AcDbEntity
  8
AM_0
100
AcDbEllipse
 10
89.15545654296472
 20
-0.0000152587886554
 30
0.0
 11
362.42128953483
 21
-1.99644463092726
 31
0.0
210
0.0
220
0.0
230
1.0
 40
0.0373977949311
 41
1.848776235956753
 42
1.868349010997294
  0
ELLIPSE
  5
AC4D
330
1F
100
AcDbEntity
  8
AM_0
100
AcDbEllipse
 10
-18.92949676513727
 20
0.0000000000001202
 30
0.0
 11
-1.973720858164972
 21
-13.69982939877499
 31
0.0
210
0.0
220
0.0
230
0.9999999999999996
 40
0.0340350094384
 41
3.147481304471531
 42
3.254555258478322
  0
ELLIPSE
  5
AC4E
330
1F
100
AcDbEntity
  8
AM_0
100
AcDbEllipse
 10
-13.07670593261826
 20
0.1152496337891491
 30
0.0
 11
-173.4508222932269
 21
-4.736740173500355
 31
0.0
210
0.0
220
0.0
230
1.0
 40
0.0734030915065
 41
4.733901118098016
 42
4.737329806632806
  0
ELLIPSE
  5
AC4F
330
1F
100
AcDbEntity
  8
AM_0
100
AcDbEllipse
 10
-30.31120014190696
 20
0.0000000000001034
 30
0.0
 11
-2.40961827447317
 21
-13.699462849713
 31
0.0
210
0.0
220
0.0
230
0.9999999999999996
 40
0.0502194396537
 41
2.872888641420456
 42
2.932914846549788
  0
ELLIPSE
  5
AC50
330
1F
100
AcDbEntity
  8
AM_0
100
AcDbEllipse
 10
-0.8151321411142616
 20
-0.0000076293938418
 30
0.0
 11
-0.0000043006569724
 21
-13.70000457763601
 31
0.0
210
0.0
220
0.0
230
0.9999999999999998
 40
0.105104063236
 41
4.802149120330191
 42
4.96455640844046
  0
ELLIPSE
  5
AC51
330
1F
100
AcDbEntity
  8
AM_0
100
AcDbEllipse
 10
-0.8151321411142616
 20
-0.0000076293938418
 30
0.0
 11
-0.0000043006569724
 21
-13.70000457763601
 31
0.0
210
0.0
220
0.0
230
0.9999999999999998
 40
0.105104063236
 41
5.199647297418677
 42
5.878823921352489
  0
ELLIPSE
  5
AC52
330
1F
100
AcDbEntity
  8
AM_0
100
AcDbEllipse
 10
-10.14424514770627
 20
0.0000000000001408
 30
0.0
 11
2.000984293638026
 21
-13.69992086293599
 31
0.0
210
0.0
220
0.0
230
0.9999999999999994
 40
0.0241043008465
 41
6.233938870751932
 42
6.282382362370429
  0
ELLIPSE
  5
AC53
330
1F
100
AcDbEntity
  8
AM_0
100
AcDbEllipse
 10
-10.33717727661226
 20
0.0000000000001401
 30
0.0
 11
1.937935509189026
 21
-13.698028476891
 31
0.0
210
0.0
220
0.0
230
0.9999999999999996
 40
0.1199998728152
 41
0.128584150057256
 42
0.2867452317626673
  0
ELLIPSE
  5
AC54
330
1F
100
AcDbEntity
  8
AM_0
100
AcDbEllipse
 10
-4.408767700196263
 20
0.0000000000001494
 30
0.0
 11
174.2416156868509
 21
-3.843283419013647
 31
0.0
210
0.0
220
0.0
230
1.0
 40
0.0754691808071
 41
4.634547323703506
 42
4.693362350396941
  0
ELLIPSE
  5
AC55
330
1F
100
AcDbEntity
  8
AM_0
100
AcDbEllipse
 10
-20.13969516754227
 20
0.0000076293951298
 30
0.0
 11
1.456836598063025
 21
-13.69904345690599
 31
0.0
210
0.0
220
0.0
230
0.9999999999999992
 40
0.1111387418091
 41
0.2996630528603983
 42
0.350395673013524
  0
ELLIPSE
  5
AC56
330
1F
100
AcDbEntity
  8
AM_0
100
AcDbEllipse
 10
-20.24617481231726
 20
0.0000076293951293
 30
0.0
 11
0.7719802996440273
 21
-13.697975203443
 31
0.0
210
0.0
220
0.0
230
0.9999999999999996
 40
0.3044899055758998
 41
0.1905854079066283
 42
0.2942086736330974
  0
ELLIPSE
  5
AC57
330
1F
100
AcDbEntity
  8
AM_0
100
AcDbEllipse
 10
-21.52590656280627
 20
0.0000000000001241
 30
0.0
 11
2.450695397285025
 21
-13.69967676601
 31
0.0
210
0.0
220
0.0
230
0.9999999999999996
 40
0.0381852109227
 41
0.142368454794486
 42
0.2000822804487856
  0
ELLIPSE
  5
AC58
330
1F
100
AcDbEntity
  8
AM_0
100
AcDbEllipse
 10
80.35473632812474
 20
-0.0000839233396705
 30
0.0
 11
-362.41986744025
 21
-5.659279050614735
 31
0.0
210
0.0
220
0.0
230
1.0
 40
0.0344253979382
 41
1.272843697190349
 42
1.292488531856406
  0
ELLIPSE
  5
AC59
330
1F
100
AcDbEntity
  8
AM_0
100
AcDbEllipse
 10
-27.72949695587186
 20
0.0000076293950996
 30
0.0
 11
1.773075404594727
 21
-13.699409424927
 31
0.0
210
0.0
220
0.0
230
0.9999999999999998
 40
0.0718610231715
 41
0.1179940405872547
 42
0.4581061740033756
  0
ELLIPSE
  5
AC5A
330
1F
100
AcDbEntity
  8
AM_0
100
AcDbEllipse
 10
-27.92360019683866
 20
-0.0000076293938925
 30
0.0
 11
1.253990094483527
 21
-13.698509252003
 31
0.0
210
0.0
220
0.0
230
0.9999999999999998
 40
0.1613473098665
 41
0.4807103830622941
 42
0.6386131173965635
  0
ELLIPSE
  5
AC5B
330
1F
100
AcDbEntity
  8
AM_0
100
AcDbEllipse
 10
35.57792663574173
 20
0.0006179809572399
 30
0.0
 11
174.2497511030729
 21
-8.123259394070649
 31
0.0
210
0.0
220
0.0
230
1.0
 40
0.0633159199841
 41
4.323258315481811
 42
4.331440848131291
  0
ELLIPSE
  5
AC5C
330
1F
100
AcDbEntity
  8
AM_0
100
AcDbEllipse
 10
-30.64729022979767
 20
0.0000076293951022
 30
0.0
 11
-0.1516564884570721
 21
-13.699989172534
 31
0.0
210
0.0
220
0.0
230
0.9999999999999998
 40
0.0893840019323
 41
1.016691545638577
 42
1.224774677549031
  0
ELLIPSE
  5
AC5D
330
1F
100
AcDbEntity
  8
AM_0
100
AcDbEllipse
 10
-1.189846038819286
 20
4.731239318848175
 30
0.0
 11
-0.0000095017190011
 21
-0.7999954223069997
 31
0.0
210
0.0
220
0.0
230
0.9999999999999996
 40
0.1056057297081
 41
0.0
 42
0.1243075335281983
  0
ELLIPSE
  5
AC5E
330
1F
100
AcDbEntity
  8
AM_0
100
AcDbEllipse
 10
-23.32549285888699
 20
6.711227416992121
 30
0.0
 11
5.0186428510307
 21
-0.4811395744729879
 31
0.0
210
0.0
220
0.0
230
1.0
 40
0.5801732110332
 41
4.864093000582465
 42
5.30498789279173
  0
ELLIPSE
  5
AC5F
330
1F
100
AcDbEntity
  8
AM_0
100
AcDbEllipse
 10
-29.30594348907497
 20
1.655548095703104
 30
0.0
 11
4.123467499450532
 21
-16.55633575566299
 31
0.0
210
0.0
220
0.0
230
0.9999999999999996
 40
0.0103689940583
 41
0.5947260290577469
 42
0.7074872201493763
  0
ELLIPSE
  5
AC60
330
1F
100
AcDbEntity
  8
AM_0
100
AcDbEllipse
 10
-1.189846038819286
 20
4.731239318848175
 30
0.0
 11
-0.0000095017190011
 21
-0.7999954223069997
 31
0.0
210
0.0
220
0.0
230
0.9999999999999996
 40
0.1056057297081
 41
6.14875583944408
 42
6.283185307179585
  0
ELLIPSE
  5
AC61
330
1F
100
AcDbEntity
  8
AM_0
100
AcDbEllipse
 10
-1.14014625549429
 20
4.731269836426158
 30
0.0
 11
-0.0349559301520001
 21
-0.8000259277540003
 31
0.0
210
0.0
220
0.0
230
0.9999999999999996
 40
0.0522904088526
 41
4.861847679831826
 42
6.173489981751642
  0
ELLIPSE
  5
AC62
330
1F
100
AcDbEntity
  8
AM_0
100
AcDbEllipse
 10
-9.729286193848274
 20
9.474578857422146
 30
0.0
 11
-1.316947914176997
 21
-0.7468414657170003
 31
0.0
210
0.0
220
0.0
230
1.0
 40
0.9871220449076
 41
1.005423360042142
 42
1.656641873226029
  0
ELLIPSE
  5
AC63
330
1F
100
AcDbEntity
  8
AM_0
100
AcDbEllipse
 10
-22.91183948516878
 20
8.193511962891117
 30
0.0
 11
0.2211799786752096
 21
-5.259613189264997
 31
0.0
210
0.0
220
0.0
230
0.9999999999999998
 40
0.9490338594616002
 41
0.7799306087776331
 42
1.370728691809992
  0
ELLIPSE
  5
AC64
330
1F
100
AcDbEntity
  8
AM_0
100
AcDbEllipse
 10
-27.31483554840119
 20
9.713943481445118
 30
0.0
 11
1.509128537995699
 21
-0.0222776887619927
 31
0.0
210
0.0
220
0.0
230
1.0
 40
0.8833873699170998
 41
3.352681974269796
 42
5.321716558242872
  0
ELLIPSE
  5
AC65
330
1F
100
AcDbEntity
  8
AM_0
100
AcDbEllipse
 10
-19.00661468505927
 20
9.499282836914128
 30
0.0
 11
1.509129014781
 21
-0.0222776957999967
 31
0.0
210
0.0
220
0.0
230
1.0
 40
0.883387090825
 41
4.128889474220439
 42
5.044543981617332
  0
ELLIPSE
  5
AC66
330
1F
100
AcDbEntity
  8
AM_0
100
AcDbEllipse
 10
-9.729286193848274
 20
9.474578857422146
 30
0.0
 11
-1.316947914176997
 21
-0.7468414657170003
 31
0.0
210
0.0
220
0.0
230
1.0
 40
0.9871220449076
 41
4.967756667582428
 42
7.288609437868741
  0
ELLIPSE
  5
AC67
330
1F
100
AcDbEntity
  8
AM_0
100
AcDbEllipse
 10
-9.666561126709277
 20
9.471847534180145
 30
0.0
 11
-1.316947914177998
 21
-0.746841465718002
 31
0.0
210
0.0
220
0.0
230
1.0
 40
0.9871220449076
 41
1.658201597187919
 42
1.811603260782178
  0
ELLIPSE
  5
AC68
330
1F
100
AcDbEntity
  8
AM_0
100
AcDbEllipse
 10
-10.80519104004028
 20
9.52155303955115
 30
0.0
 11
-0.2488823123339976
 21
-1.490394570465
 31
0.0
210
0.0
220
0.0
230
0.9999999999999998
 40
0.1238782159886
 41
3.979022622176904
 42
4.06362141828391
  0
ELLIPSE
  5
AC69
330
1F
100
AcDbEntity
  8
AM_0
100
AcDbEllipse
 10
-9.666561126709277
 20
9.471847534180145
 30
0.0
 11
-1.316947914177998
 21
-0.746841465718002
 31
0.0
210
0.0
220
0.0
230
1.0
 40
0.9871220449076
 41
4.826272250302706
 42
5.053409512759766
  0
ELLIPSE
  5
AC6A
330
1F
100
AcDbEntity
  8
AM_0
100
AcDbEllipse
 10
-20.50594329834026
 20
-3.683757781981883
 30
0.0
 11
-4.125436450147857
 21
-20.40303921091501
 31
0.0
210
0.0
220
0.0
230
0.9999999999999996
 40
0.005644232034
 41
2.311372582275858
 42
2.428427687210024
  0
ELLIPSE
  5
AC6B
330
1F
100
AcDbEntity
  8
AM_0
100
AcDbEllipse
 10
-27.31483554840119
 20
9.713943481445118
 30
0.0
 11
1.509128537995699
 21
-0.0222776887619927
 31
0.0
210
0.0
220
0.0
230
1.0
 40
0.8833873699170998
 41
2.349586847129937
 42
3.352681902998651
  0
ELLIPSE
  5
AC6C
330
1F
100
AcDbEntity
  8
AM_0
100
AcDbEllipse
 10
-28.39074039459259
 20
14.43817901611311
 30
0.0
 11
-0.2139699163406886
 21
-5.744667094845002
 31
0.0
210
0.0
220
0.0
230
0.9999999999999996
 40
0.0390203405516
 41
0.7740458301786785
 42
0.8601386600464
  0
ELLIPSE
  5
AC6D
330
1F
100
AcDbEntity
  8
AM_0
100
AcDbEllipse
 10
-27.25211048126249
 20
9.438522338867105
 30
0.0
 11
1.509128537995599
 21
-0.0222776887619998
 31
0.0
210
0.0
220
0.0
230
1.0
 40
0.8833873699170998
 41
2.241466525584829
 42
2.434548352209731
  0
ELLIPSE
  5
AC6E
330
1F
100
AcDbEntity
  8
AM_0
100
AcDbEllipse
 10
-22.96114444732699
 20
8.54843902587913
 30
0.0
 11
1.498538960898699
 21
-0.071693326006003
 31
0.0
210
0.0
220
0.0
230
1.0
 40
0.3479799498357
 41
5.411577381459713
 42
5.659957432445827
  0
ELLIPSE
  5
AC6F
330
1F
100
AcDbEntity
  8
AM_0
100
AcDbEllipse
 10
-22.96114444732699
 20
8.54843902587913
 30
0.0
 11
1.498538960898699
 21
-0.071693326006003
 31
0.0
210
0.0
220
0.0
230
1.0
 40
0.3479799498357
 41
3.958750326535353
 42
4.102891953329981
  0
LINE
  5
AD2E
330
1F
100
AcDbEntity
  8
AM_0
100
AcDbLine
 10
-1.421377182007276
 20
3.756355285645162
 30
0.0
 11
-2.249263763428269
 21
-1.227985382079849
 31
0.0
  0
LINE
  5
AD2F
330
1F
100
AcDbEntity
  8
AM_0
100
AcDbLine
 10
-1.336505889893282
 20
-1.444885253905832
 30
0.0
 11
-1.179761886597277
 21
3.93696975708017
 31
0.0
  0
LINE
  5
AD32
330
1F
100
AcDbEntity
  8
AM_0
100
AcDbLine
 10
-10.00437927246128
 20
13.69999694824215
 30
0.0
 11
-16.95808792114329
 21
13.69999694824213
 31
0.0
  0
LINE
  5
AD33
330
1F
100
AcDbEntity
  8
AM_0
100
AcDbLine
 10
-20.75424289703429
 20
4.027225494385121
 30
0.0
 11
-1.275272369385278
 21
4.041450500488172
 31
0.0
  0
LINE
  5
AD34
330
1F
100
AcDbEntity
  8
AM_0
100
AcDbLine
 10
-10.77528953552328
 20
10.54373550415115
 30
0.0
 11
-10.22606468200729
 21
13.58130645752014
 31
0.0
  0
LINE
  5
AD35
330
1F
100
AcDbEntity
  8
AM_0
100
AcDbLine
 10
-0.3658294677743055
 20
14.61141586303718
 30
0.0
 11
-0.2136230468752995
 21
14.57500457763717
 31
0.0
  0
LINE
  5
AD36
330
1F
100
AcDbEntity
  8
AM_0
100
AcDbLine
 10
-0.0814838409433158
 20
13.07038116455118
 30
0.0
 11
-0.000000000000298
 21
14.19662857055718
 31
0.0
  0
LINE
  5
AD37
330
1F
100
AcDbEntity
  8
AM_0
100
AcDbLine
 10
-6.974449157715278
 20
2.199947357178172
 30
0.0
 11
-1.421380996705266
 21
3.756355285645162
 31
0.0
  0
LINE
  5
AD38
330
1F
100
AcDbEntity
  8
AM_0
100
AcDbLine
 10
-4.03344345092829
 20
7.732742309570153
 30
0.0
 11
-7.051065444947285
 21
7.797924041748174
 31
0.0
  0
LINE
  5
AD39
330
1F
100
AcDbEntity
  8
AM_0
100
AcDbLine
 10
-1.18668556213429
 20
4.614917755127159
 30
0.0
 11
-1.062377929688284
 21
8.080142974854179
 31
0.0
  0
LINE
  5
AD3A
330
1F
100
AcDbEntity
  8
AM_0
100
AcDbLine
 10
-1.062377929688284
 20
8.080142974854179
 30
0.0
 11
-4.010782241822286
 21
8.141677856445154
 31
0.0
  0
LINE
  5
AD3B
330
1F
100
AcDbEntity
  8
AM_0
100
AcDbLine
 10
-1.094266891480291
 20
8.352500915528178
 30
0.0
 11
-1.117977142334287
 21
8.353012084961175
 31
0.0
  0
LINE
  5
AD3C
330
1F
100
AcDbEntity
  8
AM_0
100
AcDbLine
 10
-1.094268798829294
 20
8.352493286133162
 30
0.0
 11
-1.104007720948291
 21
8.081012725830172
 31
0.0
  0
LINE
  5
AD3D
330
1F
100
AcDbEntity
  8
AM_0
100
AcDbLine
 10
-1.097007751465288
 20
8.364658355713171
 30
0.0
 11
-1.094268798829294
 21
8.352497100830172
 31
0.0
  0
ARC
  5
AD3E
330
1F
100
AcDbEntity
  8
AM_0
100
AcDbCircle
 10
-5.1833820343023
 20
11.51870727539115
 30
0.0
 40
1.399902462959299
100
AcDbArc
 50
87.49995701399958
 51
88.60980811261411
  0
LINE
  5
AD3F
330
1F
100
AcDbEntity
  8
AM_0
100
AcDbLine
 10
-4.010778427124281
 20
8.141677856445154
 30
0.0
 11
-4.033439636231294
 21
7.732742309570153
 31
0.0
  0
LINE
  5
AD40
330
1F
100
AcDbEntity
  8
AM_0
100
AcDbLine
 10
-3.938287734986293
 20
8.315235137940161
 30
0.0
 11
-3.94797515869229
 21
8.140377044678173
 31
0.0
  0
LINE
  5
AD41
330
1F
100
AcDbEntity
  8
AM_0
100
AcDbLine
 10
-1.27527427673428
 20
4.041442871094168
 30
0.0
 11
-1.421379089356278
 21
3.756340026856157
 31
0.0
  0
LINE
  5
AD42
330
1F
100
AcDbEntity
  8
AM_0
100
AcDbLine
 10
-1.202135086060281
 20
3.939739227295156
 30
0.0
 11
-1.27526664733928
 21
4.041450500488172
 31
0.0
  0
ARC
  5
AD43
330
1F
100
AcDbEntity
  8
AM_0
100
AcDbCircle
 10
-9.44972991943427
 20
9.462371826172148
 30
0.0
 40
1.497098803520199
100
AcDbArc
 50
139.8184342449232
 51
206.9825308349917
  0
ARC
  5
AD44
330
1F
100
AcDbEntity
  8
AM_0
100
AcDbCircle
 10
-9.44972991943427
 20
9.462371826172148
 30
0.0
 40
1.497566461563098
100
AcDbArc
 50
221.0551811008684
 51
261.3334281836478
  0
LINE
  5
AD45
330
1F
100
AcDbEntity
  8
AM_0
100
AcDbLine
 10
-10.42569160461528
 20
8.444343566895144
 30
0.0
 11
-10.57789802551329
 21
8.480754852295163
 31
0.0
  0
LINE
  5
AD46
330
1F
100
AcDbEntity
  8
AM_0
100
AcDbLine
 10
-7.028526306153286
 20
8.204658508301164
 30
0.0
 11
-8.881950378418284
 21
8.243339538574153
 31
0.0
  0
LINE
  5
AD47
330
1F
100
AcDbEntity
  8
AM_0
100
AcDbLine
 10
-7.051067352295294
 20
7.797931671143159
 30
0.0
 11
-7.028526306153286
 21
8.20467376709017
 31
0.0
  0
LINE
  5
AD48
330
1F
100
AcDbEntity
  8
AM_0
100
AcDbLine
 10
-7.051067352295294
 20
7.797939300537166
 30
0.0
 11
-6.888841629029289
 21
8.154224395752153
 31
0.0
  0
LINE
  5
AD49
330
1F
100
AcDbEntity
  8
AM_0
100
AcDbLine
 10
-6.972089767457278
 20
8.08846282959017
 30
0.0
 11
-6.957357406617295
 21
8.354259490967166
 31
0.0
  0
LINE
  5
AD4A
330
1F
100
AcDbEntity
  8
AM_0
100
AcDbLine
 10
-6.888839721680287
 20
8.154216766358162
 30
0.0
 11
-6.883190155030295
 21
8.353263854981152
 31
0.0
  0
LINE
  5
AD4B
330
1F
100
AcDbEntity
  8
AM_0
100
AcDbLine
 10
-7.028524398804282
 20
8.204666137695156
 30
0.0
 11
-6.972091674805287
 21
8.08846282959017
 31
0.0
  0
LINE
  5
AD4C
330
1F
100
AcDbEntity
  8
AM_0
100
AcDbLine
 10
-10.67328643798927
 20
9.983776092529167
 30
0.0
 11
-10.78320503234927
 21
8.858760833740163
 31
0.0
  0
LINE
  5
AD4D
330
1F
100
AcDbEntity
  8
AM_0
100
AcDbLine
 10
-17.02056789398229
 20
13.54352951049813
 30
0.0
 11
-17.57254600524927
 21
10.05727767944413
 31
0.0
  0
LINE
  5
AD4E
330
1F
100
AcDbEntity
  8
AM_0
100
AcDbLine
 10
-28.36084270477318
 20
10.6785011291511
 30
0.0
 11
-27.81119418144259
 21
13.3749427795411
 31
0.0
  0
LINE
  5
AD4F
330
1F
100
AcDbEntity
  8
AM_0
100
AcDbLine
 10
-17.15221881866529
 20
12.75777816772512
 30
0.0
 11
-17.01704406738329
 21
13.61149215698313
 31
0.0
  0
LINE
  5
AD50
330
1F
100
AcDbEntity
  8
AM_0
100
AcDbLine
 10
-27.80540227890039
 20
13.17563629150411
 30
0.0
 11
-28.38732814788848
 21
10.32082748413111
 31
0.0
  0
LINE
  5
AD51
330
1F
100
AcDbEntity
  8
AM_0
100
AcDbLine
 10
-17.9513816833503
 20
14.78110504150415
 30
0.0
 11
-17.79917430877728
 21
14.75102615356514
 31
0.0
  0
LINE
  5
AD52
330
1F
100
AcDbEntity
  8
AM_0
100
AcDbLine
 10
-17.66703033447328
 20
13.26203155517612
 30
0.0
 11
-17.5855493545543
 21
14.38344955444413
 31
0.0
  0
LINE
  5
AD53
330
1F
100
AcDbEntity
  8
AM_0
100
AcDbLine
 10
-21.61899089813259
 20
8.090354919434133
 30
0.0
 11
-24.63661527633699
 21
8.187759399414121
 31
0.0
  0
LINE
  5
AD54
330
1F
100
AcDbEntity
  8
AM_0
100
AcDbLine
 10
-18.56675338745228
 20
8.505306243897136
 30
0.0
 11
-18.40090751648027
 21
8.839355468750127
 31
0.0
  0
LINE
  5
AD55
330
1F
100
AcDbEntity
  8
AM_0
100
AcDbLine
 10
-17.57254600524927
 20
10.05728149414114
 30
0.0
 11
-17.97591686248829
 21
7.353839874268144
 31
0.0
  0
LINE
  5
AD56
330
1F
100
AcDbEntity
  8
AM_0
100
AcDbLine
 10
-17.57254695892427
 20
10.05727005004914
 30
0.0
 11
-17.15222549438528
 21
12.75777435302813
 31
0.0
  0
LINE
  5
AD57
330
1F
100
AcDbEntity
  8
AM_0
100
AcDbLine
 10
-17.63155746460028
 20
10.09524154663113
 30
0.0
 11
-17.59247779846227
 21
9.923637390137134
 31
0.0
  0
LINE
  5
AD58
330
1F
100
AcDbEntity
  8
AM_0
100
AcDbLine
 10
-22.06925582885768
 20
8.104877471924124
 30
0.0
 11
-22.01213645935089
 21
8.104072570801132
 31
0.0
  0
LINE
  5
AD59
330
1F
100
AcDbEntity
  8
AM_0
100
AcDbLine
 10
-21.59633064270048
 20
8.45375061035213
 30
0.0
 11
-21.6189937591556
 21
8.090354919434133
 31
0.0
  0
LINE
  5
AD5A
330
1F
100
AcDbEntity
  8
AM_0
100
AcDbLine
 10
-19.85390758514428
 20
8.398639678955127
 30
0.0
 11
-21.59633064270048
 21
8.453754425049126
 31
0.0
  0
LINE
  5
AD5B
330
1F
100
AcDbEntity
  8
AM_0
100
AcDbLine
 10
-24.6140799522403
 20
8.549213409424114
 30
0.0
 11
-26.46750307083159
 21
8.607837677002118
 31
0.0
  0
LINE
  5
AD5C
330
1F
100
AcDbEntity
  8
AM_0
100
AcDbLine
 10
-24.63661432266268
 20
8.187767028809121
 30
0.0
 11
-24.61407709121729
 21
8.549217224121122
 31
0.0
  0
LINE
  5
AD5D
330
1F
100
AcDbEntity
  8
AM_0
100
AcDbLine
 10
-24.61407756805448
 20
8.549205780029126
 30
0.0
 11
-24.55948495864898
 21
8.185264587403111
 31
0.0
  0
LINE
  5
AD5E
330
1F
100
AcDbEntity
  8
AM_0
100
AcDbLine
 10
-24.55687952041659
 20
8.185184478760108
 30
0.0
 11
-24.53600168228179
 21
8.520000457764128
 31
0.0
  0
LINE
  5
AD5F
330
1F
100
AcDbEntity
  8
AM_0
100
AcDbLine
 10
-24.46045541763338
 20
8.379383087158119
 30
0.0
 11
-24.5359940528873
 21
8.520000457764128
 31
0.0
  0
LINE
  5
AD60
330
1F
100
AcDbEntity
  8
AM_0
100
AcDbLine
 10
-24.46602153778109
 20
8.18224716186512
 30
0.0
 11
-24.46045970916779
 21
8.379386901856124
 31
0.0
  0
LINE
  5
AD61
330
1F
100
AcDbEntity
  8
AM_0
100
AcDbLine
 10
-24.5360002517703
 20
8.520000457764128
 30
0.0
 11
-24.61005449295069
 21
8.522388458252125
 31
0.0
  0
LINE
  5
AD62
330
1F
100
AcDbEntity
  8
AM_0
100
AcDbLine
 10
-28.01123785972627
 20
8.722675323487111
 30
0.0
 11
-28.16344547271758
 21
8.752754211426108
 31
0.0
  0
LINE
  5
AD63
330
1F
100
AcDbEntity
  8
AM_0
100
AcDbLine
 10
-28.25883722305329
 20
10.08036041259811
 30
0.0
 11
-28.36875391006497
 21
9.083797454834115
 31
0.0
  0
LINE
  5
AD64
330
1F
100
AcDbEntity
  8
AM_0
100
AcDbLine
 10
-28.18592214584377
 20
8.762683868408119
 30
0.0
 11
-28.16344785690338
 21
8.752746582031107
 31
0.0
  0
LINE
  5
AD65
330
1F
100
AcDbEntity
  8
AM_0
100
AcDbLine
 10
-28.16379427909878
 20
8.752025604248103
 30
0.0
 11
-27.3978352546695
 21
8.38293075561511
 31
0.0
  0
LINE
  5
AD66
330
1F
100
AcDbEntity
  8
AM_0
100
AcDbLine
 10
-17.31421279907324
 20
-13.27133560180587
 30
0.0
 11
-9.824596405030252
 21
-13.11962890624986
 31
0.0
  0
LINE
  5
AD67
330
1F
100
AcDbEntity
  8
AM_0
100
AcDbLine
 10
-17.32166957855323
 20
-13.51931381225586
 30
0.0
 11
-9.828975677491248
 21
-13.36754226684585
 31
0.0
  0
LINE
  5
AD68
330
1F
100
AcDbEntity
  8
AM_0
100
AcDbLine
 10
-1.190879821778275
 20
-1.451248168944838
 30
0.0
 11
-1.190879821778254
 21
-10.25064086913983
 31
0.0
  0
LINE
  5
AD69
330
1F
100
AcDbEntity
  8
AM_0
100
AcDbLine
 10
-12.10006141662624
 20
-10.77572250366185
 30
0.0
 11
-12.15859413147025
 21
-9.487102508544865
 31
0.0
  0
CIRCLE
  5
AD6A
330
1F
100
AcDbEntity
  8
AM_0
100
AcDbCircle
 10
-3.566619873047252
 20
-4.918121337889834
 30
0.0
 40
1.25
  0
LINE
  5
AD6B
330
1F
100
AcDbEntity
  8
AM_0
100
AcDbLine
 10
-0.8324871063242456
 20
-8.52331542968684
 30
0.0
 11
-0.8324871063242612
 21
-1.000274658202833
 31
0.0
  0
LINE
  5
AD6C
330
1F
100
AcDbEntity
  8
AM_0
100
AcDbLine
 10
-1.040878295899256
 20
-8.520202636718829
 30
0.0
 11
-1.040878295899271
 21
-1.000274658202834
 31
0.0
  0
LINE
  5
AD6D
330
1F
100
AcDbEntity
  8
AM_0
100
AcDbLine
 10
-1.716400146485256
 20
-3.418121337889841
 30
0.0
 11
-1.716400146485258
 21
-6.418121337889843
 31
0.0
  0
LINE
  5
AD6E
330
1F
100
AcDbEntity
  8
AM_0
100
AcDbLine
 10
-2.209522247315249
 20
-3.418121337889843
 30
0.0
 11
-3.566619873047258
 21
-3.418121337889833
 31
0.0
  0
ARC
  5
AD6F
330
1F
100
AcDbEntity
  8
AM_0
100
AcDbCircle
 10
-1.247259140015269
 20
-0.9871063232418412
 30
0.0
 40
0.2027758210897
100
AcDbArc
 50
30.62978707866929
 51
63.24628995055558
  0
ARC
  5
AD70
330
1F
100
AcDbEntity
  8
AM_0
100
AcDbCircle
 10
-1.26130676269626
 20
-1.014968872069838
 30
0.0
 40
0.233978509903
100
AcDbArc
 50
63.24626262979676
 51
76.11063023338427
  0
ARC
  5
AD71
330
1F
100
AcDbEntity
  8
AM_0
100
AcDbCircle
 10
-1.269489288331266
 20
-1.000274658202835
 30
0.0
 40
0.2286110073328
100
AcDbArc
 50
0.0000086514214328
 51
30.62992368245346
  0
ARC
  5
AD72
330
1F
100
AcDbEntity
  8
AM_0
100
AcDbCircle
 10
-1.253997802735266
 20
-0.9854125976558327
 30
0.0
 40
0.2035309821367
100
AcDbArc
 50
76.11068487489676
 51
89.9999974955209
  0
LINE
  5
AD73
330
1F
100
AcDbEntity
  8
AM_0
100
AcDbLine
 10
-0.8320522308352696
 20
-0.9555206298828341
 30
0.0
 11
-0.8324871063242612
 21
-1.000270843505823
 31
0.0
  0
LINE
  5
AD74
330
1F
100
AcDbEntity
  8
AM_0
100
AcDbLine
 10
-1.218103408814269
 20
-0.5593910217278282
 30
0.0
 11
-1.253997802735267
 21
-0.5597953796378424
 31
0.0
  0
LINE
  5
AD75
330
1F
100
AcDbEntity
  8
AM_0
100
AcDbLine
 10
-1.253997802735267
 20
-0.5597991943358327
 30
0.0
 11
-1.310728073121265
 21
-0.5597991943358329
 31
0.0
  0
LINE
  5
AD76
330
1F
100
AcDbEntity
  8
AM_0
100
AcDbLine
 10
-1.287181854248274
 20
0.2507553100591677
 30
0.0
 11
-0.5839824676522636
 21
0.2797317504881759
 31
0.0
  0
LINE
  5
AD77
330
1F
100
AcDbEntity
  8
AM_0
100
AcDbLine
 10
-1.048883438111272
 20
-0.5936126708978346
 30
0.0
 11
-1.155975341797268
 21
-0.806045532225832
 31
0.0
  0
LINE
  5
AD78
330
1F
100
AcDbEntity
  8
AM_0
100
AcDbLine
 10
-0.8732929229742692
 20
-0.7656860351558313
 30
0.0
 11
-1.072772979737262
 21
-0.8838005065918336
 31
0.0
  0
LINE
  5
AD79
330
1F
100
AcDbEntity
  8
AM_0
100
AcDbLine
 10
-1.149702072144262
 20
-0.5636444091798381
 30
0.0
 11
-1.205139160157269
 21
-0.7878341674798382
 31
0.0
  0
LINE
  5
AD7A
330
1F
100
AcDbEntity
  8
AM_0
100
AcDbLine
 10
-0.8324871063242612
 20
-1.000274658202833
 30
0.0
 11
-1.040878295899271
 21
-1.000274658202834
 31
0.0
  0
LINE
  5
AD7B
330
1F
100
AcDbEntity
  8
AM_0
100
AcDbLine
 10
-1.253997802735267
 20
-0.5597991943358327
 30
0.0
 11
-1.253997802735266
 21
-0.7818908691398383
 31
0.0
  0
LINE
  5
AD7C
330
1F
100
AcDbEntity
  8
AM_0
100
AcDbLine
 10
-1.317197799683266
 20
-0.7818908691398386
 30
0.0
 11
-1.253997802735266
 21
-0.7818908691398383
 31
0.0
  0
LINE
  5
AD7D
330
1F
100
AcDbEntity
  8
AM_0
100
AcDbLine
 10
-2.209522247315249
 20
-3.418121337889843
 30
0.0
 11
-1.716400146485256
 21
-3.418121337889841
 31
0.0
  0
LINE
  5
AD7E
330
1F
100
AcDbEntity
  8
AM_0
100
AcDbLine
 10
-1.190879821778275
 20
-1.451240539550831
 30
0.0
 11
-1.336507797242284
 21
-1.444885253905832
 31
0.0
  0
LINE
  5
AD7F
330
1F
100
AcDbEntity
  8
AM_0
100
AcDbLine
 10
-3.566619873047261
 20
-6.418121337889834
 30
0.0
 11
-2.087272644043255
 21
-6.418121337889844
 31
0.0
  0
LINE
  5
AD80
330
1F
100
AcDbEntity
  8
AM_0
100
AcDbLine
 10
-0.8324604034432583
 20
-8.523307800292835
 30
0.0
 11
-0.832365036011248
 21
-8.548942565917835
 31
0.0
  0
LINE
  5
AD81
330
1F
100
AcDbEntity
  8
AM_0
100
AcDbLine
 10
-1.078075408936261
 20
-9.732746124266835
 30
0.0
 11
-1.190872192383256
 21
-9.63604354858384
 31
0.0
  0
LINE
  5
AD82
330
1F
100
AcDbEntity
  8
AM_0
100
AcDbLine
 10
-1.078084945679254
 20
-9.732734680175834
 30
0.0
 11
-1.190876007081261
 21
-9.746608734130829
 31
0.0
  0
LINE
  5
AD83
330
1F
100
AcDbEntity
  8
AM_0
100
AcDbLine
 10
-1.038913726807246
 20
-8.520202636718829
 30
0.0
 11
-0.8658790588382546
 21
-8.520202636718829
 31
0.0
  0
LINE
  5
AD84
330
1F
100
AcDbEntity
  8
AM_0
100
AcDbLine
 10
-1.129995346070265
 20
-9.169281005858833
 30
0.0
 11
-1.190879821778259
 21
-9.07662200927683
 31
0.0
  0
LINE
  5
AD85
330
1F
100
AcDbEntity
  8
AM_0
100
AcDbLine
 10
-0.902694702149269
 20
-8.881370544432837
 30
0.0
 11
-1.092212677002259
 21
-8.770092010497844
 31
0.0
  0
LINE
  5
AD86
330
1F
100
AcDbEntity
  8
AM_0
100
AcDbLine
 10
-0.8658790588382546
 20
-8.520214080809831
 30
0.0
 11
-0.8324871063242456
 21
-8.523307800292835
 31
0.0
  0
LINE
  5
AD87
330
1F
100
AcDbEntity
  8
AM_0
100
AcDbLine
 10
-1.716400146485258
 20
-6.418121337889843
 30
0.0
 11
-2.087272644043255
 21
-6.418121337889844
 31
0.0
  0
LINE
  5
AD88
330
1F
100
AcDbEntity
  8
AM_0
100
AcDbLine
 10
-8.144439697266237
 20
-13.70001220703084
 30
0.0
 11
-2.698400497437251
 21
-13.70001220703084
 31
0.0
  0
LINE
  5
AD89
330
1F
100
AcDbEntity
  8
AM_0
100
AcDbLine
 10
-1.381650924683249
 20
-12.59511947631784
 30
0.0
 11
-2.698394775391237
 21
-13.69999694824184
 31
0.0
  0
LINE
  5
AD8A
330
1F
100
AcDbEntity
  8
AM_0
100
AcDbLine
 10
-0.9334449768072538
 20
-10.21901321411083
 30
0.0
 11
-1.190879821778254
 21
-10.25062179565384
 31
0.0
  0
LINE
  5
AD8B
330
1F
100
AcDbEntity
  8
AM_0
100
AcDbLine
 10
-0.9334430694582657
 20
-10.21902465820283
 30
0.0
 11
-0.9334430694582577
 21
-12.21902465820283
 31
0.0
  0
LINE
  5
AD8C
330
1F
100
AcDbEntity
  8
AM_0
100
AcDbLine
 10
-1.381658554078249
 20
-12.59511947631784
 30
0.0
 11
-0.9334468841562481
 21
-12.21902465820283
 31
0.0
  0
LINE
  5
AD8D
330
1F
100
AcDbEntity
  8
AM_0
100
AcDbLine
 10
-9.784545898438242
 20
-13.36767196655285
 30
0.0
 11
-9.828975677491248
 21
-13.36753463745086
 31
0.0
  0
LINE
  5
AD8E
330
1F
100
AcDbEntity
  8
AM_0
100
AcDbLine
 10
-9.409399032593231
 20
-13.05926513671886
 30
0.0
 11
-9.407789230347225
 21
-13.04117965698185
 31
0.0
  0
LINE
  5
AD8F
330
1F
100
AcDbEntity
  8
AM_0
100
AcDbLine
 10
-8.881484985352246
 20
-13.35762786865186
 30
0.0
 11
-8.889194488526246
 21
-13.32036209106386
 31
0.0
  0
LINE
  5
AD90
330
1F
100
AcDbEntity
  8
AM_0
100
AcDbLine
 10
-8.889192581177242
 20
-13.32037353515585
 30
0.0
 11
-8.944654464722225
 21
-13.05224609374986
 31
0.0
  0
LINE
  5
AD91
330
1F
100
AcDbEntity
  8
AM_0
100
AcDbLine
 10
-8.88148117065525
 20
-13.35765838622986
 30
0.0
 11
-8.799999237061243
 21
-14.49111175537085
 31
0.0
  0
LINE
  5
AD92
330
1F
100
AcDbEntity
  8
AM_0
100
AcDbLine
 10
-8.928022384644227
 20
-13.05265426635685
 30
0.0
 11
-8.887229919434235
 21
-13.31996917724585
 31
0.0
  0
LINE
  5
AD93
330
1F
100
AcDbEntity
  8
AM_0
100
AcDbLine
 10
-8.887229919434235
 20
-13.31996154785085
 30
0.0
 11
-8.88148117065525
 21
-13.35764312744085
 31
0.0
  0
LINE
  5
AD94
330
1F
100
AcDbEntity
  8
AM_0
100
AcDbLine
 10
-8.118648529053249
 20
-13.60484313964784
 30
0.0
 11
-8.118774414063242
 21
-13.60218811035084
 31
0.0
  0
LINE
  5
AD95
330
1F
100
AcDbEntity
  8
AM_0
100
AcDbLine
 10
-8.11951637268125
 20
-13.59931945800785
 30
0.0
 11
-8.118646621705241
 21
-13.60486602783185
 31
0.0
  0
LINE
  5
AD96
330
1F
100
AcDbEntity
  8
AM_0
100
AcDbLine
 10
-8.162975311280249
 20
-13.68413925170886
 30
0.0
 11
-8.180265426636241
 21
-13.56317901611285
 31
0.0
  0
LINE
  5
AD97
330
1F
100
AcDbEntity
  8
AM_0
100
AcDbLine
 10
-9.828975677491248
 20
-13.36753845214785
 30
0.0
 11
-9.824598312378249
 21
-13.11965179443286
 31
0.0
  0
LINE
  5
AD98
330
1F
100
AcDbEntity
  8
AM_0
100
AcDbLine
 10
-9.598615646363247
 20
-13.32899475097585
 30
0.0
 11
-9.709981918335236
 21
-13.08665084838785
 31
0.0
  0
LINE
  5
AD99
330
1F
100
AcDbEntity
  8
AM_0
100
AcDbLine
 10
-9.435291290284245
 20
-13.15829086303685
 30
0.0
 11
-9.594854354859227
 21
-13.03667831420886
 31
0.0
  0
LINE
  5
AD9A
330
1F
100
AcDbEntity
  8
AM_0
100
AcDbLine
 10
-9.409402847290229
 20
-13.05925369262685
 30
0.0
 11
-9.448923110962232
 21
-13.04019546508786
 31
0.0
  0
LINE
  5
AD9B
330
1F
100
AcDbEntity
  8
AM_0
100
AcDbLine
 10
-29.68580698967005
 20
-7.220996856688896
 30
0.0
 11
-29.74414610862755
 21
-6.140018463134904
 31
0.0
  0
LINE
  5
AD9C
330
1F
100
AcDbEntity
  8
AM_0
100
AcDbLine
 10
-18.72593212127723
 20
-13.97828292846687
 30
0.0
 11
-18.83809757232725
 21
-13.40663146972587
 31
0.0
  0
LINE
  5
AD9D
330
1F
100
AcDbEntity
  8
AM_0
100
AcDbLine
 10
-17.32168197631924
 20
-13.51937484741187
 30
0.0
 11
-17.34724807739324
 21
-13.52011871337888
 31
0.0
  0
LINE
  5
AD9E
330
1F
100
AcDbEntity
  8
AM_0
100
AcDbLine
 10
-18.16134071350124
 20
-12.81721496581987
 30
0.0
 11
-18.15697288513224
 21
-12.84917449951186
 31
0.0
  0
LINE
  5
AD9F
330
1F
100
AcDbEntity
  8
AM_0
100
AcDbLine
 10
-18.16185760498122
 20
-12.81355285644487
 30
0.0
 11
-18.16134071350124
 21
-12.81721115112286
 31
0.0
  0
LINE
  5
ADA0
330
1F
100
AcDbEntity
  8
AM_0
100
AcDbLine
 10
-17.68207740783723
 20
-13.46170806884686
 30
0.0
 11
-17.56531810760523
 21
-13.22708511352488
 31
0.0
  0
LINE
  5
ADA1
330
1F
100
AcDbEntity
  8
AM_0
100
AcDbLine
 10
-17.32168102264423
 20
-13.51937866210887
 30
0.0
 11
-17.31788444519123
 21
-13.47951889038086
 31
0.0
  0
LINE
  5
ADA2
330
1F
100
AcDbEntity
  8
AM_0
100
AcDbLine
 10
-17.97885704040623
 20
-13.24962997436485
 30
0.0
 11
-17.78545188903922
 21
-13.07828140258786
 31
0.0
  0
LINE
  5
ADA3
330
1F
100
AcDbEntity
  8
AM_0
100
AcDbLine
 10
-17.31788539886524
 20
-13.47951889038086
 30
0.0
 11
-17.32167148590123
 21
-13.51931762695287
 31
0.0
  0
LINE
  5
ADA4
330
1F
100
AcDbEntity
  8
AM_0
100
AcDbLine
 10
-18.10453128814723
 20
-13.04565048217786
 30
0.0
 11
-17.88763427734424
 21
-12.93195724487286
 31
0.0
  0
LINE
  5
ADA5
330
1F
100
AcDbEntity
  8
AM_0
100
AcDbLine
 10
-18.16134166717623
 20
-12.81721496581987
 30
0.0
 11
-18.14749717712423
 21
-12.81396102905286
 31
0.0
  0
LINE
  5
ADA6
330
1F
100
AcDbEntity
  8
AM_0
100
AcDbLine
 10
-26.46703577041653
 20
-12.25867843627889
 30
0.0
 11
-26.55440473556544
 21
-11.75400543212888
 31
0.0
  0
LINE
  5
ADA7
330
1F
100
AcDbEntity
  8
AM_0
100
AcDbLine
 10
-26.46703386306783
 20
-12.25867843627889
 30
0.0
 11
-26.38554859161404
 21
-13.27825546264589
 31
0.0
  0
LINE
  5
ADA8
330
1F
100
AcDbEntity
  8
AM_0
100
AcDbLine
 10
-26.70941638946554
 20
-10.82534408569289
 30
0.0
 11
-26.55240917205835
 21
-11.75379943847588
 31
0.0
  0
LINE
  5
ADA9
330
1F
100
AcDbEntity
  8
AM_0
100
AcDbLine
 10
-26.55241346359274
 20
-11.75378799438488
 30
0.0
 11
-26.46703767776513
 21
-12.25867462158189
 31
0.0
  0
LINE
  5
ADAA
330
1F
100
AcDbEntity
  8
AM_0
100
AcDbLine
 10
-25.71850490570093
 20
-12.15415573120088
 30
0.0
 11
-25.70380735397363
 21
-12.22727584838788
 31
0.0
  0
LINE
  5
ADAB
330
1F
100
AcDbEntity
  8
AM_0
100
AcDbLine
 10
-25.85240364074734
 20
-13.58811950683587
 30
0.0
 11
-26.29768657684353
 21
-10.84506607055588
 31
0.0
  0
LINE
  5
ADAC
330
1F
100
AcDbEntity
  8
AM_0
100
AcDbLine
 10
-27.37009954452534
 20
-11.13736343383789
 30
0.0
 11
-27.41452646255515
 21
-11.13520050048788
 31
0.0
  0
LINE
  5
ADAD
330
1F
100
AcDbEntity
  8
AM_0
100
AcDbLine
 10
-26.99324226379415
 20
-10.83591079711888
 30
0.0
 11
-26.99478912353544
 21
-10.81133270263689
 31
0.0
  0
LINE
  5
ADAE
330
1F
100
AcDbEntity
  8
AM_0
100
AcDbLine
 10
-27.41452264785793
 20
-11.13518142700189
 30
0.0
 11
-27.41014766693143
 21
-10.86562728881789
 31
0.0
  0
LINE
  5
ADAF
330
1F
100
AcDbEntity
  8
AM_0
100
AcDbLine
 10
-27.18417501449603
 20
-11.1161651611329
 30
0.0
 11
-27.29553127288844
 21
-10.84112930297789
 31
0.0
  0
LINE
  5
ADB0
330
1F
100
AcDbEntity
  8
AM_0
100
AcDbLine
 10
-27.02083778381374
 20
-10.97906494140588
 30
0.0
 11
-27.19509315490744
 21
-10.80181121826189
 31
0.0
  0
LINE
  5
ADB1
330
1F
100
AcDbEntity
  8
AM_0
100
AcDbLine
 10
-26.99495697021504
 20
-10.89453887939389
 30
0.0
 11
-27.11230897903464
 21
-10.80582809448188
 31
0.0
  0
SPLINE
  5
ADB2
330
1F
100
AcDbEntity
  8
AM_0
100
AcDbSpline
210
0.0
220
0.0
230
1.0
 70
     8
 71
     3
 72
    11
 73
     7
 74
     5
 42
0.0000000001
 43
0.0000000001
 44
0.0000000001
 40
0.0
 40
0.0
 40
0.0
 40
0.0
 40
0.0661061902236058
 40
0.1312701062879497
 40
0.1952541171118282
 40
0.2578924778227357
 40
0.2578924778227357
 40
0.2578924778227357
 40
0.2578924778227357
 10
-35.15087223053003
 20
-10.73916625976492
 30
0.0
 10
-35.17143040154401
 20
-10.73118011319905
 30
0.0
 10
-35.2122537084834
 20
-10.71532165418052
 30
0.0
 10
-35.26967274781608
 20
-10.68440733914231
 30
0.0
 10
-35.32329503180691
 20
-10.64931805451287
 30
0.0
 10
-35.35521351333467
 20
-10.6216350692044
 30
0.0
 10
-35.37100315094014
 20
-10.6079406738279
 30
0.0
 11
-35.15087223053003
 21
-10.73916625976492
 31
0.0
 11
-35.21198368072534
 21
-10.71395874023391
 31
0.0
 11
-35.26954364776634
 21
-10.68341064453091
 31
0.0
 11
-35.32278156280545
 21
-10.6479187011719
 31
0.0
 11
-35.37100315094014
 21
-10.6079406738279
 31
0.0
  0
SPLINE
  5
ADB3
330
1F
100
AcDbEntity
  8
AM_0
100
AcDbSpline
210
0.0
220
0.0
230
1.0
 70
     8
 71
     3
 72
    11
 73
     7
 74
     5
 42
0.0000000001
 43
0.0000000001
 44
0.0000000001
 40
0.0
 40
0.0
 40
0.0
 40
0.0
 40
0.0416102848232238
 40
0.0825770021950135
 40
0.1228885312278637
 40
0.1626250078717317
 40
0.1626250078717317
 40
0.1626250078717317
 40
0.1626250078717317
 10
-35.37100315094014
 20
-10.6079406738279
 30
0.0
 10
-35.38099463711275
 20
-10.59831085703049
 30
0.0
 10
-35.40082307566134
 20
-10.57920016345567
 30
0.0
 10
-35.42765660214726
 20
-10.54819345893837
 30
0.0
 10
-35.45216128122034
 20
-10.51608808497488
 30
0.0
 10
-35.46620982251486
 20
-10.4933861320411
 30
0.0
 10
-35.47318363189724
 20
-10.48211669921891
 30
0.0
 11
-35.37100315094014
 21
-10.6079406738279
 31
0.0
 11
-35.40052127838154
 21
-10.57861328124991
 31
0.0
 11
-35.42747211456324
 21
-10.54776000976491
 31
0.0
 11
-35.45172977447534
 21
-10.51556396484391
 31
0.0
 11
-35.47318363189724
 21
-10.48211669921891
 31
0.0
  0
SPLINE
  5
ADB4
330
1F
100
AcDbEntity
  8
AM_0
100
AcDbSpline
210
0.0
220
0.0
230
1.0
 70
     8
 71
     3
 72
    11
 73
     7
 74
     5
 42
0.0000000001
 43
0.0000000001
 44
0.0000000001
 40
0.0
 40
0.0
 40
0.0
 40
0.0
 40
0.0266579080343528
 40
0.0530005181357387
 40
0.0791388416152012
 40
0.1050063375267633
 40
0.1050063375267633
 40
0.1050063375267633
 40
0.1050063375267633
 10
-35.47318363189724
 20
-10.48211669921891
 30
0.0
 10
-35.47758472390464
 20
-10.47439428680467
 30
0.0
 10
-35.48633485375182
 20
-10.45904079925099
 30
0.0
 10
-35.49775308454429
 20
-10.43524074644636
 30
0.0
 10
-35.50787147080683
 20
-10.41114394331144
 30
0.0
 10
-35.51340422552956
 20
-10.39470988323672
 30
0.0
 10
-35.51615619659445
 20
-10.38653564453091
 30
0.0
 11
-35.47318363189724
 21
-10.48211669921891
 31
0.0
 11
-35.48610782623314
 21
-10.45880126953091
 31
0.0
 11
-35.49758243560815
 21
-10.4350891113279
 31
0.0
 11
-35.50760746002226
 21
-10.41094970703091
 31
0.0
 11
-35.51615619659445
 21
-10.38653564453091
 31
0.0
  0
SPLINE
  5
ADB5
330
1F
100
AcDbEntity
  8
AM_0
100
AcDbSpline
210
0.0
220
0.0
230
1.0
 70
     8
 71
     3
 72
    11
 73
     7
 74
     5
 42
0.0000000001
 43
0.0000000001
 44
0.0000000001
 40
0.0
 40
0.0
 40
0.0
 40
0.0
 40
0.0637439086286268
 40
0.127870410654499
 40
0.1921173567257716
 40
0.256255640076405
 40
0.256255640076405
 40
0.256255640076405
 40
0.256255640076405
 10
-35.15087223053003
 20
-10.73916625976492
 30
0.0
 10
-35.13069039526874
 20
-10.74585547125705
 30
0.0
 10
-35.09020559259279
 20
-10.75927404314659
 30
0.0
 10
-35.02752635570244
 20
-10.77287060106939
 30
0.0
 10
-34.96389496950256
 20
-10.78188347598217
 30
0.0
 10
-34.92109971078438
 20
-10.78339436487082
 30
0.0
 10
-34.89972019195584
 20
-10.7841491699219
 30
0.0
 11
-35.15087223053003
 21
-10.73916625976492
 31
0.0
 11
-35.09002017974875
 21
-10.75814819335891
 31
0.0
 11
-35.02742862701444
 21
-10.7720947265619
 31
0.0
 11
-34.96376895904564
 21
-10.78076171874992
 31
0.0
 11
-34.89972019195584
 21
-10.7841491699219
 31
0.0
  0
SPLINE
  5
ADB6
330
1F
100
AcDbEntity
  8
AM_0
100
AcDbSpline
210
0.0
220
0.0
230
1.0
 70
     8
 71
     3
 72
    11
 73
     7
 74
     5
 42
0.0000000001
 43
0.0000000001
 44
0.0000000001
 40
0.0
 40
0.0
 40
0.0
 40
0.0
 40
0.0847073094142439
 40
0.1700089439313611
 40
0.255587599589825
 40
0.3411373882309183
 40
0.3411373882309183
 40
0.3411373882309183
 40
0.3411373882309183
 10
-35.26763629913354
 20
-10.9977722167969
 30
0.0
 10
-35.2408280274686
 20
-11.00671107025018
 30
0.0
 10
-35.18702339141186
 20
-11.02465149411747
 30
0.0
 10
-35.10338299615552
 20
-11.04169392362567
 30
0.0
 10
-35.01841599107086
 20
-11.05224609222871
 30
0.0
 10
-34.96133374199059
 20
-11.05281578673404
 30
0.0
 10
-34.93279743194604
 20
-11.0531005859369
 30
0.0
 11
-35.26763629913354
 21
-10.9977722167969
 31
0.0
 11
-35.18675708770774
 21
-11.02294921874991
 31
0.0
 11
-35.10329914093044
 21
-11.04058837890591
 31
0.0
 11
-35.01831150054954
 21
-11.05062866210891
 31
0.0
 11
-34.93279743194604
 21
-11.0531005859369
 31
0.0
  0
SPLINE
  5
ADB7
330
1F
100
AcDbEntity
  8
AM_0
100
AcDbSpline
210
0.0
220
0.0
230
1.0
 70
     8
 71
     3
 72
    11
 73
     7
 74
     5
 42
0.0000000001
 43
0.0000000001
 44
0.0000000001
 40
0.0
 40
0.0
 40
0.0
 40
0.0
 40
0.056404227931699
 40
0.1128083299625092
 40
0.1692430082395239
 40
0.2256470477067826
 40
0.2256470477067826
 40
0.2256470477067826
 40
0.2256470477067826
 10
-34.89972019195584
 20
-10.7841491699219
 30
0.0
 10
-34.90003252777191
 20
-10.8029479848131
 30
0.0
 10
-34.9006571987069
 20
-10.84054557263433
 30
0.0
 10
-34.90157993179437
 20
-10.89695236231204
 30
0.0
 10
-34.90251466406355
 20
-10.95335889155883
 30
0.0
 10
-34.90312874832979
 20
-10.99096678437802
 30
0.0
 10
-34.90343570709253
 20
-11.00976562499992
 30
0.0
 11
-34.89972019195584
 21
-10.7841491699219
 31
0.0
 11
-34.90065479278584
 21
-10.8405456542969
 31
0.0
 11
-34.90158176422144
 21
-10.8969421386719
 31
0.0
 11
-34.90251255035424
 21
-10.95336914062491
 31
0.0
 11
-34.90343570709253
 21
-11.00976562499992
 31
0.0
  0
SPLINE
  5
ADB8
330
1F
100
AcDbEntity
  8
AM_0
100
AcDbSpline
210
0.0
220
0.0
230
1.0
 70
     8
 71
     3
 72
    11
 73
     7
 74
     5
 42
0.0000000001
 43
0.0000000001
 44
0.0000000001
 40
0.0
 40
0.0
 40
0.0
 40
0.0
 40
0.4526856284543197
 40
0.9053410134892402
 40
1.358025489115397
 40
1.810682027052534
 40
1.810682027052534
 40
1.810682027052534
 40
1.810682027052534
 10
-34.93279743194604
 20
-11.0531005859369
 30
0.0
 10
-34.97839883681724
 20
-11.19694034442207
 30
0.0
 10
-35.06959859998092
 20
-11.48461025161938
 30
0.0
 10
-35.2064132916552
 20
-11.91611522663301
 30
0.0
 10
-35.34320244581645
 20
-12.3476181255257
 30
0.0
 10
-35.43441225661226
 20
-12.63528484720734
 30
0.0
 10
-35.48001575469994
 20
-12.77911376953091
 30
0.0
 11
-34.93279743194604
 21
-11.0531005859369
 31
0.0
 11
-35.06960391998314
 21
-11.48461914062492
 31
0.0
 11
-35.20640659332303
 21
-11.91610717773391
 31
0.0
 11
-35.34320926666283
 21
-12.3476257324219
 31
0.0
 11
-35.48001575469994
 21
-12.77911376953091
 31
0.0
  0
SPLINE
  5
ADB9
330
1F
100
AcDbEntity
  8
AM_0
100
AcDbSpline
210
0.0
220
0.0
230
1.0
 70
     8
 71
     3
 72
    11
 73
     7
 74
     5
 42
0.0000000001
 43
0.0000000001
 44
0.0000000001
 40
0.0
 40
0.0
 40
0.0
 40
0.0
 40
0.288796045945059
 40
0.5668097376236437
 40
0.8180518341403928
 40
1.037921339866078
 40
1.037921339866078
 40
1.037921339866078
 40
1.037921339866078
 10
-35.48001575469994
 20
-12.77911376953091
 30
0.0
 10
-35.57625313817251
 20
-12.76802714465002
 30
0.0
 10
-35.76513483112356
 20
-12.7462678199359
 30
0.0
 10
-36.01595579537355
 20
-12.6334017374387
 30
0.0
 10
-36.22037623987267
 20
-12.47583807423955
 30
0.0
 10
-36.28249513085956
 20
-12.32910225844197
 30
0.0
 10
-36.31148624420192
 20
-12.2606201171869
 30
0.0
 11
-35.48001575469994
 21
-12.77911376953091
 31
0.0
 11
-35.76480960845973
 21
-12.73120117187491
 31
0.0
 11
-36.01923847198514
 21
-12.6191406249999
 31
0.0
 11
-36.21004199981712
 21
-12.45568847656189
 31
0.0
 11
-36.31148624420192
 21
-12.2606201171869
 31
0.0
  0
SPLINE
  5
ADBA
330
1F
100
AcDbEntity
  8
AM_0
100
AcDbSpline
210
0.0
220
0.0
230
1.0
 70
     8
 71
     3
 72
    11
 73
     7
 74
     5
 42
0.0000000001
 43
0.0000000001
 44
0.0000000001
 40
0.0
 40
0.0
 40
0.0
 40
0.0
 40
0.4706773523335266
 40
0.9413244612314461
 40
1.412001813565908
 40
1.882650075351898
 40
1.882650075351898
 40
1.882650075351898
 40
1.882650075351898
 10
-36.31148624420192
 20
-12.2606201171869
 30
0.0
 10
-36.26407275495266
 20
-12.1110634317793
 30
0.0
 10
-36.16924882301419
 20
-11.81195967074875
 30
0.0
 10
-36.0269996190998
 20
-11.36330295988905
 30
0.0
 10
-35.88476852491148
 20
-10.91465068005141
 30
0.0
 10
-35.78993541962681
 20
-10.61554942420689
 30
0.0
 10
-35.74252033233664
 20
-10.46600341796891
 30
0.0
 11
-36.31148624420192
 21
-12.2606201171869
 31
0.0
 11
-36.16924381256124
 21
-11.81195068359391
 31
0.0
 11
-36.02700519561793
 21
-11.3633117675779
 31
0.0
 11
-35.88476276397734
 21
-10.91464233398391
 31
0.0
 11
-35.74252033233664
 21
-10.46600341796891
 31
0.0
  0
SPLINE
  5
ADBB
330
1F
100
AcDbEntity
  8
AM_0
100
AcDbSpline
210
0.0
220
0.0
230
1.0
 70
     8
 71
     3
 72
    11
 73
     7
 74
     5
 42
0.0000000001
 43
0.0000000001
 44
0.0000000001
 40
0.0
 40
0.0
 40
0.0
 40
0.0
 40
0.043836557236622
 40
0.0880202378841913
 40
0.1326144752558979
 40
0.1776801548669255
 40
0.1776801548669255
 40
0.1776801548669255
 40
0.1776801548669255
 10
-35.74252033233664
 20
-10.46600341796891
 30
0.0
 10
-35.74001040842431
 20
-10.48040618469061
 30
0.0
 10
-35.73497068555915
 20
-10.50932576763577
 30
0.0
 10
-35.72322721920043
 20
-10.55199806789717
 30
0.0
 10
-35.70865932109606
 20
-10.59422186401625
 30
0.0
 10
-35.6962945714785
 20
-10.62144746018289
 30
0.0
 10
-35.69007968902615
 20
-10.6351318359369
 30
0.0
 11
-35.74252033233664
 21
-10.46600341796891
 31
0.0
 11
-35.73430728912375
 21
-10.5090637207029
 31
0.0
 11
-35.72281742095974
 21
-10.5517272949219
 31
0.0
 11
-35.70806598663354
 21
-10.59381103515591
 31
0.0
 11
-35.69007968902615
 21
-10.6351318359369
 31
0.0
  0
SPLINE
  5
ADBC
330
1F
100
AcDbEntity
  8
AM_0
100
AcDbSpline
210
0.0
220
0.0
230
1.0
 70
     8
 71
     3
 72
    11
 73
     7
 74
     5
 42
0.0000000001
 43
0.0000000001
 44
0.0000000001
 40
0.0
 40
0.0
 40
0.0
 40
0.0
 40
0.0533680635643351
 40
0.1074237489942421
 40
0.1621964178483925
 40
0.2177410835349116
 40
0.2177410835349116
 40
0.2177410835349116
 40
0.2177410835349116
 10
-35.69007968902615
 20
-10.6351318359369
 30
0.0
 10
-35.6819896055131
 20
-10.65098883568132
 30
0.0
 10
-35.66570520164672
 20
-10.68290714499553
 30
0.0
 10
-35.63594406451493
 20
-10.7281488295417
 30
0.0
 10
-35.60253373558727
 20
-10.77167582444004
 30
0.0
 10
-35.57717846828885
 20
-10.79834145850642
 30
0.0
 10
-35.56441211700464
 20
-10.81176757812491
 30
0.0
 11
-35.69007968902615
 21
-10.6351318359369
 31
0.0
 11
-35.66496372222924
 21
-10.68222045898391
 31
0.0
 11
-35.63554477691674
 21
-10.7275695800779
 31
0.0
 11
-35.60196781158474
 21
-10.77084350585891
 31
0.0
 11
-35.56441211700464
 21
-10.81176757812491
 31
0.0
  0
SPLINE
  5
ADBD
330
1F
100
AcDbEntity
  8
AM_0
100
AcDbSpline
210
0.0
220
0.0
230
1.0
 70
     8
 71
     3
 72
    11
 73
     7
 74
     5
 42
0.0000000001
 43
0.0000000001
 44
0.0000000001
 40
0.0
 40
0.0
 40
0.0
 40
0.0
 40
0.0856243314700498
 40
0.1731266181066484
 40
0.2622981106092435
 40
0.3528700635500288
 40
0.3528700635500288
 40
0.3528700635500288
 40
0.3528700635500288
 10
-35.56441211700464
 20
-10.81176757812491
 30
0.0
 10
-35.54355728402069
 20
-10.83130401155996
 30
0.0
 10
-35.50139021954612
 20
-10.87080536114608
 30
0.0
 10
-35.42930332175353
 20
-10.92072696651715
 30
0.0
 10
-35.35145077142558
 20
-10.96444446596689
 30
0.0
 10
-35.29571919964741
 20
-10.98660541128807
 30
0.0
 10
-35.26763629913354
 20
-10.9977722167969
 30
0.0
 11
-35.56441211700464
 21
-10.81176757812491
 31
0.0
 11
-35.50052356719995
 21
-10.8687744140619
 31
0.0
 11
-35.42904758453395
 21
-10.91925048828091
 31
0.0
 11
-35.35102939605734
 21
-10.9624328613279
 31
0.0
 11
-35.26763629913354
 21
-10.9977722167969
 31
0.0
  0
SPLINE
  5
ADBE
330
1F
100
AcDbEntity
  8
AM_0
100
AcDbSpline
210
0.0
220
0.0
230
1.0
 70
     8
 71
     3
 72
    11
 73
     7
 74
     5
 42
0.0000000001
 43
0.0000000001
 44
0.0000000001
 40
0.0
 40
0.0
 40
0.0
 40
0.0
 40
0.9902163603898648
 40
1.990335252394421
 40
2.99520014374954
 40
4.00184804023082
 40
4.00184804023082
 40
4.00184804023082
 40
4.00184804023082
 10
-37.55256366729769
 20
4.000289916992092
 30
0.0
 10
-37.31483641017829
 20
3.769604332804338
 30
0.0
 10
-36.8370045350177
 20
3.305926222853384
 30
0.0
 10
-35.962405634206
 20
2.806923859523106
 30
0.0
 10
-35.00634845667536
 20
2.469850247443579
 30
0.0
 10
-34.33465422019928
 20
2.42354734092217
 30
0.0
 10
-33.99850940704375
 20
2.400375366211098
 30
0.0
 11
-37.55256366729769
 21
4.000289916992092
 31
0.0
 11
-36.81380176544216
 21
3.340927124024098
 31
0.0
 11
-35.95109272003197
 21
2.834991455078093
 31
0.0
 11
-34.99864673614527
 21
2.514678955078096
 31
0.0
 11
-33.99850940704375
 21
2.400375366211098
 31
0.0
  0
SPLINE
  5
ADBF
330
1F
100
AcDbEntity
  8
AM_0
100
AcDbSpline
210
0.0
220
0.0
230
1.0
 70
     8
 71
     3
 72
    11
 73
     7
 74
     5
 42
0.0000000001
 43
0.0000000001
 44
0.0000000001
 40
0.0
 40
0.0
 40
0.0
 40
0.0
 40
0.443367173965974
 40
0.8694040511565129
 40
1.273468661357203
 40
1.651543536750918
 40
1.651543536750918
 40
1.651543536750918
 40
1.651543536750918
 10
-36.15611743927029
 20
4.019912719727098
 30
0.0
 10
-36.30045873154415
 20
4.052366381757725
 30
0.0
 10
-36.58349931646057
 20
4.116005159955717
 30
0.0
 10
-36.98240999930007
 20
4.263995574246034
 30
0.0
 10
-37.34714823848167
 20
4.436811579350155
 30
0.0
 10
-37.56682701567239
 20
4.577644733080742
 30
0.0
 10
-37.67301654815699
 20
4.645721435547092
 30
0.0
 11
-36.15611743927029
 21
4.019912719727098
 31
0.0
 11
-36.58635807037379
 21
4.126998901367096
 31
0.0
 11
-36.98680973053008
 21
4.272415161133104
 31
0.0
 11
-37.35060596466089
 21
4.448257446289097
 31
0.0
 11
-37.67301654815699
 21
4.645721435547092
 31
0.0
  0
SPLINE
  5
ADC0
330
1F
100
AcDbEntity
  8
AM_0
100
AcDbSpline
210
0.0
220
0.0
230
1.0
 70
     8
 71
     3
 72
    11
 73
     7
 74
     5
 42
0.0000000001
 43
0.0000000001
 44
0.0000000001
 40
0.0
 40
0.0
 40
0.0
 40
0.0
 40
0.0959478240575792
 40
0.1916569830012307
 40
0.2870606589746136
 40
0.3822078332903063
 40
0.3822078332903063
 40
0.3822078332903063
 40
0.3822078332903063
 10
-32.53505802154564
 20
-4.499176025389905
 30
0.0
 10
-32.53907609896983
 20
-4.530906809218567
 30
0.0
 10
-32.54710225906411
 20
-4.594289448237209
 30
0.0
 10
-32.55634366951866
 20
-4.689539716127633
 30
0.0
 10
-32.56379404000253
 20
-4.784677621613584
 30
0.0
 10
-32.56702278666444
 20
-4.848115178274658
 30
0.0
 10
-32.56863498687765
 20
-4.879791259764906
 30
0.0
 11
-32.53505802154564
 21
-4.499176025389905
 31
0.0
 11
-32.54664707183864
 21
-4.594421386718898
 31
0.0
 11
-32.55605792999295
 21
-4.689666748046896
 31
0.0
 11
-32.56336688995385
 21
-4.784790039061895
 31
0.0
 11
-32.56863498687765
 21
-4.879791259764906
 31
0.0
  0
SPLINE
  5
ADC1
330
1F
100
AcDbEntity
  8
AM_0
100
AcDbSpline
210
0.0
220
0.0
230
1.0
 70
     8
 71
     3
 72
    11
 73
     7
 74
     5
 42
0.0000000001
 43
0.0000000001
 44
0.0000000001
 40
0.0
 40
0.0
 40
0.0
 40
0.0
 40
0.2227987317968266
 40
0.4373841583240159
 40
0.6320345361407546
 40
0.7883864776784055
 40
0.7883864776784055
 40
0.7883864776784055
 40
0.7883864776784055
 10
-48.82566452026323
 20
-12.26187133788994
 30
0.0
 10
-48.89997801110244
 20
-12.26465573049412
 30
0.0
 10
-49.04586548263647
 20
-12.27012187119339
 30
0.0
 10
-49.25386269328008
 20
-12.30237199326252
 30
0.0
 10
-49.43942973899965
 20
-12.34650139970559
 30
0.0
 10
-49.53991976639857
 20
-12.40762003161694
 30
0.0
 10
-49.58468246459923
 20
-12.43484497070293
 30
0.0
 11
-48.82566452026323
 21
-12.26187133788994
 31
0.0
 11
-49.04809951782223
 21
-12.27459716796893
 31
0.0
 11
-49.26031112670923
 21
-12.30642700195293
 31
0.0
 11
-49.44748306274423
 21
-12.35986328124995
 31
0.0
 11
-49.58468246459923
 21
-12.43484497070293
 31
0.0
  0
SPLINE
  5
ADC2
330
1F
100
AcDbEntity
  8
AM_0
100
AcDbSpline
210
0.0
220
0.0
230
1.0
 70
     8
 71
     3
 72
    11
 73
     7
 74
     5
 42
0.0000000001
 43
0.0000000001
 44
0.0000000001
 40
0.0
 40
0.0
 40
0.0
 40
0.0
 40
0.0649106595565314
 40
0.1176631341534557
 40
0.1679990421608386
 40
0.2250480304394972
 40
0.2250480304394972
 40
0.2250480304394972
 40
0.2250480304394972
 10
-49.58468246459923
 20
-12.43484497070293
 30
0.0
 10
-49.60069137819424
 20
-12.44974721856437
 30
0.0
 10
-49.62971063267183
 20
-12.47676042720049
 30
0.0
 10
-49.64938312524517
 20
-12.53208827531794
 30
0.0
 10
-49.63783239368877
 20
-12.58690036711655
 30
0.0
 10
-49.61470656663435
 20
-12.61473124837399
 30
0.0
 10
-49.60242080688423
 20
-12.62951660156194
 30
0.0
 11
-49.58468246459923
 21
-12.43484497070293
 31
0.0
 11
-49.62807083129823
 21
-12.48312377929694
 31
0.0
 11
-49.64455795288023
 21
-12.53323364257793
 31
0.0
 11
-49.63493728637723
 21
-12.58264160156194
 31
0.0
 11
-49.60242080688423
 21
-12.62951660156194
 31
0.0
  0
SPLINE
  5
ADC3
330
1F
100
AcDbEntity
  8
AM_0
100
AcDbSpline
210
0.0
220
0.0
230
1.0
 70
    24
 71
     3
 72
    11
 73
     7
 74
     5
 42
0.0000000001
 43
0.0000000001
 44
0.0000000001
 40
0.0
 40
0.0
 40
0.0
 40
0.0
 40
0.0805298639278596
 40
0.1610597278558254
 40
0.2415895917837911
 40
0.3221194557117712
 40
0.3221194557117712
 40
0.3221194557117712
 40
0.3221194557117712
 10
-36.60540103912375
 20
-11.6304931640619
 30
0.0
 10
-36.57856337229435
 20
-11.629943847656
 30
0.0
 10
-36.5248880386355
 20
-11.62884521484419
 30
0.0
 10
-36.44437503814725
 20
-11.62719726562483
 30
0.0
 10
-36.36386203765895
 20
-11.62554931640593
 30
0.0
 10
-36.31018670400007
 20
-11.62445068359324
 30
0.0
 10
-36.28334903717064
 20
-11.62390136718689
 30
0.0
 11
-36.60540103912375
 21
-11.6304931640619
 31
0.0
 11
-36.52488803863554
 21
-11.62884521484392
 31
0.0
 11
-36.44437503814724
 21
-11.62719726562491
 31
0.0
 11
-36.36386203765895
 21
-11.6255493164059
 31
0.0
 11
-36.28334903717064
 21
-11.62390136718689
 31
0.0
  0
ELLIPSE
  5
ADC4
330
1F
100
AcDbEntity
  8
AM_0
100
AcDbEllipse
 10
-31.23809909820586
 20
-6.123611450194903
 30
0.0
 11
1.239067102580899
 21
-0.1649627694419966
 31
0.0
210
0.0
220
0.0
230
1.0
 40
0.8045099258423002
 41
3.141592544923877
 42
4.56640115812703
  0
ELLIPSE
  5
ADC5
330
1F
100
AcDbEntity
  8
AM_0
100
AcDbEllipse
 10
-33.71483135223418
 20
5.965309143067093
 30
0.0
 11
-5.033075493909699
 21
-0.2399826069300093
 31
0.0
210
0.0
220
0.0
230
1.0
 40
0.4193163489452
 41
1.044514640863914
 42
1.440829300103773
  0
ELLIPSE
  5
ADC6
330
1F
100
AcDbEntity
  8
AM_0
100
AcDbEllipse
 10
-38.15773630142237
 20
0.0000000000000864
 30
0.0
 11
11.74338365356042
 21
-13.31844936151796
 31
0.0
210
0.0
220
0.0
230
0.9999999999999998
 40
0.2734110382962
 41
2.707859729982666
 42
2.905132775998418
  0
ELLIPSE
  5
ADC7
330
1F
100
AcDbEntity
  8
AM_0
100
AcDbEllipse
 10
-38.36877679824858
 20
0.0000000000000856
 30
0.0
 11
-10.98759641444667
 21
-12.86401340516602
 31
0.0
210
0.0
220
0.0
230
0.9999999999999998
 40
0.4288867209762002
 41
0.3511689375359217
 42
0.4850129960633878
  0
ELLIPSE
  5
ADC8
330
1F
100
AcDbEntity
  8
AM_0
100
AcDbEllipse
 10
-36.19633913040186
 20
0.0000076293950944
 30
0.0
 11
11.90125859459892
 21
-13.65436716276898
 31
0.0
210
0.0
220
0.0
230
1.0
 40
0.0938722365703
 41
2.01198077057064
 42
2.859094923047863
  0
ELLIPSE
  5
ADC9
330
1F
100
AcDbEntity
  8
AM_0
100
AcDbEllipse
 10
-31.52936029434227
 20
0.0000000000000985
 30
0.0
 11
13.48131576785102
 21
-13.65451143502197
 31
0.0
210
0.0
220
0.0
230
1.0
 40
0.0827377275115
 41
4.108166994773949
 42
4.334788221844868
  0
ELLIPSE
  5
ADCA
330
1F
100
AcDbEntity
  8
AM_0
100
AcDbEllipse
 10
-37.72613620758086
 20
-0.0000076293939031
 30
0.0
 11
0.842173992952228
 21
-13.69948566482499
 31
0.0
210
0.0
220
0.0
230
0.9999999999999998
 40
0.1409984804132
 41
0.6524827381373726
 42
0.7037217582656902
  0
ELLIPSE
  5
ADCB
330
1F
100
AcDbEntity
  8
AM_0
100
AcDbEllipse
 10
-37.83509349823026
 20
0.0000000000000877
 30
0.0
 11
-0.8512521437960719
 21
-13.69757060407599
 31
0.0
210
0.0
220
0.0
230
0.9999999999999994
 40
0.3033705280782
 41
0.5765802557964197
 42
0.6801317536032552
  0
ELLIPSE
  5
ADCC
330
1F
100
AcDbEntity
  8
AM_0
100
AcDbEllipse
 10
-39.11119556427028
 20
0.0000076293950828
 30
0.0
 11
2.134689929098627
 21
-13.69846312700599
 31
0.0
210
0.0
220
0.0
230
0.9999999999999998
 40
0.0958146325142
 41
0.4821328982438918
 42
0.5423048178617396
  0
ELLIPSE
  5
ADCD
330
1F
100
AcDbEntity
  8
AM_0
100
AcDbEllipse
 10
62.44415283203071
 20
0.0000076293952871
 30
0.0
 11
-362.4211995374259
 21
-9.586830086360736
 31
0.0
210
0.0
220
0.0
230
1.0
 40
0.0270040567015
 41
1.25803295795481
 42
1.29324421897953
  0
ELLIPSE
  5
ADCE
330
1F
100
AcDbEntity
  8
AM_0
100
AcDbEllipse
 10
-38.36877679824858
 20
0.0000000000000856
 30
0.0
 11
-10.98759641444667
 21
-12.86401340516602
 31
0.0
210
0.0
220
0.0
230
0.9999999999999998
 40
0.4288867209762002
 41
6.236391995362897
 42
6.634354244715508
  0
ELLIPSE
  5
ADCF
330
1F
100
AcDbEntity
  8
AM_0
100
AcDbEllipse
 10
-33.65943241119408
 20
0.0000076293951045
 30
0.0
 11
-0.1516564884571721
 21
-13.69998917253399
 31
0.0
210
0.0
220
0.0
230
0.9999999999999996
 40
0.0893840019323
 41
1.035285884973103
 42
1.207340616250129
  0
ELLIPSE
  5
ADD0
330
1F
100
AcDbEntity
  8
AM_0
100
AcDbEllipse
 10
35.55912780761673
 20
-0.001358032225757
 30
0.0
 11
174.2217254409879
 21
-8.123160091667653
 31
0.0
210
0.0
220
0.0
230
1.0
 40
0.0633095932975
 41
4.312870907588926
 42
4.319930930239086
  0
ELLIPSE
  5
ADD1
330
1F
100
AcDbEntity
  8
AM_0
100
AcDbEllipse
 10
-36.70436191558869
 20
6.717277526856102
 30
0.0
 11
4.275692225508606
 21
-3.149650498931989
 31
0.0
210
0.0
220
0.0
230
1.0
 40
0.4237664396668002
 41
4.278101119148479
 42
4.797057091863528
  0
LINE
  5
ADD3
330
1F
100
AcDbEntity
  8
AM_0
100
AcDbLine
 10
-146.9855346679652
 20
12.49999999999986
 30
0.0
 11
-52.98554611206029
 21
12.50000000000006
 31
0.0
  0
LINE
  5
ADD4
330
1F
100
AcDbEntity
  8
AM_0
100
AcDbLine
 10
-146.9855346679651
 20
-12.50000000000013
 30
0.0
 11
-52.98554611206024
 21
-12.49999999999994
 31
0.0
  0
LINE
  5
ADD6
330
1F
100
AcDbEntity
  8
AM_0
100
AcDbLine
 10
-52.98554611206024
 20
-12.49999999999994
 30
0.0
 11
-52.98554611206029
 21
12.50000000000006
 31
0.0
  0
LINE
  5
ADD7
330
1F
100
AcDbEntity
  8
AM_0
100
AcDbLine
 10
-49.98554611206028
 20
0.0000000000000537
 30
0.0
 11
-49.98554611206029
 21
12.69999694824206
 31
0.0
  0
LINE
  5
ADD8
330
1F
100
AcDbEntity
  8
AM_0
100
AcDbLine
 10
-47.28319454193129
 20
13.43450927734408
 30
0.0
 11
-47.2682580947873
 21
13.42440032959008
 31
0.0
  0
LINE
  5
ADD9
330
1F
100
AcDbEntity
  8
AM_0
100
AcDbLine
 10
-39.71423435211207
 20
6.398860931397091
 30
0.0
 11
-40.11881637573267
 21
6.840328216553086
 31
0.0
  0
LINE
  5
ADDA
330
1F
100
AcDbEntity
  8
AM_0
100
AcDbLine
 10
-49.98554801940928
 20
12.69999694824206
 30
0.0
 11
-48.9855461120603
 21
13.69999694824207
 31
0.0
  0
LINE
  5
ADDB
330
1F
100
AcDbEntity
  8
AM_0
100
AcDbLine
 10
-48.72063827514629
 20
13.69999694824207
 30
0.0
 11
-48.9855461120603
 21
13.69999694824207
 31
0.0
  0
LINE
  5
ADDC
330
1F
100
AcDbEntity
  8
AM_0
100
AcDbLine
 10
-52.98554611206031
 20
12.00000000000006
 30
0.0
 11
-49.98554611206031
 21
12.00000000000005
 31
0.0
  0
LINE
  5
ADDD
330
1F
100
AcDbEntity
  8
AM_0
100
AcDbLine
 10
-48.98554611206024
 20
-13.70001220703094
 30
0.0
 11
-46.78812885284423
 21
-13.70001220703095
 31
0.0
  0
LINE
  5
ADDE
330
1F
100
AcDbEntity
  8
AM_0
100
AcDbLine
 10
-35.26763463020345
 20
-10.99777603149391
 30
0.0
 11
-35.15087175369284
 21
-10.73915863037089
 31
0.0
  0
LINE
  5
ADDF
330
1F
100
AcDbEntity
  8
AM_0
100
AcDbLine
 10
-34.90723013877894
 20
-11.05302047729491
 30
0.0
 11
-34.93279623985315
 21
-11.0531005859369
 31
0.0
  0
LINE
  5
ADE0
330
1F
100
AcDbEntity
  8
AM_0
100
AcDbLine
 10
-34.90723037719754
 20
-11.05301284789991
 30
0.0
 11
-34.90343499183675
 21
-11.00975036621091
 31
0.0
  0
LINE
  5
ADE1
330
1F
100
AcDbEntity
  8
AM_0
100
AcDbLine
 10
-34.90343666076684
 20
-11.0097694396969
 30
0.0
 11
-34.90721893310574
 21
-11.05290985107391
 31
0.0
  0
LINE
  5
ADE2
330
1F
100
AcDbEntity
  8
AM_0
100
AcDbLine
 10
-35.74688863754295
 20
-10.43883514404291
 30
0.0
 11
-35.74252223968534
 21
-10.4659996032709
 31
0.0
  0
LINE
  5
ADE3
330
1F
100
AcDbEntity
  8
AM_0
100
AcDbLine
 10
-35.75776624679595
 20
-10.3740959167479
 30
0.0
 11
-35.74689102172876
 21
-10.4388313293459
 31
0.0
  0
LINE
  5
ADE4
330
1F
100
AcDbEntity
  8
AM_0
100
AcDbLine
 10
-36.31148624420192
 20
-12.2606086730959
 30
0.0
 11
-36.47032356262234
 21
-11.62788391113291
 31
0.0
  0
LINE
  5
ADE5
330
1F
100
AcDbEntity
  8
AM_0
100
AcDbLine
 10
-35.56440424919154
 20
-10.81177902221691
 30
0.0
 11
-35.37099027633693
 21
-10.6079483032219
 31
0.0
  0
LINE
  5
ADE6
330
1F
100
AcDbEntity
  8
AM_0
100
AcDbLine
 10
-35.69007349014304
 20
-10.6351394653319
 30
0.0
 11
-35.47318553924585
 21
-10.4821319580079
 31
0.0
  0
LINE
  5
ADE7
330
1F
100
AcDbEntity
  8
AM_0
100
AcDbLine
 10
-35.74689626693756
 20
-10.4388275146479
 30
0.0
 11
-35.61823511123686
 21
-10.38127899169891
 31
0.0
  0
LINE
  5
ADE8
330
1F
100
AcDbEntity
  8
AM_0
100
AcDbLine
 10
-44.56277561187723
 20
-12.18556976318292
 30
0.0
 11
-45.51721858978224
 21
-13.57748031616192
 31
0.0
  0
LINE
  5
ADE9
330
1F
100
AcDbEntity
  8
AM_0
100
AcDbLine
 10
-49.98554611206024
 20
-12.70001220703094
 30
0.0
 11
-49.98554611206028
 21
0.0000000000000537
 31
0.0
  0
LINE
  5
ADEA
330
1F
100
AcDbEntity
  8
AM_0
100
AcDbLine
 10
-52.98554611206024
 20
-11.99999999999994
 30
0.0
 11
-49.98554611206024
 21
-11.99999999999995
 31
0.0
  0
LINE
  5
ADEB
330
1F
100
AcDbEntity
  8
AM_0
100
AcDbLine
 10
-48.98554992675724
 20
-13.70001602172793
 30
0.0
 11
-49.98554992675723
 21
-12.70001602172794
 31
0.0
  0
LINE
  5
ADEC
330
1F
100
AcDbEntity
  8
AM_0
100
AcDbLine
 10
-49.60242080688423
 20
-12.62950897216794
 30
0.0
 11
-49.19656181335422
 21
-12.29474639892593
 31
0.0
  0
LINE
  5
ADED
330
1F
100
AcDbEntity
  8
AM_0
100
AcDbLine
 10
-146.9855346679651
 20
-12.50000000000013
 30
0.0
 11
-146.9855346679652
 21
12.49999999999986
 31
0.0
  0
LINE
  5
ADEE
330
1F
100
AcDbEntity
  8
AM_0
100
AcDbLine
 10
-149.9855346679652
 20
-10.16149902343713
 30
0.0
 11
-149.9855346679652
 21
10.16149902343787
 31
0.0
  0
ARC
  5
ADEF
330
1F
100
AcDbEntity
  8
AM_0
100
AcDbCircle
 10
-147.9855346679652
 20
10.16149902343786
 30
0.0
 40
2.0
100
AcDbArc
 50
104.9999944978378
 51
180.0
  0
LINE
  5
ADF0
330
1F
100
AcDbEntity
  8
AM_0
100
AcDbLine
 10
-148.5031890869052
 20
12.09333801269485
 30
0.0
 11
-146.9855422973552
 21
12.49998855590788
 31
0.0
  0
ARC
  5
ADF1
330
1F
100
AcDbEntity
  8
AM_0
100
AcDbCircle
 10
-147.9855346679651
 20
-10.16149902343714
 30
0.0
 40
2.0
100
AcDbArc
 50
180.0
 51
255.0000055021624
  0
LINE
  5
ADF2
330
1F
100
AcDbEntity
  8
AM_0
100
AcDbLine
 10
-148.5031890869052
 20
-12.09334182739213
 30
0.0
 11
-146.9855422973551
 21
-12.49999237060513
 31
0.0
  0
LINE
  5
AE8D
330
1F
100
AcDbEntity
  8
AM_11
100
AcDbLine
 10
-0.0000000000003003
 20
14.79643249511717
 30
0.0
 11
-0.0000000000002397
 21
-14.79643249511685
 31
0.0
  0
LINE
  5
AE90
330
1F
100
AcDbEntity
  8
AM_11
100
AcDbLine
 10
-35.4000000000003
 20
14.79643249511709
 30
0.0
 11
-0.0000000000002861
 21
14.79643249511717
 31
0.0
  0
LINE
  5
AE91
330
1F
100
AcDbEntity
  8
AM_11
100
AcDbLine
 10
-35.40000000000026
 20
-14.79643249511696
 30
0.0
 11
-0.0000000000002397
 21
-14.79643249511686
 31
0.0
  0
LINE
  5
AE99
330
1F
100
AcDbEntity
  8
AM_11
100
AcDbLine
 10
-35.40000000000028
 20
14.79643249511709
 30
0.0
 11
-35.40000000000026
 21
-14.79643249511696
 31
0.0
  0
DIMENSION
  5
AEB0
330
1F
100
AcDbEntity
  8
AM_5
100
AcDbDimension
  2
*D2
 10
-0.0000000000002725
 20
28.89618019921914
 30
0.0
 11
-17.70000000000027
 21
31.99618019921917
 31
0.0
 70
    32
  1
<>
 71
     5
 42
-1.0
 51
359.9999999999998
  3
AM_JIS$0
100
AcDbAlignedDimension
 13
-35.4000000000003
 23
14.79643249511714
 33
0.0
 14
-0.0000000000002984
 24
14.79643249511718
 34
0.0
 50
180.0
100
AcDbRotatedDimension
1001
GENIUS_GENDTOL_13
1000

1000
h7
1000

1040
0.0
1001
ACAD
1000
DSTYLE
1002
{
1070
   287
1070
     3
1070
    40
1040
1.0
1070
    42
1040
1.0
1070
    43
1040
12.0
1070
    48
1040
0.1
1070
    78
1070
     8
1070
   140
1040
3.2
1070
   176
1070
   256
1070
   177
1070
   256
1070
   271
1070
     0
1070
   272
1070
     3
1070
   275
1070
     0
1070
   284
1070
     0
1070
   289
1070
     3
1070
   340
1005
6B
1070
   371
1070
    -1
1070
   372
1070
    -1
1002
}
  0
DIMENSION
  5
AF69
330
1F
100
AcDbEntity
  8
AM_5
100
AcDbDimension
  2
*D3
 10
18.48191170556572
 20
-14.79643249511685
 30
0.0
 11
15.38191170556572
 21
0.0000000000001609
 31
0.0
 70
    32
  1
%%c<>
 71
     5
 42
-1.0
 51
359.9999999999998
  3
AM_JIS$0
100
AcDbAlignedDimension
 13
-0.0000000000003055
 23
14.79643249511717
 33
0.0
 14
-0.0000000000002274
 24
-14.79643249511684
 34
0.0
 50
90.0
100
AcDbRotatedDimension
1001
GENIUS_GENDTOL_13
1000

1000
h7
1000

1040
0.0
1001
ACAD
1000
DSTYLE
1002
{
1070
   287
1070
     3
1070
    40
1040
1.0
1070
    42
1040
1.0
1070
    43
1040
12.0
1070
    48
1040
0.1
1070
    78
1070
     8
1070
   140
1040
3.2
1070
   176
1070
   256
1070
   177
1070
   256
1070
   271
1070
     0
1070
   272
1070
     3
1070
   275
1070
     0
1070
   284
1070
     0
1070
   289
1070
     3
1070
   340
1005
6B
1070
   371
1070
    -1
1070
   372
1070
    -1
1002
}
  0
DIMENSION
  5
B022
330
1F
100
AcDbEntity
  8
AM_5
100
AcDbDimension
  2
*D4
 10
-49.98554801940922
 20
-28.7964334951169
 30
0.0
 11
-24.99277400970473
 21
-25.69643349511689
 31
0.0
 70
    32
  1
<>
 71
     5
 42
-1.0
 51
359.9999999999998
  3
AM_JIS$0
100
AcDbAlignedDimension
 13
-0.0000000000002416
 23
-14.79643249511683
 33
0.0
 14
-49.98554801940922
 24
-12.69999694824193
 34
0.0
100
AcDbRotatedDimension
1001
GENIUS_GENDTOL_13
1000

1000
h7
1000

1040
0.0
1001
ACAD
1000
DSTYLE
1002
{
1070
   287
1070
     3
1070
    40
1040
1.0
1070
    42
1040
1.0
1070
    43
1040
12.0
1070
    48
1040
0.1
1070
    78
1070
     8
1070
   140
1040
3.2
1070
   176
1070
   256
1070
   177
1070
   256
1070
   271
1070
     1
1070
   272
1070
     3
1070
   275
1070
     0
1070
   284
1070
     0
1070
   289
1070
     3
1070
   340
1005
6B
1070
   371
1070
    -1
1070
   372
1070
    -1
1002
}
  0
DIMENSION
  5
B0B5
330
1F
100
AcDbEntity
  8
AM_5
100
AcDbDimension
  2
*D5
 10
-149.9855346679652
 20
-28.7964334951169
 30
0.0
 11
-99.98554134368728
 21
-25.69643349511689
 31
0.0
 70
    32
  1
<>
 71
     5
 42
-1.0
 51
359.9999999999998
  3
AM_JIS$0
100
AcDbAlignedDimension
 13
-49.98554801940922
 23
-12.69999694824193
 33
0.0
 14
-149.9855346679652
 24
-10.16149902343812
 34
0.0
100
AcDbRotatedDimension
1001
GENIUS_GENDTOL_13
1000

1000
h7
1000

1040
0.0
1001
ACAD
1000
DSTYLE
1002
{
1070
   287
1070
     3
1070
    40
1040
1.0
1070
    42
1040
1.0
1070
    43
1040
12.0
1070
    48
1040
0.1
1070
    78
1070
     8
1070
   140
1040
3.2
1070
   176
1070
   256
1070
   177
1070
   256
1070
   271
1070
     1
1070
   272
1070
     3
1070
   275
1070
     0
1070
   284
1070
     0
1070
   289
1070
     3
1070
   340
1005
6B
1070
   371
1070
    -1
1070
   372
1070
    -1
1002
}
  0
DIMENSION
  5
B180
330
1F
100
AcDbEntity
  8
AM_5
100
AcDbDimension
  2
*D6
 10
-167.0075083242152
 20
-12.50000000000012
 30
0.0
 11
-170.1075083242152
 21
-0.0000038146976476
 31
0.0
 70
    32
  1
%%c<>
 71
     5
 42
-1.0
 51
359.9999999999998
  3
AM_JIS$0
100
AcDbAlignedDimension
 13
-146.9855422973552
 23
12.49999237060487
 33
0.0
 14
-146.9855346679652
 24
-12.50000000000012
 34
0.0
 50
270.0
100
AcDbRotatedDimension
1001
GENIUS_GENDTOL_13
1000

1000
h7
1000

1040
0.0
1001
ACAD
1000
DSTYLE
1002
{
1070
   287
1070
     3
1070
    40
1040
1.0
1070
    42
1040
1.0
1070
    43
1040
12.0
1070
    48
1040
0.1
1070
    78
1070
     8
1070
   140
1040
3.2
1070
   176
1070
   256
1070
   177
1070
   256
1070
   271
1070
     1
1070
   272
1070
     3
1070
   275
1070
     0
1070
   284
1070
     0
1070
   289
1070
     3
1070
   340
1005
6B
1070
   371
1070
    -1
1070
   372
1070
    -1
1002
}
  0
DIMENSION
  5
B21E
330
1F
100
AcDbEntity
  8
AM_5
100
AcDbDimension
  2
*D7
 10
-0.0000000000002288
 20
-38.7964334951169
 30
0.0
 11
-74.99276733398275
 21
-35.69643349511689
 31
0.0
 70
    32
  1
<>
 71
     5
 42
-1.0
 51
359.9999999999998
  3
AM_JIS$0
100
AcDbAlignedDimension
 13
-149.9855346679652
 23
-10.16149902343812
 33
0.0
 14
-0.0000000000002274
 24
-14.79643249511683
 34
0.0
100
AcDbRotatedDimension
1001
GENIUS_GENDTOL_13
1000

1000
h7
1000

1040
0.0
1001
ACAD
1000
DSTYLE
1002
{
1070
   287
1070
     3
1070
    40
1040
1.0
1070
    42
1040
1.0
1070
    43
1040
12.0
1070
    48
1040
0.1
1070
    78
1070
     8
1070
   140
1040
3.2
1070
   176
1070
   256
1070
   177
1070
   256
1070
   271
1070
     1
1070
   272
1070
     3
1070
   275
1070
     0
1070
   284
1070
     0
1070
   289
1070
     3
1070
   340
1005
6B
1070
   371
1070
    -1
1070
   372
1070
    -1
1002
}
  0
LINE
  5
B4EE
330
1F
100
AcDbEntity
  8
AM_0
100
AcDbLine
 10
-33.99850940704375
 20
2.400375366211098
 30
0.0
 11
-6.974449157715278
 21
2.199947357178172
 31
0.0
  0
VIEWPORT
  5
110
102
{ACAD_XDICTIONARY
360
B663
102
}
330
101
100
AcDbEntity
 67
     1
  8
0
100
AcDbViewport
 10
420.5
 20
297.0
 30
0.0
 40
948.9782706766916
 41
628.452
 68
     1
 69
     1
 12
420.5
 22
297.0
 13
0.0
 23
0.0
 14
10.0
 24
10.0
 15
10.0
 25
10.0
 16
0.0
 26
0.0
 36
1.0
 17
0.0
 27
0.0
 37
0.0
 42
50.0
 43
0.0
 44
0.0
 45
628.452
 50
0.0
 51
0.0
 72
   100
 90
    32800
  1

281
     0
 71
     1
 74
     0
110
-0.0000000000002682
120
0.000000000000161
130
0.0
111
1.0
121
0.000000000000002
131
0.0
112
-0.000000000000002
122
1.0
132
0.0
 79
     0
146
0.0
1001
GENIUS_GENSCREG_15
1000
PF
1040
1.0
1000
DF
1040
1.0
1000
MIN
1011
-53.98913533834582
1021
-17.226
1031
0.0
1000
MAX
1011
894.9891353383458
1021
611.226
1031
0.0
1000
FLAGS
1070
     4
1001
GENIUS_GENOBJ-N-SDF_13
1002
{
1000
OWNER
1000
GEN
1002
}
1001
GENIUS_GENODEF_13
1002
{
1000
HIER
1070
     0
1002
}
1002
{
1000
MANEDIT
1070
     0
1002
}
1002
{
1000
NOSEL
1070
     0
1002
}
1002
{
1000
BEHIND
1070
     0
1002
}
1002
{
1000
OTHER
1070
     0
1002
}
1002
{
1000
REACTOR
1002
}
  0
ENDSEC
  0
SECTION
  2
OBJECTS
  0
DICTIONARY
  5
C
330
0
100
AcDbDictionary
281
     1
  3
ACAD_COLOR
350
B595
  3
ACAD_GROUP
350
D
  3
ACAD_LAYOUT
350
1A
  3
ACAD_MATERIAL
350
B594
  3
ACAD_MLINESTYLE
350
17
  3
ACAD_PLOTSETTINGS
350
19
  3
ACAD_PLOTSTYLENAME
350
E
  3
ACAD_TABLESTYLE
350
B596
  3
ACDBHEADERROUNDTRIPXREC
350
B662
  3
ACDBVARIABLEDICTIONARY
350
34
  3
ACMDICTIONARY
350
43
  3
AMG
350
2B
  3
AMGSNAPSETTINGS
350
6E
  3
DWGPROPS
350
B661
  0
DICTIONARY
  5
74
330
1F
100
AcDbDictionary
280
     1
281
     1
  3
ACAD_INDEX
360
B51F
  3
ACAD_LAYOUTSELFREF
360
B551
  0
DICTIONARY
  5
B556
330
101
100
AcDbDictionary
280
     1
281
     1
  3
ACAD_LAYOUTSELFREF
360
B557
  0
DICTIONARY
  5
B663
330
110
100
AcDbDictionary
280
     1
281
     1
  3
ACAD_XREC_ROUNDTRIP
360
B664
  0
DICTIONARY
  5
B595
102
{ACAD_REACTORS
330
C
102
}
330
C
100
AcDbDictionary
281
     1
  0
DICTIONARY
  5
D
102
{ACAD_REACTORS
330
C
102
}
330
C
100
AcDbDictionary
281
     1
  0
DICTIONARY
  5
1A
102
{ACAD_REACTORS
330
C
102
}
330
C
100
AcDbDictionary
281
     1
  3
Model
350
B598
  3
レイアウト1
350
B599
  0
DICTIONARY
  5
B594
102
{ACAD_REACTORS
330
C
102
}
330
C
100
AcDbDictionary
281
     1
  0
DICTIONARY
  5
17
102
{ACAD_REACTORS
330
C
102
}
330
C
100
AcDbDictionary
281
     1
  3
STANDARD
350
18
  0
DICTIONARY
  5
19
102
{ACAD_REACTORS
330
C
102
}
330
C
100
AcDbDictionary
281
     1
  3
ASAMI
350
399D
  0
ACDBDICTIONARYWDFLT
  5
E
102
{ACAD_REACTORS
330
C
102
}
330
C
100
AcDbDictionary
281
     1
  3
Normal
350
F
100
AcDbDictionaryWithDefault
340
F
  0
DICTIONARY
  5
B596
102
{ACAD_REACTORS
330
C
102
}
330
C
100
AcDbDictionary
281
     1
  3
Standard
350
B597
  0
DICTIONARY
  5
B662
102
{ACAD_REACTORS
330
C
102
}
330
C
100
AcDbDictionary
281
     1
  0
DICTIONARY
  5
34
102
{ACAD_REACTORS
330
C
102
}
330
C
100
AcDbDictionary
281
     1
  3
CTABLESTYLE
350
B65D
  3
DIMASSOC
350
B65E
  3
INDEXCTL
350
35
  3
PROJECTNAME
350
B65F
  3
SORTENTS
350
B5E
  0
DICTIONARY
  5
43
102
{ACAD_REACTORS
330
C
102
}
330
C
100
AcDbDictionary
281
     1
  3
ACMSTDDICTIONARY
350
260
  0
DICTIONARY
  5
2B
102
{ACAD_REACTORS
330
C
102
}
330
C
100
AcDbDictionary
281
     1
  0
DICTIONARY
  5
6E
102
{ACAD_REACTORS
330
C
102
}
330
C
100
AcDbDictionary
281
     1
  0
XRECORD
  5
B661
102
{ACAD_REACTORS
330
C
102
}
330
C
100
AcDbXrecord
280
     1
  1
DWGPROPS COOKIE
  2

  3

  4

  6

  7

  8
那須
  9

300
AmdtFileType=82
301
=
302
=
303
=
304
=
305
=
306
=
307
=
308
=
309
=
 40
0.9449515740740739
 41
2452802.716478762
 42
2453691.64693051
  1

 90
        1
  0
DICTIONARY
  5
B51F
102
{ACAD_REACTORS
330
74
102
}
330
74
100
AcDbDictionary
281
     1
  3
*A1
350
B520
  0
XRECORD
  5
B551
102
{ACAD_REACTORS
330
74
102
}
330
74
100
AcDbXrecord
280
     1
340
1F
  0
XRECORD
  5
B557
102
{ACAD_REACTORS
330
B556
102
}
330
B556
100
AcDbXrecord
280
     1
340
101
  0
XRECORD
  5
B664
102
{ACAD_REACTORS
330
B663
102
}
330
B663
100
AcDbXrecord
280
     1
102
SHADEPLOT
 70
     0
  0
LAYOUT
  5
B598
102
{ACAD_XDICTIONARY
360
B667
102
}
102
{ACAD_REACTORS
330
1A
102
}
330
1A
100
AcDbPlotSettings
  1

  2
SII LP-2150 (D-SCAN C2)
  4

  6

 40
0.0
 41
0.0
 42
0.0
 43
0.0
 44
0.0
 45
0.0
 46
0.0
 47
0.0
 48
0.0
 49
0.0
140
0.0
141
0.0
142
1.0
143
1.0
 70
  1712
 72
     0
 73
     0
 74
     0
  7
sei_cad.ctb
 75
     0
147
1.0
148
0.0
149
0.0
100
AcDbLayout
  1
Model
 70
     1
 71
     0
 10
0.0
 20
0.0
 11
12.0
 21
9.0
 12
0.0
 22
0.0
 32
0.0
 14
0.0
 24
0.0
 34
0.0
 15
0.0
 25
0.0
 35
0.0
146
0.0
 13
0.0
 23
0.0
 33
0.0
 16
1.0
 26
0.0
 36
0.0
 17
0.0
 27
1.0
 37
0.0
 76
     0
330
1F
  0
LAYOUT
  5
B599
102
{ACAD_XDICTIONARY
360
B669
102
}
102
{ACAD_REACTORS
330
1A
102
}
330
1A
100
AcDbPlotSettings
  1

  2
SII LP-2150 (D-SCAN C2)
  4

  6

 40
0.0
 41
0.0
 42
0.0
 43
0.0
 44
0.0
 45
0.0
 46
0.0
 47
0.0
 48
0.0
 49
0.0
140
0.0
141
0.0
142
1.0
143
1.0
 70
   688
 72
     0
 73
     0
 74
     5
  7
sei_cad.ctb
 75
    16
147
1.0
148
0.0
149
0.0
100
AcDbLayout
  1
レイアウト1
 70
     0
 71
     1
 10
0.0
 20
0.0
 11
841.0
 21
594.0
 12
0.0
 22
0.0
 32
0.0
 14
1.000000000000000E+20
 24
1.000000000000000E+20
 34
1.000000000000000E+20
 15
-1.000000000000000E+20
 25
-1.000000000000000E+20
 35
-1.000000000000000E+20
146
0.0
 13
0.0
 23
0.0
 33
0.0
 16
1.0
 26
0.0
 36
0.0
 17
0.0
 27
1.0
 37
0.0
 76
     0
330
101
331
110
  0
MLINESTYLE
  5
18
102
{ACAD_REACTORS
330
17
102
}
330
17
100
AcDbMlineStyle
  2
STANDARD
 70
     0
  3

 62
   256
 51
90.0
 52
90.0
 71
     2
 49
0.5
 62
   256
  6
BYLAYER
 49
-0.5
 62
   256
  6
BYLAYER
  0
PLOTSETTINGS
  5
399D
102
{ACAD_XDICTIONARY
360
B665
102
}
102
{ACAD_REACTORS
330
19
102
}
330
19
100
AcDbPlotSettings
  1
asami
  2
RICOH imagio MF1540
  4
A4
  6

 40
5.831416606903076
 41
7.651742935180664
 42
4.90008544921875
 43
5.789077758789062
 44
296.9683227539062
 45
209.9733276367186
 46
0.0
 47
0.0
 48
-156.6707931774246
 49
-74.57609991074048
140
58.59973180214831
141
60.61068161925597
142
1.0
143
1.095343097833084
 70
  1712
 72
     1
 73
     1
 74
     4
  7
asami.ctb
 75
     0
147
0.9129559514076438
148
156.6707931774246
149
74.57609991074048
  0
ACDBPLACEHOLDER
  5
F
102
{ACAD_REACTORS
330
E
102
}
330
E
  0
TABLESTYLE
  5
B597
102
{ACAD_REACTORS
330
B596
102
}
330
B596
100
AcDbTableStyle
  3
Standard
 70
     0
 71
     0
 40
1.5
 41
1.5
280
     0
281
     0
  7
STANDARD
140
4.5
170
     2
 62
     0
 63
     7
283
     0
274
    -2
284
     1
 64
     0
275
    -2
285
     1
 65
     0
276
    -2
286
     1
 66
     0
277
    -2
287
     1
 67
     0
278
    -2
288
     1
 68
     0
279
    -2
289
     1
 69
     0
  7
STANDARD
140
6.0
170
     5
 62
     0
 63
     7
283
     0
274
    -2
284
     1
 64
     0
275
    -2
285
     1
 65
     0
276
    -2
286
     1
 66
     0
277
    -2
287
     1
 67
     0
278
    -2
288
     1
 68
     0
279
    -2
289
     1
 69
     0
  7
STANDARD
140
4.5
170
     5
 62
     0
 63
     7
283
     0
274
    -2
284
     1
 64
     0
275
    -2
285
     1
 65
     0
276
    -2
286
     1
 66
     0
277
    -2
287
     1
 67
     0
278
    -2
288
     1
 68
     0
279
    -2
289
     1
 69
     0
  0
DICTIONARYVAR
  5
B65D
102
{ACAD_REACTORS
330
34
102
}
330
34
100
DictionaryVariables
280
     0
  1
STANDARD
  0
DICTIONARYVAR
  5
B65E
102
{ACAD_REACTORS
330
34
102
}
330
34
100
DictionaryVariables
280
     0
  1
1
  0
DICTIONARYVAR
  5
35
102
{ACAD_REACTORS
330
34
102
}
330
34
100
DictionaryVariables
280
     0
  1
1
  0
DICTIONARYVAR
  5
B65F
102
{ACAD_REACTORS
330
34
102
}
330
34
100
DictionaryVariables
280
     0
  1

  0
DICTIONARYVAR
  5
B5E
102
{ACAD_REACTORS
330
34
102
}
330
34
100
DictionaryVariables
280
     0
  1
96
  0
DICTIONARY
  5
260
102
{ACAD_REACTORS
330
43
102
}
330
43
100
AcDbDictionary
281
     1
  0
LAYER_INDEX
  5
B520
102
{ACAD_REACTORS
330
B51F
102
}
330
B51F
100
AcDbIndex
 40
2453691.64693051
100
AcDbLayerIndex
  8
0
360
B521
 90
        0
  8
AM_0
360
B522
 90
      353
  8
AM_5
360
B523
 90
        6
  8
AM_7
360
B524
 90
        1
  8
AM_6
360
B525
 90
        1
  8
DEFPOINTS
360
B526
 90
        0
  8
AM_3
360
B527
 90
        0
  8
AM_11
360
B528
 90
        4
  8
PV0001_1
360
B529
 90
        0
  8
2
360
B52A
 90
        0
  8
1
360
B52B
 90
        0
  8
AM_4
360
B52C
 90
        0
  0
DICTIONARY
  5
B667
330
B598
100
AcDbDictionary
280
     1
281
     1
  3
ACAD_XREC_ROUNDTRIP
360
B668
  0
DICTIONARY
  5
B669
330
B599
100
AcDbDictionary
280
     1
281
     1
  3
ACAD_XREC_ROUNDTRIP
360
B66A
  0
DICTIONARY
  5
B665
330
399D
100
AcDbDictionary
280
     1
281
     1
  3
ACAD_XREC_ROUNDTRIP
360
B666
  0
IDBUFFER
  5
B521
330
0
100
AcDbIdBuffer
  0
IDBUFFER
  5
B522
330
0
100
AcDbIdBuffer
330
AB4A
330
AB4B
330
AB4C
330
AB4D
330
AB4E
330
AB4F
330
AB50
330
AB51
330
AB52
330
AB53
330
AB68
330
AB69
330
AB6A
330
AB6B
330
AB6C
330
AB6D
330
AB6E
330
AB6F
330
AB70
330
AB71
330
AB72
330
AB73
330
AB74
330
AB75
330
AB76
330
AB77
330
AB78
330
AB79
330
AB7A
330
AB7B
330
AB8C
330
AB8D
330
AB8E
330
AB8F
330
AB90
330
AB91
330
AB92
330
AB93
330
AB94
330
AB95
330
AB96
330
AB97
330
AB98
330
AB99
330
AB9A
330
AB9B
330
AB9C
330
AB9D
330
AB9E
330
AB9F
330
ABA0
330
ABA1
330
ABA2
330
ABA3
330
ABA4
330
ABA5
330
ABA6
330
ABA7
330
ABA8
330
ABA9
330
ABAA
330
ABAB
330
ABAC
330
ABAD
330
ABAE
330
ABAF
330
ABB0
330
ABB1
330
ABB2
330
ABB3
330
ABB4
330
ABB5
330
ABB6
330
ABB7
330
ABB8
330
ABB9
330
ABBA
330
ABCC
330
ABCD
330
ABCE
330
ABCF
330
ABD0
330
ABD1
330
ABD2
330
ABD3
330
ABD4
330
ABEF
330
ABF0
330
ABF1
330
ABF2
330
ABF3
330
ABF4
330
ABF5
330
ABF6
330
ABF7
330
ABF8
330
ABF9
330
AC1F
330
AC20
330
AC21
330
AC2D
330
AC2E
330
AC2F
330
AC30
330
AC31
330
AC32
330
AC33
330
AC34
330
AC35
330
AC36
330
AC37
330
AC38
330
AC39
330
AC3A
330
AC41
330
AC42
330
AC45
330
AC46
330
AC47
330
AC48
330
AC49
330
AC4A
330
AC4B
330
AC4C
330
AC4D
330
AC4E
330
AC4F
330
AC50
330
AC51
330
AC52
330
AC53
330
AC54
330
AC55
330
AC56
330
AC57
330
AC58
330
AC59
330
AC5A
330
AC5B
330
AC5C
330
AC5D
330
AC5E
330
AC5F
330
AC60
330
AC61
330
AC62
330
AC63
330
AC64
330
AC65
330
AC66
330
AC67
330
AC68
330
AC69
330
AC6A
330
AC6B
330
AC6C
330
AC6D
330
AC6E
330
AC6F
330
AD2E
330
AD2F
330
AD32
330
AD33
330
AD34
330
AD35
330
AD36
330
AD37
330
AD38
330
AD39
330
AD3A
330
AD3B
330
AD3C
330
AD3D
330
AD3E
330
AD3F
330
AD40
330
AD41
330
AD42
330
AD43
330
AD44
330
AD45
330
AD46
330
AD47
330
AD48
330
AD49
330
AD4A
330
AD4B
330
AD4C
330
AD4D
330
AD4E
330
AD4F
330
AD50
330
AD51
330
AD52
330
AD53
330
AD54
330
AD55
330
AD56
330
AD57
330
AD58
330
AD59
330
AD5A
330
AD5B
330
AD5C
330
AD5D
330
AD5E
330
AD5F
330
AD60
330
AD61
330
AD62
330
AD63
330
AD64
330
AD65
330
AD66
330
AD67
330
AD68
330
AD69
330
AD6A
330
AD6B
330
AD6C
330
AD6D
330
AD6E
330
AD6F
330
AD70
330
AD71
330
AD72
330
AD73
330
AD74
330
AD75
330
AD76
330
AD77
330
AD78
330
AD79
330
AD7A
330
AD7B
330
AD7C
330
AD7D
330
AD7E
330
AD7F
330
AD80
330
AD81
330
AD82
330
AD83
330
AD84
330
AD85
330
AD86
330
AD87
330
AD88
330
AD89
330
AD8A
330
AD8B
330
AD8C
330
AD8D
330
AD8E
330
AD8F
330
AD90
330
AD91
330
AD92
330
AD93
330
AD94
330
AD95
330
AD96
330
AD97
330
AD98
330
AD99
330
AD9A
330
AD9B
330
AD9C
330
AD9D
330
AD9E
330
AD9F
330
ADA0
330
ADA1
330
ADA2
330
ADA3
330
ADA4
330
ADA5
330
ADA6
330
ADA7
330
ADA8
330
ADA9
330
ADAA
330
ADAB
330
ADAC
330
ADAD
330
ADAE
330
ADAF
330
ADB0
330
ADB1
330
ADB2
330
ADB3
330
ADB4
330
ADB5
330
ADB6
330
ADB7
330
ADB8
330
ADB9
330
ADBA
330
ADBB
330
ADBC
330
ADBD
330
ADBE
330
ADBF
330
ADC0
330
ADC1
330
ADC2
330
ADC3
330
ADC4
330
ADC5
330
ADC6
330
ADC7
330
ADC8
330
ADC9
330
ADCA
330
ADCB
330
ADCC
330
ADCD
330
ADCE
330
ADCF
330
ADD0
330
ADD1
330
ADD3
330
ADD4
330
ADD6
330
ADD7
330
ADD8
330
ADD9
330
ADDA
330
ADDB
330
ADDC
330
ADDD
330
ADDE
330
ADDF
330
ADE0
330
ADE1
330
ADE2
330
ADE3
330
ADE4
330
ADE5
330
ADE6
330
ADE7
330
ADE8
330
ADE9
330
ADEA
330
ADEB
330
ADEC
330
ADED
330
ADEE
330
ADEF
330
ADF0
330
ADF1
330
ADF2
330
B4EE
  0
IDBUFFER
  5
B523
330
0
100
AcDbIdBuffer
330
AEB0
330
AF69
330
B022
330
B0B5
330
B180
330
B21E
  0
IDBUFFER
  5
B524
330
0
100
AcDbIdBuffer
330
AB54
  0
IDBUFFER
  5
B525
330
0
100
AcDbIdBuffer
330
388D
  0
IDBUFFER
  5
B526
330
0
100
AcDbIdBuffer
  0
IDBUFFER
  5
B527
330
0
100
AcDbIdBuffer
  0
IDBUFFER
  5
B528
330
0
100
AcDbIdBuffer
330
AE8D
330
AE90
330
AE91
330
AE99
  0
IDBUFFER
  5
B529
330
0
100
AcDbIdBuffer
  0
IDBUFFER
  5
B52A
330
0
100
AcDbIdBuffer
  0
IDBUFFER
  5
B52B
330
0
100
AcDbIdBuffer
  0
IDBUFFER
  5
B52C
330
0
100
AcDbIdBuffer
  0
XRECORD
  5
B668
102
{ACAD_REACTORS
330
B667
102
}
330
B667
100
AcDbXrecord
280
     1
102
SHADEPLOT
 70
     0
102
SHADEPLOTRESLEVEL
 70
     2
102
SHADEPLOTCUSTOMDPI
 70
   300
  0
XRECORD
  5
B66A
102
{ACAD_REACTORS
330
B669
102
}
330
B669
100
AcDbXrecord
280
     1
102
SHADEPLOT
 70
     0
102
SHADEPLOTRESLEVEL
 70
     2
102
SHADEPLOTCUSTOMDPI
 70
   300
  0
XRECORD
  5
B666
102
{ACAD_REACTORS
330
B665
102
}
330
B665
100
AcDbXrecord
280
     1
102
SHADEPLOT
 70
     0
102
SHADEPLOTRESLEVEL
 70
     2
102
SHADEPLOTCUSTOMDPI
 70
   300
  0
ENDSEC
  0
EOF
