  0
SECTION
  2
HEADER
  9
$ACADVER
  1
AC1015
  9
$ACADMAINTVER
 70
    20
  9
$DWGCODEPAGE
  3
ANSI_932
  9
$INSBASE
 10
0.0
 20
0.0
 30
0.0
  9
$EXTMIN
 10
-254.9416544377983
 20
-62.91358595163136
 30
0.0
  9
$EXTMAX
 10
19.93758542520742
 20
35.98081612451208
 30
0.0
  9
$LIMMIN
 10
-286.7868742660576
 20
-126.1170768033749
  9
$LIMMAX
 10
105.7235780958428
 20
45.93798713528236
  9
$ORTHOMODE
 70
     0
  9
$REGENMODE
 70
     1
  9
$FILLMODE
 70
     1
  9
$QTEXTMODE
 70
     0
  9
$MIRRTEXT
 70
     0
  9
$LTSCALE
 40
1.0
  9
$ATTMODE
 70
     1
  9
$TEXTSIZE
 40
2.5
  9
$TRACEWID
 40
1.0
  9
$TEXTSTYLE
  7
STANDARD
  9
$CLAYER
  8
AM_0
  9
$CELTYPE
  6
BYLAYER
  9
$CECOLOR
 62
   256
  9
$CELTSCALE
 40
1.0
  9
$DISPSILH
 70
     0
  9
$DIMSCALE
 40
0.5
  9
$DIMASZ
 40
2.5
  9
$DIMEXO
 40
1.0
  9
$DIMDLI
 40
12.0
  9
$DIMRND
 40
0.0
  9
$DIMDLE
 40
0.0
  9
$DIMEXE
 40
1.0
  9
$DIMTP
 40
0.1
  9
$DIMTM
 40
0.1
  9
$DIMTXT
 40
3.2
  9
$DIMCEN
 40
0.0
  9
$DIMTSZ
 40
0.0
  9
$DIMTOL
 70
     0
  9
$DIMLIM
 70
     0
  9
$DIMTIH
 70
     0
  9
$DIMTOH
 70
     0
  9
$DIMSE1
 70
     0
  9
$DIMSE2
 70
     0
  9
$DIMTAD
 70
     3
  9
$DIMZIN
 70
     8
  9
$DIMBLK
  1
Open30
  9
$DIMASO
 70
     1
  9
$DIMSHO
 70
     1
  9
$DIMPOST
  1

  9
$DIMAPOST
  1
"
  9
$DIMALT
 70
     0
  9
$DIMALTD
 70
     2
  9
$DIMALTF
 40
0.0393701
  9
$DIMLFAC
 40
1.0
  9
$DIMTOFL
 70
     1
  9
$DIMTVP
 40
0.0
  9
$DIMTIX
 70
     0
  9
$DIMSOXD
 70
     0
  9
$DIMSAH
 70
     0
  9
$DIMBLK1
  1

  9
$DIMBLK2
  1

  9
$DIMSTYLE
  2
AM_JIS
  9
$DIMCLRD
 70
   256
  9
$DIMCLRE
 70
   256
  9
$DIMCLRT
 70
     2
  9
$DIMTFAC
 40
0.71
  9
$DIMGAP
 40
1.5
  9
$DIMJUST
 70
     0
  9
$DIMSD1
 70
     0
  9
$DIMSD2
 70
     0
  9
$DIMTOLJ
 70
     0
  9
$DIMTZIN
 70
     0
  9
$DIMALTZ
 70
     0
  9
$DIMALTTZ
 70
     0
  9
$DIMUPT
 70
     0
  9
$DIMDEC
 70
     3
  9
$DIMTDEC
 70
     3
  9
$DIMALTU
 70
     2
  9
$DIMALTTD
 70
     2
  9
$DIMTXSTY
  7
ASAMI
  9
$DIMAUNIT
 70
     0
  9
$DIMADEC
 70
     0
  9
$DIMALTRND
 40
0.0
  9
$DIMAZIN
 70
     2
  9
$DIMDSEP
 70
    46
  9
$DIMATFIT
 70
     3
  9
$DIMFRAC
 70
     0
  9
$DIMLDRBLK
  1
Open30
  9
$DIMLUNIT
 70
     2
  9
$DIMLWD
 70
    -1
  9
$DIMLWE
 70
    -1
  9
$DIMTMOVE
 70
     0
  9
$LUNITS
 70
     2
  9
$LUPREC
 70
     2
  9
$SKETCHINC
 40
1.0
  9
$FILLETRAD
 40
0.4
  9
$AUNITS
 70
     0
  9
$AUPREC
 70
     0
  9
$MENU
  1
.
  9
$ELEVATION
 40
0.0
  9
$PELEVATION
 40
0.0
  9
$THICKNESS
 40
0.0
  9
$LIMCHECK
 70
     1
  9
$CHAMFERA
 40
1.0
  9
$CHAMFERB
 40
1.0
  9
$CHAMFERC
 40
20.0
  9
$CHAMFERD
 40
0.0
  9
$SKPOLY
 70
     0
  9
$TDCREATE
 40
2452802.716478762
  9
$TDUCREATE
 40
2452802.341478762
  9
$TDUPDATE
 40
2453691.653797014
  9
$TDUUPDATE
 40
2453691.278797014
  9
$TDINDWG
 40
0.9695407639
  9
$TDUSRTIMER
 40
0.9695405787
  9
$USRTIMER
 70
     1
  9
$ANGBASE
 50
0.0
  9
$ANGDIR
 70
     0
  9
$PDMODE
 70
     0
  9
$PDSIZE
 40
0.0
  9
$PLINEWID
 40
0.0
  9
$SPLFRAME
 70
     0
  9
$SPLINETYPE
 70
     6
  9
$SPLINESEGS
 70
     8
  9
$HANDSEED
  5
C0F3
  9
$SURFTAB1
 70
     6
  9
$SURFTAB2
 70
     6
  9
$SURFTYPE
 70
     6
  9
$SURFU
 70
     6
  9
$SURFV
 70
     6
  9
$UCSBASE
  2

  9
$UCSNAME
  2

  9
$UCSORG
 10
-0.0000000000002682
 20
0.000000000000161
 30
0.0
  9
$UCSXDIR
 10
1.0
 20
0.000000000000002
 30
0.0
  9
$UCSYDIR
 10
-0.000000000000002
 20
1.0
 30
0.0
  9
$UCSORTHOREF
  2

  9
$UCSORTHOVIEW
 70
     0
  9
$UCSORGTOP
 10
0.0
 20
0.0
 30
0.0
  9
$UCSORGBOTTOM
 10
0.0
 20
0.0
 30
0.0
  9
$UCSORGLEFT
 10
0.0
 20
0.0
 30
0.0
  9
$UCSORGRIGHT
 10
0.0
 20
0.0
 30
0.0
  9
$UCSORGFRONT
 10
0.0
 20
0.0
 30
0.0
  9
$UCSORGBACK
 10
0.0
 20
0.0
 30
0.0
  9
$PUCSBASE
  2

  9
$PUCSNAME
  2

  9
$PUCSORG
 10
0.0
 20
0.0
 30
0.0
  9
$PUCSXDIR
 10
1.0
 20
0.0
 30
0.0
  9
$PUCSYDIR
 10
0.0
 20
1.0
 30
0.0
  9
$PUCSORTHOREF
  2

  9
$PUCSORTHOVIEW
 70
     0
  9
$PUCSORGTOP
 10
0.0
 20
0.0
 30
0.0
  9
$PUCSORGBOTTOM
 10
0.0
 20
0.0
 30
0.0
  9
$PUCSORGLEFT
 10
0.0
 20
0.0
 30
0.0
  9
$PUCSORGRIGHT
 10
0.0
 20
0.0
 30
0.0
  9
$PUCSORGFRONT
 10
0.0
 20
0.0
 30
0.0
  9
$PUCSORGBACK
 10
0.0
 20
0.0
 30
0.0
  9
$USERI1
 70
     0
  9
$USERI2
 70
     0
  9
$USERI3
 70
     0
  9
$USERI4
 70
     0
  9
$USERI5
 70
     0
  9
$USERR1
 40
0.0
  9
$USERR2
 40
0.0
  9
$USERR3
 40
0.0
  9
$USERR4
 40
0.0
  9
$USERR5
 40
0.0
  9
$WORLDVIEW
 70
     1
  9
$SHADEDGE
 70
     3
  9
$SHADEDIF
 70
    70
  9
$TILEMODE
 70
     1
  9
$MAXACTVP
 70
    64
  9
$PINSBASE
 10
0.0
 20
0.0
 30
0.0
  9
$PLIMCHECK
 70
     0
  9
$PEXTMIN
 10
1.000000000000000E+20
 20
1.000000000000000E+20
 30
1.000000000000000E+20
  9
$PEXTMAX
 10
-1.000000000000000E+20
 20
-1.000000000000000E+20
 30
-1.000000000000000E+20
  9
$PLIMMIN
 10
0.0
 20
0.0
  9
$PLIMMAX
 10
841.0
 20
594.0
  9
$UNITMODE
 70
     0
  9
$VISRETAIN
 70
     1
  9
$PLINEGEN
 70
     0
  9
$PSLTSCALE
 70
     0
  9
$TREEDEPTH
 70
  3020
  9
$CMLSTYLE
  2
STANDARD
  9
$CMLJUST
 70
     0
  9
$CMLSCALE
 40
20.0
  9
$PROXYGRAPHICS
 70
     1
  9
$MEASUREMENT
 70
     1
  9
$CELWEIGHT
370
    -1
  9
$ENDCAPS
280
     0
  9
$JOINSTYLE
280
     0
  9
$LWDISPLAY
290
     0
  9
$INSUNITS
 70
     4
  9
$HYPERLINKBASE
  1

  9
$STYLESHEET
  1
ASAMI.ctb
  9
$XEDIT
290
     1
  9
$CEPSNTYPE
380
     0
  9
$PSTYLEMODE
290
     1
  9
$FINGERPRINTGUID
  2
{AFB28963-8C59-40AE-9337-C84526B81ACE}
  9
$VERSIONGUID
  2
{ECEECC61-0C95-4A59-B1F3-D6B68ABB86F6}
  9
$EXTNAMES
290
     1
  9
$PSVPSCALE
 40
0.0
  9
$OLESTARTUP
290
     0
  0
ENDSEC
  0
SECTION
  2
CLASSES
  0
CLASS
  1
ACDBDICTIONARYWDFLT
  2
AcDbDictionaryWithDefault
  3
ObjectDBX Classes
 90
        0
280
     0
281
     0
  0
CLASS
  1
ACDBPLACEHOLDER
  2
AcDbPlaceHolder
  3
ObjectDBX Classes
 90
        0
280
     0
281
     0
  0
CLASS
  1
LAYOUT
  2
AcDbLayout
  3
ObjectDBX Classes
 90
        0
280
     0
281
     0
  0
CLASS
  1
AMGSETTINGSOBJ
  2
AmgSettingsObj
  3
"AcadM|Product Description: AutoCAD Mechanical 2000|Company: Autodesk"
 90
        0
280
     0
281
     0
  0
CLASS
  1
ACME_DOCUMENT
  2
AcMeDbDoc
  3
AcMeServices
 90
        0
280
     0
281
     0
  0
CLASS
  1
ACMESCOPE
  2
AcMeScope
  3
AcMeServices
 90
        0
280
     0
281
     0
  0
CLASS
  1
ACMECOMMANDHISTORY
  2
AcMeCommandHistory
  3
AcMeServices
 90
        0
280
     0
281
     0
  0
CLASS
  1
DICTIONARYVAR
  2
AcDbDictionaryVar
  3
ObjectDBX Classes
 90
        0
280
     0
281
     0
  0
CLASS
  1
ACIMSYSVARMAN
  2
AcImSysVarManager
  3
AcMeServices
 90
        0
280
     0
281
     0
  0
CLASS
  1
ACIMREALSYSVAR
  2
AcImRealSysVar
  3
AcMeServices
 90
        0
280
     0
281
     0
  0
CLASS
  1
ACIMINTSYSVAR
  2
AcImIntSysVar
  3
AcMeServices
 90
        0
280
     0
281
     0
  0
CLASS
  1
ACMEDRAWINGMAN
  2
AcMeDrawingMan
  3
AcMeServices
 90
        0
280
     0
281
     0
  0
CLASS
  1
ACMEVIEW
  2
AcMeView
  3
AcMeServices
 90
        0
280
     0
281
     0
  0
CLASS
  1
ACDBENTITYCACHE
  2
AcMeEntityCache
  3
AcMeServices
 90
        0
280
     0
281
     0
  0
CLASS
  1
GSMANAGER
  2
AcMeGSManager
  3
AcMeServices
 90
        0
280
     0
281
     0
  0
CLASS
  1
AMDTINTERNALREACTOR
  2
AmdtInternalReactor
  3
AcMeServices
 90
        0
280
     0
281
     0
  0
CLASS
  1
ACMESTATEMGR
  2
AcMeStateMgr
  3
AcMeServices
 90
        0
280
     0
281
     0
  0
CLASS
  1
ACME_DATABASE
  2
AcMeDbDatabase
  3
AcMeServices
 90
        0
280
     0
281
     0
  0
CLASS
  1
ACRFINSADJUSTERMGR
  2
AcRfInsAdjusterMgr
  3
AcMeServices
 90
        0
280
     0
281
     0
  0
CLASS
  1
ACMDATADICTIONARY
  2
AcmDataDictionary
  3
"AcmSymBB|Product Description: AutoCAD Mechanical 2004 DX|Company: Autodesk"
 90
        0
280
     0
281
     0
  0
CLASS
  1
ACMDATAENTRYBLOCK
  2
AcmDataEntryBlock
  3
"AcmSymBB|Product Description: AutoCAD Mechanical 2004 DX|Company: Autodesk"
 90
    32768
280
     0
281
     0
  0
CLASS
  1
AMGOBJPROPCFG
  2
AmgObjPropCfg
  3
"AmgLay|Product Description: AutoCAD Mechanical 2000|Company: Autodesk"
 90
        1
280
     0
281
     0
  0
CLASS
  1
ACAMGFILTERDAT
  2
AcAmgFilterDat
  3
"AcadM|Product Description: AutoCAD Mechanical 2000|Company: Autodesk"
 90
    32768
280
     0
281
     0
  0
CLASS
  1
LAYER_INDEX
  2
AcDbLayerIndex
  3
ObjectDBX Classes
 90
        0
280
     0
281
     0
  0
CLASS
  1
IDBUFFER
  2
AcDbIdBuffer
  3
ObjectDBX Classes
 90
        0
280
     0
281
     0
  0
CLASS
  1
ACIMSTRSYSVAR
  2
AcImStrSysVar
  3
AcMeServices
 90
        0
280
     0
281
     0
  0
CLASS
  1
ACMSTANDARDJIS
  2
AcmStandardJIS
  3
"Amdt_StdImp|Product Description: AutoCAD Mechanical 2004 DX|Company: Autodesk"
 90
        0
280
     0
281
     0
  0
CLASS
  1
ACMSURFSTANDARDJIS
  2
AcmSurfTextStdJIS
  3
"Amdt_StdImp|Product Description: AutoCAD Mechanical 2004 DX|Company: Autodesk"
 90
        0
280
     0
281
     0
  0
CLASS
  1
ACMFCFSTANDARDJIS
  2
AcmFCFStdJIS
  3
"Amdt_StdImp|Product Description: AutoCAD Mechanical 2004 DX|Company: Autodesk"
 90
    32768
280
     0
281
     0
  0
CLASS
  1
ACMWELDSTANDARDJIS
  2
AcmWeldingStdJIS
  3
"Amdt_StdImp|Product Description: AutoCAD Mechanical 2004 DX|Company: Autodesk"
 90
        0
280
     0
281
     0
  0
CLASS
  1
ACMIDSTANDARDJIS
  2
AcmIdStdJIS
  3
"Amdt_StdImp|Product Description: AutoCAD Mechanical 2004 DX|Company: Autodesk"
 90
        0
280
     0
281
     0
  0
CLASS
  1
ACMDATUMSTANDARDJIS
  2
AcmDatumStdJIS
  3
"Amdt_StdImp|Product Description: AutoCAD Mechanical 2004 DX|Company: Autodesk"
 90
        0
280
     0
281
     0
  0
CLASS
  1
ACMBOMSTANDARDJIS
  2
AcmBOMStdJIS
  3
"Amdt_StdImp|Product Description: AutoCAD Mechanical 2004 DX|Company: Autodesk"
 90
        0
280
     0
281
     0
  0
CLASS
  1
ACMSTANDARDANSI
  2
AcmStandardANSI
  3
"Amdt_StdImp|Product Description: AutoCAD Mechanical 2004 DX|Company: Autodesk"
 90
    32768
280
     0
281
     0
  0
CLASS
  1
ACMSURFSTANDARDANSI
  2
AcmSurfTextStdANSI
  3
"Amdt_StdImp|Product Description: AutoCAD Mechanical 2004 DX|Company: Autodesk"
 90
    32768
280
     0
281
     0
  0
CLASS
  1
ACMFCFSTANDARDANSI
  2
AcmFCFStdANSI
  3
"Amdt_StdImp|Product Description: AutoCAD Mechanical 2004 DX|Company: Autodesk"
 90
    32768
280
     0
281
     0
  0
CLASS
  1
ACMWELDSTANDARDANSI
  2
AcmWeldingStdANSI
  3
"Amdt_StdImp|Product Description: AutoCAD Mechanical 2004 DX|Company: Autodesk"
 90
    32768
280
     0
281
     0
  0
CLASS
  1
ACMIDSTANDARDANSI
  2
AcmIdStdANSI
  3
"Amdt_StdImp|Product Description: AutoCAD Mechanical 2004 DX|Company: Autodesk"
 90
    32768
280
     0
281
     0
  0
CLASS
  1
ACMDATUMSTANDARDANSI
  2
AcmDatumStdANSI
  3
"Amdt_StdImp|Product Description: AutoCAD Mechanical 2004 DX|Company: Autodesk"
 90
    32768
280
     0
281
     0
  0
CLASS
  1
ACMBOMSTANDARDANSI
  2
AcmBOMStdANSI
  3
"Amdt_StdImp|Product Description: AutoCAD Mechanical 2004 DX|Company: Autodesk"
 90
    32768
280
     0
281
     0
  0
CLASS
  1
ACMSTANDARDBSI
  2
AcmStandardBSI
  3
"Amdt_StdImp|Product Description: AutoCAD Mechanical 2004 DX|Company: Autodesk"
 90
    32768
280
     0
281
     0
  0
CLASS
  1
ACMSURFSTANDARDBSI
  2
AcmSurfTextStdBSI
  3
"Amdt_StdImp|Product Description: AutoCAD Mechanical 2004 DX|Company: Autodesk"
 90
    32768
280
     0
281
     0
  0
CLASS
  1
ACMFCFSTANDARDBSI
  2
AcmFCFStdBSI
  3
"Amdt_StdImp|Product Description: AutoCAD Mechanical 2004 DX|Company: Autodesk"
 90
    32768
280
     0
281
     0
  0
CLASS
  1
ACMWELDSTANDARDBSI
  2
AcmWeldingStdBSI
  3
"Amdt_StdImp|Product Description: AutoCAD Mechanical 2004 DX|Company: Autodesk"
 90
    32768
280
     0
281
     0
  0
CLASS
  1
ACMIDSTANDARDBSI
  2
AcmIdStdBSI
  3
"Amdt_StdImp|Product Description: AutoCAD Mechanical 2004 DX|Company: Autodesk"
 90
    32768
280
     0
281
     0
  0
CLASS
  1
ACMDATUMSTANDARDBSI
  2
AcmDatumStdBSI
  3
"Amdt_StdImp|Product Description: AutoCAD Mechanical 2004 DX|Company: Autodesk"
 90
    32768
280
     0
281
     0
  0
CLASS
  1
ACMBOMSTANDARDBSI
  2
AcmBOMStdBSI
  3
"Amdt_StdImp|Product Description: AutoCAD Mechanical 2004 DX|Company: Autodesk"
 90
    32768
280
     0
281
     0
  0
CLASS
  1
STDPART2D
  2
AmgStdPart
  3
"AmgStdPart|Product Description: AutoCAD Mechanical 2000|Company: Autodesk"
 90
    33791
280
     0
281
     1
  0
CLASS
  1
PLOTSETTINGS
  2
AcDbPlotSettings
  3
ObjectDBX Classes
 90
        0
280
     0
281
     0
  0
CLASS
  1
TABLESTYLE
  2
AcDbTableStyle
  3
ObjectDBX Classes
 90
     2047
280
     0
281
     0
  0
CLASS
  1
ACGREFMASTER
  2
AcGrefMaster
  3
AcAttribServices
 90
        0
280
     0
281
     0
  0
CLASS
  1
AM_DRAWING_MGR
  2
AcDmDwgMgr
  3
AcMechDwgViewMgmt
 90
        0
280
     0
281
     0
  0
CLASS
  1
AM_DWG_DOCUMENT
  2
AcDmDwgDocument
  3
AcMechDwgViewMgmt
 90
        0
280
     0
281
     0
  0
CLASS
  1
AM_DWG_SHEET
  2
AcDmSheet
  3
AcMechDwgViewMgmt
 90
        0
280
     0
281
     0
  0
CLASS
  1
AM_VIEWDIMPARMAP
  2
AcDmViewDimParMap
  3
AcMechDwgViewMgmt
 90
        0
280
     0
281
     0
  0
CLASS
  1
AM_DWGMGR_NAME
  2
AcDmDwgMgrName
  3
AcMechDwgViewMgmt
 90
        0
280
     0
281
     0
  0
CLASS
  1
ACGREFACADMASTER
  2
AcGrefacadMaster
  3
AcGrefServices
 90
        0
280
     0
281
     0
  0
CLASS
  1
AMDTMENUSTATEMGR
  2
AmdtMenuStateMgr
  3
McadcomServices
 90
        0
280
     0
281
     0
  0
CLASS
  1
AMDTMCOMMENUSTATE
  2
AmdtMcomMenuState
  3
McadcomServices
 90
        0
280
     0
281
     0
  0
CLASS
  1
AMIMASTER
  2
AmiMaster
  3
AmiServices
 90
        0
280
     0
281
     0
  0
CLASS
  1
MAPIAMMOUDLE
  2
MApiAmModule
  3
MApiAmServices
 90
        0
280
     0
281
     0
  0
CLASS
  1
AMDTADMENUSTATE
  2
AmdtAdMenuState
  3
DesignerServices
 90
        0
280
     0
281
     0
  0
CLASS
  1
ADAPPL
  2
AcAdAppl
  3
DesignerServices
 90
        0
280
     0
281
     0
  0
CLASS
  1
DEPMGR
  2
AcAdDepMgr
  3
DesignerServices
 90
        0
280
     0
281
     0
  0
CLASS
  1
PARAMMGR
  2
AcAdParamMgr
  3
DesignerServices
 90
        0
280
     0
281
     0
  0
CLASS
  1
PARAMSCOPE
  2
AcAdParamScope
  3
DesignerServices
 90
        0
280
     0
281
     0
  0
CLASS
  1
NAMEDAPPL
  2
AcAdNamedAppl
  3
DesignerServices
 90
        0
280
     0
281
     0
  0
CLASS
  1
AMDTDMMENUSTATE
  2
AmdtDmMenuState
  3
AcMechDwgViewMgmt
 90
        0
280
     0
281
     0
  0
CLASS
  1
AMDTAMMENUSTATE
  2
AmdtAmMenuState
  3
DesignerAssemblies
 90
        0
280
     0
281
     0
  0
CLASS
  1
ACAMPROJECT
  2
AcAmProject
  3
DesignerAssemblies
 90
        0
280
     0
281
     0
  0
CLASS
  1
ACAMGRCOMPDEF
  2
AcAmGrCompDef
  3
DesignerAssemblies
 90
        0
280
     0
281
     0
  0
CLASS
  1
ACCMCONTEXT
  2
AcCmContext
  3
DesignerAssemblies
 90
        0
280
     0
281
     0
  0
CLASS
  1
ACAMCOMPDEF
  2
AcAmCompDef
  3
DesignerAssemblies
 90
        0
280
     0
281
     0
  0
CLASS
  1
ACAMCOMPDEFMGR
  2
AcAmCompDefMgr
  3
DesignerAssemblies
 90
        0
280
     0
281
     0
  0
CLASS
  1
AMCONTEXTMGR
  2
AcAmContextMgr
  3
DesignerAssemblies
 90
        0
280
     0
281
     0
  0
CLASS
  1
ACAMCONTEXTMODELER
  2
AcAmContextModeler
  3
DesignerAssemblies
 90
        0
280
     0
281
     0
  0
CLASS
  1
CATALOGSTATE
  2
AcAmCatalogState
  3
DesignerAssemblies
 90
        0
280
     0
281
     0
  0
CLASS
  1
ACAMGRCOMPDEFSET
  2
AcAmGrCompDefSet
  3
DesignerAssemblies
 90
        0
280
     0
281
     0
  0
CLASS
  1
AMDTBROWSERDBTAB
  2
AmdtBrowserDbTab
  3
McadcomServices
 90
        0
280
     0
281
     0
  0
CLASS
  1
CBROWSERAPPOBJECT
  2
CBrowserAppObject
  3
McadcomServices
 90
        0
280
     0
281
     0
  0
CLASS
  1
DM_PLACEHOLDER
  2
AcDmSelsetPlaceholder
  3
AcMechDwgViewMgmt
 90
        0
280
     0
281
     0
  0
CLASS
  1
ACMSTANDARDISO
  2
AcmStandardISO
  3
"Amdt_StdImp|Product Description: AutoCAD Mechanical 2004 DX|Company: Autodesk"
 90
        0
280
     0
281
     0
  0
CLASS
  1
AMDTEDGESTANDARDISO
  2
AmdtEdgeStdISO
  3
"Amdt_StdImp|Product Description: AutoCAD Mechanical 2004 DX|Company: Autodesk"
 90
        0
280
     0
281
     0
  0
CLASS
  1
ACMSURFSTANDARDISO
  2
AcmSurfTextStdISO
  3
"Amdt_StdImp|Product Description: AutoCAD Mechanical 2004 DX|Company: Autodesk"
 90
        0
280
     0
281
     0
  0
CLASS
  1
ACMFCFSTANDARDISO
  2
AcmFCFStdISO
  3
"Amdt_StdImp|Product Description: AutoCAD Mechanical 2004 DX|Company: Autodesk"
 90
        0
280
     0
281
     0
  0
CLASS
  1
ACMWELDSTANDARDISO
  2
AcmWeldingStdISO
  3
"Amdt_StdImp|Product Description: AutoCAD Mechanical 2004 DX|Company: Autodesk"
 90
        0
280
     0
281
     0
  0
CLASS
  1
ACMIDSTANDARDISO
  2
AcmIdStdISO
  3
"Amdt_StdImp|Product Description: AutoCAD Mechanical 2004 DX|Company: Autodesk"
 90
        0
280
     0
281
     0
  0
CLASS
  1
ACMDATUMSTANDARDISO
  2
AcmDatumStdISO
  3
"Amdt_StdImp|Product Description: AutoCAD Mechanical 2004 DX|Company: Autodesk"
 90
        0
280
     0
281
     0
  0
CLASS
  1
ACMBOMSTANDARDISO
  2
AcmBOMStdISO
  3
"Amdt_StdImp|Product Description: AutoCAD Mechanical 2004 DX|Company: Autodesk"
 90
        0
280
     0
281
     0
  0
CLASS
  1
ACMDETAILSTANDARDISO
  2
AmdtDetailSymStdISO
  3
"Amdt_StdImp|Product Description: AutoCAD Mechanical 2004 DX|Company: Autodesk"
 90
        0
280
     0
281
     0
  0
CLASS
  1
ACMSECTIONSTANDARDISO
  2
AmdtSectionSymStdISO
  3
"Amdt_StdImp|Product Description: AutoCAD Mechanical 2004 DX|Company: Autodesk"
 90
        0
280
     0
281
     0
  0
CLASS
  1
ACMCENTERLINESTANDARDISO
  2
AmdtCenterLineStdISO
  3
"Amdt_StdImp|Product Description: AutoCAD Mechanical 2004 DX|Company: Autodesk"
 90
        0
280
     0
281
     0
  0
CLASS
  1
ACMNOTESTANDARDISO
  2
AmdtNoteStdISO
  3
"Amdt_StdImp|Product Description: AutoCAD Mechanical 2004 DX|Company: Autodesk"
 90
        0
280
     0
281
     0
  0
CLASS
  1
AMDTNOTETEMPLATEDB
  2
AmdtNoteTemplateDB
  3
AMDT_STDIMP_MODULE_NAME
 90
        0
280
     0
281
     0
  0
CLASS
  1
ACAMGLAYSTD
  2
AcAmgLayStd
  3
"AcAmgLayStd|Product Description: AutoCAD Mechanical 2000|Company: Autodesk"
 90
        0
280
     0
281
     0
  0
CLASS
  1
ACAMGDIMSTD
  2
AcAmgDimStd
  3
"AcAmgDimStd|Product Description: AutoCAD Mechanical 2000|Company: Autodesk"
 90
        0
280
     0
281
     0
  0
CLASS
  1
ACAMGHOLECHARTSTDISO
  2
AcAmgHoleChartStdISO
  3
ACMSYMBB_MODULE_NAME
 90
        0
280
     0
281
     0
  0
CLASS
  1
ACAMGTITLESTD
  2
AcAmgTitleStd
  3
"TITLEAPP"
 90
        0
280
     0
281
     0
  0
CLASS
  1
ACMTHREADLINESTANDARDISO
  2
AmdtThreadLineStdISO
  3
"Amdt_StdImp|Product Description: AutoCAD Mechanical 2004 DX|Company: Autodesk"
 90
        0
280
     0
281
     0
  0
CLASS
  1
ACMFCFSTANDARDJIS98
  2
AcmFCFStdJIS98
  3
"Amdt_StdImp|Product Description: AutoCAD Mechanical 2004 DX|Company: Autodesk"
 90
        0
280
     0
281
     0
  0
CLASS
  1
ACMDETAILSTANDARDJIS
  2
AmdtDetailSymStdJIS
  3
"Amdt_StdImp|Product Description: AutoCAD Mechanical 2004 DX|Company: Autodesk"
 90
        0
280
     0
281
     0
  0
CLASS
  1
ACMSECTIONSTANDARDJIS
  2
AmdtSectionSymStdJIS
  3
"Amdt_StdImp|Product Description: AutoCAD Mechanical 2004 DX|Company: Autodesk"
 90
        0
280
     0
281
     0
  0
CLASS
  1
ACMCENTERLINESTANDARDJIS
  2
AmdtCenterLineStdJIS
  3
"Amdt_StdImp|Product Description: AutoCAD Mechanical 2004 DX|Company: Autodesk"
 90
        0
280
     0
281
     0
  0
CLASS
  1
ACMTHREADLINESTANDARDJIS
  2
AmdtThreadLineStdJIS
  3
"Amdt_StdImp|Product Description: AutoCAD Mechanical 2004 DX|Company: Autodesk"
 90
        0
280
     0
281
     0
  0
CLASS
  1
ACMNOTESTANDARDJIS
  2
AmdtNoteStdJIS
  3
"Amdt_StdImp|Product Description: AutoCAD Mechanical 2004 DX|Company: Autodesk"
 90
        0
280
     0
281
     0
  0
CLASS
  1
ACAMGHOLECHARTSTDJIS
  2
AcAmgHoleChartStdJIS
  3
ACMSYMBB_MODULE_NAME
 90
        0
280
     0
281
     0
  0
ENDSEC
  0
SECTION
  2
TABLES
  0
TABLE
  2
VPORT
  5
8
330
0
100
AcDbSymbolTable
 70
     3
  0
VPORT
  5
C0E8
330
8
100
AcDbSymbolTableRecord
100
AcDbViewportTableRecord
  2
*Active
 70
     0
 10
0.0
 20
0.0
 11
1.0
 21
1.0
 12
-104.179984402414
 22
-11.87538471559591
 13
0.0
 23
0.0
 14
2.5
 24
2.5
 15
10.0
 25
10.0
 16
0.0
 26
0.0
 36
1.0
 17
0.0
 27
0.0
 37
0.0
 40
210.0341209422783
 41
1.732758620689655
 42
50.0
 43
0.0
 44
0.0
 50
0.0
 51
0.0
 71
     0
 72
   100
 73
     1
 74
     3
 75
     0
 76
     0
 77
     0
 78
     0
281
     0
 65
     1
110
-0.0000000000002682
120
0.000000000000161
130
0.0
111
1.0
121
0.000000000000002
131
0.0
112
-0.000000000000002
122
1.0
132
0.0
 79
     0
146
0.0
  0
ENDTAB
  0
TABLE
  2
LTYPE
  5
5
330
0
100
AcDbSymbolTable
 70
    17
  0
LTYPE
  5
14
330
5
100
AcDbSymbolTableRecord
100
AcDbLinetypeTableRecord
  2
BYBLOCK
 70
     0
  3

 72
    65
 73
     0
 40
0.0
  0
LTYPE
  5
15
330
5
100
AcDbSymbolTableRecord
100
AcDbLinetypeTableRecord
  2
BYLAYER
 70
     0
  3

 72
    65
 73
     0
 40
0.0
  0
LTYPE
  5
16
330
5
100
AcDbSymbolTableRecord
100
AcDbLinetypeTableRecord
  2
CONTINUOUS
 70
     0
  3
Solid line
 72
    65
 73
     0
 40
0.0
  0
LTYPE
  5
4B
330
5
100
AcDbSymbolTableRecord
100
AcDbLinetypeTableRecord
  2
AM_ISO02W050
 70
     0
  3
__ __ __ __ __ __ __ __ __ __ __ __ __ __ __
 72
    65
 73
     2
 40
7.5
 49
6.0
 74
     0
 49
-1.5
 74
     0
  0
LTYPE
  5
4C
330
5
100
AcDbSymbolTableRecord
100
AcDbLinetypeTableRecord
  2
AM_ISO08W050
 70
     0
  3
____ . ____ . ____ . ____ . ____ . ____ . ____
 72
    65
 73
     4
 40
18.0
 49
12.0
 74
     0
 49
-1.5
 74
     0
 49
3.0
 74
     0
 49
-1.5
 74
     0
  0
LTYPE
  5
4D
330
5
100
AcDbSymbolTableRecord
100
AcDbLinetypeTableRecord
  2
AM_ISO09W050
 70
     0
  3
_____ . . _____ . . _____ . . ____ .. ____
 72
    65
 73
     6
 40
22.5
 49
12.0
 74
     0
 49
-1.5
 74
     0
 49
3.0
 74
     0
 49
-1.5
 74
     0
 49
3.0
 74
     0
 49
-1.5
 74
     0
  0
LTYPE
  5
4E
330
5
100
AcDbSymbolTableRecord
100
AcDbLinetypeTableRecord
  2
Amconstr
 70
     0
  3
_______________________
 72
    65
 73
     2
 40
9999.0
 49
9999.0
 74
     0
 49
0.0
 74
     0
  0
LTYPE
  5
4F
330
5
100
AcDbSymbolTableRecord
100
AcDbLinetypeTableRecord
  2
AM_ISO02W050x2
 70
     0
  3
 _ _ _ _ _ _ _ _ _ _ _ _
 72
    65
 73
     2
 40
3.75
 49
3.0
 74
     0
 49
-0.75
 74
     0
  0
LTYPE
  5
50
330
5
100
AcDbSymbolTableRecord
100
AcDbLinetypeTableRecord
  2
AM_ISO08W050x2
 70
     0
  3
__ . __ . __ . __ . __ . __
 72
    65
 73
     4
 40
9.0
 49
6.0
 74
     0
 49
-0.75
 74
     0
 49
1.5
 74
     0
 49
-0.75
 74
     0
  0
LTYPE
  5
53
330
5
100
AcDbSymbolTableRecord
100
AcDbLinetypeTableRecord
  2
Amzigzag
 70
     0
  3
/\/-/\/-/\/-/\/-/\/-/\/
 72
    65
 73
     2
 40
11.0001
 49
0.0001
 74
     4
 75
   135
340
52
 46
0.04
 50
0.0
 44
0.0
 45
0.0
 49
-11.0
 74
     0
  0
LTYPE
  5
166
330
5
100
AcDbSymbolTableRecord
100
AcDbLinetypeTableRecord
  2
ACJISTGL
 70
     0
  3
_ _ _ _ _
 72
    65
 73
     2
 40
3.0
 49
2.0
 74
     0
 49
-1.0
 74
     0
  0
LTYPE
  5
26A
330
5
100
AcDbSymbolTableRecord
100
AcDbLinetypeTableRecord
  2
ACJISTGB
 70
     0
  3
__ . . __ . .
 72
    65
 73
     6
 40
9.0
 49
4.0
 74
     0
 49
-1.0
 74
     0
 49
1.0
 74
     0
 49
-1.0
 74
     0
 49
1.0
 74
     0
 49
-1.0
 74
     0
  0
LTYPE
  5
C05E
330
5
100
AcDbSymbolTableRecord
100
AcDbLinetypeTableRecord
  2
HIDDEN
 70
     0
  3
Hidden __ __ __ __ __ __ __ __ __ __ __ __ __ _
 72
    65
 73
     2
 40
9.524999999999998
 49
6.349999999999999
 74
     0
 49
-3.174999999999999
 74
     0
  0
LTYPE
  5
C05F
330
5
100
AcDbSymbolTableRecord
100
AcDbLinetypeTableRecord
  2
PHANTOM2
 70
     0
  3
Phantom (.5x) ___ _ _ ___ _ _ ___ _ _ ___ _ _
 72
    65
 73
     6
 40
31.75
 49
15.875
 74
     0
 49
-3.174999999999999
 74
     0
 49
3.174999999999999
 74
     0
 49
-3.174999999999999
 74
     0
 49
3.174999999999999
 74
     0
 49
-3.174999999999999
 74
     0
  0
LTYPE
  5
C060
330
5
100
AcDbSymbolTableRecord
100
AcDbLinetypeTableRecord
  2
CENTER
 70
     0
  3
__ . __
 72
    65
 73
     4
 40
7.0
 49
4.0
 74
     0
 49
-1.0
 74
     0
 49
1.0
 74
     0
 49
-1.0
 74
     0
  0
LTYPE
  5
C091
330
5
100
AcDbSymbolTableRecord
100
AcDbLinetypeTableRecord
  2
ACISOWELD
 70
     0
  3
_ _ _ _ _
 72
    65
 73
     2
 40
2.0
 49
2.0
 74
     0
 49
-1.0
 74
     0
  0
LTYPE
  5
C094
330
5
100
AcDbSymbolTableRecord
100
AcDbLinetypeTableRecord
  2
ACISOTGB
 70
     0
  3
__ . . __ . .
 72
    65
 73
     6
 40
9.0
 49
4.0
 74
     0
 49
-1.0
 74
     0
 49
1.0
 74
     0
 49
-1.0
 74
     0
 49
1.0
 74
     0
 49
-1.0
 74
     0
  0
LTYPE
  5
C095
330
5
100
AcDbSymbolTableRecord
100
AcDbLinetypeTableRecord
  2
ACISOTGL
 70
     0
  3
_ _ _ _ _
 72
    65
 73
     2
 40
3.0
 49
2.0
 74
     0
 49
-1.0
 74
     0
  0
LTYPE
  5
C0BE
330
5
100
AcDbSymbolTableRecord
100
AcDbLinetypeTableRecord
  2
ACJISWELD
 70
     0
  3
_ _ _ _ _
 72
    65
 73
     2
 40
2.0
 49
2.0
 74
     0
 49
-1.0
 74
     0
  0
ENDTAB
  0
TABLE
  2
LAYER
  5
2
330
0
100
AcDbSymbolTable
 70
     7
  0
LAYER
  5
10
330
2
100
AcDbSymbolTableRecord
100
AcDbLayerTableRecord
  2
0
 70
     0
 62
     7
  6
CONTINUOUS
370
    -3
390
F
  0
LAYER
  5
3F9
330
2
100
AcDbSymbolTableRecord
100
AcDbLayerTableRecord
  2
AM_0
 70
     0
 62
     7
  6
CONTINUOUS
370
    -3
390
F
  0
LAYER
  5
BA4
330
2
100
AcDbSymbolTableRecord
100
AcDbLayerTableRecord
  2
AM_5
 70
     0
 62
     3
  6
CONTINUOUS
370
    -3
390
F
  0
LAYER
  5
BA6
330
2
100
AcDbSymbolTableRecord
100
AcDbLayerTableRecord
  2
AM_7
 70
     0
 62
     4
  6
AM_ISO08W050
370
    -3
390
F
  0
LAYER
  5
E64
330
2
100
AcDbSymbolTableRecord
100
AcDbLayerTableRecord
  2
AM_6
 70
     0
 62
     2
  6
CONTINUOUS
370
    -3
390
F
  0
LAYER
  5
F4D
330
2
100
AcDbSymbolTableRecord
100
AcDbLayerTableRecord
  2
DEFPOINTS
 70
     0
 62
     7
  6
CONTINUOUS
290
     0
370
    -3
390
F
  0
LAYER
  5
4E80
330
2
100
AcDbSymbolTableRecord
100
AcDbLayerTableRecord
  2
AM_11
 70
     0
 62
     3
  6
AM_ISO09W050
370
    -3
390
F
  0
ENDTAB
  0
TABLE
  2
STYLE
  5
3
330
0
100
AcDbSymbolTable
 70
     7
  0
STYLE
  5
11
330
3
100
AcDbSymbolTableRecord
100
AcDbTextStyleTableRecord
  2
STANDARD
 70
     0
 40
0.0
 41
1.0
 50
0.0
 71
     0
 42
2.5
  3
simplex.shx
  4
EXTFONT.SHX
  0
STYLE
  5
52
330
3
100
AcDbSymbolTableRecord
100
AcDbTextStyleTableRecord
  2

 70
     1
 40
0.0
 41
1.0
 50
0.0
 71
     0
 42
2.5
  3
ltypeshp.shx
  4

  0
STYLE
  5
6B
330
3
100
AcDbSymbolTableRecord
100
AcDbTextStyleTableRecord
  2
ASAMI
 70
     0
 40
0.0
 41
1.0
 50
0.0
 71
     0
 42
2.5
  3
simplex.shx
  4
EXTFONT.SHX
  0
STYLE
  5
262
330
3
100
AcDbSymbolTableRecord
100
AcDbTextStyleTableRecord
  2
ACJISTS
 70
     0
 40
1.0
 41
1.0
 50
0.0
 71
     0
 42
1.0
  3
isocp.shx
  4
extfont.shx
  0
STYLE
  5
269
330
3
100
AcDbSymbolTableRecord
100
AcDbTextStyleTableRecord
  2
ACJISGDT
 70
     0
 40
0.0
 41
1.0
 50
0.0
 71
     0
 42
1.0
  3
amgdt.shx
  4

  0
STYLE
  5
C08B
330
3
100
AcDbSymbolTableRecord
100
AcDbTextStyleTableRecord
  2
ACISOTS
 70
     0
 40
3.5
 41
1.0
 50
5.0
 71
     0
 42
3.799999999999999
  3
isocp.shx
  4
extfont.shx
  0
STYLE
  5
C08F
330
3
100
AcDbSymbolTableRecord
100
AcDbTextStyleTableRecord
  2
ACISOGDT
 70
     0
 40
0.0
 41
1.0
 50
0.0
 71
     0
 42
2.5
  3
amgdt.shx
  4
extfont.shx
  0
ENDTAB
  0
TABLE
  2
VIEW
  5
6
330
0
100
AcDbSymbolTable
 70
     0
  0
ENDTAB
  0
TABLE
  2
UCS
  5
7
330
0
100
AcDbSymbolTable
 70
     0
  0
ENDTAB
  0
TABLE
  2
APPID
  5
9
330
0
100
AcDbSymbolTable
 70
    36
  0
APPID
  5
12
330
9
100
AcDbSymbolTableRecord
100
AcDbRegAppTableRecord
  2
ACAD
 70
     0
  0
APPID
  5
30
330
9
100
AcDbSymbolTableRecord
100
AcDbRegAppTableRecord
  2
MCAD_NO_VIS
 70
     0
  0
APPID
  5
31
330
9
100
AcDbSymbolTableRecord
100
AcDbRegAppTableRecord
  2
ACAD_TEMP_GRAPHIC
 70
     0
  0
APPID
  5
2C2
330
9
100
AcDbSymbolTableRecord
100
AcDbRegAppTableRecord
  2
GENIUS_GENDTOL_13
 70
     0
  0
APPID
  5
339
330
9
100
AcDbSymbolTableRecord
100
AcDbRegAppTableRecord
  2
GENIUS_GENODEF_13
 70
     0
  0
APPID
  5
33A
330
9
100
AcDbSymbolTableRecord
100
AcDbRegAppTableRecord
  2
GENIUS_GENOBJ-N-RSBK_13
 70
     0
  0
APPID
  5
33B
330
9
100
AcDbSymbolTableRecord
100
AcDbRegAppTableRecord
  2
GENIUS_GENOBJ-N-LIB_13
 70
     0
  0
APPID
  5
33C
330
9
100
AcDbSymbolTableRecord
100
AcDbRegAppTableRecord
  2
GENIUS_GENSCALE_13
 70
     0
  0
APPID
  5
378
330
9
100
AcDbSymbolTableRecord
100
AcDbRegAppTableRecord
  2
GENIUS_GENDIMSH_14
 70
     0
  0
APPID
  5
BB0
330
9
100
AcDbSymbolTableRecord
100
AcDbRegAppTableRecord
  2
GENIUS_GENOBJ-N-CEN_13
 70
     0
  0
APPID
  5
BB1
330
9
100
AcDbSymbolTableRecord
100
AcDbRegAppTableRecord
  2
GENIUS_GENFIL_13
 70
     0
  0
APPID
  5
BB2
330
9
100
AcDbSymbolTableRecord
100
AcDbRegAppTableRecord
  2
GENIUS_GENOBJ-N-CHA_13
 70
     0
  0
APPID
  5
1FAF
330
9
100
AcDbSymbolTableRecord
100
AcDbRegAppTableRecord
  2
GENIUS_GENOBJ-N-CRS_13
 70
     0
  0
APPID
  5
1FB0
330
9
100
AcDbSymbolTableRecord
100
AcDbRegAppTableRecord
  2
GENIUS_GENOENT_13
 70
     0
  0
APPID
  5
1FB1
330
9
100
AcDbSymbolTableRecord
100
AcDbRegAppTableRecord
  2
GENIUS_GENOREF_13
 70
     0
  0
APPID
  5
1FB2
330
9
100
AcDbSymbolTableRecord
100
AcDbRegAppTableRecord
  2
GENIUS_GENOLIS_13
 70
     0
  0
APPID
  5
1FB7
330
9
100
AcDbSymbolTableRecord
100
AcDbRegAppTableRecord
  2
GENIUS_GENOBJ-N-FIL_13
 70
     0
  0
APPID
  5
22A8
330
9
100
AcDbSymbolTableRecord
100
AcDbRegAppTableRecord
  2
GEVID1056506048
 70
     0
  0
APPID
  5
22A9
330
9
100
AcDbSymbolTableRecord
100
AcDbRegAppTableRecord
  2
GEVDC
 70
     0
  0
APPID
  5
22AC
330
9
100
AcDbSymbolTableRecord
100
AcDbRegAppTableRecord
  2
GENIUS_GENBH_13
 70
     0
  0
APPID
  5
22B8
330
9
100
AcDbSymbolTableRecord
100
AcDbRegAppTableRecord
  2
GENIUS_GENOBJ-NBEHI-BHF_13
 70
     0
  0
APPID
  5
22BA
330
9
100
AcDbSymbolTableRecord
100
AcDbRegAppTableRecord
  2
GENIUS_GENOBJ-NBEHI-BHB_13
 70
     0
  0
APPID
  5
35C9
330
9
100
AcDbSymbolTableRecord
100
AcDbRegAppTableRecord
  2
GENIUS_GENREC_14
 70
     0
  0
APPID
  5
35CA
330
9
100
AcDbSymbolTableRecord
100
AcDbRegAppTableRecord
  2
GENIUS_GENOBJ-N-REC_13
 70
     0
  0
APPID
  5
C024
330
9
100
AcDbSymbolTableRecord
100
AcDbRegAppTableRecord
  2
ACATTRIBSERVICES
 70
     0
  0
APPID
  5
C025
330
9
100
AcDbSymbolTableRecord
100
AcDbRegAppTableRecord
  2
AD_DRAW
 70
     0
  0
APPID
  5
C026
330
9
100
AcDbSymbolTableRecord
100
AcDbRegAppTableRecord
  2
DESIGNERASSEMBLIES
 70
     0
  0
APPID
  5
C027
330
9
100
AcDbSymbolTableRecord
100
AcDbRegAppTableRecord
  2
ACADM_DIM_EDIT
 70
     0
  0
APPID
  5
C028
330
9
100
AcDbSymbolTableRecord
100
AcDbRegAppTableRecord
  2
AMDT_DM_ADJ
 70
     0
  0
APPID
  5
C029
330
9
100
AcDbSymbolTableRecord
100
AcDbRegAppTableRecord
  2
ACAD_DSTYLE_DIMTEXT_FILL
 70
     0
  0
APPID
  5
C02A
330
9
100
AcDbSymbolTableRecord
100
AcDbRegAppTableRecord
  2
ACAD_PSEXT
 70
     0
  0
APPID
  5
C02B
330
9
100
AcDbSymbolTableRecord
100
AcDbRegAppTableRecord
  2
ACAD_DIMASSOC_DIMLFAC
 70
     0
  0
APPID
  5
C02C
330
9
100
AcDbSymbolTableRecord
100
AcDbRegAppTableRecord
  2
ACAD_DIMASSOC_CALC_DIMLFAC
 70
     0
  0
APPID
  5
C02D
330
9
100
AcDbSymbolTableRecord
100
AcDbRegAppTableRecord
  2
ACAD_DIMASSOC_OVERRIDDEN_DIMLFAC
 70
     0
  0
APPID
  5
C0E2
330
9
100
AcDbSymbolTableRecord
100
AcDbRegAppTableRecord
  2
GENIUS_GENSCREG_15
 70
     0
  0
APPID
  5
C0E3
330
9
100
AcDbSymbolTableRecord
100
AcDbRegAppTableRecord
  2
GENIUS_GENOBJ-N-SDF_13
 70
     0
  0
ENDTAB
  0
TABLE
  2
DIMSTYLE
  5
A
330
0
100
AcDbSymbolTable
 70
    16
100
AcDbDimStyleTable
 71
     0
  0
DIMSTYLE
105
58
330
A
100
AcDbSymbolTableRecord
100
AcDbDimStyleTableRecord
  2
AM_JIS
 70
     0
  4
"
 41
2.699999999999999
 42
0.0
 43
7.0
 44
0.5
 47
0.1
 48
0.1000000001
 73
     0
 74
     0
 77
     3
 78
     8
 79
     2
140
3.5
141
0.0
143
0.0393701
146
0.71
147
1.0
172
     1
176
     3
177
     3
178
     2
179
     1
271
     2
272
     2
275
     1
283
     0
284
     8
340
11
341
59
342
59
371
    -1
372
    -1
  0
DIMSTYLE
105
5F
330
A
100
AcDbSymbolTableRecord
100
AcDbDimStyleTableRecord
  2
AM_JIS$3
 70
     0
  4
"
 41
2.699999999999999
 42
1.0
 43
10.0
 44
1.0
 47
0.1
 48
0.1000000001
 73
     0
 77
     3
 78
     8
 79
     2
140
3.799999999999999
141
0.0
143
0.0393701
146
0.71
147
1.5
176
   256
177
   256
178
     2
271
     2
272
     2
275
     1
283
     0
284
     8
288
     1
289
     0
340
11
341
59
342
59
371
    -1
372
    -1
  0
DIMSTYLE
105
60
330
A
100
AcDbSymbolTableRecord
100
AcDbDimStyleTableRecord
  2
AM_JIS$4
 70
     0
  4
"
 41
2.699999999999999
 42
1.0
 43
10.0
 44
1.0
 47
0.1
 48
0.1000000001
 73
     0
 77
     3
 78
     8
 79
     2
140
3.799999999999999
141
0.0
143
0.0393701
146
0.71
147
1.5
176
   256
177
   256
178
     2
271
     2
272
     2
275
     1
283
     0
284
     8
288
     1
289
     0
340
11
341
59
342
59
371
    -1
372
    -1
  0
DIMSTYLE
105
61
330
A
100
AcDbSymbolTableRecord
100
AcDbDimStyleTableRecord
  2
AM_JIS$6
 70
     0
  4
"
 41
2.699999999999999
 42
1.0
 43
10.0
 44
1.0
 47
0.1
 48
0.1000000001
 73
     0
 74
     0
 78
     8
 79
     2
140
3.799999999999999
141
0.0
143
0.0393701
146
0.71
147
1.5
172
     1
176
   256
177
   256
178
     2
271
     2
272
     2
275
     1
283
     0
284
     8
340
11
341
59
342
59
371
    -1
372
    -1
  0
DIMSTYLE
105
62
330
A
100
AcDbSymbolTableRecord
100
AcDbDimStyleTableRecord
  2
AM_JIS$7
 70
     0
  4
"
 41
2.699999999999999
 42
1.0
 43
10.0
 44
1.0
 47
0.1
 48
0.1000000001
 73
     0
 74
     0
 77
     3
 78
     8
 79
     2
140
3.5
141
0.0
143
0.0393701
146
0.71
147
1.5
172
     1
176
     3
177
   256
178
     2
271
     2
272
     2
275
     1
283
     0
284
     8
340
11
341
59
342
59
371
    -1
372
    -1
  0
DIMSTYLE
105
63
330
A
100
AcDbSymbolTableRecord
100
AcDbDimStyleTableRecord
  2
AM_JIS$SF
 70
     0
  4
"
 41
2.5
 42
1.0
 43
10.0
 44
1.0
 47
0.1
 48
0.1
 73
     0
 74
     0
 75
     1
 76
     1
 77
     3
 78
     8
 79
     2
140
3.5
141
0.0
143
0.0393701
146
0.71
147
1.5
172
     1
176
   256
177
   256
178
     2
271
     2
272
     3
274
     4
283
     0
284
     8
340
11
341
59
342
59
343
59
344
59
371
    -1
372
    -1
  0
DIMSTYLE
105
68
330
A
100
AcDbSymbolTableRecord
100
AcDbDimStyleTableRecord
  2
AM_JIS$SH
 70
     0
  4
"
 41
2.5
 42
1.0
 43
10.0
 44
1.0
 47
0.1
 48
0.1
 73
     0
 74
     0
 75
     1
 76
     1
 77
     3
 78
     8
 79
     2
140
3.5
141
0.0
143
0.0393701
144
2.0
146
0.71
147
1.5
172
     1
173
     1
176
   256
177
   256
178
     2
271
     2
272
     3
274
     4
283
     0
284
     8
340
11
341
59
342
59
343
64
344
59
371
    -1
372
    -1
  0
DIMSTYLE
105
B34
330
A
100
AcDbSymbolTableRecord
100
AcDbDimStyleTableRecord
  2
AM_JIS$2
 70
     0
  4
"
 41
2.699999999999999
 42
0.0
 43
7.0
 44
0.5
 47
0.1
 48
0.1000000001
 73
     0
 74
     0
 77
     3
 78
     8
 79
     2
140
3.5
141
0.0
143
0.0393701
146
0.71
147
1.0
172
     1
176
     3
177
     3
178
     2
179
     1
271
     2
272
     2
275
     1
283
     0
284
     8
340
11
341
59
342
59
371
    -1
372
    -1
  0
DIMSTYLE
105
3B48
102
{ACAD_REACTORS
330
B75A
330
B7EF
330
B896
330
B92E
330
B9D9
330
BA6E
102
}
330
A
100
AcDbSymbolTableRecord
100
AcDbDimStyleTableRecord
  2
AM_JIS$0
 70
     0
  4
"
 41
2.699999999999999
 42
0.0
 43
7.0
 44
0.5
 47
0.1
 48
0.1000000001
 73
     0
 74
     0
 77
     3
 78
     8
 79
     2
140
3.5
141
0.0
143
0.0393701
146
0.71
147
1.0
172
     1
176
     3
177
     3
178
     2
179
     1
271
     2
272
     2
275
     1
283
     0
284
     8
340
11
341
59
342
59
371
    -1
372
    -1
  0
DIMSTYLE
105
C0AA
330
A
100
AcDbSymbolTableRecord
100
AcDbDimStyleTableRecord
  2
AM_ISO
 70
     0
  4
"
 41
2.5
 42
1.0
 43
10.0
 44
1.0
 47
0.1
 48
0.1
 73
     0
 74
     0
 77
     1
 78
     8
 79
     2
140
3.5
141
0.0
143
0.0393701
146
0.71
147
1.5
172
     1
176
   256
177
   256
178
     2
271
     2
272
     3
274
     4
283
     0
284
     8
340
11
371
    -1
372
    -1
  0
DIMSTYLE
105
C0AB
330
A
100
AcDbSymbolTableRecord
100
AcDbDimStyleTableRecord
  2
AM_ISO$3
 70
     0
  4
"
 41
2.5
 42
1.0
 43
10.0
 44
1.0
 47
0.1
 48
0.1
 73
     0
 77
     1
 78
     8
 79
     2
140
3.5
141
0.0
143
0.0393701
146
0.71
147
1.5
176
   256
177
   256
178
     2
271
     2
272
     3
274
     4
283
     0
284
     8
288
     1
289
     0
340
11
371
    -1
372
    -1
  0
DIMSTYLE
105
C0AC
330
A
100
AcDbSymbolTableRecord
100
AcDbDimStyleTableRecord
  2
AM_ISO$4
 70
     0
  4
"
 41
2.5
 42
1.0
 43
10.0
 44
1.0
 47
0.1
 48
0.1
 73
     0
 77
     1
 78
     8
 79
     2
140
3.5
141
0.0
143
0.0393701
146
0.71
147
1.5
176
   256
177
   256
178
     2
271
     2
272
     3
274
     4
283
     0
284
     8
288
     1
289
     0
340
11
371
    -1
372
    -1
  0
DIMSTYLE
105
C0AD
330
A
100
AcDbSymbolTableRecord
100
AcDbDimStyleTableRecord
  2
AM_ISO$6
 70
     0
  4
"
 41
2.5
 42
1.0
 43
10.0
 44
1.0
 47
0.1
 48
0.1
 73
     0
 74
     0
 78
     8
 79
     2
140
3.5
141
0.0
143
0.0393701
146
0.71
147
1.5
172
     1
176
   256
177
   256
178
     2
271
     2
272
     3
274
     4
283
     0
284
     8
340
11
371
    -1
372
    -1
  0
DIMSTYLE
105
C0AE
330
A
100
AcDbSymbolTableRecord
100
AcDbDimStyleTableRecord
  2
AM_ISO$7
 70
     0
  4
"
 41
2.5
 42
1.0
 43
10.0
 44
1.0
 47
0.1
 48
0.1
 73
     0
 74
     0
 77
     1
 78
     8
 79
     2
140
5.0
141
0.0
143
0.0393701
146
0.71
147
1.5
172
     1
176
   256
177
   256
178
     2
271
     2
272
     3
274
     4
283
     0
284
     8
340
11
371
    -1
372
    -1
  0
DIMSTYLE
105
C0AF
330
A
100
AcDbSymbolTableRecord
100
AcDbDimStyleTableRecord
  2
AM_ISO$SF
 70
     0
  4
"
 41
2.5
 42
1.0
 43
10.0
 44
1.0
 47
0.1
 48
0.1
 73
     0
 74
     0
 75
     1
 76
     1
 77
     1
 78
     8
 79
     2
140
3.5
141
0.0
143
0.0393701
146
0.71
147
1.5
172
     1
176
   256
177
   256
178
     2
271
     2
272
     3
274
     4
283
     0
284
     8
340
11
371
    -1
372
    -1
  0
DIMSTYLE
105
C0B0
330
A
100
AcDbSymbolTableRecord
100
AcDbDimStyleTableRecord
  2
AM_ISO$SH
 70
     0
  4
"
 41
2.5
 42
1.0
 43
10.0
 44
1.0
 47
0.1
 48
0.1
 73
     0
 74
     0
 75
     1
 76
     1
 77
     1
 78
     8
 79
     2
140
3.5
141
0.0
143
0.0393701
144
2.0
146
0.71
147
1.5
172
     1
173
     1
176
   256
177
   256
178
     2
271
     2
272
     3
274
     4
283
     0
284
     8
340
11
343
64
371
    -1
372
    -1
  0
ENDTAB
  0
TABLE
  2
BLOCK_RECORD
  5
1
330
0
100
AcDbSymbolTable
 70
     9
  0
BLOCK_RECORD
  5
1F
102
{ACAD_XDICTIONARY
360
74
102
}
330
1
100
AcDbSymbolTableRecord
100
AcDbBlockTableRecord
  2
*MODEL_SPACE
340
C01F
  0
BLOCK_RECORD
  5
101
102
{ACAD_XDICTIONARY
360
BFDD
102
}
330
1
100
AcDbSymbolTableRecord
100
AcDbBlockTableRecord
  2
*PAPER_SPACE
340
C020
  0
BLOCK_RECORD
  5
59
330
1
100
AcDbSymbolTableRecord
100
AcDbBlockTableRecord
  2
_Open30
340
0
  0
BLOCK_RECORD
  5
64
330
1
100
AcDbSymbolTableRecord
100
AcDbBlockTableRecord
  2
GENAXEH
340
0
  0
BLOCK_RECORD
  5
B75B
330
1
100
AcDbSymbolTableRecord
100
AcDbBlockTableRecord
  2
*D2
340
0
  0
BLOCK_RECORD
  5
B7F0
330
1
100
AcDbSymbolTableRecord
100
AcDbBlockTableRecord
  2
*D3
340
0
  0
BLOCK_RECORD
  5
B897
330
1
100
AcDbSymbolTableRecord
100
AcDbBlockTableRecord
  2
*D4
340
0
  0
BLOCK_RECORD
  5
B92F
330
1
100
AcDbSymbolTableRecord
100
AcDbBlockTableRecord
  2
*D5
340
0
  0
BLOCK_RECORD
  5
B9DA
330
1
100
AcDbSymbolTableRecord
100
AcDbBlockTableRecord
  2
*D6
340
0
  0
BLOCK_RECORD
  5
BA6F
330
1
100
AcDbSymbolTableRecord
100
AcDbBlockTableRecord
  2
*D7
340
0
  0
ENDTAB
  0
ENDSEC
  0
SECTION
  2
BLOCKS
  0
BLOCK
  5
20
330
1F
100
AcDbEntity
  8
0
100
AcDbBlockBegin
  2
*MODEL_SPACE
 70
     0
 10
0.0
 20
0.0
 30
0.0
  3
*MODEL_SPACE
  1

  0
ENDBLK
  5
21
330
1F
100
AcDbEntity
  8
0
100
AcDbBlockEnd
  0
BLOCK
  5
103
330
101
100
AcDbEntity
 67
     1
  8
0
100
AcDbBlockBegin
  2
*PAPER_SPACE
 70
     0
 10
0.0
 20
0.0
 30
0.0
  3
*PAPER_SPACE
  1

  0
ENDBLK
  5
104
330
101
100
AcDbEntity
 67
     1
  8
0
100
AcDbBlockEnd
  0
BLOCK
  5
C0D2
330
59
100
AcDbEntity
  8
0
100
AcDbBlockBegin
  2
_Open30
 70
     0
 10
0.0
 20
0.0
 30
0.0
  3
_Open30
  1

  0
LINE
  5
C0D3
330
59
100
AcDbEntity
  8
0
  6
ByBlock
 62
     0
370
    -2
100
AcDbLine
 10
-1.0
 20
0.26794919
 30
0.0
 11
0.0
 21
0.0
 31
0.0
  0
LINE
  5
C0D4
330
59
100
AcDbEntity
  8
0
  6
ByBlock
 62
     0
370
    -2
100
AcDbLine
 10
0.0
 20
0.0
 30
0.0
 11
-1.0
 21
-0.26794919
 31
0.0
  0
LINE
  5
C0D5
330
59
100
AcDbEntity
  8
0
  6
ByBlock
 62
     0
370
    -2
100
AcDbLine
 10
0.0
 20
0.0
 30
0.0
 11
-1.0
 21
0.0
 31
0.0
  0
ENDBLK
  5
C0D6
330
59
100
AcDbEntity
  8
0
100
AcDbBlockEnd
  0
BLOCK
  5
C0B2
330
64
100
AcDbEntity
  8
0
100
AcDbBlockBegin
  2
GENAXEH
 70
     0
 10
0.0
 20
0.0
 30
0.0
  3
GENAXEH
  1

  0
LINE
  5
C0B3
330
64
100
AcDbEntity
  8
0
100
AcDbLine
 10
-1.0
 20
0.0
 30
0.0
 11
1.0
 21
0.0
 31
0.0
  0
ENDBLK
  5
C0B4
330
64
100
AcDbEntity
  8
0
100
AcDbBlockEnd
  0
BLOCK
  5
B765
330
B75B
100
AcDbEntity
  8
0
100
AcDbBlockBegin
  2
*D2
 70
     1
 10
0.0
 20
0.0
 30
0.0
  3
*D2
  1

  0
LINE
  5
BFDF
330
B75B
100
AcDbEntity
  8
AM_5
100
AcDbLine
 10
-0.0000000000003459
 20
17.50000000000015
 30
0.0
 11
-0.0000000000003485
 21
31.28081612451209
 31
0.0
  0
LINE
  5
BFE0
330
B75B
100
AcDbEntity
  8
AM_5
100
AcDbLine
 10
-39.00000000000033
 20
17.49999999999996
 30
0.0
 11
-39.00000000000033
 21
31.28081612451208
 31
0.0
  0
LINE
  5
BFE1
330
B75B
100
AcDbEntity
  8
AM_5
100
AcDbLine
 10
-2.500000000000348
 20
30.28081612451209
 30
0.0
 11
-36.50000000000033
 21
30.28081612451208
 31
0.0
  0
INSERT
  5
BFE2
330
B75B
100
AcDbEntity
  8
AM_5
100
AcDbBlockReference
  2
_Open30
 10
-0.0000000000003483
 20
30.28081612451209
 30
0.0
 41
2.5
 42
2.5
 43
2.5
  0
INSERT
  5
BFE3
330
B75B
100
AcDbEntity
  8
AM_5
100
AcDbBlockReference
  2
_Open30
 10
-39.00000000000033
 20
30.28081612451208
 30
0.0
 41
2.5
 42
2.5
 43
2.5
 50
180.0
  0
MTEXT
  5
BFE4
330
B75B
100
AcDbEntity
  8
AM_5
 62
     2
100
AcDbMText
 10
-19.50000000000034
 20
34.38081612451207
 30
0.0
 40
3.2
 41
0.0
 71
     5
 72
     1
  1
39
  7
ASAMI
 73
     1
 44
1.0
1001
ACAD
1000
MTEXTBEGIN
1070
    73
1070
     1
1070
    44
1040
1.0
1070
    74
1070
     0
1000
MTEXTEND
  0
POINT
  5
BFE5
330
B75B
100
AcDbEntity
  8
DEFPOINTS
 62
     0
100
AcDbPoint
 10
-0.0000000000003124
 20
16.50000000000016
 30
0.0
  0
POINT
  5
BFE6
330
B75B
100
AcDbEntity
  8
DEFPOINTS
 62
     0
100
AcDbPoint
 10
-39.0000000000003
 20
16.50000000000004
 30
0.0
  0
POINT
  5
BFE7
330
B75B
100
AcDbEntity
  8
DEFPOINTS
 62
     0
100
AcDbPoint
 10
-39.00000000000027
 20
30.28081612451217
 30
0.0
  0
ENDBLK
  5
B766
330
B75B
100
AcDbEntity
  8
0
100
AcDbBlockEnd
  0
BLOCK
  5
B7FA
330
B7F0
100
AcDbEntity
  8
0
100
AcDbBlockBegin
  2
*D3
 70
     1
 10
0.0
 20
0.0
 30
0.0
  3
*D3
  1

  0
LINE
  5
BFE8
330
B7F0
100
AcDbEntity
  8
AM_5
100
AcDbLine
 10
0.9999999999996507
 20
16.50000000000016
 30
0.0
 11
19.93758542520736
 21
16.50000000000019
 31
0.0
  0
LINE
  5
BFE9
330
B7F0
100
AcDbEntity
  8
AM_5
100
AcDbLine
 10
0.9999999999997951
 20
-16.49999999999983
 30
0.0
 11
19.93758542520742
 21
-16.4999999999998
 31
0.0
  0
LINE
  5
BFEA
330
B7F0
100
AcDbEntity
  8
AM_5
100
AcDbLine
 10
18.93758542520736
 20
14.00000000000019
 30
0.0
 11
18.93758542520742
 21
-13.9999999999998
 31
0.0
  0
INSERT
  5
BFEB
330
B7F0
100
AcDbEntity
  8
AM_5
100
AcDbBlockReference
  2
_Open30
 10
18.93758542520736
 20
16.50000000000019
 30
0.0
 41
2.5
 42
2.5
 43
2.5
 50
90.0000000000001
  0
INSERT
  5
BFEC
330
B7F0
100
AcDbEntity
  8
AM_5
100
AcDbBlockReference
  2
_Open30
 10
18.93758542520742
 20
-16.4999999999998
 30
0.0
 41
2.5
 42
2.5
 43
2.5
 50
270.0000000000001
  0
MTEXT
  5
BFED
330
B7F0
100
AcDbEntity
  8
AM_5
 62
     2
100
AcDbMText
 10
14.83758542520739
 20
0.0000000000001892
 30
0.0
 40
3.2
 41
0.0
 71
     5
 72
     1
  1
%%c33
  7
ASAMI
 11
-0.000000000000002
 21
1.0
 31
0.0
 73
     1
 44
1.0
1001
ACAD
1000
MTEXTBEGIN
1070
    73
1070
     1
1070
    44
1040
1.0
1070
    74
1070
     0
1000
MTEXTEND
  0
POINT
  5
BFEE
330
B7F0
100
AcDbEntity
  8
DEFPOINTS
 62
     0
100
AcDbPoint
 10
-0.0000000000003124
 20
16.50000000000016
 30
0.0
  0
POINT
  5
BFEF
330
B7F0
100
AcDbEntity
  8
DEFPOINTS
 62
     0
100
AcDbPoint
 10
-0.0000000000002414
 20
-16.49999999999984
 30
0.0
  0
POINT
  5
BFF0
330
B7F0
100
AcDbEntity
  8
DEFPOINTS
 62
     0
100
AcDbPoint
 10
18.93758542520739
 20
-16.49999999999984
 30
0.0
  0
ENDBLK
  5
B7FB
330
B7F0
100
AcDbEntity
  8
0
100
AcDbBlockEnd
  0
BLOCK
  5
B8A1
330
B897
100
AcDbEntity
  8
0
100
AcDbBlockBegin
  2
*D4
 70
     1
 10
0.0
 20
0.0
 30
0.0
  3
*D4
  1

  0
LINE
  5
BFF1
330
B897
100
AcDbEntity
  8
AM_5
100
AcDbLine
 10
-0.0000000000001994
 20
-17.39040756225583
 30
0.0
 11
-0.0000000000001719
 21
-31.41358595163107
 31
0.0
  0
LINE
  5
BFF2
330
B897
100
AcDbEntity
  8
AM_5
100
AcDbLine
 10
-49.99999999999918
 20
-16.29998779296904
 30
0.0
 11
-49.99999999999914
 21
-31.41358595163117
 31
0.0
  0
LINE
  5
BFF3
330
B897
100
AcDbEntity
  8
AM_5
100
AcDbLine
 10
-2.500000000000173
 20
-30.41358595163107
 30
0.0
 11
-47.49999999999913
 21
-30.41358595163118
 31
0.0
  0
INSERT
  5
BFF4
330
B897
100
AcDbEntity
  8
AM_5
100
AcDbBlockReference
  2
_Open30
 10
-0.0000000000001739
 20
-30.41358595163107
 30
0.0
 41
2.5
 42
2.5
 43
2.5
 50
0.0000000000001018
  0
INSERT
  5
BFF5
330
B897
100
AcDbEntity
  8
AM_5
100
AcDbBlockReference
  2
_Open30
 10
-49.99999999999914
 20
-30.41358595163118
 30
0.0
 41
2.5
 42
2.5
 43
2.5
 50
180.0000000000001
  0
MTEXT
  5
BFF6
330
B897
100
AcDbEntity
  8
AM_5
 62
     2
100
AcDbMText
 10
-24.99999999999967
 20
-26.31358595163112
 30
0.0
 40
3.2
 41
0.0
 71
     5
 72
     1
  1
50
  7
ASAMI
 73
     1
 44
1.0
1001
ACAD
1000
MTEXTBEGIN
1070
    73
1070
     1
1070
    44
1040
1.0
1070
    74
1070
     0
1000
MTEXTEND
  0
POINT
  5
BFF7
330
B897
100
AcDbEntity
  8
DEFPOINTS
 62
     0
100
AcDbPoint
 10
-0.0000000000002345
 20
-16.39040756225583
 30
0.0
  0
POINT
  5
BFF8
330
B897
100
AcDbEntity
  8
DEFPOINTS
 62
     0
100
AcDbPoint
 10
-49.99999999999921
 20
-15.29998779296894
 30
0.0
  0
POINT
  5
BFF9
330
B897
100
AcDbEntity
  8
DEFPOINTS
 62
     0
100
AcDbPoint
 10
-49.99999999999921
 20
-30.41358595163107
 30
0.0
  0
ENDBLK
  5
B8A2
330
B897
100
AcDbEntity
  8
0
100
AcDbBlockEnd
  0
BLOCK
  5
B939
330
B92F
100
AcDbEntity
  8
0
100
AcDbBlockBegin
  2
*D5
 70
     1
 10
0.0
 20
0.0
 30
0.0
  3
*D5
  1

  0
LINE
  5
BFFA
330
B92F
100
AcDbEntity
  8
AM_5
100
AcDbLine
 10
-50.00000190734818
 20
-16.29999542236305
 30
0.0
 11
-50.00000190734815
 21
-31.41358595163117
 31
0.0
  0
LINE
  5
BFFB
330
B92F
100
AcDbEntity
  8
AM_5
100
AcDbLine
 10
-230.0000004768374
 20
-14.66149884859319
 30
0.0
 11
-230.0000004768373
 21
-31.41358595163155
 31
0.0
  0
LINE
  5
BFFC
330
B92F
100
AcDbEntity
  8
AM_5
100
AcDbLine
 10
-52.50000190734815
 20
-30.41358595163118
 30
0.0
 11
-227.5000004768374
 21
-30.41358595163153
 31
0.0
  0
INSERT
  5
BFFD
330
B92F
100
AcDbEntity
  8
AM_5
100
AcDbBlockReference
  2
_Open30
 10
-50.00000190734815
 20
-30.41358595163118
 30
0.0
 41
2.5
 42
2.5
 43
2.5
 50
0.0000000000001018
  0
INSERT
  5
BFFE
330
B92F
100
AcDbEntity
  8
AM_5
100
AcDbBlockReference
  2
_Open30
 10
-230.0000004768373
 20
-30.41358595163154
 30
0.0
 41
2.5
 42
2.5
 43
2.5
 50
180.0000000000001
  0
MTEXT
  5
BFFF
330
B92F
100
AcDbEntity
  8
AM_5
 62
     2
100
AcDbMText
 10
-140.0000011920927
 20
-26.31358595163136
 30
0.0
 40
3.2
 41
0.0
 71
     5
 72
     1
  1
180
  7
ASAMI
 73
     1
 44
1.0
1001
ACAD
1000
MTEXTBEGIN
1070
    73
1070
     1
1070
    44
1040
1.0
1070
    74
1070
     0
1000
MTEXTEND
  0
POINT
  5
C000
330
B92F
100
AcDbEntity
  8
DEFPOINTS
 62
     0
100
AcDbPoint
 10
-50.00000190734821
 20
-15.29999542236295
 30
0.0
  0
POINT
  5
C001
330
B92F
100
AcDbEntity
  8
DEFPOINTS
 62
     0
100
AcDbPoint
 10
-230.0000004768374
 20
-13.66149884859273
 30
0.0
  0
POINT
  5
C002
330
B92F
100
AcDbEntity
  8
DEFPOINTS
 62
     0
100
AcDbPoint
 10
-230.0000004768374
 20
-30.41358595163107
 30
0.0
  0
ENDBLK
  5
B93A
330
B92F
100
AcDbEntity
  8
0
100
AcDbBlockEnd
  0
BLOCK
  5
B9E4
330
B9DA
100
AcDbEntity
  8
0
100
AcDbBlockBegin
  2
*D6
 70
     1
 10
0.0
 20
0.0
 30
0.0
  3
*D6
  1

  0
LINE
  5
C003
330
B9DA
100
AcDbEntity
  8
AM_5
100
AcDbLine
 10
-0.0000000000001994
 20
-17.39040756225583
 30
0.0
 11
-0.0000000000001523
 21
-41.41358595163107
 31
0.0
  0
LINE
  5
C004
330
B9DA
100
AcDbEntity
  8
AM_5
100
AcDbLine
 10
-230.0000004768374
 20
-14.66149884859319
 30
0.0
 11
-230.0000004768373
 21
-41.41358595163153
 31
0.0
  0
LINE
  5
C005
330
B9DA
100
AcDbEntity
  8
AM_5
100
AcDbLine
 10
-2.500000000000154
 20
-40.41358595163107
 30
0.0
 11
-227.5000004768373
 21
-40.41358595163154
 31
0.0
  0
INSERT
  5
C006
330
B9DA
100
AcDbEntity
  8
AM_5
100
AcDbBlockReference
  2
_Open30
 10
-0.0000000000001543
 20
-40.41358595163107
 30
0.0
 41
2.5
 42
2.5
 43
2.5
 50
0.0000000000001018
  0
INSERT
  5
C007
330
B9DA
100
AcDbEntity
  8
AM_5
100
AcDbBlockReference
  2
_Open30
 10
-230.0000004768373
 20
-40.41358595163154
 30
0.0
 41
2.5
 42
2.5
 43
2.5
 50
180.0000000000001
  0
MTEXT
  5
C008
330
B9DA
100
AcDbEntity
  8
AM_5
 62
     2
100
AcDbMText
 10
-115.0000002384187
 20
-36.31358595163131
 30
0.0
 40
3.2
 41
0.0
 71
     5
 72
     1
  1
230
  7
ASAMI
 73
     1
 44
1.0
1001
ACAD
1000
MTEXTBEGIN
1070
    73
1070
     1
1070
    44
1040
1.0
1070
    74
1070
     0
1000
MTEXTEND
  0
POINT
  5
C009
330
B9DA
100
AcDbEntity
  8
DEFPOINTS
 62
     0
100
AcDbPoint
 10
-0.0000000000002345
 20
-16.39040756225583
 30
0.0
  0
POINT
  5
C00A
330
B9DA
100
AcDbEntity
  8
DEFPOINTS
 62
     0
100
AcDbPoint
 10
-230.0000004768374
 20
-13.66149884859273
 30
0.0
  0
POINT
  5
C00B
330
B9DA
100
AcDbEntity
  8
DEFPOINTS
 62
     0
100
AcDbPoint
 10
-230.0000004768374
 20
-40.41358595163107
 30
0.0
  0
ENDBLK
  5
B9E5
330
B9DA
100
AcDbEntity
  8
0
100
AcDbBlockEnd
  0
BLOCK
  5
BA79
330
BA6F
100
AcDbEntity
  8
0
100
AcDbBlockBegin
  2
*D7
 70
     1
 10
0.0
 20
0.0
 30
0.0
  3
*D7
  1

  0
LINE
  5
C00C
330
BA6F
100
AcDbEntity
  8
AM_5
100
AcDbLine
 10
-227.9999923706002
 20
15.99999999999909
 30
0.0
 11
-250.2416544377983
 21
15.99999999999905
 31
0.0
  0
LINE
  5
C00D
330
BA6F
100
AcDbEntity
  8
AM_5
100
AcDbLine
 10
-228.0000000000001
 20
-16.00000095367487
 30
0.0
 11
-250.2416544377982
 21
-16.00000095367492
 31
0.0
  0
LINE
  5
C00E
330
BA6F
100
AcDbEntity
  8
AM_5
100
AcDbLine
 10
-249.2416544377983
 20
13.49999999999905
 30
0.0
 11
-249.2416544377983
 21
-13.50000095367492
 31
0.0
  0
INSERT
  5
C00F
330
BA6F
100
AcDbEntity
  8
AM_5
100
AcDbBlockReference
  2
_Open30
 10
-249.2416544377983
 20
15.99999999999905
 30
0.0
 41
2.5
 42
2.5
 43
2.5
 50
90.0000000000001
  0
INSERT
  5
C010
330
BA6F
100
AcDbEntity
  8
AM_5
100
AcDbBlockReference
  2
_Open30
 10
-249.2416544377983
 20
-16.00000095367492
 30
0.0
 41
2.5
 42
2.5
 43
2.5
 50
270.0000000000001
  0
MTEXT
  5
C011
330
BA6F
100
AcDbEntity
  8
AM_5
 62
     2
100
AcDbMText
 10
-253.3416544377983
 20
-0.0000004768379307
 30
0.0
 40
3.2
 41
0.0
 71
     5
 72
     1
  1
%%c32
  7
ASAMI
 11
-0.000000000000002
 21
1.0
 31
0.0
 73
     1
 44
1.0
1001
ACAD
1000
MTEXTBEGIN
1070
    73
1070
     1
1070
    44
1040
1.0
1070
    74
1070
     0
1000
MTEXTEND
  0
POINT
  5
C012
330
BA6F
100
AcDbEntity
  8
DEFPOINTS
 62
     0
100
AcDbPoint
 10
-226.9999923706002
 20
15.9999999999996
 30
0.0
  0
POINT
  5
C013
330
BA6F
100
AcDbEntity
  8
DEFPOINTS
 62
     0
100
AcDbPoint
 10
-227.0000000000002
 20
-16.00000095367437
 30
0.0
  0
POINT
  5
C014
330
BA6F
100
AcDbEntity
  8
DEFPOINTS
 62
     0
100
AcDbPoint
 10
-249.2416544377983
 20
-16.00000095367436
 30
0.0
  0
ENDBLK
  5
BA7A
330
BA6F
100
AcDbEntity
  8
0
100
AcDbBlockEnd
  0
ENDSEC
  0
SECTION
  2
ENTITIES
  0
TEXT
  5
388D
330
1F
100
AcDbEntity
  8
AM_6
100
AcDbText
 10
-136.7857145241329
 20
-62.91358595163125
 30
0.0
 40
5.0
  1
WMM3033EL
 50
359.9999999999998
 51
359.9999999999998
 72
     4
 11
-115.0000002384187
 21
-60.41358595163131
 31
0.0
100
AcDbText
  0
ELLIPSE
  5
B468
330
1F
100
AcDbEntity
  8
AM_0
100
AcDbEllipse
 10
-23.17735290527323
 20
-1.520843505858876
 30
0.0
 11
-40.54997870506101
 21
2.610534620513913
 31
0.0
210
0.0
220
0.0
230
1.0
 40
0.4373920090981
 41
4.829089677945143
 42
5.008525543119653
  0
ELLIPSE
  5
B469
330
1F
100
AcDbEntity
  8
AM_0
100
AcDbEllipse
 10
51.39061737060475
 20
0.0000000000002941
 30
0.0
 11
316.896635706057
 21
10.4940316116537
 31
0.0
210
0.0
220
0.0
230
1.0
 40
0.035134683921
 41
4.395380134193628
 42
4.453900639957139
  0
SPLINE
  5
B46A
330
1F
100
AcDbEntity
  8
AM_0
100
AcDbSpline
210
0.0
220
0.0
230
1.0
 70
     8
 71
     3
 72
    11
 73
     7
 74
     5
 42
0.0000000001
 43
0.0000000001
 44
0.0000000001
 40
0.0
 40
0.0
 40
0.0
 40
0.0
 40
1.729011410005789
 40
3.458024408426454
 40
5.187065152988602
 40
6.91607656299438
 40
6.91607656299438
 40
6.91607656299438
 40
6.91607656299438
 10
-31.72509002685528
 20
8.456939697266088
 30
0.0
 10
-31.48510802849024
 20
8.980936964018622
 30
0.0
 10
-31.00514381129257
 20
10.02893197891153
 30
0.0
 10
-30.28518260502691
 20
11.60092814994383
 30
0.0
 10
-29.56524615569859
 20
13.17293565922473
 30
0.0
 10
-29.08527478650191
 20
14.22093757115227
 30
0.0
 10
-28.84529113769519
 20
14.74493408203109
 30
0.0
 11
-31.72509002685528
 21
8.456939697266088
 31
0.0
 11
-31.00514221191389
 21
10.02893066406307
 31
0.0
 11
-30.28519058227527
 21
11.6009216308591
 31
0.0
 11
-29.56523895263656
 21
13.17294311523411
 31
0.0
 11
-28.84529113769519
 21
14.74493408203109
 31
0.0
  0
SPLINE
  5
B46B
330
1F
100
AcDbEntity
  8
AM_0
100
AcDbSpline
210
0.0
220
0.0
230
1.0
 70
     8
 71
     3
 72
    11
 73
     7
 74
     5
 42
0.0000000001
 43
0.0000000001
 44
0.0000000001
 40
0.0
 40
0.0
 40
0.0
 40
0.0
 40
1.228302363961445
 40
2.450277613300982
 40
3.664968829086491
 40
4.871424883035036
 40
4.871424883035036
 40
4.871424883035036
 40
4.871424883035036
 10
-28.84529113769519
 20
14.74493408203109
 30
0.0
 10
-29.25468849269457
 20
14.73888980180183
 30
0.0
 10
-30.07137435387319
 20
14.72683237606626
 30
0.0
 10
-31.29241729984081
 20
14.68648736751242
 30
0.0
 10
-32.50560102194611
 20
14.63147149517334
 30
0.0
 10
-33.31100770222466
 20
14.57975559428624
 30
0.0
 10
-33.71234130859359
 20
14.55398559570308
 30
0.0
 11
-28.84529113769519
 21
14.74493408203109
 31
0.0
 11
-30.07339859008779
 21
14.72305297851609
 31
0.0
 11
-31.29474639892557
 21
14.68389892578108
 31
0.0
 11
-32.50812911987289
 21
14.6275329589841
 31
0.0
 11
-33.71234130859359
 21
14.55398559570308
 31
0.0
  0
SPLINE
  5
B46C
330
1F
100
AcDbEntity
  8
AM_0
100
AcDbSpline
210
0.0
220
0.0
230
1.0
 70
     8
 71
     3
 72
    11
 73
     7
 74
     5
 42
0.0000000001
 43
0.0000000001
 44
0.0000000001
 40
0.0
 40
0.0
 40
0.0
 40
0.0
 40
1.206452246346151
 40
2.421141068054124
 40
3.643119152683808
 40
4.871425330737134
 40
4.871425330737134
 40
4.871425330737134
 40
4.871425330737134
 10
-33.71234130859359
 20
14.55398559570308
 30
0.0
 10
-33.31100878696258
 20
14.57975129112189
 30
0.0
 10
-32.50560380470207
 20
14.63145858705041
 30
0.0
 10
-31.29242404613522
 20
14.68653980600987
 30
0.0
 10
-30.07137737905108
 20
14.7268191822517
 30
0.0
 10
-29.25468960956807
 20
14.7388853947221
 30
0.0
 10
-28.84529113769519
 20
14.74493408203109
 30
0.0
 11
-33.71234130859359
 21
14.55398559570308
 31
0.0
 11
-32.50813293457019
 21
14.6275329589841
 31
0.0
 11
-31.29475402832019
 21
14.68392944335908
 31
0.0
 11
-30.073402404785
 21
14.72305297851609
 31
0.0
 11
-28.84529113769519
 21
14.74493408203109
 31
0.0
  0
SPLINE
  5
B46D
330
1F
100
AcDbEntity
  8
AM_0
100
AcDbSpline
210
0.0
220
0.0
230
1.0
 70
     8
 71
     3
 72
    11
 73
     7
 74
     5
 42
0.0000000001
 43
0.0000000001
 44
0.0000000001
 40
0.0
 40
0.0
 40
0.0
 40
0.0
 40
1.809094846995461
 40
3.607581450169682
 40
5.392563074295054
 40
7.161200192838554
 40
7.161200192838554
 40
7.161200192838554
 40
7.161200192838554
 10
-26.7618827819823
 20
16.4001159667971
 30
0.0
 10
-27.36492063112019
 20
16.40461442114825
 30
0.0
 10
-28.56746021157012
 20
16.41358495163127
 30
0.0
 10
-30.36483515584398
 20
16.38069762580787
 30
0.0
 10
-32.14790344092389
 20
16.31711403737352
 30
0.0
 10
-33.33019191759927
 20
16.24334793356651
 30
0.0
 10
-33.918617248535
 20
16.20663452148409
 30
0.0
 11
-26.7618827819823
 21
16.4001159667971
 31
0.0
 11
-28.57096862792948
 21
16.40582275390609
 31
0.0
 11
-30.36919784545881
 21
16.37539672851609
 31
0.0
 11
-32.15294265747061
 21
16.3089599609381
 31
0.0
 11
-33.918617248535
 21
16.20663452148409
 31
0.0
  0
SPLINE
  5
B46E
330
1F
100
AcDbEntity
  8
AM_0
100
AcDbSpline
210
0.0
220
0.0
230
1.0
 70
     8
 71
     3
 72
    11
 73
     7
 74
     5
 42
0.0000000001
 43
0.0000000001
 44
0.0000000001
 40
0.0
 40
0.0
 40
0.0
 40
0.0
 40
0.9394183578718887
 40
1.878850755104581
 40
2.818283152337709
 40
3.757705094056939
 40
3.757705094056939
 40
3.757705094056939
 40
3.757705094056939
 10
-31.72509002685528
 20
8.456939697266088
 30
0.0
 10
-31.43089979515814
 20
8.564217021941827
 30
0.0
 10
-30.84251493516805
 20
8.778773274524766
 30
0.0
 10
-29.9599494614278
 20
9.100646884957667
 30
0.0
 10
-29.07738305726039
 20
9.422521430887497
 30
0.0
 10
-28.48899669117149
 20
9.637077040316068
 30
0.0
 10
-28.19480514526349
 20
9.7443542480471
 30
0.0
 11
-31.72509002685528
 21
8.456939697266088
 31
0.0
 11
-30.84252166748028
 21
8.778778076172084
 31
0.0
 11
-29.95994949340808
 21
9.100646972656093
 31
0.0
 11
-29.07737731933578
 21
9.422515869141099
 31
0.0
 11
-28.19480514526349
 21
9.7443542480471
 31
0.0
  0
SPLINE
  5
B46F
330
1F
100
AcDbEntity
  8
AM_0
100
AcDbSpline
210
0.0
220
0.0
230
1.0
 70
     8
 71
     3
 72
    11
 73
     7
 74
     5
 42
0.0000000001
 43
0.0000000001
 44
0.0000000001
 40
0.0
 40
0.0
 40
0.0
 40
0.0
 40
0.9596200488306326
 40
1.92107464793443
 40
2.881714667926956
 40
3.838981176156686
 40
3.838981176156686
 40
3.838981176156686
 40
3.838981176156686
 10
-30.49516677856426
 20
7.179473876953111
 30
0.0
 10
-30.17442129382776
 20
7.190111372701403
 30
0.0
 10
-29.53231714029572
 20
7.211406700393292
 30
0.0
 10
-28.60012053367801
 20
7.470897490653507
 30
0.0
 10
-27.72032561851475
 20
7.872001226314625
 30
0.0
 10
-27.21640101054113
 20
8.268825359225319
 30
0.0
 10
-26.9648818969725
 20
8.466888427734092
 30
0.0
 11
-30.49516677856426
 21
7.179473876953111
 31
0.0
 11
-29.53808593749986
 21
7.249237060547091
 31
0.0
 11
-28.60848236083968
 21
7.494659423828119
 31
0.0
 11
-27.73989105224597
 21
7.9049987792971
 31
0.0
 11
-26.9648818969725
 21
8.466888427734092
 31
0.0
  0
SPLINE
  5
B470
330
1F
100
AcDbEntity
  8
AM_0
100
AcDbSpline
210
0.0
220
0.0
230
1.0
 70
     8
 71
     3
 72
    11
 73
     7
 74
     5
 42
0.0000000001
 43
0.0000000001
 44
0.0000000001
 40
0.0
 40
0.0
 40
0.0
 40
0.0
 40
0.7832642627190627
 40
1.567361905153414
 40
2.350855127713165
 40
3.132388925555455
 40
3.132388925555455
 40
3.132388925555455
 40
3.132388925555455
 10
-30.48984909057596
 20
6.894989013672087
 30
0.0
 10
-30.22938095049817
 20
6.919830461752953
 30
0.0
 10
-29.70816753671765
 20
6.969539788788548
 30
0.0
 10
-28.95334093695753
 20
7.194023019017967
 30
0.0
 10
-28.23446848429937
 20
7.514188368152197
 30
0.0
 10
-27.80701473670403
 20
7.815198502791044
 30
0.0
 10
-27.59355545043927
 20
7.965515136719118
 30
0.0
 11
-30.48984909057596
 21
6.894989013672087
 31
0.0
 11
-29.71292877197246
 21
6.994476318359079
 31
0.0
 11
-28.95905685424785
 21
7.210083007813117
 31
0.0
 11
-28.24676895141586
 21
7.536437988281101
 31
0.0
 11
-27.59355545043927
 21
7.965515136719118
 31
0.0
  0
SPLINE
  5
B471
330
1F
100
AcDbEntity
  8
AM_0
100
AcDbSpline
210
0.0
220
0.0
230
1.0
 70
     8
 71
     3
 72
    11
 73
     7
 74
     5
 42
0.0000000001
 43
0.0000000001
 44
0.0000000001
 40
0.0
 40
0.0
 40
0.0
 40
0.0
 40
0.8767781377167725
 40
1.75524548523281
 40
2.633404927401223
 40
3.509282649931291
 40
3.509282649931291
 40
3.509282649931291
 40
3.509282649931291
 10
-30.49386596679666
 20
7.177978515625099
 30
0.0
 10
-30.20092516664487
 20
7.185950857550693
 30
0.0
 10
-29.61447918357564
 20
7.201910900998027
 30
0.0
 10
-28.75749950089247
 20
7.415826653191815
 30
0.0
 10
-27.94096052721298
 20
7.751895970376887
 30
0.0
 10
-27.4598377102571
 20
8.086897856747409
 30
0.0
 10
-27.21958923339828
 20
8.254180908203125
 30
0.0
 11
-30.49386596679666
 21
7.177978515625099
 31
0.0
 11
-29.61884689331035
 21
7.23348999023408
 31
0.0
 11
-28.76409912109356
 21
7.436248779297095
 31
0.0
 11
-27.95602798461898
 21
7.78002929687511
 31
0.0
 11
-27.21958923339828
 21
8.254180908203125
 31
0.0
  0
SPLINE
  5
B472
330
1F
100
AcDbEntity
  8
AM_0
100
AcDbSpline
210
0.0
220
0.0
230
1.0
 70
     8
 71
     3
 72
    11
 73
     7
 74
     5
 42
0.0000000001
 43
0.0000000001
 44
0.0000000001
 40
0.0
 40
0.0
 40
0.0
 40
0.0
 40
0.2894294273235816
 40
0.5716310626636077
 40
0.845819293539944
 40
1.1096942654463
 40
1.1096942654463
 40
1.1096942654463
 40
1.1096942654463
 10
-28.95345306396468
 20
7.130310058594084
 30
0.0
 10
-29.03959612143582
 20
7.086771416290752
 30
0.0
 10
-29.20973102422946
 20
7.000781402777163
 30
0.0
 10
-29.47180650059279
 20
6.896095391088018
 30
0.0
 10
-29.73133898321912
 20
6.809131063745351
 30
0.0
 10
-29.90596715964149
 20
6.767859752961071
 30
0.0
 10
-29.99160766601546
 20
6.747619628906092
 30
0.0
 11
-28.95345306396468
 21
7.130310058594084
 31
0.0
 11
-29.21367263793926
 21
7.003601074219083
 31
0.0
 11
-29.47522735595687
 21
6.897644042969082
 31
0.0
 11
-29.73574066162096
 21
6.812133789063112
 31
0.0
 11
-29.99160766601546
 21
6.747619628906092
 31
0.0
  0
LINE
  5
B473
330
1F
100
AcDbEntity
  8
AM_7
100
AcDbLine
 10
4.937584425207396
 20
0.0000000000001705
 30
0.0
 11
-235.2416534377983
 21
-0.0000000000003695
 31
0.0
  0
ELLIPSE
  5
B479
330
1F
100
AcDbEntity
  8
AM_0
100
AcDbEllipse
 10
-13.79677200317422
 20
-14.83547973632784
 30
0.0
 11
-0.7904014803989986
 21
0.1235656718109991
 31
0.0
210
0.0
220
0.0
230
1.0
 40
0.8616251585851999
 41
1.74846159004273
 42
2.533580702306443
  0
ELLIPSE
  5
B47A
330
1F
100
AcDbEntity
  8
AM_0
100
AcDbEllipse
 10
-13.79677200317422
 20
-14.83547973632784
 30
0.0
 11
-0.7904014803989986
 21
0.1235656718109991
 31
0.0
210
0.0
220
0.0
230
1.0
 40
0.8616251585851999
 41
2.533580702306443
 42
3.319105299241513
  0
ELLIPSE
  5
B47F
330
1F
100
AcDbEntity
  8
AM_0
100
AcDbEllipse
 10
-18.44753265380928
 20
24.23046874999972
 30
0.0
 11
-39.76110737290902
 21
2.343933044575412
 31
0.0
210
0.0
220
0.0
230
1.0
 40
0.1902206861432
 41
1.730641532203349
 42
1.849994044257073
  0
ELLIPSE
  5
B480
330
1F
100
AcDbEntity
  8
AM_0
100
AcDbEllipse
 10
-4.715377807617247
 20
-0.5097961425778563
 30
0.0
 11
-39.814096078813
 21
1.130371153367911
 31
0.0
210
0.0
220
0.0
230
1.0
 40
0.190220464405
 41
4.71225665731846
 42
4.8315773258918
  0
ELLIPSE
  5
B481
330
1F
100
AcDbEntity
  8
AM_0
100
AcDbEllipse
 10
-13.8479003906253
 20
14.95297241210913
 30
0.0
 11
-40.61755528844099
 21
1.153198324772912
 31
0.0
210
0.0
220
0.0
230
1.0
 40
0.1902211536322
 41
1.510544901941182
 42
1.689984592298373
  0
ELLIPSE
  5
B482
330
1F
100
AcDbEntity
  8
AM_0
100
AcDbEllipse
 10
2.822647094726731
 20
8.237792968750163
 30
0.0
 11
-40.563497732166
 21
2.391235184209909
 31
0.0
210
0.0
220
0.0
230
1.0
 40
0.1902211245503
 41
4.812133677391563
 42
4.99158722385405
  0
ELLIPSE
  5
B483
330
1F
100
AcDbEntity
  8
AM_0
100
AcDbEllipse
 10
-26.7967720031737
 20
15.6281433105471
 30
0.0
 11
0.7662734777574992
 21
0.2298279259920016
 31
0.0
210
0.0
220
0.0
230
1.0
 40
0.962079627589
 41
0.4612525077967539
 42
1.245134033893797
  0
ELLIPSE
  5
B484
330
1F
100
AcDbEntity
  8
AM_0
100
AcDbEllipse
 10
-26.7967720031737
 20
15.6281433105471
 30
0.0
 11
0.7662734777574992
 21
0.2298279259920016
 31
0.0
210
0.0
220
0.0
230
1.0
 40
0.962079627589
 41
5.959050083213697
 42
6.744437845496853
  0
ELLIPSE
  5
B485
330
1F
100
AcDbEntity
  8
AM_0
100
AcDbEllipse
 10
-26.9473495483397
 20
10.41516113281309
 30
0.0
 11
-0.7884407224727001
 21
0.1354980455289994
 31
0.0
210
0.0
220
0.0
230
1.0
 40
0.4741900035889002
 41
2.278369834130909
 42
2.523208921633573
  0
ELLIPSE
  5
B486
330
1F
100
AcDbEntity
  8
AM_0
100
AcDbEllipse
 10
-9.310657501221282
 20
7.05725097656315
 30
0.0
 11
-1.749294285297999
 21
0.0496521006539969
 31
0.0
210
0.0
220
0.0
230
1.0
 40
0.1902274507982
 41
6.118958884283945
 42
6.201229248810368
  0
ELLIPSE
  5
B487
330
1F
100
AcDbEntity
  8
AM_0
100
AcDbEllipse
 10
-28.58429718017557
 20
7.616119384766101
 30
0.0
 11
2.394599810829997
 21
0.7182618538010053
 31
0.0
210
0.0
220
0.0
230
1.0
 40
0.9620566621402
 41
0.4141419973962372
 42
0.5059630599177563
  0
ELLIPSE
  5
B488
330
1F
100
AcDbEntity
  8
AM_0
100
AcDbEllipse
 10
-28.58037948608377
 20
7.603057861328119
 30
0.0
 11
2.394599810829997
 21
0.7182618538010053
 31
0.0
210
0.0
220
0.0
230
1.0
 40
0.9620566621402
 41
0.4172934416109181
 42
0.5087306050599261
  0
ELLIPSE
  5
B489
330
1F
100
AcDbEntity
  8
AM_0
100
AcDbEllipse
 10
-21.09886932373024
 20
-6.408233642577875
 30
0.0
 11
-1.7290001344447
 21
0.2702941958739977
 31
0.0
210
0.0
220
0.0
230
1.0
 40
0.8616397134480997
 41
0.0
 42
3.141592755050768
  0
ELLIPSE
  5
B48A
330
1F
100
AcDbEntity
  8
AM_0
100
AcDbEllipse
 10
-21.09886932373024
 20
-6.408233642577875
 30
0.0
 11
-1.7290001344447
 21
0.2702941958739977
 31
0.0
210
0.0
220
0.0
230
1.0
 40
0.8616397134480997
 41
4.846203273050803
 42
6.283185307179585
  0
ELLIPSE
  5
B48B
330
1F
100
AcDbEntity
  8
AM_0
100
AcDbEllipse
 10
-21.09886932373024
 20
-6.408233642577875
 30
0.0
 11
-1.7290001344447
 21
0.2702941958739977
 31
0.0
210
0.0
220
0.0
230
1.0
 40
0.8616397134480997
 41
3.141592755050768
 42
4.846203217935521
  0
ELLIPSE
  5
B48C
330
1F
100
AcDbEntity
  8
AM_0
100
AcDbEllipse
 10
-21.09886932373024
 20
-6.408233642577875
 30
0.0
 11
-1.976001626303501
 21
0.3088988936859949
 31
0.0
210
0.0
220
0.0
230
1.0
 40
0.8616420195528997
 41
3.319102794741
 42
5.964135124715887
  0
ELLIPSE
  5
B492
330
1F
100
AcDbEntity
  8
AM_0
100
AcDbEllipse
 10
-59.9524669647212
 20
-24.830417633057
 30
0.0
 11
76.83924441826288
 21
51.80158231854488
 31
0.0
210
0.0
220
0.0
230
1.0
 40
0.0314369689323
 41
0.9134600785667077
 42
0.949103194567812
  0
ELLIPSE
  5
B493
330
1F
100
AcDbEntity
  8
AM_0
100
AcDbEllipse
 10
52.13545227050763
 20
47.8814067840573
 30
0.0
 11
79.68994018335384
 21
51.67859121550518
 31
0.0
210
0.0
220
0.0
230
1.0
 40
0.0299267415366
 41
2.277175415941741
 42
2.312618623721045
  0
ELLIPSE
  5
B4A0
330
1F
100
AcDbEntity
  8
AM_0
100
AcDbEllipse
 10
26.13531494140566
 20
32.42785644531232
 30
0.0
 11
79.25117109164583
 21
47.50864530795306
 31
0.0
210
0.0
220
0.0
230
0.9999999999999998
 40
0.1787317744597
 41
2.189823468470263
 42
2.225284615488103
  0
SPLINE
  5
B4A1
330
1F
100
AcDbEntity
  8
AM_0
100
AcDbSpline
210
0.0
220
0.0
230
1.0
 70
     8
 71
     3
 72
    11
 73
     7
 74
     5
 42
0.0000000001
 43
0.0000000001
 44
0.0000000001
 40
0.0
 40
0.0
 40
0.0
 40
0.0
 40
0.089538657429817
 40
0.1790735469732123
 40
0.2686122512090425
 40
0.35814709394443
 40
0.35814709394443
 40
0.35814709394443
 40
0.35814709394443
 10
-15.90083312988328
 20
15.29162597656313
 30
0.0
 10
-15.93067932519147
 20
15.29166412273017
 30
0.0
 10
-15.99037045984674
 20
15.29174041345903
 30
0.0
 10
-16.0799077351811
 20
15.29190063964229
 30
0.0
 10
-16.16944373897859
 20
15.2920608479453
 30
0.0
 10
-16.22913487362366
 20
15.29213714517627
 30
0.0
 10
-16.2589797973633
 20
15.29217529296912
 30
0.0
 11
-15.90083312988328
 21
15.29162597656313
 31
0.0
 11
-15.99037170410229
 21
15.29174804687513
 31
0.0
 11
-16.07990646362329
 21
15.29190063476613
 31
0.0
 11
-16.16944503784226
 21
15.29205322265613
 31
0.0
 11
-16.2589797973633
 21
15.29217529296912
 31
0.0
  0
SPLINE
  5
B4A2
330
1F
100
AcDbEntity
  8
AM_0
100
AcDbSpline
210
0.0
220
0.0
230
1.0
 70
     8
 71
     3
 72
    11
 73
     7
 74
     5
 42
0.0000000001
 43
0.0000000001
 44
0.0000000001
 40
0.0
 40
0.0
 40
0.0
 40
0.0
 40
0.1145181240322449
 40
0.2290324346684387
 40
0.3435459523532814
 40
0.4580602629894491
 40
0.4580602629894491
 40
0.4580602629894491
 40
0.4580602629894491
 10
-28.80281448364232
 20
-12.9870910644529
 30
0.0
 10
-28.8409741957815
 20
-12.98808705541469
 30
0.0
 10
-28.91729234936061
 20
-12.99007900417227
 30
0.0
 10
-29.03176825131333
 20
-12.99308340177392
 30
0.0
 10
-29.14624458229249
 20
-12.99602237274825
 30
0.0
 10
-29.22256097223288
 20
-12.9980230802737
 30
0.0
 10
-29.26071929931624
 20
-12.9990234374999
 30
0.0
 11
-28.80281448364232
 21
-12.9870910644529
 31
0.0
 11
-28.91729354858373
 21
-12.9900817871089
 31
0.0
 11
-29.03176879882793
 21
-12.99307250976589
 31
0.0
 11
-29.14624404907204
 21
-12.99603271484391
 31
0.0
 11
-29.26071929931624
 21
-12.9990234374999
 31
0.0
  0
SPLINE
  5
B4A3
330
1F
100
AcDbEntity
  8
AM_0
100
AcDbSpline
210
0.0
220
0.0
230
1.0
 70
     8
 71
     3
 72
    11
 73
     7
 74
     5
 42
0.0000000001
 43
0.0000000001
 44
0.0000000001
 40
0.0
 40
0.0
 40
0.0
 40
0.0
 40
1.810228205802216
 40
3.609104581866137
 40
5.39313828468633
 40
7.158884186891171
 40
7.158884186891171
 40
7.158884186891171
 40
7.158884186891171
 10
-0.7618827819823028
 20
16.15499877929716
 30
0.0
 10
-1.364874669977571
 20
16.17755792936855
 30
0.0
 10
-2.56707712092624
 20
16.22253476246877
 30
0.0
 10
-4.364200463074099
 20
16.26968600244748
 30
0.0
 10
-6.146805906839262
 20
16.30301599224894
 30
0.0
 10
-7.330045410845015
 20
16.31136716546658
 30
0.0
 10
-7.918617248535293
 20
16.31552124023414
 30
0.0
 11
-0.7618827819823028
 21
16.15499877929716
 31
0.0
 11
-2.570968627930306
 21
16.21929931640616
 31
0.0
 11
-4.36919784545929
 21
16.26754760742214
 31
0.0
 11
-6.152942657471295
 21
16.29965209960916
 31
0.0
 11
-7.918617248535293
 21
16.31552124023414
 31
0.0
  0
SPLINE
  5
B4A4
330
1F
100
AcDbEntity
  8
AM_0
100
AcDbSpline
210
0.0
220
0.0
230
1.0
 70
     8
 71
     3
 72
    11
 73
     7
 74
     5
 42
0.0000000001
 43
0.0000000001
 44
0.0000000001
 40
0.0
 40
0.0
 40
0.0
 40
0.0
 40
0.1563063676776442
 40
0.3126533825353651
 40
0.4690619281258334
 40
0.6255491325133179
 40
0.6255491325133179
 40
0.6255491325133179
 40
0.6255491325133179
 10
-0.7618789672852929
 20
16.15499877929716
 30
0.0
 10
-0.7098543821437275
 20
16.14969632831169
 30
0.0
 10
-0.6057916829640325
 20
16.13909004744823
 30
0.0
 10
-0.457932002622799
 20
16.08438880628558
 30
0.0
 10
-0.3211182042374009
 20
16.00594173602909
 30
0.0
 10
-0.2461753200433104
 20
15.93285421618256
 30
0.0
 10
-0.208694458008289
 20
15.89630126953115
 30
0.0
 11
-0.7618789672852929
 21
16.15499877929716
 31
0.0
 11
-0.6071815490722884
 21
16.13262939453115
 31
0.0
 11
-0.4598007202153212
 21
16.08044433593816
 31
0.0
 11
-0.325210571289312
 21
16.00076293945316
 31
0.0
 11
-0.208694458008289
 21
15.89630126953115
 31
0.0
  0
SPLINE
  5
B4A5
330
1F
100
AcDbEntity
  8
AM_0
100
AcDbSpline
210
0.0
220
0.0
230
1.0
 70
     8
 71
     3
 72
    11
 73
     7
 74
     5
 42
0.0000000001
 43
0.0000000001
 44
0.0000000001
 40
0.0
 40
0.0
 40
0.0
 40
0.0
 40
0.0000381469722242
 40
0.0000534057612299
 40
0.0000762939452216
 40
0.0001104136346798
 40
0.0001104136346798
 40
0.0001104136346798
 40
0.0001104136346798
 10
-0.7619552612303212
 20
16.15493774414115
 30
0.0
 10
-0.7619493947056848
 20
16.15495148465619
 30
0.0
 10
-0.7619411815711761
 20
16.15497072137728
 30
0.0
 10
-0.7619146404160766
 20
16.15496823129939
 30
0.0
 10
-0.7618873658046093
 20
16.15496328454433
 30
0.0
 10
-0.7618821118319245
 20
16.1549854894658
 30
0.0
 10
-0.7618789672852929
 20
16.15499877929716
 30
0.0
 11
-0.7619552612303212
 21
16.15493774414115
 31
0.0
 11
-0.7619323730472959
 21
16.15496826171916
 31
0.0
 11
-0.7619171142582902
 21
16.15496826171916
 31
0.0
 11
-0.7618942260742985
 21
16.15496826171916
 31
0.0
 11
-0.7618789672852929
 21
16.15499877929716
 31
0.0
  0
SPLINE
  5
B4A6
330
1F
100
AcDbEntity
  8
AM_0
100
AcDbSpline
210
0.0
220
0.0
230
1.0
 70
     8
 71
     3
 72
    11
 73
     7
 74
     5
 42
0.0000000001
 43
0.0000000001
 44
0.0000000001
 40
0.0
 40
0.0
 40
0.0
 40
0.0
 40
0.6318187943913286
 40
1.26363758878185
 40
1.895453238555218
 40
2.527268888328587
 40
2.527268888328587
 40
2.527268888328587
 40
2.527268888328587
 10
-2.845291137695271
 20
14.72427368164116
 30
0.0
 10
-2.671679207979765
 20
14.84349572923394
 30
0.0
 10
-2.324455348548976
 20
15.08193982441934
 30
0.0
 10
-1.803619899574661
 20
15.43960461090015
 30
0.0
 10
-1.282787410315967
 20
15.79727185566832
 30
0.0
 10
-0.9355659775922033
 20
16.03571578131688
 30
0.0
 10
-0.7619552612303212
 20
16.15493774414115
 30
0.0
 11
-2.845291137695271
 21
14.72427368164116
 31
0.0
 11
-2.324455261230288
 21
15.08193969726616
 31
0.0
 11
-1.803619384766269
 21
15.43960571289114
 31
0.0
 11
-1.282787322998295
 21
15.79727172851615
 31
0.0
 11
-0.7619552612303212
 21
16.15493774414115
 31
0.0
  0
SPLINE
  5
B4A7
330
1F
100
AcDbEntity
  8
AM_0
100
AcDbSpline
210
0.0
220
0.0
230
1.0
 70
     8
 71
     3
 72
    11
 73
     7
 74
     5
 42
0.0000000001
 43
0.0000000001
 44
0.0000000001
 40
0.0
 40
0.0
 40
0.0
 40
0.0
 40
0.2824205084642196
 40
0.5648184848689084
 40
0.8472190341717578
 40
1.12964211532744
 40
1.12964211532744
 40
1.12964211532744
 40
1.12964211532744
 10
-2.083412170410282
 20
13.89022827148416
 30
0.0
 10
-2.146900231604844
 20
13.95973825357502
 30
0.0
 10
-2.2738712887925
 20
14.09875267211466
 30
0.0
 10
-2.464347823723629
 20
14.30725215249093
 30
0.0
 10
-2.654828501704671
 20
14.51574900943628
 30
0.0
 10
-2.781801903964268
 20
14.6547636090569
 30
0.0
 10
-2.845291137695271
 20
14.72427368164116
 30
0.0
 11
-2.083412170410282
 21
13.89022827148416
 31
0.0
 11
-2.27388000488328
 21
14.09875488281316
 31
0.0
 11
-2.464347839355284
 21
14.30725097656316
 31
0.0
 11
-2.654819488525292
 21
14.51574707031316
 31
0.0
 11
-2.845291137695271
 21
14.72427368164116
 31
0.0
  0
SPLINE
  5
B4A8
330
1F
100
AcDbEntity
  8
AM_0
100
AcDbSpline
210
0.0
220
0.0
230
1.0
 70
     8
 71
     3
 72
    11
 73
     7
 74
     5
 42
0.0000000001
 43
0.0000000001
 44
0.0000000001
 40
0.0
 40
0.0
 40
0.0
 40
0.0
 40
0.1565939918344565
 40
0.3132584008788505
 40
0.4700032761950875
 40
0.6268017714979818
 40
0.6268017714979818
 40
0.6268017714979818
 40
0.6268017714979818
 10
-0.208694458008289
 20
15.89630126953115
 30
0.0
 10
-0.1756560574318796
 20
15.8556444922699
 30
0.0
 10
-0.1095643995660916
 20
15.77431265520164
 30
0.0
 10
-0.0435780963344733
 20
15.63079601278552
 30
0.0
 10
-0.0021923511881451
 20
15.47828803556893
 30
0.0
 10
-0.0007283240541258
 20
15.37340423678079
 30
0.0
 10
0.0000038146967065
 20
15.32095336914115
 30
0.0
 11
-0.208694458008289
 21
15.89630126953115
 31
0.0
 11
-0.1151046752933025
 21
15.77075195312516
 31
0.0
 11
-0.0476913452153191
 21
15.62933349609417
 31
0.0
 11
-0.0087280273442815
 21
15.47750854492216
 31
0.0
 11
0.0000038146967065
 21
15.32095336914115
 31
0.0
  0
SPLINE
  5
B4A9
330
1F
100
AcDbEntity
  8
AM_0
100
AcDbSpline
210
0.0
220
0.0
230
1.0
 70
     8
 71
     3
 72
    11
 73
     7
 74
     5
 42
0.0000000001
 43
0.0000000001
 44
0.0000000001
 40
0.0
 40
0.0
 40
0.0
 40
0.0
 40
1.009325876738636
 40
2.01865175347825
 40
3.027947124256572
 40
4.037273106250879
 40
4.037273106250879
 40
4.037273106250879
 40
4.037273106250879
 10
-2.083412170410282
 20
13.89022827148416
 30
0.0
 10
-2.092694602784474
 20
13.55391438808597
 30
0.0
 10
-2.111259467532864
 20
12.88128662128925
 30
0.0
 10
-2.139106441601327
 20
11.87235513470434
 30
0.0
 10
-2.166953586639113
 20
10.86342361773735
 30
0.0
 10
-2.185521198533562
 20
10.19080606419692
 30
0.0
 10
-2.194805145264291
 20
9.854492187500166
 30
0.0
 11
-2.083412170410282
 21
13.89022827148416
 31
0.0
 11
-2.111259460449282
 21
12.88128662109416
 31
0.0
 11
-2.139106750488284
 21
11.87234497070318
 31
0.0
 11
-2.166954040527257
 21
10.86343383789116
 31
0.0
 11
-2.194805145264291
 21
9.854492187500166
 31
0.0
  0
SPLINE
  5
B4AA
330
1F
100
AcDbEntity
  8
AM_0
100
AcDbSpline
210
0.0
220
0.0
230
1.0
 70
     8
 71
     3
 72
    11
 73
     7
 74
     5
 42
0.0000000001
 43
0.0000000001
 44
0.0000000001
 40
0.0
 40
0.0
 40
0.0
 40
0.0
 40
0.4910322183210693
 40
0.9820430322307412
 40
1.473075250551809
 40
1.964083675608559
 40
1.964083675608559
 40
1.964083675608559
 40
1.964083675608559
 10
-2.194805145264291
 20
9.854492187500166
 30
0.0
 10
-2.092313895204212
 20
9.726876212963363
 30
0.0
 10
-1.887335862743813
 20
9.471649826752473
 30
0.0
 10
-1.579829932241989
 20
9.088836901129905
 30
0.0
 10
-1.272372250126124
 20
8.705995395678456
 30
0.0
 10
-1.06737702578943
 20
8.450783839000491
 30
0.0
 10
-0.9648818969732689
 20
8.323181152344153
 30
0.0
 11
-2.194805145264291
 21
9.854492187500166
 31
0.0
 11
-1.887325286865283
 21
9.471649169922157
 31
0.0
 11
-1.579841613770288
 21
9.088836669922159
 31
0.0
 11
-1.272361755371281
 21
8.705993652344151
 31
0.0
 11
-0.9648818969732689
 21
8.323181152344153
 31
0.0
  0
SPLINE
  5
B4AB
330
1F
100
AcDbEntity
  8
AM_0
100
AcDbSpline
210
0.0
220
0.0
230
1.0
 70
     8
 71
     3
 72
    11
 73
     7
 74
     5
 42
0.0000000001
 43
0.0000000001
 44
0.0000000001
 40
0.0
 40
0.0
 40
0.0
 40
0.0
 40
1.41790017673307
 40
2.835799745563647
 40
4.253699922296508
 40
5.671599491127094
 40
5.671599491127094
 40
5.671599491127094
 40
5.671599491127094
 10
-0.9648818969732689
 20
8.323181152344153
 30
0.0
 10
-0.8895627999968661
 20
8.789774505378495
 30
0.0
 10
-0.7389246383359436
 20
9.722961011402588
 30
0.0
 10
-0.5129753464611146
 20
11.12274215646443
 30
0.0
 10
-0.2870165267641891
 20
12.52252155827768
 30
0.0
 10
-0.1363826140432628
 20
13.45570875017022
 30
0.0
 10
-0.06106567382828
 20
13.92230224609416
 30
0.0
 11
-0.9648818969732689
 21
8.323181152344153
 31
0.0
 11
-0.7389259338382825
 21
9.72296142578117
 31
0.0
 11
-0.5129737854002772
 21
11.12274169921918
 31
0.0
 11
-0.2870178222662568
 21
12.52252197265614
 31
0.0
 11
-0.06106567382828
 21
13.92230224609416
 31
0.0
  0
SPLINE
  5
B4AC
330
1F
100
AcDbEntity
  8
AM_0
100
AcDbSpline
210
0.0
220
0.0
230
1.0
 70
     8
 71
     3
 72
    11
 73
     7
 74
     5
 42
0.0000000001
 43
0.0000000001
 44
0.0000000001
 40
0.0
 40
0.0
 40
0.0
 40
0.0
 40
0.631834517592639
 40
1.263683166369232
 40
1.895517683961871
 40
2.527369477307917
 40
2.527369477307917
 40
2.527369477307917
 40
2.527369477307917
 10
0.0000038146967065
 20
15.32095336914115
 30
0.0
 10
-0.1736163355480249
 20
15.20173403400098
 30
0.0
 10
-0.5208605191084707
 20
14.96329269734153
 30
0.0
 10
-1.041691847599345
 20
14.60558396341922
 30
0.0
 10
-1.56256716278621
 20
14.24792911015644
 30
0.0
 10
-1.909795585558358
 20
14.00946297105869
 30
0.0
 10
-2.083412170410282
 20
13.89022827148416
 30
0.0
 11
0.0000038146967065
 21
15.32095336914115
 31
0.0
 11
-0.5208511352542934
 21
14.96328735351615
 31
0.0
 11
-1.041702270508282
 21
14.60559082031316
 31
0.0
 11
-1.562557220459282
 21
14.24792480468816
 31
0.0
 11
-2.083412170410282
 21
13.89022827148416
 31
0.0
  0
SPLINE
  5
B4AD
330
1F
100
AcDbEntity
  8
AM_0
100
AcDbSpline
210
0.0
220
0.0
230
1.0
 70
     8
 71
     3
 72
    11
 73
     7
 74
     5
 42
0.0000000001
 43
0.0000000001
 44
0.0000000001
 40
0.0
 40
0.0
 40
0.0
 40
0.0
 40
0.5056522340793363
 40
1.011304468158671
 40
1.516952404538824
 40
2.022600824401762
 40
2.022600824401762
 40
2.022600824401762
 40
2.022600824401762
 10
-2.083412170410282
 20
13.89022827148416
 30
0.0
 10
-1.91488264554743
 20
13.89290273923035
 30
0.0
 10
-1.577823595821725
 20
13.89825167472272
 30
0.0
 10
-1.072236712185827
 20
13.90629137403445
 30
0.0
 10
-0.5666500655352022
 20
13.9142657783556
 30
0.0
 10
-0.2295938581107782
 20
13.91962342266084
 30
0.0
 10
-0.06106567382828
 20
13.92230224609416
 30
0.0
 11
-2.083412170410282
 21
13.89022827148416
 31
0.0
 11
-1.577823638916283
 21
13.89825439453115
 31
0.0
 11
-1.072235107422285
 21
13.90628051757816
 31
0.0
 11
-0.5666503906252971
 21
13.91427612304716
 31
0.0
 11
-0.06106567382828
 21
13.92230224609416
 31
0.0
  0
ELLIPSE
  5
B4B1
330
1F
100
AcDbEntity
  8
AM_0
100
AcDbEllipse
 10
-28.06818771362287
 20
3.893280029297097
 30
0.0
 11
3.327548096488566
 21
14.68423470985701
 31
0.0
210
0.0
220
0.0
230
0.9999999999999996
 40
0.0073478405671
 41
5.282294962758665
 42
5.5507152322329
  0
ELLIPSE
  5
B4B2
330
1F
100
AcDbEntity
  8
AM_0
100
AcDbEllipse
 10
-15.27667236328126
 20
9.153778076172129
 30
0.0
 11
2.122321964570997
 21
1.381805623957004
 31
0.0
210
0.0
220
0.0
230
1.0
 40
0.9805290684307999
 41
1.713099318696746
 42
1.85762462625324
  0
ELLIPSE
  5
B4B3
330
1F
100
AcDbEntity
  8
AM_0
100
AcDbEllipse
 10
-17.42885589599628
 20
9.24777221679712
 30
0.0
 11
0.4931677822249956
 21
2.480834921284001
 31
0.0
210
0.0
220
0.0
230
0.9999999999999998
 40
0.0235214213629
 41
0.868486199755919
 42
0.9158170743674103
  0
ELLIPSE
  5
B4B4
330
1F
100
AcDbEntity
  8
AM_0
100
AcDbEllipse
 10
-15.34699249267628
 20
9.156860351563119
 30
0.0
 11
2.122321964571996
 21
1.381805623957008
 31
0.0
210
0.0
220
0.0
230
1.0
 40
0.9805290684307999
 41
4.125001081208351
 42
4.709838904906772
  0
ELLIPSE
  5
B4B5
330
1F
100
AcDbEntity
  8
AM_0
100
AcDbEllipse
 10
-15.27667236328126
 20
9.153778076172129
 30
0.0
 11
2.122321964570997
 21
1.381805623957004
 31
0.0
210
0.0
220
0.0
230
1.0
 40
0.9805290684307999
 41
4.710967694182863
 42
4.808518402366014
  0
ELLIPSE
  5
B4B6
330
1F
100
AcDbEntity
  8
AM_0
100
AcDbEllipse
 10
-18.88230133056623
 20
-13.0772705078119
 30
0.0
 11
-0.4979899075860159
 21
7.278716833122
 31
0.0
210
0.0
220
0.0
230
0.9999999999999998
 40
0.8221806034668999
 41
4.817353761947693
 42
4.823736747568641
  0
ELLIPSE
  5
B4B7
330
1F
100
AcDbEntity
  8
AM_0
100
AcDbEllipse
 10
-31.94625663757307
 20
12.22155761718807
 30
0.0
 11
-5.871698494831399
 21
1.235656748450989
 31
0.0
210
0.0
220
0.0
230
1.0
 40
0.9722464800692
 41
2.855960800464306
 42
3.182230845883113
  0
ELLIPSE
  5
B4B8
330
1F
100
AcDbEntity
  8
AM_0
100
AcDbEllipse
 10
-15.34699249267628
 20
9.156860351563119
 30
0.0
 11
2.122321964571996
 21
1.381805623957008
 31
0.0
210
0.0
220
0.0
230
1.0
 40
0.9805290684307999
 41
1.802487504216538
 42
4.039641864527926
  0
ELLIPSE
  5
B4B9
330
1F
100
AcDbEntity
  8
AM_0
100
AcDbEllipse
 10
-29.16649627685528
 20
9.557098388672095
 30
0.0
 11
-2.459640570072301
 21
0.5556335603809956
 31
0.0
210
0.0
220
0.0
230
1.0
 40
0.9639874872771001
 41
2.095295168518719
 42
3.318129924877491
  0
ELLIPSE
  5
B4BA
330
1F
100
AcDbEntity
  8
AM_0
100
AcDbEllipse
 10
-15.06818771362326
 20
-4.39743041992188
 30
0.0
 11
-3.325175618905026
 21
12.12310809708499
 31
0.0
210
0.0
220
0.0
230
0.9999999999999998
 40
0.0136601977407
 41
3.89465553851647
 42
4.045198601863971
  0
ELLIPSE
  5
B4BB
330
1F
100
AcDbEntity
  8
AM_0
100
AcDbEllipse
 10
64.39057159423774
 20
0.0000000000002957
 30
0.0
 11
-316.8966856514259
 21
3.511261148468301
 31
0.0
210
0.0
220
0.0
230
1.0
 40
0.0469919748827
 41
4.970246017912573
 42
5.000034123415924
  0
ELLIPSE
  5
B4BC
330
1F
100
AcDbEntity
  8
AM_0
100
AcDbEllipse
 10
-32.35709381103493
 20
0.000000000000088
 30
0.0
 11
-2.724459795867932
 21
15.29772916538999
 31
0.0
210
0.0
220
0.0
230
0.9999999999999996
 40
0.0965489640549
 41
3.621241184597884
 42
3.680395471165716
  0
ELLIPSE
  5
B4BD
330
1F
100
AcDbEntity
  8
AM_0
100
AcDbEllipse
 10
-30.98418045043923
 20
0.0000000000000942
 30
0.0
 11
0.4104956849024662
 21
15.299468600299
 31
0.0
210
0.0
220
0.0
230
0.9999999999999996
 40
0.3084613764997999
 41
3.70689587077729
 42
3.82064212138239
  0
ELLIPSE
  5
B4BE
330
1F
100
AcDbEntity
  8
AM_0
100
AcDbEllipse
 10
-30.51412582397444
 20
0.0000000000000963
 30
0.0
 11
-1.163948818764733
 21
15.299194475875
 31
0.0
210
0.0
220
0.0
230
0.9999999999999996
 40
0.1336880081508
 41
3.802075520788714
 42
3.895197689362654
  0
ELLIPSE
  5
B4BF
330
1F
100
AcDbEntity
  8
AM_0
100
AcDbEllipse
 10
17.36884307861275
 20
0.0000000000001979
 30
0.0
 11
-194.590580036441
 21
7.73101801152057
 31
0.0
210
0.0
220
0.0
230
1.0
 40
0.0678504783726
 41
1.33677239389314
 42
1.41999476850574
  0
ELLIPSE
  5
B4C0
330
1F
100
AcDbEntity
  8
AM_0
100
AcDbEllipse
 10
-15.38028717041024
 20
0.0000000000001359
 30
0.0
 11
-1.903823131025032
 21
15.296997167307
 31
0.0
210
0.0
220
0.0
230
0.9999999999999996
 40
0.1591334198723
 41
3.651454424577416
 42
3.802335834454343
  0
ELLIPSE
  5
B4C1
330
1F
100
AcDbEntity
  8
AM_0
100
AcDbEllipse
 10
-14.79428100585923
 20
0.0000000000001386
 30
0.0
 11
-2.200939742054033
 21
15.299285342669
 31
0.0
210
0.0
220
0.0
230
0.9999999999999996
 40
0.0669989420406
 41
3.464976160256383
 42
3.630720947087113
  0
ELLIPSE
  5
B4C2
330
1F
100
AcDbEntity
  8
AM_0
100
AcDbEllipse
 10
-14.90471267700224
 20
0.0000000000001381
 30
0.0
 11
-2.472823717395033
 21
15.299621337816
 31
0.0
210
0.0
220
0.0
230
0.9999999999999996
 40
0.0424335767398
 41
3.107154868822766
 42
3.135133378667238
  0
ELLIPSE
  5
B4C3
330
1F
100
AcDbEntity
  8
AM_0
100
AcDbEllipse
 10
-9.781272888184226
 20
0.0000000000001611
 30
0.0
 11
1.951736983702961
 21
15.295379228427
 31
0.0
210
0.0
220
0.0
230
0.9999999999999996
 40
0.1928189705446
 41
3.172976736946606
 42
3.446668435467106
  0
ELLIPSE
  5
B4C4
330
1F
100
AcDbEntity
  8
AM_0
100
AcDbEllipse
 10
12.65509033203074
 20
0.0000000000002052
 30
0.0
 11
-26.24908647488703
 21
13.58752476006295
 31
0.0
210
0.0
220
0.0
230
1.0
 40
0.267949075762
 41
0.7232892119215415
 42
1.054377476560555
  0
ELLIPSE
  5
B4C5
330
1F
100
AcDbEntity
  8
AM_0
100
AcDbEllipse
 10
0.4665527343747291
 20
1.800689697266145
 30
0.0
 11
181.3261562098168
 21
4.030993327066401
 31
0.0
210
0.0
220
0.0
230
1.0
 40
0.071001617026
 41
1.714045931966718
 42
1.716307636077793
  0
ELLIPSE
  5
B4C6
330
1F
100
AcDbEntity
  8
AM_0
100
AcDbEllipse
 10
68.39885711669876
 20
-0.0000610351556804
 30
0.0
 11
-194.589871514119
 21
7.731170648122576
 31
0.0
210
0.0
220
0.0
230
1.0
 40
0.067850252803
 41
1.084509797694438
 42
1.107639252867274
  0
ELLIPSE
  5
B4C7
330
1F
100
AcDbEntity
  8
AM_0
100
AcDbEllipse
 10
-24.16587448120095
 20
0.0000000000000964
 30
0.0
 11
0.0243187565593663
 21
15.29998753959101
 31
0.0
210
0.0
220
0.0
230
0.9999999999999998
 40
0.0900528618943
 41
4.157824641804864
 42
4.379421447159136
  0
ELLIPSE
  5
B4C8
330
1F
100
AcDbEntity
  8
AM_0
100
AcDbEllipse
 10
-20.14968109130922
 20
0.0000000000001145
 30
0.0
 11
0.0243187565599658
 21
15.299987539591
 31
0.0
210
0.0
220
0.0
230
0.9999999999999998
 40
0.0900528618943
 41
4.134742133749121
 42
4.396746518768047
  0
ELLIPSE
  5
B4C9
330
1F
100
AcDbEntity
  8
AM_0
100
AcDbEllipse
 10
-14.90471267700224
 20
0.0000000000001381
 30
0.0
 11
-2.472828738817035
 21
15.299652405887
 31
0.0
210
0.0
220
0.0
230
0.9999999999999998
 40
0.0424334905725
 41
3.135133365551116
 42
3.454247415580272
  0
ELLIPSE
  5
B4CA
330
1F
100
AcDbEntity
  8
AM_0
100
AcDbEllipse
 10
-0.5511322021482457
 20
0.0000000000001742
 30
0.0
 11
1.951736983701965
 21
15.295379228427
 31
0.0
210
0.0
220
0.0
230
0.9999999999999996
 40
0.1928189705446
 41
1.556600228019394
 42
1.952205775431098
  0
ELLIPSE
  5
B4CB
330
1F
100
AcDbEntity
  8
AM_0
100
AcDbEllipse
 10
-0.5511322021482457
 20
0.0000000000001742
 30
0.0
 11
1.951736983701965
 21
15.295379228427
 31
0.0
210
0.0
220
0.0
230
0.9999999999999996
 40
0.1928189705446
 41
2.254471769323191
 42
2.789265529902312
  0
SPLINE
  5
B4DA
330
1F
100
AcDbEntity
  8
AM_0
100
AcDbSpline
210
0.0
220
0.0
230
1.0
 70
     8
 71
     3
 72
    11
 73
     7
 74
     5
 42
0.0000000001
 43
0.0000000001
 44
0.0000000001
 40
0.0
 40
0.0
 40
0.0
 40
0.0
 40
0.2067232879336215
 40
0.4134664943554983
 40
0.6201956298055161
 40
0.8269275055312434
 40
0.8269275055312434
 40
0.8269275055312434
 40
0.8269275055312434
 10
-1.765937805176239
 20
-0.907257080077843
 30
0.0
 10
-1.714340753284082
 20
-0.9535719980161861
 30
0.0
 10
-1.611141677949238
 20
-1.046206296491925
 30
0.0
 10
-1.508798734290173
 20
-1.229299877694379
 30
0.0
 10
-1.450260749216907
 20
-1.430735467688575
 30
0.0
 10
-1.456826709028832
 20
-1.569257707943013
 30
0.0
 10
-1.460109710693244
 20
-1.638519287108835
 30
0.0
 11
-1.765937805176239
 21
-0.907257080077843
 31
0.0
 11
-1.619888305664235
 21
-1.053558349608835
 31
0.0
 11
-1.516098022461222
 21
-1.232360839843835
 31
0.0
 11
-1.461658477783231
 21
-1.431793212890853
 31
0.0
 11
-1.460109710693244
 21
-1.638519287108835
 31
0.0
  0
SPLINE
  5
B4DB
330
1F
100
AcDbEntity
  8
AM_0
100
AcDbSpline
210
0.0
220
0.0
230
1.0
 70
     8
 71
     3
 72
    11
 73
     7
 74
     5
 42
0.0000000001
 43
0.0000000001
 44
0.0000000001
 40
0.0
 40
0.0
 40
0.0
 40
0.0
 40
0.1297507350058833
 40
0.2595106805184826
 40
0.3892533799160472
 40
0.5190025375384441
 40
0.5190025375384441
 40
0.5190025375384441
 40
0.5190025375384441
 10
-4.084396362305199
 20
-14.22460937499985
 30
0.0
 10
-4.115352374007994
 20
-14.25481681316979
 30
0.0
 10
-4.177266594862052
 20
-14.31523383381978
 30
0.0
 10
-4.272840439072243
 20
-14.40301598010081
 30
0.0
 10
-4.37057437641019
 20
-14.48838933734159
 30
0.0
 10
-4.437522141198287
 20
-14.54316708509483
 30
0.0
 10
-4.470996856689223
 20
-14.57055664062485
 30
0.0
 11
-4.084396362305199
 21
-14.22460937499985
 31
0.0
 11
-4.17771530151421
 21
-14.31475830078087
 31
0.0
 11
-4.273204803467193
 21
-14.40261840820286
 31
0.0
 11
-4.371021270752207
 21
-14.48785400390587
 31
0.0
 11
-4.470996856689223
 21
-14.57055664062485
 31
0.0
  0
SPLINE
  5
B4DC
330
1F
100
AcDbEntity
  8
AM_0
100
AcDbSpline
210
0.0
220
0.0
230
1.0
 70
     8
 71
     3
 72
    11
 73
     7
 74
     5
 42
0.0000000001
 43
0.0000000001
 44
0.0000000001
 40
0.0
 40
0.0
 40
0.0
 40
0.0
 40
0.4985720773041064
 40
0.9971328840826174
 40
1.495693334244692
 40
1.994264883844466
 40
1.994264883844466
 40
1.994264883844466
 40
1.994264883844466
 10
-2.644660949707214
 20
-11.28594970703083
 30
0.0
 10
-2.669635657189701
 20
-11.45041075845594
 30
0.0
 10
-2.719584507586196
 20
-11.77932914356389
 30
0.0
 10
-2.857107078533098
 20
-12.25967179090286
 30
0.0
 10
-3.035245257176778
 20
-12.7264773759301
 30
0.0
 10
-3.192595003188718
 20
-13.0196035129395
 30
0.0
 10
-3.271270751953215
 20
-13.16616821289083
 30
0.0
 11
-2.644660949707214
 21
-11.28594970703083
 31
0.0
 11
-2.730018615723235
 21
-11.77716064453083
 31
0.0
 11
-2.863876342773219
 21
-12.25741577148384
 31
0.0
 11
-3.044891357422222
 21
-12.72195434570285
 31
0.0
 11
-3.271270751953215
 21
-13.16616821289083
 31
0.0
  0
SPLINE
  5
B4DD
330
1F
100
AcDbEntity
  8
AM_0
100
AcDbSpline
210
0.0
220
0.0
230
1.0
 70
     8
 71
     3
 72
    11
 73
     7
 74
     5
 42
0.0000000001
 43
0.0000000001
 44
0.0000000001
 40
0.0
 40
0.0
 40
0.0
 40
0.0
 40
0.9617376786735873
 40
1.923448032808917
 40
2.885170906248023
 40
3.846894808230532
 40
3.846894808230532
 40
3.846894808230532
 40
3.846894808230532
 10
-1.93741226196324
 20
-12.11401367187483
 30
0.0
 10
-1.994199641988275
 20
-12.4306555959813
 30
0.0
 10
-2.107772788616127
 20
-13.06393044787998
 30
0.0
 10
-2.506723584123559
 20
-13.94752937196935
 30
0.0
 10
-3.046778181293026
 20
-14.7526590831632
 30
0.0
 10
-3.524758087862855
 20
-15.18332036632174
 30
0.0
 10
-3.763748168945192
 20
-15.39865112304687
 30
0.0
 11
-1.93741226196324
 21
-12.11401367187483
 31
0.0
 11
-2.145874023438242
 21
-13.05288696289083
 31
0.0
 11
-2.530239105225207
 21
-13.93444824218683
 31
0.0
 11
-3.076263427734202
 21
-14.72613525390583
 31
0.0
 11
-3.763748168945192
 21
-15.39865112304687
 31
0.0
  0
SPLINE
  5
B4DE
330
1F
100
AcDbEntity
  8
AM_0
100
AcDbSpline
210
0.0
220
0.0
230
1.0
 70
     8
 71
     3
 72
    11
 73
     7
 74
     5
 42
0.0000000001
 43
0.0000000001
 44
0.0000000001
 40
0.0
 40
0.0
 40
0.0
 40
0.0
 40
1.18328970729359
 40
2.36284200920552
 40
3.537618455581746
 40
4.706639824427066
 40
4.706639824427066
 40
4.706639824427066
 40
4.706639824427066
 10
-1.937431335449227
 20
-12.11401367187483
 30
0.0
 10
-1.882752130901933
 20
-11.72339095873775
 30
0.0
 10
-1.773566425374426
 20
-10.94337930929884
 30
0.0
 10
-1.601474719813934
 20
-9.776789650364891
 30
0.0
 10
-1.42429843128628
 20
-8.615771945007582
 30
0.0
 10
-1.30061553394515
 20
-7.844355741494125
 30
0.0
 10
-1.238925933838233
 20
-7.45959472656182
 30
0.0
 11
-1.937431335449227
 21
-12.11401367187483
 31
0.0
 11
-1.771949768066249
 21
-10.94235229492182
 31
0.0
 11
-1.600273132324238
 21
-9.775360107421823
 31
0.0
 11
-1.422546386719201
 21
-8.61410522460884
 31
0.0
 11
-1.238925933838233
 21
-7.45959472656182
 31
0.0
  0
SPLINE
  5
B4DF
330
1F
100
AcDbEntity
  8
AM_0
100
AcDbSpline
210
0.0
220
0.0
230
1.0
 70
     8
 71
     3
 72
    11
 73
     7
 74
     5
 42
0.0000000001
 43
0.0000000001
 44
0.0000000001
 40
0.0
 40
0.0
 40
0.0
 40
0.0
 40
1.821758811647737
 40
3.638427981335007
 40
5.446507115811524
 40
7.242461585830795
 40
7.242461585830795
 40
7.242461585830795
 40
7.242461585830795
 10
-0.2058563232422501
 20
-0.291534423827864
 30
0.0
 10
-0.2835983897820153
 20
-0.8937947127985294
 30
0.0
 10
-0.4388653265557427
 20
-2.096632691913786
 30
0.0
 10
-0.6911561717499275
 20
-3.894548950054767
 30
0.0
 10
-0.955498042445123
 20
-5.68203983535151
 30
0.0
 10
-1.144662098168317
 20
-6.868406818640289
 30
0.0
 10
-1.238925933838233
 20
-7.45959472656182
 30
0.0
 11
-0.2058563232422501
 21
-0.291534423827864
 31
0.0
 11
-0.442409515381255
 21
-2.097869873046813
 31
0.0
 11
-0.6937789916992652
 21
-3.897064208983832
 31
0.0
 11
-0.9594650268552513
 21
-5.685516357421818
 31
0.0
 11
-1.238925933838233
 21
-7.45959472656182
 31
0.0
  0
SPLINE
  5
B4E0
330
1F
100
AcDbEntity
  8
AM_0
100
AcDbSpline
210
0.0
220
0.0
230
1.0
 70
     8
 71
     3
 72
    11
 73
     7
 74
     5
 42
0.0000000001
 43
0.0000000001
 44
0.0000000001
 40
0.0
 40
0.0
 40
0.0
 40
0.0
 40
0.1557879082118743
 40
0.3105958975616335
 40
0.4642606236113957
 40
0.6168002888419281
 40
0.6168002888419281
 40
0.6168002888419281
 40
0.6168002888419281
 10
-26.7618751525878
 20
16.4001464843751
 30
0.0
 10
-26.70991916026265
 20
16.39611330564949
 30
0.0
 10
-26.60633398311279
 20
16.38807231722692
 30
0.0
 10
-26.45847834783371
 20
16.33842563838859
 30
0.0
 10
-26.32164198359178
 20
16.26567069709784
 30
0.0
 10
-26.24625129933718
 20
16.19630071499452
 30
0.0
 10
-26.20869445800772
 20
16.16174316406311
 30
0.0
 11
-26.7618751525878
 21
16.4001464843751
 31
0.0
 11
-26.60718154907212
 21
16.38171386718811
 31
0.0
 11
-26.45979690551741
 21
16.33435058593812
 31
0.0
 11
-26.32521057128891
 21
16.26019287109411
 31
0.0
 11
-26.20869445800772
 21
16.16174316406311
 31
0.0
  0
SPLINE
  5
B4E1
330
1F
100
AcDbEntity
  8
AM_0
100
AcDbSpline
210
0.0
220
0.0
230
1.0
 70
     8
 71
     3
 72
    11
 73
     7
 74
     5
 42
0.0000000001
 43
0.0000000001
 44
0.0000000001
 40
0.0
 40
0.0
 40
0.0
 40
0.0
 40
0.0000190734864169
 40
0.0000550612683267
 40
0.0000741347546264
 40
0.0001101225365306
 40
0.0001101225365306
 40
0.0001101225365306
 40
0.0001101225365306
 10
-26.76195144653311
 20
16.4000854492191
 30
0.0
 10
-26.76194427723078
 20
16.40008398511989
 30
0.0
 10
-26.76192358091596
 20
16.40007975856384
 30
0.0
 10
-26.76192303044386
 20
16.40012335119467
 30
0.0
 10
-26.76188517330281
 20
16.40010980588183
 30
0.0
 10
-26.76187911334638
 20
16.40013198694087
 30
0.0
 10
-26.7618751525878
 20
16.4001464843751
 30
0.0
 11
-26.76195144653311
 21
16.4000854492191
 31
0.0
 11
-26.7619323730467
 21
16.4000854492191
 31
0.0
 11
-26.7619132995604
 21
16.4001159667971
 31
0.0
 11
-26.76189422607409
 21
16.4001159667971
 31
0.0
 11
-26.7618751525878
 21
16.4001464843751
 31
0.0
  0
SPLINE
  5
B4E2
330
1F
100
AcDbEntity
  8
AM_0
100
AcDbSpline
210
0.0
220
0.0
230
1.0
 70
     8
 71
     3
 72
    11
 73
     7
 74
     5
 42
0.0000000001
 43
0.0000000001
 44
0.0000000001
 40
0.0
 40
0.0
 40
0.0
 40
0.0
 40
0.6651995100960106
 40
1.330399020191971
 40
1.995595543472182
 40
2.660795053568107
 40
2.660795053568107
 40
2.660795053568107
 40
2.660795053568107
 10
-28.84529113769519
 20
14.74493408203109
 30
0.0
 10
-28.67167922280505
 20
14.88286341792658
 30
0.0
 10
-28.3244553930248
 20
15.15872208971755
 30
0.0
 10
-27.80361963712439
 20
15.57250848275141
 30
0.0
 10
-27.28278704428025
 20
15.9862988571181
 30
0.0
 10
-26.93556357229439
 20
16.26215637874676
 30
0.0
 10
-26.76195144653311
 20
16.4000854492191
 30
0.0
 11
-28.84529113769519
 21
14.74493408203109
 31
0.0
 11
-28.32445526123029
 21
15.15872192382809
 31
0.0
 11
-27.80361938476547
 21
15.5725097656251
 31
0.0
 11
-27.2827873229979
 21
15.9862976074221
 31
0.0
 11
-26.76195144653311
 21
16.4000854492191
 31
0.0
  0
SPLINE
  5
B4E3
330
1F
100
AcDbEntity
  8
AM_0
100
AcDbSpline
210
0.0
220
0.0
230
1.0
 70
     8
 71
     3
 72
    11
 73
     7
 74
     5
 42
0.0000000001
 43
0.0000000001
 44
0.0000000001
 40
0.0
 40
0.0
 40
0.0
 40
0.0
 40
0.2742769614310441
 40
0.5485346139153631
 40
0.8227896171095677
 40
1.097069227617945
 40
1.097069227617945
 40
1.097069227617945
 40
1.097069227617945
 10
-28.08341217040999
 20
13.9555664062501
 30
0.0
 10
-28.14689994258576
 20
14.02135358570287
 30
0.0
 10
-28.27387101743317
 20
14.15292331322729
 30
0.0
 10
-28.46435188707115
 20
14.35024879186042
 30
0.0
 10
-28.65482829181877
 20
14.54757980738853
 30
0.0
 10
-28.78180162372452
 20
14.67914735643938
 30
0.0
 10
-28.84529113769519
 20
14.74493408203109
 30
0.0
 11
-28.08341217040999
 21
13.9555664062501
 31
0.0
 11
-28.27388000488268
 21
14.1529235839841
 31
0.0
 11
-28.46435165405257
 21
14.35025024414108
 31
0.0
 11
-28.65481948852528
 21
14.5475769042971
 31
0.0
 11
-28.84529113769519
 21
14.74493408203109
 31
0.0
  0
SPLINE
  5
B4E4
330
1F
100
AcDbEntity
  8
AM_0
100
AcDbSpline
210
0.0
220
0.0
230
1.0
 70
     8
 71
     3
 72
    11
 73
     7
 74
     5
 42
0.0000000001
 43
0.0000000001
 44
0.0000000001
 40
0.0
 40
0.0
 40
0.0
 40
0.0
 40
0.1515786056274758
 40
0.3025907105978887
 40
0.4534322638863765
 40
0.60456340830244
 40
0.60456340830244
 40
0.60456340830244
 40
0.60456340830244
 10
-26.20869445800772
 20
16.16174316406311
 30
0.0
 10
-26.17567620443065
 20
16.12323813901377
 30
0.0
 10
-26.10976309768823
 20
16.04637199525265
 30
0.0
 10
-26.04360428335523
 20
15.90899093173774
 30
0.0
 10
-26.00216569991689
 20
15.76239114459823
 30
0.0
 10
-26.00071981903951
 20
15.6613485538001
 30
0.0
 10
-25.99999618530258
 20
15.61077880859411
 30
0.0
 11
-26.20869445800772
 21
16.16174316406311
 31
0.0
 11
-26.11510086059561
 21
16.04251098632812
 31
0.0
 11
-26.04769134521469
 21
15.90737915039112
 31
0.0
 11
-26.00872421264631
 21
15.76165771484411
 31
0.0
 11
-25.99999618530258
 21
15.61077880859411
 31
0.0
  0
SPLINE
  5
B4E5
330
1F
100
AcDbEntity
  8
AM_0
100
AcDbSpline
210
0.0
220
0.0
230
1.0
 70
     8
 71
     3
 72
    11
 73
     7
 74
     5
 42
0.0000000001
 43
0.0000000001
 44
0.0000000001
 40
0.0
 40
0.0
 40
0.0
 40
0.0
 40
0.6652144443017499
 40
1.330444885315315
 40
1.995659329616969
 40
2.660892757403424
 40
2.660892757403424
 40
2.660892757403424
 40
2.660892757403424
 10
-25.99999618530258
 20
15.61077880859411
 30
0.0
 10
-26.17361643833312
 20
15.47285196531289
 30
0.0
 10
-26.52086111951874
 20
15.19699496196144
 30
0.0
 10
-27.04169119819391
 20
14.78316724272952
 30
0.0
 10
-27.56256761525082
 20
14.36938767704187
 30
0.0
 10
-27.90979566721671
 20
14.09350814197567
 30
0.0
 10
-28.08341217040999
 20
13.9555664062501
 30
0.0
 11
-25.99999618530258
 21
15.61077880859411
 31
0.0
 11
-26.52085113525378
 21
15.19699096679711
 31
0.0
 11
-27.04170227050769
 21
14.7831726074221
 31
0.0
 11
-27.56255722045876
 21
14.3693847656251
 31
0.0
 11
-28.08341217040999
 21
13.9555664062501
 31
0.0
  0
SPLINE
  5
B4E6
330
1F
100
AcDbEntity
  8
AM_0
100
AcDbSpline
210
0.0
220
0.0
230
1.0
 70
     8
 71
     3
 72
    11
 73
     7
 74
     5
 42
0.0000000001
 43
0.0000000001
 44
0.0000000001
 40
0.0
 40
0.0
 40
0.0
 40
0.0
 40
0.5112761836536627
 40
1.022548595046582
 40
1.533824778700227
 40
2.045097190093178
 40
2.045097190093178
 40
2.045097190093178
 40
2.045097190093178
 10
-28.08341217040999
 20
13.9555664062501
 30
0.0
 10
-27.91488264986416
 20
13.98091627434733
 30
0.0
 10
-27.57782485220472
 20
14.03161582350723
 30
0.0
 10
-27.07223771485878
 20
14.10766644313492
 30
0.0
 10
-26.56665160391375
 20
14.18371543288239
 30
0.0
 10
-26.2295939027126
 20
14.23441562330651
 30
0.0
 10
-26.06106567382796
 20
14.25976562500011
 30
0.0
 11
-28.08341217040999
 21
13.9555664062501
 31
0.0
 11
-27.57782363891589
 21
14.03161621093811
 31
0.0
 11
-27.07223892211898
 21
14.1076660156251
 31
0.0
 11
-26.56665039062489
 21
14.18371582031311
 31
0.0
 11
-26.06106567382796
 21
14.25976562500011
 31
0.0
  0
SPLINE
  5
B4E7
330
1F
100
AcDbEntity
  8
AM_0
100
AcDbSpline
210
0.0
220
0.0
230
1.0
 70
     8
 71
     3
 72
    11
 73
     7
 74
     5
 42
0.0000000001
 43
0.0000000001
 44
0.0000000001
 40
0.0
 40
0.0
 40
0.0
 40
0.0
 40
1.053163637431552
 40
2.106327274863086
 40
3.159491013169112
 40
4.212685157508828
 40
4.212685157508828
 40
4.212685157508828
 40
4.212685157508828
 10
-28.08341217040999
 20
13.9555664062501
 30
0.0
 10
-28.09269471867711
 20
13.60463460599288
 30
0.0
 10
-28.11125981521133
 20
12.90277100547846
 30
0.0
 10
-28.13910533232799
 20
11.8499755147876
 30
0.0
 10
-28.16695963268847
 20
10.7971700839092
 30
0.0
 10
-28.18552321841448
 20
10.09529623726828
 30
0.0
 10
-28.19480514526349
 20
9.7443542480471
 30
0.0
 11
-28.08341217040999
 21
13.9555664062501
 31
0.0
 11
-28.11125946044905
 21
12.9027709960941
 31
0.0
 11
-28.13910675048806
 21
11.84997558593811
 31
0.0
 11
-28.16695785522446
 21
10.7971801757811
 31
0.0
 11
-28.19480514526349
 21
9.7443542480471
 31
0.0
  0
SPLINE
  5
B4E8
330
1F
100
AcDbEntity
  8
AM_0
100
AcDbSpline
210
0.0
220
0.0
230
1.0
 70
     8
 71
     3
 72
    11
 73
     7
 74
     5
 42
0.0000000001
 43
0.0000000001
 44
0.0000000001
 40
0.0
 40
0.0
 40
0.0
 40
0.0
 40
1.465763122380597
 40
2.931495503916112
 40
4.39722847351683
 40
5.862960855052341
 40
5.862960855052341
 40
5.862960855052341
 40
5.862960855052341
 10
-26.9648818969725
 20
8.466888427734092
 30
0.0
 10
-26.88956321427526
 20
8.949635819148879
 30
0.0
 10
-26.73892742850844
 20
9.915120477516628
 30
0.0
 10
-26.51297501918376
 20
11.36334267604784
 30
0.0
 10
-26.28701660547266
 20
12.81155356683737
 30
0.0
 10
-26.13638264097024
 20
13.77702833683873
 30
0.0
 10
-26.06106567382796
 20
14.25976562500011
 30
0.0
 11
-26.9648818969725
 21
8.466888427734092
 31
0.0
 11
-26.7389259338378
 21
9.915130615234092
 31
0.0
 11
-26.51297378540027
 21
11.36334228515608
 31
0.0
 11
-26.28701782226546
 21
12.81155395507811
 31
0.0
 11
-26.06106567382796
 21
14.25976562500011
 31
0.0
  0
SPLINE
  5
B4E9
330
1F
100
AcDbEntity
  8
AM_0
100
AcDbSpline
210
0.0
220
0.0
230
1.0
 70
     8
 71
     3
 72
    11
 73
     7
 74
     5
 42
0.0000000001
 43
0.0000000001
 44
0.0000000001
 40
0.0
 40
0.0
 40
0.0
 40
0.0
 40
0.4433269628048627
 40
0.8866539256097247
 40
1.329983534196276
 40
1.773310497001951
 40
1.773310497001951
 40
1.773310497001951
 40
1.773310497001951
 10
-28.19480514526349
 20
9.7443542480471
 30
0.0
 10
-28.09231180021291
 20
9.63789881974635
 30
0.0
 10
-27.88732511011176
 20
9.424987963144854
 30
0.0
 10
-27.5798455238003
 20
9.105620021858621
 30
0.0
 10
-27.27236169538807
 20
8.786256164810069
 30
0.0
 10
-27.06737495921773
 20
8.573344128316431
 30
0.0
 10
-26.9648818969725
 20
8.466888427734092
 30
0.0
 11
-28.19480514526349
 21
9.7443542480471
 31
0.0
 11
-27.88732528686508
 21
9.424987792969115
 31
0.0
 11
-27.5798454284667
 21
9.105621337891106
 31
0.0
 11
-27.27236175537099
 21
8.786254882813125
 31
0.0
 11
-26.9648818969725
 21
8.466888427734092
 31
0.0
  0
SPLINE
  5
B4EA
330
1F
100
AcDbEntity
  8
AM_0
100
AcDbSpline
210
0.0
220
0.0
230
1.0
 70
     8
 71
     3
 72
    11
 73
     7
 74
     5
 42
0.0000000001
 43
0.0000000001
 44
0.0000000001
 40
0.0
 40
0.0
 40
0.0
 40
0.0
 40
0.0830498533689141
 40
0.1660662156277304
 40
0.2490290095920067
 40
0.3319630885512902
 40
0.3319630885512902
 40
0.3319630885512902
 40
0.3319630885512902
 10
-27.21958923339828
 20
8.254180908203125
 30
0.0
 10
-27.19776071075771
 20
8.271207806806401
 30
0.0
 10
-27.15411246815865
 20
8.305254737658438
 30
0.0
 10
-27.08970268541963
 20
8.357625934240022
 30
0.0
 10
-27.0260686117799
 20
8.41087731471989
 30
0.0
 10
-26.98440785705029
 20
8.447243592436169
 30
0.0
 10
-26.96358108520487
 20
8.465423583984092
 30
0.0
 11
-27.21958923339828
 21
8.254180908203125
 31
0.0
 11
-27.15427780151346
 21
8.305480957031106
 31
0.0
 11
-27.08981323242166
 21
8.357788085938125
 31
0.0
 11
-27.02624893188455
 21
8.411102294922102
 31
0.0
 11
-26.96358108520487
 21
8.465423583984092
 31
0.0
  0
SPLINE
  5
B4EB
330
1F
100
AcDbEntity
  8
AM_0
100
AcDbSpline
210
0.0
220
0.0
230
1.0
 70
     8
 71
     3
 72
    11
 73
     7
 74
     5
 42
0.0000000001
 43
0.0000000001
 44
0.0000000001
 40
0.0
 40
0.0
 40
0.0
 40
0.0
 40
0.0176986710121995
 40
0.0364802755676047
 40
0.0563105748793816
 40
0.0772138920930249
 40
0.0772138920930249
 40
0.0772138920930249
 40
0.0772138920930249
 10
-25.45935821533188
 20
14.78427124023411
 30
0.0
 10
-25.46467330600803
 20
14.78170954284678
 30
0.0
 10
-25.47562870330307
 20
14.77642940477618
 30
0.0
 10
-25.49289063807431
 20
14.7690445638458
 30
0.0
 10
-25.51133250827061
 20
14.76172476429801
 30
0.0
 10
-25.52412214969042
 20
14.75716283030158
 30
0.0
 10
-25.53068542480448
 20
14.75482177734411
 30
0.0
 11
-25.45935821533188
 21
14.78427124023411
 31
0.0
 11
-25.47535705566388
 21
14.77670288085911
 31
0.0
 11
-25.49259948730448
 21
14.76925659179711
 31
0.0
 11
-25.51103973388657
 21
14.76196289062511
 31
0.0
 11
-25.53068542480448
 21
14.75482177734411
 31
0.0
  0
SPLINE
  5
B4EC
330
1F
100
AcDbEntity
  8
AM_0
100
AcDbSpline
210
0.0
220
0.0
230
1.0
 70
     8
 71
     3
 72
    11
 73
     7
 74
     5
 42
0.0000000001
 43
0.0000000001
 44
0.0000000001
 40
0.0
 40
0.0
 40
0.0
 40
0.0
 40
0.1141742305452038
 40
0.2271548520785573
 40
0.3388497643884978
 40
0.4491649120026276
 40
0.4491649120026276
 40
0.4491649120026276
 40
0.4491649120026276
 10
-26.48364639282208
 20
10.04296875000008
 30
0.0
 10
-26.49009898120337
 20
10.00546166473536
 30
0.0
 10
-26.5029367008208
 20
9.930839603657991
 30
0.0
 10
-26.52218775401031
 20
9.819542322433735
 30
0.0
 10
-26.54129750113938
 20
9.709526089635536
 30
0.0
 10
-26.55402963667969
 20
9.636626230069241
 30
0.0
 10
-26.56035614013656
 20
9.600402832031083
 30
0.0
 11
-26.48364639282208
 21
10.04296875000008
 31
0.0
 11
-26.50302124023417
 21
9.930450439453098
 31
0.0
 11
-26.52227401733378
 21
9.819122314453098
 31
0.0
 11
-26.5413932800292
 21
9.709075927734094
 31
0.0
 11
-26.56035614013656
 21
9.600402832031083
 31
0.0
  0
SPLINE
  5
B4ED
330
1F
100
AcDbEntity
  8
AM_0
100
AcDbSpline
210
0.0
220
0.0
230
1.0
 70
     8
 71
     3
 72
    11
 73
     7
 74
     5
 42
0.0000000001
 43
0.0000000001
 44
0.0000000001
 40
0.0
 40
0.0
 40
0.0
 40
0.0
 40
0.1410252459842797
 40
0.2820698600526016
 40
0.4232528134822985
 40
0.564633646205499
 40
0.564633646205499
 40
0.564633646205499
 40
0.564633646205499
 10
-28.39821243286116
 20
7.22659301757812
 30
0.0
 10
-28.44353966459617
 20
7.21407633492121
 30
0.0
 10
-28.53420035320429
 20
7.189041250594881
 30
0.0
 10
-28.67273990195581
 20
7.161814989187802
 30
0.0
 10
-28.81252241241805
 20
7.141233357631836
 30
0.0
 10
-28.90645425330703
 20
7.133952857783603
 30
0.0
 10
-28.95345306396468
 20
7.130310058594084
 30
0.0
 11
-28.39821243286116
 21
7.22659301757812
 31
0.0
 11
-28.53461074829085
 21
7.190765380859113
 31
0.0
 11
-28.67288208007796
 21
7.162933349609112
 31
0.0
 11
-28.81262969970687
 21
7.142852783203118
 31
0.0
 11
-28.95345306396468
 21
7.130310058594084
 31
0.0
  0
SPLINE
  5
B4EE
330
1F
100
AcDbEntity
  8
AM_0
100
AcDbSpline
210
0.0
220
0.0
230
1.0
 70
     8
 71
     3
 72
    11
 73
     7
 74
     5
 42
0.0000000001
 43
0.0000000001
 44
0.0000000001
 40
0.0
 40
0.0
 40
0.0
 40
0.0
 40
0.0268713514004885
 40
0.0537421636925932
 40
0.0806076181571133
 40
0.1074793120798874
 40
0.1074793120798874
 40
0.1074793120798874
 40
0.1074793120798874
 10
-15.39536285400425
 20
6.658874511719145
 30
0.0
 10
-15.40431997051337
 20
6.658915750914127
 30
0.0
 10
-15.42223402382884
 20
6.658998228476727
 30
0.0
 10
-15.44909949641345
 20
6.659478231466025
 30
0.0
 10
-15.47596035755445
 20
6.660180906856849
 30
0.0
 10
-15.49385783794728
 20
6.660917207382245
 30
0.0
 10
-15.50280761718824
 20
6.661285400391132
 30
0.0
 11
-15.39536285400425
 21
6.658874511719145
 31
0.0
 11
-15.42223358154326
 21
6.659057617188121
 31
0.0
 11
-15.44910049438525
 21
6.659515380859143
 31
0.0
 11
-15.47595596313525
 21
6.660247802734143
 31
0.0
 11
-15.50280761718824
 21
6.661285400391132
 31
0.0
  0
SPLINE
  5
B4EF
330
1F
100
AcDbEntity
  8
AM_0
100
AcDbSpline
210
0.0
220
0.0
230
1.0
 70
     8
 71
     3
 72
    11
 73
     7
 74
     5
 42
0.0000000001
 43
0.0000000001
 44
0.0000000001
 40
0.0
 40
0.0
 40
0.0
 40
0.0
 40
0.0140624503503702
 40
0.0289143107183467
 40
0.0447929160313126
 40
0.061936028454499
 40
0.061936028454499
 40
0.061936028454499
 40
0.061936028454499
 10
-12.3533897399902
 20
-14.51394653320286
 30
0.0
 10
-12.3544650262556
 20
-14.50937394816874
 30
0.0
 10
-12.35667596107951
 20
-14.49997209136794
 30
0.0
 10
-12.36288327360772
 20
-14.48630720343158
 30
0.0
 10
-12.37113631829803
 20
-14.47260251086482
 30
0.0
 10
-12.37809914130934
 20
-14.46406003922914
 30
0.0
 10
-12.3817138671882
 20
-14.45962524414087
 30
0.0
 11
-12.3533897399902
 21
-14.51394653320286
 31
0.0
 11
-12.3570404052732
 21
-14.50036621093687
 31
0.0
 11
-12.36298370361321
 21
-14.48675537109388
 31
0.0
 11
-12.3712120056152
 21
-14.47317504882786
 31
0.0
 11
-12.3817138671882
 21
-14.45962524414087
 31
0.0
  0
SPLINE
  5
B4F0
330
1F
100
AcDbEntity
  8
AM_0
100
AcDbSpline
210
0.0
220
0.0
230
1.0
 70
     8
 71
     3
 72
    11
 73
     7
 74
     5
 42
0.0000000001
 43
0.0000000001
 44
0.0000000001
 40
0.0
 40
0.0
 40
0.0
 40
0.0
 40
0.3972032859359328
 40
0.7943722343058213
 40
1.191567847722849
 40
1.588759656478235
 40
1.588759656478235
 40
1.588759656478235
 40
1.588759656478235
 10
-1.495529174805267
 20
7.462341308594149
 30
0.0
 10
-1.501113917499011
 20
7.330058048679138
 30
0.0
 10
-1.512282920094745
 20
7.065502964517787
 30
0.0
 10
-1.52892165946166
 20
6.668662338893506
 30
0.0
 10
-1.545479165040904
 20
6.271822144524411
 30
0.0
 10
-1.556439849856276
 20
6.00725328074504
 30
0.0
 10
-1.561920166016254
 20
5.87496948242216
 30
0.0
 11
-1.495529174805267
 21
7.462341308594149
 31
0.0
 11
-1.512264251709278
 21
7.065490722656168
 31
0.0
 11
-1.528907775879255
 21
6.66867065429716
 31
0.0
 11
-1.54545974731426
 21
6.271820068359148
 31
0.0
 11
-1.561920166016254
 21
5.87496948242216
 31
0.0
  0
SPLINE
  5
B4F1
330
1F
100
AcDbEntity
  8
AM_0
100
AcDbSpline
210
0.0
220
0.0
230
1.0
 70
     8
 71
     3
 72
    11
 73
     7
 74
     5
 42
0.0000000001
 43
0.0000000001
 44
0.0000000001
 40
0.0
 40
0.0
 40
0.0
 40
0.0
 40
0.1734270733056187
 40
0.3278651150479814
 40
0.4550111163545428
 40
0.548188883965165
 40
0.548188883965165
 40
0.548188883965165
 40
0.548188883965165
 10
-1.557228088379252
 20
6.054687500000171
 30
0.0
 10
-1.559417397972457
 20
5.996919707751451
 30
0.0
 10
-1.563556303323105
 20
5.887709285810478
 30
0.0
 10
-1.568415849600677
 20
5.736117583051309
 30
0.0
 10
-1.571908377303247
 20
5.611241018186144
 30
0.0
 10
-1.572663455685633
 20
5.537802487806867
 30
0.0
 10
-1.572982788086252
 20
5.506744384766165
 30
0.0
 11
-1.557228088379252
 21
6.054687500000171
 31
0.0
 11
-1.563617706299259
 21
5.881378173828182
 31
0.0
 11
-1.568592071533263
 21
5.72702026367216
 31
0.0
 11
-1.571792602539235
 21
5.599914550781166
 31
0.0
 11
-1.572982788086252
 21
5.506744384766165
 31
0.0
  0
SPLINE
  5
B4F2
330
1F
100
AcDbEntity
  8
AM_0
100
AcDbSpline
210
0.0
220
0.0
230
1.0
 70
     8
 71
     3
 72
    11
 73
     7
 74
     5
 42
0.0000000001
 43
0.0000000001
 44
0.0000000001
 40
0.0
 40
0.0
 40
0.0
 40
0.0
 40
0.0546281446694521
 40
0.1092496613716269
 40
0.1638991034684729
 40
0.2185496383572563
 40
0.2185496383572563
 40
0.2185496383572563
 40
0.2185496383572563
 10
-1.51729583740224
 20
7.244567871094149
 30
0.0
 10
-1.516456226565566
 20
7.262758006261401
 30
0.0
 10
-1.514777106761194
 20
7.299136069608621
 30
0.0
 10
-1.511669732936904
 20
7.353681504012653
 30
0.0
 10
-1.508165976145139
 20
7.408210389895354
 30
0.0
 10
-1.505438065593197
 20
7.44454168857126
 30
0.0
 10
-1.504074096680267
 20
7.462707519531168
 30
0.0
 11
-1.51729583740224
 21
7.244567871094149
 31
0.0
 11
-1.514678955078249
 21
7.299133300781168
 31
0.0
 11
-1.511604309082269
 21
7.353668212891167
 31
0.0
 11
-1.508068084717263
 21
7.408203125000172
 31
0.0
 11
-1.504074096680267
 21
7.462707519531168
 31
0.0
  0
SPLINE
  5
B4F3
330
1F
100
AcDbEntity
  8
AM_0
100
AcDbSpline
210
0.0
220
0.0
230
1.0
 70
     8
 71
     3
 72
    11
 73
     7
 74
     5
 42
0.0000000001
 43
0.0000000001
 44
0.0000000001
 40
0.0
 40
0.0
 40
0.0
 40
0.0
 40
0.0553015229813919
 40
0.1159566136090584
 40
0.1835523675875854
 40
0.2589112508485603
 40
0.2589112508485603
 40
0.2589112508485603
 40
0.2589112508485603
 10
-12.37387466430721
 20
-13.40289306640587
 30
0.0
 10
-12.37909214344148
 20
-13.38511466309113
 30
0.0
 10
-12.39003218956262
 20
-13.34783678478665
 30
0.0
 10
-12.42457454761907
 20
-13.29640789989455
 30
0.0
 10
-12.47135891054176
 20
-13.24685009430149
 30
0.0
 10
-12.51020671211526
 20
-13.21905761241926
 30
0.0
 10
-12.5306854248052
 20
-13.20440673828087
 30
0.0
 11
-12.37387466430721
 21
-13.40289306640587
 31
0.0
 11
-12.3920021057132
 21
-13.35064697265587
 31
0.0
 11
-12.42446136474621
 21
-13.29940795898388
 31
0.0
 11
-12.47091674804722
 21
-13.25030517578087
 31
0.0
 11
-12.5306854248052
 21
-13.20440673828087
 31
0.0
  0
SPLINE
  5
B4F4
330
1F
100
AcDbEntity
  8
AM_0
100
AcDbSpline
210
0.0
220
0.0
230
1.0
 70
     8
 71
     3
 72
    11
 73
     7
 74
     5
 42
0.0000000001
 43
0.0000000001
 44
0.0000000001
 40
0.0
 40
0.0
 40
0.0
 40
0.0
 40
0.0339273197932462
 40
0.0702882955644362
 40
0.1087179626946248
 40
0.1488737544668605
 40
0.1488737544668605
 40
0.1488737544668605
 40
0.1488737544668605
 10
-1.559730529785272
 20
5.506439208984148
 30
0.0
 10
-1.553192172891531
 20
5.497202397120813
 30
0.0
 10
-1.539646453257512
 20
5.478066203449173
 30
0.0
 10
-1.5155790731091
 20
5.450901748492763
 30
0.0
 10
-1.48894198062629
 20
5.423354622889719
 30
0.0
 10
-1.469852603597238
 20
5.405409749880822
 30
0.0
 10
-1.460098266602247
 20
5.396240234375172
 30
0.0
 11
-1.559730529785272
 21
5.506439208984148
 31
0.0
 11
-1.539646148682268
 21
5.479095458984148
 31
0.0
 11
-1.515853881836252
 21
5.451599121094148
 31
0.0
 11
-1.489131927490237
 21
5.423980712891165
 31
0.0
 11
-1.460098266602247
 21
5.396240234375172
 31
0.0
  0
SPLINE
  5
B4F5
330
1F
100
AcDbEntity
  8
AM_0
100
AcDbSpline
210
0.0
220
0.0
230
1.0
 70
     8
 71
     3
 72
    11
 73
     7
 74
     5
 42
0.0000000001
 43
0.0000000001
 44
0.0000000001
 40
0.0
 40
0.0
 40
0.0
 40
0.0
 40
0.0091328863768985
 40
0.0183244831497565
 40
0.0275643453483971
 40
0.0368728953294509
 40
0.0368728953294509
 40
0.0368728953294509
 40
0.0368728953294509
 10
-12.3697433471682
 20
-13.43948364257786
 30
0.0
 10
-12.36984139679221
 20
-13.43644029978474
 30
0.0
 10
-12.37003812634834
 20
-13.43033405019069
 30
0.0
 10
-12.37088594224299
 20
-13.42118073907996
 30
0.0
 10
-12.37210541046669
 20
-13.412010529882
 30
0.0
 10
-12.37328345885887
 20
-13.40593971463615
 30
0.0
 10
-12.37387466430721
 20
-13.40289306640587
 30
0.0
 11
-12.3697433471682
 21
-13.43948364257786
 31
0.0
 11
-12.37012863159219
 21
-13.43035888671888
 31
0.0
 11
-12.37094497680721
 21
-13.42120361328087
 31
0.0
 11
-12.37219238281321
 21
-13.41204833984388
 31
0.0
 11
-12.37387466430721
 21
-13.40289306640587
 31
0.0
  0
SPLINE
  5
B4F6
330
1F
100
AcDbEntity
  8
AM_0
100
AcDbSpline
210
0.0
220
0.0
230
1.0
 70
     8
 71
     3
 72
    11
 73
     7
 74
     5
 42
0.0000000001
 43
0.0000000001
 44
0.0000000001
 40
0.0
 40
0.0
 40
0.0
 40
0.0
 40
1.541356706297123
 40
2.984607280295404
 40
4.505799144506837
 40
6.122027215856935
 40
6.122027215856935
 40
6.122027215856935
 40
6.122027215856935
 10
-6.289192199707196
 20
-9.094604492186871
 30
0.0
 10
-6.795737327137691
 20
-8.903071910286996
 30
0.0
 10
-7.776586386249502
 20
-8.532197643469524
 30
0.0
 10
-8.23662501510271
 20
-6.906366152785602
 30
0.0
 10
-7.46728291391289
 20
-5.341779661506786
 30
0.0
 10
-6.368004359814583
 20
-5.198321834308546
 30
0.0
 10
-5.801715850830261
 20
-5.124420166015874
 30
0.0
 11
-6.289192199707196
 21
-9.094604492186871
 31
0.0
 11
-7.62850189209024
 21
-8.331695556640855
 31
0.0
 11
-8.038913726807212
 21
-6.948028564452845
 31
0.0
 11
-7.348697662354265
 21
-5.592437744140853
 31
0.0
 11
-5.801715850830261
 21
-5.124420166015874
 31
0.0
  0
SPLINE
  5
B4F7
330
1F
100
AcDbEntity
  8
AM_0
100
AcDbSpline
210
0.0
220
0.0
230
1.0
 70
     8
 71
     3
 72
    11
 73
     7
 74
     5
 42
0.0000000001
 43
0.0000000001
 44
0.0000000001
 40
0.0
 40
0.0
 40
0.0
 40
0.0
 40
0.0038256392907023
 40
0.0103960010391781
 40
0.0201684900819639
 40
0.0332645769193918
 40
0.0332645769193918
 40
0.0332645769193918
 40
0.0332645769193918
 10
-25.3520507812499
 20
15.27465820312511
 30
0.0
 10
-25.35272426724326
 20
15.27354938047142
 30
0.0
 10
-25.35455443484526
 20
15.27053620526485
 30
0.0
 10
-25.36102054053456
 20
15.26775172873179
 30
0.0
 10
-25.37006564992446
 20
15.26430807515237
 30
0.0
 10
-25.37747231302701
 20
15.26237054601333
 30
0.0
 10
-25.3817138671874
 20
15.26126098632812
 30
0.0
 11
-25.3520507812499
 21
15.27465820312511
 31
0.0
 11
-25.35427474975568
 21
15.27154541015611
 31
0.0
 11
-25.35995864868149
 21
15.26824951171911
 31
0.0
 11
-25.36911392211899
 21
15.26483154296911
 31
0.0
 11
-25.3817138671874
 21
15.26126098632812
 31
0.0
  0
SPLINE
  5
B4F8
330
1F
100
AcDbEntity
  8
AM_0
100
AcDbSpline
210
0.0
220
0.0
230
1.0
 70
     8
 71
     3
 72
    11
 73
     7
 74
     5
 42
0.0000000001
 43
0.0000000001
 44
0.0000000001
 40
0.0
 40
0.0
 40
0.0
 40
0.0
 40
1.166791610782913
 40
2.346837425962071
 40
3.535954176826492
 40
4.731267540995617
 40
4.731267540995617
 40
4.731267540995617
 40
4.731267540995617
 10
-1.601196289063245
 20
-0.0626220703118189
 30
0.0
 10
-1.591774772226464
 20
0.3261956766470332
 30
0.0
 10
-1.572824714549024
 20
1.108247957455775
 30
0.0
 10
-1.535236674370651
 20
2.286308315186483
 30
0.0
 10
-1.493589378793979
 20
3.473737580582763
 30
0.0
 10
-1.463084253800173
 20
4.267962639505543
 30
0.0
 10
-1.447792053223251
 20
4.666107177734148
 30
0.0
 11
-1.601196289063245
 21
-0.0626220703118189
 31
0.0
 11
-1.571449279785252
 21
1.103790283203181
 31
0.0
 11
-1.534713745117261
 21
2.283264160156164
 31
0.0
 11
-1.493003845215263
 21
3.47164916992216
 31
0.0
 11
-1.447792053223251
 21
4.666107177734148
 31
0.0
  0
SPLINE
  5
B4F9
330
1F
100
AcDbEntity
  8
AM_0
100
AcDbSpline
210
0.0
220
0.0
230
1.0
 70
     8
 71
     3
 72
    11
 73
     7
 74
     5
 42
0.0000000001
 43
0.0000000001
 44
0.0000000001
 40
0.0
 40
0.0
 40
0.0
 40
0.0
 40
0.1266379654061852
 40
0.2536364387472265
 40
0.3810251234896496
 40
0.508817531991193
 40
0.508817531991193
 40
0.508817531991193
 40
0.508817531991193
 10
-22.87171173095684
 20
-5.003540039061888
 30
0.0
 10
-22.86997960597205
 20
-4.961359322832776
 30
0.0
 10
-22.86651042505779
 20
-4.876877811985344
 30
0.0
 10
-22.85640701215585
 20
-4.750247480470895
 30
0.0
 10
-22.84299229846392
 20
-4.623535370902088
 30
0.0
 10
-22.83062045311655
 20
-4.539371442670804
 30
0.0
 10
-22.82442474365216
 20
-4.497222900390894
 30
0.0
 11
-22.87171173095684
 21
-5.003540039061888
 31
0.0
 11
-22.86570358276344
 21
-4.877044677733875
 31
0.0
 11
-22.85587310790994
 21
-4.750427246093877
 31
0.0
 11
-22.84215545654275
 21
-4.623779296874899
 31
0.0
 11
-22.82442474365216
 21
-4.497222900390894
 31
0.0
  0
SPLINE
  5
B4FA
330
1F
100
AcDbEntity
  8
AM_0
100
AcDbSpline
210
0.0
220
0.0
230
1.0
 70
     8
 71
     3
 72
    11
 73
     7
 74
     5
 42
0.0000000001
 43
0.0000000001
 44
0.0000000001
 40
0.0
 40
0.0
 40
0.0
 40
0.0
 40
1.698884073036565
 40
3.394689963030219
 40
5.077390489268354
 40
6.763530889954563
 40
6.763530889954563
 40
6.763530889954563
 40
6.763530889954563
 10
-22.82442474365216
 20
-4.497222900390894
 30
0.0
 10
-22.67610700580423
 20
-3.938262325471157
 30
0.0
 10
-22.37974026483422
 20
-2.821353948069003
 30
0.0
 10
-20.62279661479948
 20
-1.828783964879584
 30
0.0
 10
-18.96612406745385
 20
-3.017566933324922
 30
0.0
 10
-18.88706561943839
 20
-4.17328861554624
 30
0.0
 10
-18.84749603271525
 20
-4.751739501952892
 30
0.0
 11
-22.82442474365216
 21
-4.497222900390894
 31
0.0
 11
-22.15949630737284
 21
-2.933868408202878
 31
0.0
 11
-20.63437271118143
 21
-2.19241333007787
 31
0.0
 11
-19.22245407104525
 21
-3.107818603515876
 31
0.0
 11
-18.84749603271525
 21
-4.751739501952892
 31
0.0
  0
SPLINE
  5
B513
330
1F
100
AcDbEntity
  8
AM_0
100
AcDbSpline
210
0.0
220
0.0
230
1.0
 70
     8
 71
     3
 72
    11
 73
     7
 74
     5
 42
0.0000000001
 43
0.0000000001
 44
0.0000000001
 40
0.0
 40
0.0
 40
0.0
 40
0.0
 40
0.135589869688042
 40
0.2713832119725086
 40
0.4073644653681608
 40
0.5435230725540784
 40
0.5435230725540784
 40
0.5435230725540784
 40
0.5435230725540784
 10
-20.89270019531232
 20
-7.917022705077875
 30
0.0
 10
-20.9374245966407
 20
-7.910451381929019
 30
0.0
 10
-21.02694051485765
 20
-7.897298874391774
 30
0.0
 10
-21.16223435952076
 20
-7.885077698171523
 30
0.0
 10
-21.29807479413324
 20
-7.877901563352231
 30
0.0
 10
-21.38880287030014
 20
-7.877981330611858
 30
0.0
 10
-21.43419647216774
 20
-7.878021240233871
 30
0.0
 11
-20.89270019531232
 21
-7.917022705077875
 31
0.0
 11
-21.02702713012673
 21
-7.898559570311881
 31
0.0
 11
-21.16223144531232
 21
-7.88592529296887
 31
0.0
 11
-21.29804229736302
 21
-7.879119873046882
 31
0.0
 11
-21.43419647216774
 21
-7.878021240233871
 31
0.0
  0
SPLINE
  5
B514
330
1F
100
AcDbEntity
  8
AM_0
100
AcDbSpline
210
0.0
220
0.0
230
1.0
 70
     8
 71
     3
 72
    11
 73
     7
 74
     5
 42
0.0000000001
 43
0.0000000001
 44
0.0000000001
 40
0.0
 40
0.0
 40
0.0
 40
0.0
 40
1.17304705282368
 40
2.341554822216841
 40
3.50496027282063
 40
4.662710711239834
 40
4.662710711239834
 40
4.662710711239834
 40
4.662710711239834
 10
-25.55915832519511
 20
-14.5516662597659
 30
0.0
 10
-25.16883931783421
 20
-14.57524524064367
 30
0.0
 10
-24.38971170169228
 20
-14.62231195995762
 30
0.0
 10
-23.22562002894196
 20
-14.72281301540852
 30
0.0
 10
-22.06852525491363
 20
-14.8430765930761
 30
0.0
 10
-21.30129685333633
 20
-14.94331803707602
 30
0.0
 10
-20.91861724853492
 20
-14.99331665039085
 30
0.0
 11
-25.55915832519511
 21
-14.5516662597659
 31
0.0
 11
-24.38856124877912
 21
-14.62744140624991
 31
0.0
 11
-23.2242469787595
 21
-14.72634887695288
 31
0.0
 11
-22.06725692749
 21
-14.84835815429689
 31
0.0
 11
-20.91861724853492
 21
-14.99331665039085
 31
0.0
  0
SPLINE
  5
B515
330
1F
100
AcDbEntity
  8
AM_0
100
AcDbSpline
210
0.0
220
0.0
230
1.0
 70
     8
 71
     3
 72
    11
 73
     7
 74
     5
 42
0.0000000001
 43
0.0000000001
 44
0.0000000001
 40
0.0
 40
0.0
 40
0.0
 40
0.0
 40
1.809871266938346
 40
3.611280762136466
 40
5.402225660978015
 40
7.18076874293501
 40
7.18076874293501
 40
7.18076874293501
 40
7.18076874293501
 10
-13.76188278198218
 20
-15.52761840820284
 30
0.0
 10
-14.36506432901313
 20
-15.51372013425137
 30
0.0
 10
-15.56860734152442
 20
-15.48598856556763
 30
0.0
 10
-17.36629176755808
 20
-15.37530155455106
 30
0.0
 10
-19.15012530818671
 20
-15.21901350940532
 30
0.0
 10
-20.33048694990827
 20
-15.06837447681507
 30
0.0
 10
-20.91861724853492
 20
-14.99331665039085
 30
0.0
 11
-13.76188278198218
 21
-15.52761840820284
 31
0.0
 11
-15.57096862793019
 21
-15.47430419921887
 31
0.0
 11
-17.3691978454592
 21
-15.36730957031189
 31
0.0
 11
-19.1529426574712
 21
-15.20687866210889
 31
0.0
 11
-20.91861724853492
 21
-14.99331665039085
 31
0.0
  0
SPLINE
  5
B516
330
1F
100
AcDbEntity
  8
AM_0
100
AcDbSpline
210
0.0
220
0.0
230
1.0
 70
     8
 71
     3
 72
    11
 73
     7
 74
     5
 42
0.0000000001
 43
0.0000000001
 44
0.0000000001
 40
0.0
 40
0.0
 40
0.0
 40
0.0
 40
0.0524375568030502
 40
0.1052037931407513
 40
0.1582402644188734
 40
0.2114991763792083
 40
0.2114991763792083
 40
0.2114991763792083
 40
0.2114991763792083
 10
-14.64736557006825
 20
-11.77798461914085
 30
0.0
 10
-14.66443695033132
 20
-11.78176566332796
 30
0.0
 10
-14.69868671457124
 20
-11.7893514513541
 30
0.0
 10
-14.75095390499657
 20
-11.79675364587116
 30
0.0
 10
-14.80379993822014
 20
-11.80149945432808
 30
0.0
 10
-14.83923834510028
 20
-11.80205785958014
 30
0.0
 10
-14.85699462890622
 20
-11.80233764648387
 30
0.0
 11
-14.64736557006825
 21
-11.77798461914085
 31
0.0
 11
-14.69870376586922
 21
-11.78866577148386
 31
0.0
 11
-14.75091552734421
 21
-11.79629516601585
 31
0.0
 11
-14.80375671386725
 21
-11.80084228515585
 31
0.0
 11
-14.85699462890622
 21
-11.80233764648387
 31
0.0
  0
SPLINE
  5
B517
330
1F
100
AcDbEntity
  8
AM_0
100
AcDbSpline
210
0.0
220
0.0
230
1.0
 70
     8
 71
     3
 72
    11
 73
     7
 74
     5
 42
0.0000000001
 43
0.0000000001
 44
0.0000000001
 40
0.0
 40
0.0
 40
0.0
 40
0.0
 40
0.706351190924698
 40
1.413628601736991
 40
2.118204883461547
 40
2.816626761356489
 40
2.816626761356489
 40
2.816626761356489
 40
2.816626761356489
 10
-24.53768157958963
 20
-11.78707885742189
 30
0.0
 10
-24.77330333834029
 20
-11.7783874435408
 30
0.0
 10
-25.24485582050636
 20
-11.76099321895436
 30
0.0
 10
-25.93995685139877
 20
-11.62474523197203
 30
0.0
 10
-26.61458853402117
 20
-11.41740119987
 30
0.0
 10
-27.03469821994529
 20
-11.21038458117213
 30
0.0
 10
-27.24383163452124
 20
-11.10733032226589
 30
0.0
 11
-24.53768157958963
 21
-11.78707885742189
 31
0.0
 11
-25.24263381957983
 21
-11.7426452636719
 31
0.0
 11
-25.93784332275373
 21
-11.61254882812491
 31
0.0
 11
-26.60939025878885
 21
-11.39935302734391
 31
0.0
 11
-27.24383163452124
 21
-11.10733032226589
 31
0.0
  0
SPLINE
  5
B518
330
1F
100
AcDbEntity
  8
AM_0
100
AcDbSpline
210
0.0
220
0.0
230
1.0
 70
     8
 71
     3
 72
    11
 73
     7
 74
     5
 42
0.0000000001
 43
0.0000000001
 44
0.0000000001
 40
0.0
 40
0.0
 40
0.0
 40
0.0
 40
0.9608953732591894
 40
1.921097045146186
 40
2.87165585491894
 40
3.804847020553781
 40
3.804847020553781
 40
3.804847020553781
 40
3.804847020553781
 10
-25.55918502807592
 20
-14.5517272949219
 30
0.0
 10
-25.87992820976835
 20
-14.53583806438194
 30
0.0
 10
-26.52118301830192
 20
-14.50407107425018
 30
0.0
 10
-27.45106469163561
 20
-14.25436725895394
 30
0.0
 10
-28.32787524486105
 20
-13.87799375236491
 30
0.0
 10
-28.83717020676047
 20
-13.50767233105882
 30
0.0
 10
-29.08946990966771
 20
-13.3242187499999
 30
0.0
 11
-25.55918502807592
 21
-14.5517272949219
 31
0.0
 11
-26.51661682128881
 21
-14.47021484374992
 31
0.0
 11
-27.44670486450172
 21
-14.2316284179689
 31
0.0
 11
-28.31502914428691
 21
-13.84487915039089
 31
0.0
 11
-29.08946990966771
 21
-13.3242187499999
 31
0.0
  0
SPLINE
  5
B525
330
1F
100
AcDbEntity
  8
AM_0
100
AcDbSpline
210
0.0
220
0.0
230
1.0
 70
     8
 71
     3
 72
    11
 73
     7
 74
     5
 42
0.0000000001
 43
0.0000000001
 44
0.0000000001
 40
0.0
 40
0.0
 40
0.0
 40
0.0
 40
0.9584991654409707
 40
1.917275426784865
 40
2.876447486821319
 40
3.836084052460137
 40
3.836084052460137
 40
3.836084052460137
 40
3.836084052460137
 10
-12.55788421630929
 20
16.39041137695315
 30
0.0
 10
-12.87848638917919
 20
16.38618144553693
 30
0.0
 10
-13.51978341893144
 20
16.37772035985869
 30
0.0
 10
-14.45354016113376
 20
16.12830861792057
 30
0.0
 10
-15.33457374676466
 20
15.73010501502005
 30
0.0
 10
-15.83693011067642
 20
15.33057912562168
 30
0.0
 10
-16.08816909790029
 20
15.13076782226613
 30
0.0
 11
-12.55788421630929
 21
16.39041137695315
 31
0.0
 11
-13.51496505737329
 21
16.33828735351612
 31
0.0
 11
-14.44456863403328
 21
16.10357666015612
 31
0.0
 11
-15.31315994262731
 21
15.69668579101614
 31
0.0
 11
-16.08816909790029
 21
15.13076782226613
 31
0.0
  0
SPLINE
  5
B526
330
1F
100
AcDbEntity
  8
AM_0
100
AcDbSpline
210
0.0
220
0.0
230
1.0
 70
     8
 71
     3
 72
    11
 73
     7
 74
     5
 42
0.0000000001
 43
0.0000000001
 44
0.0000000001
 40
0.0
 40
0.0
 40
0.0
 40
0.0
 40
0.9587775414592488
 40
1.917785055536519
 40
2.877169018189843
 40
3.837085362747345
 40
3.837085362747345
 40
3.837085362747345
 40
3.837085362747345
 10
-12.5591850280763
 20
16.39196777343815
 30
0.0
 10
-12.87987282336697
 20
16.38817129958555
 30
0.0
 10
-13.52132533420212
 20
16.38057744125719
 30
0.0
 10
-14.45586750297668
 20
16.13273665606172
 30
0.0
 10
-15.33650250864591
 20
15.73279994156855
 30
0.0
 10
-15.83843436681795
 20
15.33251980336839
 30
0.0
 10
-16.08946990966827
 20
15.13232421875013
 30
0.0
 11
-12.5591850280763
 21
16.39196777343815
 31
0.0
 11
-13.51661682128931
 21
16.34118652343814
 31
0.0
 11
-14.44670486450231
 21
16.10745239257813
 31
0.0
 11
-15.3150291442873
 21
15.69949340820314
 31
0.0
 11
-16.08946990966827
 21
15.13232421875013
 31
0.0
  0
SPLINE
  5
B527
330
1F
100
AcDbEntity
  8
AM_0
100
AcDbSpline
210
0.0
220
0.0
230
1.0
 70
     8
 71
     3
 72
    11
 73
     7
 74
     5
 42
0.0000000001
 43
0.0000000001
 44
0.0000000001
 40
0.0
 40
0.0
 40
0.0
 40
0.0
 40
0.9370676479177275
 40
1.874138888672837
 40
2.811199874172977
 40
3.748271114928727
 40
3.748271114928727
 40
3.748271114928727
 40
3.748271114928727
 10
-11.22212219238328
 20
14.85446166992213
 30
0.0
 10
-11.51631189451025
 20
14.74949207159266
 30
0.0
 10
-12.10469242672521
 20
14.53955247246682
 30
0.0
 10
-12.98725608738094
 20
14.22463145921864
 30
0.0
 10
-13.86984138895165
 20
13.90976753610981
 30
0.0
 10
-14.45821743910239
 20
13.69982198351953
 30
0.0
 10
-14.75240707397527
 20
13.59484863281313
 30
0.0
 11
-11.22212219238328
 21
14.85446166992213
 31
0.0
 11
-12.10469055175827
 21
14.53955078125014
 31
0.0
 11
-12.98726272583025
 21
14.22463989257814
 31
0.0
 11
-13.86983489990226
 21
13.90975952148413
 31
0.0
 11
-14.75240707397527
 21
13.59484863281313
 31
0.0
  0
SPLINE
  5
B528
330
1F
100
AcDbEntity
  8
AM_0
100
AcDbSpline
210
0.0
220
0.0
230
1.0
 70
     8
 71
     3
 72
    11
 73
     7
 74
     5
 42
0.0000000001
 43
0.0000000001
 44
0.0000000001
 40
0.0
 40
0.0
 40
0.0
 40
0.0
 40
1.711907139647065
 40
3.423815989299721
 40
5.135752118636448
 40
6.847660968289522
 40
6.847660968289522
 40
6.847660968289522
 40
6.847660968289522
 10
-11.22212219238328
 20
14.85446166992213
 30
0.0
 10
-11.47791862456605
 20
14.34437020510463
 30
0.0
 10
-11.98951174444388
 20
13.32418676594476
 30
0.0
 10
-12.75691707798747
 20
11.79390896575506
 30
0.0
 10
-13.5242951567064
 20
10.26361686040614
 30
0.0
 10
-14.03589871485335
 20
9.243427845559747
 30
0.0
 10
-14.2916984558113
 20
8.733337402344151
 30
0.0
 11
-11.22212219238328
 21
14.85446166992213
 31
0.0
 11
-11.98951339721726
 21
13.32418823242214
 31
0.0
 11
-12.75690841674827
 21
11.79391479492213
 31
0.0
 11
-13.52430343627929
 21
10.26361083984412
 31
0.0
 11
-14.2916984558113
 21
8.733337402344151
 31
0.0
  0
SPLINE
  5
B529
330
1F
100
AcDbEntity
  8
AM_0
100
AcDbSpline
210
0.0
220
0.0
230
1.0
 70
     8
 71
     3
 72
    11
 73
     7
 74
     5
 42
0.0000000001
 43
0.0000000001
 44
0.0000000001
 40
0.0
 40
0.0
 40
0.0
 40
0.0
 40
2.371833711927306
 40
4.728087131255717
 40
7.10395500435515
 40
9.433464019984235
 40
9.433464019984235
 40
9.433464019984235
 40
9.433464019984235
 10
-9.29652404785229
 20
8.73764038085914
 30
0.0
 10
-10.04159663531308
 20
9.120304835289189
 30
0.0
 10
-11.52684751732463
 20
9.883120067015328
 30
0.0
 10
-11.80615036605854
 20
12.58540714184154
 30
0.0
 10
-10.19587380263815
 20
14.71207398351945
 30
0.0
 10
-8.550822482192089
 20
14.71431440828643
 30
0.0
 10
-7.73640060424829
 20
14.71542358398414
 30
0.0
 11
-9.29652404785229
 21
8.73764038085914
 31
0.0
 11
-11.20475769043028
 21
10.14627075195314
 31
0.0
 11
-11.49171447753926
 21
12.48498535156313
 31
0.0
 11
-10.03945159912127
 21
14.36532592773414
 31
0.0
 11
-7.73640060424829
 21
14.71542358398414
 31
0.0
  0
SPLINE
  5
B52A
330
1F
100
AcDbEntity
  8
AM_0
100
AcDbSpline
210
0.0
220
0.0
230
1.0
 70
     8
 71
     3
 72
    11
 73
     7
 74
     5
 42
0.0000000001
 43
0.0000000001
 44
0.0000000001
 40
0.0
 40
0.0
 40
0.0
 40
0.0
 40
0.4921359945313146
 40
0.9835424999173296
 40
1.474209996189082
 40
1.964083758749323
 40
1.964083758749323
 40
1.964083758749323
 40
1.964083758749323
 10
-5.725090026855285
 20
8.594848632813137
 30
0.0
 10
-5.622306336879656
 20
8.466995654227579
 30
0.0
 10
-5.416891312348413
 20
8.211479212477222
 30
0.0
 10
-5.109122226585918
 20
7.828392494709176
 30
0.0
 10
-4.801932915557304
 20
7.445807308199431
 30
0.0
 10
-4.59736695985224
 20
7.190892051121505
 30
0.0
 10
-4.495166778564263
 20
7.063537597656154
 30
0.0
 11
-5.725090026855285
 21
8.594848632813137
 31
0.0
 11
-5.416759490967268
 21
8.211273193359129
 31
0.0
 11
-5.108985900879259
 21
7.828186035156152
 31
0.0
 11
-4.801784515381268
 21
7.44558715820314
 31
0.0
 11
-4.495166778564263
 21
7.063537597656154
 31
0.0
  0
SPLINE
  5
B52B
330
1F
100
AcDbEntity
  8
AM_0
100
AcDbSpline
210
0.0
220
0.0
230
1.0
 70
     8
 71
     3
 72
    11
 73
     7
 74
     5
 42
0.0000000001
 43
0.0000000001
 44
0.0000000001
 40
0.0
 40
0.0
 40
0.0
 40
0.0
 40
1.170972076704315
 40
2.335506521043298
 40
3.492601662602419
 40
4.6412731246662
 40
4.6412731246662
 40
4.6412731246662
 40
4.6412731246662
 10
-12.5591583251953
 20
16.39193725585914
 30
0.0
 10
-12.16897074192533
 20
16.38157010632375
 30
0.0
 10
-11.39074070272411
 20
16.36089280254664
 30
0.0
 10
-10.22674290262102
 20
16.33870943770146
 30
0.0
 10
-9.070078796944146
 20
16.32259949692681
 30
0.0
 10
-8.301501814757237
 20
16.31787490566667
 30
0.0
 10
-7.918617248535293
 20
16.31552124023414
 30
0.0
 11
-12.5591583251953
 21
16.39193725585914
 31
0.0
 11
-11.38856124877931
 21
16.36230468750013
 31
0.0
 11
-10.22424697876029
 21
16.33966064453114
 31
0.0
 11
-9.067256927490312
 21
16.32406616210914
 31
0.0
 11
-7.918617248535293
 21
16.31552124023414
 31
0.0
  0
SPLINE
  5
B52C
330
1F
100
AcDbEntity
  8
AM_0
100
AcDbSpline
210
0.0
220
0.0
230
1.0
 70
     8
 71
     3
 72
    11
 73
     7
 74
     5
 42
0.0000000001
 43
0.0000000001
 44
0.0000000001
 40
0.0
 40
0.0
 40
0.0
 40
0.0
 40
0.5097069882414525
 40
1.018854752739198
 40
1.527479370509597
 40
2.035534817680028
 40
2.035534817680028
 40
2.035534817680028
 40
2.035534817680028
 10
-11.22212219238328
 20
14.85446166992213
 30
0.0
 10
-11.3335584693326
 20
14.98271438285822
 30
0.0
 10
-11.55630876119951
 20
15.2390790965881
 30
0.0
 10
-11.89041741341358
 20
15.62328621244537
 30
0.0
 10
-12.22419728727659
 20
16.00704967826136
 30
0.0
 10
-12.44669676078142
 20
16.26267184592643
 30
0.0
 10
-12.55788421630929
 20
16.39041137695315
 30
0.0
 11
-11.22212219238328
 21
14.85446166992213
 31
0.0
 11
-11.55645751953127
 21
15.23919677734413
 31
0.0
 11
-11.8905372619633
 21
15.62341308593813
 31
0.0
 11
-12.22434616088931
 21
16.00717163085914
 31
0.0
 11
-12.55788421630929
 21
16.39041137695315
 31
0.0
  0
SPLINE
  5
B52D
330
1F
100
AcDbEntity
  8
AM_0
100
AcDbSpline
210
0.0
220
0.0
230
1.0
 70
     8
 71
     3
 72
    11
 73
     7
 74
     5
 42
0.0000000001
 43
0.0000000001
 44
0.0000000001
 40
0.0
 40
0.0
 40
0.0
 40
0.0
 40
0.8706438504282717
 40
1.746151925258229
 40
2.626122353620638
 40
3.510136397530017
 40
3.510136397530017
 40
3.510136397530017
 40
3.510136397530017
 10
-7.712341308594277
 20
14.80761718750014
 30
0.0
 10
-8.00255173429298
 20
14.8092737000647
 30
0.0
 10
-8.584593970408855
 20
14.81259598001007
 30
0.0
 10
-9.45991470443714
 20
14.82260631492098
 30
0.0
 10
-10.33964629342743
 20
14.8360608469146
 30
0.0
 10
-10.92751436563359
 20
14.84831869595189
 30
0.0
 10
-11.22212219238328
 20
14.85446166992213
 30
0.0
 11
-7.712341308594277
 21
14.80761718750014
 31
0.0
 11
-8.582965850830262
 21
14.81341552734412
 31
0.0
 11
-9.458419799805275
 21
14.82315063476614
 31
0.0
 11
-10.33828353881829
 21
14.83685302734414
 31
0.0
 11
-11.22212219238328
 21
14.85446166992213
 31
0.0
  0
SPLINE
  5
B52E
330
1F
100
AcDbEntity
  8
AM_0
100
AcDbSpline
210
0.0
220
0.0
230
1.0
 70
     8
 71
     3
 72
    11
 73
     7
 74
     5
 42
0.0000000001
 43
0.0000000001
 44
0.0000000001
 40
0.0
 40
0.0
 40
0.0
 40
0.0
 40
1.425506171386248
 40
2.851011588193269
 40
4.276517759579343
 40
5.702023930964598
 40
5.702023930964598
 40
5.702023930964598
 40
5.702023930964598
 10
-16.08816909790029
 20
15.13076782226613
 30
0.0
 10
-16.18216238150302
 20
14.66498828352313
 30
0.0
 10
-16.37014889895395
 20
13.73342945259344
 30
0.0
 10
-16.65212123822967
 20
12.33608957716757
 30
0.0
 10
-16.93410143200696
 20
10.93875128674514
 30
0.0
 10
-17.1220869519452
 20
10.00719199792571
 30
0.0
 10
-17.21607971191428
 20
9.541412353516124
 30
0.0
 11
-16.08816909790029
 21
15.13076782226613
 31
0.0
 11
-16.37014770507827
 21
13.73342895507813
 31
0.0
 11
-16.65212249755927
 21
12.33609008789113
 31
0.0
 11
-16.93410110473627
 21
10.9387512207031
 31
0.0
 11
-17.21607971191428
 21
9.541412353516124
 31
0.0
  0
SPLINE
  5
B52F
330
1F
100
AcDbEntity
  8
AM_0
100
AcDbSpline
210
0.0
220
0.0
230
1.0
 70
     8
 71
     3
 72
    11
 73
     7
 74
     5
 42
0.0000000001
 43
0.0000000001
 44
0.0000000001
 40
0.0
 40
0.0
 40
0.0
 40
0.0
 40
0.5406652363947488
 40
1.081327024408801
 40
1.621992260803573
 40
2.16265786323994
 40
2.16265786323994
 40
2.16265786323994
 40
2.16265786323994
 10
-15.05357742309629
 20
9.56735229492213
 30
0.0
 10
-15.23378630869163
 20
9.565199357115844
 30
0.0
 10
-15.59420293050411
 20
9.560893495234784
 30
0.0
 10
-16.13482765247388
 20
9.554369217030664
 30
0.0
 10
-16.67545343880945
 20
9.547923497863047
 30
0.0
 10
-17.03587091354433
 20
9.543582735454897
 30
0.0
 10
-17.21607971191428
 20
9.541412353516124
 30
0.0
 11
-15.05357742309629
 21
9.56735229492213
 31
0.0
 11
-15.59420394897528
 21
9.560882568359144
 31
0.0
 11
-16.13482666015626
 21
9.554382324219142
 31
0.0
 11
-16.67545318603528
 21
9.547912597656127
 31
0.0
 11
-17.21607971191428
 21
9.541412353516124
 31
0.0
  0
SPLINE
  5
B530
330
1F
100
AcDbEntity
  8
AM_0
100
AcDbSpline
210
0.0
220
0.0
230
1.0
 70
     8
 71
     3
 72
    11
 73
     7
 74
     5
 42
0.0000000001
 43
0.0000000001
 44
0.0000000001
 40
0.0
 40
0.0
 40
0.0
 40
0.0
 40
1.009677544984521
 40
2.01938580704107
 40
3.029063636491039
 40
4.038741181476455
 40
4.038741181476455
 40
4.038741181476455
 40
4.038741181476455
 10
-15.05357742309629
 20
9.56735229492213
 30
0.0
 10
-15.02848058925184
 20
9.902974451061435
 30
0.0
 10
-14.97828615805061
 20
10.57422897385725
 30
0.0
 10
-14.90299381551503
 20
11.5811056673087
 30
0.0
 10
-14.8276966099863
 20
12.5879819971064
 30
0.0
 10
-14.77750358362207
 20
13.25922645243006
 30
0.0
 10
-14.75240707397527
 20
13.59484863281313
 30
0.0
 11
-15.05357742309629
 21
9.56735229492213
 31
0.0
 11
-14.97828674316429
 21
10.57421875000013
 31
0.0
 11
-14.90299224853527
 21
11.58111572265613
 31
0.0
 11
-14.82769775390625
 21
12.58798217773415
 31
0.0
 11
-14.75240707397527
 21
13.59484863281313
 31
0.0
  0
SPLINE
  5
B531
330
1F
100
AcDbEntity
  8
AM_0
100
AcDbSpline
210
0.0
220
0.0
230
1.0
 70
     8
 71
     3
 72
    11
 73
     7
 74
     5
 42
0.0000000001
 43
0.0000000001
 44
0.0000000001
 40
0.0
 40
0.0
 40
0.0
 40
0.0
 40
0.5088709202050512
 40
1.017744343755711
 40
1.526638291610857
 40
2.03551171516086
 40
2.03551171516086
 40
2.03551171516086
 40
2.03551171516086
 10
-14.75240707397527
 20
13.59484863281313
 30
0.0
 10
-14.86371923190727
 20
13.72283997144113
 30
0.0
 10
-15.08634409536162
 20
13.97882327833926
 30
0.0
 10
-15.42029890315505
 20
14.36279262807665
 30
0.0
 10
-15.75421629234883
 20
14.74679562536263
 30
0.0
 10
-15.9768529926143
 20
15.00277881068464
 30
0.0
 10
-16.08816909790029
 20
15.13076782226613
 30
0.0
 11
-14.75240707397527
 21
13.59484863281313
 31
0.0
 11
-15.08634567260726
 21
13.97882080078111
 31
0.0
 11
-15.42028808593827
 21
14.36279296875014
 31
0.0
 11
-15.75422668457026
 21
14.74679565429712
 31
0.0
 11
-16.08816909790029
 21
15.13076782226613
 31
0.0
  0
SPLINE
  5
B532
330
1F
100
AcDbEntity
  8
AM_0
100
AcDbSpline
210
0.0
220
0.0
230
1.0
 70
     8
 71
     3
 72
    11
 73
     7
 74
     5
 42
0.0000000001
 43
0.0000000001
 44
0.0000000001
 40
0.0
 40
0.0
 40
0.0
 40
0.0
 40
0.1563025922482748
 40
0.3126532030433691
 40
0.4690584660841058
 40
0.6255485108118389
 40
0.6255485108118389
 40
0.6255485108118389
 40
0.6255485108118389
 10
-16.51526641845726
 20
7.308715820313117
 30
0.0
 10
-16.56728961107443
 20
7.314018625039619
 30
0.0
 10
-16.67135197862917
 20
7.324625863595338
 30
0.0
 10
-16.81921194367807
 20
7.379323628173843
 30
0.0
 10
-16.95602416318246
 20
7.457775264688657
 30
0.0
 10
-17.03096857060543
 20
7.530860707237594
 30
0.0
 10
-17.06845092773426
 20
7.567413330078114
 30
0.0
 11
-16.51526641845726
 21
7.308715820313117
 31
0.0
 11
-16.66996002197326
 21
7.331085205078116
 31
0.0
 11
-16.81734466552726
 21
7.383270263672121
 31
0.0
 11
-16.95193099975626
 21
7.462951660156126
 31
0.0
 11
-17.06845092773426
 21
7.567413330078114
 31
0.0
  0
SPLINE
  5
B533
330
1F
100
AcDbEntity
  8
AM_0
100
AcDbSpline
210
0.0
220
0.0
230
1.0
 70
     8
 71
     3
 72
    11
 73
     7
 74
     5
 42
0.0000000001
 43
0.0000000001
 44
0.0000000001
 40
0.0
 40
0.0
 40
0.0
 40
0.0
 40
0.2823979764053605
 40
0.5647985257082123
 40
0.8472190341716759
 40
1.12961958347384
 40
1.12961958347384
 40
1.12961958347384
 40
1.12961958347384
 10
-15.05357742309629
 20
9.56735229492213
 30
0.0
 10
-14.990088844722
 20
9.497852957758988
 30
0.0
 10
-14.86311110953583
 20
9.358853650231742
 30
0.0
 10
-14.67262713379739
 20
9.150360967136453
 30
0.0
 10
-14.482180490717
 20
8.941833019972925
 30
0.0
 10
-14.35519097163102
 20
8.802834304281343
 30
0.0
 10
-14.2916984558113
 20
8.733337402344151
 30
0.0
 11
-15.05357742309629
 21
9.56735229492213
 31
0.0
 11
-14.86310958862329
 21
9.35885620117213
 31
0.0
 11
-14.67263793945328
 21
9.150360107422132
 31
0.0
 11
-14.48217010498029
 21
8.941833496094149
 31
0.0
 11
-14.2916984558113
 21
8.733337402344151
 31
0.0
  0
SPLINE
  5
B534
330
1F
100
AcDbEntity
  8
AM_0
100
AcDbSpline
210
0.0
220
0.0
230
1.0
 70
     8
 71
     3
 72
    11
 73
     7
 74
     5
 42
0.0000000001
 43
0.0000000001
 44
0.0000000001
 40
0.0
 40
0.0
 40
0.0
 40
0.0
 40
0.6601914590062155
 40
1.320396169252468
 40
1.980587628258679
 40
2.640779087264906
 40
2.640779087264906
 40
2.640779087264906
 40
2.640779087264906
 10
-17.27714538574225
 20
8.142761230469137
 30
0.0
 10
-17.09184604435962
 20
8.261471966501087
 30
0.0
 10
-16.72124364230048
 20
8.498895821304779
 30
0.0
 10
-16.16537237823991
 20
8.855077984674892
 30
0.0
 10
-15.60946903064051
 20
9.211210071724666
 30
0.0
 10
-15.23887462561103
 20
9.448638220522974
 30
0.0
 10
-15.05357742309629
 20
9.56735229492213
 30
0.0
 11
-17.27714538574225
 21
8.142761230469137
 31
0.0
 11
-16.72125244140626
 21
8.498901367188116
 31
0.0
 11
-16.16536331176827
 21
8.85507202148414
 31
0.0
 11
-15.60947036743228
 21
9.211212158203117
 31
0.0
 11
-15.05357742309629
 21
9.56735229492213
 31
0.0
  0
SPLINE
  5
B535
330
1F
100
AcDbEntity
  8
AM_0
100
AcDbSpline
210
0.0
220
0.0
230
1.0
 70
     8
 71
     3
 72
    11
 73
     7
 74
     5
 42
0.0000000001
 43
0.0000000001
 44
0.0000000001
 40
0.0
 40
0.0
 40
0.0
 40
0.0
 40
0.1565939918344863
 40
0.3132843080066161
 40
0.4700005722892032
 40
0.6267988552043701
 40
0.6267988552043701
 40
0.6267988552043701
 40
0.6267988552043701
 10
-17.06845092773426
 20
7.567413330078114
 30
0.0
 10
-17.10149115140341
 20
7.608069331780285
 30
0.0
 10
-17.16759192249503
 20
7.689406343567068
 30
0.0
 10
-17.23354773322228
 20
7.832935580597229
 30
0.0
 10
-17.27495998399253
 20
7.985434265556749
 30
0.0
 10
-17.27641679145374
 20
8.090309763328438
 30
0.0
 10
-17.27714538574225
 20
8.142761230469137
 30
0.0
 11
-17.06845092773426
 21
7.567413330078114
 31
0.0
 11
-17.16204071044925
 21
7.692962646484136
 31
0.0
 11
-17.22945022583025
 21
7.834411621094138
 31
0.0
 11
-17.26841735839827
 21
7.986206054688114
 31
0.0
 11
-17.27714538574225
 21
8.142761230469137
 31
0.0
  0
SPLINE
  5
B536
330
1F
100
AcDbEntity
  8
AM_0
100
AcDbSpline
210
0.0
220
0.0
230
1.0
 70
     8
 71
     3
 72
    11
 73
     7
 74
     5
 42
0.0000000001
 43
0.0000000001
 44
0.0000000001
 40
0.0
 40
0.0
 40
0.0
 40
0.0
 40
0.0000190734869783
 40
0.000055061268748
 40
0.000077949452768
 40
0.0001139372345148
 40
0.0001139372345148
 40
0.0001139372345148
 40
0.0001139372345148
 10
-16.51518630981426
 20
7.30877685546914
 30
0.0
 10
-16.51519346423279
 20
7.308778292713913
 30
0.0
 10
-16.51521411758062
 20
7.308782441746587
 30
0.0
 10
-16.51521516234452
 20
7.308737446720916
 30
0.0
 10
-16.51525575884339
 20
7.308753640293884
 30
0.0
 10
-16.51526237459575
 20
7.308730167808859
 30
0.0
 10
-16.51526641845726
 20
7.308715820313117
 30
0.0
 11
-16.51518630981426
 21
7.30877685546914
 31
0.0
 11
-16.51520538330124
 21
7.30877685546914
 31
0.0
 11
-16.51522445678726
 21
7.308746337891127
 31
0.0
 11
-16.51524734497128
 21
7.308746337891127
 31
0.0
 11
-16.51526641845726
 21
7.308715820313117
 31
0.0
  0
SPLINE
  5
B537
330
1F
100
AcDbEntity
  8
AM_0
100
AcDbSpline
210
0.0
220
0.0
230
1.0
 70
     8
 71
     3
 72
    11
 73
     7
 74
     5
 42
0.0000000001
 43
0.0000000001
 44
0.0000000001
 40
0.0
 40
0.0
 40
0.0
 40
0.0
 40
0.9584991654410201
 40
1.917275426784701
 40
2.876447486821528
 40
3.83608405246037
 40
3.83608405246037
 40
3.83608405246037
 40
3.83608405246037
 10
-4.495166778564263
 20
7.063537597656154
 30
0.0
 10
-4.174564605694401
 20
7.067767529072909
 30
0.0
 10
-3.533267575942328
 20
7.076228614752203
 30
0.0
 10
-2.599510833739359
 20
7.325640356688099
 30
0.0
 10
-1.718477248109172
 20
7.723843959590549
 30
0.0
 10
-1.216120884197201
 20
8.123369848988733
 30
0.0
 10
-0.9648818969732689
 20
8.323181152344153
 30
0.0
 11
-4.495166778564263
 21
7.063537597656154
 31
0.0
 11
-3.538085937500265
 21
7.11566162109414
 31
0.0
 11
-2.608482360840253
 21
7.350372314453179
 31
0.0
 11
-1.739891052246276
 21
7.757263183594148
 31
0.0
 11
-0.9648818969732689
 21
8.323181152344153
 31
0.0
  0
SPLINE
  5
B538
330
1F
100
AcDbEntity
  8
AM_0
100
AcDbSpline
210
0.0
220
0.0
230
1.0
 70
     8
 71
     3
 72
    11
 73
     7
 74
     5
 42
0.0000000001
 43
0.0000000001
 44
0.0000000001
 40
0.0
 40
0.0
 40
0.0
 40
0.0
 40
0.9587775414592428
 40
1.917777618095529
 40
2.877178010721374
 40
3.837091277662439
 40
3.837091277662439
 40
3.837091277662439
 40
3.837091277662439
 10
-4.493865966797282
 20
7.061981201172148
 30
0.0
 10
-4.173179287657607
 20
7.065781527308383
 30
0.0
 10
-3.531731497026818
 20
7.073383061648084
 30
0.0
 10
-2.597169550026078
 20
7.321165895195482
 30
0.0
 10
-1.716554114144809
 20
7.721155545239953
 30
0.0
 10
-1.2146168036731
 20
8.121432698624513
 30
0.0
 10
-0.9635810852052646
 20
8.321624755859151
 30
0.0
 11
-4.493865966797282
 21
7.061981201172148
 31
0.0
 11
-3.536434173584279
 21
7.112762451172152
 31
0.0
 11
-2.606346130371274
 21
7.346466064453179
 31
0.0
 11
-1.738018035889252
 21
7.754455566406167
 31
0.0
 11
-0.9635810852052646
 21
8.321624755859151
 31
0.0
  0
SPLINE
  5
B539
330
1F
100
AcDbEntity
  8
AM_0
100
AcDbSpline
210
0.0
220
0.0
230
1.0
 70
     8
 71
     3
 72
    11
 73
     7
 74
     5
 42
0.0000000001
 43
0.0000000001
 44
0.0000000001
 40
0.0
 40
0.0
 40
0.0
 40
0.0
 40
1.23922399977118
 40
2.481754886124807
 40
3.726413183103332
 40
4.972004320861856
 40
4.972004320861856
 40
4.972004320861856
 40
4.972004320861856
 10
-9.320583343506275
 20
8.64544677734414
 30
0.0
 10
-9.733648252138992
 20
8.648484846883688
 30
0.0
 10
-10.56088033889266
 20
8.654569093093858
 30
0.0
 10
-11.80288621491398
 20
8.673324854151243
 30
0.0
 10
-13.04690120572578
 20
8.698506779671433
 30
0.0
 10
-13.8766624303374
 20
8.721724295713432
 30
0.0
 10
-14.2916984558113
 20
8.733337402344151
 30
0.0
 11
-9.320583343506275
 21
8.64544677734414
 31
0.0
 11
-10.5597610473633
 21
8.656158447266125
 31
0.0
 11
-11.80215835571327
 21
8.674377441406122
 31
0.0
 11
-13.04655075073227
 21
8.700103759766115
 31
0.0
 11
-14.2916984558113
 21
8.733337402344151
 31
0.0
  0
SPLINE
  5
B53A
330
1F
100
AcDbEntity
  8
AM_0
100
AcDbSpline
210
0.0
220
0.0
230
1.0
 70
     8
 71
     3
 72
    11
 73
     7
 74
     5
 42
0.0000000001
 43
0.0000000001
 44
0.0000000001
 40
0.0
 40
0.0
 40
0.0
 40
0.0
 40
1.18828553997423
 40
2.375562762795119
 40
3.560805491962768
 40
4.742999664039183
 40
4.742999664039183
 40
4.742999664039183
 40
4.742999664039183
 10
-4.49387741088925
 20
7.062011718750158
 30
0.0
 10
-4.889831560661129
 20
7.072625805780528
 30
0.0
 10
-5.681403874157998
 20
7.093844973280418
 30
0.0
 10
-6.86812178259216
 20
7.116984072270946
 30
0.0
 10
-8.052908639645993
 20
7.134283419538476
 30
0.0
 10
-8.842036009788504
 20
7.139998781879201
 30
0.0
 10
-9.236091613770279
 20
7.142852783203148
 30
0.0
 11
-4.49387741088925
 21
7.062011718750158
 31
0.0
 11
-5.681774139404249
 21
7.092407226563137
 31
0.0
 11
-6.868816375732262
 21
7.116027832031144
 31
0.0
 11
-8.053939819336259
 21
7.132843017578154
 31
0.0
 11
-9.236091613770279
 21
7.142852783203148
 31
0.0
  0
SPLINE
  5
B53B
330
1F
100
AcDbEntity
  8
AM_0
100
AcDbSpline
210
0.0
220
0.0
230
1.0
 70
     8
 71
     3
 72
    11
 73
     7
 74
     5
 42
0.0000000001
 43
0.0000000001
 44
0.0000000001
 40
0.0
 40
0.0
 40
0.0
 40
0.0
 40
0.0238121995713655
 40
0.047625362539654
 40
0.0714680544811459
 40
0.0952812174496862
 40
0.0952812174496862
 40
0.0952812174496862
 40
0.0952812174496862
 10
-7.73640060424829
 20
14.71542358398414
 30
0.0
 10
-7.734397157094968
 20
14.72310398219575
 30
0.0
 10
-7.730390181732614
 20
14.73846508935347
 30
0.0
 10
-7.72436746066442
 20
14.76151388967806
 30
0.0
 10
-7.718362164412771
 20
14.78456756850758
 30
0.0
 10
-7.714347431318104
 20
14.79993715565242
 30
0.0
 10
-7.712341308594277
 20
14.80761718750014
 30
0.0
 11
-7.73640060424829
 21
14.71542358398414
 31
0.0
 11
-7.730388641357268
 21
14.73846435546913
 31
0.0
 11
-7.724372863770287
 21
14.76150512695314
 31
0.0
 11
-7.718357086182282
 21
14.78457641601614
 31
0.0
 11
-7.712341308594277
 21
14.80761718750014
 31
0.0
  0
SPLINE
  5
B53C
330
1F
100
AcDbEntity
  8
AM_0
100
AcDbSpline
210
0.0
220
0.0
230
1.0
 70
     8
 71
     3
 72
    11
 73
     7
 74
     5
 42
0.0000000001
 43
0.0000000001
 44
0.0000000001
 40
0.0
 40
0.0
 40
0.0
 40
0.0
 40
2.341602967357843
 40
4.705915664760594
 40
7.059689753076503
 40
9.436468850436227
 40
9.436468850436227
 40
9.436468850436227
 40
9.436468850436227
 10
-7.73640060424829
 20
14.71542358398414
 30
0.0
 10
-7.011252625996944
 20
14.32898268712115
 30
0.0
 10
-5.553923916692746
 20
13.55235304691206
 30
0.0
 10
-5.207816267330946
 20
10.88651076835369
 30
0.0
 10
-6.802942678801313
 20
8.717106524449224
 30
0.0
 10
-8.462639850588494
 20
8.730773607397633
 30
0.0
 10
-9.29652404785229
 20
8.73764038085914
 30
0.0
 11
-7.73640060424829
 21
14.71542358398414
 31
0.0
 11
-5.864658355713269
 21
13.30841064453115
 31
0.0
 11
-5.531761169434276
 21
10.96765136718814
 31
0.0
 11
-6.945358276367291
 21
9.085632324219124
 31
0.0
 11
-9.29652404785229
 21
8.73764038085914
 31
0.0
  0
SPLINE
  5
B53D
330
1F
100
AcDbEntity
  8
AM_0
100
AcDbSpline
210
0.0
220
0.0
230
1.0
 70
     8
 71
     3
 72
    11
 73
     7
 74
     5
 42
0.0000000001
 43
0.0000000001
 44
0.0000000001
 40
0.0
 40
0.0
 40
0.0
 40
0.0
 40
0.0238121995704084
 40
0.0476253625399158
 40
0.0714680544804487
 40
0.095281217448713
 40
0.095281217448713
 40
0.095281217448713
 40
0.095281217448713
 10
-9.320583343506275
 20
8.64544677734414
 30
0.0
 10
-9.318579896353011
 20
8.653127175555434
 30
0.0
 10
-9.31457292099059
 20
8.668488282713227
 30
0.0
 10
-9.308550199921496
 20
8.69153708303734
 30
0.0
 10
-9.302544903669467
 20
8.714590761866757
 30
0.0
 10
-9.298530170575698
 20
8.729960349011408
 30
0.0
 10
-9.29652404785229
 20
8.73764038085914
 30
0.0
 11
-9.320583343506275
 21
8.64544677734414
 31
0.0
 11
-9.314571380615278
 21
8.668487548828148
 31
0.0
 11
-9.308555603027276
 21
8.691528320313148
 31
0.0
 11
-9.302539825439298
 21
8.714599609375165
 31
0.0
 11
-9.29652404785229
 21
8.73764038085914
 31
0.0
  0
SPLINE
  5
B53E
330
1F
100
AcDbEntity
  8
AM_0
100
AcDbSpline
210
0.0
220
0.0
230
1.0
 70
     8
 71
     3
 72
    11
 73
     7
 74
     5
 42
0.0000000001
 43
0.0000000001
 44
0.0000000001
 40
0.0
 40
0.0
 40
0.0
 40
0.0
 40
0.8966026903343712
 40
1.795070077816396
 40
2.694971910326466
 40
3.59588938025544
 40
3.59588938025544
 40
3.59588938025544
 40
3.59588938025544
 10
-9.320583343506275
 20
8.64544677734414
 30
0.0
 10
-9.021722226350956
 20
8.643408399028578
 30
0.0
 10
-8.423378439731019
 20
8.639327403108108
 30
0.0
 10
-7.525118519921415
 20
8.628311961274278
 30
0.0
 10
-6.625466228402446
 20
8.614027264988912
 30
0.0
 10
-6.025328250570604
 20
8.601243913416789
 30
0.0
 10
-5.725090026855285
 20
8.594848632813137
 30
0.0
 11
-9.320583343506275
 21
8.64544677734414
 31
0.0
 11
-8.424007415771274
 21
8.638519287109145
 31
0.0
 11
-7.525604248047289
 21
8.627777099609149
 31
0.0
 11
-6.625820159912297
 21
8.613220214844126
 31
0.0
 11
-5.725090026855285
 21
8.594848632813137
 31
0.0
  0
SPLINE
  5
B53F
330
1F
100
AcDbEntity
  8
AM_0
100
AcDbSpline
210
0.0
220
0.0
230
1.0
 70
     8
 71
     3
 72
    11
 73
     7
 74
     5
 42
0.0000000001
 43
0.0000000001
 44
0.0000000001
 40
0.0
 40
0.0
 40
0.0
 40
0.0
 40
1.228536634042578
 40
2.450134567445621
 40
3.663635920072876
 40
4.867883143121691
 40
4.867883143121691
 40
4.867883143121691
 40
4.867883143121691
 10
-2.845291137695271
 20
14.72427368164116
 30
0.0
 10
-3.254647024518534
 20
14.73564165967427
 30
0.0
 10
-4.071046780863346
 20
14.75831341008778
 30
0.0
 10
-5.292029234587389
 20
14.78250056032533
 30
0.0
 10
-6.505028452394088
 20
14.80005196841013
 30
0.0
 10
-7.310931910233835
 20
14.80510189079987
 30
0.0
 10
-7.712341308594277
 20
14.80761718750014
 30
0.0
 11
-2.845291137695271
 21
14.72427368164116
 31
0.0
 11
-4.073398590088276
 21
14.75674438476615
 31
0.0
 11
-5.29474639892628
 21
14.78146362304714
 31
0.0
 11
-6.50812911987329
 21
14.79843139648415
 31
0.0
 11
-7.712341308594277
 21
14.80761718750014
 31
0.0
  0
SPLINE
  5
B540
330
1F
100
AcDbEntity
  8
AM_0
100
AcDbSpline
210
0.0
220
0.0
230
1.0
 70
     8
 71
     3
 72
    11
 73
     7
 74
     5
 42
0.0000000001
 43
0.0000000001
 44
0.0000000001
 40
0.0
 40
0.0
 40
0.0
 40
0.0
 40
1.693049671072635
 40
3.386100964301436
 40
5.079152257528924
 40
6.772229549560451
 40
6.772229549560451
 40
6.772229549560451
 40
6.772229549560451
 10
-5.725090026855285
 20
8.594848632813137
 30
0.0
 10
-5.485107612371098
 20
9.105631599919151
 30
0.0
 10
-5.005142553469158
 20
10.127198023526
 30
0.0
 10
-4.285191421215166
 20
11.6595462925953
 30
0.0
 10
-3.565231340127974
 20
13.19190052977663
 30
0.0
 10
-3.085272433552806
 20
14.21348001644628
 30
0.0
 10
-2.845291137695271
 20
14.72427368164116
 30
0.0
 11
-5.725090026855285
 21
8.594848632813137
 31
0.0
 11
-5.005142211914285
 21
10.12719726562515
 31
0.0
 11
-4.285190582275279
 21
11.65954589843814
 31
0.0
 11
-3.565238952637268
 21
13.19189453125015
 31
0.0
 11
-2.845291137695271
 21
14.72427368164116
 31
0.0
  0
SPLINE
  5
B541
330
1F
100
AcDbEntity
  8
AM_0
100
AcDbSpline
210
0.0
220
0.0
230
1.0
 70
     8
 71
     3
 72
    11
 73
     7
 74
     5
 42
0.0000000001
 43
0.0000000001
 44
0.0000000001
 40
0.0
 40
0.0
 40
0.0
 40
0.0
 40
0.9370676479173901
 40
1.874138888672539
 40
2.811210129427652
 40
3.748281370182799
 40
3.748281370182799
 40
3.748281370182799
 40
3.748281370182799
 10
-5.725090026855285
 20
8.594848632813137
 30
0.0
 10
-5.430900612195831
 20
8.699819036840461
 30
0.0
 10
-4.84252065491691
 20
8.909760247365131
 30
0.0
 10
-3.95994946263562
 20
9.224670323912567
 30
0.0
 10
-3.077377327029454
 20
9.539581320389045
 30
0.0
 10
-2.488995872519349
 20
9.749521898463124
 30
0.0
 10
-2.194805145264291
 20
9.854492187500166
 30
0.0
 11
-5.725090026855285
 21
8.594848632813137
 31
0.0
 11
-4.842521667480288
 21
8.909759521484133
 31
0.0
 11
-3.959949493408279
 21
9.224670410156155
 31
0.0
 11
-3.077377319336299
 21
9.539581298828148
 31
0.0
 11
-2.194805145264291
 21
9.854492187500166
 31
0.0
  0
SPLINE
  5
B542
330
1F
100
AcDbEntity
  8
AM_0
100
AcDbSpline
210
0.0
220
0.0
230
1.0
 70
     8
 71
     3
 72
    11
 73
     7
 74
     5
 42
0.0000000001
 43
0.0000000001
 44
0.0000000001
 40
0.0
 40
0.0
 40
0.0
 40
0.0
 40
1.821449872311806
 40
3.644114949430401
 40
5.464456973587173
 40
7.278946029646519
 40
7.278946029646519
 40
7.278946029646519
 40
7.278946029646519
 10
-16.51281738281324
 20
7.308624267578116
 30
0.0
 10
-15.90608796333412
 20
7.285918149812417
 30
0.0
 10
-14.6922243366745
 20
7.240490765588829
 30
0.0
 10
-12.87134618985222
 20
7.192355340267139
 30
0.0
 10
-11.05248500622839
 20
7.157535367111647
 30
0.0
 10
-9.84090576483728
 20
7.147741721116577
 30
0.0
 10
-9.236091613770279
 20
7.142852783203148
 30
0.0
 11
-16.51281738281324
 21
7.308624267578116
 31
0.0
 11
-14.69252014160225
 21
7.243835449219149
 31
0.0
 11
-12.87052154541027
 21
7.194549560547139
 31
0.0
 11
-11.05049133300827
 21
7.160858154297147
 31
0.0
 11
-9.236091613770279
 21
7.142852783203148
 31
0.0
  0
SPLINE
  5
B543
330
1F
100
AcDbEntity
  8
AM_0
100
AcDbSpline
210
0.0
220
0.0
230
1.0
 70
     8
 71
     3
 72
    11
 73
     7
 74
     5
 42
0.0000000001
 43
0.0000000001
 44
0.0000000001
 40
0.0
 40
0.0
 40
0.0
 40
0.0
 40
1.204243408462811
 40
2.417740946765982
 40
3.639342694084942
 40
4.867883141491894
 40
4.867883141491894
 40
4.867883141491894
 40
4.867883141491894
 10
-7.712341308594277
 20
14.80761718750014
 30
0.0
 10
-7.310933181717969
 20
14.80510189437678
 30
0.0
 10
-6.505032266759001
 20
14.80005197910657
 30
0.0
 10
-5.292034322214027
 20
14.78250047940432
 30
0.0
 10
-4.071050595747634
 20
14.75831341814906
 30
0.0
 10
-3.254648296087127
 20
14.73564166229817
 30
0.0
 10
-2.845291137695271
 20
14.72427368164116
 30
0.0
 11
-7.712341308594277
 21
14.80761718750014
 31
0.0
 11
-6.508132934570271
 21
14.79843139648415
 31
0.0
 11
-5.294754028320271
 21
14.78146362304714
 31
0.0
 11
-4.073402404785286
 21
14.75674438476615
 31
0.0
 11
-2.845291137695271
 21
14.72427368164116
 31
0.0
  0
LINE
  5
B5D5
330
1F
100
AcDbEntity
  8
AM_0
100
AcDbLine
 10
-1.557226181030279
 20
6.054698944092167
 30
0.0
 11
-15.39536094665528
 21
6.65888595581114
 31
0.0
  0
LINE
  5
B5D6
330
1F
100
AcDbEntity
  8
AM_0
100
AcDbLine
 10
-1.557224273682271
 20
6.054693222046184
 30
0.0
 11
-1.52745437622128
 21
6.810852050781167
 31
0.0
  0
LINE
  5
B5D7
330
1F
100
AcDbEntity
  8
AM_0
100
AcDbLine
 10
-11.27622795105026
 20
7.015275955200125
 30
0.0
 11
-13.99749183654825
 21
7.072343826294147
 31
0.0
  0
LINE
  5
B5D8
330
1F
100
AcDbEntity
  8
AM_0
100
AcDbLine
 10
-1.527450561523275
 20
6.810863494873162
 30
0.0
 11
-7.752889633179259
 21
6.941417694092139
 31
0.0
  0
LINE
  5
B5D9
330
1F
100
AcDbEntity
  8
AM_0
100
AcDbLine
 10
-0.9642696380622783
 20
8.323162078857169
 30
0.0
 11
-0.0610618591312702
 21
13.92229080200215
 31
0.0
  0
ARC
  5
B5DA
330
1F
100
AcDbEntity
  8
AM_0
100
AcDbCircle
 10
-0.7967720031743024
 20
15.35574340820316
 30
0.0
 40
0.7987678647041001
100
AcDbArc
 50
42.58851940963228
 51
87.50003897627056
  0
ARC
  5
B5DB
330
1F
100
AcDbEntity
  8
AM_0
100
AcDbCircle
 10
-0.7967720031743024
 20
15.35574340820316
 30
0.0
 40
0.7975340485573002
100
AcDbArc
 50
357.5000738104613
 51
42.58852942754816
  0
LINE
  5
B5DC
330
1F
100
AcDbEntity
  8
AM_0
100
AcDbLine
 10
-0.0610675811772823
 20
13.92231369018616
 30
0.0
 11
-0.0000000000003034
 21
15.32094478607216
 31
0.0
  0
LINE
  5
B5DD
330
1F
100
AcDbEntity
  8
AM_0
100
AcDbLine
 10
-0.7619628906253072
 20
16.15494060516416
 30
0.0
 11
-0.7640190124513086
 21
16.15356922149715
 31
0.0
  0
LINE
  5
B5DE
330
1F
100
AcDbEntity
  8
AM_0
100
AcDbLine
 10
-0.9635696411132689
 20
8.321622848511173
 30
0.0
 11
-0.9648799896242667
 21
8.323192596436175
 31
0.0
  0
LINE
  5
B5DF
330
1F
100
AcDbEntity
  8
AM_0
100
AcDbLine
 10
-4.493844985962265
 20
7.061977386475137
 30
0.0
 11
-4.495155334473263
 21
7.063547134399145
 31
0.0
  0
LINE
  5
B5E0
330
1F
100
AcDbEntity
  8
AM_0
100
AcDbLine
 10
-1.565593719482265
 20
7.862033843994172
 30
0.0
 11
-1.582876205444262
 21
7.466169357300176
 31
0.0
  0
LINE
  5
B5E1
330
1F
100
AcDbEntity
  8
AM_0
100
AcDbLine
 10
-1.504077911377249
 20
7.462690353394182
 30
0.0
 11
-2.239488601685264
 21
7.494794845581168
 31
0.0
  0
LINE
  5
B5E2
330
1F
100
AcDbEntity
  8
AM_0
100
AcDbLine
 10
-1.521736145020279
 20
7.107933044434163
 30
0.0
 11
-3.356101989746273
 21
7.144035339355179
 31
0.0
  0
LINE
  5
B5E3
330
1F
100
AcDbEntity
  8
AM_0
100
AcDbLine
 10
-1.495532989502249
 20
7.462348937988168
 30
0.0
 11
-1.504077911377249
 21
7.46271514892618
 31
0.0
  0
LINE
  5
B5E4
330
1F
100
AcDbEntity
  8
AM_0
100
AcDbLine
 10
-1.521734237671249
 20
7.107936859131173
 30
0.0
 11
-1.51729583740224
 21
7.244583129883155
 31
0.0
  0
LINE
  5
B5E5
330
1F
100
AcDbEntity
  8
AM_0
100
AcDbLine
 10
-1.534301757813247
 20
6.810995101929167
 30
0.0
 11
-1.521734237671249
 21
7.107940673828183
 31
0.0
  0
ARC
  5
B5E6
330
1F
100
AcDbEntity
  8
AM_0
100
AcDbCircle
 10
-8.202686309814286
 20
11.72702026367215
 30
0.0
 40
2.185794115066499
100
AcDbArc
 50
89.53437666961056
 51
89.88581722316679
  0
ARC
  5
B5E7
330
1F
100
AcDbEntity
  8
AM_0
100
AcDbCircle
 10
-8.317874908447267
 20
11.71783447265613
 30
0.0
 40
2.200033187866199
100
AcDbArc
 50
86.87710523339834
 51
87.50000482532165
  0
ARC
  5
B5E8
330
1F
100
AcDbEntity
  8
AM_0
100
AcDbCircle
 10
-8.317920684814286
 20
11.71664428710914
 30
0.0
 40
2.201213836669899
100
AcDbArc
 50
87.50017558005497
 51
88.15635185361495
  0
LINE
  5
B5E9
330
1F
100
AcDbEntity
  8
AM_0
100
AcDbLine
 10
-7.918680191040289
 20
16.31401824951215
 30
0.0
 11
-7.712337493896272
 21
14.80760765075714
 31
0.0
  0
LINE
  5
B5EA
330
1F
100
AcDbEntity
  8
AM_0
100
AcDbLine
 10
-7.9186859130863
 20
16.31402587890614
 30
0.0
 11
-7.918621063232303
 21
16.31551933288614
 31
0.0
  0
LINE
  5
B5EB
330
1F
100
AcDbEntity
  8
AM_0
100
AcDbLine
 10
-12.5591831207283
 20
16.39197635650614
 30
0.0
 11
-12.5578727722173
 21
16.39040756225614
 31
0.0
  0
LINE
  5
B5EC
330
1F
100
AcDbEntity
  8
AM_0
100
AcDbLine
 10
-7.779443740845244
 20
6.516138076782171
 30
0.0
 11
-11.30306625366226
 21
6.585474014282127
 31
0.0
  0
LINE
  5
B5ED
330
1F
100
AcDbEntity
  8
AM_0
100
AcDbLine
 10
-9.236024856567279
 20
7.144350051880163
 30
0.0
 11
-9.320581436157299
 21
8.64545059204115
 31
0.0
  0
LINE
  5
B5EE
330
1F
100
AcDbEntity
  8
AM_0
100
AcDbLine
 10
-9.236028671265284
 20
7.144351959229137
 30
0.0
 11
-9.236093521118258
 21
7.142858505249133
 31
0.0
  0
LINE
  5
B5EF
330
1F
100
AcDbEntity
  8
AM_0
100
AcDbLine
 10
-7.670726776123284
 20
7.128032684326146
 30
0.0
 11
-7.682468414307274
 21
6.939922332764156
 31
0.0
  0
LINE
  5
B5F0
330
1F
100
AcDbEntity
  8
AM_0
100
AcDbLine
 10
-7.752891540527238
 20
6.941402435303163
 30
0.0
 11
-7.779445648193252
 21
6.516145706177158
 31
0.0
  0
LINE
  5
B5F1
330
1F
100
AcDbEntity
  8
AM_0
100
AcDbLine
 10
-11.27622413635325
 20
7.015289306641124
 30
0.0
 11
-11.21822929382325
 21
6.814926147461124
 31
0.0
  0
LINE
  5
B5F2
330
1F
100
AcDbEntity
  8
AM_0
100
AcDbLine
 10
-11.21823310852125
 20
6.814893722534137
 30
0.0
 11
-11.19648933410628
 21
7.163124084473126
 31
0.0
  0
LINE
  5
B5F3
330
1F
100
AcDbEntity
  8
AM_0
100
AcDbLine
 10
-11.05360221862827
 20
7.133359909058116
 30
0.0
 11
-11.05282020568825
 21
7.160997390747144
 31
0.0
  0
LINE
  5
B5F4
330
1F
100
AcDbEntity
  8
AM_0
100
AcDbLine
 10
-11.05360412597725
 20
7.133354187012133
 30
0.0
 11
-11.30306434631325
 21
6.585485458374123
 31
0.0
  0
LINE
  5
B5F5
330
1F
100
AcDbEntity
  8
AM_0
100
AcDbLine
 10
-11.30306625366226
 20
6.585470199585118
 30
0.0
 11
-11.27622985839827
 21
7.015296936035144
 31
0.0
  0
LINE
  5
B5F6
330
1F
100
AcDbEntity
  8
AM_0
100
AcDbLine
 10
-16.25818252563529
 20
15.29998779296912
 30
0.0
 11
-25.34808349609359
 21
15.29998779296911
 31
0.0
  0
LINE
  5
B5F7
330
1F
100
AcDbEntity
  8
AM_0
100
AcDbLine
 10
-16.25847053527827
 20
15.29470348358213
 30
0.0
 11
-17.15371417999327
 21
10.86425781250013
 31
0.0
  0
LINE
  5
B5F8
330
1F
100
AcDbEntity
  8
AM_0
100
AcDbLine
 10
-16.08946323394828
 20
15.13232994079613
 30
0.0
 11
-16.08815193176328
 21
15.13076114654513
 31
0.0
  0
ARC
  5
B5F9
330
1F
100
AcDbEntity
  8
AM_0
100
AcDbCircle
 10
-16.48036956787127
 20
8.107971191406127
 30
0.0
 40
0.7975330948829999
100
AcDbArc
 50
177.4999917484317
 51
222.5884731921697
  0
ARC
  5
B5FA
330
1F
100
AcDbEntity
  8
AM_0
100
AcDbCircle
 10
-16.48036956787127
 20
8.107971191406127
 30
0.0
 40
0.7987672090530002
100
AcDbArc
 50
222.5884663619799
 51
267.5000303248495
  0
ARC
  5
B5FB
330
1F
100
AcDbEntity
  8
AM_0
100
AcDbCircle
 10
-14.91901779174829
 20
9.13818359375014
 30
0.0
 40
2.4966907501221
100
AcDbArc
 50
226.6221711801198
 51
261.858335051554
  0
ARC
  5
B5FC
330
1F
100
AcDbEntity
  8
AM_0
100
AcDbCircle
 10
-14.91901779174829
 20
9.13818359375014
 30
0.0
 40
2.494174718856798
100
AcDbArc
 50
147.8353038964296
 51
199.4598014642747
  0
LINE
  5
B5FD
330
1F
100
AcDbEntity
  8
AM_0
100
AcDbLine
 10
-17.2160768508913
 20
9.541429519653135
 30
0.0
 11
-17.27714347839425
 21
8.142766952515119
 31
0.0
  0
LINE
  5
B5FE
330
1F
100
AcDbEntity
  8
AM_0
100
AcDbLine
 10
-15.50280284881626
 20
6.661294937134125
 30
0.0
 11
-15.60996818542526
 21
6.668252944946114
 31
0.0
  0
LINE
  5
B5FF
330
1F
100
AcDbEntity
  8
AM_0
100
AcDbLine
 10
-16.51525592804024
 20
7.308734893799131
 30
0.0
 11
-16.51281738281324
 21
7.308612823486119
 31
0.0
  0
LINE
  5
B600
330
1F
100
AcDbEntity
  8
AM_0
100
AcDbLine
 10
-16.51519680023228
 20
7.308769226074125
 30
0.0
 11
-16.51312541961727
 21
7.310148239136132
 31
0.0
  0
LINE
  5
B601
330
1F
100
AcDbEntity
  8
AM_0
100
AcDbLine
 10
-26.96410799026479
 20
8.466012954712084
 30
0.0
 11
-26.06107091903667
 21
14.25976753234911
 31
0.0
  0
LINE
  5
B602
330
1F
100
AcDbEntity
  8
AM_0
100
AcDbLine
 10
-26.03061532974226
 20
11.2187080383301
 30
0.0
 11
-25.35235404968246
 21
15.27592945098912
 31
0.0
  0
LINE
  5
B603
330
1F
100
AcDbEntity
  8
AM_0
100
AcDbLine
 10
-26.06106805801378
 20
14.25977420806911
 30
0.0
 11
-25.99999856948838
 21
15.61078071594212
 31
0.0
  0
LINE
  5
B604
330
1F
100
AcDbEntity
  8
AM_0
100
AcDbLine
 10
-26.76193571090681
 20
16.4000797271731
 30
0.0
 11
-26.7640051841734
 21
16.39869976043711
 31
0.0
  0
LINE
  5
B605
330
1F
100
AcDbEntity
  8
AM_0
100
AcDbLine
 10
-26.96358227729776
 20
8.465421676636085
 30
0.0
 11
-26.96487903594958
 21
8.466882705689073
 31
0.0
  0
LINE
  5
B606
330
1F
100
AcDbEntity
  8
AM_0
100
AcDbLine
 10
-27.59355568885788
 20
7.965511322022107
 30
0.0
 11
-27.21959686279276
 21
8.254177093506115
 31
0.0
  0
LINE
  5
B607
330
1F
100
AcDbEntity
  8
AM_0
100
AcDbLine
 10
-26.18413305282577
 20
11.78577423095708
 30
0.0
 11
-26.4836466312407
 21
10.04298210144009
 31
0.0
  0
LINE
  5
B608
330
1F
100
AcDbEntity
  8
AM_0
100
AcDbLine
 10
-12.99999809265119
 20
-14.83674240112288
 30
0.0
 11
-13.88798904418923
 21
-11.81602859497085
 31
0.0
  0
LINE
  5
B609
330
1F
100
AcDbEntity
  8
AM_0
100
AcDbLine
 10
-1.460107803345237
 20
-1.63850212097185
 30
0.0
 11
-2.644664764404252
 21
-11.28596115112283
 31
0.0
  0
LINE
  5
B60A
330
1F
100
AcDbEntity
  8
AM_0
100
AcDbLine
 10
-1.662118911743228
 20
-0.0604839324948343
 30
0.0
 11
-3.401245117188209
 21
-14.22453308105484
 31
0.0
  0
LINE
  5
B60B
330
1F
100
AcDbEntity
  8
AM_0
100
AcDbLine
 10
-4.014917373657238
 20
-5.343803405761845
 30
0.0
 11
-5.801715850830261
 21
-5.12441253662086
 31
0.0
  0
LINE
  5
B60C
330
1F
100
AcDbEntity
  8
AM_0
100
AcDbLine
 10
-1.541456222534239
 20
5.402242660522178
 30
0.0
 11
-9.432680130005255
 21
5.53145408630416
 31
0.0
  0
ARC
  5
B60D
330
1F
100
AcDbEntity
  8
AM_0
100
AcDbCircle
 10
-0.9998855590822362
 20
-0.1940307617188337
 30
0.0
 40
0.7999994158745
100
AcDbArc
 50
38.00001198559829
 51
83.00003714350197
  0
LINE
  5
B60E
330
1F
100
AcDbEntity
  8
AM_0
100
AcDbLine
 10
-0.9023914337162562
 20
0.6000061035161673
 30
0.0
 11
-1.68410301208525
 21
-0.2395076751708431
 31
0.0
  0
LINE
  5
B60F
330
1F
100
AcDbEntity
  8
AM_0
100
AcDbLine
 10
-1.582983016968238
 20
0.6835651397711608
 30
0.0
 11
-0.9023952484132662
 21
0.6000080108641748
 31
0.0
  0
LINE
  5
B610
330
1F
100
AcDbEntity
  8
AM_0
100
AcDbLine
 10
-1.541456222534239
 20
5.402259826660157
 30
0.0
 11
-1.460092544556235
 21
5.396247863770157
 31
0.0
  0
LINE
  5
B611
330
1F
100
AcDbEntity
  8
AM_0
100
AcDbLine
 10
-1.463062286377239
 20
5.291399002075168
 30
0.0
 11
-1.541444778442271
 21
5.402259826660157
 31
0.0
  0
LINE
  5
B612
330
1F
100
AcDbEntity
  8
AM_0
100
AcDbLine
 10
-3.472391128540247
 20
0.5932712554931549
 30
0.0
 11
-1.447807312012229
 21
4.666095733643147
 31
0.0
  0
LINE
  5
B613
330
1F
100
AcDbEntity
  8
AM_0
100
AcDbLine
 10
-1.460096359253273
 20
5.396253585815176
 30
0.0
 11
-1.463068008423251
 21
5.291376113892171
 31
0.0
  0
LINE
  5
B614
330
1F
100
AcDbEntity
  8
AM_0
100
AcDbLine
 10
-1.44779396057123
 20
4.66610527038617
 30
0.0
 11
-1.463068008423251
 21
5.291376113892171
 31
0.0
  0
LINE
  5
B615
330
1F
100
AcDbEntity
  8
AM_0
100
AcDbLine
 10
-0.2058582305912524
 20
-0.2915382385248454
 30
0.0
 11
-1.460109710693244
 21
-1.638519287108835
 31
0.0
  0
ARC
  5
B616
330
1F
100
AcDbEntity
  8
AM_0
100
AcDbCircle
 10
-0.9998855590822362
 20
-0.1940307617188337
 30
0.0
 40
0.8000000119209001
100
AcDbArc
 50
353.0000309965533
 51
38.00002200350867
  0
LINE
  5
B617
330
1F
100
AcDbEntity
  8
AM_0
100
AcDbLine
 10
-1.662117004395247
 20
-0.0604839324948343
 30
0.0
 11
-1.601196289063245
 21
-0.0626201629638398
 31
0.0
  0
CIRCLE
  5
B618
330
1F
100
AcDbEntity
  8
AM_0
100
AcDbCircle
 10
-6.045455932617246
 20
-7.109497070311868
 30
0.0
 40
1.75
  0
LINE
  5
B619
330
1F
100
AcDbEntity
  8
AM_0
100
AcDbLine
 10
-4.675271987915207
 20
-14.56342315673785
 30
0.0
 11
-7.43552780151421
 21
-14.22452545165984
 31
0.0
  0
LINE
  5
B61A
330
1F
100
AcDbEntity
  8
AM_0
100
AcDbLine
 10
-9.450529098511189
 20
-15.47810363769487
 30
0.0
 11
-4.67527389526421
 21
-14.56343078613286
 31
0.0
  0
LINE
  5
B61B
330
1F
100
AcDbEntity
  8
AM_0
100
AcDbLine
 10
-3.765064239502202
 20
-15.39710617065385
 30
0.0
 11
-9.450531005859199
 21
-15.47809982299786
 31
0.0
  0
LINE
  5
B61C
330
1F
100
AcDbEntity
  8
AM_0
100
AcDbLine
 10
-10.6984405517582
 20
-14.22451782226587
 30
0.0
 11
-3.401241302490204
 21
-14.22451782226583
 31
0.0
  0
LINE
  5
B61D
330
1F
100
AcDbEntity
  8
AM_0
100
AcDbLine
 10
-4.070428848267248
 20
-9.367038726806855
 30
0.0
 11
-6.289194107056226
 21
-9.094608306884877
 31
0.0
  0
LINE
  5
B61E
330
1F
100
AcDbEntity
  8
AM_0
100
AcDbLine
 10
-3.397260665894247
 20
-5.419639587401842
 30
0.0
 11
-4.01492309570325
 21
-5.343803405761845
 31
0.0
  0
LINE
  5
B61F
330
1F
100
AcDbEntity
  8
AM_0
100
AcDbLine
 10
-3.884737014771268
 20
-9.389835357665859
 30
0.0
 11
-3.397260665894247
 21
-5.419651031493838
 31
0.0
  0
LINE
  5
B620
330
1F
100
AcDbEntity
  8
AM_0
100
AcDbLine
 10
-3.884735107422237
 20
-9.389820098876855
 30
0.0
 11
-4.070428848267248
 21
-9.367023468017849
 31
0.0
  0
LINE
  5
B621
330
1F
100
AcDbEntity
  8
AM_0
100
AcDbLine
 10
-4.67527389526421
 20
-14.56340026855488
 30
0.0
 11
-4.470996856689223
 21
-14.57054138183584
 31
0.0
  0
LINE
  5
B622
330
1F
100
AcDbEntity
  8
AM_0
100
AcDbLine
 10
-4.471000671387199
 20
-14.57056808471687
 30
0.0
 11
-3.765085220337192
 21
-15.39708328247086
 31
0.0
  0
LINE
  5
B623
330
1F
100
AcDbEntity
  8
AM_0
100
AcDbLine
 10
-3.765058517456219
 20
-15.39709854125986
 30
0.0
 11
-3.763738632202199
 21
-15.39865875244086
 31
0.0
  0
LINE
  5
B624
330
1F
100
AcDbEntity
  8
AM_0
100
AcDbLine
 10
-1.937435150146237
 20
-12.11400985717786
 30
0.0
 11
-2.644657135010233
 21
-11.28596115112283
 31
0.0
  0
ARC
  5
B625
330
1F
100
AcDbEntity
  8
AM_0
100
AcDbCircle
 10
-10.7426033020022
 20
-14.51342773437487
 30
0.0
 40
0.8000003099441999
100
AcDbArc
 50
232.8992379707617
 51
263.0000353222638
  0
LINE
  5
B626
330
1F
100
AcDbEntity
  8
AM_0
100
AcDbLine
 10
-9.450532913208201
 20
-15.47808837890586
 30
0.0
 11
-10.84009742736821
 21
-15.30746459960887
 31
0.0
  0
LINE
  5
B627
330
1F
100
AcDbEntity
  8
AM_0
100
AcDbLine
 10
-10.8400955200202
 20
-15.30746078491187
 30
0.0
 11
-9.831684112549222
 21
-14.22451400756786
 31
0.0
  0
LINE
  5
B628
330
1F
100
AcDbEntity
  8
AM_0
100
AcDbLine
 10
-12.98301887512225
 20
-11.90729522705086
 30
0.0
 11
-12.98669242858921
 21
-11.86151504516586
 31
0.0
  0
LINE
  5
B629
330
1F
100
AcDbEntity
  8
AM_0
100
AcDbLine
 10
-12.98302650451723
 20
-11.90726852416988
 30
0.0
 11
-12.4546337127692
 21
-15.29477310180689
 31
0.0
  0
LINE
  5
B62A
330
1F
100
AcDbEntity
  8
AM_0
100
AcDbLine
 10
-12.38445472717319
 20
-13.36891937255887
 30
0.0
 11
-12.3697433471682
 21
-13.43948364257786
 31
0.0
  0
LINE
  5
B62B
330
1F
100
AcDbEntity
  8
AM_0
100
AcDbLine
 10
-11.86392211914118
 20
-15.29965209960888
 30
0.0
 11
-11.6395492553712
 21
-15.29965209960888
 31
0.0
  0
LINE
  5
B62C
330
1F
100
AcDbEntity
  8
AM_0
100
AcDbLine
 10
-12.43639373779319
 20
-15.29998779296888
 30
0.0
 11
-11.86580276489319
 21
-15.29998779296888
 31
0.0
  0
LINE
  5
B62D
330
1F
100
AcDbEntity
  8
AM_0
100
AcDbLine
 10
-10.6984405517582
 20
-14.22452163696284
 30
0.0
 11
-10.75709533691419
 21
-14.70222473144487
 31
0.0
  0
LINE
  5
B62E
330
1F
100
AcDbEntity
  8
AM_0
100
AcDbLine
 10
-13.34873199462926
 20
-11.84325408935486
 30
0.0
 11
-13.06106567382821
 21
-13.62545394897489
 31
0.0
  0
LINE
  5
B62F
330
1F
100
AcDbEntity
  8
AM_0
100
AcDbLine
 10
-13.06106758117721
 20
-13.62545013427689
 30
0.0
 11
-13.38927650451723
 21
-11.84120559692389
 31
0.0
  0
LINE
  5
B630
330
1F
100
AcDbEntity
  8
AM_0
100
AcDbLine
 10
-13.06106567382821
 20
-13.62544631957988
 30
0.0
 11
-12.99999427795421
 21
-14.83673477172789
 31
0.0
  0
LINE
  5
B631
330
1F
100
AcDbEntity
  8
AM_0
100
AcDbLine
 10
-12.35204887390119
 20
-14.52643966674787
 30
0.0
 11
-12.3533897399902
 21
-14.51393890380887
 31
0.0
  0
LINE
  5
B632
330
1F
100
AcDbEntity
  8
AM_0
100
AcDbLine
 10
-14.85699462890622
 20
-11.80233383178686
 30
0.0
 11
-24.53768062591534
 21
-11.78707504272491
 31
0.0
  0
LINE
  5
B633
330
1F
100
AcDbEntity
  8
AM_0
100
AcDbLine
 10
-19.10693264007622
 20
-6.411392211913889
 30
0.0
 11
-19.00879573822021
 21
-8.357986450194882
 31
0.0
  0
LINE
  5
B634
330
1F
100
AcDbEntity
  8
AM_0
100
AcDbLine
 10
-13.76189994812019
 20
-15.52754211425787
 30
0.0
 11
-14.85699653625522
 21
-11.80232620239286
 31
0.0
  0
LINE
  5
B635
330
1F
100
AcDbEntity
  8
AM_0
100
AcDbLine
 10
-25.55915069580049
 20
-14.55165863037089
 30
0.0
 11
-24.53768348693823
 21
-11.78709411621089
 31
0.0
  0
LINE
  5
B636
330
1F
100
AcDbEntity
  8
AM_0
100
AcDbLine
 10
-29.08756434917433
 20
-13.31905746459991
 30
0.0
 11
-29.17511034011824
 21
-12.99678421020492
 31
0.0
  0
LINE
  5
B637
330
1F
100
AcDbEntity
  8
AM_0
100
AcDbLine
 10
-28.96648776531203
 20
-12.99137115478491
 30
0.0
 11
-29.0875674486158
 21
-13.3190536499019
 31
0.0
  0
LINE
  5
B638
330
1F
100
AcDbEntity
  8
AM_0
100
AcDbLine
 10
-28.24964857101424
 20
-11.05126190185491
 30
0.0
 11
-28.26942873001074
 21
-11.10479354858388
 31
0.0
  0
LINE
  5
B639
330
1F
100
AcDbEntity
  8
AM_0
100
AcDbLine
 10
-29.08755421638472
 20
-13.31904602050791
 30
0.0
 11
-29.08946669101692
 21
-13.3242301940919
 31
0.0
  0
LINE
  5
B63A
330
1F
100
AcDbEntity
  8
AM_0
100
AcDbLine
 10
-29.0881714820859
 20
-13.3229484558109
 30
0.0
 11
-29.17663371562932
 21
-12.9968109130859
 31
0.0
  0
ELLIPSE
  5
B63B
330
1F
100
AcDbEntity
  8
AM_0
100
AcDbEllipse
 10
-44.44753265380832
 20
33.58059692382778
 30
0.0
 11
-39.74785556109701
 21
2.558898945158712
 31
0.0
210
0.0
220
0.0
230
1.0
 40
0.4373923019812
 41
1.747611270312538
 42
1.866932986615151
  0
ELLIPSE
  5
B63C
330
1F
100
AcDbEntity
  8
AM_0
100
AcDbEllipse
 10
-30.7153778076171
 20
9.984771728516092
 30
0.0
 11
-39.81459978857819
 21
1.112487839372911
 31
0.0
210
0.0
220
0.0
230
1.0
 40
0.0702520725045
 41
1.45897603183823
 42
1.578290368424513
  0
ELLIPSE
  5
B63D
330
1F
100
AcDbEntity
  8
AM_0
100
AcDbEllipse
 10
-39.84790039062485
 20
4.62030029296906
 30
0.0
 11
-40.61807313579841
 21
1.134948779911912
 31
0.0
210
0.0
220
0.0
230
1.0
 40
0.0702516161375
 41
4.600568502241957
 42
4.685780797650818
  0
ELLIPSE
  5
B63E
330
1F
100
AcDbEntity
  8
AM_0
100
AcDbEllipse
 10
-35.29673194885238
 20
7.180603027344083
 30
0.0
 11
-1.749319113309
 21
0.048889160368997
 31
0.0
210
0.0
220
0.0
230
1.0
 40
0.0702525878261
 41
0.0943441868328884
 42
0.9557061755223259
  0
ELLIPSE
  5
B63F
330
1F
100
AcDbEntity
  8
AM_0
100
AcDbEllipse
 10
-35.29673194885238
 20
7.180603027344083
 30
0.0
 11
-1.749319113309
 21
0.048889160368997
 31
0.0
210
0.0
220
0.0
230
1.0
 40
0.0702525878261
 41
2.356207703500115
 42
2.644093903806997
  0
SPLINE
  5
B640
330
1F
100
AcDbEntity
  8
AM_0
100
AcDbSpline
210
0.0
220
0.0
230
1.0
 70
     8
 71
     3
 72
    11
 73
     7
 74
     5
 42
0.0000000001
 43
0.0000000001
 44
0.0000000001
 40
0.0
 40
0.0
 40
0.0
 40
0.0
 40
0.0383187568856863
 40
0.0766298851605224
 40
0.1149482167131073
 40
0.1532593449889236
 40
0.1532593449889236
 40
0.1532593449889236
 40
0.1532593449889236
 10
-42.10747528076128
 20
14.64242553710907
 30
0.0
 10
-42.12024690005119
 20
14.64260772144404
 30
0.0
 10
-42.14578759601947
 20
14.64297205384419
 30
0.0
 10
-42.18409953835108
 20
14.6435351461576
 30
0.0
 10
-42.22240985335608
 20
14.64403254512037
 30
0.0
 10
-42.24795028427499
 20
14.64440571683705
 30
0.0
 10
-42.26071929931626
 20
14.64459228515606
 30
0.0
 11
-42.10747528076128
 21
14.64242553710907
 31
0.0
 11
-42.14579010009726
 21
14.64297485351606
 31
0.0
 11
-42.18409729003828
 21
14.64352416992207
 31
0.0
 11
-42.22241210937427
 21
14.64404296875007
 31
0.0
 11
-42.26071929931626
 21
14.64459228515606
 31
0.0
  0
ELLIPSE
  5
B641
330
1F
100
AcDbEntity
  8
AM_0
100
AcDbEllipse
 10
-35.28949546813946
 20
7.439392089844083
 30
0.0
 11
-1.748407336823899
 21
0.0806884727699957
 31
0.0
210
0.0
220
0.0
230
1.0
 40
0.2633360960677
 41
0.9605459165712487
 42
2.366655785228126
  0
ELLIPSE
  5
B642
330
1F
100
AcDbEntity
  8
AM_0
100
AcDbEllipse
 10
-41.27667236328029
 20
9.076477050781072
 30
0.0
 11
2.517646679029799
 21
0.0429076700380072
 31
0.0
210
0.0
220
0.0
230
1.0
 40
0.8976675145097999
 41
2.299486954607658
 42
2.410608052972028
  0
ELLIPSE
  5
B643
330
1F
100
AcDbEntity
  8
AM_0
100
AcDbEllipse
 10
-43.42885589599531
 20
16.25167846679707
 30
0.0
 11
0.1287081421789826
 21
8.125763143989701
 31
0.0
210
0.0
220
0.0
230
0.9999999999999996
 40
0.059026724484
 41
3.936886624841232
 42
3.991362350912233
  0
ELLIPSE
  5
B644
330
1F
100
AcDbEntity
  8
AM_0
100
AcDbEllipse
 10
-41.34699249267529
 20
9.310913085938087
 30
0.0
 11
2.517646679030299
 21
0.0429076700380072
 31
0.0
210
0.0
220
0.0
230
1.0
 40
0.8976675145098001
 41
2.355938704527252
 42
2.836142524037506
  0
ELLIPSE
  5
B645
330
1F
100
AcDbEntity
  8
AM_0
100
AcDbEllipse
 10
-28.82337570190417
 20
8.413024902344112
 30
0.0
 11
2.5176048798831
 21
0.0427856733030068
 31
0.0
210
0.0
220
0.0
230
1.0
 40
0.8976703712908998
 41
3.713929586813088
 42
3.733025898322509
  0
ELLIPSE
  5
B646
330
1F
100
AcDbEntity
  8
AM_0
100
AcDbEllipse
 10
-28.89365005493149
 20
8.647460937500106
 30
0.0
 11
2.5176466790306
 21
0.0429076700380036
 31
0.0
210
0.0
220
0.0
230
1.0
 40
0.8976675145097999
 41
3.868927232632426
 42
4.110139162562036
  0
ELLIPSE
  5
B647
330
1F
100
AcDbEntity
  8
AM_0
100
AcDbEllipse
 10
-45.1845474243162
 20
-15.38342285156196
 30
0.0
 11
1.688667190703995
 21
2.093170125129003
 31
0.0
210
0.0
220
0.0
230
0.9999999999999998
 40
0.10234598095
 41
0.7879629409574683
 42
1.610137811409153
  0
ELLIPSE
  5
B648
330
1F
100
AcDbEntity
  8
AM_0
100
AcDbEllipse
 10
-35.55487823486306
 20
12.32049560546908
 30
0.0
 11
5.797035136127492
 21
2.317321894351012
 31
0.0
210
0.0
220
0.0
230
1.0
 40
0.8237593843000999
 41
3.598639138341518
 42
4.209799533369852
  0
ELLIPSE
  5
B649
330
1F
100
AcDbEntity
  8
AM_0
100
AcDbEllipse
 10
-32.72634124755847
 20
7.517059326172077
 30
0.0
 11
9.534852563873963
 21
-0.4245375651514243
 31
0.0
210
0.0
220
0.0
230
1.0
 40
0.0708331949430564
 41
-1.506522959365589
 42
-1.276744063708607
  0
ELLIPSE
  5
B64A
330
1F
100
AcDbEntity
  8
AM_0
100
AcDbEllipse
 10
-33.62891197204574
 20
0.0000000000000823
 30
0.0
 11
13.41196493111946
 21
14.85723961700203
 31
0.0
210
0.0
220
0.0
230
1.0
 40
0.2724497187022
 41
3.151498949647705
 42
3.382897684375611
  0
ELLIPSE
  5
B64B
330
1F
100
AcDbEntity
  8
AM_0
100
AcDbEllipse
 10
-34.74496269226055
 20
0.0000000000001058
 30
0.0
 11
12.99960350719207
 21
14.26687744591303
 31
0.0
210
0.0
220
0.0
230
1.0
 40
0.4251554620757001
 41
3.130596891913548
 42
3.254778537148565
  0
ELLIPSE
  5
B64C
330
1F
100
AcDbEntity
  8
AM_0
100
AcDbEllipse
 10
-41.31351470947225
 20
0.0000000000000762
 30
0.0
 11
-7.738967421562032
 21
15.26962371554498
 31
0.0
210
0.0
220
0.0
230
1.0
 40
0.1245263742431
 41
5.515548558043178
 42
6.218025898943445
  0
ELLIPSE
  5
B64D
330
1F
100
AcDbEntity
  8
AM_0
100
AcDbEllipse
 10
38.39133453369075
 20
-0.0001220703117528
 30
0.0
 11
-316.8981089680289
 21
7.252105961264304
 31
0.0
210
0.0
220
0.0
230
1.0
 40
0.0425127145312
 41
4.970698156798534
 42
4.990228204178387
  0
ELLIPSE
  5
B64E
330
1F
100
AcDbEntity
  8
AM_0
100
AcDbEllipse
 10
-45.35709381103425
 20
0.000000000000058
 30
0.0
 11
3.008308570014966
 21
15.29928616394701
 31
0.0
210
0.0
220
0.0
230
0.9999999999999998
 40
0.0486609257089
 41
5.999541208446787
 42
6.05787230120192
  0
ELLIPSE
  5
B64F
330
1F
100
AcDbEntity
  8
AM_0
100
AcDbEllipse
 10
-33.62890243530254
 20
0.0000000000000823
 30
0.0
 11
13.41197712791226
 21
14.85723888488603
 31
0.0
210
0.0
220
0.0
230
1.0
 40
0.2724499722028
 41
3.382897468468475
 42
3.413008734197848
  0
SPLINE
  5
B650
330
1F
100
AcDbEntity
  8
AM_0
100
AcDbSpline
210
0.0
220
0.0
230
1.0
 70
     8
 71
     3
 72
    11
 73
     7
 74
     5
 42
0.0000000001
 43
0.0000000001
 44
0.0000000001
 40
0.0
 40
0.0
 40
0.0
 40
0.0
 40
0.9596162442272763
 40
1.921078219981351
 40
2.881718239973201
 40
3.838978571406319
 40
3.838978571406319
 40
3.838978571406319
 40
3.838978571406319
 10
-38.5578842163085
 20
16.01614379882807
 30
0.0
 10
-38.87862837003756
 20
16.00550596436869
 30
0.0
 10
-39.52073359868698
 20
15.98420983457656
 30
0.0
 10
-40.45293195124229
 20
15.72472146018856
 30
0.0
 10
-41.33272804738243
 20
15.32361826302221
 30
0.0
 10
-41.83664887125032
 20
14.92679249335931
 30
0.0
 10
-42.08816528320228
 20
14.72872924804707
 30
0.0
 11
-38.5578842163085
 21
16.01614379882807
 31
0.0
 11
-39.5149612426756
 21
15.94638061523407
 31
0.0
 11
-40.44457244873032
 21
15.70095825195308
 31
0.0
 11
-41.31316375732327
 21
15.29061889648407
 31
0.0
 11
-42.08816528320228
 21
14.72872924804707
 31
0.0
  0
SPLINE
  5
B651
330
1F
100
AcDbEntity
  8
AM_0
100
AcDbSpline
210
0.0
220
0.0
230
1.0
 70
     8
 71
     3
 72
    11
 73
     7
 74
     5
 42
0.0000000001
 43
0.0000000001
 44
0.0000000001
 40
0.0
 40
0.0
 40
0.0
 40
0.0
 40
0.9598815820955211
 40
1.921559980715327
 40
2.882422307715743
 40
3.839925044016877
 40
3.839925044016877
 40
3.839925044016877
 40
3.839925044016877
 10
-38.55918121337881
 20
16.01763916015607
 30
0.0
 10
-38.88001489225717
 20
16.00741280616288
 30
0.0
 10
-39.52228282332053
 20
15.98694095531326
 30
0.0
 10
-40.45526187926341
 20
15.7289867348254
 30
0.0
 10
-41.33463514802826
 20
15.32616471041737
 30
0.0
 10
-41.83815225527982
 20
14.92861889357789
 30
0.0
 10
-42.08946990966729
 20
14.73019409179707
 30
0.0
 11
-38.55918121337881
 21
16.01763916015607
 31
0.0
 11
-39.51661682128892
 21
15.94915771484408
 31
0.0
 11
-40.44670104980432
 21
15.70468139648407
 31
0.0
 11
-41.31503295898329
 21
15.29327392578106
 31
0.0
 11
-42.08946990966729
 21
14.73019409179707
 31
0.0
  0
SPLINE
  5
B652
330
1F
100
AcDbEntity
  8
AM_0
100
AcDbSpline
210
0.0
220
0.0
230
1.0
 70
     8
 71
     3
 72
    11
 73
     7
 74
     5
 42
0.0000000001
 43
0.0000000001
 44
0.0000000001
 40
0.0
 40
0.0
 40
0.0
 40
0.0
 40
1.170837122749116
 40
2.335820882042645
 40
3.494125279908725
 40
4.64493180533913
 40
4.64493180533913
 40
4.64493180533913
 40
4.64493180533913
 10
-38.55915832519522
 20
16.01757812500006
 30
0.0
 10
-38.16893249346994
 20
16.02441551455443
 30
0.0
 10
-37.39043168516264
 20
16.03805611151657
 30
0.0
 10
-36.2263835490685
 20
16.07860275448669
 30
0.0
 10
-35.06955821927366
 20
16.13249341439062
 30
0.0
 10
-34.30143285010336
 20
16.18197437536495
 30
0.0
 10
-33.918617248535
 20
16.20663452148409
 30
0.0
 11
-38.55915832519522
 21
16.01757812500006
 31
0.0
 11
-37.38856506347641
 21
16.04147338867209
 31
0.0
 11
-36.22425079345688
 21
16.08096313476608
 31
0.0
 11
-35.06725692749008
 21
16.13604736328109
 31
0.0
 11
-33.918617248535
 21
16.20663452148409
 31
0.0
  0
SPLINE
  5
B653
330
1F
100
AcDbEntity
  8
AM_0
100
AcDbSpline
210
0.0
220
0.0
230
1.0
 70
     8
 71
     3
 72
    11
 73
     7
 74
     5
 42
0.0000000001
 43
0.0000000001
 44
0.0000000001
 40
0.0
 40
0.0
 40
0.0
 40
0.0
 40
0.5271263877729769
 40
1.05411188842024
 40
1.580956593754477
 40
2.107646101066305
 40
2.107646101066305
 40
2.107646101066305
 40
2.107646101066305
 10
-37.22212219238268
 20
14.38583374023408
 30
0.0
 10
-37.33357953170704
 20
14.52166762238857
 30
0.0
 10
-37.55646442071793
 20
14.79329908184607
 30
0.0
 10
-37.89052703248066
 20
15.20087231595718
 30
0.0
 10
-38.22435737193922
 20
15.60844760145656
 30
0.0
 10
-38.44671952037494
 20
15.88025841335098
 30
0.0
 10
-38.5578842163085
 20
16.01614379882807
 30
0.0
 11
-37.22212219238268
 21
14.38583374023408
 31
0.0
 11
-37.55645751953109
 21
14.79336547851607
 31
0.0
 11
-37.89053344726547
 21
15.20092773437506
 31
0.0
 11
-38.22434997558579
 21
15.60852050781307
 31
0.0
 11
-38.5578842163085
 21
16.01614379882807
 31
0.0
  0
SPLINE
  5
B654
330
1F
100
AcDbEntity
  8
AM_0
100
AcDbSpline
210
0.0
220
0.0
230
1.0
 70
     8
 71
     3
 72
    11
 73
     7
 74
     5
 42
0.0000000001
 43
0.0000000001
 44
0.0000000001
 40
0.0
 40
0.0
 40
0.0
 40
0.0
 40
0.9892722342771826
 40
1.989199600149243
 40
3.010122818968932
 40
4.047030806157204
 40
4.047030806157204
 40
4.047030806157204
 40
4.047030806157204
 10
-33.73640060424789
 20
14.46453857421909
 30
0.0
 10
-33.41413104041848
 20
14.37708105235287
 30
0.0
 10
-32.76612085141515
 20
14.20122403191054
 30
0.0
 10
-32.00111931472406
 20
13.50350370094308
 30
0.0
 10
-31.50189076881672
 20
12.58345271998031
 30
0.0
 10
-31.45924693843147
 20
11.89146640086412
 30
0.0
 10
-31.43775939941387
 20
11.54278564453108
 30
0.0
 11
-33.73640060424789
 21
14.46453857421909
 31
0.0
 11
-32.80482864379867
 21
14.1316223144531
 31
0.0
 11
-32.05141830444317
 21
13.4741821289061
 31
0.0
 11
-31.57669830322249
 21
12.5703430175781
 31
0.0
 11
-31.43775939941387
 21
11.54278564453108
 31
0.0
  0
SPLINE
  5
B655
330
1F
100
AcDbEntity
  8
AM_0
100
AcDbSpline
210
0.0
220
0.0
230
1.0
 70
     8
 71
     3
 72
    11
 73
     7
 74
     5
 42
0.0000000001
 43
0.0000000001
 44
0.0000000001
 40
0.0
 40
0.0
 40
0.0
 40
0.0
 40
1.375387171890178
 40
2.752004020214279
 40
4.125413639579383
 40
5.499794110178613
 40
5.499794110178613
 40
5.499794110178613
 40
5.499794110178613
 10
-31.43775939941387
 20
11.54278564453108
 30
0.0
 10
-31.5125966232865
 20
11.08255410020149
 30
0.0
 10
-31.66233797987928
 20
10.16167953767096
 30
0.0
 10
-32.60270374653816
 20
9.07512457580108
 30
0.0
 10
-33.91058938012865
 20
8.473225064044502
 30
0.0
 10
-34.83443702043247
 20
8.600394354061576
 30
0.0
 10
-35.29652404785138
 20
8.664001464844083
 30
0.0
 11
-31.43775939941387
 21
11.54278564453108
 31
0.0
 11
-31.7815551757811
 21
10.21105957031307
 31
0.0
 11
-32.66487884521469
 21
9.155212402344067
 31
0.0
 11
-33.92339706420877
 21
8.605316162109089
 31
0.0
 11
-35.29652404785138
 21
8.664001464844083
 31
0.0
  0
SPLINE
  5
B656
330
1F
100
AcDbEntity
  8
AM_0
100
AcDbSpline
210
0.0
220
0.0
230
1.0
 70
     8
 71
     3
 72
    11
 73
     7
 74
     5
 42
0.0000000001
 43
0.0000000001
 44
0.0000000001
 40
0.0
 40
0.0
 40
0.0
 40
0.0
 40
1.722807424955536
 40
3.444047571254714
 40
5.277901575678064
 40
7.089572009237732
 40
7.089572009237732
 40
7.089572009237732
 40
7.089572009237732
 10
-37.10352325439437
 20
9.891998291016063
 30
0.0
 10
-37.35337002695492
 20
10.43550612960023
 30
0.0
 10
-37.85283628055851
 20
11.52202736483465
 30
0.0
 10
-37.10667282127027
 20
13.29306195156036
 30
0.0
 10
-35.5960885391544
 20
14.43498515005474
 30
0.0
 10
-34.35377669702526
 20
14.45472747785378
 30
0.0
 10
-33.73640060424789
 20
14.46453857421909
 30
0.0
 11
-37.10352325439437
 21
9.891998291016063
 31
0.0
 11
-37.60624694824207
 21
11.53982543945307
 31
0.0
 11
-37.00584411621077
 21
13.15295410156307
 31
0.0
 11
-35.53513336181627
 21
14.24841308593808
 31
0.0
 11
-33.73640060424789
 21
14.46453857421909
 31
0.0
  0
SPLINE
  5
B657
330
1F
100
AcDbEntity
  8
AM_0
100
AcDbSpline
210
0.0
220
0.0
230
1.0
 70
     8
 71
     3
 72
    11
 73
     7
 74
     5
 42
0.0000000001
 43
0.0000000001
 44
0.0000000001
 40
0.0
 40
0.0
 40
0.0
 40
0.0
 40
0.9394288134253249
 40
1.878854338993634
 40
2.818283152419298
 40
3.757711965843768
 40
3.757711965843768
 40
3.757711965843768
 40
3.757711965843768
 10
-37.22212219238268
 20
14.38583374023408
 30
0.0
 10
-37.51631043331914
 20
14.27854078406532
 30
0.0
 10
-38.10468588557824
 20
14.06395524723673
 30
0.0
 10
-38.98727139810407
 20
13.74213658619834
 30
0.0
 10
-39.86983394291066
 20
13.42025494414234
 30
0.0
 10
-40.45821348715452
 20
13.20567742929744
 30
0.0
 10
-40.75240325927626
 20
13.09838867187506
 30
0.0
 11
-37.22212219238268
 21
14.38583374023408
 31
0.0
 11
-38.10469055175768
 21
14.06396484375006
 31
0.0
 11
-38.98726654052718
 21
13.74212646484407
 31
0.0
 11
-39.86983489990218
 21
13.42025756835907
 31
0.0
 11
-40.75240325927626
 21
13.09838867187506
 31
0.0
  0
SPLINE
  5
B658
330
1F
100
AcDbEntity
  8
AM_0
100
AcDbSpline
210
0.0
220
0.0
230
1.0
 70
     8
 71
     3
 72
    11
 73
     7
 74
     5
 42
0.0000000001
 43
0.0000000001
 44
0.0000000001
 40
0.0
 40
0.0
 40
0.0
 40
0.0
 40
0.0231651649268673
 40
0.0463283484862793
 40
0.069493513412162
 40
0.0926566969716035
 40
0.0926566969716035
 40
0.0926566969716035
 40
0.0926566969716035
 10
-35.32058715820296
 20
8.5745239257811
 30
0.0
 10
-35.31857978037609
 20
8.581980159569338
 30
0.0
 10
-35.31456519641776
 20
8.596891989397756
 30
0.0
 10
-35.3085584807186
 20
8.61926415312952
 30
0.0
 10
-35.3025336412637
 20
8.641630758934915
 30
0.0
 10
-35.29852718853963
 20
8.656544775488113
 30
0.0
 10
-35.29652404785138
 20
8.664001464844083
 30
0.0
 11
-35.32058715820296
 21
8.5745239257811
 31
0.0
 11
-35.31456756591778
 21
8.596893310547095
 31
0.0
 11
-35.30855560302718
 21
8.619262695313089
 31
0.0
 11
-35.30253601074209
 21
8.641632080078089
 31
0.0
 11
-35.29652404785138
 21
8.664001464844083
 31
0.0
  0
SPLINE
  5
B659
330
1F
100
AcDbEntity
  8
AM_0
100
AcDbSpline
210
0.0
220
0.0
230
1.0
 70
     8
 71
     3
 72
    11
 73
     7
 74
     5
 42
0.0000000001
 43
0.0000000001
 44
0.0000000001
 40
0.0
 40
0.0
 40
0.0
 40
0.0
 40
0.5620797801814817
 40
1.123204194626657
 40
1.679244945245537
 40
2.226149040266015
 40
2.226149040266015
 40
2.226149040266015
 40
2.226149040266015
 10
-35.29652404785138
 20
8.664001464844083
 30
0.0
 10
-35.4756446792066
 20
8.720623577669817
 30
0.0
 10
-35.83358149098338
 20
8.833771562843654
 30
0.0
 10
-36.32206908150906
 20
9.113854796938147
 30
0.0
 10
-36.76055190767247
 20
9.45995344039208
 30
0.0
 10
-36.98983258285817
 20
9.748780877460452
 30
0.0
 10
-37.10352325439437
 20
9.891998291016063
 30
0.0
 11
-35.29652404785138
 21
8.664001464844083
 31
0.0
 11
-35.826072692871
 21
8.852447509766097
 31
0.0
 11
-36.31582641601547
 21
9.126312255859078
 31
0.0
 11
-36.74736785888658
 21
9.476959228516092
 31
0.0
 11
-37.10352325439437
 21
9.891998291016063
 31
0.0
  0
SPLINE
  5
B65A
330
1F
100
AcDbEntity
  8
AM_0
100
AcDbSpline
210
0.0
220
0.0
230
1.0
 70
     8
 71
     3
 72
    11
 73
     7
 74
     5
 42
0.0000000001
 43
0.0000000001
 44
0.0000000001
 40
0.0
 40
0.0
 40
0.0
 40
0.0
 40
0.0231631835584605
 40
0.0462978883810779
 40
0.0694620623313016
 40
0.0926262362805633
 40
0.0926262362805633
 40
0.0926262362805633
 40
0.0926262362805633
 10
-33.73640060424789
 20
14.46453857421909
 30
0.0
 10
-33.73439780137277
 20
14.47199535455465
 30
0.0
 10
-33.73039465803424
 20
14.48689974724257
 30
0.0
 10
-33.72436732213512
 20
14.50925550744199
 30
0.0
 10
-33.71835783422127
 20
14.5316164122277
 30
0.0
 10
-33.71434681713611
 20
14.54652920121139
 30
0.0
 10
-33.71234130859359
 20
14.55398559570308
 30
0.0
 11
-33.73640060424789
 21
14.46453857421909
 31
0.0
 11
-33.73038864135726
 21
14.48690795898409
 31
0.0
 11
-33.72437286376937
 21
14.50924682617208
 31
0.0
 11
-33.71835708618148
 21
14.53161621093808
 31
0.0
 11
-33.71234130859359
 21
14.55398559570308
 31
0.0
  0
SPLINE
  5
B65B
330
1F
100
AcDbEntity
  8
AM_0
100
AcDbSpline
210
0.0
220
0.0
230
1.0
 70
     8
 71
     3
 72
    11
 73
     7
 74
     5
 42
0.0000000001
 43
0.0000000001
 44
0.0000000001
 40
0.0
 40
0.0
 40
0.0
 40
0.0
 40
0.8723673129944371
 40
1.749049321736391
 40
2.629716093501917
 40
3.514032925154999
 40
3.514032925154999
 40
3.514032925154999
 40
3.514032925154999
 10
-33.71234130859359
 20
14.55398559570308
 30
0.0
 10
-34.00251116741218
 20
14.53497360451567
 30
0.0
 10
-34.58428605420031
 20
14.49685558955123
 30
0.0
 10
-35.45968622822699
 20
14.4511562784738
 30
0.0
 10
-36.33942696579548
 20
14.41285153944659
 30
0.0
 10
-36.92748507393531
 20
14.39485208118234
 30
0.0
 10
-37.22212219238268
 20
14.38583374023408
 30
0.0
 11
-33.71234130859359
 21
14.55398559570308
 31
0.0
 11
-34.58296585082987
 21
14.49887084960909
 31
0.0
 11
-35.45841979980459
 21
14.45248413085908
 31
0.0
 11
-36.33827972412099
 21
14.41479492187508
 31
0.0
 11
-37.22212219238268
 21
14.38583374023408
 31
0.0
  0
SPLINE
  5
B65C
330
1F
100
AcDbEntity
  8
AM_0
100
AcDbSpline
210
0.0
220
0.0
230
1.0
 70
     8
 71
     3
 72
    11
 73
     7
 74
     5
 42
0.0000000001
 43
0.0000000001
 44
0.0000000001
 40
0.0
 40
0.0
 40
0.0
 40
0.0
 40
1.608657039056836
 40
3.217314078113719
 40
4.825997938560707
 40
6.434654977617597
 40
6.434654977617597
 40
6.434654977617597
 40
6.434654977617597
 10
-37.22212219238268
 20
14.38583374023408
 30
0.0
 10
-37.47792015143455
 20
13.91456074709104
 30
0.0
 10
-37.98951606953831
 20
12.97201476080497
 30
0.0
 10
-38.75692106594477
 20
11.55819164411283
 30
0.0
 10
-39.52429864495723
 20
10.144353645916
 30
0.0
 10
-40.03590248365414
 20
9.201801786212136
 30
0.0
 10
-40.29170227050768
 20
8.730529785156047
 30
0.0
 11
-37.22212219238268
 21
14.38583374023408
 31
0.0
 11
-37.98951721191387
 21
12.97201538085907
 31
0.0
 11
-38.75691223144516
 21
11.55819702148407
 31
0.0
 11
-39.52430725097638
 21
10.14434814453105
 31
0.0
 11
-40.29170227050768
 21
8.730529785156047
 31
0.0
  0
SPLINE
  5
B65D
330
1F
100
AcDbEntity
  8
AM_0
100
AcDbSpline
210
0.0
220
0.0
230
1.0
 70
     8
 71
     3
 72
    11
 73
     7
 74
     5
 42
0.0000000001
 43
0.0000000001
 44
0.0000000001
 40
0.0
 40
0.0
 40
0.0
 40
0.0
 40
1.292576993055364
 40
2.585152321740013
 40
3.877727650424478
 40
5.170304643479833
 40
5.170304643479833
 40
5.170304643479833
 40
5.170304643479833
 10
-42.08816528320228
 20
14.72872924804707
 30
0.0
 10
-42.18216002935366
 20
14.3082480194719
 30
0.0
 10
-42.37014940062525
 20
13.46728610374897
 30
0.0
 10
-42.65212249755856
 20
12.20584106445321
 30
0.0
 10
-42.93409559448991
 20
10.94439602515701
 30
0.0
 10
-43.12208496576175
 20
10.10343410943421
 30
0.0
 10
-43.21607971191329
 20
9.682952880859074
 30
0.0
 11
-42.08816528320228
 21
14.72872924804707
 31
0.0
 11
-42.37014770507728
 21
13.46728515625007
 31
0.0
 11
-42.65212249755825
 21
12.20584106445308
 31
0.0
 11
-42.93409729003826
 21
10.94439697265606
 31
0.0
 11
-43.21607971191329
 21
9.682952880859074
 31
0.0
  0
SPLINE
  5
B65E
330
1F
100
AcDbEntity
  8
AM_0
100
AcDbSpline
210
0.0
220
0.0
230
1.0
 70
    24
 71
     3
 72
    11
 73
     7
 74
     5
 42
0.0000000001
 43
0.0000000001
 44
0.0000000001
 40
0.0
 40
0.0
 40
0.0
 40
0.0
 40
0.8977857317272807
 40
1.795571463454526
 40
2.693357195182794
 40
3.591142926910055
 40
3.591142926910055
 40
3.591142926910055
 40
3.591142926910055
 10
-41.0535812377923
 20
9.519897460938089
 30
0.0
 10
-41.02848307291597
 20
9.818105061849427
 30
0.0
 10
-40.97828674316331
 20
10.41452026367209
 30
0.0
 10
-40.90299224853418
 20
11.3091430664064
 30
0.0
 10
-40.82769775390535
 20
12.20376586914074
 30
0.0
 10
-40.77750142415262
 20
12.80018107096373
 30
0.0
 10
-40.75240325927626
 20
13.09838867187506
 30
0.0
 11
-41.0535812377923
 21
9.519897460938089
 31
0.0
 11
-40.97828674316329
 21
10.4145202636721
 31
0.0
 11
-40.90299224853425
 21
11.30914306640607
 31
0.0
 11
-40.82769775390528
 21
12.20376586914107
 31
0.0
 11
-40.75240325927626
 21
13.09838867187506
 31
0.0
  0
SPLINE
  5
B65F
330
1F
100
AcDbEntity
  8
AM_0
100
AcDbSpline
210
0.0
220
0.0
230
1.0
 70
     8
 71
     3
 72
    11
 73
     7
 74
     5
 42
0.0000000001
 43
0.0000000001
 44
0.0000000001
 40
0.0
 40
0.0
 40
0.0
 40
0.0
 40
0.5269268945242912
 40
1.053825347793856
 40
1.580747407129358
 40
2.107669466466281
 40
2.107669466466281
 40
2.107669466466281
 40
2.107669466466281
 10
-40.75240325927626
 20
13.09838867187506
 30
0.0
 10
-40.86371738414848
 20
13.23425398209564
 30
0.0
 10
-41.08633962563369
 20
13.50597726910985
 30
0.0
 10
-41.42029808990742
 20
13.91354567718428
 30
0.0
 10
-41.75422543025545
 20
14.32113750230254
 30
0.0
 10
-41.97685199888657
 20
14.59286533279877
 30
0.0
 10
-42.08816528320228
 20
14.72872924804707
 30
0.0
 11
-40.75240325927626
 21
13.09838867187506
 31
0.0
 11
-41.08634948730427
 21
13.50598144531305
 31
0.0
 11
-41.42028808593727
 21
13.91354370117207
 31
0.0
 11
-41.75422668456927
 21
14.32113647460906
 31
0.0
 11
-42.08816528320228
 21
14.72872924804707
 31
0.0
  0
SPLINE
  5
B660
330
1F
100
AcDbEntity
  8
AM_0
100
AcDbSpline
210
0.0
220
0.0
230
1.0
 70
     8
 71
     3
 72
    11
 73
     7
 74
     5
 42
0.0000000001
 43
0.0000000001
 44
0.0000000001
 40
0.0
 40
0.0
 40
0.0
 40
0.0
 40
0.5421541341479392
 40
1.084313581967013
 40
1.626475323905798
 40
2.168637065844647
 40
2.168637065844647
 40
2.168637065844647
 40
2.168637065844647
 10
-41.0535812377923
 20
9.519897460938089
 30
0.0
 10
-41.23378727405245
 20
9.533491438641869
 30
0.0
 10
-41.59420111277822
 20
9.560679527284467
 30
0.0
 10
-42.13482824279172
 20
9.601399091165319
 30
0.0
 10
-42.67545298101011
 20
9.642184116101622
 30
0.0
 10
-43.03587080161222
 20
9.669363292606591
 30
0.0
 10
-43.21607971191329
 20
9.682952880859074
 30
0.0
 11
-41.0535812377923
 21
9.519897460938089
 31
0.0
 11
-41.59420013427628
 21
9.560668945313087
 31
0.0
 11
-42.13482666015529
 21
9.601409912109078
 31
0.0
 11
-42.67545318603426
 21
9.642181396484076
 31
0.0
 11
-43.21607971191329
 21
9.682952880859074
 31
0.0
  0
SPLINE
  5
B661
330
1F
100
AcDbEntity
  8
AM_0
100
AcDbSpline
210
0.0
220
0.0
230
1.0
 70
     8
 71
     3
 72
    11
 73
     7
 74
     5
 42
0.0000000001
 43
0.0000000001
 44
0.0000000001
 40
0.0
 40
0.0
 40
0.0
 40
0.0
 40
0.4449724055141047
 40
0.8888768529155303
 40
1.331658944915443
 40
1.77331092189757
 40
1.77331092189757
 40
1.77331092189757
 40
1.77331092189757
 10
-31.72509002685528
 20
8.456939697266088
 30
0.0
 10
-31.62232585185662
 20
8.349983750294033
 30
0.0
 10
-31.41704414150037
 20
8.136328556473012
 30
0.0
 10
-31.10927686253599
 20
7.816462346059134
 30
0.0
 10
-30.80208829927182
 20
7.49757535308479
 30
0.0
 10
-30.59738676407077
 20
7.285417338346177
 30
0.0
 10
-30.49516677856426
 20
7.179473876953111
 30
0.0
 11
-31.72509002685528
 21
8.456939697266088
 31
0.0
 11
-31.41675949096667
 21
8.136108398438105
 31
0.0
 11
-31.10898590087875
 21
7.816223144531089
 31
0.0
 11
-30.80178451538064
 21
7.497344970703109
 31
0.0
 11
-30.49516677856426
 21
7.179473876953111
 31
0.0
  0
SPLINE
  5
B662
330
1F
100
AcDbEntity
  8
AM_0
100
AcDbSpline
210
0.0
220
0.0
230
1.0
 70
     8
 71
     3
 72
    11
 73
     7
 74
     5
 42
0.0000000001
 43
0.0000000001
 44
0.0000000001
 40
0.0
 40
0.0
 40
0.0
 40
0.0
 40
0.8971295096389807
 40
1.796036445789443
 40
2.696279650365518
 40
3.597424729284785
 40
3.597424729284785
 40
3.597424729284785
 40
3.597424729284785
 10
-35.32058715820296
 20
8.5745239257811
 30
0.0
 10
-35.02173062444463
 20
8.563958432265382
 30
0.0
 10
-34.42342545119461
 20
8.542806512483346
 30
0.0
 10
-33.52516547573313
 20
8.512820739720396
 30
0.0
 10
-32.62552922572738
 20
8.48396516741379
 30
0.0
 10
-32.02533658965982
 20
8.46595119357832
 30
0.0
 10
-31.72509002685528
 20
8.456939697266088
 30
0.0
 11
-35.32058715820296
 21
8.5745239257811
 31
0.0
 11
-34.42400741577126
 21
8.543121337891104
 31
0.0
 11
-33.52560424804666
 21
8.513031005859062
 31
0.0
 11
-32.62582015991198
 21
8.484283447266083
 31
0.0
 11
-31.72509002685528
 21
8.456939697266088
 31
0.0
  0
SPLINE
  5
B663
330
1F
100
AcDbEntity
  8
AM_0
100
AcDbSpline
210
0.0
220
0.0
230
1.0
 70
     8
 71
     3
 72
    11
 73
     7
 74
     5
 42
0.0000000001
 43
0.0000000001
 44
0.0000000001
 40
0.0
 40
0.0
 40
0.0
 40
0.0
 40
0.2742822596138408
 40
0.5485372628082299
 40
0.8228142242388054
 40
1.097069227433666
 40
1.097069227433666
 40
1.097069227433666
 40
1.097069227433666
 10
-41.0535812377923
 20
9.519897460938089
 30
0.0
 10
-40.99009087935272
 20
9.45411032311347
 30
0.0
 10
-40.86311647173995
 20
9.322542584969887
 30
0.0
 10
-40.67262660316184
 20
9.125214391946286
 30
0.0
 10
-40.4821805636369
 20
8.927856523488287
 30
0.0
 10
-40.35519334041257
 20
8.796303609205677
 30
0.0
 10
-40.29170227050768
 20
8.730529785156047
 30
0.0
 11
-41.0535812377923
 21
9.519897460938089
 31
0.0
 11
-40.8631057739253
 21
9.322540283203091
 31
0.0
 11
-40.67263793945229
 21
9.125213623047098
 31
0.0
 11
-40.48217010498028
 21
8.927856445313093
 31
0.0
 11
-40.29170227050768
 21
8.730529785156047
 31
0.0
  0
SPLINE
  5
B664
330
1F
100
AcDbEntity
  8
AM_0
100
AcDbSpline
210
0.0
220
0.0
230
1.0
 70
     8
 71
     3
 72
    11
 73
     7
 74
     5
 42
0.0000000001
 43
0.0000000001
 44
0.0000000001
 40
0.0
 40
0.0
 40
0.0
 40
0.0
 40
1.239920759559594
 40
2.482977745968074
 40
3.727939837688547
 40
4.973577744401259
 40
4.973577744401259
 40
4.973577744401259
 40
4.973577744401259
 10
-35.32058715820296
 20
8.5745239257811
 30
0.0
 10
-35.7336384492984
 20
8.589063470305312
 30
0.0
 10
-36.56078579385745
 20
8.618179335340872
 30
0.0
 10
-37.80278434569549
 20
8.658348524758082
 30
0.0
 10
-39.04676293931398
 20
8.696177413794661
 30
0.0
 10
-39.87664743142568
 20
8.719076923470156
 30
0.0
 10
-40.29170227050768
 20
8.730529785156047
 30
0.0
 11
-35.32058715820296
 21
8.5745239257811
 31
0.0
 11
-36.55976104736307
 21
8.617553710938082
 31
0.0
 11
-37.80216217041
 21
8.657928466797082
 31
0.0
 11
-39.0465545654296
 21
8.695587158203071
 31
0.0
 11
-40.29170227050768
 21
8.730529785156047
 31
0.0
  0
SPLINE
  5
B665
330
1F
100
AcDbEntity
  8
AM_0
100
AcDbSpline
210
0.0
220
0.0
230
1.0
 70
     8
 71
     3
 72
    11
 73
     7
 74
     5
 42
0.0000000001
 43
0.0000000001
 44
0.0000000001
 40
0.0
 40
0.0
 40
0.0
 40
0.0
 40
1.188377881322096
 40
2.375974572589076
 40
3.561729597611483
 40
4.744595889778038
 40
4.744595889778038
 40
4.744595889778038
 40
4.744595889778038
 10
-30.49387741088846
 20
7.177978515625099
 30
0.0
 10
-30.88984821000274
 20
7.189070678701228
 30
0.0
 10
-31.68152951354285
 20
7.211247713328106
 30
0.0
 10
-32.86821378089177
 20
7.247710219330138
 30
0.0
 10
-34.05299586027452
 20
7.286200746208861
 30
0.0
 10
-34.84204713406235
 20
7.313998789003197
 30
0.0
 10
-35.23609161376938
 20
7.327880859375107
 30
0.0
 11
-30.49387741088846
 21
7.177978515625099
 31
0.0
 11
-31.68177413940416
 21
7.211791992188105
 31
0.0
 11
-32.86881637573227
 21
7.248077392578072
 31
0.0
 11
-34.05393981933578
 21
7.286773681641107
 31
0.0
 11
-35.23609161376938
 21
7.327880859375107
 31
0.0
  0
SPLINE
  5
B666
330
1F
100
AcDbEntity
  8
AM_0
100
AcDbSpline
210
0.0
220
0.0
230
1.0
 70
     8
 71
     3
 72
    11
 73
     7
 74
     5
 42
0.0000000001
 43
0.0000000001
 44
0.0000000001
 40
0.0
 40
0.0
 40
0.0
 40
0.0
 40
0.8639669104204779
 40
1.72706650154657
 40
2.588887982551434
 40
3.449058618319381
 40
3.449058618319381
 40
3.449058618319381
 40
3.449058618319381
 10
-38.68328857421856
 20
7.441040039063073
 30
0.0
 10
-38.39543114844523
 20
7.432334552944904
 30
0.0
 10
-37.82000527127523
 20
7.414932319973906
 30
0.0
 10
-36.95748913590679
 20
7.387161545777543
 30
0.0
 10
-36.09627414841222
 20
7.358324447287506
 30
0.0
 10
-35.52263581280261
 20
7.338022234214435
 30
0.0
 10
-35.23609161376938
 20
7.327880859375107
 30
0.0
 11
-38.68328857421856
 21
7.441040039063073
 31
0.0
 11
-37.81972503662097
 21
7.414642333984072
 31
0.0
 11
-36.95706939697247
 21
7.386962890625099
 31
0.0
 11
-36.09573364257796
 21
7.358032226563085
 31
0.0
 11
-35.23609161376938
 21
7.327880859375107
 31
0.0
  0
SPLINE
  5
B667
330
1F
100
AcDbEntity
  8
AM_0
100
AcDbSpline
210
0.0
220
0.0
230
1.0
 70
     8
 71
     3
 72
    11
 73
     7
 74
     5
 42
0.0000000001
 43
0.0000000001
 44
0.0000000001
 40
0.0
 40
0.0
 40
0.0
 40
0.0
 40
0.0228369431723569
 40
0.041462370452768
 40
0.0604799888274868
 40
0.0837725003433613
 40
0.0837725003433613
 40
0.0837725003433613
 40
0.0837725003433613
 10
-47.00540161132721
 20
-14.82086181640592
 30
0.0
 10
-47.01057666801258
 20
-14.82658924171696
 30
0.0
 10
-47.01997241400989
 20
-14.83698785891343
 30
0.0
 10
-47.0242529791013
 20
-14.85787454668253
 30
0.0
 10
-47.01634515579854
 20
-14.87762814494081
 30
0.0
 10
-47.00594119596622
 20
-14.88730943200371
 30
0.0
 10
-47.00021362304617
 20
-14.89263916015592
 30
0.0
 11
-47.00540161132721
 21
-14.82086181640592
 31
0.0
 11
-47.01896667480421
 21
-14.83923339843694
 31
0.0
 11
-47.02237701415922
 21
-14.85754394531194
 31
0.0
 11
-47.01590728759719
 21
-14.87542724609393
 31
0.0
 11
-47.00021362304617
 21
-14.89263916015592
 31
0.0
  0
SPLINE
  5
B668
330
1F
100
AcDbEntity
  8
AM_0
100
AcDbSpline
210
0.0
220
0.0
230
1.0
 70
     8
 71
     3
 72
    11
 73
     7
 74
     5
 42
0.0000000001
 43
0.0000000001
 44
0.0000000001
 40
0.0
 40
0.0
 40
0.0
 40
0.0
 40
0.0621665238824648
 40
0.1121186630321659
 40
0.160608430433653
 40
0.2170332206852553
 40
0.2170332206852553
 40
0.2170332206852553
 40
0.2170332206852553
 10
-47.8010025024412
 20
-14.01965332031194
 30
0.0
 10
-47.81646909245874
 20
-14.03382230618184
 30
0.0
 10
-47.84436342024377
 20
-14.05937637697496
 30
0.0
 10
-47.86207848668661
 20
-14.11306435429671
 30
0.0
 10
-47.84753269859232
 20
-14.16540894816548
 30
0.0
 10
-47.82348183082758
 20
-14.1912642612606
 30
0.0
 10
-47.81054687499921
 20
-14.20516967773393
 30
0.0
 11
-47.8010025024412
 21
-14.01965332031194
 31
0.0
 11
-47.84262847900321
 21
-14.06582641601592
 31
0.0
 11
-47.85706329345621
 21
-14.11364746093694
 31
0.0
 11
-47.84524536132721
 21
-14.16067504882793
 31
0.0
 11
-47.81054687499921
 21
-14.20516967773393
 31
0.0
  0
SPLINE
  5
B669
330
1F
100
AcDbEntity
  8
AM_0
100
AcDbSpline
210
0.0
220
0.0
230
1.0
 70
     8
 71
     3
 72
    11
 73
     7
 74
     5
 42
0.0000000001
 43
0.0000000001
 44
0.0000000001
 40
0.0
 40
0.0
 40
0.0
 40
0.0
 40
0.9353797921494384
 40
1.896071310852595
 40
2.873270431560071
 40
3.859170464569404
 40
3.859170464569404
 40
3.859170464569404
 40
3.859170464569404
 10
-39.89247894287096
 20
8.113159179688068
 30
0.0
 10
-39.64157095196092
 20
7.926925972056679
 30
0.0
 10
-39.13296530618897
 20
7.549420016634543
 30
0.0
 10
-38.26266386720267
 20
7.137822911948865
 30
0.0
 10
-37.3272128288669
 20
6.844576555700544
 30
0.0
 10
-36.67402624300666
 20
6.783568777124377
 30
0.0
 10
-36.34598541259746
 20
6.752929687500101
 30
0.0
 11
-39.89247894287096
 21
8.113159179688068
 31
0.0
 11
-39.12376403808578
 21
7.580230712891054
 31
0.0
 11
-38.25954437255847
 21
7.160644531250093
 31
0.0
 11
-37.32377624511708
 21
6.879119873047085
 31
0.0
 11
-36.34598541259746
 21
6.752929687500101
 31
0.0
  0
SPLINE
  5
B66A
330
1F
100
AcDbEntity
  8
AM_0
100
AcDbSpline
210
0.0
220
0.0
230
1.0
 70
     8
 71
     3
 72
    11
 73
     7
 74
     5
 42
0.0000000001
 43
0.0000000001
 44
0.0000000001
 40
0.0
 40
0.0
 40
0.0
 40
0.0
 40
0.0099310249329486
 40
0.0191839425417643
 40
0.0278047161158166
 40
0.0357984576982562
 40
0.0357984576982562
 40
0.0357984576982562
 40
0.0357984576982562
 10
-46.97668457031221
 20
-14.79962158203095
 30
0.0
 10
-46.97951385406451
 20
-14.80134162445322
 30
0.0
 10
-46.9849792332479
 20
-14.80466426186688
 30
0.0
 10
-46.99259033309222
 20
-14.80996079299911
 30
0.0
 10
-46.99940412320625
 20
-14.81526055942291
 30
0.0
 10
-47.00345338839166
 20
-14.81904230512017
 30
0.0
 10
-47.00540161132721
 20
-14.82086181640592
 30
0.0
 11
-46.97668457031221
 21
-14.79962158203095
 31
0.0
 11
-46.98511505126922
 21
-14.80487060546893
 31
0.0
 11
-46.99271392822219
 21
-14.81015014648393
 31
0.0
 11
-46.99948120117119
 21
-14.81549072265592
 31
0.0
 11
-47.00540161132721
 21
-14.82086181640592
 31
0.0
  0
SPLINE
  5
B66B
330
1F
100
AcDbEntity
  8
AM_0
100
AcDbSpline
210
0.0
220
0.0
230
1.0
 70
     8
 71
     3
 72
    11
 73
     7
 74
     5
 42
0.0000000001
 43
0.0000000001
 44
0.0000000001
 40
0.0
 40
0.0
 40
0.0
 40
0.0
 40
0.2251330454385034
 40
0.4415745252048256
 40
0.6371808685968727
 40
0.7924320558508783
 40
0.7924320558508783
 40
0.7924320558508783
 40
0.7924320558508783
 10
-47.0364151000972
 20
-13.85034179687495
 30
0.0
 10
-47.11149505433554
 20
-13.85333876205515
 30
0.0
 10
-47.25875639964636
 20
-13.8592169905219
 30
0.0
 10
-47.46851316466258
 20
-13.89097370527949
 30
0.0
 10
-47.65503838836449
 20
-13.93334014522715
 30
0.0
 10
-47.75622733614706
 20
-13.99317635511921
 30
0.0
 10
-47.8010025024412
 20
-14.01965332031194
 30
0.0
 11
-47.0364151000972
 21
-13.85034179687495
 31
0.0
 11
-47.26116180419817
 21
-13.86352539062495
 31
0.0
 11
-47.47532653808519
 21
-13.89483642578092
 31
0.0
 11
-47.66390228271421
 21
-13.94680786132794
 31
0.0
 11
-47.8010025024412
 21
-14.01965332031194
 31
0.0
  0
SPLINE
  5
B66C
330
1F
100
AcDbEntity
  8
AM_0
100
AcDbSpline
210
0.0
220
0.0
230
1.0
 70
     8
 71
     3
 72
    11
 73
     7
 74
     5
 42
0.0000000001
 43
0.0000000001
 44
0.0000000001
 40
0.0
 40
0.0
 40
0.0
 40
0.0
 40
0.2236499951560924
 40
0.4499532826053108
 40
0.6787331295980371
 40
0.9098692652312486
 40
0.9098692652312486
 40
0.9098692652312486
 40
0.9098692652312486
 10
-40.55532073974528
 20
8.735382080078093
 30
0.0
 10
-40.5042136146331
 20
8.681095170799194
 30
0.0
 10
-40.40139305032819
 20
8.571877314498824
 30
0.0
 10
-40.23893964123311
 20
8.41432343127435
 30
0.0
 10
-40.0698565375229
 20
8.260170111912071
 30
0.0
 10
-39.95180640992084
 20
8.162329912071742
 30
0.0
 10
-39.89247894287096
 20
8.113159179688068
 30
0.0
 11
-40.55532073974528
 21
8.735382080078093
 31
0.0
 11
-40.40079498290925
 21
8.5736999511721
 31
0.0
 11
-40.23873901367166
 21
8.415740966797072
 31
0.0
 11
-40.06926727294906
 21
8.262054443359062
 31
0.0
 11
-39.89247894287096
 21
8.113159179688068
 31
0.0
  0
SPLINE
  5
B66D
330
1F
100
AcDbEntity
  8
AM_0
100
AcDbSpline
210
0.0
220
0.0
230
1.0
 70
     8
 71
     3
 72
    11
 73
     7
 74
     5
 42
0.0000000001
 43
0.0000000001
 44
0.0000000001
 40
0.0
 40
0.0
 40
0.0
 40
0.0
 40
1.227401697735273
 40
2.61526957598847
 40
4.118393646510233
 40
5.68527952988084
 40
5.68527952988084
 40
5.68527952988084
 40
5.68527952988084
 10
-45.56340789794826
 20
11.65911865234406
 30
0.0
 10
-45.31032186839804
 20
11.33553270803266
 30
0.0
 10
-44.77106223203642
 20
10.6460563312796
 30
0.0
 10
-43.64976076313093
 20
9.829060206240589
 30
0.0
 10
-42.29143695527617
 20
9.18793391045513
 30
0.0
 10
-41.27488341085185
 20
9.032369894350425
 30
0.0
 10
-40.75605010986227
 20
8.952972412109085
 30
0.0
 11
-45.56340789794826
 21
11.65911865234406
 31
0.0
 11
-44.76609039306626
 21
10.72595214843804
 31
0.0
 11
-43.65953063964829
 21
9.888275146484071
 31
0.0
 11
-42.29141998290926
 21
9.265655517578084
 31
0.0
 11
-40.75605010986227
 21
8.952972412109085
 31
0.0
  0
LINE
  5
B672
330
1F
100
AcDbEntity
  8
AM_0
100
AcDbLine
 10
-49.9999999999992
 20
-15.29998779296894
 30
0.0
 11
-49.99999999999928
 21
15.29998779296904
 31
0.0
  0
LINE
  5
B673
330
1F
100
AcDbEntity
  8
AM_0
100
AcDbLine
 10
-51.21243286132724
 20
-15.99999999999997
 30
0.0
 11
-51.21243286132728
 21
16.00000000000004
 31
0.0
  0
LINE
  5
B674
330
1F
100
AcDbEntity
  8
AM_0
100
AcDbLine
 10
-38.53974437713608
 20
7.385965347290073
 30
0.0
 11
-37.18805313110336
 21
7.344552993774085
 31
0.0
  0
LINE
  5
B675
330
1F
100
AcDbEntity
  8
AM_0
100
AcDbLine
 10
-37.27622985839828
 20
7.320463180542089
 30
0.0
 11
-38.46241283416726
 21
7.358182907105066
 31
0.0
  0
LINE
  5
B676
330
1F
100
AcDbEntity
  8
AM_0
100
AcDbLine
 10
-33.91868019103989
 20
16.20519542694108
 30
0.0
 11
-33.71233868598917
 21
14.55397605896008
 31
0.0
  0
LINE
  5
B677
330
1F
100
AcDbEntity
  8
AM_0
100
AcDbLine
 10
-33.91868042945849
 20
16.20519638061509
 30
0.0
 11
-33.91861557960501
 21
16.20662975311309
 31
0.0
  0
LINE
  5
B678
330
1F
100
AcDbEntity
  8
AM_0
100
AcDbLine
 10
-32.14395725727065
 20
6.815826416016085
 30
0.0
 11
-36.67454910278304
 21
7.019409179688082
 31
0.0
  0
LINE
  5
B679
330
1F
100
AcDbEntity
  8
AM_0
100
AcDbLine
 10
-30.49385845661147
 20
7.177967071533103
 30
0.0
 11
-30.49516036361434
 21
7.179464340210089
 31
0.0
  0
LINE
  5
B67A
330
1F
100
AcDbEntity
  8
AM_0
100
AcDbLine
 10
-30.49387209862454
 20
7.177982330322081
 30
0.0
 11
-30.67148393392546
 21
7.040891647339079
 31
0.0
  0
LINE
  5
B67B
330
1F
100
AcDbEntity
  8
AM_0
100
AcDbLine
 10
-33.66443443298327
 20
7.236579895020099
 30
0.0
 11
-33.66657567024216
 21
7.205587387085103
 31
0.0
  0
LINE
  5
B67C
330
1F
100
AcDbEntity
  8
AM_0
100
AcDbLine
 10
-33.66443490982037
 20
7.236583709717108
 30
0.0
 11
-30.91851526498775
 21
7.152448654175101
 31
0.0
  0
LINE
  5
B67D
330
1F
100
AcDbEntity
  8
AM_0
100
AcDbLine
 10
-30.74858105182626
 20
7.112771987915079
 30
0.0
 11
-33.75288891792275
 21
7.208353042603106
 31
0.0
  0
LINE
  5
B67E
330
1F
100
AcDbEntity
  8
AM_0
100
AcDbLine
 10
-33.75289034843426
 20
7.208349227905102
 30
0.0
 11
-33.77493572235085
 21
6.889102935791099
 31
0.0
  0
LINE
  5
B67F
330
1F
100
AcDbEntity
  8
AM_0
100
AcDbLine
 10
-30.49387410283066
 20
7.177974700928089
 30
0.0
 11
-30.49516945332267
 21
7.179477691650092
 31
0.0
  0
LINE
  5
B680
330
1F
100
AcDbEntity
  8
AM_0
100
AcDbLine
 10
-35.23602342605574
 20
7.329355239868101
 30
0.0
 11
-35.32058763504006
 21
8.574533462524094
 31
0.0
  0
LINE
  5
B681
330
1F
100
AcDbEntity
  8
AM_0
100
AcDbLine
 10
-35.23602104186995
 20
7.329355239868101
 30
0.0
 11
-35.23608970642076
 21
7.327892303467101
 31
0.0
  0
LINE
  5
B682
330
1F
100
AcDbEntity
  8
AM_0
100
AcDbLine
 10
-35.49621391296365
 20
6.990148544312082
 30
0.0
 11
-34.80878543853747
 21
6.975194931030097
 31
0.0
  0
LINE
  5
B683
330
1F
100
AcDbEntity
  8
AM_0
100
AcDbLine
 10
-37.04448986053445
 20
7.046331405640087
 30
0.0
 11
-37.03967618942245
 21
7.218564987183083
 31
0.0
  0
LINE
  5
B684
330
1F
100
AcDbEntity
  8
AM_0
100
AcDbLine
 10
-37.03967809677108
 20
7.218564987183083
 30
0.0
 11
-37.18805646896346
 21
7.344535827637073
 31
0.0
  0
LINE
  5
B685
330
1F
100
AcDbEntity
  8
AM_0
100
AcDbLine
 10
-37.20737361907946
 20
7.06484794616709
 30
0.0
 11
-37.18805599212624
 21
7.344545364380094
 31
0.0
  0
LINE
  5
B686
330
1F
100
AcDbEntity
  8
AM_0
100
AcDbLine
 10
-37.27622890472396
 20
7.320455551147074
 30
0.0
 11
-37.24093914031966
 21
7.069198608398079
 31
0.0
  0
LINE
  5
B687
330
1F
100
AcDbEntity
  8
AM_0
100
AcDbLine
 10
-37.29309082031238
 20
7.076290130615075
 30
0.0
 11
-37.27623033523547
 21
7.320459365845079
 31
0.0
  0
LINE
  5
B688
330
1F
100
AcDbEntity
  8
AM_0
100
AcDbLine
 10
-36.67454242706285
 20
7.019395828247084
 30
0.0
 11
-36.34598684310896
 21
6.752920150757078
 31
0.0
  0
LINE
  5
B689
330
1F
100
AcDbEntity
  8
AM_0
100
AcDbLine
 10
-42.26071071624728
 20
14.64459228515606
 30
0.0
 11
-43.1767759323113
 21
10.55335998535206
 31
0.0
  0
LINE
  5
B68A
330
1F
100
AcDbEntity
  8
AM_0
100
AcDbLine
 10
-42.25846481323226
 20
14.87761974334707
 30
0.0
 11
-43.15370559692325
 21
10.87936019897508
 31
0.0
  0
LINE
  5
B68B
330
1F
100
AcDbEntity
  8
AM_0
100
AcDbLine
 10
-42.08832931518528
 20
14.72809791564907
 30
0.0
 11
-42.08947753906228
 21
14.73018360137907
 31
0.0
  0
LINE
  5
B68C
330
1F
100
AcDbEntity
  8
AM_0
100
AcDbLine
 10
-38.5591897964476
 20
16.01763725280807
 30
0.0
 11
-38.5578899383544
 21
16.01613903045707
 31
0.0
  0
LINE
  5
B68D
330
1F
100
AcDbEntity
  8
AM_0
100
AcDbLine
 10
-42.08947372436428
 20
14.73018741607707
 30
0.0
 11
-42.08817481994527
 21
14.72872924804707
 31
0.0
  0
LINE
  5
B68E
330
1F
100
AcDbEntity
  8
AM_0
100
AcDbLine
 10
-41.79375934600729
 20
9.124460220337077
 30
0.0
 11
-41.05358314514126
 21
9.519908905029094
 31
0.0
  0
LINE
  5
B68F
330
1F
100
AcDbEntity
  8
AM_0
100
AcDbLine
 10
-43.21607971191329
 20
9.682962417603063
 30
0.0
 11
-43.21774291992126
 21
9.64619445800808
 31
0.0
  0
LINE
  5
B690
330
1F
100
AcDbEntity
  8
AM_0
100
AcDbLine
 10
-50.00000190734828
 20
15.29999542236305
 30
0.0
 11
-51.21242713928129
 21
16.00000190734904
 31
0.0
  0
LINE
  5
B691
330
1F
100
AcDbEntity
  8
AM_0
100
AcDbLine
 10
-48.91584014892529
 20
15.29998779296906
 30
0.0
 11
-49.99999999999928
 21
15.29998779296904
 31
0.0
  0
LINE
  5
B692
330
1F
100
AcDbEntity
  8
AM_0
100
AcDbLine
 10
-48.91660690307528
 20
15.29998493194605
 30
0.0
 11
-48.91220474243129
 21
15.29995441436805
 31
0.0
  0
LINE
  5
B693
330
1F
100
AcDbEntity
  8
AM_0
100
AcDbLine
 10
-49.9999999999992
 20
-15.29998779296894
 30
0.0
 11
-45.68600463867118
 21
-15.29998779296895
 31
0.0
  0
LINE
  5
B694
330
1F
100
AcDbEntity
  8
AM_0
100
AcDbLine
 10
-51.21244049072221
 20
-15.99998855590795
 30
0.0
 11
-50.00000953674218
 21
-15.29997634887695
 31
0.0
  0
LINE
  5
B697
330
1F
100
AcDbEntity
  8
AM_0
100
AcDbLine
 10
-227.0000000000003
 20
15.99999999999966
 30
0.0
 11
-51.21243286132728
 21
16.00000000000004
 31
0.0
  0
LINE
  5
B698
330
1F
100
AcDbEntity
  8
AM_0
100
AcDbLine
 10
-227.0000000000001
 20
-16.00000000000031
 30
0.0
 11
-51.21243286132724
 21
-15.99999999999997
 31
0.0
  0
LINE
  5
B699
330
1F
100
AcDbEntity
  8
AM_0
100
AcDbLine
 10
-230.0000000000002
 20
-13.66149902343734
 30
0.0
 11
-230.0000000000002
 21
13.66149902343767
 31
0.0
  0
LINE
  5
B69A
330
1F
100
AcDbEntity
  8
AM_0
100
AcDbLine
 10
-227.0000000000001
 20
-16.00000000000031
 30
0.0
 11
-227.0000000000003
 21
15.99999999999966
 31
0.0
  0
ARC
  5
B69B
330
1F
100
AcDbEntity
  8
AM_0
100
AcDbCircle
 10
-228.0000000000002
 20
13.66149902343765
 30
0.0
 40
2.000000476837199
100
AcDbArc
 50
105.0000218185968
 51
180.0000050089578
  0
LINE
  5
B69C
330
1F
100
AcDbEntity
  8
AM_0
100
AcDbLine
 10
-227.0000000000003
 20
16.00000095367368
 30
0.0
 11
-228.5176391601503
 21
15.59335422515866
 31
0.0
  0
ARC
  5
B69D
330
1F
100
AcDbEntity
  8
AM_0
100
AcDbCircle
 10
-228.0000000000002
 20
-13.66149902343733
 30
0.0
 40
2.0
100
AcDbArc
 50
180.0000050089578
 51
254.9999781814032
  0
LINE
  5
B69E
330
1F
100
AcDbEntity
  8
AM_0
100
AcDbLine
 10
-228.5176315307603
 20
-15.59335327148431
 30
0.0
 11
-226.9999923706002
 21
-16.00000000000031
 31
0.0
  0
LINE
  5
B748
330
1F
100
AcDbEntity
  8
AM_11
100
AcDbLine
 10
-39.0000000000003
 20
16.50000000000007
 30
0.0
 11
-0.0000000000003085
 21
16.50000000000017
 31
0.0
  0
LINE
  5
B749
330
1F
100
AcDbEntity
  8
AM_11
100
AcDbLine
 10
-0.0000000000002311
 20
-16.49999999999985
 30
0.0
 11
-0.0000000000003085
 21
16.50000000000017
 31
0.0
  0
LINE
  5
B74A
330
1F
100
AcDbEntity
  8
AM_11
100
AcDbLine
 10
-39.00000000000023
 20
-16.4999999999999
 30
0.0
 11
-0.0000000000002311
 21
-16.49999999999985
 31
0.0
  0
LINE
  5
B752
330
1F
100
AcDbEntity
  8
AM_11
100
AcDbLine
 10
-39.00000000000023
 20
-16.4999999999999
 30
0.0
 11
-39.0000000000003
 21
16.50000000000007
 31
0.0
  0
DIMENSION
  5
B75A
330
1F
100
AcDbEntity
  8
AM_5
100
AcDbDimension
  2
*D2
 10
-39.00000000000027
 20
30.28081612451217
 30
0.0
 11
-19.50000000000027
 21
34.38081612451213
 31
0.0
 70
    32
  1
<>
 71
     5
 42
-1.0
 51
359.9999999999998
  3
AM_JIS$0
100
AcDbAlignedDimension
 13
-0.0000000000003124
 23
16.50000000000016
 33
0.0
 14
-39.0000000000003
 24
16.50000000000004
 34
0.0
 50
180.0
100
AcDbRotatedDimension
1001
GENIUS_GENDTOL_13
1000

1000
h7
1000

1040
0.0
1001
ACAD
1000
DSTYLE
1002
{
1070
   287
1070
     3
1070
   147
1040
2.5
1070
    44
1040
1.0
1070
    41
1040
2.5
1070
    40
1040
1.0
1070
    42
1040
1.0
1070
    43
1040
12.0
1070
    48
1040
0.1
1070
    78
1070
     8
1070
   140
1040
3.2
1070
   176
1070
   256
1070
   177
1070
   256
1070
   271
1070
     1
1070
   272
1070
     3
1070
   275
1070
     0
1070
   284
1070
     0
1070
   289
1070
     3
1070
   340
1005
6B
1070
   371
1070
    -1
1070
   372
1070
    -1
1002
}
  0
DIMENSION
  5
B7EF
330
1F
100
AcDbEntity
  8
AM_5
100
AcDbDimension
  2
*D3
 10
18.93758542520739
 20
-16.49999999999984
 30
0.0
 11
14.83758542520739
 21
0.0000000000001592
 31
0.0
 70
    32
  1
%%c<>
 71
     5
 42
-1.0
 51
359.9999999999998
  3
AM_JIS$0
100
AcDbAlignedDimension
 13
-0.0000000000003124
 23
16.50000000000016
 33
0.0
 14
-0.0000000000002414
 24
-16.49999999999984
 34
0.0
 50
90.0
100
AcDbRotatedDimension
1001
GENIUS_GENDTOL_13
1000

1000
h7
1000

1040
0.0
1001
ACAD
1000
DSTYLE
1002
{
1070
   287
1070
     3
1070
   147
1040
2.5
1070
    44
1040
1.0
1070
    41
1040
2.5
1070
    40
1040
1.0
1070
    42
1040
1.0
1070
    43
1040
12.0
1070
    48
1040
0.1
1070
    78
1070
     8
1070
   140
1040
3.2
1070
   176
1070
   256
1070
   177
1070
   256
1070
   271
1070
     0
1070
   272
1070
     3
1070
   275
1070
     0
1070
   284
1070
     0
1070
   289
1070
     3
1070
   340
1005
6B
1070
   371
1070
    -1
1070
   372
1070
    -1
1002
}
  0
DIMENSION
  5
B896
330
1F
100
AcDbEntity
  8
AM_5
100
AcDbDimension
  2
*D4
 10
-49.99999999999921
 20
-30.41358595163107
 30
0.0
 11
-24.99999999999972
 21
-26.31358595163107
 31
0.0
 70
    32
  1
<>
 71
     5
 42
-1.0
 51
359.9999999999998
  3
AM_JIS$0
100
AcDbAlignedDimension
 13
-0.0000000000002345
 23
-16.39040756225583
 33
0.0
 14
-49.99999999999921
 24
-15.29998779296894
 34
0.0
100
AcDbRotatedDimension
1001
GENIUS_GENDTOL_13
1000

1000
h7
1000

1040
0.0
1001
ACAD
1000
DSTYLE
1002
{
1070
   287
1070
     3
1070
   147
1040
2.5
1070
    44
1040
1.0
1070
    41
1040
2.5
1070
    40
1040
1.0
1070
    42
1040
1.0
1070
    43
1040
12.0
1070
    48
1040
0.1
1070
    78
1070
     8
1070
   140
1040
3.2
1070
   176
1070
   256
1070
   177
1070
   256
1070
   271
1070
     0
1070
   272
1070
     3
1070
   275
1070
     0
1070
   284
1070
     0
1070
   289
1070
     3
1070
   340
1005
6B
1070
   371
1070
    -1
1070
   372
1070
    -1
1002
}
  0
DIMENSION
  5
B92E
330
1F
100
AcDbEntity
  8
AM_5
100
AcDbDimension
  2
*D5
 10
-230.0000004768374
 20
-30.41358595163107
 30
0.0
 11
-140.0000011920928
 21
-26.31358595163107
 31
0.0
 70
    32
  1
<>
 71
     5
 42
-1.0
 51
359.9999999999998
  3
AM_JIS$0
100
AcDbAlignedDimension
 13
-50.00000190734821
 23
-15.29999542236295
 33
0.0
 14
-230.0000004768374
 24
-13.66149884859273
 34
0.0
100
AcDbRotatedDimension
1001
GENIUS_GENDTOL_13
1000

1000
h7
1000

1040
0.0
1001
ACAD
1000
DSTYLE
1002
{
1070
   287
1070
     3
1070
   147
1040
2.5
1070
    44
1040
1.0
1070
    41
1040
2.5
1070
    40
1040
1.0
1070
    42
1040
1.0
1070
    43
1040
12.0
1070
    48
1040
0.1
1070
    78
1070
     8
1070
   140
1040
3.2
1070
   176
1070
   256
1070
   177
1070
   256
1070
   271
1070
     0
1070
   272
1070
     3
1070
   275
1070
     0
1070
   284
1070
     0
1070
   289
1070
     3
1070
   340
1005
6B
1070
   371
1070
    -1
1070
   372
1070
    -1
1002
}
  0
DIMENSION
  5
B9D9
330
1F
100
AcDbEntity
  8
AM_5
100
AcDbDimension
  2
*D6
 10
-230.0000004768374
 20
-40.41358595163107
 30
0.0
 11
-115.0000002384188
 21
-36.31358595163107
 31
0.0
 70
    32
  1
<>
 71
     5
 42
-1.0
 51
359.9999999999998
  3
AM_JIS$0
100
AcDbAlignedDimension
 13
-0.0000000000002345
 23
-16.39040756225583
 33
0.0
 14
-230.0000004768374
 24
-13.66149884859273
 34
0.0
100
AcDbRotatedDimension
1001
GENIUS_GENDTOL_13
1000

1000
h7
1000

1040
0.0
1001
ACAD
1000
DSTYLE
1002
{
1070
   287
1070
     3
1070
   147
1040
2.5
1070
    44
1040
1.0
1070
    41
1040
2.5
1070
    40
1040
1.0
1070
    42
1040
1.0
1070
    43
1040
12.0
1070
    48
1040
0.1
1070
    78
1070
     8
1070
   140
1040
3.2
1070
   176
1070
   256
1070
   177
1070
   256
1070
   271
1070
     0
1070
   272
1070
     3
1070
   275
1070
     0
1070
   284
1070
     0
1070
   289
1070
     3
1070
   340
1005
6B
1070
   371
1070
    -1
1070
   372
1070
    -1
1002
}
  0
DIMENSION
  5
BA6E
330
1F
100
AcDbEntity
  8
AM_5
100
AcDbDimension
  2
*D7
 10
-249.2416544377983
 20
-16.00000095367436
 30
0.0
 11
-253.3416544377983
 21
-0.0000004768374187
 31
0.0
 70
    32
  1
%%c<>
 71
     5
 42
-1.0
 51
359.9999999999998
  3
AM_JIS$0
100
AcDbAlignedDimension
 13
-226.9999923706002
 23
15.9999999999996
 33
0.0
 14
-227.0000000000002
 24
-16.00000095367437
 34
0.0
 50
270.0000000000002
100
AcDbRotatedDimension
1001
GENIUS_GENDTOL_13
1000

1000
h7
1000

1040
0.0
1001
ACAD
1000
DSTYLE
1002
{
1070
   287
1070
     3
1070
   147
1040
2.5
1070
    44
1040
1.0
1070
    41
1040
2.5
1070
    40
1040
1.0
1070
    42
1040
1.0
1070
    43
1040
12.0
1070
    48
1040
0.1
1070
    78
1070
     8
1070
   140
1040
3.2
1070
   176
1070
   256
1070
   177
1070
   256
1070
   271
1070
     0
1070
   272
1070
     3
1070
   275
1070
     0
1070
   284
1070
     0
1070
   289
1070
     3
1070
   340
1005
6B
1070
   371
1070
    -1
1070
   372
1070
    -1
1002
}
  0
LINE
  5
BF75
330
1F
100
AcDbEntity
  8
AM_0
100
AcDbLine
 10
-36.34598684310896
 20
6.752920150757078
 30
0.0
 11
-9.431740624023621
 21
5.530558587638442
 31
0.0
  0
VIEWPORT
  5
110
102
{ACAD_XDICTIONARY
360
C0EB
102
}
330
101
100
AcDbEntity
 67
     1
  8
0
100
AcDbViewport
 10
420.5
 20
297.0
 30
0.0
 40
948.9782706766916
 41
628.452
 68
     1
 69
     1
 12
420.5
 22
297.0
 13
0.0
 23
0.0
 14
10.0
 24
10.0
 15
10.0
 25
10.0
 16
0.0
 26
0.0
 36
1.0
 17
0.0
 27
0.0
 37
0.0
 42
50.0
 43
0.0
 44
0.0
 45
628.452
 50
0.0
 51
0.0
 72
   100
 90
    32800
  1

281
     0
 71
     1
 74
     0
110
-0.0000000000002682
120
0.000000000000161
130
0.0
111
1.0
121
0.000000000000002
131
0.0
112
-0.000000000000002
122
1.0
132
0.0
 79
     0
146
0.0
1001
GENIUS_GENSCREG_15
1000
PF
1040
1.0
1000
DF
1040
1.0
1000
MIN
1011
-53.98913533834582
1021
-17.226
1031
0.0
1000
MAX
1011
894.9891353383458
1021
611.226
1031
0.0
1000
FLAGS
1070
     4
1001
GENIUS_GENODEF_13
1002
{
1000
HIER
1070
     0
1002
}
1002
{
1000
MANEDIT
1070
     0
1002
}
1002
{
1000
NOSEL
1070
     0
1002
}
1002
{
1000
BEHIND
1070
     0
1002
}
1002
{
1000
OTHER
1070
     0
1002
}
1002
{
1000
REACTOR
1002
}
1001
GENIUS_GENOBJ-N-SDF_13
1002
{
1000
OWNER
1000
GEN
1002
}
  0
ENDSEC
  0
SECTION
  2
OBJECTS
  0
DICTIONARY
  5
C
330
0
100
AcDbDictionary
281
     1
  3
ACAD_COLOR
350
C01C
  3
ACAD_GROUP
350
D
  3
ACAD_LAYOUT
350
1A
  3
ACAD_MATERIAL
350
C01B
  3
ACAD_MLINESTYLE
350
17
  3
ACAD_PLOTSETTINGS
350
19
  3
ACAD_PLOTSTYLENAME
350
E
  3
ACAD_TABLESTYLE
350
C01D
  3
ACDBHEADERROUNDTRIPXREC
350
C0EA
  3
ACDBVARIABLEDICTIONARY
350
34
  3
ACMDICTIONARY
350
43
  3
AMG
350
2B
  3
AMGSNAPSETTINGS
350
6E
  3
DWGPROPS
350
C0E9
  0
DICTIONARY
  5
74
330
1F
100
AcDbDictionary
280
     1
281
     1
  3
ACAD_INDEX
360
BFAB
  3
ACAD_LAYOUTSELFREF
360
BFD8
  0
DICTIONARY
  5
BFDD
330
101
100
AcDbDictionary
280
     1
281
     1
  3
ACAD_LAYOUTSELFREF
360
BFDE
  0
DICTIONARY
  5
C0EB
330
110
100
AcDbDictionary
280
     1
281
     1
  3
ACAD_XREC_ROUNDTRIP
360
C0EC
  0
DICTIONARY
  5
C01C
102
{ACAD_REACTORS
330
C
102
}
330
C
100
AcDbDictionary
281
     1
  0
DICTIONARY
  5
D
102
{ACAD_REACTORS
330
C
102
}
330
C
100
AcDbDictionary
281
     1
  0
DICTIONARY
  5
1A
102
{ACAD_REACTORS
330
C
102
}
330
C
100
AcDbDictionary
281
     1
  3
Model
350
C01F
  3
レイアウト1
350
C020
  0
DICTIONARY
  5
C01B
102
{ACAD_REACTORS
330
C
102
}
330
C
100
AcDbDictionary
281
     1
  0
DICTIONARY
  5
17
102
{ACAD_REACTORS
330
C
102
}
330
C
100
AcDbDictionary
281
     1
  3
STANDARD
350
18
  0
DICTIONARY
  5
19
102
{ACAD_REACTORS
330
C
102
}
330
C
100
AcDbDictionary
281
     1
  3
ASAMI
350
399D
  0
ACDBDICTIONARYWDFLT
  5
E
102
{ACAD_REACTORS
330
C
102
}
330
C
100
AcDbDictionary
281
     1
  3
Normal
350
F
100
AcDbDictionaryWithDefault
340
F
  0
DICTIONARY
  5
C01D
102
{ACAD_REACTORS
330
C
102
}
330
C
100
AcDbDictionary
281
     1
  3
Standard
350
C01E
  0
DICTIONARY
  5
C0EA
102
{ACAD_REACTORS
330
C
102
}
330
C
100
AcDbDictionary
281
     1
  0
DICTIONARY
  5
34
102
{ACAD_REACTORS
330
C
102
}
330
C
100
AcDbDictionary
281
     1
  3
CTABLESTYLE
350
C0E5
  3
DIMASSOC
350
C0E6
  3
INDEXCTL
350
35
  3
PROJECTNAME
350
C0E7
  3
SORTENTS
350
B5E
  0
DICTIONARY
  5
43
102
{ACAD_REACTORS
330
C
102
}
330
C
100
AcDbDictionary
281
     1
  3
ACMSTDDICTIONARY
350
260
  0
DICTIONARY
  5
2B
102
{ACAD_REACTORS
330
C
102
}
330
C
100
AcDbDictionary
281
     1
  0
DICTIONARY
  5
6E
102
{ACAD_REACTORS
330
C
102
}
330
C
100
AcDbDictionary
281
     1
  0
XRECORD
  5
C0E9
102
{ACAD_REACTORS
330
C
102
}
330
C
100
AcDbXrecord
280
     1
  1
DWGPROPS COOKIE
  2

  3

  4

  6

  7

  8
那須
  9

300
AmdtFileType=82
301
=
302
=
303
=
304
=
305
=
306
=
307
=
308
=
309
=
 40
0.9695396759259258
 41
2452802.716478762
 42
2453691.653797014
  1

 90
        1
  0
DICTIONARY
  5
BFAB
102
{ACAD_REACTORS
330
74
102
}
330
74
100
AcDbDictionary
281
     1
  3
*A1
350
BFAC
  0
XRECORD
  5
BFD8
102
{ACAD_REACTORS
330
74
102
}
330
74
100
AcDbXrecord
280
     1
340
1F
  0
XRECORD
  5
BFDE
102
{ACAD_REACTORS
330
BFDD
102
}
330
BFDD
100
AcDbXrecord
280
     1
340
101
  0
XRECORD
  5
C0EC
102
{ACAD_REACTORS
330
C0EB
102
}
330
C0EB
100
AcDbXrecord
280
     1
102
SHADEPLOT
 70
     0
  0
LAYOUT
  5
C01F
102
{ACAD_XDICTIONARY
360
C0EF
102
}
102
{ACAD_REACTORS
330
1A
102
}
330
1A
100
AcDbPlotSettings
  1

  2
SII LP-2150 (D-SCAN C2)
  4

  6

 40
0.0
 41
0.0
 42
0.0
 43
0.0
 44
0.0
 45
0.0
 46
0.0
 47
0.0
 48
0.0
 49
0.0
140
0.0
141
0.0
142
1.0
143
1.0
 70
  1712
 72
     0
 73
     0
 74
     0
  7
sei_cad.ctb
 75
     0
147
1.0
148
0.0
149
0.0
100
AcDbLayout
  1
Model
 70
     1
 71
     0
 10
0.0
 20
0.0
 11
12.0
 21
9.0
 12
0.0
 22
0.0
 32
0.0
 14
0.0
 24
0.0
 34
0.0
 15
0.0
 25
0.0
 35
0.0
146
0.0
 13
0.0
 23
0.0
 33
0.0
 16
1.0
 26
0.0
 36
0.0
 17
0.0
 27
1.0
 37
0.0
 76
     0
330
1F
  0
LAYOUT
  5
C020
102
{ACAD_XDICTIONARY
360
C0F1
102
}
102
{ACAD_REACTORS
330
1A
102
}
330
1A
100
AcDbPlotSettings
  1

  2
SII LP-2150 (D-SCAN C2)
  4

  6

 40
0.0
 41
0.0
 42
0.0
 43
0.0
 44
0.0
 45
0.0
 46
0.0
 47
0.0
 48
0.0
 49
0.0
140
0.0
141
0.0
142
1.0
143
1.0
 70
   688
 72
     0
 73
     0
 74
     5
  7
sei_cad.ctb
 75
    16
147
1.0
148
0.0
149
0.0
100
AcDbLayout
  1
レイアウト1
 70
     0
 71
     1
 10
0.0
 20
0.0
 11
841.0
 21
594.0
 12
0.0
 22
0.0
 32
0.0
 14
1.000000000000000E+20
 24
1.000000000000000E+20
 34
1.000000000000000E+20
 15
-1.000000000000000E+20
 25
-1.000000000000000E+20
 35
-1.000000000000000E+20
146
0.0
 13
0.0
 23
0.0
 33
0.0
 16
1.0
 26
0.0
 36
0.0
 17
0.0
 27
1.0
 37
0.0
 76
     0
330
101
331
110
  0
MLINESTYLE
  5
18
102
{ACAD_REACTORS
330
17
102
}
330
17
100
AcDbMlineStyle
  2
STANDARD
 70
     0
  3

 62
   256
 51
90.0
 52
90.0
 71
     2
 49
0.5
 62
   256
  6
BYLAYER
 49
-0.5
 62
   256
  6
BYLAYER
  0
PLOTSETTINGS
  5
399D
102
{ACAD_XDICTIONARY
360
C0ED
102
}
102
{ACAD_REACTORS
330
19
102
}
330
19
100
AcDbPlotSettings
  1
asami
  2
RICOH imagio MF1540
  4
A4
  6

 40
5.831416606903076
 41
7.651742935180664
 42
4.90008544921875
 43
5.789077758789062
 44
296.9683227539062
 45
209.9733276367186
 46
0.0
 47
0.0
 48
-156.6707931774246
 49
-74.57609991074048
140
58.59973180214831
141
60.61068161925597
142
1.0
143
1.095343097833084
 70
  1712
 72
     1
 73
     1
 74
     4
  7
asami.ctb
 75
     0
147
0.9129559514076438
148
156.6707931774246
149
74.57609991074048
  0
ACDBPLACEHOLDER
  5
F
102
{ACAD_REACTORS
330
E
102
}
330
E
  0
TABLESTYLE
  5
C01E
102
{ACAD_REACTORS
330
C01D
102
}
330
C01D
100
AcDbTableStyle
  3
Standard
 70
     0
 71
     0
 40
1.5
 41
1.5
280
     0
281
     0
  7
STANDARD
140
4.5
170
     2
 62
     0
 63
     7
283
     0
274
    -2
284
     1
 64
     0
275
    -2
285
     1
 65
     0
276
    -2
286
     1
 66
     0
277
    -2
287
     1
 67
     0
278
    -2
288
     1
 68
     0
279
    -2
289
     1
 69
     0
  7
STANDARD
140
6.0
170
     5
 62
     0
 63
     7
283
     0
274
    -2
284
     1
 64
     0
275
    -2
285
     1
 65
     0
276
    -2
286
     1
 66
     0
277
    -2
287
     1
 67
     0
278
    -2
288
     1
 68
     0
279
    -2
289
     1
 69
     0
  7
STANDARD
140
4.5
170
     5
 62
     0
 63
     7
283
     0
274
    -2
284
     1
 64
     0
275
    -2
285
     1
 65
     0
276
    -2
286
     1
 66
     0
277
    -2
287
     1
 67
     0
278
    -2
288
     1
 68
     0
279
    -2
289
     1
 69
     0
  0
DICTIONARYVAR
  5
C0E5
102
{ACAD_REACTORS
330
34
102
}
330
34
100
DictionaryVariables
280
     0
  1
STANDARD
  0
DICTIONARYVAR
  5
C0E6
102
{ACAD_REACTORS
330
34
102
}
330
34
100
DictionaryVariables
280
     0
  1
1
  0
DICTIONARYVAR
  5
35
102
{ACAD_REACTORS
330
34
102
}
330
34
100
DictionaryVariables
280
     0
  1
1
  0
DICTIONARYVAR
  5
C0E7
102
{ACAD_REACTORS
330
34
102
}
330
34
100
DictionaryVariables
280
     0
  1

  0
DICTIONARYVAR
  5
B5E
102
{ACAD_REACTORS
330
34
102
}
330
34
100
DictionaryVariables
280
     0
  1
96
  0
DICTIONARY
  5
260
102
{ACAD_REACTORS
330
43
102
}
330
43
100
AcDbDictionary
281
     1
  0
LAYER_INDEX
  5
BFAC
102
{ACAD_REACTORS
330
BFAB
102
}
330
BFAB
100
AcDbIndex
 40
2453691.653797014
100
AcDbLayerIndex
  8
0
360
BFAD
 90
        0
  8
AM_0
360
BFAE
 90
      337
  8
AM_5
360
BFAF
 90
        6
  8
AM_7
360
BFB0
 90
        1
  8
AM_6
360
BFB1
 90
        1
  8
DEFPOINTS
360
BFB2
 90
        0
  8
AM_11
360
BFB3
 90
        4
  0
DICTIONARY
  5
C0EF
330
C01F
100
AcDbDictionary
280
     1
281
     1
  3
ACAD_XREC_ROUNDTRIP
360
C0F0
  0
DICTIONARY
  5
C0F1
330
C020
100
AcDbDictionary
280
     1
281
     1
  3
ACAD_XREC_ROUNDTRIP
360
C0F2
  0
DICTIONARY
  5
C0ED
330
399D
100
AcDbDictionary
280
     1
281
     1
  3
ACAD_XREC_ROUNDTRIP
360
C0EE
  0
IDBUFFER
  5
BFAD
330
0
100
AcDbIdBuffer
  0
IDBUFFER
  5
BFAE
330
0
100
AcDbIdBuffer
330
B468
330
B469
330
B46A
330
B46B
330
B46C
330
B46D
330
B46E
330
B46F
330
B470
330
B471
330
B472
330
B479
330
B47A
330
B47F
330
B480
330
B481
330
B482
330
B483
330
B484
330
B485
330
B486
330
B487
330
B488
330
B489
330
B48A
330
B48B
330
B48C
330
B492
330
B493
330
B4A0
330
B4A1
330
B4A2
330
B4A3
330
B4A4
330
B4A5
330
B4A6
330
B4A7
330
B4A8
330
B4A9
330
B4AA
330
B4AB
330
B4AC
330
B4AD
330
B4B1
330
B4B2
330
B4B3
330
B4B4
330
B4B5
330
B4B6
330
B4B7
330
B4B8
330
B4B9
330
B4BA
330
B4BB
330
B4BC
330
B4BD
330
B4BE
330
B4BF
330
B4C0
330
B4C1
330
B4C2
330
B4C3
330
B4C4
330
B4C5
330
B4C6
330
B4C7
330
B4C8
330
B4C9
330
B4CA
330
B4CB
330
B4DA
330
B4DB
330
B4DC
330
B4DD
330
B4DE
330
B4DF
330
B4E0
330
B4E1
330
B4E2
330
B4E3
330
B4E4
330
B4E5
330
B4E6
330
B4E7
330
B4E8
330
B4E9
330
B4EA
330
B4EB
330
B4EC
330
B4ED
330
B4EE
330
B4EF
330
B4F0
330
B4F1
330
B4F2
330
B4F3
330
B4F4
330
B4F5
330
B4F6
330
B4F7
330
B4F8
330
B4F9
330
B4FA
330
B513
330
B514
330
B515
330
B516
330
B517
330
B518
330
B525
330
B526
330
B527
330
B528
330
B529
330
B52A
330
B52B
330
B52C
330
B52D
330
B52E
330
B52F
330
B530
330
B531
330
B532
330
B533
330
B534
330
B535
330
B536
330
B537
330
B538
330
B539
330
B53A
330
B53B
330
B53C
330
B53D
330
B53E
330
B53F
330
B540
330
B541
330
B542
330
B543
330
B5D5
330
B5D6
330
B5D7
330
B5D8
330
B5D9
330
B5DA
330
B5DB
330
B5DC
330
B5DD
330
B5DE
330
B5DF
330
B5E0
330
B5E1
330
B5E2
330
B5E3
330
B5E4
330
B5E5
330
B5E6
330
B5E7
330
B5E8
330
B5E9
330
B5EA
330
B5EB
330
B5EC
330
B5ED
330
B5EE
330
B5EF
330
B5F0
330
B5F1
330
B5F2
330
B5F3
330
B5F4
330
B5F5
330
B5F6
330
B5F7
330
B5F8
330
B5F9
330
B5FA
330
B5FB
330
B5FC
330
B5FD
330
B5FE
330
B5FF
330
B600
330
B601
330
B602
330
B603
330
B604
330
B605
330
B606
330
B607
330
B608
330
B609
330
B60A
330
B60B
330
B60C
330
B60D
330
B60E
330
B60F
330
B610
330
B611
330
B612
330
B613
330
B614
330
B615
330
B616
330
B617
330
B618
330
B619
330
B61A
330
B61B
330
B61C
330
B61D
330
B61E
330
B61F
330
B620
330
B621
330
B622
330
B623
330
B624
330
B625
330
B626
330
B627
330
B628
330
B629
330
B62A
330
B62B
330
B62C
330
B62D
330
B62E
330
B62F
330
B630
330
B631
330
B632
330
B633
330
B634
330
B635
330
B636
330
B637
330
B638
330
B639
330
B63A
330
B63B
330
B63C
330
B63D
330
B63E
330
B63F
330
B640
330
B641
330
B642
330
B643
330
B644
330
B645
330
B646
330
B647
330
B648
330
B649
330
B64A
330
B64B
330
B64C
330
B64D
330
B64E
330
B64F
330
B650
330
B651
330
B652
330
B653
330
B654
330
B655
330
B656
330
B657
330
B658
330
B659
330
B65A
330
B65B
330
B65C
330
B65D
330
B65E
330
B65F
330
B660
330
B661
330
B662
330
B663
330
B664
330
B665
330
B666
330
B667
330
B668
330
B669
330
B66A
330
B66B
330
B66C
330
B66D
330
B672
330
B673
330
B674
330
B675
330
B676
330
B677
330
B678
330
B679
330
B67A
330
B67B
330
B67C
330
B67D
330
B67E
330
B67F
330
B680
330
B681
330
B682
330
B683
330
B684
330
B685
330
B686
330
B687
330
B688
330
B689
330
B68A
330
B68B
330
B68C
330
B68D
330
B68E
330
B68F
330
B690
330
B691
330
B692
330
B693
330
B694
330
B697
330
B698
330
B699
330
B69A
330
B69B
330
B69C
330
B69D
330
B69E
330
BF75
  0
IDBUFFER
  5
BFAF
330
0
100
AcDbIdBuffer
330
B75A
330
B7EF
330
B896
330
B92E
330
B9D9
330
BA6E
  0
IDBUFFER
  5
BFB0
330
0
100
AcDbIdBuffer
330
B473
  0
IDBUFFER
  5
BFB1
330
0
100
AcDbIdBuffer
330
388D
  0
IDBUFFER
  5
BFB2
330
0
100
AcDbIdBuffer
  0
IDBUFFER
  5
BFB3
330
0
100
AcDbIdBuffer
330
B748
330
B749
330
B74A
330
B752
  0
XRECORD
  5
C0F0
102
{ACAD_REACTORS
330
C0EF
102
}
330
C0EF
100
AcDbXrecord
280
     1
102
SHADEPLOT
 70
     0
102
SHADEPLOTRESLEVEL
 70
     2
102
SHADEPLOTCUSTOMDPI
 70
   300
  0
XRECORD
  5
C0F2
102
{ACAD_REACTORS
330
C0F1
102
}
330
C0F1
100
AcDbXrecord
280
     1
102
SHADEPLOT
 70
     0
102
SHADEPLOTRESLEVEL
 70
     2
102
SHADEPLOTCUSTOMDPI
 70
   300
  0
XRECORD
  5
C0EE
102
{ACAD_REACTORS
330
C0ED
102
}
330
C0ED
100
AcDbXrecord
280
     1
102
SHADEPLOT
 70
     0
102
SHADEPLOTRESLEVEL
 70
     2
102
SHADEPLOTCUSTOMDPI
 70
   300
  0
ENDSEC
  0
EOF
