  0
SECTION
  2
HEADER
  9
$ACADVER
  1
AC1015
  9
$ACADMAINTVER
 70
    20
  9
$DWGCODEPAGE
  3
ANSI_932
  9
$INSBASE
 10
0.0
 20
0.0
 30
0.0
  9
$EXTMIN
 10
-252.8486972931945
 20
-63.00000100000017
 30
0.0
  9
$EXTMAX
 10
17.89515023095676
 20
34.70000100000015
 30
0.0
  9
$LIMMIN
 10
-261.1454974377674
 20
-94.14347398947086
  9
$LIMMAX
 10
79.48047934886472
 20
56.09765011631907
  9
$ORTHOMODE
 70
     0
  9
$REGENMODE
 70
     1
  9
$FILLMODE
 70
     1
  9
$QTEXTMODE
 70
     0
  9
$MIRRTEXT
 70
     0
  9
$LTSCALE
 40
1.0
  9
$ATTMODE
 70
     1
  9
$TEXTSIZE
 40
2.5
  9
$TRACEWID
 40
1.0
  9
$TEXTSTYLE
  7
STANDARD
  9
$CLAYER
  8
AM_0
  9
$CELTYPE
  6
BYLAYER
  9
$CECOLOR
 62
   256
  9
$CELTSCALE
 40
1.0
  9
$DISPSILH
 70
     0
  9
$DIMSCALE
 40
0.5
  9
$DIMASZ
 40
2.5
  9
$DIMEXO
 40
1.0
  9
$DIMDLI
 40
12.0
  9
$DIMRND
 40
0.0
  9
$DIMDLE
 40
0.0
  9
$DIMEXE
 40
1.0
  9
$DIMTP
 40
0.1
  9
$DIMTM
 40
0.1
  9
$DIMTXT
 40
3.2
  9
$DIMCEN
 40
0.0
  9
$DIMTSZ
 40
0.0
  9
$DIMTOL
 70
     0
  9
$DIMLIM
 70
     0
  9
$DIMTIH
 70
     0
  9
$DIMTOH
 70
     0
  9
$DIMSE1
 70
     0
  9
$DIMSE2
 70
     0
  9
$DIMTAD
 70
     3
  9
$DIMZIN
 70
     8
  9
$DIMBLK
  1
Open30
  9
$DIMASO
 70
     1
  9
$DIMSHO
 70
     1
  9
$DIMPOST
  1

  9
$DIMAPOST
  1
"
  9
$DIMALT
 70
     0
  9
$DIMALTD
 70
     2
  9
$DIMALTF
 40
0.0393701
  9
$DIMLFAC
 40
1.0
  9
$DIMTOFL
 70
     1
  9
$DIMTVP
 40
0.0
  9
$DIMTIX
 70
     0
  9
$DIMSOXD
 70
     0
  9
$DIMSAH
 70
     0
  9
$DIMBLK1
  1

  9
$DIMBLK2
  1

  9
$DIMSTYLE
  2
AM_JIS
  9
$DIMCLRD
 70
   256
  9
$DIMCLRE
 70
   256
  9
$DIMCLRT
 70
     2
  9
$DIMTFAC
 40
0.71
  9
$DIMGAP
 40
1.5
  9
$DIMJUST
 70
     0
  9
$DIMSD1
 70
     0
  9
$DIMSD2
 70
     0
  9
$DIMTOLJ
 70
     0
  9
$DIMTZIN
 70
     0
  9
$DIMALTZ
 70
     0
  9
$DIMALTTZ
 70
     0
  9
$DIMUPT
 70
     0
  9
$DIMDEC
 70
     3
  9
$DIMTDEC
 70
     3
  9
$DIMALTU
 70
     2
  9
$DIMALTTD
 70
     2
  9
$DIMTXSTY
  7
ASAMI
  9
$DIMAUNIT
 70
     0
  9
$DIMADEC
 70
     0
  9
$DIMALTRND
 40
0.0
  9
$DIMAZIN
 70
     2
  9
$DIMDSEP
 70
    46
  9
$DIMATFIT
 70
     3
  9
$DIMFRAC
 70
     0
  9
$DIMLDRBLK
  1
Open30
  9
$DIMLUNIT
 70
     2
  9
$DIMLWD
 70
    -1
  9
$DIMLWE
 70
    -1
  9
$DIMTMOVE
 70
     0
  9
$LUNITS
 70
     2
  9
$LUPREC
 70
     2
  9
$SKETCHINC
 40
1.0
  9
$FILLETRAD
 40
0.4
  9
$AUNITS
 70
     0
  9
$AUPREC
 70
     0
  9
$MENU
  1
.
  9
$ELEVATION
 40
0.0
  9
$PELEVATION
 40
0.0
  9
$THICKNESS
 40
0.0
  9
$LIMCHECK
 70
     1
  9
$CHAMFERA
 40
1.0
  9
$CHAMFERB
 40
1.0
  9
$CHAMFERC
 40
20.0
  9
$CHAMFERD
 40
0.0
  9
$SKPOLY
 70
     0
  9
$TDCREATE
 40
2452802.716478762
  9
$TDUCREATE
 40
2452802.341478762
  9
$TDUPDATE
 40
2453691.655358252
  9
$TDUUPDATE
 40
2453691.280358252
  9
$TDINDWG
 40
0.9593543287
  9
$TDUSRTIMER
 40
0.9593539583
  9
$USRTIMER
 70
     1
  9
$ANGBASE
 50
0.0
  9
$ANGDIR
 70
     0
  9
$PDMODE
 70
     0
  9
$PDSIZE
 40
0.0
  9
$PLINEWID
 40
0.0
  9
$SPLFRAME
 70
     0
  9
$SPLINETYPE
 70
     6
  9
$SPLINESEGS
 70
     8
  9
$HANDSEED
  5
CABB
  9
$SURFTAB1
 70
     6
  9
$SURFTAB2
 70
     6
  9
$SURFTYPE
 70
     6
  9
$SURFU
 70
     6
  9
$SURFV
 70
     6
  9
$UCSBASE
  2

  9
$UCSNAME
  2

  9
$UCSORG
 10
-0.0000000000002682
 20
0.000000000000161
 30
0.0
  9
$UCSXDIR
 10
1.0
 20
0.000000000000002
 30
0.0
  9
$UCSYDIR
 10
-0.000000000000002
 20
1.0
 30
0.0
  9
$UCSORTHOREF
  2

  9
$UCSORTHOVIEW
 70
     0
  9
$UCSORGTOP
 10
0.0
 20
0.0
 30
0.0
  9
$UCSORGBOTTOM
 10
0.0
 20
0.0
 30
0.0
  9
$UCSORGLEFT
 10
0.0
 20
0.0
 30
0.0
  9
$UCSORGRIGHT
 10
0.0
 20
0.0
 30
0.0
  9
$UCSORGFRONT
 10
0.0
 20
0.0
 30
0.0
  9
$UCSORGBACK
 10
0.0
 20
0.0
 30
0.0
  9
$PUCSBASE
  2

  9
$PUCSNAME
  2

  9
$PUCSORG
 10
0.0
 20
0.0
 30
0.0
  9
$PUCSXDIR
 10
1.0
 20
0.0
 30
0.0
  9
$PUCSYDIR
 10
0.0
 20
1.0
 30
0.0
  9
$PUCSORTHOREF
  2

  9
$PUCSORTHOVIEW
 70
     0
  9
$PUCSORGTOP
 10
0.0
 20
0.0
 30
0.0
  9
$PUCSORGBOTTOM
 10
0.0
 20
0.0
 30
0.0
  9
$PUCSORGLEFT
 10
0.0
 20
0.0
 30
0.0
  9
$PUCSORGRIGHT
 10
0.0
 20
0.0
 30
0.0
  9
$PUCSORGFRONT
 10
0.0
 20
0.0
 30
0.0
  9
$PUCSORGBACK
 10
0.0
 20
0.0
 30
0.0
  9
$USERI1
 70
     0
  9
$USERI2
 70
     0
  9
$USERI3
 70
     0
  9
$USERI4
 70
     0
  9
$USERI5
 70
     0
  9
$USERR1
 40
0.0
  9
$USERR2
 40
0.0
  9
$USERR3
 40
0.0
  9
$USERR4
 40
0.0
  9
$USERR5
 40
0.0
  9
$WORLDVIEW
 70
     1
  9
$SHADEDGE
 70
     3
  9
$SHADEDIF
 70
    70
  9
$TILEMODE
 70
     1
  9
$MAXACTVP
 70
    64
  9
$PINSBASE
 10
0.0
 20
0.0
 30
0.0
  9
$PLIMCHECK
 70
     0
  9
$PEXTMIN
 10
1.000000000000000E+20
 20
1.000000000000000E+20
 30
1.000000000000000E+20
  9
$PEXTMAX
 10
-1.000000000000000E+20
 20
-1.000000000000000E+20
 30
-1.000000000000000E+20
  9
$PLIMMIN
 10
0.0
 20
0.0
  9
$PLIMMAX
 10
841.0
 20
594.0
  9
$UNITMODE
 70
     0
  9
$VISRETAIN
 70
     1
  9
$PLINEGEN
 70
     0
  9
$PSLTSCALE
 70
     0
  9
$TREEDEPTH
 70
  3020
  9
$CMLSTYLE
  2
STANDARD
  9
$CMLJUST
 70
     0
  9
$CMLSCALE
 40
20.0
  9
$PROXYGRAPHICS
 70
     1
  9
$MEASUREMENT
 70
     1
  9
$CELWEIGHT
370
    -1
  9
$ENDCAPS
280
     0
  9
$JOINSTYLE
280
     0
  9
$LWDISPLAY
290
     0
  9
$INSUNITS
 70
     4
  9
$HYPERLINKBASE
  1

  9
$STYLESHEET
  1
ASAMI.ctb
  9
$XEDIT
290
     1
  9
$CEPSNTYPE
380
     0
  9
$PSTYLEMODE
290
     1
  9
$FINGERPRINTGUID
  2
{AFB28963-8C59-40AE-9337-C84526B81ACE}
  9
$VERSIONGUID
  2
{D3B14F57-DFA2-4A42-BC21-EE0AB0B32A5F}
  9
$EXTNAMES
290
     1
  9
$PSVPSCALE
 40
0.0
  9
$OLESTARTUP
290
     0
  0
ENDSEC
  0
SECTION
  2
CLASSES
  0
CLASS
  1
ACDBDICTIONARYWDFLT
  2
AcDbDictionaryWithDefault
  3
ObjectDBX Classes
 90
        0
280
     0
281
     0
  0
CLASS
  1
ACDBPLACEHOLDER
  2
AcDbPlaceHolder
  3
ObjectDBX Classes
 90
        0
280
     0
281
     0
  0
CLASS
  1
LAYOUT
  2
AcDbLayout
  3
ObjectDBX Classes
 90
        0
280
     0
281
     0
  0
CLASS
  1
AMGSETTINGSOBJ
  2
AmgSettingsObj
  3
"AcadM|Product Description: AutoCAD Mechanical 2000|Company: Autodesk"
 90
        0
280
     0
281
     0
  0
CLASS
  1
ACME_DOCUMENT
  2
AcMeDbDoc
  3
AcMeServices
 90
        0
280
     0
281
     0
  0
CLASS
  1
ACMESCOPE
  2
AcMeScope
  3
AcMeServices
 90
        0
280
     0
281
     0
  0
CLASS
  1
ACMECOMMANDHISTORY
  2
AcMeCommandHistory
  3
AcMeServices
 90
        0
280
     0
281
     0
  0
CLASS
  1
DICTIONARYVAR
  2
AcDbDictionaryVar
  3
ObjectDBX Classes
 90
        0
280
     0
281
     0
  0
CLASS
  1
ACIMSYSVARMAN
  2
AcImSysVarManager
  3
AcMeServices
 90
        0
280
     0
281
     0
  0
CLASS
  1
ACIMREALSYSVAR
  2
AcImRealSysVar
  3
AcMeServices
 90
        0
280
     0
281
     0
  0
CLASS
  1
ACIMINTSYSVAR
  2
AcImIntSysVar
  3
AcMeServices
 90
        0
280
     0
281
     0
  0
CLASS
  1
ACMEDRAWINGMAN
  2
AcMeDrawingMan
  3
AcMeServices
 90
        0
280
     0
281
     0
  0
CLASS
  1
ACMEVIEW
  2
AcMeView
  3
AcMeServices
 90
        0
280
     0
281
     0
  0
CLASS
  1
ACDBENTITYCACHE
  2
AcMeEntityCache
  3
AcMeServices
 90
        0
280
     0
281
     0
  0
CLASS
  1
GSMANAGER
  2
AcMeGSManager
  3
AcMeServices
 90
        0
280
     0
281
     0
  0
CLASS
  1
AMDTINTERNALREACTOR
  2
AmdtInternalReactor
  3
AcMeServices
 90
        0
280
     0
281
     0
  0
CLASS
  1
ACMESTATEMGR
  2
AcMeStateMgr
  3
AcMeServices
 90
        0
280
     0
281
     0
  0
CLASS
  1
ACME_DATABASE
  2
AcMeDbDatabase
  3
AcMeServices
 90
        0
280
     0
281
     0
  0
CLASS
  1
ACRFINSADJUSTERMGR
  2
AcRfInsAdjusterMgr
  3
AcMeServices
 90
        0
280
     0
281
     0
  0
CLASS
  1
ACMDATADICTIONARY
  2
AcmDataDictionary
  3
"AcmSymBB|Product Description: AutoCAD Mechanical 2004 DX|Company: Autodesk"
 90
        0
280
     0
281
     0
  0
CLASS
  1
ACMDATAENTRYBLOCK
  2
AcmDataEntryBlock
  3
"AcmSymBB|Product Description: AutoCAD Mechanical 2004 DX|Company: Autodesk"
 90
    32768
280
     0
281
     0
  0
CLASS
  1
AMGOBJPROPCFG
  2
AmgObjPropCfg
  3
"AmgLay|Product Description: AutoCAD Mechanical 2000|Company: Autodesk"
 90
        1
280
     0
281
     0
  0
CLASS
  1
ACAMGFILTERDAT
  2
AcAmgFilterDat
  3
"AcadM|Product Description: AutoCAD Mechanical 2000|Company: Autodesk"
 90
    32768
280
     0
281
     0
  0
CLASS
  1
LAYER_INDEX
  2
AcDbLayerIndex
  3
ObjectDBX Classes
 90
        0
280
     0
281
     0
  0
CLASS
  1
IDBUFFER
  2
AcDbIdBuffer
  3
ObjectDBX Classes
 90
        0
280
     0
281
     0
  0
CLASS
  1
ACIMSTRSYSVAR
  2
AcImStrSysVar
  3
AcMeServices
 90
        0
280
     0
281
     0
  0
CLASS
  1
ACMSTANDARDJIS
  2
AcmStandardJIS
  3
"Amdt_StdImp|Product Description: AutoCAD Mechanical 2004 DX|Company: Autodesk"
 90
        0
280
     0
281
     0
  0
CLASS
  1
ACMSURFSTANDARDJIS
  2
AcmSurfTextStdJIS
  3
"Amdt_StdImp|Product Description: AutoCAD Mechanical 2004 DX|Company: Autodesk"
 90
        0
280
     0
281
     0
  0
CLASS
  1
ACMFCFSTANDARDJIS
  2
AcmFCFStdJIS
  3
"Amdt_StdImp|Product Description: AutoCAD Mechanical 2004 DX|Company: Autodesk"
 90
    32768
280
     0
281
     0
  0
CLASS
  1
ACMWELDSTANDARDJIS
  2
AcmWeldingStdJIS
  3
"Amdt_StdImp|Product Description: AutoCAD Mechanical 2004 DX|Company: Autodesk"
 90
        0
280
     0
281
     0
  0
CLASS
  1
ACMIDSTANDARDJIS
  2
AcmIdStdJIS
  3
"Amdt_StdImp|Product Description: AutoCAD Mechanical 2004 DX|Company: Autodesk"
 90
        0
280
     0
281
     0
  0
CLASS
  1
ACMDATUMSTANDARDJIS
  2
AcmDatumStdJIS
  3
"Amdt_StdImp|Product Description: AutoCAD Mechanical 2004 DX|Company: Autodesk"
 90
        0
280
     0
281
     0
  0
CLASS
  1
ACMBOMSTANDARDJIS
  2
AcmBOMStdJIS
  3
"Amdt_StdImp|Product Description: AutoCAD Mechanical 2004 DX|Company: Autodesk"
 90
        0
280
     0
281
     0
  0
CLASS
  1
ACMSTANDARDANSI
  2
AcmStandardANSI
  3
"Amdt_StdImp|Product Description: AutoCAD Mechanical 2004 DX|Company: Autodesk"
 90
    32768
280
     0
281
     0
  0
CLASS
  1
ACMSURFSTANDARDANSI
  2
AcmSurfTextStdANSI
  3
"Amdt_StdImp|Product Description: AutoCAD Mechanical 2004 DX|Company: Autodesk"
 90
    32768
280
     0
281
     0
  0
CLASS
  1
ACMFCFSTANDARDANSI
  2
AcmFCFStdANSI
  3
"Amdt_StdImp|Product Description: AutoCAD Mechanical 2004 DX|Company: Autodesk"
 90
    32768
280
     0
281
     0
  0
CLASS
  1
ACMWELDSTANDARDANSI
  2
AcmWeldingStdANSI
  3
"Amdt_StdImp|Product Description: AutoCAD Mechanical 2004 DX|Company: Autodesk"
 90
    32768
280
     0
281
     0
  0
CLASS
  1
ACMIDSTANDARDANSI
  2
AcmIdStdANSI
  3
"Amdt_StdImp|Product Description: AutoCAD Mechanical 2004 DX|Company: Autodesk"
 90
    32768
280
     0
281
     0
  0
CLASS
  1
ACMDATUMSTANDARDANSI
  2
AcmDatumStdANSI
  3
"Amdt_StdImp|Product Description: AutoCAD Mechanical 2004 DX|Company: Autodesk"
 90
    32768
280
     0
281
     0
  0
CLASS
  1
ACMBOMSTANDARDANSI
  2
AcmBOMStdANSI
  3
"Amdt_StdImp|Product Description: AutoCAD Mechanical 2004 DX|Company: Autodesk"
 90
    32768
280
     0
281
     0
  0
CLASS
  1
ACMSTANDARDBSI
  2
AcmStandardBSI
  3
"Amdt_StdImp|Product Description: AutoCAD Mechanical 2004 DX|Company: Autodesk"
 90
    32768
280
     0
281
     0
  0
CLASS
  1
ACMSURFSTANDARDBSI
  2
AcmSurfTextStdBSI
  3
"Amdt_StdImp|Product Description: AutoCAD Mechanical 2004 DX|Company: Autodesk"
 90
    32768
280
     0
281
     0
  0
CLASS
  1
ACMFCFSTANDARDBSI
  2
AcmFCFStdBSI
  3
"Amdt_StdImp|Product Description: AutoCAD Mechanical 2004 DX|Company: Autodesk"
 90
    32768
280
     0
281
     0
  0
CLASS
  1
ACMWELDSTANDARDBSI
  2
AcmWeldingStdBSI
  3
"Amdt_StdImp|Product Description: AutoCAD Mechanical 2004 DX|Company: Autodesk"
 90
    32768
280
     0
281
     0
  0
CLASS
  1
ACMIDSTANDARDBSI
  2
AcmIdStdBSI
  3
"Amdt_StdImp|Product Description: AutoCAD Mechanical 2004 DX|Company: Autodesk"
 90
    32768
280
     0
281
     0
  0
CLASS
  1
ACMDATUMSTANDARDBSI
  2
AcmDatumStdBSI
  3
"Amdt_StdImp|Product Description: AutoCAD Mechanical 2004 DX|Company: Autodesk"
 90
    32768
280
     0
281
     0
  0
CLASS
  1
ACMBOMSTANDARDBSI
  2
AcmBOMStdBSI
  3
"Amdt_StdImp|Product Description: AutoCAD Mechanical 2004 DX|Company: Autodesk"
 90
    32768
280
     0
281
     0
  0
CLASS
  1
STDPART2D
  2
AmgStdPart
  3
"AmgStdPart|Product Description: AutoCAD Mechanical 2000|Company: Autodesk"
 90
    33791
280
     0
281
     1
  0
CLASS
  1
PLOTSETTINGS
  2
AcDbPlotSettings
  3
ObjectDBX Classes
 90
        0
280
     0
281
     0
  0
CLASS
  1
TABLESTYLE
  2
AcDbTableStyle
  3
ObjectDBX Classes
 90
     2047
280
     0
281
     0
  0
CLASS
  1
ACGREFMASTER
  2
AcGrefMaster
  3
AcAttribServices
 90
        0
280
     0
281
     0
  0
CLASS
  1
AM_DRAWING_MGR
  2
AcDmDwgMgr
  3
AcMechDwgViewMgmt
 90
        0
280
     0
281
     0
  0
CLASS
  1
AM_DWG_DOCUMENT
  2
AcDmDwgDocument
  3
AcMechDwgViewMgmt
 90
        0
280
     0
281
     0
  0
CLASS
  1
AM_DWG_SHEET
  2
AcDmSheet
  3
AcMechDwgViewMgmt
 90
        0
280
     0
281
     0
  0
CLASS
  1
AM_VIEWDIMPARMAP
  2
AcDmViewDimParMap
  3
AcMechDwgViewMgmt
 90
        0
280
     0
281
     0
  0
CLASS
  1
AM_DWGMGR_NAME
  2
AcDmDwgMgrName
  3
AcMechDwgViewMgmt
 90
        0
280
     0
281
     0
  0
CLASS
  1
ACGREFACADMASTER
  2
AcGrefacadMaster
  3
AcGrefServices
 90
        0
280
     0
281
     0
  0
CLASS
  1
AMDTMENUSTATEMGR
  2
AmdtMenuStateMgr
  3
McadcomServices
 90
        0
280
     0
281
     0
  0
CLASS
  1
AMDTMCOMMENUSTATE
  2
AmdtMcomMenuState
  3
McadcomServices
 90
        0
280
     0
281
     0
  0
CLASS
  1
AMIMASTER
  2
AmiMaster
  3
AmiServices
 90
        0
280
     0
281
     0
  0
CLASS
  1
MAPIAMMOUDLE
  2
MApiAmModule
  3
MApiAmServices
 90
        0
280
     0
281
     0
  0
CLASS
  1
AMDTADMENUSTATE
  2
AmdtAdMenuState
  3
DesignerServices
 90
        0
280
     0
281
     0
  0
CLASS
  1
ADAPPL
  2
AcAdAppl
  3
DesignerServices
 90
        0
280
     0
281
     0
  0
CLASS
  1
DEPMGR
  2
AcAdDepMgr
  3
DesignerServices
 90
        0
280
     0
281
     0
  0
CLASS
  1
PARAMMGR
  2
AcAdParamMgr
  3
DesignerServices
 90
        0
280
     0
281
     0
  0
CLASS
  1
PARAMSCOPE
  2
AcAdParamScope
  3
DesignerServices
 90
        0
280
     0
281
     0
  0
CLASS
  1
NAMEDAPPL
  2
AcAdNamedAppl
  3
DesignerServices
 90
        0
280
     0
281
     0
  0
CLASS
  1
AMDTDMMENUSTATE
  2
AmdtDmMenuState
  3
AcMechDwgViewMgmt
 90
        0
280
     0
281
     0
  0
CLASS
  1
AMDTAMMENUSTATE
  2
AmdtAmMenuState
  3
DesignerAssemblies
 90
        0
280
     0
281
     0
  0
CLASS
  1
ACAMPROJECT
  2
AcAmProject
  3
DesignerAssemblies
 90
        0
280
     0
281
     0
  0
CLASS
  1
ACAMGRCOMPDEF
  2
AcAmGrCompDef
  3
DesignerAssemblies
 90
        0
280
     0
281
     0
  0
CLASS
  1
ACCMCONTEXT
  2
AcCmContext
  3
DesignerAssemblies
 90
        0
280
     0
281
     0
  0
CLASS
  1
ACAMCOMPDEF
  2
AcAmCompDef
  3
DesignerAssemblies
 90
        0
280
     0
281
     0
  0
CLASS
  1
ACAMCOMPDEFMGR
  2
AcAmCompDefMgr
  3
DesignerAssemblies
 90
        0
280
     0
281
     0
  0
CLASS
  1
AMCONTEXTMGR
  2
AcAmContextMgr
  3
DesignerAssemblies
 90
        0
280
     0
281
     0
  0
CLASS
  1
ACAMCONTEXTMODELER
  2
AcAmContextModeler
  3
DesignerAssemblies
 90
        0
280
     0
281
     0
  0
CLASS
  1
CATALOGSTATE
  2
AcAmCatalogState
  3
DesignerAssemblies
 90
        0
280
     0
281
     0
  0
CLASS
  1
ACAMGRCOMPDEFSET
  2
AcAmGrCompDefSet
  3
DesignerAssemblies
 90
        0
280
     0
281
     0
  0
CLASS
  1
AMDTBROWSERDBTAB
  2
AmdtBrowserDbTab
  3
McadcomServices
 90
        0
280
     0
281
     0
  0
CLASS
  1
CBROWSERAPPOBJECT
  2
CBrowserAppObject
  3
McadcomServices
 90
        0
280
     0
281
     0
  0
CLASS
  1
DM_PLACEHOLDER
  2
AcDmSelsetPlaceholder
  3
AcMechDwgViewMgmt
 90
        0
280
     0
281
     0
  0
CLASS
  1
ACMSTANDARDISO
  2
AcmStandardISO
  3
"Amdt_StdImp|Product Description: AutoCAD Mechanical 2004 DX|Company: Autodesk"
 90
        0
280
     0
281
     0
  0
CLASS
  1
AMDTEDGESTANDARDISO
  2
AmdtEdgeStdISO
  3
"Amdt_StdImp|Product Description: AutoCAD Mechanical 2004 DX|Company: Autodesk"
 90
        0
280
     0
281
     0
  0
CLASS
  1
ACMSURFSTANDARDISO
  2
AcmSurfTextStdISO
  3
"Amdt_StdImp|Product Description: AutoCAD Mechanical 2004 DX|Company: Autodesk"
 90
        0
280
     0
281
     0
  0
CLASS
  1
ACMFCFSTANDARDISO
  2
AcmFCFStdISO
  3
"Amdt_StdImp|Product Description: AutoCAD Mechanical 2004 DX|Company: Autodesk"
 90
        0
280
     0
281
     0
  0
CLASS
  1
ACMWELDSTANDARDISO
  2
AcmWeldingStdISO
  3
"Amdt_StdImp|Product Description: AutoCAD Mechanical 2004 DX|Company: Autodesk"
 90
        0
280
     0
281
     0
  0
CLASS
  1
ACMIDSTANDARDISO
  2
AcmIdStdISO
  3
"Amdt_StdImp|Product Description: AutoCAD Mechanical 2004 DX|Company: Autodesk"
 90
        0
280
     0
281
     0
  0
CLASS
  1
ACMDATUMSTANDARDISO
  2
AcmDatumStdISO
  3
"Amdt_StdImp|Product Description: AutoCAD Mechanical 2004 DX|Company: Autodesk"
 90
        0
280
     0
281
     0
  0
CLASS
  1
ACMBOMSTANDARDISO
  2
AcmBOMStdISO
  3
"Amdt_StdImp|Product Description: AutoCAD Mechanical 2004 DX|Company: Autodesk"
 90
        0
280
     0
281
     0
  0
CLASS
  1
ACMDETAILSTANDARDISO
  2
AmdtDetailSymStdISO
  3
"Amdt_StdImp|Product Description: AutoCAD Mechanical 2004 DX|Company: Autodesk"
 90
        0
280
     0
281
     0
  0
CLASS
  1
ACMSECTIONSTANDARDISO
  2
AmdtSectionSymStdISO
  3
"Amdt_StdImp|Product Description: AutoCAD Mechanical 2004 DX|Company: Autodesk"
 90
        0
280
     0
281
     0
  0
CLASS
  1
ACMCENTERLINESTANDARDISO
  2
AmdtCenterLineStdISO
  3
"Amdt_StdImp|Product Description: AutoCAD Mechanical 2004 DX|Company: Autodesk"
 90
        0
280
     0
281
     0
  0
CLASS
  1
ACMNOTESTANDARDISO
  2
AmdtNoteStdISO
  3
"Amdt_StdImp|Product Description: AutoCAD Mechanical 2004 DX|Company: Autodesk"
 90
        0
280
     0
281
     0
  0
CLASS
  1
AMDTNOTETEMPLATEDB
  2
AmdtNoteTemplateDB
  3
AMDT_STDIMP_MODULE_NAME
 90
        0
280
     0
281
     0
  0
CLASS
  1
ACAMGLAYSTD
  2
AcAmgLayStd
  3
"AcAmgLayStd|Product Description: AutoCAD Mechanical 2000|Company: Autodesk"
 90
        0
280
     0
281
     0
  0
CLASS
  1
ACAMGDIMSTD
  2
AcAmgDimStd
  3
"AcAmgDimStd|Product Description: AutoCAD Mechanical 2000|Company: Autodesk"
 90
        0
280
     0
281
     0
  0
CLASS
  1
ACAMGHOLECHARTSTDISO
  2
AcAmgHoleChartStdISO
  3
ACMSYMBB_MODULE_NAME
 90
        0
280
     0
281
     0
  0
CLASS
  1
ACAMGTITLESTD
  2
AcAmgTitleStd
  3
"TITLEAPP"
 90
        0
280
     0
281
     0
  0
CLASS
  1
ACMTHREADLINESTANDARDISO
  2
AmdtThreadLineStdISO
  3
"Amdt_StdImp|Product Description: AutoCAD Mechanical 2004 DX|Company: Autodesk"
 90
        0
280
     0
281
     0
  0
CLASS
  1
ACMFCFSTANDARDJIS98
  2
AcmFCFStdJIS98
  3
"Amdt_StdImp|Product Description: AutoCAD Mechanical 2004 DX|Company: Autodesk"
 90
        0
280
     0
281
     0
  0
CLASS
  1
ACMDETAILSTANDARDJIS
  2
AmdtDetailSymStdJIS
  3
"Amdt_StdImp|Product Description: AutoCAD Mechanical 2004 DX|Company: Autodesk"
 90
        0
280
     0
281
     0
  0
CLASS
  1
ACMSECTIONSTANDARDJIS
  2
AmdtSectionSymStdJIS
  3
"Amdt_StdImp|Product Description: AutoCAD Mechanical 2004 DX|Company: Autodesk"
 90
        0
280
     0
281
     0
  0
CLASS
  1
ACMCENTERLINESTANDARDJIS
  2
AmdtCenterLineStdJIS
  3
"Amdt_StdImp|Product Description: AutoCAD Mechanical 2004 DX|Company: Autodesk"
 90
        0
280
     0
281
     0
  0
CLASS
  1
ACMTHREADLINESTANDARDJIS
  2
AmdtThreadLineStdJIS
  3
"Amdt_StdImp|Product Description: AutoCAD Mechanical 2004 DX|Company: Autodesk"
 90
        0
280
     0
281
     0
  0
CLASS
  1
ACMNOTESTANDARDJIS
  2
AmdtNoteStdJIS
  3
"Amdt_StdImp|Product Description: AutoCAD Mechanical 2004 DX|Company: Autodesk"
 90
        0
280
     0
281
     0
  0
CLASS
  1
ACAMGHOLECHARTSTDJIS
  2
AcAmgHoleChartStdJIS
  3
ACMSYMBB_MODULE_NAME
 90
        0
280
     0
281
     0
  0
ENDSEC
  0
SECTION
  2
TABLES
  0
TABLE
  2
VPORT
  5
8
330
0
100
AcDbSymbolTable
 70
     3
  0
VPORT
  5
CAB0
330
8
100
AcDbSymbolTableRecord
100
AcDbViewportTableRecord
  2
*Active
 70
     0
 10
0.0
 20
0.0
 11
1.0
 21
1.0
 12
-91.12050385335482
 22
-14.89561114286033
 13
0.0
 23
0.0
 14
2.5
 24
2.5
 15
10.0
 25
10.0
 16
0.0
 26
0.0
 36
1.0
 17
0.0
 27
0.0
 37
0.0
 40
242.1492989202254
 41
1.732758620689655
 42
50.0
 43
0.0
 44
0.0
 50
0.0
 51
0.0
 71
     0
 72
   100
 73
     1
 74
     3
 75
     0
 76
     0
 77
     0
 78
     0
281
     0
 65
     1
110
-0.0000000000002682
120
0.000000000000161
130
0.0
111
1.0
121
0.000000000000002
131
0.0
112
-0.000000000000002
122
1.0
132
0.0
 79
     0
146
0.0
  0
ENDTAB
  0
TABLE
  2
LTYPE
  5
5
330
0
100
AcDbSymbolTable
 70
    17
  0
LTYPE
  5
14
330
5
100
AcDbSymbolTableRecord
100
AcDbLinetypeTableRecord
  2
BYBLOCK
 70
     0
  3

 72
    65
 73
     0
 40
0.0
  0
LTYPE
  5
15
330
5
100
AcDbSymbolTableRecord
100
AcDbLinetypeTableRecord
  2
BYLAYER
 70
     0
  3

 72
    65
 73
     0
 40
0.0
  0
LTYPE
  5
16
330
5
100
AcDbSymbolTableRecord
100
AcDbLinetypeTableRecord
  2
CONTINUOUS
 70
     0
  3
Solid line
 72
    65
 73
     0
 40
0.0
  0
LTYPE
  5
4B
330
5
100
AcDbSymbolTableRecord
100
AcDbLinetypeTableRecord
  2
AM_ISO02W050
 70
     0
  3
__ __ __ __ __ __ __ __ __ __ __ __ __ __ __
 72
    65
 73
     2
 40
7.5
 49
6.0
 74
     0
 49
-1.5
 74
     0
  0
LTYPE
  5
4C
330
5
100
AcDbSymbolTableRecord
100
AcDbLinetypeTableRecord
  2
AM_ISO08W050
 70
     0
  3
____ . ____ . ____ . ____ . ____ . ____ . ____
 72
    65
 73
     4
 40
18.0
 49
12.0
 74
     0
 49
-1.5
 74
     0
 49
3.0
 74
     0
 49
-1.5
 74
     0
  0
LTYPE
  5
4D
330
5
100
AcDbSymbolTableRecord
100
AcDbLinetypeTableRecord
  2
AM_ISO09W050
 70
     0
  3
_____ . . _____ . . _____ . . ____ .. ____
 72
    65
 73
     6
 40
22.5
 49
12.0
 74
     0
 49
-1.5
 74
     0
 49
3.0
 74
     0
 49
-1.5
 74
     0
 49
3.0
 74
     0
 49
-1.5
 74
     0
  0
LTYPE
  5
4E
330
5
100
AcDbSymbolTableRecord
100
AcDbLinetypeTableRecord
  2
Amconstr
 70
     0
  3
_______________________
 72
    65
 73
     2
 40
9999.0
 49
9999.0
 74
     0
 49
0.0
 74
     0
  0
LTYPE
  5
4F
330
5
100
AcDbSymbolTableRecord
100
AcDbLinetypeTableRecord
  2
AM_ISO02W050x2
 70
     0
  3
 _ _ _ _ _ _ _ _ _ _ _ _
 72
    65
 73
     2
 40
3.75
 49
3.0
 74
     0
 49
-0.75
 74
     0
  0
LTYPE
  5
50
330
5
100
AcDbSymbolTableRecord
100
AcDbLinetypeTableRecord
  2
AM_ISO08W050x2
 70
     0
  3
__ . __ . __ . __ . __ . __
 72
    65
 73
     4
 40
9.0
 49
6.0
 74
     0
 49
-0.75
 74
     0
 49
1.5
 74
     0
 49
-0.75
 74
     0
  0
LTYPE
  5
53
330
5
100
AcDbSymbolTableRecord
100
AcDbLinetypeTableRecord
  2
Amzigzag
 70
     0
  3
/\/-/\/-/\/-/\/-/\/-/\/
 72
    65
 73
     2
 40
11.0001
 49
0.0001
 74
     4
 75
   135
340
52
 46
0.04
 50
0.0
 44
0.0
 45
0.0
 49
-11.0
 74
     0
  0
LTYPE
  5
166
330
5
100
AcDbSymbolTableRecord
100
AcDbLinetypeTableRecord
  2
ACJISTGL
 70
     0
  3
_ _ _ _ _
 72
    65
 73
     2
 40
3.0
 49
2.0
 74
     0
 49
-1.0
 74
     0
  0
LTYPE
  5
26A
330
5
100
AcDbSymbolTableRecord
100
AcDbLinetypeTableRecord
  2
ACJISTGB
 70
     0
  3
__ . . __ . .
 72
    65
 73
     6
 40
9.0
 49
4.0
 74
     0
 49
-1.0
 74
     0
 49
1.0
 74
     0
 49
-1.0
 74
     0
 49
1.0
 74
     0
 49
-1.0
 74
     0
  0
LTYPE
  5
CA26
330
5
100
AcDbSymbolTableRecord
100
AcDbLinetypeTableRecord
  2
HIDDEN
 70
     0
  3
Hidden __ __ __ __ __ __ __ __ __ __ __ __ __ _
 72
    65
 73
     2
 40
9.524999999999998
 49
6.349999999999999
 74
     0
 49
-3.174999999999999
 74
     0
  0
LTYPE
  5
CA27
330
5
100
AcDbSymbolTableRecord
100
AcDbLinetypeTableRecord
  2
PHANTOM2
 70
     0
  3
Phantom (.5x) ___ _ _ ___ _ _ ___ _ _ ___ _ _
 72
    65
 73
     6
 40
31.75
 49
15.875
 74
     0
 49
-3.174999999999999
 74
     0
 49
3.174999999999999
 74
     0
 49
-3.174999999999999
 74
     0
 49
3.174999999999999
 74
     0
 49
-3.174999999999999
 74
     0
  0
LTYPE
  5
CA28
330
5
100
AcDbSymbolTableRecord
100
AcDbLinetypeTableRecord
  2
CENTER
 70
     0
  3
__ . __
 72
    65
 73
     4
 40
7.0
 49
4.0
 74
     0
 49
-1.0
 74
     0
 49
1.0
 74
     0
 49
-1.0
 74
     0
  0
LTYPE
  5
CA59
330
5
100
AcDbSymbolTableRecord
100
AcDbLinetypeTableRecord
  2
ACISOWELD
 70
     0
  3
_ _ _ _ _
 72
    65
 73
     2
 40
2.0
 49
2.0
 74
     0
 49
-1.0
 74
     0
  0
LTYPE
  5
CA5C
330
5
100
AcDbSymbolTableRecord
100
AcDbLinetypeTableRecord
  2
ACISOTGB
 70
     0
  3
__ . . __ . .
 72
    65
 73
     6
 40
9.0
 49
4.0
 74
     0
 49
-1.0
 74
     0
 49
1.0
 74
     0
 49
-1.0
 74
     0
 49
1.0
 74
     0
 49
-1.0
 74
     0
  0
LTYPE
  5
CA5D
330
5
100
AcDbSymbolTableRecord
100
AcDbLinetypeTableRecord
  2
ACISOTGL
 70
     0
  3
_ _ _ _ _
 72
    65
 73
     2
 40
3.0
 49
2.0
 74
     0
 49
-1.0
 74
     0
  0
LTYPE
  5
CA86
330
5
100
AcDbSymbolTableRecord
100
AcDbLinetypeTableRecord
  2
ACJISWELD
 70
     0
  3
_ _ _ _ _
 72
    65
 73
     2
 40
2.0
 49
2.0
 74
     0
 49
-1.0
 74
     0
  0
ENDTAB
  0
TABLE
  2
LAYER
  5
2
330
0
100
AcDbSymbolTable
 70
     8
  0
LAYER
  5
10
330
2
100
AcDbSymbolTableRecord
100
AcDbLayerTableRecord
  2
0
 70
     0
 62
     7
  6
CONTINUOUS
370
    -3
390
F
  0
LAYER
  5
3F9
330
2
100
AcDbSymbolTableRecord
100
AcDbLayerTableRecord
  2
AM_0
 70
     0
 62
     7
  6
CONTINUOUS
370
    -3
390
F
  0
LAYER
  5
BA4
330
2
100
AcDbSymbolTableRecord
100
AcDbLayerTableRecord
  2
AM_5
 70
     0
 62
     3
  6
CONTINUOUS
370
    -3
390
F
  0
LAYER
  5
BA6
330
2
100
AcDbSymbolTableRecord
100
AcDbLayerTableRecord
  2
AM_7
 70
     0
 62
     4
  6
AM_ISO08W050
370
    -3
390
F
  0
LAYER
  5
E64
330
2
100
AcDbSymbolTableRecord
100
AcDbLayerTableRecord
  2
AM_6
 70
     0
 62
     2
  6
CONTINUOUS
370
    -3
390
F
  0
LAYER
  5
F4D
330
2
100
AcDbSymbolTableRecord
100
AcDbLayerTableRecord
  2
DEFPOINTS
 70
     0
 62
     7
  6
CONTINUOUS
290
     0
370
    -3
390
F
  0
LAYER
  5
2382
330
2
100
AcDbSymbolTableRecord
100
AcDbLayerTableRecord
  2
AM_3
 70
     0
 62
     6
  6
ACJISTGL
370
    -3
390
F
  0
LAYER
  5
4E80
330
2
100
AcDbSymbolTableRecord
100
AcDbLayerTableRecord
  2
AM_11
 70
     0
 62
     3
  6
AM_ISO09W050
370
    -3
390
F
  0
ENDTAB
  0
TABLE
  2
STYLE
  5
3
330
0
100
AcDbSymbolTable
 70
     7
  0
STYLE
  5
11
330
3
100
AcDbSymbolTableRecord
100
AcDbTextStyleTableRecord
  2
STANDARD
 70
     0
 40
0.0
 41
1.0
 50
0.0
 71
     0
 42
2.5
  3
simplex.shx
  4
EXTFONT.SHX
  0
STYLE
  5
52
330
3
100
AcDbSymbolTableRecord
100
AcDbTextStyleTableRecord
  2

 70
     1
 40
0.0
 41
1.0
 50
0.0
 71
     0
 42
2.5
  3
ltypeshp.shx
  4

  0
STYLE
  5
6B
330
3
100
AcDbSymbolTableRecord
100
AcDbTextStyleTableRecord
  2
ASAMI
 70
     0
 40
0.0
 41
1.0
 50
0.0
 71
     0
 42
2.5
  3
simplex.shx
  4
EXTFONT.SHX
  0
STYLE
  5
262
330
3
100
AcDbSymbolTableRecord
100
AcDbTextStyleTableRecord
  2
ACJISTS
 70
     0
 40
1.0
 41
1.0
 50
0.0
 71
     0
 42
1.0
  3
isocp.shx
  4
extfont.shx
  0
STYLE
  5
269
330
3
100
AcDbSymbolTableRecord
100
AcDbTextStyleTableRecord
  2
ACJISGDT
 70
     0
 40
0.0
 41
1.0
 50
0.0
 71
     0
 42
1.0
  3
amgdt.shx
  4

  0
STYLE
  5
CA53
330
3
100
AcDbSymbolTableRecord
100
AcDbTextStyleTableRecord
  2
ACISOTS
 70
     0
 40
3.5
 41
1.0
 50
5.0
 71
     0
 42
3.799999999999999
  3
isocp.shx
  4
extfont.shx
  0
STYLE
  5
CA57
330
3
100
AcDbSymbolTableRecord
100
AcDbTextStyleTableRecord
  2
ACISOGDT
 70
     0
 40
0.0
 41
1.0
 50
0.0
 71
     0
 42
2.5
  3
amgdt.shx
  4
extfont.shx
  0
ENDTAB
  0
TABLE
  2
VIEW
  5
6
330
0
100
AcDbSymbolTable
 70
     0
  0
ENDTAB
  0
TABLE
  2
UCS
  5
7
330
0
100
AcDbSymbolTable
 70
     0
  0
ENDTAB
  0
TABLE
  2
APPID
  5
9
330
0
100
AcDbSymbolTable
 70
    36
  0
APPID
  5
12
330
9
100
AcDbSymbolTableRecord
100
AcDbRegAppTableRecord
  2
ACAD
 70
     0
  0
APPID
  5
30
330
9
100
AcDbSymbolTableRecord
100
AcDbRegAppTableRecord
  2
MCAD_NO_VIS
 70
     0
  0
APPID
  5
31
330
9
100
AcDbSymbolTableRecord
100
AcDbRegAppTableRecord
  2
ACAD_TEMP_GRAPHIC
 70
     0
  0
APPID
  5
2C2
330
9
100
AcDbSymbolTableRecord
100
AcDbRegAppTableRecord
  2
GENIUS_GENDTOL_13
 70
     0
  0
APPID
  5
339
330
9
100
AcDbSymbolTableRecord
100
AcDbRegAppTableRecord
  2
GENIUS_GENODEF_13
 70
     0
  0
APPID
  5
33A
330
9
100
AcDbSymbolTableRecord
100
AcDbRegAppTableRecord
  2
GENIUS_GENOBJ-N-RSBK_13
 70
     0
  0
APPID
  5
33B
330
9
100
AcDbSymbolTableRecord
100
AcDbRegAppTableRecord
  2
GENIUS_GENOBJ-N-LIB_13
 70
     0
  0
APPID
  5
33C
330
9
100
AcDbSymbolTableRecord
100
AcDbRegAppTableRecord
  2
GENIUS_GENSCALE_13
 70
     0
  0
APPID
  5
378
330
9
100
AcDbSymbolTableRecord
100
AcDbRegAppTableRecord
  2
GENIUS_GENDIMSH_14
 70
     0
  0
APPID
  5
BB0
330
9
100
AcDbSymbolTableRecord
100
AcDbRegAppTableRecord
  2
GENIUS_GENOBJ-N-CEN_13
 70
     0
  0
APPID
  5
BB1
330
9
100
AcDbSymbolTableRecord
100
AcDbRegAppTableRecord
  2
GENIUS_GENFIL_13
 70
     0
  0
APPID
  5
BB2
330
9
100
AcDbSymbolTableRecord
100
AcDbRegAppTableRecord
  2
GENIUS_GENOBJ-N-CHA_13
 70
     0
  0
APPID
  5
1FAF
330
9
100
AcDbSymbolTableRecord
100
AcDbRegAppTableRecord
  2
GENIUS_GENOBJ-N-CRS_13
 70
     0
  0
APPID
  5
1FB0
330
9
100
AcDbSymbolTableRecord
100
AcDbRegAppTableRecord
  2
GENIUS_GENOENT_13
 70
     0
  0
APPID
  5
1FB1
330
9
100
AcDbSymbolTableRecord
100
AcDbRegAppTableRecord
  2
GENIUS_GENOREF_13
 70
     0
  0
APPID
  5
1FB2
330
9
100
AcDbSymbolTableRecord
100
AcDbRegAppTableRecord
  2
GENIUS_GENOLIS_13
 70
     0
  0
APPID
  5
1FB7
330
9
100
AcDbSymbolTableRecord
100
AcDbRegAppTableRecord
  2
GENIUS_GENOBJ-N-FIL_13
 70
     0
  0
APPID
  5
22A8
330
9
100
AcDbSymbolTableRecord
100
AcDbRegAppTableRecord
  2
GEVID1056506048
 70
     0
  0
APPID
  5
22A9
330
9
100
AcDbSymbolTableRecord
100
AcDbRegAppTableRecord
  2
GEVDC
 70
     0
  0
APPID
  5
22AC
330
9
100
AcDbSymbolTableRecord
100
AcDbRegAppTableRecord
  2
GENIUS_GENBH_13
 70
     0
  0
APPID
  5
22B8
330
9
100
AcDbSymbolTableRecord
100
AcDbRegAppTableRecord
  2
GENIUS_GENOBJ-NBEHI-BHF_13
 70
     0
  0
APPID
  5
22BA
330
9
100
AcDbSymbolTableRecord
100
AcDbRegAppTableRecord
  2
GENIUS_GENOBJ-NBEHI-BHB_13
 70
     0
  0
APPID
  5
35C9
330
9
100
AcDbSymbolTableRecord
100
AcDbRegAppTableRecord
  2
GENIUS_GENREC_14
 70
     0
  0
APPID
  5
35CA
330
9
100
AcDbSymbolTableRecord
100
AcDbRegAppTableRecord
  2
GENIUS_GENOBJ-N-REC_13
 70
     0
  0
APPID
  5
C9EC
330
9
100
AcDbSymbolTableRecord
100
AcDbRegAppTableRecord
  2
ACATTRIBSERVICES
 70
     0
  0
APPID
  5
C9ED
330
9
100
AcDbSymbolTableRecord
100
AcDbRegAppTableRecord
  2
AD_DRAW
 70
     0
  0
APPID
  5
C9EE
330
9
100
AcDbSymbolTableRecord
100
AcDbRegAppTableRecord
  2
DESIGNERASSEMBLIES
 70
     0
  0
APPID
  5
C9EF
330
9
100
AcDbSymbolTableRecord
100
AcDbRegAppTableRecord
  2
ACADM_DIM_EDIT
 70
     0
  0
APPID
  5
C9F0
330
9
100
AcDbSymbolTableRecord
100
AcDbRegAppTableRecord
  2
AMDT_DM_ADJ
 70
     0
  0
APPID
  5
C9F1
330
9
100
AcDbSymbolTableRecord
100
AcDbRegAppTableRecord
  2
ACAD_DSTYLE_DIMTEXT_FILL
 70
     0
  0
APPID
  5
C9F2
330
9
100
AcDbSymbolTableRecord
100
AcDbRegAppTableRecord
  2
ACAD_PSEXT
 70
     0
  0
APPID
  5
C9F3
330
9
100
AcDbSymbolTableRecord
100
AcDbRegAppTableRecord
  2
ACAD_DIMASSOC_DIMLFAC
 70
     0
  0
APPID
  5
C9F4
330
9
100
AcDbSymbolTableRecord
100
AcDbRegAppTableRecord
  2
ACAD_DIMASSOC_CALC_DIMLFAC
 70
     0
  0
APPID
  5
C9F5
330
9
100
AcDbSymbolTableRecord
100
AcDbRegAppTableRecord
  2
ACAD_DIMASSOC_OVERRIDDEN_DIMLFAC
 70
     0
  0
APPID
  5
CAAA
330
9
100
AcDbSymbolTableRecord
100
AcDbRegAppTableRecord
  2
GENIUS_GENSCREG_15
 70
     0
  0
APPID
  5
CAAB
330
9
100
AcDbSymbolTableRecord
100
AcDbRegAppTableRecord
  2
GENIUS_GENOBJ-N-SDF_13
 70
     0
  0
ENDTAB
  0
TABLE
  2
DIMSTYLE
  5
A
330
0
100
AcDbSymbolTable
 70
    16
100
AcDbDimStyleTable
 71
     0
  0
DIMSTYLE
105
58
330
A
100
AcDbSymbolTableRecord
100
AcDbDimStyleTableRecord
  2
AM_JIS
 70
     0
  4
"
 41
2.699999999999999
 42
0.0
 43
7.0
 44
0.5
 47
0.1
 48
0.1000000001
 73
     0
 74
     0
 77
     3
 78
     8
 79
     2
140
3.5
141
0.0
143
0.0393701
146
0.71
147
1.0
172
     1
176
     3
177
     3
178
     2
179
     1
271
     2
272
     2
275
     1
283
     0
284
     8
340
11
341
59
342
59
371
    -1
372
    -1
  0
DIMSTYLE
105
5F
330
A
100
AcDbSymbolTableRecord
100
AcDbDimStyleTableRecord
  2
AM_JIS$3
 70
     0
  4
"
 41
2.699999999999999
 42
1.0
 43
10.0
 44
1.0
 47
0.1
 48
0.1000000001
 73
     0
 77
     3
 78
     8
 79
     2
140
3.799999999999999
141
0.0
143
0.0393701
146
0.71
147
1.5
176
   256
177
   256
178
     2
271
     2
272
     2
275
     1
283
     0
284
     8
288
     1
289
     0
340
11
341
59
342
59
371
    -1
372
    -1
  0
DIMSTYLE
105
60
330
A
100
AcDbSymbolTableRecord
100
AcDbDimStyleTableRecord
  2
AM_JIS$4
 70
     0
  4
"
 41
2.699999999999999
 42
1.0
 43
10.0
 44
1.0
 47
0.1
 48
0.1000000001
 73
     0
 77
     3
 78
     8
 79
     2
140
3.799999999999999
141
0.0
143
0.0393701
146
0.71
147
1.5
176
   256
177
   256
178
     2
271
     2
272
     2
275
     1
283
     0
284
     8
288
     1
289
     0
340
11
341
59
342
59
371
    -1
372
    -1
  0
DIMSTYLE
105
61
330
A
100
AcDbSymbolTableRecord
100
AcDbDimStyleTableRecord
  2
AM_JIS$6
 70
     0
  4
"
 41
2.699999999999999
 42
1.0
 43
10.0
 44
1.0
 47
0.1
 48
0.1000000001
 73
     0
 74
     0
 78
     8
 79
     2
140
3.799999999999999
141
0.0
143
0.0393701
146
0.71
147
1.5
172
     1
176
   256
177
   256
178
     2
271
     2
272
     2
275
     1
283
     0
284
     8
340
11
341
59
342
59
371
    -1
372
    -1
  0
DIMSTYLE
105
62
330
A
100
AcDbSymbolTableRecord
100
AcDbDimStyleTableRecord
  2
AM_JIS$7
 70
     0
  4
"
 41
2.699999999999999
 42
1.0
 43
10.0
 44
1.0
 47
0.1
 48
0.1000000001
 73
     0
 74
     0
 77
     3
 78
     8
 79
     2
140
3.5
141
0.0
143
0.0393701
146
0.71
147
1.5
172
     1
176
     3
177
   256
178
     2
271
     2
272
     2
275
     1
283
     0
284
     8
340
11
341
59
342
59
371
    -1
372
    -1
  0
DIMSTYLE
105
63
330
A
100
AcDbSymbolTableRecord
100
AcDbDimStyleTableRecord
  2
AM_JIS$SF
 70
     0
  4
"
 41
2.5
 42
1.0
 43
10.0
 44
1.0
 47
0.1
 48
0.1
 73
     0
 74
     0
 75
     1
 76
     1
 77
     3
 78
     8
 79
     2
140
3.5
141
0.0
143
0.0393701
146
0.71
147
1.5
172
     1
176
   256
177
   256
178
     2
271
     2
272
     3
274
     4
283
     0
284
     8
340
11
341
59
342
59
343
59
344
59
371
    -1
372
    -1
  0
DIMSTYLE
105
68
330
A
100
AcDbSymbolTableRecord
100
AcDbDimStyleTableRecord
  2
AM_JIS$SH
 70
     0
  4
"
 41
2.5
 42
1.0
 43
10.0
 44
1.0
 47
0.1
 48
0.1
 73
     0
 74
     0
 75
     1
 76
     1
 77
     3
 78
     8
 79
     2
140
3.5
141
0.0
143
0.0393701
144
2.0
146
0.71
147
1.5
172
     1
173
     1
176
   256
177
   256
178
     2
271
     2
272
     3
274
     4
283
     0
284
     8
340
11
341
59
342
59
343
64
344
59
371
    -1
372
    -1
  0
DIMSTYLE
105
B34
330
A
100
AcDbSymbolTableRecord
100
AcDbDimStyleTableRecord
  2
AM_JIS$2
 70
     0
  4
"
 41
2.699999999999999
 42
0.0
 43
7.0
 44
0.5
 47
0.1
 48
0.1000000001
 73
     0
 74
     0
 77
     3
 78
     8
 79
     2
140
3.5
141
0.0
143
0.0393701
146
0.71
147
1.0
172
     1
176
     3
177
     3
178
     2
179
     1
271
     2
272
     2
275
     1
283
     0
284
     8
340
11
341
59
342
59
371
    -1
372
    -1
  0
DIMSTYLE
105
3B48
102
{ACAD_REACTORS
330
C15A
330
C1E6
330
C2A6
330
C343
330
C3EA
330
C47F
102
}
330
A
100
AcDbSymbolTableRecord
100
AcDbDimStyleTableRecord
  2
AM_JIS$0
 70
     0
  4
"
 41
2.699999999999999
 42
0.0
 43
7.0
 44
0.5
 47
0.1
 48
0.1000000001
 73
     0
 74
     0
 77
     3
 78
     8
 79
     2
140
3.5
141
0.0
143
0.0393701
146
0.71
147
1.0
172
     1
176
     3
177
     3
178
     2
179
     1
271
     2
272
     2
275
     1
283
     0
284
     8
340
11
341
59
342
59
371
    -1
372
    -1
  0
DIMSTYLE
105
CA72
330
A
100
AcDbSymbolTableRecord
100
AcDbDimStyleTableRecord
  2
AM_ISO
 70
     0
  4
"
 41
2.5
 42
1.0
 43
10.0
 44
1.0
 47
0.1
 48
0.1
 73
     0
 74
     0
 77
     1
 78
     8
 79
     2
140
3.5
141
0.0
143
0.0393701
146
0.71
147
1.5
172
     1
176
   256
177
   256
178
     2
271
     2
272
     3
274
     4
283
     0
284
     8
340
11
371
    -1
372
    -1
  0
DIMSTYLE
105
CA73
330
A
100
AcDbSymbolTableRecord
100
AcDbDimStyleTableRecord
  2
AM_ISO$3
 70
     0
  4
"
 41
2.5
 42
1.0
 43
10.0
 44
1.0
 47
0.1
 48
0.1
 73
     0
 77
     1
 78
     8
 79
     2
140
3.5
141
0.0
143
0.0393701
146
0.71
147
1.5
176
   256
177
   256
178
     2
271
     2
272
     3
274
     4
283
     0
284
     8
288
     1
289
     0
340
11
371
    -1
372
    -1
  0
DIMSTYLE
105
CA74
330
A
100
AcDbSymbolTableRecord
100
AcDbDimStyleTableRecord
  2
AM_ISO$4
 70
     0
  4
"
 41
2.5
 42
1.0
 43
10.0
 44
1.0
 47
0.1
 48
0.1
 73
     0
 77
     1
 78
     8
 79
     2
140
3.5
141
0.0
143
0.0393701
146
0.71
147
1.5
176
   256
177
   256
178
     2
271
     2
272
     3
274
     4
283
     0
284
     8
288
     1
289
     0
340
11
371
    -1
372
    -1
  0
DIMSTYLE
105
CA75
330
A
100
AcDbSymbolTableRecord
100
AcDbDimStyleTableRecord
  2
AM_ISO$6
 70
     0
  4
"
 41
2.5
 42
1.0
 43
10.0
 44
1.0
 47
0.1
 48
0.1
 73
     0
 74
     0
 78
     8
 79
     2
140
3.5
141
0.0
143
0.0393701
146
0.71
147
1.5
172
     1
176
   256
177
   256
178
     2
271
     2
272
     3
274
     4
283
     0
284
     8
340
11
371
    -1
372
    -1
  0
DIMSTYLE
105
CA76
330
A
100
AcDbSymbolTableRecord
100
AcDbDimStyleTableRecord
  2
AM_ISO$7
 70
     0
  4
"
 41
2.5
 42
1.0
 43
10.0
 44
1.0
 47
0.1
 48
0.1
 73
     0
 74
     0
 77
     1
 78
     8
 79
     2
140
5.0
141
0.0
143
0.0393701
146
0.71
147
1.5
172
     1
176
   256
177
   256
178
     2
271
     2
272
     3
274
     4
283
     0
284
     8
340
11
371
    -1
372
    -1
  0
DIMSTYLE
105
CA77
330
A
100
AcDbSymbolTableRecord
100
AcDbDimStyleTableRecord
  2
AM_ISO$SF
 70
     0
  4
"
 41
2.5
 42
1.0
 43
10.0
 44
1.0
 47
0.1
 48
0.1
 73
     0
 74
     0
 75
     1
 76
     1
 77
     1
 78
     8
 79
     2
140
3.5
141
0.0
143
0.0393701
146
0.71
147
1.5
172
     1
176
   256
177
   256
178
     2
271
     2
272
     3
274
     4
283
     0
284
     8
340
11
371
    -1
372
    -1
  0
DIMSTYLE
105
CA78
330
A
100
AcDbSymbolTableRecord
100
AcDbDimStyleTableRecord
  2
AM_ISO$SH
 70
     0
  4
"
 41
2.5
 42
1.0
 43
10.0
 44
1.0
 47
0.1
 48
0.1
 73
     0
 74
     0
 75
     1
 76
     1
 77
     1
 78
     8
 79
     2
140
3.5
141
0.0
143
0.0393701
144
2.0
146
0.71
147
1.5
172
     1
173
     1
176
   256
177
   256
178
     2
271
     2
272
     3
274
     4
283
     0
284
     8
340
11
343
64
371
    -1
372
    -1
  0
ENDTAB
  0
TABLE
  2
BLOCK_RECORD
  5
1
330
0
100
AcDbSymbolTable
 70
     9
  0
BLOCK_RECORD
  5
1F
102
{ACAD_XDICTIONARY
360
74
102
}
330
1
100
AcDbSymbolTableRecord
100
AcDbBlockTableRecord
  2
*MODEL_SPACE
340
C9E7
  0
BLOCK_RECORD
  5
101
102
{ACAD_XDICTIONARY
360
C9A5
102
}
330
1
100
AcDbSymbolTableRecord
100
AcDbBlockTableRecord
  2
*PAPER_SPACE
340
C9E8
  0
BLOCK_RECORD
  5
59
330
1
100
AcDbSymbolTableRecord
100
AcDbBlockTableRecord
  2
_Open30
340
0
  0
BLOCK_RECORD
  5
64
330
1
100
AcDbSymbolTableRecord
100
AcDbBlockTableRecord
  2
GENAXEH
340
0
  0
BLOCK_RECORD
  5
C15B
330
1
100
AcDbSymbolTableRecord
100
AcDbBlockTableRecord
  2
*D2
340
0
  0
BLOCK_RECORD
  5
C1E7
330
1
100
AcDbSymbolTableRecord
100
AcDbBlockTableRecord
  2
*D3
340
0
  0
BLOCK_RECORD
  5
C2A7
330
1
100
AcDbSymbolTableRecord
100
AcDbBlockTableRecord
  2
*D4
340
0
  0
BLOCK_RECORD
  5
C344
330
1
100
AcDbSymbolTableRecord
100
AcDbBlockTableRecord
  2
*D5
340
0
  0
BLOCK_RECORD
  5
C3EB
330
1
100
AcDbSymbolTableRecord
100
AcDbBlockTableRecord
  2
*D6
340
0
  0
BLOCK_RECORD
  5
C480
330
1
100
AcDbSymbolTableRecord
100
AcDbBlockTableRecord
  2
*D7
340
0
  0
ENDTAB
  0
ENDSEC
  0
SECTION
  2
BLOCKS
  0
BLOCK
  5
20
330
1F
100
AcDbEntity
  8
0
100
AcDbBlockBegin
  2
*MODEL_SPACE
 70
     0
 10
0.0
 20
0.0
 30
0.0
  3
*MODEL_SPACE
  1

  0
ENDBLK
  5
21
330
1F
100
AcDbEntity
  8
0
100
AcDbBlockEnd
  0
BLOCK
  5
103
330
101
100
AcDbEntity
 67
     1
  8
0
100
AcDbBlockBegin
  2
*PAPER_SPACE
 70
     0
 10
0.0
 20
0.0
 30
0.0
  3
*PAPER_SPACE
  1

  0
ENDBLK
  5
104
330
101
100
AcDbEntity
 67
     1
  8
0
100
AcDbBlockEnd
  0
BLOCK
  5
CA9A
330
59
100
AcDbEntity
  8
0
100
AcDbBlockBegin
  2
_Open30
 70
     0
 10
0.0
 20
0.0
 30
0.0
  3
_Open30
  1

  0
LINE
  5
CA9B
330
59
100
AcDbEntity
  8
0
  6
ByBlock
 62
     0
370
    -2
100
AcDbLine
 10
-1.0
 20
0.26794919
 30
0.0
 11
0.0
 21
0.0
 31
0.0
  0
LINE
  5
CA9C
330
59
100
AcDbEntity
  8
0
  6
ByBlock
 62
     0
370
    -2
100
AcDbLine
 10
0.0
 20
0.0
 30
0.0
 11
-1.0
 21
-0.26794919
 31
0.0
  0
LINE
  5
CA9D
330
59
100
AcDbEntity
  8
0
  6
ByBlock
 62
     0
370
    -2
100
AcDbLine
 10
0.0
 20
0.0
 30
0.0
 11
-1.0
 21
0.0
 31
0.0
  0
ENDBLK
  5
CA9E
330
59
100
AcDbEntity
  8
0
100
AcDbBlockEnd
  0
BLOCK
  5
CA7A
330
64
100
AcDbEntity
  8
0
100
AcDbBlockBegin
  2
GENAXEH
 70
     0
 10
0.0
 20
0.0
 30
0.0
  3
GENAXEH
  1

  0
LINE
  5
CA7B
330
64
100
AcDbEntity
  8
0
100
AcDbLine
 10
-1.0
 20
0.0
 30
0.0
 11
1.0
 21
0.0
 31
0.0
  0
ENDBLK
  5
CA7C
330
64
100
AcDbEntity
  8
0
100
AcDbBlockEnd
  0
BLOCK
  5
C165
330
C15B
100
AcDbEntity
  8
0
100
AcDbBlockBegin
  2
*D2
 70
     1
 10
0.0
 20
0.0
 30
0.0
  3
*D2
  1

  0
LINE
  5
C9A7
330
C15B
100
AcDbEntity
  8
AM_5
100
AcDbLine
 10
-39.00000000000036
 20
17.5
 30
0.0
 11
-39.00000000000036
 21
31.50000100000015
 31
0.0
  0
LINE
  5
C9A8
330
C15B
100
AcDbEntity
  8
AM_5
100
AcDbLine
 10
-0.0484085083014125
 20
17.44358825683615
 30
0.0
 11
-0.0484085083014151
 21
31.50000100000016
 31
0.0
  0
LINE
  5
C9A9
330
C15B
100
AcDbEntity
  8
AM_5
100
AcDbLine
 10
-35.50000000000036
 20
30.50000100000015
 30
0.0
 11
-3.548408508301413
 21
30.50000100000016
 31
0.0
  0
INSERT
  5
C9AA
330
C15B
100
AcDbEntity
  8
AM_5
100
AcDbBlockReference
  2
_Open30
 10
-39.00000000000036
 20
30.50000100000015
 30
0.0
 41
3.5
 42
3.5
 43
3.5
 50
180.0
  0
INSERT
  5
C9AB
330
C15B
100
AcDbEntity
  8
AM_5
100
AcDbBlockReference
  2
_Open30
 10
-0.0484085083014149
 20
30.50000100000016
 30
0.0
 41
3.5
 42
3.5
 43
3.5
  0
MTEXT
  5
C9AC
330
C15B
100
AcDbEntity
  8
AM_5
 62
     2
100
AcDbMText
 10
-19.52420425415088
 20
33.10000100000015
 30
0.0
 40
3.2
 41
0.0
 71
     5
 72
     1
  1
39
  7
ASAMI
 73
     1
 44
1.0
1001
ACAD
1000
MTEXTBEGIN
1070
    73
1070
     1
1070
    44
1040
1.0
1070
    74
1070
     0
1000
MTEXTEND
  0
POINT
  5
C9AD
330
C15B
100
AcDbEntity
  8
DEFPOINTS
 62
     0
100
AcDbPoint
 10
-39.00000000000032
 20
16.50000000000008
 30
0.0
  0
POINT
  5
C9AE
330
C15B
100
AcDbEntity
  8
DEFPOINTS
 62
     0
100
AcDbPoint
 10
-0.0484085083013791
 20
16.44358825683616
 30
0.0
  0
POINT
  5
C9AF
330
C15B
100
AcDbEntity
  8
DEFPOINTS
 62
     0
100
AcDbPoint
 10
-0.0484085083013533
 20
30.50000100000016
 30
0.0
  0
ENDBLK
  5
C166
330
C15B
100
AcDbEntity
  8
0
100
AcDbBlockEnd
  0
BLOCK
  5
C1F1
330
C1E7
100
AcDbEntity
  8
0
100
AcDbBlockBegin
  2
*D3
 70
     1
 10
0.0
 20
0.0
 30
0.0
  3
*D3
  1

  0
LINE
  5
C9B0
330
C1E7
100
AcDbEntity
  8
AM_5
100
AcDbLine
 10
0.9515914916985844
 20
16.44358825683617
 30
0.0
 11
17.89515023095669
 21
16.4435882568362
 31
0.0
  0
LINE
  5
C9B1
330
C1E7
100
AcDbEntity
  8
AM_5
100
AcDbLine
 10
0.9999999999998212
 20
-16.49999999999983
 30
0.0
 11
17.89515023095676
 21
-16.4999999999998
 31
0.0
  0
LINE
  5
C9B2
330
C1E7
100
AcDbEntity
  8
AM_5
100
AcDbLine
 10
16.8951502309567
 20
12.9435882568362
 30
0.0
 11
16.89515023095675
 21
-12.9999999999998
 31
0.0
  0
INSERT
  5
C9B3
330
C1E7
100
AcDbEntity
  8
AM_5
100
AcDbBlockReference
  2
_Open30
 10
16.89515023095669
 20
16.4435882568362
 30
0.0
 41
3.5
 42
3.5
 43
3.5
 50
90.0000000000001
  0
INSERT
  5
C9B4
330
C1E7
100
AcDbEntity
  8
AM_5
100
AcDbBlockReference
  2
_Open30
 10
16.89515023095675
 20
-16.4999999999998
 30
0.0
 41
3.5
 42
3.5
 43
3.5
 50
270.0000000000001
  0
MTEXT
  5
C9B5
330
C1E7
100
AcDbEntity
  8
AM_5
 62
     2
100
AcDbMText
 10
14.29515023095672
 20
-0.0282058715818077
 30
0.0
 40
3.2
 41
0.0
 71
     5
 72
     1
  1
%%c33
  7
ASAMI
 11
-0.000000000000002
 21
1.0
 31
0.0
 73
     1
 44
1.0
1001
ACAD
1000
MTEXTBEGIN
1070
    73
1070
     1
1070
    44
1040
1.0
1070
    74
1070
     0
1000
MTEXTEND
  0
POINT
  5
C9B6
330
C1E7
100
AcDbEntity
  8
DEFPOINTS
 62
     0
100
AcDbPoint
 10
-0.0484085083013791
 20
16.44358825683616
 30
0.0
  0
POINT
  5
C9B7
330
C1E7
100
AcDbEntity
  8
DEFPOINTS
 62
     0
100
AcDbPoint
 10
-0.0000000000002154
 20
-16.49999999999983
 30
0.0
  0
POINT
  5
C9B8
330
C1E7
100
AcDbEntity
  8
DEFPOINTS
 62
     0
100
AcDbPoint
 10
16.89515023095672
 20
-16.49999999999984
 30
0.0
  0
ENDBLK
  5
C1F2
330
C1E7
100
AcDbEntity
  8
0
100
AcDbBlockEnd
  0
BLOCK
  5
C2B1
330
C2A7
100
AcDbEntity
  8
0
100
AcDbBlockBegin
  2
*D4
 70
     1
 10
0.0
 20
0.0
 30
0.0
  3
*D4
  1

  0
LINE
  5
C9B9
330
C2A7
100
AcDbEntity
  8
AM_5
100
AcDbLine
 10
-0.0000000000001801
 20
-17.49999999999983
 30
0.0
 11
-0.0000000000001527
 21
-31.50000099999991
 31
0.0
  0
LINE
  5
C9BA
330
C2A7
100
AcDbEntity
  8
AM_5
100
AcDbLine
 10
-50.00000095367422
 20
-16.29998588562007
 30
0.0
 11
-50.00000095367418
 21
-31.50000100000001
 31
0.0
  0
LINE
  5
C9BB
330
C2A7
100
AcDbEntity
  8
AM_5
100
AcDbLine
 10
-3.500000000000153
 20
-30.50000099999992
 30
0.0
 11
-46.50000095367418
 21
-30.500001
 31
0.0
  0
INSERT
  5
C9BC
330
C2A7
100
AcDbEntity
  8
AM_5
100
AcDbBlockReference
  2
_Open30
 10
-0.0000000000001546
 20
-30.50000099999991
 30
0.0
 41
3.5
 42
3.5
 43
3.5
 50
0.0000000000001018
  0
INSERT
  5
C9BD
330
C2A7
100
AcDbEntity
  8
AM_5
100
AcDbBlockReference
  2
_Open30
 10
-50.00000095367418
 20
-30.50000100000001
 30
0.0
 41
3.5
 42
3.5
 43
3.5
 50
180.0000000000001
  0
MTEXT
  5
C9BE
330
C2A7
100
AcDbEntity
  8
AM_5
 62
     2
100
AcDbMText
 10
-25.00000047683717
 20
-27.90000099999996
 30
0.0
 40
3.2
 41
0.0
 71
     5
 72
     1
  1
50
  7
ASAMI
 73
     1
 44
1.0
1001
ACAD
1000
MTEXTBEGIN
1070
    73
1070
     1
1070
    44
1040
1.0
1070
    74
1070
     0
1000
MTEXTEND
  0
POINT
  5
C9BF
330
C2A7
100
AcDbEntity
  8
DEFPOINTS
 62
     0
100
AcDbPoint
 10
-0.0000000000002154
 20
-16.49999999999983
 30
0.0
  0
POINT
  5
C9C0
330
C2A7
100
AcDbEntity
  8
DEFPOINTS
 62
     0
100
AcDbPoint
 10
-50.00000095367425
 20
-15.29998588561997
 30
0.0
  0
POINT
  5
C9C1
330
C2A7
100
AcDbEntity
  8
DEFPOINTS
 62
     0
100
AcDbPoint
 10
-50.00000095367425
 20
-30.50000099999991
 30
0.0
  0
ENDBLK
  5
C2B2
330
C2A7
100
AcDbEntity
  8
0
100
AcDbBlockEnd
  0
BLOCK
  5
C34E
330
C344
100
AcDbEntity
  8
0
100
AcDbBlockBegin
  2
*D5
 70
     1
 10
0.0
 20
0.0
 30
0.0
  3
*D5
  1

  0
LINE
  5
C9C2
330
C344
100
AcDbEntity
  8
AM_5
100
AcDbLine
 10
-50.00000095367422
 20
-16.29998588562007
 30
0.0
 11
-50.00000095367418
 21
-31.50000100000001
 31
0.0
  0
LINE
  5
C9C3
330
C344
100
AcDbEntity
  8
AM_5
100
AcDbLine
 10
-230.0000000000002
 20
-14.66149711608978
 30
0.0
 11
-230.0000000000002
 21
-31.50000100000038
 31
0.0
  0
LINE
  5
C9C4
330
C344
100
AcDbEntity
  8
AM_5
100
AcDbLine
 10
-53.50000095367418
 20
-30.50000100000002
 30
0.0
 11
-226.5000000000002
 21
-30.50000100000037
 31
0.0
  0
INSERT
  5
C9C5
330
C344
100
AcDbEntity
  8
AM_5
100
AcDbBlockReference
  2
_Open30
 10
-50.00000095367418
 20
-30.50000100000001
 30
0.0
 41
3.5
 42
3.5
 43
3.5
 50
0.0000000000001018
  0
INSERT
  5
C9C6
330
C344
100
AcDbEntity
  8
AM_5
100
AcDbBlockReference
  2
_Open30
 10
-230.0000000000002
 20
-30.50000100000038
 30
0.0
 41
3.5
 42
3.5
 43
3.5
 50
180.0000000000001
  0
MTEXT
  5
C9C7
330
C344
100
AcDbEntity
  8
AM_5
 62
     2
100
AcDbMText
 10
-140.0000004768372
 20
-27.90000100000019
 30
0.0
 40
3.2
 41
0.0
 71
     5
 72
     1
  1
180
  7
ASAMI
 73
     1
 44
1.0
1001
ACAD
1000
MTEXTBEGIN
1070
    73
1070
     1
1070
    44
1040
1.0
1070
    74
1070
     0
1000
MTEXTEND
  0
POINT
  5
C9C8
330
C344
100
AcDbEntity
  8
DEFPOINTS
 62
     0
100
AcDbPoint
 10
-50.00000095367425
 20
-15.29998588561997
 30
0.0
  0
POINT
  5
C9C9
330
C344
100
AcDbEntity
  8
DEFPOINTS
 62
     0
100
AcDbPoint
 10
-230.0000000000002
 20
-13.66149711608932
 30
0.0
  0
POINT
  5
C9CA
330
C344
100
AcDbEntity
  8
DEFPOINTS
 62
     0
100
AcDbPoint
 10
-230.0000000000002
 20
-30.50000099999991
 30
0.0
  0
ENDBLK
  5
C34F
330
C344
100
AcDbEntity
  8
0
100
AcDbBlockEnd
  0
BLOCK
  5
C3F5
330
C3EB
100
AcDbEntity
  8
0
100
AcDbBlockBegin
  2
*D6
 70
     1
 10
0.0
 20
0.0
 30
0.0
  3
*D6
  1

  0
LINE
  5
C9CB
330
C3EB
100
AcDbEntity
  8
AM_5
100
AcDbLine
 10
-0.000000000000173
 20
-17.49999999999983
 30
0.0
 11
-0.000000000000126
 21
-41.5000009999999
 31
0.0
  0
LINE
  5
C9CC
330
C3EB
100
AcDbEntity
  8
AM_5
100
AcDbLine
 10
-230.0000004768374
 20
-14.66149694124412
 30
0.0
 11
-230.0000004768373
 21
-41.50000100000037
 31
0.0
  0
LINE
  5
C9CD
330
C3EB
100
AcDbEntity
  8
AM_5
100
AcDbLine
 10
-3.500000000000127
 20
-40.50000099999992
 30
0.0
 11
-226.5000004768373
 21
-40.50000100000036
 31
0.0
  0
INSERT
  5
C9CE
330
C3EB
100
AcDbEntity
  8
AM_5
100
AcDbBlockReference
  2
_Open30
 10
-0.0000000000001279
 20
-40.5000009999999
 30
0.0
 41
3.5
 42
3.5
 43
3.5
 50
0.0000000000001018
  0
INSERT
  5
C9CF
330
C3EB
100
AcDbEntity
  8
AM_5
100
AcDbBlockReference
  2
_Open30
 10
-230.0000004768373
 20
-40.50000100000036
 30
0.0
 41
3.5
 42
3.5
 43
3.5
 50
180.0000000000001
  0
MTEXT
  5
C9D0
330
C3EB
100
AcDbEntity
  8
AM_5
 62
     2
100
AcDbMText
 10
-115.0000002384187
 20
-37.90000100000014
 30
0.0
 40
3.2
 41
0.0
 71
     5
 72
     1
  1
230
  7
ASAMI
 73
     1
 44
1.0
1001
ACAD
1000
MTEXTBEGIN
1070
    73
1070
     1
1070
    44
1040
1.0
1070
    74
1070
     0
1000
MTEXTEND
  0
POINT
  5
C9D1
330
C3EB
100
AcDbEntity
  8
DEFPOINTS
 62
     0
100
AcDbPoint
 10
-0.0000000000002083
 20
-16.49999999999983
 30
0.0
  0
POINT
  5
C9D2
330
C3EB
100
AcDbEntity
  8
DEFPOINTS
 62
     0
100
AcDbPoint
 10
-230.0000004768374
 20
-13.66149694124365
 30
0.0
  0
POINT
  5
C9D3
330
C3EB
100
AcDbEntity
  8
DEFPOINTS
 62
     0
100
AcDbPoint
 10
-230.0000004768374
 20
-40.5000009999999
 30
0.0
  0
ENDBLK
  5
C3F6
330
C3EB
100
AcDbEntity
  8
0
100
AcDbBlockEnd
  0
BLOCK
  5
C48A
330
C480
100
AcDbEntity
  8
0
100
AcDbBlockBegin
  2
*D7
 70
     1
 10
0.0
 20
0.0
 30
0.0
  3
*D7
  1

  0
LINE
  5
C9D4
330
C480
100
AcDbEntity
  8
AM_5
100
AcDbLine
 10
-227.9999847412103
 20
16.00000381469616
 30
0.0
 11
-249.6486972931946
 21
16.00000381469612
 31
0.0
  0
LINE
  5
C9D5
330
C480
100
AcDbEntity
  8
AM_5
100
AcDbLine
 10
-228.0000000000002
 20
-15.99999809265184
 30
0.0
 11
-249.6486972931945
 21
-15.99999809265188
 31
0.0
  0
LINE
  5
C9D6
330
C480
100
AcDbEntity
  8
AM_5
100
AcDbLine
 10
-248.6486972931945
 20
12.50000381469612
 30
0.0
 11
-248.6486972931945
 21
-12.49999809265188
 31
0.0
  0
INSERT
  5
C9D7
330
C480
100
AcDbEntity
  8
AM_5
100
AcDbBlockReference
  2
_Open30
 10
-248.6486972931945
 20
16.00000381469612
 30
0.0
 41
3.5
 42
3.5
 43
3.5
 50
90.0000000000001
  0
INSERT
  5
C9D8
330
C480
100
AcDbEntity
  8
AM_5
100
AcDbBlockReference
  2
_Open30
 10
-248.6486972931945
 20
-15.99999809265188
 30
0.0
 41
3.5
 42
3.5
 43
3.5
 50
270.0000000000001
  0
MTEXT
  5
C9D9
330
C480
100
AcDbEntity
  8
AM_5
 62
     2
100
AcDbMText
 10
-251.2486972931945
 20
0.0000028610221239
 30
0.0
 40
3.2
 41
0.0
 71
     5
 72
     1
  1
%%c32
  7
ASAMI
 11
-0.000000000000002
 21
1.0
 31
0.0
 73
     1
 44
1.0
1001
ACAD
1000
MTEXTBEGIN
1070
    73
1070
     1
1070
    44
1040
1.0
1070
    74
1070
     0
1000
MTEXTEND
  0
POINT
  5
C9DA
330
C480
100
AcDbEntity
  8
DEFPOINTS
 62
     0
100
AcDbPoint
 10
-226.9999847412103
 20
16.00000381469667
 30
0.0
  0
POINT
  5
C9DB
330
C480
100
AcDbEntity
  8
DEFPOINTS
 62
     0
100
AcDbPoint
 10
-227.0000000000002
 20
-15.99999809265133
 30
0.0
  0
POINT
  5
C9DC
330
C480
100
AcDbEntity
  8
DEFPOINTS
 62
     0
100
AcDbPoint
 10
-248.6486972931945
 20
-15.99999809265133
 30
0.0
  0
ENDBLK
  5
C48B
330
C480
100
AcDbEntity
  8
0
100
AcDbBlockEnd
  0
ENDSEC
  0
SECTION
  2
ENTITIES
  0
TEXT
  5
388D
330
1F
100
AcDbEntity
  8
AM_6
100
AcDbText
 10
-139.0476192860377
 20
-63.00000100000007
 30
0.0
 40
5.0
  1
WMM3033ELH
 50
359.9999999999998
 51
359.9999999999998
 72
     4
 11
-115.0000002384187
 21
-60.50000100000014
 31
0.0
100
AcDbText
  0
SPLINE
  5
BE1D
330
1F
100
AcDbEntity
  8
AM_0
100
AcDbSpline
210
0.0
220
0.0
230
1.0
 70
     8
 71
     3
 72
    11
 73
     7
 74
     5
 42
0.0000000001
 43
0.0000000001
 44
0.0000000001
 40
0.0
 40
0.0
 40
0.0
 40
0.0
 40
0.9353795420279425
 40
1.896075027372223
 40
2.873278706598111
 40
3.859178007230901
 40
3.859178007230901
 40
3.859178007230901
 40
3.859178007230901
 10
-39.89248728752142
 20
8.113185882568059
 30
0.0
 10
-39.64157474927172
 20
7.926960276738412
 30
0.0
 10
-39.1329587528192
 20
7.549468889760537
 30
0.0
 10
-38.26267782319796
 20
7.137823454685072
 30
0.0
 10
-37.32721316687447
 20
6.844604309261387
 30
0.0
 10
-36.67402624431328
 20
6.783597046051921
 30
0.0
 10
-36.34598612785342
 20
6.752958297729067
 30
0.0
 11
-39.89248728752142
 21
8.113185882568059
 31
0.0
 11
-39.12376475334172
 21
7.580268859863071
 31
0.0
 11
-38.25955271720891
 21
7.160657882690081
 31
0.0
 11
-37.32377696037292
 21
6.879142761230095
 31
0.0
 11
-36.34598612785342
 21
6.752958297729067
 31
0.0
  0
SPLINE
  5
BE1E
330
1F
100
AcDbEntity
  8
AM_0
100
AcDbSpline
210
0.0
220
0.0
230
1.0
 70
     8
 71
     3
 72
    11
 73
     7
 74
     5
 42
0.0000000001
 43
0.0000000001
 44
0.0000000001
 40
0.0
 40
0.0
 40
0.0
 40
0.0
 40
0.9598742443065711
 40
1.921559051921609
 40
2.882405501106007
 40
3.839916089066381
 40
3.839916089066381
 40
3.839916089066381
 40
3.839916089066381
 10
-38.55918955802922
 20
16.01765632629407
 30
0.0
 10
-38.88002070372865
 20
16.00742796054617
 30
0.0
 10
-39.52228816304824
 20
15.98695193579
 30
0.0
 10
-40.4552609067639
 20
15.72900292783972
 30
0.0
 10
-41.33464636902632
 20
15.32620524388855
 30
0.0
 10
-41.83815439229822
 20
14.92865056815608
 30
0.0
 10
-42.08947062492373
 20
14.73021888732905
 30
0.0
 11
-38.55918955802922
 21
16.01765632629407
 31
0.0
 11
-39.51661753654483
 21
15.94917106628408
 31
0.0
 11
-40.446709394455
 21
15.70469856262207
 31
0.0
 11
-41.31503367424011
 21
15.29331207275405
 31
0.0
 11
-42.08947062492373
 21
14.73021888732905
 31
0.0
  0
SPLINE
  5
BE1F
330
1F
100
AcDbEntity
  8
AM_0
100
AcDbSpline
210
0.0
220
0.0
230
1.0
 70
     8
 71
     3
 72
    11
 73
     7
 74
     5
 42
0.0000000001
 43
0.0000000001
 44
0.0000000001
 40
0.0
 40
0.0
 40
0.0
 40
0.0
 40
1.170836850339662
 40
2.335820738947132
 40
3.494121292476975
 40
4.644932678467592
 40
4.644932678467592
 40
4.644932678467592
 40
4.644932678467592
 10
-38.55915904045114
 20
16.01760864257808
 30
0.0
 10
-38.16893315533839
 20
16.02443968296454
 30
0.0
 10
-37.39043210708735
 20
16.0380676156681
 30
0.0
 10
-36.22638582286996
 20
16.0786291899445
 30
0.0
 10
-35.06955922910002
 20
16.13250185090675
 30
0.0
 10
-34.30143447085709
 20
16.18199875919428
 30
0.0
 10
-33.91861772537232
 20
16.20666694641108
 30
0.0
 11
-38.55915904045114
 21
16.01760864257808
 31
0.0
 11
-37.38856577873233
 21
16.04149055480907
 31
0.0
 11
-36.22425150871283
 21
16.08098411560007
 31
0.0
 11
-35.06726121902473
 21
16.13606262207006
 31
0.0
 11
-33.91861772537232
 21
16.20666694641108
 31
0.0
  0
SPLINE
  5
BE20
330
1F
100
AcDbEntity
  8
AM_0
100
AcDbSpline
210
0.0
220
0.0
230
1.0
 70
     8
 71
     3
 72
    11
 73
     7
 74
     5
 42
0.0000000001
 43
0.0000000001
 44
0.0000000001
 40
0.0
 40
0.0
 40
0.0
 40
0.0
 40
1.722812897966577
 40
3.44406376955539
 40
5.277907519779058
 40
7.08957485768326
 40
7.08957485768326
 40
7.08957485768326
 40
7.08957485768326
 10
-37.10352396965034
 20
9.892013549805083
 30
0.0
 10
-37.3533700365646
 20
10.4355227899567
 30
0.0
 10
-37.85283564193649
 20
11.52204848559906
 30
0.0
 10
-37.10668220832593
 20
13.29309318889612
 30
0.0
 10
-35.59608373222482
 20
14.43499564050713
 30
0.0
 10
-34.35377877362802
 20
14.45474368915318
 30
0.0
 10
-33.73640489578253
 20
14.46455764770508
 30
0.0
 11
-37.10352396965034
 21
9.892013549805083
 31
0.0
 11
-37.60624766349793
 21
11.53984642028808
 31
0.0
 11
-37.00584483146675
 21
13.15298652648908
 31
0.0
 11
-35.53513407707212
 21
14.24842834472607
 31
0.0
 11
-33.73640489578253
 21
14.46455764770508
 31
0.0
  0
SPLINE
  5
BE21
330
1F
100
AcDbEntity
  8
AM_0
100
AcDbSpline
210
0.0
220
0.0
230
1.0
 70
     8
 71
     3
 72
    11
 73
     7
 74
     5
 42
0.0000000001
 43
0.0000000001
 44
0.0000000001
 40
0.0
 40
0.0
 40
0.0
 40
0.0
 40
0.8639669104205472
 40
1.727058386860321
 40
2.588887044869774
 40
3.449057881230298
 40
3.449057881230298
 40
3.449057881230298
 40
3.449057881230298
 10
-38.68328928947452
 20
7.44105339050309
 30
0.0
 10
-38.39543190334823
 20
7.432346646191888
 30
0.0
 10
-37.8200088090921
 20
7.414941979874753
 30
0.0
 10
-36.95749239222287
 20
7.387190063148982
 30
0.0
 10
-36.09627702219411
 20
7.358371291362671
 30
0.0
 10
-35.52263647297348
 20
7.338061978987932
 30
0.0
 10
-35.23609232902532
 20
7.327917098999057
 30
0.0
 11
-38.68328928947452
 21
7.44105339050309
 31
0.0
 11
-37.81972575187682
 21
7.414655685425084
 31
0.0
 11
-36.95707774162292
 21
7.386991500854091
 31
0.0
 11
-36.09573435783391
 21
7.358074188232054
 31
0.0
 11
-35.23609232902532
 21
7.327917098999057
 31
0.0
  0
ELLIPSE
  5
BE22
330
1F
100
AcDbEntity
  8
AM_0
100
AcDbEllipse
 10
51.3906211853027
 20
0.0000267028812387
 30
0.0
 11
316.8966407099629
 21
10.49388050356163
 31
0.0
210
0.0
220
0.0
230
1.0
 40
0.0351347079832
 41
4.395379931343946
 42
4.453900470710672
  0
ELLIPSE
  5
BE23
330
1F
100
AcDbEntity
  8
AM_0
100
AcDbEllipse
 10
-35.55488681793214
 20
12.32051849365207
 30
0.0
 11
5.797034697239695
 21
2.317328130814008
 31
0.0
210
0.0
220
0.0
230
1.0
 40
0.8237599727969
 41
3.598638584123909
 42
4.209798795829293
  0
LINE
  5
BE24
330
1F
100
AcDbEntity
  8
AM_3
100
AcDbLine
 10
-5.715030670166333
 20
2.798263549805133
 30
0.0
 11
-50.08015918731629
 21
-0.052543640136947
 31
0.0
  0
LINE
  5
BE25
330
1F
100
AcDbEntity
  8
AM_3
100
AcDbLine
 10
-5.554718017578289
 20
0.3034095764161497
 30
0.0
 11
-49.9198446273803
 21
-2.547397613525958
 31
0.0
  0
LINE
  5
BE27
330
1F
100
AcDbEntity
  8
AM_7
100
AcDbLine
 10
2.895149230956724
 20
0.0000000000001705
 30
0.0
 11
-234.6486962931945
 21
-0.0000000000003411
 31
0.0
  0
SPLINE
  5
BE45
330
1F
100
AcDbEntity
  8
AM_0
100
AcDbSpline
210
0.0
220
0.0
230
1.0
 70
     8
 71
     3
 72
    11
 73
     7
 74
     5
 42
0.0000000001
 43
0.0000000001
 44
0.0000000001
 40
0.0
 40
0.0
 40
0.0
 40
0.0
 40
1.821758811646646
 40
3.638431759337912
 40
5.446499573950674
 40
7.242446507508061
 40
7.242446507508061
 40
7.242446507508061
 40
7.242446507508061
 10
-0.2058601379403258
 20
-0.2915115356448573
 30
0.0
 10
-0.2836023087879076
 20
-0.893771809727619
 30
0.0
 10
-0.4388696151093436
 20
-2.096611008089791
 30
0.0
 10
-0.6911585749443312
 20
-3.894524996041111
 30
0.0
 10
-0.9555023532228696
 20
-5.682010522154853
 30
0.0
 10
-1.144666012698082
 20
-6.868371201013964
 30
0.0
 10
-1.238929748535315
 20
-7.45955657958986
 30
0.0
 11
-0.2058601379403258
 21
-0.2915115356448573
 31
0.0
 11
-0.4424133300783079
 21
-2.09784698486284
 31
0.0
 11
-0.6937828063973133
 21
-3.897045135497834
 31
0.0
 11
-0.959468841553271
 21
-5.685485839843851
 31
0.0
 11
-1.238929748535315
 21
-7.45955657958986
 31
0.0
  0
SPLINE
  5
BE46
330
1F
100
AcDbEntity
  8
AM_0
100
AcDbSpline
210
0.0
220
0.0
230
1.0
 70
     8
 71
     3
 72
    11
 73
     7
 74
     5
 42
0.0000000001
 43
0.0000000001
 44
0.0000000001
 40
0.0
 40
0.0
 40
0.0
 40
0.0
 40
0.1145178257336559
 40
0.229028024654747
 40
0.3435457512078934
 40
0.4580557518843954
 40
0.4580557518843954
 40
0.4580557518843954
 40
0.4580557518843954
 10
-28.80281925201427
 20
-12.98707580566391
 30
0.0
 10
-28.84097894271411
 20
-12.98806880682592
 30
0.0
 10
-28.91729578270327
 20
-12.9900547430167
 30
0.0
 10
-29.03177223740053
 20
-12.99303532989124
 30
0.0
 10
-29.14624622541674
 20
-12.99601043784894
 30
0.0
 10
-29.22256310194111
 20
-12.99799115210832
 30
0.0
 10
-29.26072025299065
 20
-12.99898147582993
 30
0.0
 11
-28.80281925201427
 21
-12.98707580566391
 31
0.0
 11
-28.91729831695628
 21
-12.9900550842289
 31
0.0
 11
-29.03176975250325
 21
-12.9930343627929
 31
0.0
 11
-29.14624881744387
 21
-12.99600982665991
 31
0.0
 11
-29.26072025299065
 21
-12.99898147582993
 31
0.0
  0
SPLINE
  5
BE48
330
1F
100
AcDbEntity
  8
AM_0
100
AcDbSpline
210
0.0
220
0.0
230
1.0
 70
     8
 71
     3
 72
    11
 73
     7
 74
     5
 42
0.0000000001
 43
0.0000000001
 44
0.0000000001
 40
0.0
 40
0.0
 40
0.0
 40
0.0
 40
0.1565878750287503
 40
0.3132677798455719
 40
0.4700126551620551
 40
0.6267880853861906
 40
0.6267880853861906
 40
0.6267880853861906
 40
0.6267880853861906
 10
-17.0684509277353
 20
7.567445755005137
 30
0.0
 10
-17.1014902276519
 20
7.60809951368189
 30
0.0
 10
-17.16758824533446
 20
7.68943092405262
 30
0.0
 10
-17.23356265159752
 20
7.832957024234464
 30
0.0
 10
-17.27495293623089
 20
7.985460575277521
 30
0.0
 10
-17.27641452175768
 20
8.090336987398007
 30
0.0
 10
-17.27714538574232
 20
8.142780303955133
 30
0.0
 11
-17.0684509277353
 21
7.567445755005137
 31
0.0
 11
-17.16204071044932
 21
7.692987442016117
 31
0.0
 11
-17.22945404052731
 21
7.834423065185117
 31
0.0
 11
-17.26841735839931
 21
7.986248016357134
 31
0.0
 11
-17.27714538574232
 21
8.142780303955133
 31
0.0
  0
SPLINE
  5
BE49
330
1F
100
AcDbEntity
  8
AM_0
100
AcDbSpline
210
0.0
220
0.0
230
1.0
 70
     8
 71
     3
 72
    11
 73
     7
 74
     5
 42
0.0000000001
 43
0.0000000001
 44
0.0000000001
 40
0.0
 40
0.0
 40
0.0
 40
0.0
 40
0.9587811487664787
 40
1.917780779491742
 40
2.87717711661276
 40
3.83708587571028
 40
3.83708587571028
 40
3.83708587571028
 40
3.83708587571028
 10
-4.493869781494305
 20
7.062009811401164
 30
0.0
 10
-4.173181334404136
 20
7.065806712552811
 30
0.0
 10
-3.531731363442754
 20
7.073401380073786
 30
0.0
 10
-2.597176797469168
 20
7.321211203941667
 30
0.0
 10
-1.71655756962616
 20
7.721181621456169
 30
0.0
 10
-1.214620459381318
 20
8.121455409505895
 30
0.0
 10
-0.9635848999023156
 20
8.321645736694149
 30
0.0
 11
-4.493869781494305
 21
7.062009811401164
 31
0.0
 11
-3.536434173584291
 21
7.112787246704158
 31
0.0
 11
-2.606349945069291
 21
7.346504211426125
 31
0.0
 11
-1.738021850586304
 21
7.754484176636148
 31
0.0
 11
-0.9635848999023156
 21
8.321645736694149
 31
0.0
  0
SPLINE
  5
BE4A
330
1F
100
AcDbEntity
  8
AM_0
100
AcDbSpline
210
0.0
220
0.0
230
1.0
 70
     8
 71
     3
 72
    11
 73
     7
 74
     5
 42
0.0000000001
 43
0.0000000001
 44
0.0000000001
 40
0.0
 40
0.0
 40
0.0
 40
0.0
 40
0.1563020463492654
 40
0.3126475648888923
 40
0.4690567148985442
 40
0.6255480328438282
 40
0.6255480328438282
 40
0.6255480328438282
 40
0.6255480328438282
 10
-0.7618789672853326
 20
16.15501976013215
 30
0.0
 10
-0.7098563530467614
 20
16.14971689816564
 30
0.0
 10
-0.6057966555524683
 20
16.13910969935092
 30
0.0
 10
-0.4579279261023573
 20
16.08443626962507
 30
0.0
 10
-0.3211231630151892
 20
16.00596955705073
 30
0.0
 10
-0.2461772532976888
 20
15.93288410785724
 30
0.0
 10
-0.2086944580083286
 20
15.89633178710915
 30
0.0
 11
-0.7618789672853326
 21
16.15501976013215
 31
0.0
 11
-0.6071853637703326
 21
16.13265419006314
 31
0.0
 11
-0.4598007202153322
 21
16.08048439025913
 31
0.0
 11
-0.3252143859863331
 21
16.00079536438015
 31
0.0
 11
-0.2086944580083286
 21
15.89633178710915
 31
0.0
  0
SPLINE
  5
BE4C
330
1F
100
AcDbEntity
  8
AM_0
100
AcDbSpline
210
0.0
220
0.0
230
1.0
 70
     8
 71
     3
 72
    11
 73
     7
 74
     5
 42
0.0000000001
 43
0.0000000001
 44
0.0000000001
 40
0.0
 40
0.0
 40
0.0
 40
0.0
 40
0.7832633864334712
 40
1.567359452035069
 40
2.350859030588972
 40
3.132394922780447
 40
3.132394922780447
 40
3.132394922780447
 40
3.132394922780447
 10
-30.48985385894783
 20
6.895008087158086
 30
0.0
 10
-30.22938801456362
 20
6.919861679372711
 30
0.0
 10
-29.70817942726223
 20
6.969595285397617
 30
0.0
 10
-28.95333915557315
 20
7.194034176023409
 30
0.0
 10
-28.23447643350199
 20
7.514231331276564
 30
0.0
 10
-27.80702017727657
 20
7.815241070655842
 30
0.0
 10
-27.59356021881132
 20
7.965557098389107
 30
0.0
 11
-30.48985385894783
 21
6.895008087158086
 31
0.0
 11
-29.71293735504152
 21
6.994518280029097
 31
0.0
 11
-28.95906162262033
 21
7.21010589599607
 31
0.0
 11
-28.24677371978833
 21
7.536476135254084
 31
0.0
 11
-27.59356021881132
 21
7.965557098389107
 31
0.0
  0
SPLINE
  5
BE4D
330
1F
100
AcDbEntity
  8
AM_0
100
AcDbSpline
210
0.0
220
0.0
230
1.0
 70
     8
 71
     3
 72
    11
 73
     7
 74
     5
 42
0.0000000001
 43
0.0000000001
 44
0.0000000001
 40
0.0
 40
0.0
 40
0.0
 40
0.0
 40
0.8767736061841308
 40
1.755239002980587
 40
2.633400462027504
 40
3.509286554642214
 40
3.509286554642214
 40
3.509286554642214
 40
3.509286554642214
 10
-30.49386692047121
 20
7.17801666259811
 30
0.0
 10
-30.20092704357209
 20
7.185983184086101
 30
0.0
 10
-29.61448204359143
 20
7.201931598973565
 30
0.0
 10
-28.75750847460885
 20
7.415867073022795
 30
0.0
 10
-27.94096164171902
 20
7.751923530807625
 30
0.0
 10
-27.45983929986312
 20
8.086933344544053
 30
0.0
 10
-27.21959018707333
 20
8.254220962524085
 30
0.0
 11
-30.49386692047121
 21
7.17801666259811
 31
0.0
 11
-29.61885166168212
 21
7.233516693115093
 31
0.0
 11
-28.76410770416333
 21
7.436283111572072
 31
0.0
 11
-27.95603275299131
 21
7.780059814453105
 31
0.0
 11
-27.21959018707333
 21
8.254220962524085
 31
0.0
  0
SPLINE
  5
BE50
330
1F
100
AcDbEntity
  8
AM_0
100
AcDbSpline
210
0.0
220
0.0
230
1.0
 70
     8
 71
     3
 72
    11
 73
     7
 74
     5
 42
0.0000000001
 43
0.0000000001
 44
0.0000000001
 40
0.0
 40
0.0
 40
0.0
 40
0.0
 40
0.0895386915592176
 40
0.1790773831174475
 40
0.2686160716090633
 40
0.3581547570737553
 40
0.3581547570737553
 40
0.3581547570737553
 40
0.3581547570737553
 10
-15.90083312988332
 20
15.2916393280031
 30
0.0
 10
-15.93067932134468
 20
15.29168761344205
 30
0.0
 10
-15.99037170426705
 20
15.29178418431995
 30
0.0
 10
-16.07991027663789
 20
15.29192965371007
 30
0.0
 10
-16.16944885093866
 20
15.29207267079715
 30
0.0
 10
-16.22914123515476
 20
15.29216651689363
 30
0.0
 10
-16.25898742675833
 20
15.29221343994109
 30
0.0
 11
-15.90083312988332
 21
15.2916393280031
 31
0.0
 11
-15.99037170410232
 21
15.29178428649911
 31
0.0
 11
-16.07991027832033
 21
15.29192924499509
 31
0.0
 11
-16.16944885253932
 21
15.2920722961421
 31
0.0
 11
-16.25898742675833
 21
15.29221343994109
 31
0.0
  0
SPLINE
  5
BE51
330
1F
100
AcDbEntity
  8
AM_0
100
AcDbSpline
210
0.0
220
0.0
230
1.0
 70
     8
 71
     3
 72
    11
 73
     7
 74
     5
 42
0.0000000001
 43
0.0000000001
 44
0.0000000001
 40
0.0
 40
0.0
 40
0.0
 40
0.0
 40
0.9587773394219901
 40
1.917780204991561
 40
2.877173089517306
 40
3.837082975571379
 40
3.837082975571379
 40
3.837082975571379
 40
3.837082975571379
 10
-12.55918884277432
 20
16.39198112487811
 30
0.0
 10
-12.87987591042472
 20
16.38818375849188
 30
0.0
 10
-13.52132547858774
 20
16.38058813249286
 30
0.0
 10
-14.45588015050097
 20
16.13278378395229
 30
0.0
 10
-15.33649846742664
 20
15.73281000204607
 30
0.0
 10
-15.83843436018961
 20
15.33253607426112
 30
0.0
 10
-16.08946990966833
 20
15.1323451995851
 30
0.0
 11
-12.55918884277432
 21
16.39198112487811
 31
0.0
 11
-13.51662063598633
 21
16.34120368957512
 31
0.0
 11
-14.44670867919933
 21
16.10748863220212
 31
0.0
 11
-15.31503295898532
 21
15.6995086669921
 31
0.0
 11
-16.08946990966833
 21
15.1323451995851
 31
0.0
  0
SPLINE
  5
BE52
330
1F
100
AcDbEntity
  8
AM_0
100
AcDbSpline
210
0.0
220
0.0
230
1.0
 70
     8
 71
     3
 72
    11
 73
     7
 74
     5
 42
0.0000000001
 43
0.0000000001
 44
0.0000000001
 40
0.0
 40
0.0
 40
0.0
 40
0.0
 40
2.371826915307034
 40
4.728099266148717
 40
7.103970158327127
 40
9.433477454072981
 40
9.433477454072981
 40
9.433477454072981
 40
9.433477454072981
 10
-9.296527862549313
 20
8.737665176391121
 30
0.0
 10
-10.04160031973107
 20
9.120325900610666
 30
0.0
 10
-11.52685901010759
 20
9.883137840086504
 30
0.0
 10
-11.80615459322708
 20
12.58543419037905
 30
0.0
 10
-10.19588080302536
 20
14.71211299647696
 30
0.0
 10
-8.550826799199924
 20
14.7143439124794
 30
0.0
 10
-7.73640441894534
 20
14.71544837951612
 30
0.0
 11
-9.296527862549313
 21
8.737665176391121
 31
0.0
 11
-11.20476150512732
 21
10.14628410339315
 31
0.0
 11
-11.49171829223634
 21
12.48501777648914
 31
0.0
 11
-10.03945541381932
 21
14.36536216735814
 31
0.0
 11
-7.73640441894534
 21
14.71544837951612
 31
0.0
  0
SPLINE
  5
BE53
330
1F
100
AcDbEntity
  8
AM_0
100
AcDbSpline
210
0.0
220
0.0
230
1.0
 70
     8
 71
     3
 72
    11
 73
     7
 74
     5
 42
0.0000000001
 43
0.0000000001
 44
0.0000000001
 40
0.0
 40
0.0
 40
0.0
 40
0.0
 40
1.170968263228009
 40
2.335502410965025
 40
3.492597629654885
 40
4.64127304835588
 40
4.64127304835588
 40
4.64127304835588
 40
4.64127304835588
 10
-12.55915832519534
 20
16.39196014404312
 30
0.0
 10
-12.16897204896662
 20
16.38159119079711
 30
0.0
 10
-11.39074345176664
 20
16.36091025855863
 30
0.0
 10
-10.22674647000594
 20
16.33875367073455
 30
0.0
 10
-9.070081332235059
 20
16.32263378612785
 30
0.0
 10
-8.301503091007951
 20
16.31789522201296
 30
0.0
 10
-7.918617248535332
 20
16.31553459167512
 30
0.0
 11
-12.55915832519534
 21
16.39196014404312
 31
0.0
 11
-11.38856506347733
 21
16.36232757568313
 31
0.0
 11
-10.22425079345735
 21
16.33969879150412
 31
0.0
 11
-9.067260742188329
 21
16.32409858703611
 31
0.0
 11
-7.918617248535332
 21
16.31553459167512
 31
0.0
  0
SPLINE
  5
BE54
330
1F
100
AcDbEntity
  8
AM_0
100
AcDbSpline
210
0.0
220
0.0
230
1.0
 70
     8
 71
     3
 72
    11
 73
     7
 74
     5
 42
0.0000000001
 43
0.0000000001
 44
0.0000000001
 40
0.0
 40
0.0
 40
0.0
 40
0.0
 40
1.425501677484592
 40
2.851005224630919
 40
4.276508411285955
 40
5.702010088770543
 40
5.702010088770543
 40
5.702010088770543
 40
5.702010088770543
 10
-16.0881729125983
 20
15.1307907104491
 30
0.0
 10
-16.18216477009814
 20
14.66501241208762
 30
0.0
 10
-16.3701486083758
 20
13.73345520445842
 30
0.0
 10
-16.6521197235382
 20
12.3361182609162
 30
0.0
 10
-16.93410734020304
 20
10.93878464733232
 30
0.0
 10
-17.12208895451305
 20
10.00722711349851
 30
0.0
 10
-17.21607971191432
 20
9.541448593140131
 30
0.0
 11
-16.0881729125983
 21
15.1307907104491
 31
0.0
 11
-16.37014770507832
 21
13.73345565795909
 31
0.0
 11
-16.65212249755934
 21
12.33611869812011
 31
0.0
 11
-16.93410491943433
 21
10.93878364563013
 31
0.0
 11
-17.21607971191432
 21
9.541448593140131
 31
0.0
  0
SPLINE
  5
BE55
330
1F
100
AcDbEntity
  8
AM_0
100
AcDbSpline
210
0.0
220
0.0
230
1.0
 70
     8
 71
     3
 72
    11
 73
     7
 74
     5
 42
0.0000000001
 43
0.0000000001
 44
0.0000000001
 40
0.0
 40
0.0
 40
0.0
 40
0.0
 40
2.341612893095675
 40
4.705908058259347
 40
7.059690531102413
 40
9.43647228501943
 40
9.43647228501943
 40
9.43647228501943
 40
9.43647228501943
 10
-7.73640441894534
 20
14.71544837951612
 30
0.0
 10
-7.011253987169287
 20
14.32900370953965
 30
0.0
 10
-5.553928880014718
 20
13.55237103388442
 30
0.0
 10
-5.207825972532426
 20
10.88653641751819
 30
0.0
 10
-6.802937851434625
 20
8.717119203002377
 30
0.0
 10
-8.46264145033859
 20
8.730794356425469
 30
0.0
 10
-9.296527862549313
 20
8.737665176391121
 30
0.0
 11
-7.73640441894534
 21
14.71544837951612
 31
0.0
 11
-5.86465835571331
 21
13.30842399597215
 31
0.0
 11
-5.531764984131353
 21
10.96768188476615
 31
0.0
 11
-6.945358276367332
 21
9.085649490356146
 31
0.0
 11
-9.296527862549313
 21
8.737665176391121
 31
0.0
  0
SPLINE
  5
BE56
330
1F
100
AcDbEntity
  8
AM_0
100
AcDbSpline
210
0.0
220
0.0
230
1.0
 70
     8
 71
     3
 72
    11
 73
     7
 74
     5
 42
0.0000000001
 43
0.0000000001
 44
0.0000000001
 40
0.0
 40
0.0
 40
0.0
 40
0.0
 40
1.810228951176155
 40
3.609105429559467
 40
5.39313882354983
 40
7.158880825528515
 40
7.158880825528515
 40
7.158880825528515
 40
7.158880825528515
 10
-0.7618865966803469
 20
16.15501403808614
 30
0.0
 10
-1.364878438494903
 20
16.17758115990375
 30
0.0
 10
-2.567080584725633
 20
16.22257387854775
 30
0.0
 10
-4.364204051668993
 20
16.26973142739359
 30
0.0
 10
-6.146808600907864
 20
16.30303571651139
 30
0.0
 10
-7.330046707915377
 20
16.31138263670971
 30
0.0
 10
-7.918617248535332
 20
16.31553459167512
 30
0.0
 11
-0.7618865966803469
 21
16.15501403808614
 31
0.0
 11
-2.570972442627327
 21
16.21933555603012
 31
0.0
 11
-4.369201660156341
 21
16.26758766174315
 31
0.0
 11
-6.152946472168344
 21
16.29967498779312
 31
0.0
 11
-7.918617248535332
 21
16.31553459167512
 31
0.0
  0
SPLINE
  5
BE57
330
1F
100
AcDbEntity
  8
AM_0
100
AcDbSpline
210
0.0
220
0.0
230
1.0
 70
     8
 71
     3
 72
    11
 73
     7
 74
     5
 42
0.0000000001
 43
0.0000000001
 44
0.0000000001
 40
0.0
 40
0.0
 40
0.0
 40
0.0
 40
0.0000232821574519
 40
0.0000465643141041
 40
0.0000698464713411
 40
0.000092089788266
 40
0.000092089788266
 40
0.000092089788266
 40
0.000092089788266
 10
-0.7619552612313271
 20
16.15496826171915
 30
0.0
 10
-0.7619489088345414
 20
16.15497272057109
 30
0.0
 10
-0.7619362040411881
 20
16.15498163827481
 30
0.0
 10
-0.7619170490713635
 20
16.15499486413552
 30
0.0
 10
-0.7618985643008639
 20
16.1550084871024
 30
0.0
 10
-0.7618853994884198
 20
16.15501606005769
 30
0.0
 10
-0.7618789672853326
 20
16.15501976013215
 30
0.0
 11
-0.7619552612313271
 21
16.15496826171915
 31
0.0
 11
-0.7619361877443454
 21
16.15498161315915
 31
0.0
 11
-0.7619171142583299
 21
16.15499496459913
 31
0.0
 11
-0.7618980407723143
 21
16.15500831604013
 31
0.0
 11
-0.7618789672853326
 21
16.15501976013215
 31
0.0
  0
SPLINE
  5
BE58
330
1F
100
AcDbEntity
  8
AM_0
100
AcDbSpline
210
0.0
220
0.0
230
1.0
 70
     8
 71
     3
 72
    11
 73
     7
 74
     5
 42
0.0000000001
 43
0.0000000001
 44
0.0000000001
 40
0.0
 40
0.0
 40
0.0
 40
0.0
 40
0.0177027512422213
 40
0.0364843557974802
 40
0.0563210486977751
 40
0.0772145896314308
 40
0.0772145896314308
 40
0.0772145896314308
 40
0.0772145896314308
 10
-25.45935916900731
 20
14.78429794311511
 30
0.0
 10
-25.46467396804676
 20
14.78173246286255
 30
0.0
 10
-25.47562746428551
 20
14.77644515508508
 30
0.0
 10
-25.49289339756456
 20
14.76906039708008
 30
0.0
 10
-25.51133618503764
 20
14.76174603197652
 30
0.0
 10
-25.52412569536193
 20
14.75718709515681
 30
0.0
 10
-25.53068637847932
 20
14.75484848022411
 30
0.0
 11
-25.45935916900731
 21
14.78429794311511
 31
0.0
 11
-25.47535800933932
 21
14.77672004699712
 31
0.0
 11
-25.49260044097932
 21
14.7692737579341
 31
0.0
 11
-25.51104831695633
 21
14.76198196411109
 31
0.0
 11
-25.53068637847932
 21
14.75484848022411
 31
0.0
  0
SPLINE
  5
BE59
330
1F
100
AcDbEntity
  8
AM_0
100
AcDbSpline
210
0.0
220
0.0
230
1.0
 70
     8
 71
     3
 72
    11
 73
     7
 74
     5
 42
0.0000000001
 43
0.0000000001
 44
0.0000000001
 40
0.0
 40
0.0
 40
0.0
 40
0.0
 40
0.1141754629673682
 40
0.2271586140574239
 40
0.3388723183919567
 40
0.4491674534554026
 40
0.4491674534554026
 40
0.4491674534554026
 40
0.4491674534554026
 10
-26.48365116119434
 20
10.0430107116701
 30
0.0
 10
-26.49010158290626
 20
10.00550283594468
 30
0.0
 10
-26.50293506584632
 20
9.930878771854294
 30
0.0
 10
-26.52219661925476
 20
9.819575678194548
 30
0.0
 10
-26.54129664488472
 20
9.709557313329471
 30
0.0
 10
-26.55403583027844
 20
9.636659096165251
 30
0.0
 10
-26.56036472320634
 20
9.600442886352096
 30
0.0
 11
-26.48365116119434
 21
10.0430107116701
 31
0.0
 11
-26.50302219390932
 21
9.930490493774087
 31
0.0
 11
-26.52227878570633
 21
9.819160461426109
 31
0.0
 11
-26.54139804840133
 21
9.709095001221088
 31
0.0
 11
-26.56036472320634
 21
9.600442886352096
 31
0.0
  0
SPLINE
  5
BE5A
330
1F
100
AcDbEntity
  8
AM_0
100
AcDbSpline
210
0.0
220
0.0
230
1.0
 70
     8
 71
     3
 72
    11
 73
     7
 74
     5
 42
0.0000000001
 43
0.0000000001
 44
0.0000000001
 40
0.0
 40
0.0
 40
0.0
 40
0.0
 40
0.0038371702095956
 40
0.0104027532129148
 40
0.0201812594088062
 40
0.0332705597129682
 40
0.0332705597129682
 40
0.0332705597129682
 40
0.0332705597129682
 10
-25.35205173492432
 20
15.2746944427491
 30
0.0
 10
-25.35272571045667
 20
15.2735808467664
 30
0.0
 10
-25.35455289057943
 20
15.27056183443331
 30
0.0
 10
-25.36103281607967
 20
15.26779266928905
 30
0.0
 10
-25.37006193116122
 20
15.26431547278311
 30
0.0
 10
-25.37747287298984
 20
15.26239109237111
 30
0.0
 10
-25.38171482086233
 20
15.26128959655812
 30
0.0
 11
-25.35205173492432
 21
15.2746944427491
 31
0.0
 11
-25.35427951812833
 21
15.2715702056881
 31
0.0
 11
-25.35996341705334
 21
15.2682838439941
 31
0.0
 11
-25.36911869049132
 21
15.26484870910608
 31
0.0
 11
-25.38171482086233
 21
15.26128959655812
 31
0.0
  0
SPLINE
  5
BE5B
330
1F
100
AcDbEntity
  8
AM_0
100
AcDbSpline
210
0.0
220
0.0
230
1.0
 70
     8
 71
     3
 72
    11
 73
     7
 74
     5
 42
0.0000000001
 43
0.0000000001
 44
0.0000000001
 40
0.0
 40
0.0
 40
0.0
 40
0.0
 40
0.9892703086720899
 40
1.989191404275814
 40
3.010134971573446
 40
4.047013584250219
 40
4.047013584250219
 40
4.047013584250219
 40
4.047013584250219
 10
-33.73640489578253
 20
14.46455764770508
 30
0.0
 10
-33.41413574539738
 20
14.3771018501175
 30
0.0
 10
-32.76612779631629
 20
14.20124867905768
 30
0.0
 10
-32.00111488268424
 20
13.50353371815578
 30
0.0
 10
-31.5018975824473
 20
12.58348042370125
 30
0.0
 10
-31.45925426947861
 20
11.89149803413069
 30
0.0
 10
-31.43776750564585
 20
11.5428276062011
 30
0.0
 11
-33.73640489578253
 21
14.46455764770508
 31
0.0
 11
-32.80483293533334
 21
14.13164710998508
 31
0.0
 11
-32.0514225959778
 21
13.47421646118208
 31
0.0
 11
-31.57669878005983
 21
12.57035636901809
 31
0.0
 11
-31.43776750564585
 21
11.5428276062011
 31
0.0
  0
SPLINE
  5
BE5C
330
1F
100
AcDbEntity
  8
AM_0
100
AcDbSpline
210
0.0
220
0.0
230
1.0
 70
     8
 71
     3
 72
    11
 73
     7
 74
     5
 42
0.0000000001
 43
0.0000000001
 44
0.0000000001
 40
0.0
 40
0.0
 40
0.0
 40
0.0
 40
1.37540742649502
 40
2.752016960275233
 40
4.125436184709093
 40
5.499813489539122
 40
5.499813489539122
 40
5.499813489539122
 40
5.499813489539122
 10
-31.43776750564585
 20
11.5428276062011
 30
0.0
 10
-31.51259938843416
 20
11.08258685000298
 30
0.0
 10
-31.66232855714135
 20
10.16170308678613
 30
0.0
 10
-32.60271279379393
 20
9.075156103143035
 30
0.0
 10
-33.91058741786758
 20
8.473231987244318
 30
0.0
 10
-34.83443827430873
 20
8.600412116372257
 30
0.0
 10
-35.29652476310733
 20
8.664024353027064
 30
0.0
 11
-31.43776750564585
 21
11.5428276062011
 31
0.0
 11
-31.78155565261844
 21
10.2110786437991
 31
0.0
 11
-32.66487932205203
 21
9.155241012573087
 31
0.0
 11
-33.92340135574344
 21
8.605329513550071
 31
0.0
 11
-35.29652476310733
 21
8.664024353027064
 31
0.0
  0
SPLINE
  5
BE5D
330
1F
100
AcDbEntity
  8
AM_0
100
AcDbSpline
210
0.0
220
0.0
230
1.0
 70
     8
 71
     3
 72
    11
 73
     7
 74
     5
 42
0.0000000001
 43
0.0000000001
 44
0.0000000001
 40
0.0
 40
0.0
 40
0.0
 40
0.0
 40
1.809098601607697
 40
3.607581068053187
 40
5.392562144681398
 40
7.161195896337448
 40
7.161195896337448
 40
7.161195896337448
 40
7.161195896337448
 10
-26.76188755035433
 20
16.40015411376908
 30
0.0
 10
-27.36492664471975
 20
16.40464244776874
 30
0.0
 10
-28.56746608518768
 20
16.41359277736928
 30
0.0
 10
-30.36484117114438
 20
16.3807425542476
 30
0.0
 10
-32.14790691258438
 20
16.31715488731769
 30
0.0
 10
-33.33019370479525
 20
16.24338313854365
 30
0.0
 10
-33.91861772537232
 20
16.20666694641108
 30
0.0
 11
-26.76188755035433
 21
16.40015411376908
 31
0.0
 11
-28.57097721099933
 21
16.40584182739209
 31
0.0
 11
-30.36920261383063
 21
16.3754348754881
 31
0.0
 11
-32.15294694900514
 21
16.30900001525909
 31
0.0
 11
-33.91861772537232
 21
16.20666694641108
 31
0.0
  0
SPLINE
  5
BE5E
330
1F
100
AcDbEntity
  8
AM_0
100
AcDbSpline
210
0.0
220
0.0
230
1.0
 70
     8
 71
     3
 72
    11
 73
     7
 74
     5
 42
0.0000000001
 43
0.0000000001
 44
0.0000000001
 40
0.0
 40
0.0
 40
0.0
 40
0.0
 40
0.5620901653934442
 40
1.123215510750411
 40
1.679243123432566
 40
2.226141428618581
 40
2.226141428618581
 40
2.226141428618581
 40
2.226141428618581
 10
-35.29652476310733
 20
8.664024353027064
 30
0.0
 10
-35.47564794952809
 20
8.720649797185872
 30
0.0
 10
-35.83358685988423
 20
8.833803488707562
 30
0.0
 10
-36.32207270652982
 20
9.113887534825364
 30
0.0
 10
-36.76055396091538
 20
9.45997810365073
 30
0.0
 10
-36.98983324194387
 20
9.748798624250955
 30
0.0
 10
-37.10352396965034
 20
9.892013549805083
 30
0.0
 11
-35.29652476310733
 21
8.664024353027064
 31
0.0
 11
-35.82608103752142
 21
8.852479934692073
 31
0.0
 11
-36.31583476066593
 21
9.126346588135081
 31
0.0
 11
-36.74736857414251
 21
9.476982116699105
 31
0.0
 11
-37.10352396965034
 21
9.892013549805083
 31
0.0
  0
SPLINE
  5
BE5F
330
1F
100
AcDbEntity
  8
AM_0
100
AcDbSpline
210
0.0
220
0.0
230
1.0
 70
     8
 71
     3
 72
    11
 73
     7
 74
     5
 42
0.0000000001
 43
0.0000000001
 44
0.0000000001
 40
0.0
 40
0.0
 40
0.0
 40
0.0
 40
0.1557883596080818
 40
0.310591681235242
 40
0.4642625098234802
 40
0.616796020176687
 40
0.616796020176687
 40
0.616796020176687
 40
0.616796020176687
 10
-26.76187992096033
 20
16.40016937255809
 30
0.0
 10
-26.70992453615964
 20
16.39613294143197
 30
0.0
 10
-26.60634227651542
 20
16.38808560122756
 30
0.0
 10
-26.45847733597039
 20
16.33846509828209
 30
0.0
 10
-26.32164845030125
 20
16.26569792578915
 30
0.0
 10
-26.24625307890359
 20
16.19633430476959
 30
0.0
 10
-26.20869541168234
 20
16.16178131103508
 30
0.0
 11
-26.76187992096033
 21
16.40016937255809
 31
0.0
 11
-26.60718631744434
 21
16.38173294067409
 31
0.0
 11
-26.45980167388933
 21
16.3343849182131
 31
0.0
 11
-26.32521152496432
 21
16.26022148132308
 31
0.0
 11
-26.20869541168234
 21
16.16178131103508
 31
0.0
  0
SPLINE
  5
BE60
330
1F
100
AcDbEntity
  8
AM_0
100
AcDbSpline
210
0.0
220
0.0
230
1.0
 70
     8
 71
     3
 72
    11
 73
     7
 74
     5
 42
0.0000000001
 43
0.0000000001
 44
0.0000000001
 40
0.0
 40
0.0
 40
0.0
 40
0.0
 40
0.0000275081734837
 40
0.0000490873598208
 40
0.0000765955324758
 40
0.0000981747188355
 40
0.0000981747188355
 40
0.0000981747188355
 40
0.0000981747188355
 10
-26.76195621490534
 20
16.4001083374021
 30
0.0
 10
-26.76194814329163
 20
16.40011288424459
 30
0.0
 10
-26.76193373978329
 20
16.40012099792372
 30
0.0
 10
-26.76191785652636
 20
16.40014169922776
 30
0.0
 10
-26.76189561893634
 20
16.40015154736961
 30
0.0
 10
-26.76188471459426
 20
16.40016392934501
 30
0.0
 10
-26.76187992096033
 20
16.40016937255809
 30
0.0
 11
-26.76195621490534
 21
16.4001083374021
 31
0.0
 11
-26.76193332672134
 21
16.4001235961911
 31
0.0
 11
-26.76191806793234
 21
16.40013885498008
 31
0.0
 11
-26.76189517974933
 21
16.40015411376908
 31
0.0
 11
-26.76187992096033
 21
16.40016937255809
 31
0.0
  0
SPLINE
  5
BE61
330
1F
100
AcDbEntity
  8
AM_0
100
AcDbSpline
210
0.0
220
0.0
230
1.0
 70
     8
 71
     3
 72
    11
 73
     7
 74
     5
 42
0.0000000001
 43
0.0000000001
 44
0.0000000001
 40
0.0
 40
0.0
 40
0.0
 40
0.0
 40
0.1515897537518374
 40
0.3025933211428606
 40
0.453435731638117
 40
0.6045687802198369
 40
0.6045687802198369
 40
0.6045687802198369
 40
0.6045687802198369
 10
-26.20869541168234
 20
16.16178131103508
 30
0.0
 10
-26.17568012059152
 20
16.12326951758669
 30
0.0
 10
-26.10977720609755
 20
16.04639485294547
 30
0.0
 10
-26.04359920713966
 20
15.90902278003793
 30
0.0
 10
-26.00217263055034
 20
15.76242044162617
 30
0.0
 10
-26.00072531029367
 20
15.66137750954888
 30
0.0
 10
-26.00000095367432
 20
15.61080741882312
 30
0.0
 11
-26.20869541168234
 21
16.16178131103508
 31
0.0
 11
-26.11510562896732
 21
16.04253196716309
 31
0.0
 11
-26.04769229888933
 21
15.90741157531712
 31
0.0
 11
-26.00872898101833
 21
15.76168823242208
 31
0.0
 11
-26.00000095367432
 21
15.61080741882312
 31
0.0
  0
SPLINE
  5
BE62
330
1F
100
AcDbEntity
  8
AM_0
100
AcDbSpline
210
0.0
220
0.0
230
1.0
 70
     8
 71
     3
 72
    11
 73
     7
 74
     5
 42
0.0000000001
 43
0.0000000001
 44
0.0000000001
 40
0.0
 40
0.0
 40
0.0
 40
0.0
 40
0.0830421408332424
 40
0.166055456960313
 40
0.2490141024761363
 40
0.3319544282541301
 40
0.3319544282541301
 40
0.3319544282541301
 40
0.3319544282541301
 10
-27.21959018707333
 20
8.254220962524085
 30
0.0
 10
-27.19776343244799
 20
8.271245923371202
 30
0.0
 10
-27.15411749946862
 20
8.305289935541802
 30
0.0
 10
-27.08970199112629
 20
8.357646197154839
 30
0.0
 10
-27.02607020616506
 20
8.410899971032261
 30
0.0
 10
-26.98441243772475
 20
8.447270730157638
 30
0.0
 10
-26.96358585357732
 20
8.465454101562087
 30
0.0
 11
-27.21959018707333
 21
8.254220962524085
 31
0.0
 11
-27.15428256988534
 21
8.305513381958105
 31
0.0
 11
-27.08981418609634
 21
8.357810974121104
 31
0.0
 11
-27.02625370025732
 21
8.411123275757104
 31
0.0
 11
-26.96358585357732
 21
8.465454101562087
 31
0.0
  0
SPLINE
  5
BE63
330
1F
100
AcDbEntity
  8
AM_0
100
AcDbSpline
210
0.0
220
0.0
230
1.0
 70
     8
 71
     3
 72
    11
 73
     7
 74
     5
 42
0.0000000001
 43
0.0000000001
 44
0.0000000001
 40
0.0
 40
0.0
 40
0.0
 40
0.0
 40
0.1565894042183847
 40
0.3132693895481509
 40
0.4700133656883786
 40
0.6267887959126023
 40
0.6267887959126023
 40
0.6267887959126023
 40
0.6267887959126023
 10
-0.2086944580083286
 20
15.89633178710915
 30
0.0
 10
-0.1756546603164074
 20
15.85567758627878
 30
0.0
 10
-0.1095559526458195
 20
15.77434566768397
 30
0.0
 10
-0.0435894104378404
 20
15.63081603632779
 30
0.0
 10
-0.0021907283851868
 20
15.47831526431036
 30
0.0
 10
-0.0007302916350985
 20
15.3734388159146
 30
0.0
 10
-0.0000000000003147
 20
15.32099533081013
 30
0.0
 11
-0.2086944580083286
 21
15.89633178710915
 31
0.0
 11
-0.1151046752933422
 21
15.77078819274915
 31
0.0
 11
-0.0476951599123117
 21
15.62935066223115
 31
0.0
 11
-0.0087280273443212
 21
15.47752761840816
 31
0.0
 11
-0.0000000000003147
 21
15.32099533081013
 31
0.0
  0
SPLINE
  5
BE69
330
1F
100
AcDbEntity
  8
AM_0
100
AcDbSpline
210
0.0
220
0.0
230
1.0
 70
     8
 71
     3
 72
    11
 73
     7
 74
     5
 42
0.0000000001
 43
0.0000000001
 44
0.0000000001
 40
0.0
 40
0.0
 40
0.0
 40
0.0
 40
0.0000202753944087
 40
0.0000467731285873
 40
0.0000732708624355
 40
0.0000923443482213
 40
0.0000923443482213
 40
0.0000923443482213
 40
0.0000923443482213
 10
-16.51519012451231
 20
7.308807373047104
 30
0.0
 10
-16.51519504234176
 20
7.30880268927433
 30
0.0
 10
-16.51520638723915
 20
7.308791884320216
 30
0.0
 10
-16.51522837169515
 20
7.308780792783974
 30
0.0
 10
-16.51524945042091
 20
7.308769216193508
 30
0.0
 10
-16.51526141202099
 20
7.308759811074711
 30
0.0
 10
-16.51526641845731
 20
7.308755874634102
 30
0.0
 11
-16.51519012451231
 21
7.308807373047104
 31
0.0
 11
-16.51520538330131
 21
7.308794021606106
 31
0.0
 11
-16.5152282714853
 21
7.308780670166102
 31
0.0
 11
-16.51525115966833
 21
7.308767318725104
 31
0.0
 11
-16.51526641845731
 21
7.308755874634102
 31
0.0
  0
SPLINE
  5
BE6A
330
1F
100
AcDbEntity
  8
AM_0
100
AcDbSpline
210
0.0
220
0.0
230
1.0
 70
     8
 71
     3
 72
    11
 73
     7
 74
     5
 42
0.0000000001
 43
0.0000000001
 44
0.0000000001
 40
0.0
 40
0.0
 40
0.0
 40
0.0
 40
0.1563093243350737
 40
0.3126482872652296
 40
0.4690607197425443
 40
0.6255504706242665
 40
0.6255504706242665
 40
0.6255504706242665
 40
0.6255504706242665
 10
-16.51526641845731
 20
7.308755874634102
 30
0.0
 10
-16.56729186944825
 20
7.314057106381354
 30
0.0
 10
-16.67135263623686
 20
7.324660575069
 30
0.0
 10
-16.81921933368301
 20
7.379343225382569
 30
0.0
 10
-16.95602593984695
 20
7.457803346060623
 30
0.0
 10
-17.03096975887801
 20
7.530892265244919
 30
0.0
 10
-17.0684509277353
 20
7.567445755005137
 30
0.0
 11
-16.51526641845731
 21
7.308755874634102
 31
0.0
 11
-16.66996765136732
 21
7.331119537353117
 31
0.0
 11
-16.81734466552731
 21
7.383291244507119
 31
0.0
 11
-16.95193481445331
 21
7.46298027038614
 31
0.0
 11
-17.0684509277353
 21
7.567445755005137
 31
0.0
  0
SPLINE
  5
BE6B
330
1F
100
AcDbEntity
  8
AM_0
100
AcDbSpline
210
0.0
220
0.0
230
1.0
 70
     8
 71
     3
 72
    11
 73
     7
 74
     5
 42
0.0000000001
 43
0.0000000001
 44
0.0000000001
 40
0.0
 40
0.0
 40
0.0
 40
0.0
 40
1.188289158294603
 40
2.375566381115483
 40
3.560809326858643
 40
4.74299981367149
 40
4.74299981367149
 40
4.74299981367149
 40
4.74299981367149
 10
-4.49387741088932
 20
7.062030792236153
 30
0.0
 10
-4.889832844128299
 20
7.072642012786773
 30
0.0
 10
-5.681406518815765
 20
7.093855417475941
 30
0.0
 10
-6.868125723595523
 20
7.116991705632853
 30
0.0
 10
-8.052911118897993
 20
7.134311021826039
 30
0.0
 10
-8.842037269706358
 20
7.140035964349258
 30
0.0
 10
-9.236091613770293
 20
7.142894744873106
 30
0.0
 11
-4.49387741088932
 21
7.062030792236153
 31
0.0
 11
-5.681777954102324
 21
7.092418670654146
 31
0.0
 11
-6.868820190430308
 21
7.116039276123147
 31
0.0
 11
-8.053943634033283
 21
7.132869720459136
 31
0.0
 11
-9.236091613770293
 21
7.142894744873106
 31
0.0
  0
SPLINE
  5
BE6C
330
1F
100
AcDbEntity
  8
AM_0
100
AcDbSpline
210
0.0
220
0.0
230
1.0
 70
     8
 71
     3
 72
    11
 73
     7
 74
     5
 42
0.0000000001
 43
0.0000000001
 44
0.0000000001
 40
0.0
 40
0.0
 40
0.0
 40
0.0
 40
1.82145007585351
 40
3.644111442824809
 40
5.464453255208013
 40
7.278946106850787
 40
7.278946106850787
 40
7.278946106850787
 40
7.278946106850787
 10
-16.51281738281331
 20
7.308662414551095
 30
0.0
 10
-15.90608796337139
 20
7.285954649728756
 30
0.0
 10
-14.6922256404907
 20
7.240524019086141
 30
0.0
 10
-12.87134893633662
 20
7.192378982262776
 30
0.0
 10
-11.05248741311938
 20
7.157578990990754
 30
0.0
 10
-9.840907012403643
 20
7.147784239867786
 30
0.0
 10
-9.236091613770293
 20
7.142894744873106
 30
0.0
 11
-16.51281738281331
 21
7.308662414551095
 31
0.0
 11
-14.69252014160232
 21
7.243867874145118
 31
0.0
 11
-12.87052536010829
 21
7.194578170776129
 31
0.0
 11
-11.05049514770532
 21
7.160898208618132
 31
0.0
 11
-9.236091613770293
 21
7.142894744873106
 31
0.0
  0
SPLINE
  5
BE6D
330
1F
100
AcDbEntity
  8
AM_0
100
AcDbSpline
210
0.0
220
0.0
230
1.0
 70
     8
 71
     3
 72
    11
 73
     7
 74
     5
 42
0.0000000001
 43
0.0000000001
 44
0.0000000001
 40
0.0
 40
0.0
 40
0.0
 40
0.0
 40
0.2894245074848524
 40
0.5716297693116488
 40
0.8458126471218228
 40
1.109699214210712
 40
1.109699214210712
 40
1.109699214210712
 40
1.109699214210712
 10
-28.95345401763932
 20
7.130331039429085
 30
0.0
 10
-29.03960014720532
 20
7.086803018907438
 30
0.0
 10
-29.20974362468358
 20
7.000832716856625
 30
0.0
 10
-29.47179944933272
 20
6.896103288349373
 30
0.0
 10
-29.73134872395164
 20
6.809178343234846
 30
0.0
 10
-29.90597426535303
 20
6.767889826649941
 30
0.0
 10
-29.99161624908452
 20
6.747640609741097
 30
0.0
 11
-28.95345401763932
 21
7.130331039429085
 31
0.0
 11
-29.21367740631102
 21
7.00364112854007
 31
0.0
 11
-29.47522830963142
 21
6.897665023804083
 31
0.0
 11
-29.73574161529543
 21
6.812171936035073
 31
0.0
 11
-29.99161624908452
 21
6.747640609741097
 31
0.0
  0
SPLINE
  5
BE6E
330
1F
100
AcDbEntity
  8
AM_0
100
AcDbSpline
210
0.0
220
0.0
230
1.0
 70
     8
 71
     3
 72
    11
 73
     7
 74
     5
 42
0.0000000001
 43
0.0000000001
 44
0.0000000001
 40
0.0
 40
0.0
 40
0.0
 40
0.0
 40
0.1410208858835223
 40
0.2820692396444377
 40
0.4232473554935539
 40
0.5646280190165907
 40
0.5646280190165907
 40
0.5646280190165907
 40
0.5646280190165907
 10
-28.39821720123334
 20
7.226613998413093
 30
0.0
 10
-28.44354471579619
 20
7.214103826226312
 30
0.0
 10
-28.53420857376031
 20
7.189081045136564
 30
0.0
 10
-28.67274644638516
 20
7.16185993071304
 30
0.0
 10
-28.81252396484433
 20
7.141245275033783
 30
0.0
 10
-28.90645488908826
 20
7.133970856147012
 30
0.0
 10
-28.95345401763932
 20
7.130331039429085
 30
0.0
 11
-28.39821720123334
 21
7.226613998413093
 31
0.0
 11
-28.53461551666333
 21
7.190803527832094
 31
0.0
 11
-28.6728906631473
 21
7.162971496582093
 31
0.0
 11
-28.8126306533823
 21
7.142871856689087
 31
0.0
 11
-28.95345401763932
 21
7.130331039429085
 31
0.0
  0
SPLINE
  5
BE6F
330
1F
100
AcDbEntity
  8
AM_0
100
AcDbSpline
210
0.0
220
0.0
230
1.0
 70
     8
 71
     3
 72
    11
 73
     7
 74
     5
 42
0.0000000001
 43
0.0000000001
 44
0.0000000001
 40
0.0
 40
0.0
 40
0.0
 40
0.0
 40
0.0268713004956647
 40
0.0537459594873805
 40
0.080611728383117
 40
0.1074793168998642
 40
0.1074793168998642
 40
0.1074793168998642
 40
0.1074793168998642
 10
-15.39536285400432
 20
6.658897399902121
 30
0.0
 10
-15.40431996752979
 20
6.658935592928585
 30
0.0
 10
-15.4222353140811
 20
6.659011983755049
 30
0.0
 10
-15.44910225193327
 20
6.659491954696689
 30
0.0
 10
-15.47596251971095
 20
6.660215051368838
 30
0.0
 10
-15.4938590493471
 20
6.660942596393848
 30
0.0
 10
-15.50280761718832
 20
6.661306381225108
 30
0.0
 11
-15.39536285400432
 21
6.658897399902121
 31
0.0
 11
-15.42223358154333
 21
6.659072875976113
 31
0.0
 11
-15.44910430908229
 21
6.659532546997104
 31
0.0
 11
-15.47595977783229
 21
6.660276412964129
 31
0.0
 11
-15.50280761718832
 21
6.661306381225108
 31
0.0
  0
SPLINE
  5
BE70
330
1F
100
AcDbEntity
  8
AM_0
100
AcDbSpline
210
0.0
220
0.0
230
1.0
 70
     8
 71
     3
 72
    11
 73
     7
 74
     5
 42
0.0000000001
 43
0.0000000001
 44
0.0000000001
 40
0.0
 40
0.0
 40
0.0
 40
0.0
 40
0.6889686111910706
 40
1.428884485093811
 40
2.175883679488829
 40
2.923626969158353
 40
2.923626969158353
 40
2.923626969158353
 40
2.923626969158353
 10
-5.477249145508297
 20
2.105741500854143
 30
0.0
 10
-5.531012988316161
 20
1.856309894213865
 30
0.0
 10
-5.642516356683511
 20
1.339001925416615
 30
0.0
 10
-4.888895059992228
 20
0.9417943213334318
 30
0.0
 10
-4.219180070205195
 20
0.6928275372257701
 30
0.0
 10
-3.725587403511257
 20
0.5943062320704852
 30
0.0
 10
-3.478668212891301
 20
0.545021057129163
 30
0.0
 11
-5.477249145508297
 21
2.105741500854143
 31
0.0
 11
-5.497558593750311
 21
1.417072296142143
 31
0.0
 11
-4.908527374268286
 21
0.969280242920144
 31
0.0
 11
-4.208007812500308
 21
0.7098960876461411
 31
0.0
 11
-3.478668212891301
 21
0.545021057129163
 31
0.0
  0
SPLINE
  5
BE71
330
1F
100
AcDbEntity
  8
AM_0
100
AcDbSpline
210
0.0
220
0.0
230
1.0
 70
     8
 71
     3
 72
    11
 73
     7
 74
     5
 42
0.0000000001
 43
0.0000000001
 44
0.0000000001
 40
0.0
 40
0.0
 40
0.0
 40
0.0
 40
1.188377296142531
 40
2.375973696065569
 40
3.561725406482251
 40
4.744592135790733
 40
4.744592135790733
 40
4.744592135790733
 40
4.744592135790733
 10
-30.49388217926033
 20
7.178007125854092
 30
0.0
 10
-30.88985278230531
 20
7.189099181934164
 30
0.0
 10
-31.68153379161438
 20
7.21127600537827
 30
0.0
 10
-32.86821732663126
 20
7.247717230802284
 30
0.0
 10
-34.0529974465409
 20
7.286235751263869
 30
0.0
 10
-34.8420477230368
 20
7.314034602769428
 30
0.0
 10
-35.23609232902532
 20
7.327917098999057
 30
0.0
 11
-30.49388217926033
 21
7.178007125854092
 31
0.0
 11
-31.68177843093871
 21
7.211816787720088
 31
0.0
 11
-32.86882066726681
 21
7.248092651367089
 31
0.0
 11
-34.05394029617311
 21
7.286804199219075
 31
0.0
 11
-35.23609232902532
 21
7.327917098999057
 31
0.0
  0
SPLINE
  5
BE84
330
1F
100
AcDbEntity
  8
AM_0
100
AcDbSpline
210
0.0
220
0.0
230
1.0
 70
     8
 71
     3
 72
    11
 73
     7
 74
     5
 42
0.0000000001
 43
0.0000000001
 44
0.0000000001
 40
0.0
 40
0.0
 40
0.0
 40
0.0
 40
0.0140587664743375
 40
0.0289071309796258
 40
0.0447955250635611
 40
0.0619295935844512
 40
0.0619295935844512
 40
0.0619295935844512
 40
0.0619295935844512
 10
-12.35339355468827
 20
-14.51392364501987
 30
0.0
 10
-12.35446865767001
 20
-14.50935220191398
 30
0.0
 10
-12.35667924582981
 20
-14.49995256469337
 30
0.0
 10
-12.36289160293474
 20
-14.48628949876442
 30
0.0
 10
-12.37113315397107
 20
-14.47257868153379
 30
0.0
 10
-12.37810188106188
 20
-14.46404024645685
 30
0.0
 10
-12.38171768188529
 20
-14.45960998535185
 30
0.0
 11
-12.35339355468827
 21
-14.51392364501987
 31
0.0
 11
-12.35704421997129
 21
-14.50034713745086
 31
0.0
 11
-12.36298751831127
 21
-14.48674011230486
 31
0.0
 11
-12.37121582031327
 21
-14.47314834594688
 31
0.0
 11
-12.38171768188529
 21
-14.45960998535185
 31
0.0
  0
SPLINE
  5
BE85
330
1F
100
AcDbEntity
  8
AM_0
100
AcDbSpline
210
0.0
220
0.0
230
1.0
 70
     8
 71
     3
 72
    11
 73
     7
 74
     5
 42
0.0000000001
 43
0.0000000001
 44
0.0000000001
 40
0.0
 40
0.0
 40
0.0
 40
0.0
 40
0.0553051269291166
 40
0.1159473280876359
 40
0.1835513957192327
 40
0.2589119007258076
 40
0.2589119007258076
 40
0.2589119007258076
 40
0.2589119007258076
 10
-12.37387847900426
 20
-13.40286254882784
 30
0.0
 10
-12.37909489962791
 20
-13.38508223363617
 30
0.0
 10
-12.39003113767811
 20
-13.34780576120943
 30
0.0
 10
-12.42458714282373
 20
-13.29638641982765
 30
0.0
 10
-12.47135917663185
 20
-13.24681993676774
 30
0.0
 10
-12.51020744732909
 20
-13.21902176293028
 30
0.0
 10
-12.53068542480527
 20
-13.20436859130885
 30
0.0
 11
-12.37387847900426
 21
-13.40286254882784
 31
0.0
 11
-12.39200592041026
 21
-13.35061264038086
 31
0.0
 11
-12.42446517944425
 21
-13.29938888549785
 31
0.0
 11
-12.47092056274427
 21
-13.25027465820284
 31
0.0
 11
-12.53068542480527
 21
-13.20436859130885
 31
0.0
  0
SPLINE
  5
BE86
330
1F
100
AcDbEntity
  8
AM_0
100
AcDbSpline
210
0.0
220
0.0
230
1.0
 70
     8
 71
     3
 72
    11
 73
     7
 74
     5
 42
0.0000000001
 43
0.0000000001
 44
0.0000000001
 40
0.0
 40
0.0
 40
0.0
 40
0.0
 40
0.0091479717389457
 40
0.018332309157576
 40
0.0275683915962149
 40
0.0368806934861961
 40
0.0368806934861961
 40
0.0368806934861961
 40
0.0368806934861961
 10
-12.36974716186528
 20
-13.43946075439487
 30
0.0
 10
-12.36984297631783
 20
-13.43641226178372
 30
0.0
 10
-12.37003498611149
 20
-13.43030315797284
 30
0.0
 10
-12.37089157669102
 20
-13.42114919255466
 30
0.0
 10
-12.37210951156614
 20
-13.41198136802911
 30
0.0
 10
-12.37328721004957
 20
-13.40591047078554
 30
0.0
 10
-12.37387847900426
 20
-13.40286254882784
 30
0.0
 11
-12.36974716186528
 21
-13.43946075439487
 31
0.0
 11
-12.37012863159226
 21
-13.43032073974587
 31
0.0
 11
-12.37094879150426
 21
-13.42117309570284
 31
0.0
 11
-12.37219619751026
 21
-13.41202163696286
 31
0.0
 11
-12.37387847900426
 21
-13.40286254882784
 31
0.0
  0
SPLINE
  5
BE87
330
1F
100
AcDbEntity
  8
AM_0
100
AcDbSpline
210
0.0
220
0.0
230
1.0
 70
     8
 71
     3
 72
    11
 73
     7
 74
     5
 42
0.0000000001
 43
0.0000000001
 44
0.0000000001
 40
0.0
 40
0.0
 40
0.0
 40
0.0
 40
1.541351503526509
 40
2.984580134278022
 40
4.505777066486758
 40
6.122010661125002
 40
6.122010661125002
 40
6.122010661125002
 40
6.122010661125002
 10
-6.289196014404278
 20
-9.094562530517873
 30
0.0
 10
-6.795739600656198
 20
-8.903031218131539
 30
0.0
 10
-7.776580065154067
 20
-8.532161530891109
 30
0.0
 10
-8.236623904265043
 20
-6.906342361718134
 30
0.0
 10
-7.467286786725123
 20
-5.341758932288191
 30
0.0
 10
-6.368008209818418
 20
-5.198287093646503
 30
0.0
 10
-5.801719665527286
 20
-5.124378204345853
 30
0.0
 11
-6.289196014404278
 21
-9.094562530517873
 31
0.0
 11
-7.628501892090282
 21
-8.331657409667871
 31
0.0
 11
-8.038913726807313
 21
-6.948013305663852
 31
0.0
 11
-7.348701477051261
 21
-5.592414855956876
 31
0.0
 11
-5.801719665527286
 21
-5.124378204345853
 31
0.0
  0
SPLINE
  5
BE88
330
1F
100
AcDbEntity
  8
AM_0
100
AcDbSpline
210
0.0
220
0.0
230
1.0
 70
     8
 71
     3
 72
    11
 73
     7
 74
     5
 42
0.0000000001
 43
0.0000000001
 44
0.0000000001
 40
0.0
 40
0.0
 40
0.0
 40
0.0
 40
0.1266187324491209
 40
0.2536131073056787
 40
0.381021576305753
 40
0.5087988736203695
 40
0.5087988736203695
 40
0.5087988736203695
 40
0.5087988736203695
 10
-22.87171173095728
 20
-5.003501892089897
 30
0.0
 10
-22.8699805436898
 20
-4.961327570285976
 30
0.0
 10
-22.86651303320582
 20
-4.876853807247006
 30
0.0
 10
-22.85641674509741
 20
-4.75022401734785
 30
0.0
 10
-22.84299219592035
 20
-4.623512722355497
 30
0.0
 10
-22.83061985512425
 20
-4.539347341045046
 30
0.0
 10
-22.82442474365228
 20
-4.497203826903895
 30
0.0
 11
-22.87171173095728
 21
-5.003501892089897
 31
0.0
 11
-22.86570739746131
 21
-4.877025604247902
 31
0.0
 11
-22.85588073730531
 21
-4.750411987304911
 31
0.0
 11
-22.84215545654331
 21
-4.623744964599918
 31
0.0
 11
-22.82442474365228
 21
-4.497203826903895
 31
0.0
  0
SPLINE
  5
BE89
330
1F
100
AcDbEntity
  8
AM_0
100
AcDbSpline
210
0.0
220
0.0
230
1.0
 70
     8
 71
     3
 72
    11
 73
     7
 74
     5
 42
0.0000000001
 43
0.0000000001
 44
0.0000000001
 40
0.0
 40
0.0
 40
0.0
 40
0.0
 40
1.698889600763778
 40
3.394702162393734
 40
5.077404763867463
 40
6.763568327936878
 40
6.763568327936878
 40
6.763568327936878
 40
6.763568327936878
 10
-22.82442474365228
 20
-4.497203826903895
 30
0.0
 10
-22.67610843099112
 20
-3.938241905450625
 30
0.0
 10
-22.37974443707253
 20
-2.82133045776144
 30
0.0
 10
-20.6228026248198
 20
-1.828735681826231
 30
0.0
 10
-18.96612219081994
 20
-3.017535987165171
 30
0.0
 10
-18.88706515816867
 20
-4.173265716328222
 30
0.0
 10
-18.84749603271529
 20
-4.751724243163871
 30
0.0
 11
-22.82442474365228
 21
-4.497203826903895
 31
0.0
 11
-22.15950012207031
 21
-2.933841705321889
 31
0.0
 11
-20.63437652587931
 21
-2.192371368407877
 31
0.0
 11
-19.22245788574231
 21
-3.107780456542863
 31
0.0
 11
-18.84749603271529
 21
-4.751724243163871
 31
0.0
  0
SPLINE
  5
BE96
330
1F
100
AcDbEntity
  8
AM_0
100
AcDbSpline
210
0.0
220
0.0
230
1.0
 70
     8
 71
     3
 72
    11
 73
     7
 74
     5
 42
0.0000000001
 43
0.0000000001
 44
0.0000000001
 40
0.0
 40
0.0
 40
0.0
 40
0.0
 40
0.2067178885637166
 40
0.4134577958413037
 40
0.6202053316156058
 40
0.8269219775973478
 40
0.8269219775973478
 40
0.8269219775973478
 40
0.8269219775973478
 10
-1.765941619873319
 20
-0.9072303771968595
 30
0.0
 10
-1.714344618118445
 20
-0.9535426204532944
 30
0.0
 10
-1.611145118714626
 20
-1.046172039950145
 30
0.0
 10
-1.508797415261096
 20
-1.229267835518805
 30
0.0
 10
-1.450268598961828
 20
-1.430705796858686
 30
0.0
 10
-1.456829503504593
 20
-1.569228685177458
 30
0.0
 10
-1.460109710694311
 20
-1.63848495483386
 30
0.0
 11
-1.765941619873319
 21
-0.9072303771968595
 31
0.0
 11
-1.619892120361316
 21
-1.053524017333861
 31
0.0
 11
-1.516101837158303
 21
-1.232322692870856
 31
0.0
 11
-1.461662292481307
 21
-1.43177413940386
 31
0.0
 11
-1.460109710694311
 21
-1.63848495483386
 31
0.0
  0
SPLINE
  5
BE97
330
1F
100
AcDbEntity
  8
AM_0
100
AcDbSpline
210
0.0
220
0.0
230
1.0
 70
     8
 71
     3
 72
    11
 73
     7
 74
     5
 42
0.0000000001
 43
0.0000000001
 44
0.0000000001
 40
0.0
 40
0.0
 40
0.0
 40
0.0
 40
1.183274064975008
 40
2.362815044655145
 40
3.537599609723539
 40
4.706635448787387
 40
4.706635448787387
 40
4.706635448787387
 40
4.706635448787387
 10
-1.9374313354493
 20
-12.11397171020487
 30
0.0
 10
-1.882753613966461
 20
-11.72335405394543
 30
0.0
 10
-1.773570672540421
 20
-10.94335109246986
 30
0.0
 10
-1.601478239214699
 20
-9.776767873513394
 30
0.0
 10
-1.42429577839625
 20
-8.615747332001967
 30
0.0
 10
-1.30061730909864
 20
-7.844322801942928
 30
0.0
 10
-1.238929748535315
 20
-7.45955657958986
 30
0.0
 11
-1.9374313354493
 21
-12.11397171020487
 31
0.0
 11
-1.77195358276427
 21
-10.94232559204086
 31
0.0
 11
-1.600276947022286
 21
-9.775344848632858
 31
0.0
 11
-1.422546386719302
 21
-8.614082336425854
 31
0.0
 11
-1.238929748535315
 21
-7.45955657958986
 31
0.0
  0
SPLINE
  5
BE98
330
1F
100
AcDbEntity
  8
AM_0
100
AcDbSpline
210
0.0
220
0.0
230
1.0
 70
     8
 71
     3
 72
    11
 73
     7
 74
     5
 42
0.0000000001
 43
0.0000000001
 44
0.0000000001
 40
0.0
 40
0.0
 40
0.0
 40
0.0
 40
0.1297507350058499
 40
0.2595057394322195
 40
0.3892480690384043
 40
0.5190050290520352
 40
0.5190050290520352
 40
0.5190050290520352
 40
0.5190050290520352
 10
-4.0843963623053
 20
-14.22458648681683
 30
0.0
 10
-4.115351436372137
 20
-14.25479494879739
 30
0.0
 10
-4.177262603075985
 20
-14.31521286676158
 30
0.0
 10
-4.272849156454942
 20
-14.40297851214641
 30
0.0
 10
-4.37057517032638
 20
-14.48836197874936
 30
0.0
 10
-4.43752424618465
 20
-14.54314213172076
 30
0.0
 10
-4.471000671387272
 20
-14.57053375244183
 30
0.0
 11
-4.0843963623053
 21
-14.22458648681683
 31
0.0
 11
-4.177715301514284
 21
-14.31473541259783
 31
0.0
 11
-4.273208618164276
 21
-14.40258407592785
 31
0.0
 11
-4.371021270752281
 21
-14.48782348632784
 31
0.0
 11
-4.471000671387272
 21
-14.57053375244183
 31
0.0
  0
SPLINE
  5
BE99
330
1F
100
AcDbEntity
  8
AM_0
100
AcDbSpline
210
0.0
220
0.0
230
1.0
 70
     8
 71
     3
 72
    11
 73
     7
 74
     5
 42
0.0000000001
 43
0.0000000001
 44
0.0000000001
 40
0.0
 40
0.0
 40
0.0
 40
0.0
 40
0.4985720773041064
 40
0.9971428838259031
 40
1.495711827774091
 40
1.994281645298572
 40
1.994281645298572
 40
1.994281645298572
 40
1.994281645298572
 10
-2.644664764404269
 20
-11.28590774536086
 30
0.0
 10
-2.669640277611572
 20
-11.45036856832758
 30
0.0
 10
-2.719591240367498
 20
-11.77928979507607
 30
0.0
 10
-2.857104053684309
 20
-12.25964167777916
 30
0.0
 10
-3.035249212968575
 20
-12.72645075359852
 30
0.0
 10
-3.192596859675167
 20
-13.01958038206878
 30
0.0
 10
-3.271270751953259
 20
-13.16614532470685
 30
0.0
 11
-2.644664764404269
 21
-11.28590774536086
 31
0.0
 11
-2.73002243042029
 21
-11.77711868286086
 31
0.0
 11
-2.863876342774258
 21
-12.25738525390587
 31
0.0
 11
-3.044895172119277
 21
-12.72193145751986
 31
0.0
 11
-3.271270751953259
 21
-13.16614532470685
 31
0.0
  0
SPLINE
  5
BE9A
330
1F
100
AcDbEntity
  8
AM_0
100
AcDbSpline
210
0.0
220
0.0
230
1.0
 70
     8
 71
     3
 72
    11
 73
     7
 74
     5
 42
0.0000000001
 43
0.0000000001
 44
0.0000000001
 40
0.0
 40
0.0
 40
0.0
 40
0.0
 40
0.9617161615292417
 40
1.923440502804246
 40
2.885164350685521
 40
3.846882917586908
 40
3.846882917586908
 40
3.846882917586908
 40
3.846882917586908
 10
-1.937412261963256
 20
-12.11399459838886
 30
0.0
 10
-1.994202662857804
 20
-12.43062841135641
 30
0.0
 10
-2.107783947669914
 20
-13.06389873037725
 30
0.0
 10
-2.506724557157768
 20
-13.94749852996942
 30
0.0
 10
-3.04677492374811
 20
-14.75263640619697
 30
0.0
 10
-3.524757524660622
 20
-15.18329293317997
 30
0.0
 10
-3.763748168945295
 20
-15.39862060546883
 30
0.0
 11
-1.937412261963256
 21
-12.11399459838886
 31
0.0
 11
-2.145877838135269
 21
-13.05284500122086
 31
0.0
 11
-2.530242919922291
 21
-13.93442153930686
 31
0.0
 11
-3.07626342773527
 21
-14.72611236572284
 31
0.0
 11
-3.763748168945295
 21
-15.39862060546883
 31
0.0
  0
SPLINE
  5
BE9B
330
1F
100
AcDbEntity
  8
AM_0
100
AcDbSpline
210
0.0
220
0.0
230
1.0
 70
     8
 71
     3
 72
    11
 73
     7
 74
     5
 42
0.0000000001
 43
0.0000000001
 44
0.0000000001
 40
0.0
 40
0.0
 40
0.0
 40
0.0
 40
1.173042999681902
 40
2.341552060742227
 40
3.504958059711207
 40
4.662712760440698
 40
4.662712760440698
 40
4.662712760440698
 40
4.662712760440698
 10
-25.5591592788703
 20
-14.55162811279289
 30
0.0
 10
-25.16884136190114
 20
-14.57520365310041
 30
0.0
 10
-24.38971414911221
 20
-14.62226361169116
 30
0.0
 10
-23.22562569379487
 20
-14.72279354889966
 30
0.0
 10
-22.06852747211856
 20
-14.84304262147206
 30
0.0
 10
-21.3012980020272
 20
-14.9432888615476
 30
0.0
 10
-20.91861724853528
 20
-14.99328994750989
 30
0.0
 11
-25.5591592788703
 21
-14.55162811279289
 31
0.0
 11
-24.38856601715129
 21
-14.62739944457987
 31
0.0
 11
-23.22425174713226
 21
-14.72632217407189
 31
0.0
 11
-22.06726074218828
 21
-14.84832763671889
 31
0.0
 11
-20.91861724853528
 21
-14.99328994750989
 31
0.0
  0
SPLINE
  5
BE9C
330
1F
100
AcDbEntity
  8
AM_0
100
AcDbSpline
210
0.0
220
0.0
230
1.0
 70
     8
 71
     3
 72
    11
 73
     7
 74
     5
 42
0.0000000001
 43
0.0000000001
 44
0.0000000001
 40
0.0
 40
0.0
 40
0.0
 40
0.0
 40
1.809875754349811
 40
3.611281215015292
 40
5.402226455577307
 40
7.180763918270558
 40
7.180763918270558
 40
7.180763918270558
 40
7.180763918270558
 10
-13.76188659668029
 20
-15.52759933471686
 30
0.0
 10
-14.3650693107481
 20
-15.51369080299756
 30
0.0
 10
-15.56861181873509
 20
-15.48593883206494
 30
0.0
 10
-17.36629740951168
 20
-15.37526858591503
 30
0.0
 10
-19.15012652449584
 20
-15.21896582087037
 30
0.0
 10
-20.33048801425222
 20
-15.06834071073498
 30
0.0
 10
-20.91861724853528
 20
-14.99328994750989
 30
0.0
 11
-13.76188659668029
 21
-15.52759933471686
 31
0.0
 11
-15.57097625732428
 21
-15.47426223754888
 31
0.0
 11
-17.36920166015628
 21
-15.36727142333987
 31
0.0
 11
-19.15294647216829
 21
-15.20683670043988
 31
0.0
 11
-20.91861724853528
 21
-14.99328994750989
 31
0.0
  0
SPLINE
  5
BE9D
330
1F
100
AcDbEntity
  8
AM_0
100
AcDbSpline
210
0.0
220
0.0
230
1.0
 70
     8
 71
     3
 72
    11
 73
     7
 74
     5
 42
0.0000000001
 43
0.0000000001
 44
0.0000000001
 40
0.0
 40
0.0
 40
0.0
 40
0.0
 40
0.9608928668362185
 40
1.921093494690383
 40
2.871655408623143
 40
3.804837023464741
 40
3.804837023464741
 40
3.804837023464741
 40
3.804837023464741
 10
-25.55918979644828
 20
-14.55170059204091
 30
0.0
 10
-25.87993092911052
 20
-14.53580250010084
 30
0.0
 10
-26.52118212859734
 20
-14.50401776940073
 30
0.0
 10
-27.45107387339431
 20
-14.25435437352659
 30
0.0
 10
-28.32787379387391
 20
-13.87795954914668
 30
0.0
 10
-28.83717151319594
 20
-13.50764740970947
 30
0.0
 10
-29.08947086334224
 20
-13.32419967651391
 30
0.0
 11
-25.55918979644828
 21
-14.55170059204091
 31
0.0
 11
-26.51661777496428
 21
-14.47017288207988
 31
0.0
 11
-27.44670963287429
 21
-14.23160552978491
 31
0.0
 11
-28.31503391265927
 21
-13.84484863281291
 31
0.0
 11
-29.08947086334224
 21
-13.32419967651391
 31
0.0
  0
SPLINE
  5
BE9E
330
1F
100
AcDbEntity
  8
AM_0
100
AcDbSpline
210
0.0
220
0.0
230
1.0
 70
     8
 71
     3
 72
    11
 73
     7
 74
     5
 42
0.0000000001
 43
0.0000000001
 44
0.0000000001
 40
0.0
 40
0.0
 40
0.0
 40
0.0
 40
0.706353079001412
 40
1.413628143600466
 40
2.118204425326157
 40
2.816629768465672
 40
2.816629768465672
 40
2.816629768465672
 40
2.816629768465672
 10
-24.53768253326428
 20
-11.78703308105489
 30
0.0
 10
-24.7733059056658
 20
-11.77835550952359
 30
0.0
 10
-25.24486020396056
 20
-11.76098903983666
 30
0.0
 10
-25.93995794086101
 20
-11.62471721376434
 30
0.0
 10
-26.61459056123295
 20
-11.41737877291088
 30
0.0
 10
-27.03470172937282
 20
-11.21036201771322
 30
0.0
 10
-27.24383640289326
 20
-11.1073074340819
 30
0.0
 11
-24.53768253326428
 21
-11.78703308105489
 31
0.0
 11
-25.24263858795225
 21
-11.74263000488287
 31
0.0
 11
-25.93784427642828
 21
-11.61252593994189
 31
0.0
 11
-26.60939121246426
 21
-11.39933013915987
 31
0.0
 11
-27.24383640289326
 21
-11.1073074340819
 31
0.0
  0
SPLINE
  5
BE9F
330
1F
100
AcDbEntity
  8
AM_0
100
AcDbSpline
210
0.0
220
0.0
230
1.0
 70
     8
 71
     3
 72
    11
 73
     7
 74
     5
 42
0.0000000001
 43
0.0000000001
 44
0.0000000001
 40
0.0
 40
0.0
 40
0.0
 40
0.0
 40
0.0524367799099795
 40
0.1052073425181993
 40
0.1582375230881506
 40
0.2114959029310639
 40
0.2114959029310639
 40
0.2114959029310639
 40
0.2114959029310639
 10
-14.64736938476627
 20
-11.77795028686487
 30
0.0
 10
-14.66444084492793
 20
-11.78172993216671
 30
0.0
 10
-14.69869243245097
 20
-11.78931328184131
 30
0.0
 10
-14.75095831809482
 20
-11.79671335440705
 30
0.0
 10
-14.80380130472891
 20
-11.8014905674105
 30
0.0
 10
-14.83923816012283
 20
-11.80202946980743
 30
0.0
 10
-14.85699462890627
 20
-11.80229949951187
 30
0.0
 11
-14.64736938476627
 21
-11.77795028686487
 31
0.0
 11
-14.69870758056725
 21
-11.78862762451188
 31
0.0
 11
-14.75092315673825
 21
-11.79626083373987
 31
0.0
 11
-14.80375671386727
 21
-11.80082321166988
 31
0.0
 11
-14.85699462890627
 21
-11.80229949951187
 31
0.0
  0
ELLIPSE
  5
BEA0
330
1F
100
AcDbEntity
  8
AM_0
100
AcDbEllipse
 10
64.39065170287569
 20
0.0000267028812663
 30
0.0
 11
316.89677716542
 21
-3.511265152671362
 31
0.0
210
0.0
220
0.0
230
1.0
 40
0.0469919913997
 41
1.828652916269486
 42
1.858442530067748
  0
ELLIPSE
  5
BEA1
330
1F
100
AcDbEntity
  8
AM_0
100
AcDbEllipse
 10
-32.35709476470949
 20
0.000026702881077
 30
0.0
 11
2.724456498413031
 21
-15.29773459605499
 31
0.0
210
0.0
220
0.0
230
1.0
 40
0.096549034161
 41
0.4796543977174015
 42
0.538807331081804
  0
ELLIPSE
  5
BEA2
330
1F
100
AcDbEntity
  8
AM_0
100
AcDbEllipse
 10
-30.98418521881101
 20
0.0000305175780927
 30
0.0
 11
0.4104921906948693
 21
15.29947441815599
 31
0.0
210
0.0
220
0.0
230
1.0
 40
0.3084615415771
 41
3.706896200947176
 42
3.820642853939471
  0
ELLIPSE
  5
BEA3
330
1F
100
AcDbEntity
  8
AM_0
100
AcDbEllipse
 10
-30.51413059234618
 20
0.0000267028811133
 30
0.0
 11
1.16394744914163
 21
-15.29920701366899
 31
0.0
210
0.0
220
0.0
230
1.0
 40
0.1336878690507999
 41
0.6604859264136628
 42
0.753607383202147
  0
ELLIPSE
  5
BEA4
330
1F
100
AcDbEntity
  8
AM_0
100
AcDbEllipse
 10
17.3688468933097
 20
0.0000267028811774
 30
0.0
 11
194.5905801362959
 21
-7.731015497999605
 31
0.0
210
0.0
220
0.0
230
1.0
 40
0.0678504440932
 41
4.478364371618712
 42
4.56158715312425
  0
ELLIPSE
  5
BEA5
330
1F
100
AcDbEntity
  8
AM_0
100
AcDbEllipse
 10
-15.38028717041029
 20
0.0000305175781031
 30
0.0
 11
1.903824703897031
 21
-15.296998893615
 31
0.0
210
0.0
220
0.0
230
1.0
 40
0.1591335084487
 41
0.5098599065674084
 42
0.6607457479768988
  0
ELLIPSE
  5
BEA6
330
1F
100
AcDbEntity
  8
AM_0
100
AcDbEllipse
 10
-14.7942905426033
 20
0.0000267028811242
 30
0.0
 11
2.200941351153029
 21
-15.29928703816999
 31
0.0
210
0.0
220
0.0
230
1.0
 40
0.0669990417469
 41
0.3233804559862257
 42
0.4891255274175716
  0
ELLIPSE
  5
BEA7
330
1F
100
AcDbEntity
  8
AM_0
100
AcDbEllipse
 10
-14.90471458435129
 20
0.0000267028811237
 30
0.0
 11
2.47282627435903
 21
-15.29964024555299
 31
0.0
210
0.0
220
0.0
230
1.0
 40
0.0424337668095
 41
6.248739488912142
 42
6.276717509617576
  0
ELLIPSE
  5
BEA8
330
1F
100
AcDbEntity
  8
AM_0
100
AcDbEllipse
 10
-9.781276702881278
 20
0.0000305175781272
 30
0.0
 11
1.951732129871967
 21
15.295370233719
 31
0.0
210
0.0
220
0.0
230
1.0
 40
0.1928189815654999
 41
3.172976735153973
 42
3.446668419091944
  0
ELLIPSE
  5
BEA9
330
1F
100
AcDbEntity
  8
AM_0
100
AcDbEllipse
 10
68.39937210082567
 20
0.000026702881312
 30
0.0
 11
194.5905496427799
 21
-7.731014286502604
 31
0.0
210
0.0
220
0.0
230
1.0
 40
0.0678504253434
 41
4.226099798098048
 42
4.249231610315918
  0
ELLIPSE
  5
BEAA
330
1F
100
AcDbEntity
  8
AM_0
100
AcDbEllipse
 10
-24.16587924957328
 20
0.0000267028811122
 30
0.0
 11
0.0243224240699693
 21
15.299999931543
 31
0.0
210
0.0
220
0.0
230
1.0
 40
0.0900527889235
 41
4.157826503790254
 42
4.379421093433228
  0
ELLIPSE
  5
BEAB
330
1F
100
AcDbEntity
  8
AM_0
100
AcDbEllipse
 10
-20.14968109130929
 20
0.0000267028811011
 30
0.0
 11
0.0243224240699693
 21
15.299999931543
 31
0.0
210
0.0
220
0.0
230
1.0
 40
0.0900527889235
 41
4.134739286421391
 42
4.396747306945856
  0
ELLIPSE
  5
BEAC
330
1F
100
AcDbEntity
  8
AM_0
100
AcDbEllipse
 10
-14.90471458435129
 20
0.0000267028811237
 30
0.0
 11
2.472826426524028
 21
-15.29964118700899
 31
0.0
210
0.0
220
0.0
230
1.0
 40
0.0424337526606
 41
6.276717508146792
 42
6.595851898275638
  0
ELLIPSE
  5
BEAD
330
1F
100
AcDbEntity
  8
AM_0
100
AcDbEllipse
 10
-0.5511360168462929
 20
0.000030517578167
 30
0.0
 11
1.951732129871974
 21
15.295370233719
 31
0.0
210
0.0
220
0.0
230
1.0
 40
0.1928189815654999
 41
1.559770167518087
 42
1.952206638871526
  0
ELLIPSE
  5
BEAE
330
1F
100
AcDbEntity
  8
AM_0
100
AcDbEllipse
 10
-0.5511360168462929
 20
0.000030517578167
 30
0.0
 11
1.951732129871974
 21
15.295370233719
 31
0.0
210
0.0
220
0.0
230
1.0
 40
0.1928189815654999
 41
2.254472318273929
 42
2.789265548414529
  0
ELLIPSE
  5
BEB6
330
1F
100
AcDbEntity
  8
AM_0
100
AcDbEllipse
 10
-28.06819248199532
 20
3.893320083618086
 30
0.0
 11
3.32755229415197
 21
14.684228869368
 31
0.0
210
0.0
220
0.0
230
1.0
 40
0.0073476672258
 41
5.282286829139231
 42
5.55070479906367
  0
ELLIPSE
  5
BEB7
330
1F
100
AcDbEntity
  8
AM_0
100
AcDbEllipse
 10
-15.34699249267632
 20
9.156885147095103
 30
0.0
 11
2.122322077363997
 21
1.381815063897004
 31
0.0
210
0.0
220
0.0
230
1.0
 40
0.9805268493312999
 41
4.124999048683701
 42
4.709835404039788
  0
ELLIPSE
  5
BEB8
330
1F
100
AcDbEntity
  8
AM_0
100
AcDbEllipse
 10
-15.27667236328134
 20
9.153814315796102
 30
0.0
 11
2.122322077363997
 21
1.381815063897004
 31
0.0
210
0.0
220
0.0
230
1.0
 40
0.9805268493312999
 41
4.710964424537751
 42
4.808515029007253
  0
ELLIPSE
  5
BEB9
330
1F
100
AcDbEntity
  8
AM_0
100
AcDbEllipse
 10
-15.34699249267632
 20
9.156885147095103
 30
0.0
 11
2.122322077363997
 21
1.381815063897004
 31
0.0
210
0.0
220
0.0
230
1.0
 40
0.9805268493312999
 41
1.802482547290714
 42
4.039640118506532
  0
ELLIPSE
  5
BEBA
330
1F
100
AcDbEntity
  8
AM_0
100
AcDbEllipse
 10
-29.16649723052982
 20
9.55713653564408
 30
0.0
 11
2.459640163268501
 21
-0.5556353611849959
 31
0.0
210
0.0
220
0.0
230
0.9999999999999996
 40
0.9639830434357
 41
5.236888314434276
 42
6.459722806837474
  0
ELLIPSE
  5
BEBB
330
1F
100
AcDbEntity
  8
AM_0
100
AcDbEllipse
 10
-28.82331943512033
 20
8.413074493408066
 30
0.0
 11
2.517661900690999
 21
0.0429379510490066
 31
0.0
210
0.0
220
0.0
230
0.9999999999999998
 40
0.897670426436
 41
3.713909521335279
 42
3.732967970719674
  0
ELLIPSE
  5
BEBC
330
1F
100
AcDbEntity
  8
AM_0
100
AcDbEllipse
 10
-28.89365482330333
 20
8.647502899170069
 30
0.0
 11
2.517646604307999
 21
0.0428980619160074
 31
0.0
210
0.0
220
0.0
230
1.0
 40
0.8976721443973
 41
3.868927827527213
 42
4.110140443972876
  0
ELLIPSE
  5
BEBD
330
1F
100
AcDbEntity
  8
AM_0
100
AcDbEllipse
 10
12.6550865173337
 20
0.0000305175781669
 30
0.0
 11
26.24908416649902
 21
-13.58753751773695
 31
0.0
210
0.0
220
0.0
230
1.0
 40
0.2679491863738
 41
3.864880345085751
 42
4.096693376930161
  0
ELLIPSE
  5
BEBE
330
1F
100
AcDbEntity
  8
AM_0
100
AcDbEllipse
 10
4.510120391845709
 20
-0.0650978088378554
 30
0.0
 11
195.05540664138
 21
4.032805466675389
 31
0.0
210
0.0
220
0.0
230
1.0
 40
0.0760127790939
 41
1.72474499946587
 42
1.726851159511281
  0
ELLIPSE
  5
BEC5
330
1F
100
AcDbEntity
  8
AM_0
100
AcDbEllipse
 10
-28.58430576324533
 20
7.616144180298084
 30
0.0
 11
2.394599753479997
 21
0.7182562360580049
 31
0.0
210
0.0
220
0.0
230
1.0
 40
0.9620628356934
 41
0.4141413472937903
 42
0.5059626222677824
  0
ELLIPSE
  5
BEC6
330
1F
100
AcDbEntity
  8
AM_0
100
AcDbEllipse
 10
-28.58038425445633
 20
7.603078842163092
 30
0.0
 11
2.394599981726997
 21
0.7182538153930065
 31
0.0
210
0.0
220
0.0
230
1.0
 40
0.9620621608852999
 41
0.4172927926729887
 42
0.5087294822271084
  0
ELLIPSE
  5
BEC7
330
1F
100
AcDbEntity
  8
AM_0
100
AcDbEllipse
 10
-15.27667236328134
 20
9.153814315796102
 30
0.0
 11
2.122322077363997
 21
1.381815063897004
 31
0.0
210
0.0
220
0.0
230
1.0
 40
0.9805268493312999
 41
1.713095491505284
 42
1.857619790660295
  0
ELLIPSE
  5
BEC8
330
1F
100
AcDbEntity
  8
AM_0
100
AcDbEllipse
 10
-17.42886352539134
 20
9.247764587402114
 30
0.0
 11
0.4931718136609952
 21
2.480852108074999
 31
0.0
210
0.0
220
0.0
230
1.0
 40
0.023523030546
 41
0.8684787228281479
 42
0.915798436960914
  0
ELLIPSE
  5
BEC9
330
1F
100
AcDbEntity
  8
AM_0
100
AcDbEllipse
 10
-31.94625949859624
 20
12.2215881347661
 30
0.0
 11
5.871696428693901
 21
-1.235645726907987
 31
0.0
210
0.0
220
0.0
230
1.0
 40
0.9722474138454
 41
5.997553837815659
 42
6.323823110048434
  0
ELLIPSE
  5
BECA
330
1F
100
AcDbEntity
  8
AM_0
100
AcDbEllipse
 10
-26.94735050201434
 20
10.4151859283451
 30
0.0
 11
0.7884445027360009
 21
-0.135499978947996
 31
0.0
210
0.0
220
0.0
230
1.0
 40
0.4741727000613001
 41
5.419959357491624
 42
5.664795449038473
  0
ELLIPSE
  5
BECE
330
1F
100
AcDbEntity
  8
AM_0
100
AcDbEllipse
 10
-35.28949785232541
 20
7.43942642211906
 30
0.0
 11
1.748405577910199
 21
-0.0806800402719966
 31
0.0
210
0.0
220
0.0
230
1.0
 40
0.2633314809891
 41
4.102138995026201
 42
5.508239682043924
  0
ELLIPSE
  5
BECF
330
1F
100
AcDbEntity
  8
AM_0
100
AcDbEllipse
 10
-32.72634220123294
 20
7.517089843750101
 30
0.0
 11
6.025070129724601
 21
-0.3402336479069867
 31
0.0
210
0.0
220
0.0
230
1.0
 40
0.1111683562193
 41
4.815479311622467
 42
5.105120575848992
  0
ELLIPSE
  5
BED0
330
1F
100
AcDbEntity
  8
AM_0
100
AcDbEllipse
 10
-3.160015106201313
 20
1.709865570068134
 30
0.0
 11
0.1799544783889969
 21
1.513744334223999
 31
0.0
210
0.0
220
0.0
230
1.0
 40
0.1888692635738
 41
3.178469420709513
 42
4.815100977492558
  0
ELLIPSE
  5
BED1
330
1F
100
AcDbEntity
  8
AM_0
100
AcDbEllipse
 10
-3.872703552246292
 20
1.664068222046152
 30
0.0
 11
1.859527715639006
 21
-1.261167350285993
 31
0.0
210
0.0
220
0.0
230
1.0
 40
0.3341041827161
 41
1.23200826718334
 42
2.73404300574383
  0
ELLIPSE
  5
BED2
330
1F
100
AcDbEntity
  8
AM_0
100
AcDbEllipse
 10
-3.160015106201313
 20
1.709865570068134
 30
0.0
 11
0.1799544783889969
 21
1.513744334223999
 31
0.0
210
0.0
220
0.0
230
1.0
 40
0.1888692635738
 41
2.47074820793333
 42
3.178469084552876
  0
ELLIPSE
  5
BED3
330
1F
100
AcDbEntity
  8
AM_0
100
AcDbEllipse
 10
-3.872703552246292
 20
1.664068222046152
 30
0.0
 11
1.859527715639006
 21
-1.261167350285993
 31
0.0
210
0.0
220
0.0
230
1.0
 40
0.3341041827161
 41
2.73404300574383
 42
3.934903730455224
  0
ELLIPSE
  5
BED4
330
1F
100
AcDbEntity
  8
AM_0
100
AcDbEllipse
 10
-35.29673051834111
 20
7.180620193481082
 30
0.0
 11
1.749321053469599
 21
-0.0488794777299973
 31
0.0
210
0.0
220
0.0
230
1.0
 40
0.0702514607193
 41
3.235940849972305
 42
4.097285073456602
  0
ELLIPSE
  5
BED5
330
1F
100
AcDbEntity
  8
AM_0
100
AcDbEllipse
 10
-35.29673051834111
 20
7.180620193481082
 30
0.0
 11
1.749321053469599
 21
-0.0488794777299973
 31
0.0
210
0.0
220
0.0
230
1.0
 40
0.0702514607193
 41
5.497786274354504
 42
5.785684156884782
  0
ELLIPSE
  5
BED6
330
1F
100
AcDbEntity
  8
AM_0
100
AcDbEllipse
 10
-9.310661315918304
 20
7.057281494141109
 30
0.0
 11
1.749294285833997
 21
-0.0496646848519973
 31
0.0
210
0.0
220
0.0
230
1.0
 40
0.1902203274824
 41
2.977363920205571
 42
3.059636350864031
  0
ELLIPSE
  5
BED7
330
1F
100
AcDbEntity
  8
AM_3
100
AcDbEllipse
 10
-5.63487243652429
 20
1.550834655762136
 30
0.0
 11
0.0801581869140006
 21
-1.247426023794996
 31
0.0
210
0.0
220
0.0
230
1.0
 40
0.2931817704981
 41
1.25339259015253
 42
3.141592951776158
  0
ELLIPSE
  5
BED8
330
1F
100
AcDbEntity
  8
AM_0
100
AcDbEllipse
 10
-5.63487243652429
 20
1.550834655762136
 30
0.0
 11
0.0801581869140006
 21
-1.247426023794996
 31
0.0
210
0.0
220
0.0
230
1.0
 40
0.2931817704981
 41
3.141592355403426
 42
3.322180552765259
  0
ELLIPSE
  5
BED9
330
1F
100
AcDbEntity
  8
AM_3
100
AcDbEllipse
 10
-5.63487243652429
 20
1.550834655762136
 30
0.0
 11
0.0961876600150009
 21
-1.496911009261
 31
0.0
210
0.0
220
0.0
230
1.0
 40
0.2931833583316
 41
1.266634017340534
 42
2.91325508169889
  0
ELLIPSE
  5
BEDA
330
1F
100
AcDbEntity
  8
AM_3
100
AcDbEllipse
 10
-5.63487243652429
 20
1.550834655762136
 30
0.0
 11
0.0961876600150009
 21
-1.496911009261
 31
0.0
210
0.0
220
0.0
230
1.0
 40
0.2931833583316
 41
0.0
 42
6.283185307179584
  0
ELLIPSE
  5
BEDB
330
1F
100
AcDbEntity
  8
AM_3
100
AcDbEllipse
 10
-5.63487243652429
 20
1.550834655762136
 30
0.0
 11
0.0801581869140006
 21
-1.247426023794996
 31
0.0
210
0.0
220
0.0
230
1.0
 40
0.2931817704981
 41
0.0
 42
6.283185307179584
  0
ELLIPSE
  5
BEF5
330
1F
100
AcDbEntity
  8
AM_0
100
AcDbEllipse
 10
-18.88346862793027
 20
-13.07746505737288
 30
0.0
 11
0.4976423242320151
 21
-7.279476170847003
 31
0.0
210
0.0
220
0.0
230
1.0
 40
0.8222595264778998
 41
1.675819465589776
 42
1.682203574231414
  0
ELLIPSE
  5
BEF6
330
1F
100
AcDbEntity
  8
AM_0
100
AcDbEllipse
 10
-15.06819343566928
 20
-4.397392272948897
 30
0.0
 11
3.325177619406021
 21
-12.12310557058498
 31
0.0
210
0.0
220
0.0
230
1.0
 40
0.0136609394863
 41
0.7530326662261793
 42
0.9035834676387011
  0
ELLIPSE
  5
BEF8
330
1F
100
AcDbEntity
  8
AM_0
100
AcDbEllipse
 10
-21.09886932373128
 20
-6.408199310302894
 30
0.0
 11
1.729003850933999
 21
-0.270282771213001
 31
0.0
210
0.0
220
0.0
230
1.0
 40
0.8616431339853999
 41
3.141592552129218
 42
6.283185307179585
  0
ELLIPSE
  5
BEF9
330
1F
100
AcDbEntity
  8
AM_0
100
AcDbEllipse
 10
-21.09886932373128
 20
-6.408199310302894
 30
0.0
 11
1.729003850933999
 21
-0.270282771213001
 31
0.0
210
0.0
220
0.0
230
1.0
 40
0.8616431339853999
 41
1.704604709092061
 42
3.141592755050365
  0
ELLIPSE
  5
BEFA
330
1F
100
AcDbEntity
  8
AM_0
100
AcDbEllipse
 10
-21.09886932373128
 20
-6.408199310302894
 30
0.0
 11
1.729003850933999
 21
-0.270282771213001
 31
0.0
210
0.0
220
0.0
230
1.0
 40
0.8616431339853999
 41
0.0
 42
1.704604709092061
  0
ELLIPSE
  5
BEFB
330
1F
100
AcDbEntity
  8
AM_0
100
AcDbEllipse
 10
-21.09886932373128
 20
-6.408199310302894
 30
0.0
 11
1.976005572512001
 21
-0.3088952614239946
 31
0.0
210
0.0
220
0.0
230
1.0
 40
0.8616424292759001
 41
0.1775091126946373
 42
2.822543149887337
  0
ELLIPSE
  5
BEFF
330
1F
100
AcDbEntity
  8
AM_0
100
AcDbEllipse
 10
-13.79677391052327
 20
-14.83545684814488
 30
0.0
 11
0.7903995318410006
 21
-0.1235580690419963
 31
0.0
210
0.0
220
0.0
230
1.0
 40
0.8616422803819
 41
4.890046202973451
 42
5.675171048049888
  0
ELLIPSE
  5
BF00
330
1F
100
AcDbEntity
  8
AM_0
100
AcDbEllipse
 10
-13.79677391052327
 20
-14.83545684814488
 30
0.0
 11
0.7903995318410006
 21
-0.1235580690419963
 31
0.0
210
0.0
220
0.0
230
1.0
 40
0.8616422803819
 41
5.675171048049888
 42
6.460694913093361
  0
LINE
  5
BFB0
330
1F
100
AcDbEntity
  8
AM_0
100
AcDbLine
 10
-3.401241302490278
 20
-14.22448730468783
 30
0.0
 11
-1.66211700439529
 21
-0.0604667663578395
 31
0.0
  0
LINE
  5
BFB1
330
1F
100
AcDbEntity
  8
AM_0
100
AcDbLine
 10
-12.98302650451728
 20
-11.90725326538086
 30
0.0
 11
-12.45463752746628
 21
-15.29475402831986
 31
0.0
  0
LINE
  5
BFB2
330
1F
100
AcDbEntity
  8
AM_0
100
AcDbLine
 10
-13.34873962402426
 20
-11.84324264526388
 30
0.0
 11
-13.06106948852629
 21
-13.62543487548787
 31
0.0
  0
LINE
  5
BFB3
330
1F
100
AcDbEntity
  8
AM_0
100
AcDbLine
 10
-13.06106758117728
 20
-13.62543487548787
 30
0.0
 11
-13.38927650451725
 21
-11.84120178222686
 31
0.0
  0
LINE
  5
BFB4
330
1F
100
AcDbEntity
  8
AM_0
100
AcDbLine
 10
-13.00000381469727
 20
-14.83671569824186
 30
0.0
 11
-13.88798904419027
 21
-11.81600570678686
 31
0.0
  0
LINE
  5
BFB5
330
1F
100
AcDbEntity
  8
AM_0
100
AcDbLine
 10
-13.76190185546927
 20
-15.52754211425788
 30
0.0
 11
-14.85699462890627
 21
-11.80230331420888
 31
0.0
  0
LINE
  5
BFB6
330
1F
100
AcDbEntity
  8
AM_0
100
AcDbLine
 10
-25.5591592788703
 20
-14.5516319274899
 30
0.0
 11
-24.53768157959027
 21
-11.7870368957519
 31
0.0
  0
CIRCLE
  5
BFB8
330
1F
100
AcDbEntity
  8
AM_0
100
AcDbCircle
 10
-6.045459747315296
 20
-7.109470367431849
 30
0.0
 40
1.75
  0
LINE
  5
BFB9
330
1F
100
AcDbEntity
  8
AM_0
100
AcDbLine
 10
-4.070434570313277
 20
-9.366996765136834
 30
0.0
 11
-6.289199829102282
 21
-9.094566345214854
 31
0.0
  0
LINE
  5
BFBA
330
1F
100
AcDbEntity
  8
AM_0
100
AcDbLine
 10
-1.195014953613303
 20
6.80390357971215
 30
0.0
 11
-7.752897262573321
 21
6.941427230835112
 31
0.0
  0
LINE
  5
BFBB
330
1F
100
AcDbEntity
  8
AM_0
100
AcDbLine
 10
-1.195018768311333
 20
6.038896560669154
 30
0.0
 11
-15.39536094665532
 21
6.658897399902121
 31
0.0
  0
LINE
  5
BFBC
330
1F
100
AcDbEntity
  8
AM_0
100
AcDbLine
 10
-30.45501136779793
 20
6.768074035644102
 30
0.0
 11
-1.195014953613325
 21
5.490556716919154
 31
0.0
  0
LINE
  5
BFBD
330
1F
100
AcDbEntity
  8
AM_0
100
AcDbLine
 10
-1.541461944580349
 20
5.40227127075216
 30
0.0
 11
-9.432683944702306
 21
5.531496047974118
 31
0.0
  0
LINE
  5
BFBE
330
1F
100
AcDbEntity
  8
AM_0
100
AcDbLine
 10
-0.9642829895023229
 20
8.323173522949145
 30
0.0
 11
-0.0610694885263246
 21
13.92232704162616
 31
0.0
  0
LINE
  5
BFBF
330
1F
100
AcDbEntity
  8
AM_0
100
AcDbLine
 10
-0.06106567382832
 20
13.92232894897414
 30
0.0
 11
-0.0000000000003147
 21
15.32099533081013
 31
0.0
  0
LINE
  5
BFC0
330
1F
100
AcDbEntity
  8
AM_0
100
AcDbLine
 10
-0.7619552612313271
 20
16.15496826171915
 30
0.0
 11
-0.7640151977543384
 21
16.15360260009814
 31
0.0
  0
LINE
  5
BFC1
330
1F
100
AcDbEntity
  8
AM_0
100
AcDbLine
 10
-1.460109710694311
 20
-1.63848495483386
 30
0.0
 11
-2.644664764404269
 21
-11.28590774536086
 31
0.0
  0
LINE
  5
BFC2
330
1F
100
AcDbEntity
  8
AM_0
100
AcDbLine
 10
-1.19501495361331
 20
2.072122573852151
 30
0.0
 11
-1.195014953613324
 21
5.383647918701153
 31
0.0
  0
LINE
  5
BFC3
330
1F
100
AcDbEntity
  8
AM_0
100
AcDbLine
 10
-2.857215881348309
 20
1.83082389831512
 30
0.0
 11
-1.271587371826327
 21
5.020610809326153
 31
0.0
  0
LINE
  5
BFC4
330
1F
100
AcDbEntity
  8
AM_0
100
AcDbLine
 10
-1.319004058838313
 20
7.454664230347145
 30
0.0
 11
-2.239490509033284
 21
7.49485206604013
 31
0.0
  0
LINE
  5
BFC5
330
1F
100
AcDbEntity
  8
AM_0
100
AcDbLine
 10
-1.195014953613304
 20
7.101551055908128
 30
0.0
 11
-3.356098175049305
 21
7.144069671631143
 31
0.0
  0
LINE
  5
BFC6
330
1F
100
AcDbEntity
  8
AM_0
100
AcDbLine
 10
-1.565597534180311
 20
7.862058639526148
 30
0.0
 11
-1.58288574218832
 21
7.466184616089131
 31
0.0
  0
LINE
  5
BFC7
330
1F
100
AcDbEntity
  8
AM_0
100
AcDbLine
 10
-0.9635887146003202
 20
8.321645736694149
 30
0.0
 11
-0.9648895263673299
 21
8.323204040527157
 31
0.0
  0
LINE
  5
BFC8
330
1F
100
AcDbEntity
  8
AM_0
100
AcDbLine
 10
-1.195014953613327
 20
6.038896560669154
 30
0.0
 11
-1.195014953613325
 21
5.490554809570151
 31
0.0
  0
LINE
  5
BFC9
330
1F
100
AcDbEntity
  8
AM_0
100
AcDbLine
 10
-1.195014953613304
 20
7.101549148559154
 30
0.0
 11
-1.195014953613305
 21
7.315231323242141
 31
0.0
  0
LINE
  5
BFCA
330
1F
100
AcDbEntity
  8
AM_0
100
AcDbLine
 10
-1.195018768311309
 20
7.315231323242141
 30
0.0
 11
-1.319007873535294
 21
7.454664230347145
 31
0.0
  0
LINE
  5
BFCB
330
1F
100
AcDbEntity
  8
AM_0
100
AcDbLine
 10
-1.195014953613303
 20
6.80390357971215
 30
0.0
 11
-1.195014953613304
 21
7.101549148559154
 31
0.0
  0
LINE
  5
BFCC
330
1F
100
AcDbEntity
  8
AM_0
100
AcDbLine
 10
-1.195014953613327
 20
6.038896560669154
 30
0.0
 11
-1.195014953613303
 21
6.80390357971215
 31
0.0
  0
LINE
  5
BFCD
330
1F
100
AcDbEntity
  8
AM_0
100
AcDbLine
 10
-1.541461944580349
 20
5.402269363403131
 30
0.0
 11
-1.234725952149334
 21
5.379596710205144
 31
0.0
  0
LINE
  5
BFCE
330
1F
100
AcDbEntity
  8
AM_0
100
AcDbLine
 10
-1.195014953613325
 20
5.490554809570151
 30
0.0
 11
-1.195014953613324
 21
5.383647918701153
 31
0.0
  0
LINE
  5
BFCF
330
1F
100
AcDbEntity
  8
AM_0
100
AcDbLine
 10
-1.271587371826327
 20
5.020606994629143
 30
0.0
 11
-1.541461944580349
 21
5.402269363403131
 31
0.0
  0
LINE
  5
BFD0
330
1F
100
AcDbEntity
  8
AM_0
100
AcDbLine
 10
-1.19501876831133
 20
5.383647918701153
 30
0.0
 11
-1.234729766846315
 21
5.379598617554147
 31
0.0
  0
LINE
  5
BFD1
330
1F
100
AcDbEntity
  8
AM_0
100
AcDbLine
 10
-1.234725952149334
 20
5.379598617554147
 30
0.0
 11
-1.271587371826327
 21
5.02060890197715
 31
0.0
  0
LINE
  5
BFD2
330
1F
100
AcDbEntity
  8
AM_0
100
AcDbLine
 10
-4.493869781494305
 20
7.062011718750166
 30
0.0
 11
-4.495174407959291
 21
7.063568115234143
 31
0.0
  0
ARC
  5
BFD3
330
1F
100
AcDbEntity
  8
AM_0
100
AcDbCircle
 10
-0.9998893737793171
 20
-0.1940078735348605
 30
0.0
 40
0.8000000119209001
100
AcDbArc
 50
353.0000309965533
 51
37.9999673619954
  0
ARC
  5
BFD4
330
1F
100
AcDbEntity
  8
AM_0
100
AcDbCircle
 10
-0.9998893737793171
 20
-0.1940078735348605
 30
0.0
 40
0.8000001907349002
100
AcDbArc
 50
37.99997100446474
 51
83.00003714350115
  0
LINE
  5
BFD5
330
1F
100
AcDbEntity
  8
AM_0
100
AcDbLine
 10
-0.2058601379403258
 20
-0.2915153503418387
 30
0.0
 11
-1.460109710694311
 21
-1.63848876953087
 31
0.0
  0
LINE
  5
BFD6
330
1F
100
AcDbEntity
  8
AM_0
100
AcDbLine
 10
-1.4686851501473
 20
-0.0672187805178528
 30
0.0
 11
-1.662120819092271
 21
-0.0604667663578395
 31
0.0
  0
LINE
  5
BFD7
330
1F
100
AcDbEntity
  8
AM_0
100
AcDbLine
 10
-1.4686851501473
 20
-0.0672187805178528
 30
0.0
 11
-1.205844879151329
 21
2.073451995849136
 31
0.0
  0
LINE
  5
BFD8
330
1F
100
AcDbEntity
  8
AM_0
100
AcDbLine
 10
-1.20584869384831
 20
2.073453903198138
 30
0.0
 11
-1.195018768311316
 21
2.072124481201153
 31
0.0
  0
LINE
  5
BFD9
330
1F
100
AcDbEntity
  8
AM_0
100
AcDbLine
 10
-1.379570007324298
 20
0.6586151123051521
 30
0.0
 11
-0.9023933410653011
 21
0.6000251770021642
 31
0.0
  0
LINE
  5
BFDA
330
1F
100
AcDbEntity
  8
AM_0
100
AcDbLine
 10
-1.521976470947285
 20
-0.0653648376468445
 30
0.0
 11
-1.684101104736319
 21
-0.2394714355468379
 31
0.0
  0
LINE
  5
BFDB
330
1F
100
AcDbEntity
  8
AM_0
100
AcDbLine
 10
-0.9023933410653011
 20
0.6000251770021642
 30
0.0
 11
-1.460327148438287
 21
0.000843048096139
 31
0.0
  0
LINE
  5
BFDC
330
1F
100
AcDbEntity
  8
AM_3
100
AcDbLine
 10
-3.330112457276293
 20
0.1958427429201508
 30
0.0
 11
-5.538684844971291
 21
0.0539245605471513
 31
0.0
  0
LINE
  5
BFDD
330
1F
100
AcDbEntity
  8
AM_3
100
AcDbLine
 10
-5.382579803467314
 20
3.070142745972155
 30
0.0
 11
-5.73106002807632
 21
3.04774856567416
 31
0.0
  0
LINE
  5
BFDE
330
1F
100
AcDbEntity
  8
AM_0
100
AcDbLine
 10
-3.884738922119291
 20
-9.389797210692847
 30
0.0
 11
-3.39726257324227
 21
-5.419612884521823
 31
0.0
  0
LINE
  5
BFDF
330
1F
100
AcDbEntity
  8
AM_0
100
AcDbLine
 10
-4.014923095703265
 20
-5.34377288818385
 30
0.0
 11
-5.80172348022529
 21
-5.124382019042863
 31
0.0
  0
LINE
  5
BFE0
330
1F
100
AcDbEntity
  8
AM_0
100
AcDbLine
 10
-3.39726257324227
 20
-5.419612884521823
 30
0.0
 11
-4.014923095703265
 21
-5.34377288818385
 31
0.0
  0
LINE
  5
BFE1
330
1F
100
AcDbEntity
  8
AM_0
100
AcDbLine
 10
-3.884738922119291
 20
-9.389797210692847
 30
0.0
 11
-4.070430755615271
 21
-9.367000579833844
 31
0.0
  0
LINE
  5
BFE2
330
1F
100
AcDbEntity
  8
AM_0
100
AcDbLine
 10
-1.937435150147276
 20
-12.11397552490185
 30
0.0
 11
-2.644664764404269
 21
-11.28591156005887
 31
0.0
  0
LINE
  5
BFE3
330
1F
100
AcDbEntity
  8
AM_0
100
AcDbLine
 10
-17.21608161926332
 20
9.541448593140131
 30
0.0
 11
-17.27714729309132
 21
8.142780303955133
 31
0.0
  0
LINE
  5
BFE4
330
1F
100
AcDbEntity
  8
AM_0
100
AcDbLine
 10
-26.96410655975433
 20
8.466043472290108
 30
0.0
 11
-26.06106758117733
 21
14.25979995727508
 31
0.0
  0
LINE
  5
BFE5
330
1F
100
AcDbEntity
  8
AM_0
100
AcDbLine
 10
-16.25818634033232
 20
15.3000278472901
 30
0.0
 11
-25.34808444976833
 21
15.30002784729011
 31
0.0
  0
LINE
  5
BFE6
330
1F
100
AcDbEntity
  8
AM_0
100
AcDbLine
 10
-7.918682098389331
 20
16.31403923034711
 30
0.0
 11
-7.918617248535332
 21
16.31553459167512
 31
0.0
  0
LINE
  5
BFE7
330
1F
100
AcDbEntity
  8
AM_0
100
AcDbLine
 10
-12.55919075012233
 20
16.39198112487811
 30
0.0
 11
-12.55788612365734
 21
16.39042663574211
 31
0.0
  0
LINE
  5
BFE8
330
1F
100
AcDbEntity
  8
AM_0
100
AcDbLine
 10
-16.0894718170173
 20
15.1323451995851
 30
0.0
 11
-16.08817481994631
 21
15.1307888031001
 31
0.0
  0
LINE
  5
BFE9
330
1F
100
AcDbEntity
  8
AM_0
100
AcDbLine
 10
-16.25848007202234
 20
15.29474449157712
 30
0.0
 11
-17.15372085571332
 21
10.86426925659213
 31
0.0
  0
LINE
  5
BFEA
330
1F
100
AcDbEntity
  8
AM_0
100
AcDbLine
 10
-26.06106758117733
 20
14.25979995727508
 30
0.0
 11
-26.00000190734931
 21
15.61080741882312
 31
0.0
  0
LINE
  5
BFEB
330
1F
100
AcDbEntity
  8
AM_0
100
AcDbLine
 10
-26.76195335388233
 20
16.4001083374021
 30
0.0
 11
-26.76401424408033
 21
16.3987369537351
 31
0.0
  0
LINE
  5
BFEC
330
1F
100
AcDbEntity
  8
AM_0
100
AcDbLine
 10
-26.18413925170934
 20
11.78580474853508
 30
0.0
 11
-26.48365402221735
 21
10.04301261901808
 31
0.0
  0
LINE
  5
BFED
330
1F
100
AcDbEntity
  8
AM_0
100
AcDbLine
 10
-26.03062343597434
 20
11.2187557220461
 30
0.0
 11
-25.35236263275232
 21
15.27597808837909
 31
0.0
  0
LINE
  5
BFEE
330
1F
100
AcDbEntity
  8
AM_0
100
AcDbLine
 10
-33.91868305206303
 20
16.20522499084507
 30
0.0
 11
-33.91861438751224
 21
16.20666885376008
 31
0.0
  0
LINE
  5
BFEF
330
1F
100
AcDbEntity
  8
AM_0
100
AcDbLine
 10
-38.55918961763382
 20
16.01765632629407
 30
0.0
 11
-38.55788522958761
 21
16.01618194580108
 31
0.0
  0
LINE
  5
BFF0
330
1F
100
AcDbEntity
  8
AM_0
100
AcDbLine
 10
-15.60996818542531
 20
6.668266296387093
 30
0.0
 11
-28.39821624755932
 21
7.226613998413093
 31
0.0
  0
LINE
  5
BFF1
330
1F
100
AcDbEntity
  8
AM_0
100
AcDbLine
 10
-14.85699462890627
 20
-11.80230331420888
 30
0.0
 11
-24.53768444061327
 21
-11.7870368957519
 31
0.0
  0
LINE
  5
BFF2
330
1F
100
AcDbEntity
  8
AM_0
100
AcDbLine
 10
-7.779447555542326
 20
6.516170501709137
 30
0.0
 11
-11.30307006836029
 21
6.585494995117126
 31
0.0
  0
LINE
  5
BFF3
330
1F
100
AcDbEntity
  8
AM_0
100
AcDbLine
 10
-9.236026763916322
 20
7.144390106201118
 30
0.0
 11
-9.236091613770293
 21
7.142894744873106
 31
0.0
  0
LINE
  5
BFF4
330
1F
100
AcDbEntity
  8
AM_0
100
AcDbLine
 10
-7.682476043701306
 20
6.939949035644116
 30
0.0
 11
-7.670730590820308
 21
7.128053665161115
 31
0.0
  0
LINE
  5
BFF5
330
1F
100
AcDbEntity
  8
AM_0
100
AcDbLine
 10
-7.752899169922295
 20
6.941427230835112
 30
0.0
 11
-7.779449462891328
 21
6.516170501709137
 31
0.0
  0
LINE
  5
BFF6
330
1F
100
AcDbEntity
  8
AM_0
100
AcDbLine
 10
-11.21823120117229
 20
6.814941406250137
 30
0.0
 11
-11.27623367309629
 21
7.015314102173131
 31
0.0
  0
LINE
  5
BFF7
330
1F
100
AcDbEntity
  8
AM_0
100
AcDbLine
 10
-11.19648933410732
 20
7.163152694702143
 30
0.0
 11
-11.21822929382332
 21
6.814939498901136
 31
0.0
  0
LINE
  5
BFF8
330
1F
100
AcDbEntity
  8
AM_0
100
AcDbLine
 10
-11.0536079406743
 20
7.133380889892148
 30
0.0
 11
-11.30307388305728
 21
6.585494995117126
 31
0.0
  0
LINE
  5
BFF9
330
1F
100
AcDbEntity
  8
AM_0
100
AcDbLine
 10
-11.05360221862829
 20
7.133382797241149
 30
0.0
 11
-11.05281639099129
 21
7.161029815674137
 31
0.0
  0
LINE
  5
BFFA
330
1F
100
AcDbEntity
  8
AM_0
100
AcDbLine
 10
-11.3030719757083
 20
6.585494995117126
 30
0.0
 11
-11.2762355804443
 21
7.015312194824129
 31
0.0
  0
LINE
  5
BFFB
330
1F
100
AcDbEntity
  8
AM_0
100
AcDbLine
 10
-11.27623176574732
 20
7.015312194824129
 30
0.0
 11
-13.99749374389733
 21
7.072380065918123
 31
0.0
  0
LINE
  5
BFFC
330
1F
100
AcDbEntity
  8
AM_0
100
AcDbLine
 10
-16.51519203186131
 20
7.30880928039511
 30
0.0
 11
-16.51312255859431
 21
7.310174942016091
 31
0.0
  0
LINE
  5
BFFD
330
1F
100
AcDbEntity
  8
AM_0
100
AcDbLine
 10
-16.51526260376032
 20
7.308759689331113
 30
0.0
 11
-16.51281547546431
 21
7.308662414551095
 31
0.0
  0
LINE
  5
BFFE
330
1F
100
AcDbEntity
  8
AM_0
100
AcDbLine
 10
-15.50280761718832
 20
6.661306381225108
 30
0.0
 11
-15.60997390747132
 21
6.6682682037351
 31
0.0
  0
LINE
  5
BFFF
330
1F
100
AcDbEntity
  8
AM_0
100
AcDbLine
 10
-12.98302459716828
 20
-11.90724945068389
 30
0.0
 11
-12.9866981506353
 21
-11.86146545410185
 31
0.0
  0
LINE
  5
C000
330
1F
100
AcDbEntity
  8
AM_0
100
AcDbLine
 10
-12.38445663452224
 20
-13.36889648437486
 30
0.0
 11
-12.36974716186528
 21
-13.43946456909185
 31
0.0
  0
LINE
  5
C001
330
1F
100
AcDbEntity
  8
AM_0
100
AcDbLine
 10
-19.10693359375027
 20
-6.41133880615187
 30
0.0
 11
-19.0087966918953
 21
-8.357940673827878
 31
0.0
  0
LINE
  5
C002
330
1F
100
AcDbEntity
  8
AM_0
100
AcDbLine
 10
-27.59356117248632
 20
7.965555191040077
 30
0.0
 11
-27.21959686279334
 21
8.254215240478101
 31
0.0
  0
LINE
  5
C003
330
1F
100
AcDbEntity
  8
AM_0
100
AcDbLine
 10
-26.96358680725132
 20
8.46545600891109
 30
0.0
 11
-26.9648828506473
 21
8.466928482056104
 31
0.0
  0
LINE
  5
C004
330
1F
100
AcDbEntity
  8
AM_0
100
AcDbLine
 10
-32.14395999908452
 20
6.815839767456101
 30
0.0
 11
-36.67455124855041
 21
7.019439697266078
 31
0.0
  0
LINE
  5
C005
330
1F
100
AcDbEntity
  8
AM_0
100
AcDbLine
 10
-30.49388408660891
 20
7.178009033203123
 30
0.0
 11
-30.49517154693602
 21
7.179489135742099
 31
0.0
  0
LINE
  5
C006
330
1F
100
AcDbEntity
  8
AM_0
100
AcDbLine
 10
-33.6644406318665
 20
7.236598968506071
 30
0.0
 11
-33.66658449172973
 21
7.205631256103073
 31
0.0
  0
LINE
  5
C007
330
1F
100
AcDbEntity
  8
AM_0
100
AcDbLine
 10
-30.91852188110352
 20
7.152458190918107
 30
0.0
 11
-33.66444015502932
 21
7.236600875854079
 31
0.0
  0
LINE
  5
C008
330
1F
100
AcDbEntity
  8
AM_0
100
AcDbLine
 10
-30.74858188629152
 20
7.112791061401107
 30
0.0
 11
-33.75289011001592
 21
7.208375930786088
 31
0.0
  0
LINE
  5
C009
330
1F
100
AcDbEntity
  8
AM_0
100
AcDbLine
 10
-33.75288963317873
 20
7.208375930786088
 30
0.0
 11
-33.77493858337401
 21
6.889133453369094
 31
0.0
  0
LINE
  5
C00A
330
1F
100
AcDbEntity
  8
AM_0
100
AcDbLine
 10
-30.49386692047121
 20
7.178020477295088
 30
0.0
 11
-30.49517154693602
 21
7.179494857788112
 31
0.0
  0
LINE
  5
C00B
330
1F
100
AcDbEntity
  8
AM_0
100
AcDbLine
 10
-30.49387931823734
 20
7.178009033203123
 30
0.0
 11
-30.67148399353032
 21
7.040914535522116
 31
0.0
  0
LINE
  5
C00C
330
1F
100
AcDbEntity
  8
AM_0
100
AcDbLine
 10
-37.18806290626531
 20
7.344573974609088
 30
0.0
 11
-38.53973859548571
 21
7.385992050171088
 31
0.0
  0
LINE
  5
C00D
330
1F
100
AcDbEntity
  8
AM_0
100
AcDbLine
 10
-37.04448771476751
 20
7.046365737915093
 30
0.0
 11
-37.03967356681823
 21
7.218587875366094
 31
0.0
  0
LINE
  5
C00E
330
1F
100
AcDbEntity
  8
AM_0
100
AcDbLine
 10
-37.03967499732971
 20
7.218589782715096
 30
0.0
 11
-37.18806409835823
 21
7.344572067261081
 31
0.0
  0
LINE
  5
C00F
330
1F
100
AcDbEntity
  8
AM_0
100
AcDbLine
 10
-37.20737433433532
 20
7.064889907837082
 30
0.0
 11
-37.18806433677674
 21
7.344575881958092
 31
0.0
  0
LINE
  5
C010
330
1F
100
AcDbEntity
  8
AM_0
100
AcDbLine
 10
-37.27623176574712
 20
7.320476531982078
 30
0.0
 11
-37.24093818664553
 21
7.069223403931086
 31
0.0
  0
LINE
  5
C011
330
1F
100
AcDbEntity
  8
AM_0
100
AcDbLine
 10
-37.29309344291692
 20
7.076316833496091
 30
0.0
 11
-37.27623248100283
 21
7.320476531982078
 31
0.0
  0
LINE
  5
C012
330
1F
100
AcDbEntity
  8
AM_0
100
AcDbLine
 10
-37.27622985839843
 20
7.320478439331108
 30
0.0
 11
-38.46241235733031
 21
7.358219146728081
 31
0.0
  0
LINE
  5
C013
330
1F
100
AcDbEntity
  8
AM_0
100
AcDbLine
 10
-36.67455220222472
 20
7.019439697266078
 30
0.0
 11
-36.34598255157473
 21
6.75295639038106
 31
0.0
  0
LINE
  5
C014
330
1F
100
AcDbEntity
  8
AM_0
100
AcDbLine
 10
-35.23603224754333
 20
7.329359054565065
 30
0.0
 11
-35.2360932826996
 21
7.327917098999057
 31
0.0
  0
LINE
  5
C015
330
1F
100
AcDbEntity
  8
AM_0
100
AcDbLine
 10
-35.49621558189392
 20
6.990182876587059
 30
0.0
 11
-34.80878686904912
 21
6.97520828247108
 31
0.0
  0
LINE
  5
C016
330
1F
100
AcDbEntity
  8
AM_0
100
AcDbLine
 10
-29.08817005157527
 20
-13.32290649414093
 30
0.0
 11
-29.17662620544427
 21
-12.99679565429689
 31
0.0
  0
LINE
  5
C017
330
1F
100
AcDbEntity
  8
AM_0
100
AcDbLine
 10
-29.08757114410424
 20
-13.31904602050792
 30
0.0
 11
-29.17511081695555
 21
-12.99676132202191
 31
0.0
  0
LINE
  5
C018
330
1F
100
AcDbEntity
  8
AM_0
100
AcDbLine
 10
-28.96648693084728
 20
-12.99133682250989
 30
0.0
 11
-29.08757209777825
 21
-13.31904602050792
 31
0.0
  0
LINE
  5
C019
330
1F
100
AcDbEntity
  8
AM_0
100
AcDbLine
 10
-28.24964809417727
 20
-11.0512466430669
 30
0.0
 11
-28.26942443847727
 21
-11.10477828979491
 31
0.0
  0
LINE
  5
C01A
330
1F
100
AcDbEntity
  8
AM_0
100
AcDbLine
 10
-29.08757209777825
 20
-13.31904602050792
 30
0.0
 11
-29.08947181701725
 21
-13.32419967651391
 31
0.0
  0
LINE
  5
C01B
330
1F
100
AcDbEntity
  8
AM_0
100
AcDbLine
 10
-10.69844436645529
 20
-14.22448348998986
 30
0.0
 11
-3.401245117188283
 21
-14.22448348998982
 31
0.0
  0
LINE
  5
C01C
330
1F
100
AcDbEntity
  8
AM_0
100
AcDbLine
 10
-4.675281524658275
 20
-14.56340026855486
 30
0.0
 11
-7.435531616211266
 21
-14.22448348998984
 31
0.0
  0
LINE
  5
C01D
330
1F
100
AcDbEntity
  8
AM_0
100
AcDbLine
 10
-9.450534820557276
 20
-15.47806167602586
 30
0.0
 11
-4.675277709961293
 21
-14.56340408325184
 31
0.0
  0
LINE
  5
C01E
330
1F
100
AcDbEntity
  8
AM_0
100
AcDbLine
 10
-3.765068054199286
 20
-15.39707946777383
 30
0.0
 11
-9.450534820557276
 21
-15.47806167602586
 31
0.0
  0
LINE
  5
C01F
330
1F
100
AcDbEntity
  8
AM_0
100
AcDbLine
 10
-4.675277709961293
 20
-14.56340408325184
 30
0.0
 11
-4.470996856690292
 21
-14.57053756713884
 31
0.0
  0
LINE
  5
C020
330
1F
100
AcDbEntity
  8
AM_0
100
AcDbLine
 10
-4.471000671387272
 20
-14.57053375244183
 30
0.0
 11
-3.765068054199286
 21
-15.39707946777383
 31
0.0
  0
LINE
  5
C021
330
1F
100
AcDbEntity
  8
AM_0
100
AcDbLine
 10
-3.765068054199286
 20
-15.39707565307583
 30
0.0
 11
-3.763748168945295
 21
-15.39862060546883
 31
0.0
  0
LINE
  5
C022
330
1F
100
AcDbEntity
  8
AM_0
100
AcDbLine
 10
-10.84009933471728
 20
-15.30744171142587
 30
0.0
 11
-9.831693649292292
 21
-14.22448730468786
 31
0.0
  0
LINE
  5
C023
330
1F
100
AcDbEntity
  8
AM_0
100
AcDbLine
 10
-9.450536727905284
 20
-15.47806167602586
 30
0.0
 11
-10.84010314941426
 21
-15.30744552612285
 31
0.0
  0
ARC
  5
C024
330
1F
100
AcDbEntity
  8
AM_0
100
AcDbCircle
 10
-10.74260330200227
 20
-14.51340484619185
 30
0.0
 40
0.8000003099441999
100
AcDbArc
 50
232.8992413858598
 51
262.9999601901877
  0
LINE
  5
C025
330
1F
100
AcDbEntity
  8
AM_0
100
AcDbLine
 10
-12.35205268859929
 20
-14.52639007568385
 30
0.0
 11
-12.35339355468827
 21
-14.51393127441386
 31
0.0
  0
LINE
  5
C026
330
1F
100
AcDbEntity
  8
AM_0
100
AcDbLine
 10
-10.69844436645529
 20
-14.22448730468784
 30
0.0
 11
-10.75709533691426
 21
-14.70217895507784
 31
0.0
  0
LINE
  5
C027
330
1F
100
AcDbEntity
  8
AM_0
100
AcDbLine
 10
-11.86392593383826
 20
-15.29962158203085
 30
0.0
 11
-11.63955307006927
 21
-15.29962158203085
 31
0.0
  0
LINE
  5
C028
330
1F
100
AcDbEntity
  8
AM_0
100
AcDbLine
 10
-12.43639373779329
 20
-15.29997253417986
 30
0.0
 11
-11.86580657959027
 21
-15.29997253417986
 31
0.0
  0
LINE
  5
C029
330
1F
100
AcDbEntity
  8
AM_0
100
AcDbLine
 10
-13.06106758117728
 20
-13.62543487548787
 30
0.0
 11
-13.00000190734929
 21
-14.83671569824186
 31
0.0
  0
SPLINE
  5
C02A
330
1F
100
AcDbEntity
  8
AM_0
100
AcDbSpline
210
0.0
220
0.0
230
1.0
 70
     8
 71
     3
 72
    11
 73
     7
 74
     5
 42
0.0000000001
 43
0.0000000001
 44
0.0000000001
 40
0.0
 40
0.0
 40
0.0
 40
0.0
 40
0.0383187295903874
 40
0.0766298305649366
 40
0.1149485601553171
 40
0.1532596339241283
 40
0.1532596339241283
 40
0.1532596339241283
 40
0.1532596339241283
 10
-42.1074759960175
 20
14.64244270324705
 30
0.0
 10
-42.12024760248626
 20
14.64262517131023
 30
0.0
 10
-42.14578827281132
 20
14.64299007111027
 30
0.0
 10
-42.18410054918304
 20
14.6435374681794
 30
0.0
 10
-42.22241026621869
 20
14.64408536594519
 30
0.0
 10
-42.24795094901506
 20
14.64444875550277
 30
0.0
 10
-42.26072001457211
 20
14.64463043212905
 30
0.0
 11
-42.1074759960175
 21
14.64244270324705
 31
0.0
 11
-42.14579081535342
 21
14.64299011230506
 31
0.0
 11
-42.18409800529482
 21
14.64353752136205
 31
0.0
 11
-42.22241282463073
 21
14.64408493042007
 31
0.0
 11
-42.26072001457211
 21
14.64463043212905
 31
0.0
  0
SPLINE
  5
C02B
330
1F
100
AcDbEntity
  8
AM_0
100
AcDbSpline
210
0.0
220
0.0
230
1.0
 70
     8
 71
     3
 72
    11
 73
     7
 74
     5
 42
0.0000000001
 43
0.0000000001
 44
0.0000000001
 40
0.0
 40
0.0
 40
0.0
 40
0.0
 40
0.2236555106963067
 40
0.4499534729188994
 40
0.6787346012075246
 40
0.9098685876352515
 40
0.9098685876352515
 40
0.9098685876352515
 40
0.9098685876352515
 10
-40.55532145500182
 20
8.735416412353073
 30
0.0
 10
-40.50421510488136
 20
8.681126192806884
 30
0.0
 10
-40.40139859187292
 20
8.571904324075434
 30
0.0
 10
-40.23893717220909
 20
8.414357815313417
 30
0.0
 10
-40.06985727136391
 20
8.260204389289595
 30
0.0
 10
-39.95181191636511
 20
8.162358905846639
 30
0.0
 10
-39.89248728752142
 20
8.113185882568059
 30
0.0
 11
-40.55532145500182
 21
8.735416412353073
 31
0.0
 11
-40.40079569816592
 21
8.573726654053057
 31
0.0
 11
-40.23873972892761
 21
8.415775299072077
 31
0.0
 11
-40.069267988205
 21
8.262086868286061
 31
0.0
 11
-39.89248728752142
 21
8.113185882568059
 31
0.0
  0
SPLINE
  5
C02C
330
1F
100
AcDbEntity
  8
AM_0
100
AcDbSpline
210
0.0
220
0.0
230
1.0
 70
     8
 71
     3
 72
    11
 73
     7
 74
     5
 42
0.0000000001
 43
0.0000000001
 44
0.0000000001
 40
0.0
 40
0.0
 40
0.0
 40
0.0
 40
1.227396503053344
 40
2.615262078868261
 40
4.118386722443614
 40
5.685265129876082
 40
5.685265129876082
 40
5.685265129876082
 40
5.685265129876082
 10
-45.56341600418095
 20
11.65913772583006
 30
0.0
 10
-45.3103266271077
 20
11.33555682778723
 30
0.0
 10
-44.77105912163781
 20
10.64609026177341
 30
0.0
 10
-43.64976044132957
 20
9.829096573066635
 30
0.0
 10
-42.29144029743667
 20
9.187968944282289
 30
0.0
 10
-41.27488919849586
 20
9.032404331078089
 30
0.0
 10
-40.75605845451362
 20
8.953006744385062
 30
0.0
 11
-45.56341600418095
 21
11.65913772583006
 31
0.0
 11
-44.76609086990362
 21
10.72598457336407
 31
0.0
 11
-43.65953111648564
 21
9.888311386108084
 31
0.0
 11
-42.29142069816592
 21
9.265689849853036
 31
0.0
 11
-40.75605845451362
 21
8.953006744385062
 31
0.0
  0
SPLINE
  5
C02D
330
1F
100
AcDbEntity
  8
AM_0
100
AcDbSpline
210
0.0
220
0.0
230
1.0
 70
     8
 71
     3
 72
    11
 73
     7
 74
     5
 42
0.0000000001
 43
0.0000000001
 44
0.0000000001
 40
0.0
 40
0.0
 40
0.0
 40
0.0
 40
1.292573467273453
 40
2.585145073136946
 40
3.877718343376063
 40
5.170291758638564
 40
5.170291758638564
 40
5.170291758638564
 40
5.170291758638564
 10
-42.08817362785342
 20
14.72874450683605
 30
0.0
 10
-42.18216540911888
 20
14.30826381976666
 30
0.0
 10
-42.37014883629408
 20
13.46730305115397
 30
0.0
 10
-42.65212072251576
 20
12.20586092013012
 30
0.0
 10
-42.93410827293075
 20
10.94442230839796
 30
0.0
 10
-43.12208954662923
 20
10.10346050768496
 30
0.0
 10
-43.21608018875123
 20
9.682979583740033
 30
0.0
 11
-42.08817362785342
 21
14.72874450683605
 31
0.0
 11
-42.37014842033391
 21
13.46730232238806
 31
0.0
 11
-42.65212321281434
 21
12.20586204528805
 31
0.0
 11
-42.93410563468934
 21
10.94442176818804
 31
0.0
 11
-43.21608018875123
 21
9.682979583740033
 31
0.0
  0
SPLINE
  5
C02E
330
1F
100
AcDbEntity
  8
AM_0
100
AcDbSpline
210
0.0
220
0.0
230
1.0
 70
     8
 71
     3
 72
    11
 73
     7
 74
     5
 42
0.0000000001
 43
0.0000000001
 44
0.0000000001
 40
0.0
 40
0.0
 40
0.0
 40
0.0
 40
0.0228400120847859
 40
0.0414504387502145
 40
0.0604680571241493
 40
0.0837577499263995
 40
0.0837577499263995
 40
0.0837577499263995
 40
0.0837577499263995
 10
-47.00540208816526
 20
-14.82083892822295
 30
0.0
 10
-47.01057699182244
 20
-14.82656764631393
 30
0.0
 10
-47.01996849416857
 20
-14.83696422042545
 30
0.0
 10
-47.02425341718757
 20
-14.85784468552072
 30
0.0
 10
-47.01634583599093
 20
-14.87759342481531
 30
0.0
 10
-47.00594154405843
 20
-14.88727268869335
 30
0.0
 10
-47.00021409988397
 20
-14.89260101318394
 30
0.0
 11
-47.00540208816526
 21
-14.82083892822295
 31
0.0
 11
-47.01896715164178
 21
-14.83921432495095
 31
0.0
 11
-47.02237749099725
 21
-14.85750961303695
 31
0.0
 11
-47.01590776443477
 21
-14.87539291381794
 31
0.0
 11
-47.00021409988397
 21
-14.89260101318394
 31
0.0
  0
SPLINE
  5
C02F
330
1F
100
AcDbEntity
  8
AM_0
100
AcDbSpline
210
0.0
220
0.0
230
1.0
 70
     8
 71
     3
 72
    11
 73
     7
 74
     5
 42
0.0000000001
 43
0.0000000001
 44
0.0000000001
 40
0.0
 40
0.0
 40
0.0
 40
0.0
 40
0.0621608574933585
 40
0.1121107924897704
 40
0.1606116589728532
 40
0.2170364492244994
 40
0.2170364492244994
 40
0.2170364492244994
 40
0.2170364492244994
 10
-47.80101108551028
 20
-14.01963424682596
 30
0.0
 10
-47.81647916362137
 20
-14.03380019615397
 30
0.0
 10
-47.84437675971733
 20
-14.05934932577632
 30
0.0
 10
-47.86207637223728
 20
-14.11304268651259
 30
0.0
 10
-47.84753744285863
 20
-14.16539070878105
 30
0.0
 10
-47.82348322030673
 20
-14.19124891668243
 30
0.0
 10
-47.81054782867427
 20
-14.20515441894492
 30
0.0
 11
-47.80101108551028
 21
-14.01963424682596
 31
0.0
 11
-47.84263706207279
 21
-14.06579971313495
 31
0.0
 11
-47.85706424713139
 21
-14.11362075805693
 31
0.0
 11
-47.84524631500237
 21
-14.16065979003894
 31
0.0
 11
-47.81054782867427
 21
-14.20515441894492
 31
0.0
  0
SPLINE
  5
C030
330
1F
100
AcDbEntity
  8
AM_0
100
AcDbSpline
210
0.0
220
0.0
230
1.0
 70
     8
 71
     3
 72
    11
 73
     7
 74
     5
 42
0.0000000001
 43
0.0000000001
 44
0.0000000001
 40
0.0
 40
0.0
 40
0.0
 40
0.0
 40
0.0099225320946863
 40
0.0191819842572491
 40
0.0278063871240674
 40
0.0357944797879706
 40
0.0357944797879706
 40
0.0357944797879706
 40
0.0357944797879706
 10
-46.97669267654418
 20
-14.79959487915094
 30
0.0
 10
-46.97952023248102
 20
-14.8013125274648
 30
0.0
 10
-46.98498639101288
 20
-14.80463304107983
 30
0.0
 10
-46.99258613633726
 20
-14.80994632164588
 30
0.0
 10
-46.99941273623156
 20
-14.81523213966529
 30
0.0
 10
-47.00345727701422
 20
-14.81901833978046
 30
0.0
 10
-47.00540208816526
 20
-14.82083892822295
 30
0.0
 11
-46.97669267654418
 21
-14.79959487915094
 31
0.0
 11
-46.98511552810668
 21
-14.80484008789094
 31
0.0
 11
-46.99271440505977
 21
-14.81013107299794
 31
0.0
 11
-46.99948930740357
 21
-14.81546783447295
 31
0.0
 11
-47.00540208816526
 21
-14.82083892822295
 31
0.0
  0
SPLINE
  5
C031
330
1F
100
AcDbEntity
  8
AM_0
100
AcDbSpline
210
0.0
220
0.0
230
1.0
 70
     8
 71
     3
 72
    11
 73
     7
 74
     5
 42
0.0000000001
 43
0.0000000001
 44
0.0000000001
 40
0.0
 40
0.0
 40
0.0
 40
0.0
 40
0.2251326284338202
 40
0.44157466007784
 40
0.6371913994781428
 40
0.792444376663555
 40
0.792444376663555
 40
0.792444376663555
 40
0.792444376663555
 10
-47.03641557693476
 20
-13.85031890869193
 30
0.0
 10
-47.11149576591253
 20
-13.85330923384564
 30
0.0
 10
-47.25875788938651
 20
-13.85917445126194
 30
0.0
 10
-47.46851790585679
 20
-13.89093888305551
 30
0.0
 10
-47.65504442736156
 20
-13.93331670036175
 30
0.0
 10
-47.75623585901621
 20
-13.99315636658696
 30
0.0
 10
-47.80101108551028
 20
-14.01963424682596
 30
0.0
 11
-47.03641557693476
 21
-13.85031890869193
 31
0.0
 11
-47.26116275787348
 21
-13.86348724365192
 31
0.0
 11
-47.4753274917603
 21
-13.89480209350593
 31
0.0
 11
-47.66391086578368
 21
-13.94678497314495
 31
0.0
 11
-47.80101108551028
 21
-14.01963424682596
 31
0.0
  0
ELLIPSE
  5
C032
330
1F
100
AcDbEntity
  8
AM_0
100
AcDbEllipse
 10
-33.62891387939449
 20
0.0000305175780813
 30
0.0
 11
13.41196493111916
 21
14.85723961700202
 31
0.0
210
0.0
220
0.0
230
1.0
 40
0.2724502189947
 41
3.15149893145825
 42
3.382897258275518
  0
ELLIPSE
  5
C033
330
1F
100
AcDbEntity
  8
AM_0
100
AcDbEllipse
 10
-34.74497270584108
 20
0.0000267028810667
 30
0.0
 11
12.99960479181977
 21
14.26687885577402
 31
0.0
210
0.0
220
0.0
230
1.0
 40
0.4251554200616
 41
3.130596890827028
 42
3.254778548238373
  0
ELLIPSE
  5
C034
330
1F
100
AcDbEntity
  8
AM_0
100
AcDbEllipse
 10
-33.62891387939449
 20
0.0000228881830953
 30
0.0
 11
13.41195755464616
 21
14.85723856725402
 31
0.0
210
0.0
220
0.0
230
1.0
 40
0.2724503207066
 41
3.382897171647476
 42
3.413008403817951
  0
ELLIPSE
  5
C035
330
1F
100
AcDbEntity
  8
AM_0
100
AcDbEllipse
 10
-41.31351542472838
 20
0.0000305175780766
 30
0.0
 11
7.738969810244328
 21
-15.26961608991797
 31
0.0
210
0.0
220
0.0
230
1.0
 40
0.124526067684
 41
2.373951806240189
 42
3.076428734958797
  0
ELLIPSE
  5
C036
330
1F
100
AcDbEntity
  8
AM_0
100
AcDbEllipse
 10
38.3906211853027
 20
0.0000267028812396
 30
0.0
 11
316.8967052558429
 21
-7.252085687827361
 31
0.0
210
0.0
220
0.0
230
1.0
 40
0.0425125718581
 41
1.829104952812628
 42
1.848635605218117
  0
ELLIPSE
  5
C037
330
1F
100
AcDbEntity
  8
AM_0
100
AcDbEllipse
 10
-45.35709476470949
 20
0.0000305175780592
 30
0.0
 11
3.008301106909269
 21
15.29929637884099
 31
0.0
210
0.0
220
0.0
230
1.0
 40
0.0486607957094
 41
5.999540525961974
 42
6.057871755805392
  0
ELLIPSE
  5
C038
330
1F
100
AcDbEntity
  8
AM_0
100
AcDbEllipse
 10
-43.42885637283334
 20
16.25169563293408
 30
0.0
 11
0.1287158310921837
 21
8.125759207022097
 31
0.0
210
0.0
220
0.0
230
1.0
 40
0.0590267485239
 41
3.936884434451975
 42
3.991356844233711
  0
ELLIPSE
  5
C039
330
1F
100
AcDbEntity
  8
AM_0
100
AcDbEllipse
 10
-41.27667284011844
 20
9.076503753662061
 30
0.0
 11
2.517646604308098
 21
0.0428980619160037
 31
0.0
210
0.0
220
0.0
230
1.0
 40
0.8976721443972998
 41
2.299096768570183
 42
2.410610859161983
  0
ELLIPSE
  5
C03A
330
1F
100
AcDbEntity
  8
AM_0
100
AcDbEllipse
 10
-41.34699296951291
 20
9.310941696167057
 30
0.0
 11
2.517646604308098
 21
0.0428980619160037
 31
0.0
210
0.0
220
0.0
230
1.0
 40
0.8976721443972998
 41
2.355940563975296
 42
2.836143742335783
  0
ELLIPSE
  5
C03B
330
1F
100
AcDbEntity
  8
AM_0
100
AcDbEllipse
 10
-45.18454790115358
 20
-15.38339614868192
 30
0.0
 11
1.688667389779294
 21
2.093181605160001
 31
0.0
210
0.0
220
0.0
230
1.0
 40
0.1023474202647
 41
0.7879566413955197
 42
1.61013517584319
  0
LINE
  5
C03D
330
1F
100
AcDbEntity
  8
AM_3
100
AcDbLine
 10
-227.0000000000002
 20
-3.000000000000307
 30
0.0
 11
-50.0000009536743
 21
-2.999999999999942
 31
0.0
  0
LINE
  5
C03E
330
1F
100
AcDbEntity
  8
AM_3
100
AcDbLine
 10
-227.0000000000003
 20
2.999998092650688
 30
0.0
 11
-50.00000095367429
 21
2.999998092651082
 31
0.0
  0
LINE
  5
C03F
330
1F
100
AcDbEntity
  8
AM_0
100
AcDbLine
 10
-227.0000000000003
 20
15.99999809265068
 30
0.0
 11
-51.21243381500232
 21
15.99999809265105
 31
0.0
  0
LINE
  5
C040
330
1F
100
AcDbEntity
  8
AM_0
100
AcDbLine
 10
-227.0000000000003
 20
-16.0000000000003
 30
0.0
 11
-51.21243381500228
 21
-15.99999999999994
 31
0.0
  0
LINE
  5
C043
330
1F
100
AcDbEntity
  8
AM_0
100
AcDbLine
 10
-50.00000095367425
 20
-15.29997253417993
 30
0.0
 11
-50.00000095367432
 21
15.30002784729006
 31
0.0
  0
LINE
  5
C046
330
1F
100
AcDbEntity
  8
AM_0
100
AcDbLine
 10
-50.00000095367425
 20
-15.29998779296891
 30
0.0
 11
-50.00000095367432
 21
15.29998588562005
 31
0.0
  0
LINE
  5
C047
330
1F
100
AcDbEntity
  8
AM_0
100
AcDbLine
 10
-51.21243381500228
 20
-15.99999999999994
 30
0.0
 11
-51.21243381500232
 21
15.99999809265105
 31
0.0
  0
LINE
  5
C04B
330
1F
100
AcDbEntity
  8
AM_0
100
AcDbLine
 10
-42.26072263717651
 20
14.64462852478005
 30
0.0
 11
-43.17678403854373
 21
10.55339813232404
 31
0.0
  0
LINE
  5
C04C
330
1F
100
AcDbEntity
  8
AM_0
100
AcDbLine
 10
-42.25847887992861
 20
14.87764549255405
 30
0.0
 11
-43.15371990203865
 21
10.87938499450706
 31
0.0
  0
LINE
  5
C04D
330
1F
100
AcDbEntity
  8
AM_0
100
AcDbLine
 10
-42.08832192420961
 20
14.72810173034705
 30
0.0
 11
-42.08947372436523
 21
14.73021888732905
 31
0.0
  0
LINE
  5
C04E
330
1F
100
AcDbEntity
  8
AM_0
100
AcDbLine
 10
-42.08947300910952
 20
14.73022079467805
 30
0.0
 11
-42.08817338943481
 21
14.72874259948705
 31
0.0
  0
LINE
  5
C04F
330
1F
100
AcDbEntity
  8
AM_0
100
AcDbLine
 10
-43.21608209609994
 20
9.682979583740033
 30
0.0
 11
-43.21774530410773
 21
9.646219253540037
 31
0.0
  0
LINE
  5
C050
330
1F
100
AcDbEntity
  8
AM_0
100
AcDbLine
 10
-50.00000095367432
 20
15.30002784729006
 30
0.0
 11
-51.21243095397932
 21
16.00002479553204
 31
0.0
  0
LINE
  5
C051
330
1F
100
AcDbEntity
  8
AM_0
100
AcDbLine
 10
-50.00000286102232
 20
15.29999351501507
 30
0.0
 11
-51.21242713928133
 21
16.00000000000004
 31
0.0
  0
LINE
  5
C052
330
1F
100
AcDbEntity
  8
AM_0
100
AcDbLine
 10
-48.9166049957275
 20
15.30002784729004
 30
0.0
 11
-48.91221046447752
 21
15.29999351501504
 31
0.0
  0
LINE
  5
C053
330
1F
100
AcDbEntity
  8
AM_0
100
AcDbLine
 10
-48.91584110260012
 20
15.30002784729004
 30
0.0
 11
-50.00000095367432
 21
15.30002784729006
 31
0.0
  0
LINE
  5
C054
330
1F
100
AcDbEntity
  8
AM_0
100
AcDbLine
 10
-50.0000009536743
 20
-2.552547454833927
 30
0.0
 11
-50.00000095367428
 21
-0.0473937988279266
 31
0.0
  0
LINE
  5
C055
330
1F
100
AcDbEntity
  8
AM_0
100
AcDbLine
 10
-50.00000095367429
 20
3.000026702881057
 30
0.0
 11
-50.0000009536743
 21
-2.999969482421931
 31
0.0
  0
LINE
  5
C056
330
1F
100
AcDbEntity
  8
AM_0
100
AcDbLine
 10
-50.00000095367428
 20
0.443183898926065
 30
0.0
 11
-50.00000095367429
 21
2.95687103271507
 31
0.0
  0
LINE
  5
C058
330
1F
100
AcDbEntity
  8
AM_0
100
AcDbLine
 10
-47.00021028518678
 20
-14.89260101318394
 30
0.0
 11
-45.9144654273987
 21
-13.82602691650394
 31
0.0
  0
LINE
  5
C059
330
1F
100
AcDbEntity
  8
AM_0
100
AcDbLine
 10
-50.00000095367425
 20
-15.29997253417993
 30
0.0
 11
-45.68600511550897
 21
-15.29997253417992
 31
0.0
  0
LINE
  5
C05A
330
1F
100
AcDbEntity
  8
AM_0
100
AcDbLine
 10
-51.21243095397927
 20
-15.99997329711894
 30
0.0
 11
-50.00000095367425
 21
-15.29997634887692
 31
0.0
  0
LINE
  5
C05B
330
1F
100
AcDbEntity
  8
AM_0
100
AcDbLine
 10
-51.21244049072227
 20
-15.99999237060592
 30
0.0
 11
-50.0000095367423
 21
-15.29998016357392
 31
0.0
  0
LINE
  5
C05C
330
1F
100
AcDbEntity
  8
AM_0
100
AcDbLine
 10
-47.81054592132567
 20
-14.20515441894492
 30
0.0
 11
-47.41552543640137
 21
-13.88402938842794
 31
0.0
  0
LINE
  5
C05D
330
1F
100
AcDbEntity
  8
AM_0
100
AcDbLine
 10
-230.0000000000002
 20
-13.6614990234383
 30
0.0
 11
-230.0000000000002
 21
13.66149711608868
 31
0.0
  0
LINE
  5
C05E
330
1F
100
AcDbEntity
  8
AM_0
100
AcDbLine
 10
-227.0000000000003
 20
-16.0000000000003
 30
0.0
 11
-227.0000000000003
 21
15.99999809265068
 31
0.0
  0
ARC
  5
C05F
330
1F
100
AcDbEntity
  8
AM_0
100
AcDbCircle
 10
-228.0000000000002
 20
13.66149711608867
 30
0.0
 40
2.000000476837199
100
AcDbArc
 50
105.000021818596
 51
180.0000050089578
  0
LINE
  5
C060
330
1F
100
AcDbEntity
  8
AM_0
100
AcDbLine
 10
-227.0000000000003
 20
15.99999999999969
 30
0.0
 11
-228.5176391601503
 21
15.59335327148365
 31
0.0
  0
LINE
  5
C062
330
1F
100
AcDbEntity
  8
AM_3
100
AcDbLine
 10
-226.9999923706003
 20
2.999998092650688
 30
0.0
 11
-230.0000000000003
 21
4.732049942015683
 31
0.0
  0
LINE
  5
C063
330
1F
100
AcDbEntity
  8
AM_3
100
AcDbLine
 10
-226.9999923706003
 20
-3.000000000000307
 30
0.0
 11
-229.9999923706003
 21
-4.732051849365298
 31
0.0
  0
ARC
  5
C064
330
1F
100
AcDbEntity
  8
AM_0
100
AcDbCircle
 10
-228.0000000000002
 20
-13.66149902343832
 30
0.0
 40
2.0
100
AcDbArc
 50
180.0000050089578
 51
254.9999781814042
  0
LINE
  5
C065
330
1F
100
AcDbEntity
  8
AM_0
100
AcDbLine
 10
-228.5176315307603
 20
-15.59335708618231
 30
0.0
 11
-226.9999847412103
 21
-16.00000381469732
 31
0.0
  0
LINE
  5
C152
330
1F
100
AcDbEntity
  8
AM_11
100
AcDbLine
 10
-39.0000000000003
 20
16.50000000000007
 30
0.0
 11
-39.00000000000025
 21
-16.49999999999992
 31
0.0
  0
DIMENSION
  5
C15A
330
1F
100
AcDbEntity
  8
AM_5
100
AcDbDimension
  2
*D2
 10
-0.0484085083013533
 20
30.50000100000016
 30
0.0
 11
-19.5242042541508
 21
33.10000100000019
 31
0.0
 70
    32
  1
<>
 71
     5
 42
-1.0
 51
359.9999999999998
  3
AM_JIS$0
100
AcDbAlignedDimension
 13
-39.00000000000032
 23
16.50000000000008
 33
0.0
 14
-0.0484085083013791
 24
16.44358825683616
 34
0.0
 50
180.0
100
AcDbRotatedDimension
1001
GENIUS_GENDTOL_13
1000

1000
h7
1000

1040
0.0
1001
ACAD
1000
DSTYLE
1002
{
1070
   287
1070
     3
1070
   147
1040
1.0
1070
    44
1040
1.0
1070
    41
1040
3.5
1070
    40
1040
1.0
1070
    42
1040
1.0
1070
    43
1040
12.0
1070
    48
1040
0.1
1070
    78
1070
     8
1070
   140
1040
3.2
1070
   176
1070
   256
1070
   177
1070
   256
1070
   271
1070
     1
1070
   272
1070
     3
1070
   275
1070
     0
1070
   284
1070
     0
1070
   289
1070
     3
1070
   340
1005
6B
1070
   371
1070
    -1
1070
   372
1070
    -1
1002
}
  0
DIMENSION
  5
C1E6
330
1F
100
AcDbEntity
  8
AM_5
100
AcDbDimension
  2
*D3
 10
16.89515023095672
 20
-16.49999999999984
 30
0.0
 11
14.29515023095672
 21
-0.0282058715818366
 31
0.0
 70
    32
  1
%%c<>
 71
     5
 42
-1.0
 51
359.9999999999998
  3
AM_JIS$0
100
AcDbAlignedDimension
 13
-0.0484085083013791
 23
16.44358825683616
 33
0.0
 14
-0.0000000000002154
 24
-16.49999999999983
 34
0.0
 50
90.0
100
AcDbRotatedDimension
1001
GENIUS_GENDTOL_13
1000

1000
h7
1000

1040
0.0
1001
ACAD
1000
DSTYLE
1002
{
1070
   287
1070
     3
1070
   147
1040
1.0
1070
    44
1040
1.0
1070
    41
1040
3.5
1070
    40
1040
1.0
1070
    42
1040
1.0
1070
    43
1040
12.0
1070
    48
1040
0.1
1070
    78
1070
     8
1070
   140
1040
3.2
1070
   176
1070
   256
1070
   177
1070
   256
1070
   271
1070
     0
1070
   272
1070
     3
1070
   275
1070
     0
1070
   284
1070
     0
1070
   289
1070
     3
1070
   340
1005
6B
1070
   371
1070
    -1
1070
   372
1070
    -1
1002
}
  0
DIMENSION
  5
C2A6
330
1F
100
AcDbEntity
  8
AM_5
100
AcDbDimension
  2
*D4
 10
-50.00000095367425
 20
-30.50000099999991
 30
0.0
 11
-25.00000047683723
 21
-27.90000099999991
 31
0.0
 70
    32
  1
<>
 71
     5
 42
-1.0
 51
359.9999999999998
  3
AM_JIS$0
100
AcDbAlignedDimension
 13
-0.0000000000002154
 23
-16.49999999999983
 33
0.0
 14
-50.00000095367425
 24
-15.29998588561997
 34
0.0
100
AcDbRotatedDimension
1001
GENIUS_GENDTOL_13
1000

1000
h7
1000

1040
0.0
1001
ACAD
1000
DSTYLE
1002
{
1070
   287
1070
     3
1070
   147
1040
1.0
1070
    44
1040
1.0
1070
    41
1040
3.5
1070
    40
1040
1.0
1070
    42
1040
1.0
1070
    43
1040
12.0
1070
    48
1040
0.1
1070
    78
1070
     8
1070
   140
1040
3.2
1070
   176
1070
   256
1070
   177
1070
   256
1070
   271
1070
     1
1070
   272
1070
     3
1070
   275
1070
     0
1070
   284
1070
     0
1070
   289
1070
     3
1070
   340
1005
6B
1070
   371
1070
    -1
1070
   372
1070
    -1
1002
}
  0
DIMENSION
  5
C343
330
1F
100
AcDbEntity
  8
AM_5
100
AcDbDimension
  2
*D5
 10
-230.0000000000002
 20
-30.50000099999991
 30
0.0
 11
-140.0000004768372
 21
-27.90000099999991
 31
0.0
 70
    32
  1
<>
 71
     5
 42
-1.0
 51
359.9999999999998
  3
AM_JIS$0
100
AcDbAlignedDimension
 13
-50.00000095367425
 23
-15.29998588561997
 33
0.0
 14
-230.0000000000002
 24
-13.66149711608932
 34
0.0
100
AcDbRotatedDimension
1001
GENIUS_GENDTOL_13
1000

1000
h7
1000

1040
0.0
1001
ACAD
1000
DSTYLE
1002
{
1070
   287
1070
     3
1070
   147
1040
1.0
1070
    44
1040
1.0
1070
    41
1040
3.5
1070
    40
1040
1.0
1070
    42
1040
1.0
1070
    43
1040
12.0
1070
    48
1040
0.1
1070
    78
1070
     8
1070
   140
1040
3.2
1070
   176
1070
   256
1070
   177
1070
   256
1070
   271
1070
     1
1070
   272
1070
     3
1070
   275
1070
     0
1070
   284
1070
     0
1070
   289
1070
     3
1070
   340
1005
6B
1070
   371
1070
    -1
1070
   372
1070
    -1
1002
}
  0
DIMENSION
  5
C3EA
330
1F
100
AcDbEntity
  8
AM_5
100
AcDbDimension
  2
*D6
 10
-230.0000004768374
 20
-40.5000009999999
 30
0.0
 11
-115.0000002384188
 21
-37.9000009999999
 31
0.0
 70
    32
  1
<>
 71
     5
 42
-1.0
 51
359.9999999999998
  3
AM_JIS$0
100
AcDbAlignedDimension
 13
-0.0000000000002083
 23
-16.49999999999983
 33
0.0
 14
-230.0000004768374
 24
-13.66149694124365
 34
0.0
100
AcDbRotatedDimension
1001
GENIUS_GENDTOL_13
1000

1000
h7
1000

1040
0.0
1001
ACAD
1000
DSTYLE
1002
{
1070
   287
1070
     3
1070
   147
1040
1.0
1070
    44
1040
1.0
1070
    41
1040
3.5
1070
    40
1040
1.0
1070
    42
1040
1.0
1070
    43
1040
12.0
1070
    48
1040
0.1
1070
    78
1070
     8
1070
   140
1040
3.2
1070
   176
1070
   256
1070
   177
1070
   256
1070
   271
1070
     1
1070
   272
1070
     3
1070
   275
1070
     0
1070
   284
1070
     0
1070
   289
1070
     3
1070
   340
1005
6B
1070
   371
1070
    -1
1070
   372
1070
    -1
1002
}
  0
DIMENSION
  5
C47F
330
1F
100
AcDbEntity
  8
AM_5
100
AcDbDimension
  2
*D7
 10
-248.6486972931945
 20
-15.99999809265133
 30
0.0
 11
-251.2486972931945
 21
0.0000028610226317
 31
0.0
 70
    32
  1
%%c<>
 71
     5
 42
-1.0
 51
359.9999999999998
  3
AM_JIS$0
100
AcDbAlignedDimension
 13
-226.9999847412103
 23
16.00000381469667
 33
0.0
 14
-227.0000000000002
 24
-15.99999809265133
 34
0.0
 50
270.0
100
AcDbRotatedDimension
1001
GENIUS_GENDTOL_13
1000

1000
h7
1000

1040
0.0
1001
ACAD
1000
DSTYLE
1002
{
1070
   287
1070
     3
1070
   147
1040
1.0
1070
    44
1040
1.0
1070
    41
1040
3.5
1070
    40
1040
1.0
1070
    42
1040
1.0
1070
    43
1040
12.0
1070
    48
1040
0.1
1070
    78
1070
     8
1070
   140
1040
3.2
1070
   176
1070
   256
1070
   177
1070
   256
1070
   271
1070
     1
1070
   272
1070
     3
1070
   275
1070
     0
1070
   284
1070
     0
1070
   289
1070
     3
1070
   340
1005
6B
1070
   371
1070
    -1
1070
   372
1070
    -1
1002
}
  0
LINE
  5
C738
330
1F
100
AcDbEntity
  8
AM_11
100
AcDbLine
 10
-0.0000000000002862
 20
16.50000000000015
 30
0.0
 11
-0.0000000000002072
 21
-16.49999999999983
 31
0.0
  0
LINE
  5
C74E
330
1F
100
AcDbEntity
  8
AM_11
100
AcDbLine
 10
-0.0000000000002856
 20
16.50000000000015
 30
0.0
 11
-39.0000000000003
 21
16.50000000000007
 31
0.0
  0
LINE
  5
C752
330
1F
100
AcDbEntity
  8
AM_11
100
AcDbLine
 10
-0.0000000000002069
 20
-16.49999999999983
 30
0.0
 11
-39.00000000000025
 21
-16.49999999999992
 31
0.0
  0
LINE
  5
C945
330
1F
100
AcDbEntity
  8
AM_0
100
AcDbLine
 10
-36.34598255157473
 20
6.75295639038106
 30
0.0
 11
-9.432683944702306
 21
5.531496047974118
 31
0.0
  0
VIEWPORT
  5
110
102
{ACAD_XDICTIONARY
360
CAB3
102
}
330
101
100
AcDbEntity
 67
     1
  8
0
100
AcDbViewport
 10
420.5
 20
297.0
 30
0.0
 40
948.9782706766916
 41
628.452
 68
     1
 69
     1
 12
420.5
 22
297.0
 13
0.0
 23
0.0
 14
10.0
 24
10.0
 15
10.0
 25
10.0
 16
0.0
 26
0.0
 36
1.0
 17
0.0
 27
0.0
 37
0.0
 42
50.0
 43
0.0
 44
0.0
 45
628.452
 50
0.0
 51
0.0
 72
   100
 90
    32800
  1

281
     0
 71
     1
 74
     0
110
-0.0000000000002682
120
0.000000000000161
130
0.0
111
1.0
121
0.000000000000002
131
0.0
112
-0.000000000000002
122
1.0
132
0.0
 79
     0
146
0.0
1001
GENIUS_GENSCREG_15
1000
PF
1040
1.0
1000
DF
1040
1.0
1000
MIN
1011
-53.98913533834582
1021
-17.226
1031
0.0
1000
MAX
1011
894.9891353383458
1021
611.226
1031
0.0
1000
FLAGS
1070
     4
1001
GENIUS_GENOBJ-N-SDF_13
1002
{
1000
OWNER
1000
GEN
1002
}
1001
GENIUS_GENODEF_13
1002
{
1000
HIER
1070
     0
1002
}
1002
{
1000
MANEDIT
1070
     0
1002
}
1002
{
1000
NOSEL
1070
     0
1002
}
1002
{
1000
BEHIND
1070
     0
1002
}
1002
{
1000
OTHER
1070
     0
1002
}
1002
{
1000
REACTOR
1002
}
  0
ENDSEC
  0
SECTION
  2
OBJECTS
  0
DICTIONARY
  5
C
330
0
100
AcDbDictionary
281
     1
  3
ACAD_COLOR
350
C9E4
  3
ACAD_GROUP
350
D
  3
ACAD_LAYOUT
350
1A
  3
ACAD_MATERIAL
350
C9E3
  3
ACAD_MLINESTYLE
350
17
  3
ACAD_PLOTSETTINGS
350
19
  3
ACAD_PLOTSTYLENAME
350
E
  3
ACAD_TABLESTYLE
350
C9E5
  3
ACDBHEADERROUNDTRIPXREC
350
CAB2
  3
ACDBVARIABLEDICTIONARY
350
34
  3
ACMDICTIONARY
350
43
  3
AMG
350
2B
  3
AMGSNAPSETTINGS
350
6E
  3
DWGPROPS
350
CAB1
  0
DICTIONARY
  5
74
330
1F
100
AcDbDictionary
280
     1
281
     1
  3
ACAD_INDEX
360
C972
  3
ACAD_LAYOUTSELFREF
360
C9A0
  0
DICTIONARY
  5
C9A5
330
101
100
AcDbDictionary
280
     1
281
     1
  3
ACAD_LAYOUTSELFREF
360
C9A6
  0
DICTIONARY
  5
CAB3
330
110
100
AcDbDictionary
280
     1
281
     1
  3
ACAD_XREC_ROUNDTRIP
360
CAB4
  0
DICTIONARY
  5
C9E4
102
{ACAD_REACTORS
330
C
102
}
330
C
100
AcDbDictionary
281
     1
  0
DICTIONARY
  5
D
102
{ACAD_REACTORS
330
C
102
}
330
C
100
AcDbDictionary
281
     1
  0
DICTIONARY
  5
1A
102
{ACAD_REACTORS
330
C
102
}
330
C
100
AcDbDictionary
281
     1
  3
Model
350
C9E7
  3
レイアウト1
350
C9E8
  0
DICTIONARY
  5
C9E3
102
{ACAD_REACTORS
330
C
102
}
330
C
100
AcDbDictionary
281
     1
  0
DICTIONARY
  5
17
102
{ACAD_REACTORS
330
C
102
}
330
C
100
AcDbDictionary
281
     1
  3
STANDARD
350
18
  0
DICTIONARY
  5
19
102
{ACAD_REACTORS
330
C
102
}
330
C
100
AcDbDictionary
281
     1
  3
ASAMI
350
399D
  0
ACDBDICTIONARYWDFLT
  5
E
102
{ACAD_REACTORS
330
C
102
}
330
C
100
AcDbDictionary
281
     1
  3
Normal
350
F
100
AcDbDictionaryWithDefault
340
F
  0
DICTIONARY
  5
C9E5
102
{ACAD_REACTORS
330
C
102
}
330
C
100
AcDbDictionary
281
     1
  3
Standard
350
C9E6
  0
DICTIONARY
  5
CAB2
102
{ACAD_REACTORS
330
C
102
}
330
C
100
AcDbDictionary
281
     1
  0
DICTIONARY
  5
34
102
{ACAD_REACTORS
330
C
102
}
330
C
100
AcDbDictionary
281
     1
  3
CTABLESTYLE
350
CAAD
  3
DIMASSOC
350
CAAE
  3
INDEXCTL
350
35
  3
PROJECTNAME
350
CAAF
  3
SORTENTS
350
B5E
  0
DICTIONARY
  5
43
102
{ACAD_REACTORS
330
C
102
}
330
C
100
AcDbDictionary
281
     1
  3
ACMSTDDICTIONARY
350
260
  0
DICTIONARY
  5
2B
102
{ACAD_REACTORS
330
C
102
}
330
C
100
AcDbDictionary
281
     1
  0
DICTIONARY
  5
6E
102
{ACAD_REACTORS
330
C
102
}
330
C
100
AcDbDictionary
281
     1
  0
XRECORD
  5
CAB1
102
{ACAD_REACTORS
330
C
102
}
330
C
100
AcDbXrecord
280
     1
  1
DWGPROPS COOKIE
  2

  3

  4

  6

  7

  8
那須
  9

300
AmdtFileType=82
301
=
302
=
303
=
304
=
305
=
306
=
307
=
308
=
309
=
 40
0.9593530671296296
 41
2452802.716478762
 42
2453691.655358252
  1

 90
        1
  0
DICTIONARY
  5
C972
102
{ACAD_REACTORS
330
74
102
}
330
74
100
AcDbDictionary
281
     1
  3
*A1
350
C973
  0
XRECORD
  5
C9A0
102
{ACAD_REACTORS
330
74
102
}
330
74
100
AcDbXrecord
280
     1
340
1F
  0
XRECORD
  5
C9A6
102
{ACAD_REACTORS
330
C9A5
102
}
330
C9A5
100
AcDbXrecord
280
     1
340
101
  0
XRECORD
  5
CAB4
102
{ACAD_REACTORS
330
CAB3
102
}
330
CAB3
100
AcDbXrecord
280
     1
102
SHADEPLOT
 70
     0
  0
LAYOUT
  5
C9E7
102
{ACAD_XDICTIONARY
360
CAB7
102
}
102
{ACAD_REACTORS
330
1A
102
}
330
1A
100
AcDbPlotSettings
  1

  2
SII LP-2150 (D-SCAN C2)
  4

  6

 40
0.0
 41
0.0
 42
0.0
 43
0.0
 44
0.0
 45
0.0
 46
0.0
 47
0.0
 48
0.0
 49
0.0
140
0.0
141
0.0
142
1.0
143
1.0
 70
  1712
 72
     0
 73
     0
 74
     0
  7
sei_cad.ctb
 75
     0
147
1.0
148
0.0
149
0.0
100
AcDbLayout
  1
Model
 70
     1
 71
     0
 10
0.0
 20
0.0
 11
12.0
 21
9.0
 12
0.0
 22
0.0
 32
0.0
 14
0.0
 24
0.0
 34
0.0
 15
0.0
 25
0.0
 35
0.0
146
0.0
 13
0.0
 23
0.0
 33
0.0
 16
1.0
 26
0.0
 36
0.0
 17
0.0
 27
1.0
 37
0.0
 76
     0
330
1F
  0
LAYOUT
  5
C9E8
102
{ACAD_XDICTIONARY
360
CAB9
102
}
102
{ACAD_REACTORS
330
1A
102
}
330
1A
100
AcDbPlotSettings
  1

  2
SII LP-2150 (D-SCAN C2)
  4

  6

 40
0.0
 41
0.0
 42
0.0
 43
0.0
 44
0.0
 45
0.0
 46
0.0
 47
0.0
 48
0.0
 49
0.0
140
0.0
141
0.0
142
1.0
143
1.0
 70
   688
 72
     0
 73
     0
 74
     5
  7
sei_cad.ctb
 75
    16
147
1.0
148
0.0
149
0.0
100
AcDbLayout
  1
レイアウト1
 70
     0
 71
     1
 10
0.0
 20
0.0
 11
841.0
 21
594.0
 12
0.0
 22
0.0
 32
0.0
 14
1.000000000000000E+20
 24
1.000000000000000E+20
 34
1.000000000000000E+20
 15
-1.000000000000000E+20
 25
-1.000000000000000E+20
 35
-1.000000000000000E+20
146
0.0
 13
0.0
 23
0.0
 33
0.0
 16
1.0
 26
0.0
 36
0.0
 17
0.0
 27
1.0
 37
0.0
 76
     0
330
101
331
110
  0
MLINESTYLE
  5
18
102
{ACAD_REACTORS
330
17
102
}
330
17
100
AcDbMlineStyle
  2
STANDARD
 70
     0
  3

 62
   256
 51
90.0
 52
90.0
 71
     2
 49
0.5
 62
   256
  6
BYLAYER
 49
-0.5
 62
   256
  6
BYLAYER
  0
PLOTSETTINGS
  5
399D
102
{ACAD_XDICTIONARY
360
CAB5
102
}
102
{ACAD_REACTORS
330
19
102
}
330
19
100
AcDbPlotSettings
  1
asami
  2
RICOH imagio MF1540
  4
A4
  6

 40
5.831416606903076
 41
7.651742935180664
 42
4.90008544921875
 43
5.789077758789062
 44
296.9683227539062
 45
209.9733276367186
 46
0.0
 47
0.0
 48
-156.6707931774246
 49
-74.57609991074048
140
58.59973180214831
141
60.61068161925597
142
1.0
143
1.095343097833084
 70
  1712
 72
     1
 73
     1
 74
     4
  7
asami.ctb
 75
     0
147
0.9129559514076438
148
156.6707931774246
149
74.57609991074048
  0
ACDBPLACEHOLDER
  5
F
102
{ACAD_REACTORS
330
E
102
}
330
E
  0
TABLESTYLE
  5
C9E6
102
{ACAD_REACTORS
330
C9E5
102
}
330
C9E5
100
AcDbTableStyle
  3
Standard
 70
     0
 71
     0
 40
1.5
 41
1.5
280
     0
281
     0
  7
STANDARD
140
4.5
170
     2
 62
     0
 63
     7
283
     0
274
    -2
284
     1
 64
     0
275
    -2
285
     1
 65
     0
276
    -2
286
     1
 66
     0
277
    -2
287
     1
 67
     0
278
    -2
288
     1
 68
     0
279
    -2
289
     1
 69
     0
  7
STANDARD
140
6.0
170
     5
 62
     0
 63
     7
283
     0
274
    -2
284
     1
 64
     0
275
    -2
285
     1
 65
     0
276
    -2
286
     1
 66
     0
277
    -2
287
     1
 67
     0
278
    -2
288
     1
 68
     0
279
    -2
289
     1
 69
     0
  7
STANDARD
140
4.5
170
     5
 62
     0
 63
     7
283
     0
274
    -2
284
     1
 64
     0
275
    -2
285
     1
 65
     0
276
    -2
286
     1
 66
     0
277
    -2
287
     1
 67
     0
278
    -2
288
     1
 68
     0
279
    -2
289
     1
 69
     0
  0
DICTIONARYVAR
  5
CAAD
102
{ACAD_REACTORS
330
34
102
}
330
34
100
DictionaryVariables
280
     0
  1
STANDARD
  0
DICTIONARYVAR
  5
CAAE
102
{ACAD_REACTORS
330
34
102
}
330
34
100
DictionaryVariables
280
     0
  1
1
  0
DICTIONARYVAR
  5
35
102
{ACAD_REACTORS
330
34
102
}
330
34
100
DictionaryVariables
280
     0
  1
1
  0
DICTIONARYVAR
  5
CAAF
102
{ACAD_REACTORS
330
34
102
}
330
34
100
DictionaryVariables
280
     0
  1

  0
DICTIONARYVAR
  5
B5E
102
{ACAD_REACTORS
330
34
102
}
330
34
100
DictionaryVariables
280
     0
  1
96
  0
DICTIONARY
  5
260
102
{ACAD_REACTORS
330
43
102
}
330
43
100
AcDbDictionary
281
     1
  0
LAYER_INDEX
  5
C973
102
{ACAD_REACTORS
330
C972
102
}
330
C972
100
AcDbIndex
 40
2453691.655358252
100
AcDbLayerIndex
  8
0
360
C974
 90
        0
  8
AM_0
360
C975
 90
      273
  8
AM_5
360
C976
 90
        6
  8
AM_7
360
C977
 90
        1
  8
AM_6
360
C978
 90
        1
  8
DEFPOINTS
360
C979
 90
        0
  8
AM_3
360
C97A
 90
       12
  8
AM_11
360
C97B
 90
        4
  0
DICTIONARY
  5
CAB7
330
C9E7
100
AcDbDictionary
280
     1
281
     1
  3
ACAD_XREC_ROUNDTRIP
360
CAB8
  0
DICTIONARY
  5
CAB9
330
C9E8
100
AcDbDictionary
280
     1
281
     1
  3
ACAD_XREC_ROUNDTRIP
360
CABA
  0
DICTIONARY
  5
CAB5
330
399D
100
AcDbDictionary
280
     1
281
     1
  3
ACAD_XREC_ROUNDTRIP
360
CAB6
  0
IDBUFFER
  5
C974
330
0
100
AcDbIdBuffer
  0
IDBUFFER
  5
C975
330
0
100
AcDbIdBuffer
330
BE1D
330
BE1E
330
BE1F
330
BE20
330
BE21
330
BE22
330
BE23
330
BE45
330
BE46
330
BE48
330
BE49
330
BE4A
330
BE4C
330
BE4D
330
BE50
330
BE51
330
BE52
330
BE53
330
BE54
330
BE55
330
BE56
330
BE57
330
BE58
330
BE59
330
BE5A
330
BE5B
330
BE5C
330
BE5D
330
BE5E
330
BE5F
330
BE60
330
BE61
330
BE62
330
BE63
330
BE69
330
BE6A
330
BE6B
330
BE6C
330
BE6D
330
BE6E
330
BE6F
330
BE70
330
BE71
330
BE84
330
BE85
330
BE86
330
BE87
330
BE88
330
BE89
330
BE96
330
BE97
330
BE98
330
BE99
330
BE9A
330
BE9B
330
BE9C
330
BE9D
330
BE9E
330
BE9F
330
BEA0
330
BEA1
330
BEA2
330
BEA3
330
BEA4
330
BEA5
330
BEA6
330
BEA7
330
BEA8
330
BEA9
330
BEAA
330
BEAB
330
BEAC
330
BEAD
330
BEAE
330
BEB6
330
BEB7
330
BEB8
330
BEB9
330
BEBA
330
BEBB
330
BEBC
330
BEBD
330
BEBE
330
BEC5
330
BEC6
330
BEC7
330
BEC8
330
BEC9
330
BECA
330
BECE
330
BECF
330
BED0
330
BED1
330
BED2
330
BED3
330
BED4
330
BED5
330
BED6
330
BED8
330
BEF5
330
BEF6
330
BEF8
330
BEF9
330
BEFA
330
BEFB
330
BEFF
330
BF00
330
BFB0
330
BFB1
330
BFB2
330
BFB3
330
BFB4
330
BFB5
330
BFB6
330
BFB8
330
BFB9
330
BFBA
330
BFBB
330
BFBC
330
BFBD
330
BFBE
330
BFBF
330
BFC0
330
BFC1
330
BFC2
330
BFC3
330
BFC4
330
BFC5
330
BFC6
330
BFC7
330
BFC8
330
BFC9
330
BFCA
330
BFCB
330
BFCC
330
BFCD
330
BFCE
330
BFCF
330
BFD0
330
BFD1
330
BFD2
330
BFD3
330
BFD4
330
BFD5
330
BFD6
330
BFD7
330
BFD8
330
BFD9
330
BFDA
330
BFDB
330
BFDE
330
BFDF
330
BFE0
330
BFE1
330
BFE2
330
BFE3
330
BFE4
330
BFE5
330
BFE6
330
BFE7
330
BFE8
330
BFE9
330
BFEA
330
BFEB
330
BFEC
330
BFED
330
BFEE
330
BFEF
330
BFF0
330
BFF1
330
BFF2
330
BFF3
330
BFF4
330
BFF5
330
BFF6
330
BFF7
330
BFF8
330
BFF9
330
BFFA
330
BFFB
330
BFFC
330
BFFD
330
BFFE
330
BFFF
330
C000
330
C001
330
C002
330
C003
330
C004
330
C005
330
C006
330
C007
330
C008
330
C009
330
C00A
330
C00B
330
C00C
330
C00D
330
C00E
330
C00F
330
C010
330
C011
330
C012
330
C013
330
C014
330
C015
330
C016
330
C017
330
C018
330
C019
330
C01A
330
C01B
330
C01C
330
C01D
330
C01E
330
C01F
330
C020
330
C021
330
C022
330
C023
330
C024
330
C025
330
C026
330
C027
330
C028
330
C029
330
C02A
330
C02B
330
C02C
330
C02D
330
C02E
330
C02F
330
C030
330
C031
330
C032
330
C033
330
C034
330
C035
330
C036
330
C037
330
C038
330
C039
330
C03A
330
C03B
330
C03F
330
C040
330
C043
330
C046
330
C047
330
C04B
330
C04C
330
C04D
330
C04E
330
C04F
330
C050
330
C051
330
C052
330
C053
330
C054
330
C055
330
C056
330
C058
330
C059
330
C05A
330
C05B
330
C05C
330
C05D
330
C05E
330
C05F
330
C060
330
C064
330
C065
330
C945
  0
IDBUFFER
  5
C976
330
0
100
AcDbIdBuffer
330
C15A
330
C1E6
330
C2A6
330
C343
330
C3EA
330
C47F
  0
IDBUFFER
  5
C977
330
0
100
AcDbIdBuffer
330
BE27
  0
IDBUFFER
  5
C978
330
0
100
AcDbIdBuffer
330
388D
  0
IDBUFFER
  5
C979
330
0
100
AcDbIdBuffer
  0
IDBUFFER
  5
C97A
330
0
100
AcDbIdBuffer
330
BE24
330
BE25
330
BED7
330
BED9
330
BEDA
330
BEDB
330
BFDC
330
BFDD
330
C03D
330
C03E
330
C062
330
C063
  0
IDBUFFER
  5
C97B
330
0
100
AcDbIdBuffer
330
C152
330
C738
330
C74E
330
C752
  0
XRECORD
  5
CAB8
102
{ACAD_REACTORS
330
CAB7
102
}
330
CAB7
100
AcDbXrecord
280
     1
102
SHADEPLOT
 70
     0
102
SHADEPLOTRESLEVEL
 70
     2
102
SHADEPLOTCUSTOMDPI
 70
   300
  0
XRECORD
  5
CABA
102
{ACAD_REACTORS
330
CAB9
102
}
330
CAB9
100
AcDbXrecord
280
     1
102
SHADEPLOT
 70
     0
102
SHADEPLOTRESLEVEL
 70
     2
102
SHADEPLOTCUSTOMDPI
 70
   300
  0
XRECORD
  5
CAB6
102
{ACAD_REACTORS
330
CAB5
102
}
330
CAB5
100
AcDbXrecord
280
     1
102
SHADEPLOT
 70
     0
102
SHADEPLOTRESLEVEL
 70
     2
102
SHADEPLOTCUSTOMDPI
 70
   300
  0
ENDSEC
  0
EOF
